0
SECTION
2
HEADER
9
$ACADVER
1
AC1015
9
$DWGCODEPAGE
3
ANSI_1252
9
$HANDSEED
5
1b2
9
$ANGBASE
50
0
9
$ANGDIR
70
0
9
$ATTMODE
70
1
9
$AUNITS
70
0
9
$AUPREC
70
0
9
$CECOLOR
62
256
9
$CELTSCALE
40
1
9
$CELTYPE
6
ByLayer
9
$CELWEIGHT
370
18
9
$CLAYER
8
0
9
$CMLJUST
70
0
9
$CMLSCALE
40
1
9
$CMLSTYLE
2
Standard
9
$DIMSTYLE
2
Standard
9
$TEXTSIZE
40
0.2
9
$TEXTSTYLE
7
Standard
9
$LUNITS
70
2
9
$LUPREC
70
4
9
$EXTNAMES
290
1
9
$INSUNITS
70
4
9
$LTSCALE
40
1
9
$LWDISPLAY
290
1
9
$PDMODE
70
0
9
$PDSIZE
40
0
9
$PLINEGEN
70
0
0
ENDSEC
0
SECTION
2
CLASSES
0
CLASS
1
RASTERVARIABLES
2
AcDbRasterVariables
3
ISM
90
0
280
0
281
0
0
ENDSEC
0
SECTION
2
TABLES
0
TABLE
2
VPORT
5
1a8
100
AcDbSymbolTable
0
VPORT
5
1
100
AcDbSymbolTableRecord
100
AcDbViewportTableRecord
2
*Active
70
0
10
0
20
0
11
1
21
1
12
-1
22
1
13
0
23
0
14
0.5
24
0.5
15
10
25
10
16
0
26
0
36
1
17
0
27
0
37
0
0
ENDTAB
0
TABLE
2
LTYPE
5
1a9
100
AcDbSymbolTable
0
LTYPE
5
14
100
AcDbSymbolTableRecord
100
AcDbLinetypeTableRecord
70
0
2
ByBlock
3

72
65
73
0
40
0
0
LTYPE
5
15
100
AcDbSymbolTableRecord
100
AcDbLinetypeTableRecord
70
0
2
ByLayer
3

72
65
73
0
40
0
0
LTYPE
5
16
100
AcDbSymbolTableRecord
100
AcDbLinetypeTableRecord
70
0
2
CONTINUOUS
3
Solid line
72
65
73
0
40
0
0
LTYPE
5
6A
100
AcDbSymbolTableRecord
100
AcDbLinetypeTableRecord
70
0
2
CENTER
3
____ _ ____ _ ____ _ ____
72
65
73
4
40
47.5
49
22
74
0
49
-8.5
74
0
49
8.5
74
0
49
-8.5
74
0
0
LTYPE
5
6B
100
AcDbSymbolTableRecord
100
AcDbLinetypeTableRecord
70
0
2
DASHED
3
__ __ __ __ __ __ __ __ __
72
65
73
2
40
25.72
49
12.86
74
0
49
-12.86
74
0
0
ENDTAB
0
TABLE
2
LAYER
5
1aa
100
AcDbSymbolTable
0
LAYER
5
10
100
AcDbSymbolTableRecord
100
AcDbLayerTableRecord
2
0
70
0
62
7
6
CONTINUOUS
290
1
370
-3
390
0
0
LAYER
5
6D
100
AcDbSymbolTableRecord
100
AcDbLayerTableRecord
2
81
70
0
62
-3
6
CONTINUOUS
290
1
370
-3
390
0
0
LAYER
5
6F
100
AcDbSymbolTableRecord
100
AcDbLayerTableRecord
2
80
70
0
62
-6
6
CONTINUOUS
290
1
370
-3
390
0
0
LAYER
5
74
100
AcDbSymbolTableRecord
100
AcDbLayerTableRecord
2
2
70
0
62
7
6
CONTINUOUS
290
1
370
-3
390
0
0
LAYER
5
78
100
AcDbSymbolTableRecord
100
AcDbLayerTableRecord
2
1
70
0
62
4
6
CONTINUOUS
290
1
370
-3
390
0
0
LAYER
5
88
100
AcDbSymbolTableRecord
100
AcDbLayerTableRecord
2
4
70
0
62
-2
6
CENTER
290
1
370
-3
390
0
0
LAYER
5
194
100
AcDbSymbolTableRecord
100
AcDbLayerTableRecord
2
SK2
70
0
62
7
6
CONTINUOUS
290
1
370
-3
390
0
0
LAYER
5
195
100
AcDbSymbolTableRecord
100
AcDbLayerTableRecord
2
SK1
70
0
62
4
6
CONTINUOUS
290
1
370
-3
390
0
0
LAYER
5
196
100
AcDbSymbolTableRecord
100
AcDbLayerTableRecord
2
SK4
70
0
62
2
6
CENTER
290
1
370
-3
390
0
0
LAYER
5
197
100
AcDbSymbolTableRecord
100
AcDbLayerTableRecord
2
SK6
70
0
62
5
6
CONTINUOUS
290
1
370
-3
390
0
0
ENDTAB
0
TABLE
2
STYLE
5
1ab
100
AcDbSymbolTable
0
STYLE
5
11
100
AcDbSymbolTableRecord
100
AcDbTextStyleTableRecord
2
Standard
3
txt
70
0
71
0
40
0
41
1
42
0
50
0
0
STYLE
5
F0
100
AcDbSymbolTableRecord
100
AcDbTextStyleTableRecord
2
iso_b_vert
3
simplex.shx
70
0
71
0
40
0
41
1
42
0
50
0
0
STYLE
5
F1
100
AcDbSymbolTableRecord
100
AcDbTextStyleTableRecord
2
DWGDirectTextStyle
3
simplex
70
0
71
0
40
0
41
1
42
0
50
0
0
ENDTAB
0
TABLE
2
DIMSTYLE
5
1ac
100
AcDbSymbolTable
100
AcDbDimStyleTable
0
DIMSTYLE
105
27
100
AcDbSymbolTableRecord
100
AcDbDimStyleTableRecord
2
Standard
70
0
3
<>
41
0.18
42
0.0625
44
0.18
140
0.18
147
0.09
73
0
74
0
77
1
271
2
275
0
278
52
280
0
340
11
0
ENDTAB
0
TABLE
2
VIEW
5
1ad
100
AcDbSymbolTable
0
ENDTAB
0
TABLE
2
UCS
5
1ae
100
AcDbSymbolTable
0
ENDTAB
0
TABLE
2
APPID
5
1af
100
AcDbSymbolTable
0
APPID
5
12
100
AcDbSymbolTableRecord
100
AcDbRegAppTableRecord
2
ACAD
70
0
0
ENDTAB
0
TABLE
2
BLOCK_RECORD
5
1b0
100
AcDbSymbolTable
0
BLOCK_RECORD
5
1F
100
AcDbSymbolTableRecord
100
AcDbBlockTableRecord
2
*Model_Space
340
0
70
0
0
BLOCK_RECORD
5
1B
100
AcDbSymbolTableRecord
100
AcDbBlockTableRecord
2
*Paper_Space
340
0
70
0
0
BLOCK_RECORD
5
23
100
AcDbSymbolTableRecord
100
AcDbBlockTableRecord
2
*Paper_Space0
340
0
70
0
0
BLOCK_RECORD
5
F3
100
AcDbSymbolTableRecord
100
AcDbBlockTableRecord
2
DimnDraft3D1
340
0
70
0
0
BLOCK_RECORD
5
FD
100
AcDbSymbolTableRecord
100
AcDbBlockTableRecord
2
DimnDraft3D2
340
0
70
0
0
BLOCK_RECORD
5
107
100
AcDbSymbolTableRecord
100
AcDbBlockTableRecord
2
DimnDraft3D3
340
0
70
0
0
BLOCK_RECORD
5
111
100
AcDbSymbolTableRecord
100
AcDbBlockTableRecord
2
DimnDraft3D4
340
0
70
0
0
BLOCK_RECORD
5
11B
100
AcDbSymbolTableRecord
100
AcDbBlockTableRecord
2
DimnDraft3D5
340
0
70
0
0
BLOCK_RECORD
5
125
100
AcDbSymbolTableRecord
100
AcDbBlockTableRecord
2
DimnDraft3D6
340
0
70
0
0
BLOCK_RECORD
5
130
100
AcDbSymbolTableRecord
100
AcDbBlockTableRecord
2
DimnDraft3D7
340
0
70
0
0
ENDTAB
0
ENDSEC
0
SECTION
2
BLOCKS
0
BLOCK
5
20
100
AcDbEntity
8
0
100
AcDbBlockBegin
2
*Model_Space
70
0
10
0
20
0
30
0
3
*Model_Space
0
ENDBLK
5
21
100
AcDbEntity
8
0
100
AcDbBlockEnd
0
BLOCK
5
1C
100
AcDbEntity
8
0
100
AcDbBlockBegin
2
*Paper_Space
70
0
10
0
20
0
30
0
3
*Paper_Space
0
ENDBLK
5
1D
100
AcDbEntity
8
0
100
AcDbBlockEnd
0
BLOCK
5
24
100
AcDbEntity
8
0
100
AcDbBlockBegin
2
*Paper_Space0
70
0
10
0
20
0
30
0
3
*Paper_Space0
0
ENDBLK
5
25
100
AcDbEntity
8
0
100
AcDbBlockEnd
0
BLOCK
5
FA
100
AcDbEntity
8
0
100
AcDbBlockBegin
2
DimnDraft3D1
70
0
10
0
20
0
30
0
3
DimnDraft3D1
0
MTEXT
5
F4
100
AcDbEntity
8
SK2
62
256
6
ByLayer
370
13
48
1
60
0
100
AcDbMText
10
22.838875
20
-11.988398
30
0
210
0
220
0
230
1
1
\W0.6713;56,10
40
3.5
41
0
44
1.084337
50
0
71
7
72
5
7
iso_b_vert
0
LINE
5
F5
100
AcDbEntity
8
SK2
62
256
6
ByLayer
370
13
48
1
60
0
100
AcDbLine
10
0
20
-1.5875
30
0
11
0
21
-14.863398
31
0
39
0
210
0
220
0
230
1
0
LINE
5
F6
100
AcDbEntity
8
SK2
62
256
6
ByLayer
370
13
48
1
60
0
100
AcDbLine
10
56.1
20
-4.2375
30
0
11
56.1
21
-14.863398
31
0
39
0
210
0
220
0
230
1
0
LINE
5
F7
100
AcDbEntity
8
SK2
62
256
6
ByLayer
370
13
48
1
60
0
100
AcDbLine
10
0
20
-12.863398
30
0
11
56.1
21
-12.863398
31
0
39
0
210
0
220
0
230
1
0
SOLID
5
F8
100
AcDbEntity
8
SK2
62
256
6
ByLayer
370
13
48
1
60
0
100
AcDbTrace
10
0
20
-12.863398
30
0
11
3.499998
21
-12.402615
31
0
12
3.500002
22
-13.324182
32
0
13
0
23
-12.863398
33
0
39
0
210
0
220
0
230
1
0
SOLID
5
F9
100
AcDbEntity
8
SK2
62
256
6
ByLayer
370
13
48
1
60
0
100
AcDbTrace
10
56.1
20
-12.863398
30
0
11
52.600002
21
-13.324182
31
0
12
52.599998
22
-12.402615
32
0
13
56.1
23
-12.863398
33
0
39
0
210
0
220
0
230
1
0
ENDBLK
5
FB
100
AcDbEntity
8
0
100
AcDbBlockEnd
0
BLOCK
5
104
100
AcDbEntity
8
0
100
AcDbBlockBegin
2
DimnDraft3D2
70
0
10
0
20
0
30
0
3
DimnDraft3D2
0
MTEXT
5
FE
100
AcDbEntity
8
SK2
62
256
6
ByLayer
370
13
48
1
60
0
100
AcDbMText
10
6.492616
20
-30.817985
30
0
210
0
220
0
230
1
1
\W0.7317;93,00
40
3.5
41
0
44
1.084337
50
0
71
7
72
5
7
iso_b_vert
0
LINE
5
FF
100
AcDbEntity
8
SK2
62
256
6
ByLayer
370
13
48
1
60
0
100
AcDbLine
10
-36
20
-4.5875
30
0
11
-36
21
-33.692985
31
0
39
0
210
0
220
0
230
1
0
LINE
5
100
100
AcDbEntity
8
SK2
62
256
6
ByLayer
370
13
48
1
60
0
100
AcDbLine
10
57
20
-1.5875
30
0
11
57
21
-33.692985
31
0
39
0
210
0
220
0
230
1
0
LINE
5
101
100
AcDbEntity
8
SK2
62
256
6
ByLayer
370
13
48
1
60
0
100
AcDbLine
10
-36
20
-31.692985
30
0
11
57
21
-31.692985
31
0
39
0
210
0
220
0
230
1
0
SOLID
5
102
100
AcDbEntity
8
SK2
62
256
6
ByLayer
370
13
48
1
60
0
100
AcDbTrace
10
-36
20
-31.692985
30
0
11
-32.500002
21
-31.232202
31
0
12
-32.499998
22
-32.153769
32
0
13
-36
23
-31.692985
33
0
39
0
210
0
220
0
230
1
0
SOLID
5
103
100
AcDbEntity
8
SK2
62
256
6
ByLayer
370
13
48
1
60
0
100
AcDbTrace
10
57
20
-31.692985
30
0
11
53.500002
21
-32.153769
31
0
12
53.499998
22
-31.232202
32
0
13
57
23
-31.692985
33
0
39
0
210
0
220
0
230
1
0
ENDBLK
5
105
100
AcDbEntity
8
0
100
AcDbBlockEnd
0
BLOCK
5
10E
100
AcDbEntity
8
0
100
AcDbBlockBegin
2
DimnDraft3D3
70
0
10
0
20
0
30
0
3
DimnDraft3D3
0
MTEXT
5
108
100
AcDbEntity
8
SK2
62
256
6
ByLayer
370
13
48
1
60
0
100
AcDbMText
10
30.717105
20
15.134119
30
0
210
0
220
0
230
1
1
\W0.7581;43,30
40
3.5
41
0
44
1.084337
50
0
71
7
72
5
7
iso_b_vert
0
LINE
5
109
100
AcDbEntity
8
SK2
62
256
6
ByLayer
370
13
48
1
60
0
100
AcDbLine
10
13.7
20
4.2375
30
0
11
13.7
21
16.259119
31
0
39
0
210
0
220
0
230
1
0
LINE
5
10A
100
AcDbEntity
8
SK2
62
256
6
ByLayer
370
13
48
1
60
0
100
AcDbLine
10
57
20
1.5875
30
0
11
57
21
16.259119
31
0
39
0
210
0
220
0
230
1
0
LINE
5
10B
100
AcDbEntity
8
SK2
62
256
6
ByLayer
370
13
48
1
60
0
100
AcDbLine
10
13.7
20
14.259119
30
0
11
57
21
14.259119
31
0
39
0
210
0
220
0
230
1
0
SOLID
5
10C
100
AcDbEntity
8
SK2
62
256
6
ByLayer
370
13
48
1
60
0
100
AcDbTrace
10
13.7
20
14.259119
30
0
11
17.199998
21
14.719903
31
0
12
17.200002
22
13.798335
32
0
13
13.7
23
14.259119
33
0
39
0
210
0
220
0
230
1
0
SOLID
5
10D
100
AcDbEntity
8
SK2
62
256
6
ByLayer
370
13
48
1
60
0
100
AcDbTrace
10
57
20
14.259119
30
0
11
53.500002
21
13.798335
31
0
12
53.499998
22
14.719903
32
0
13
57
23
14.259119
33
0
39
0
210
0
220
0
230
1
0
ENDBLK
5
10F
100
AcDbEntity
8
0
100
AcDbBlockEnd
0
BLOCK
5
118
100
AcDbEntity
8
0
100
AcDbBlockBegin
2
DimnDraft3D4
70
0
10
0
20
0
30
0
3
DimnDraft3D4
0
MTEXT
5
112
100
AcDbEntity
8
SK2
62
256
6
ByLayer
370
13
48
1
60
0
100
AcDbMText
10
63.840636
20
-14.577503
30
0
210
0
220
0
230
1
1
\W0.7150;0,90
40
3.5
41
0
44
1.084337
50
0
71
7
72
5
7
iso_b_vert
0
LINE
5
113
100
AcDbEntity
8
SK2
62
256
6
ByLayer
370
13
48
1
60
0
100
AcDbLine
10
57
20
-1.5875
30
0
11
57
21
-17.452503
31
0
39
0
210
0
220
0
230
1
0
LINE
5
114
100
AcDbEntity
8
SK2
62
256
6
ByLayer
370
13
48
1
60
0
100
AcDbLine
10
56.1
20
-4.2375
30
0
11
56.1
21
-17.452503
31
0
39
0
210
0
220
0
230
1
0
LINE
5
115
100
AcDbEntity
8
SK2
62
256
6
ByLayer
370
13
48
1
60
0
100
AcDbLine
10
47.35
20
-15.452503
30
0
11
70.997215
21
-15.452503
31
0
39
0
210
0
220
0
230
1
0
SOLID
5
116
100
AcDbEntity
8
SK2
62
256
6
ByLayer
370
13
48
1
60
0
100
AcDbTrace
10
57
20
-15.452503
30
0
11
60.499998
21
-14.991719
31
0
12
60.500002
22
-15.913287
32
0
13
57
23
-15.452503
33
0
39
0
210
0
220
0
230
1
0
SOLID
5
117
100
AcDbEntity
8
SK2
62
256
6
ByLayer
370
13
48
1
60
0
100
AcDbTrace
10
56.1
20
-15.452503
30
0
11
52.600002
21
-15.913287
31
0
12
52.599998
22
-14.991719
32
0
13
56.1
23
-15.452503
33
0
39
0
210
0
220
0
230
1
0
ENDBLK
5
119
100
AcDbEntity
8
0
100
AcDbBlockEnd
0
BLOCK
5
122
100
AcDbEntity
8
0
100
AcDbBlockBegin
2
DimnDraft3D5
70
0
10
0
20
0
30
0
3
DimnDraft3D5
0
MTEXT
5
11C
100
AcDbEntity
8
SK2
62
256
6
ByLayer
370
13
48
1
60
0
100
AcDbMText
10
3.849492
20
-20.468428
30
0
210
0
220
0
230
1
1
\W0.6713;92,10
40
3.5
41
0
44
1.084337
50
0
71
7
72
5
7
iso_b_vert
0
LINE
5
11D
100
AcDbEntity
8
SK2
62
256
6
ByLayer
370
13
48
1
60
0
100
AcDbLine
10
-36
20
-4.5875
30
0
11
-36
21
-23.343428
31
0
39
0
210
0
220
0
230
1
0
LINE
5
11E
100
AcDbEntity
8
SK2
62
256
6
ByLayer
370
13
48
1
60
0
100
AcDbLine
10
56.1
20
-4.2375
30
0
11
56.1
21
-23.343428
31
0
39
0
210
0
220
0
230
1
0
LINE
5
11F
100
AcDbEntity
8
SK2
62
256
6
ByLayer
370
13
48
1
60
0
100
AcDbLine
10
-36
20
-21.343428
30
0
11
56.1
21
-21.343428
31
0
39
0
210
0
220
0
230
1
0
SOLID
5
120
100
AcDbEntity
8
SK2
62
256
6
ByLayer
370
13
48
1
60
0
100
AcDbTrace
10
-36
20
-21.343428
30
0
11
-32.500002
21
-20.882645
31
0
12
-32.499998
22
-21.804212
32
0
13
-36
23
-21.343428
33
0
39
0
210
0
220
0
230
1
0
SOLID
5
121
100
AcDbEntity
8
SK2
62
256
6
ByLayer
370
13
48
1
60
0
100
AcDbTrace
10
56.1
20
-21.343428
30
0
11
52.600002
21
-21.804212
31
0
12
52.599998
22
-20.882645
32
0
13
56.1
23
-21.343428
33
0
39
0
210
0
220
0
230
1
0
ENDBLK
5
123
100
AcDbEntity
8
0
100
AcDbBlockEnd
0
BLOCK
5
12D
100
AcDbEntity
8
0
100
AcDbBlockBegin
2
DimnDraft3D6
70
0
10
0
20
0
30
0
3
DimnDraft3D6
0
MTEXT
5
126
100
AcDbEntity
8
SK2
62
256
6
ByLayer
370
13
48
1
60
0
100
AcDbMText
10
-46.375163
20
22.34918
30
0
210
0
220
0
230
1
1
\W0.7317;6,000
40
3.5
41
0
44
1.084337
50
90
71
7
72
5
7
iso_b_vert
0
MTEXT
5
127
100
AcDbEntity
8
SK2
62
256
6
ByLayer
370
13
48
1
60
0
100
AcDbMText
10
-46.375163
20
17.126524
30
0
210
0
220
0
230
1
1
%%c
40
3.5
41
0
44
1.084337
50
90
71
7
72
5
7
iso_b_vert
0
LINE
5
128
100
AcDbEntity
8
SK2
62
256
6
ByLayer
370
13
48
1
60
0
100
AcDbLine
10
-37.5875
20
-3
30
0
11
-46.625163
21
-3
31
0
39
0
210
0
220
0
230
1
0
LINE
5
129
100
AcDbEntity
8
SK2
62
256
6
ByLayer
370
13
48
1
60
0
100
AcDbLine
10
-37.5875
20
3
30
0
11
-46.625163
21
3
31
0
39
0
210
0
220
0
230
1
0
LINE
5
12A
100
AcDbEntity
8
SK2
62
256
6
ByLayer
370
13
48
1
60
0
100
AcDbLine
10
-44.625163
20
32.121549
30
0
11
-44.625163
21
-11.75
31
0
39
0
210
0
220
0
230
1
0
SOLID
5
12B
100
AcDbEntity
8
SK2
62
256
6
ByLayer
370
13
48
1
60
0
100
AcDbTrace
10
-44.625163
20
-3
30
0
11
-44.164379
21
-6.499998
31
0
12
-45.085946
22
-6.500002
32
0
13
-44.625163
23
-3
33
0
39
0
210
0
220
0
230
1
0
SOLID
5
12C
100
AcDbEntity
8
SK2
62
256
6
ByLayer
370
13
48
1
60
0
100
AcDbTrace
10
-44.625163
20
3
30
0
11
-45.085946
21
6.499998
31
0
12
-44.164379
22
6.500002
32
0
13
-44.625163
23
3
33
0
39
0
210
0
220
0
230
1
0
ENDBLK
5
12E
100
AcDbEntity
8
0
100
AcDbBlockEnd
0
BLOCK
5
138
100
AcDbEntity
8
0
100
AcDbBlockBegin
2
DimnDraft3D7
70
0
10
0
20
0
30
0
3
DimnDraft3D7
0
MTEXT
5
131
100
AcDbEntity
8
2
62
256
6
ByLayer
370
13
48
1
60
0
100
AcDbMText
10
67.333343
20
20.592266
30
0
210
0
220
0
230
1
1
\W0.7317;5,300
40
3.5
41
0
44
1.084337
50
90
71
7
72
5
7
iso_b_vert
0
MTEXT
5
132
100
AcDbEntity
8
2
62
256
6
ByLayer
370
13
48
1
60
0
100
AcDbMText
10
67.333343
20
15.36961
30
0
210
0
220
0
230
1
1
%%c
40
3.5
41
0
44
1.084337
50
90
71
7
72
5
7
iso_b_vert
0
LINE
5
133
100
AcDbEntity
8
2
62
256
6
ByLayer
370
13
48
1
60
0
100
AcDbLine
10
57.6875
20
-2.65
30
0
11
71.083343
21
-2.65
31
0
39
0
210
0
220
0
230
1
0
LINE
5
134
100
AcDbEntity
8
2
62
256
6
ByLayer
370
13
48
1
60
0
100
AcDbLine
10
57.6875
20
2.65
30
0
11
71.083343
21
2.65
31
0
39
0
210
0
220
0
230
1
0
LINE
5
135
100
AcDbEntity
8
2
62
256
6
ByLayer
370
13
48
1
60
0
100
AcDbLine
10
69.083343
20
30.364635
30
0
11
69.083343
21
-11.4
31
0
39
0
210
0
220
0
230
1
0
SOLID
5
136
100
AcDbEntity
8
2
62
256
6
ByLayer
370
13
48
1
60
0
100
AcDbTrace
10
69.083343
20
-2.65
30
0
11
69.544126
21
-6.149998
31
0
12
68.622559
22
-6.150002
32
0
13
69.083343
23
-2.65
33
0
39
0
210
0
220
0
230
1
0
SOLID
5
137
100
AcDbEntity
8
2
62
256
6
ByLayer
370
13
48
1
60
0
100
AcDbTrace
10
69.083343
20
2.65
30
0
11
68.622559
21
6.149998
31
0
12
69.544126
22
6.150002
32
0
13
69.083343
23
2.65
33
0
39
0
210
0
220
0
230
1
0
ENDBLK
5
139
100
AcDbEntity
8
0
100
AcDbBlockEnd
0
ENDSEC
0
SECTION
2
ENTITIES
0
ARC
5
9D
100
AcDbEntity
8
1
62
256
6
ByLayer
370
18
48
1
60
0
100
AcDbCircle
39
0
10
0
20
2.2
30
0
40
0.8
210
0
220
0
230
1
100
AcDbArc
50
49.515273
51
90
0
ARC
5
9E
100
AcDbEntity
8
1
62
256
6
ByLayer
370
18
48
1
60
0
100
AcDbCircle
39
0
10
-1.038793
20
-3.416926
30
0
40
0.8
210
0
220
0
230
-1
100
AcDbArc
50
49.515273
51
90.034377
0
ARC
5
9F
100
AcDbEntity
8
1
62
256
6
ByLayer
370
18
48
1
60
0
100
AcDbCircle
39
0
10
0
20
-2.2
30
0
40
0.8
210
0
220
0
230
1
100
AcDbArc
50
270
51
310.484727
0
ARC
5
A0
100
AcDbEntity
8
1
62
256
6
ByLayer
370
18
48
1
60
0
100
AcDbCircle
39
0
10
-1.038793
20
3.416926
30
0
40
0.8
210
0
220
0
230
-1
100
AcDbArc
50
269.965623
51
310.484727
0
ELLIPSE
5
A1
100
AcDbEntity
8
1
62
256
6
ByLayer
370
18
48
1
60
0
100
AcDbEllipse
10
57.000246
20
-0.000579
30
0
11
0.982920886714138
21
-2.64733747157658
31
0
210
0
220
0
230
-1
40
0.131755
41
-2.96418367503717
42
-2.84590331212633
0
ELLIPSE
5
A2
100
AcDbEntity
8
1
62
256
6
ByLayer
370
13
48
1
60
0
100
AcDbEllipse
10
56.421615
20
0.357582
30
0
11
0.153082081612423
21
0.258003636193771
31
0
210
0
220
0
230
1
40
0.454519
41
0.917105603404823
42
2.31336900500034
0
ELLIPSE
5
A3
100
AcDbEntity
8
1
62
256
6
ByLayer
370
18
48
1
60
0
100
AcDbEllipse
10
57.057046
20
-0.01944
30
0
11
0.13554494439755
21
-0.427068209984129
31
0
210
0
220
0
230
-1
40
0.100282
41
1.71123279688705
42
2.33653286890994
0
ELLIPSE
5
A4
100
AcDbEntity
8
1
62
256
6
ByLayer
370
13
48
1
60
0
100
AcDbEllipse
10
9.250206
20
-2.455864
30
0
11
0.0171800871008139
21
0.0985131697145537
31
0
210
0
220
0
230
1
40
0.452192
41
0.365211975528614
42
1.90660334386856
0
ELLIPSE
5
A5
100
AcDbEntity
8
1
62
256
6
ByLayer
370
18
48
1
60
0
100
AcDbEllipse
10
57.000246
20
0.000579
30
0
11
0.982920878790492
21
2.64733744808074
31
0
210
0
220
0
230
-1
40
0.131755
41
2.84590331079385
42
2.96418367423749
0
ELLIPSE
5
A6
100
AcDbEntity
8
1
62
256
6
ByLayer
370
18
48
1
60
0
100
AcDbEllipse
10
57.057046
20
0.01944
30
0
11
0.135544944349007
21
0.427068209861235
31
0
210
0
220
0
230
-1
40
0.100282
41
-2.3365328688882
42
-1.71123279670658
0
ELLIPSE
5
A7
100
AcDbEntity
8
1
62
256
6
ByLayer
370
13
48
1
60
0
100
AcDbEllipse
10
56.619317
20
1.233527
30
0
11
1.62191850745378
21
-1.11673701386659
31
0
210
0
220
0
230
-1
40
0.533762
41
1.44484622738368
42
1.69980472890717
0
ELLIPSE
5
A8
100
AcDbEntity
8
1
62
256
6
ByLayer
370
13
48
1
60
0
100
AcDbEllipse
10
56.809223
20
1.356724
30
0
11
1.68862758199178
21
-0.777184170316715
31
0
210
0
220
0
230
-1
40
0.471812
41
1.58320448613361
42
1.86381278398207
0
ELLIPSE
5
A9
100
AcDbEntity
8
1
62
256
6
ByLayer
370
18
48
1
60
0
100
AcDbEllipse
10
56.860793
20
0.097004
30
0
11
0.0727819104935871
21
0.301917195710405
31
0
210
0
220
0
230
-1
40
0.478434
41
1.68879787011858
42
2.4597611997286
0
ELLIPSE
5
AA
100
AcDbEntity
8
1
62
256
6
ByLayer
370
18
48
1
60
0
100
AcDbEllipse
10
56.463118
20
-1.356724
30
0
11
0.412748392481994
21
1.11167064274698
31
0
210
0
220
0
230
-1
40
0.131755
41
0.736518128022295
42
1.47792094998698
0
ELLIPSE
5
AB
100
AcDbEntity
8
1
62
256
6
ByLayer
370
18
48
1
60
0
100
AcDbEllipse
10
56.463118
20
1.356724
30
0
11
0.412748392460227
21
-1.11167064270234
31
0
210
0
220
0
230
-1
40
0.131755
41
-1.4779209500172
42
-0.736518128026679
0
ELLIPSE
5
AC
100
AcDbEntity
8
1
62
256
6
ByLayer
370
13
48
1
60
0
100
AcDbEllipse
10
9.178005
20
-2.46065
30
0
11
0.0321897572350112
21
-0.0946774499506142
31
0
210
0
220
0
230
1
40
0.541784
41
-2.7870102941908
42
-1.4754371447435
0
POINT
5
6C
100
AcDbEntity
8
81
62
256
6
ByLayer
370
18
48
1
60
0
100
AcDbPoint
10
57
20
0
30
0
39
0
210
0
220
0
230
1
50
360
0
POINT
5
6E
100
AcDbEntity
8
80
62
256
6
ByLayer
370
18
48
1
60
0
100
AcDbPoint
10
0
20
0
30
0
39
0
210
0
220
0
230
1
50
360
0
POINT
5
70
100
AcDbEntity
8
SK2
62
256
6
ByLayer
370
18
48
1
60
1
100
AcDbPoint
10
-36
20
-3
30
0
39
0
210
0
220
0
230
1
50
360
0
POINT
5
72
100
AcDbEntity
8
SK2
62
256
6
ByLayer
370
18
48
1
60
1
100
AcDbPoint
10
-36
20
3
30
0
39
0
210
0
220
0
230
1
50
360
0
POINT
5
73
100
AcDbEntity
8
2
62
256
6
ByLayer
370
18
48
1
60
1
100
AcDbPoint
10
56.1
20
-2.65
30
0
39
0
210
0
220
0
230
1
50
360
0
POINT
5
75
100
AcDbEntity
8
2
62
256
6
ByLayer
370
18
48
1
60
1
100
AcDbPoint
10
56.1
20
2.65
30
0
39
0
210
0
220
0
230
1
50
360
0
SPLINE
5
AD
100
AcDbEntity
8
1
62
256
6
ByLayer
370
18
48
1
60
0
100
AcDbSpline
70
4
71
3
72
20
73
16
40
0
40
0
40
0
40
0
40
0.0754604114065489
40
0.153227369657259
40
0.207697187507279
40
0.263635817552115
40
0.322956642014515
40
0.460761154235369
40
0.614161400191425
40
0.695674541918501
40
0.767551484209882
40
0.833339638070001
40
0.898543618474915
40
0.963503179207916
40
1
40
1
40
1
40
1
41
1
10
33.0430465690953
20
2.50549198076948
30
0
41
1
10
32.8921454382612
20
2.50563238946626
30
0
41
1
10
32.5857335483014
20
2.50568028089828
30
0
41
1
10
32.1703218251336
20
2.50486885046385
30
0
41
1
10
31.7940898068302
20
2.50396738829082
30
0
41
1
10
31.4546494010513
20
2.50325183815465
30
0
41
1
10
30.9485505389458
20
2.50571009061625
30
0
41
1
10
30.2475403593881
20
2.50161088752455
30
0
41
1
10
29.5021482326915
20
2.50418465808588
30
0
41
1
10
28.8886012093987
20
2.50295008093261
30
0
41
1
10
28.4502680384046
20
2.50268780910949
30
0
41
1
10
28.0445530922005
20
2.50160962050859
30
0
41
1
10
27.6526698239816
20
2.50185609659815
30
0
41
1
10
27.3193695443615
20
2.50213887498327
30
0
41
1
10
27.1164713606149
20
2.50187665366829
30
0
41
1
10
27.0434828824677
20
2.50176946369646
30
0
0
SPLINE
5
AE
100
AcDbEntity
8
1
62
256
6
ByLayer
370
18
48
1
60
0
100
AcDbSpline
70
4
71
3
72
12
73
8
40
0
40
0
40
0
40
0
40
0.187604280770864
40
0.322309628281348
40
0.466486557316518
40
0.692590227220557
40
1
40
1
40
1
40
1
41
1
10
18.8523434051751
20
-0.713818814866301
30
0
41
1
10
18.8525283623874
20
-0.713804462097357
30
0
41
1
10
18.8570485973977
20
-0.715305611802535
30
0
41
1
10
18.8789723586995
20
-0.724137031203355
30
0
41
1
10
18.9314758001325
20
-0.749155108338528
30
0
41
1
10
19.0391349042677
20
-0.803188620456382
30
0
41
1
10
19.1287541298917
20
-0.850050766948584
30
0
41
1
10
19.1856967709298
20
-0.880354368714308
30
0
0
SPLINE
5
AF
100
AcDbEntity
8
1
62
256
6
ByLayer
370
18
48
1
60
0
100
AcDbSpline
70
4
71
3
72
21
73
17
40
0
40
0
40
0
40
0
40
0.094990061389631
40
0.191252190783112
40
0.252819261824698
40
0.299646457890872
40
0.348710865872826
40
0.470221694679261
40
0.58589961244653
40
0.646948934288249
40
0.711809175954454
40
0.780966253238808
40
0.85055846326314
40
0.914698148792468
40
0.988178862170268
40
1
40
1
40
1
40
1
41
1
10
18.0657508581698
20
2.49689984606152
30
0
41
1
10
17.8751947202965
20
2.4965237927033
30
0
41
1
10
17.491489815533
20
2.49585111062612
30
0
41
1
10
16.9840007095779
20
2.49707282624289
30
0
41
1
10
16.573323167261
20
2.49570861119221
30
0
41
1
10
16.2574943234846
20
2.49562921793009
30
0
41
1
10
15.821154322566
20
2.49423474097242
30
0
41
1
10
15.2466458797845
20
2.49555290033015
30
0
41
1
10
14.6480782420668
20
2.49425550648198
30
0
41
1
10
14.1632098685961
20
2.49366653463378
30
0
41
1
10
13.7717142981084
20
2.4943853757224
30
0
41
1
10
13.363067617366
20
2.49356443136142
30
0
41
1
10
12.9558677467677
20
2.49302140470212
30
0
41
1
10
12.5399827478404
20
2.49306501447177
30
0
41
1
10
12.2400740967624
20
2.49304316301956
30
0
41
1
10
12.0688662172116
20
2.49296274945735
30
0
41
1
10
12.0451400008536
20
2.49295044514861
30
0
0
SPLINE
5
B0
100
AcDbEntity
8
1
62
256
6
ByLayer
370
18
48
1
60
0
100
AcDbSpline
70
4
71
3
72
21
73
17
40
0
40
0
40
0
40
0
40
0.0959895698466059
40
0.167850284618616
40
0.229239843766655
40
0.290413440090644
40
0.352105414900164
40
0.417924684165474
40
0.494005140639962
40
0.601095492406197
40
0.702161246141771
40
0.786086891037295
40
0.831180071568263
40
0.875485527400281
40
0.939079640666284
40
1
40
1
40
1
40
1
41
1
10
25.7598704230688
20
-2.50074408343318
30
0
41
1
10
25.9929443195234
20
-2.50077941432866
30
0
41
1
10
26.4005039952313
20
-2.50096017654744
30
0
41
1
10
26.9571302818407
20
-2.50168905639035
30
0
41
1
10
27.4292071571927
20
-2.502187390373
30
0
41
1
10
27.876601772768
20
-2.50152712196223
30
0
41
1
10
28.3347524231895
20
-2.50234237810872
30
0
41
1
10
28.8290985466009
20
-2.50290697282674
30
0
41
1
10
29.433677960853
20
-2.50430636010893
30
0
41
1
10
30.1238374356592
20
-2.50099412139653
30
0
41
1
10
30.8330409841433
20
-2.50668567898492
30
0
41
1
10
31.3917171920087
20
-2.50304529792464
30
0
41
1
10
31.8125644771607
20
-2.50405692955135
30
0
41
1
10
32.1839575248252
20
-2.50484438866434
30
0
41
1
10
32.5939104969304
20
-2.50571820668642
30
0
41
1
10
32.896221942016
20
-2.50564706708297
30
0
41
1
10
33.0441330779273
20
-2.50549920547948
30
0
0
SPLINE
5
B1
100
AcDbEntity
8
1
62
256
6
ByLayer
370
18
48
1
60
0
100
AcDbSpline
70
4
71
2
72
6
73
3
40
0
40
0
40
0
40
1
40
1
40
1
41
1
10
55.6372604438781
20
-2.51879915095205
30
0
41
1
10
55.8599810493621
20
-2.51664834938413
30
0
41
1
10
56.0827187743685
20
-2.51945654793954
30
0
0
SPLINE
5
B2
100
AcDbEntity
8
1
62
256
6
ByLayer
370
18
48
1
60
0
100
AcDbSpline
70
4
71
3
72
11
73
7
40
0
40
0
40
0
40
0
40
0.206007853087767
40
0.35022016486739
40
0.528164038719286
40
1
40
1
40
1
40
1
41
1
10
48.7860634030442
20
-0.714522655172573
30
0
41
1
10
48.7857491930289
20
-0.714183910206515
30
0
41
1
10
48.7924629721162
20
-0.716554449065796
30
0
41
1
10
48.8269096290008
20
-0.733119827944989
30
0
41
1
10
48.9311899379827
20
-0.78425442260459
30
0
41
1
10
49.0399844459427
20
-0.839948436378393
30
0
41
1
10
49.1385165383247
20
-0.891030447951437
30
0
0
SPLINE
5
B3
100
AcDbEntity
8
1
62
256
6
ByLayer
370
18
48
1
60
0
100
AcDbSpline
70
4
71
3
72
21
73
17
40
0
40
0
40
0
40
0
40
0.0669467908051383
40
0.149113503714753
40
0.209564420858911
40
0.296848887433083
40
0.37966501627667
40
0.460774546338799
40
0.54770104184215
40
0.61654697204857
40
0.692568936824242
40
0.772320162965809
40
0.850669311183791
40
0.918822124978856
40
0.992338368395703
40
1
40
1
40
1
40
1
41
1
10
47.989987729411
20
2.51370297733763
30
0
41
1
10
47.8567838117749
20
2.51342760803223
30
0
41
1
10
47.5600487219947
20
2.51290183677736
30
0
41
1
10
47.1428079864482
20
2.51135563010323
30
0
41
1
10
46.6850637717009
20
2.51200616992685
30
0
41
1
10
46.2264856722352
20
2.51285651842008
30
0
41
1
10
45.7262379472022
20
2.51400948119374
30
0
41
1
10
45.2268474086053
20
2.51013596041383
30
0
41
1
10
44.7552326428215
20
2.51176432645056
30
0
41
1
10
44.2937565120927
20
2.51276074418411
30
0
41
1
10
43.8465605065517
20
2.51056695635197
30
0
41
1
10
43.3804437398008
20
2.51116174286489
30
0
41
1
10
42.9299953321832
20
2.51162268156867
30
0
41
1
10
42.4919495671392
20
2.51040667181371
30
0
41
1
10
42.1946743360422
20
2.51019373370625
30
0
41
1
10
42.0330603515297
20
2.51018826589024
30
0
41
1
10
42.0178070104125
20
2.51018859561677
30
0
0
SPLINE
5
B4
100
AcDbEntity
8
1
62
256
6
ByLayer
370
18
48
1
60
0
100
AcDbSpline
70
4
71
3
72
12
73
8
40
0
40
0
40
0
40
0
40
0.120739186384859
40
0.254118877552556
40
0.395173317029719
40
0.627997303895363
40
1
40
1
40
1
40
1
41
1
10
33.8241647537208
20
-0.716365537767871
30
0
41
1
10
33.8243092274678
20
-0.716657790367663
30
0
41
1
10
33.828080379592
20
-0.718742824421099
30
0
41
1
10
33.8537545927346
20
-0.730389854884464
30
0
41
1
10
33.9118705877744
20
-0.757500729658261
30
0
41
1
10
34.0008663203385
20
-0.799998932060959
30
0
41
1
10
34.0753340184974
20
-0.838870182256585
30
0
41
1
10
34.1222530788538
20
-0.864346062121058
30
0
0
SPLINE
5
B5
100
AcDbEntity
8
1
62
256
6
ByLayer
370
18
48
1
60
0
100
AcDbSpline
70
4
71
3
72
20
73
16
40
0
40
0
40
0
40
0
40
0.109943743641153
40
0.185814625093223
40
0.240123735933121
40
0.297444645855163
40
0.384732591185056
40
0.46604776325767
40
0.52826262719818
40
0.600416658736011
40
0.682011522702216
40
0.741022379383341
40
0.808220674544332
40
0.903914640999047
40
1
40
1
40
1
40
1
41
1
10
10.7280573259168
20
-2.49175330892501
30
0
41
1
10
10.996893303379
20
-2.4920322028087
30
0
41
1
10
11.4514152723966
20
-2.49243945511799
30
0
41
1
10
12.0396201209639
20
-2.49295292791069
30
0
41
1
10
12.4984808249878
20
-2.49310686806206
30
0
41
1
10
12.9856159056663
20
-2.49290399559891
30
0
41
1
10
13.5388084690439
20
-2.49437163367571
30
0
41
1
10
14.1040117878679
20
-2.49366005138984
30
0
41
1
10
14.6321481229218
20
-2.49425483738281
30
0
41
1
10
15.1609725245698
20
-2.49558891898494
30
0
41
1
10
15.6819476980189
20
-2.49404157815584
30
0
41
1
10
16.190787505853
20
-2.49549019786056
30
0
41
1
10
16.7341466399756
20
-2.49629778449207
30
0
41
1
10
17.3682963236051
20
-2.49642263302314
30
0
41
1
10
17.8378823983283
20
-2.49681212380961
30
0
41
1
10
18.0731523294523
20
-2.496997440771
30
0
0
SPLINE
5
B6
100
AcDbEntity
8
1
62
256
6
ByLayer
370
18
48
1
60
0
100
AcDbSpline
70
4
71
3
72
21
73
17
40
0
40
0
40
0
40
0
40
0.106345000945686
40
0.183277140450607
40
0.232199483769436
40
0.275396982209955
40
0.32089932568375
40
0.411814948822507
40
0.498005372616085
40
0.593576774410295
40
0.69805210028269
40
0.739673562741443
40
0.784084361193864
40
0.846150344650259
40
0.927803738896464
40
1
40
1
40
1
40
1
41
1
10
40.6880834612977
20
-2.50981679480248
30
0
41
1
10
40.9469276428627
20
-2.51004488040471
30
0
41
1
10
41.3931339784476
20
-2.51032654329367
30
0
41
1
10
41.9593345509549
20
-2.50996292008986
30
0
41
1
10
42.3708996779157
20
-2.51014488699545
30
0
41
1
10
42.7060826728612
20
-2.51114951540117
30
0
41
1
10
43.1438607320159
20
-2.51163121367526
30
0
41
1
10
43.6863605075199
20
-2.51007487149175
30
0
41
1
10
44.35090600152
20
-2.51344549421683
30
0
41
1
10
45.0484917914148
20
-2.50966110827969
30
0
41
1
10
45.6374562105059
20
-2.51361863683039
30
0
41
1
10
46.1017394677754
20
-2.51308272958022
30
0
41
1
10
46.4626692503817
20
-2.51255158392399
30
0
41
1
10
46.9211257890639
20
-2.51145904949266
30
0
41
1
10
47.4473508520402
20
-2.51243416873763
30
0
41
1
10
47.822269036945
20
-2.51319817888302
30
0
41
1
10
47.9982024992156
20
-2.51369646985745
30
0
0
SPLINE
5
B7
100
AcDbEntity
8
1
62
256
6
ByLayer
370
18
48
1
60
0
100
AcDbSpline
70
4
71
3
72
12
73
8
40
0
40
0
40
0
40
0
40
0.249999999999984
40
0.249999999999984
40
0.499999999999969
40
0.499999999999969
40
1
40
1
40
1
40
1
41
1
10
9.03060314431866
20
0.891043365126762
30
0
41
1
10
9.04186118639936
20
0.885821846617773
30
0
41
1
10
9.05637246686447
20
0.878872453673097
30
0
41
1
10
9.08943777569428
20
0.862425327189527
30
0
41
1
10
9.1083519852084
20
0.852742251586363
30
0
41
1
10
9.16737957566289
20
0.821532382345083
30
0
41
1
10
9.21018699033567
20
0.797589895821091
30
0
41
1
10
9.25075294420435
20
0.773766654527435
30
0
0
SPLINE
5
B8
100
AcDbEntity
8
1
62
256
6
ByLayer
370
18
48
1
60
0
100
AcDbSpline
70
4
71
3
72
18
73
14
40
0
40
0
40
0
40
0
40
0.250000000000003
40
0.250000000000003
40
0.374999999999999
40
0.374999999999999
40
0.499999999999995
40
0.499999999999995
40
0.749999999999998
40
0.749999999999998
40
0.874999999999999
40
0.874999999999999
40
1
40
1
40
1
40
1
41
1
10
56.6472348130874
20
1.3077733469394
30
0
41
1
10
56.6077834857532
20
1.41453787887784
30
0
41
1
10
56.5680969531527
20
1.52123740261439
30
0
41
1
10
56.5080272567286
20
1.68068171191689
30
0
41
1
10
56.4879035934284
20
1.7336712719339
30
0
41
1
10
56.4476252420231
20
1.83960141545205
30
0
41
1
10
56.427480684898
20
1.89255799196604
30
0
41
1
10
56.3668867349506
20
2.05117470183387
30
0
41
1
10
56.3262242124535
20
2.15687724520052
30
0
41
1
10
56.2646880386366
20
2.31261495385416
30
0
41
1
10
56.2441363927931
20
2.36432579874293
30
0
41
1
10
56.2029808082963
20
2.46748102457118
30
0
41
1
10
56.1823603449669
20
2.51884120214731
30
0
41
1
10
56.1616230149213
20
2.56960587210239
30
0
0
SPLINE
5
B9
100
AcDbEntity
8
1
62
256
6
ByLayer
370
18
48
1
60
0
100
AcDbSpline
70
4
71
3
72
29
73
25
40
0
40
0
40
0
40
0
40
0.0625
40
0.0625
40
0.125
40
0.125
40
0.25
40
0.25
40
0.375
40
0.375
40
0.5
40
0.5
40
0.5625
40
0.5625
40
0.625
40
0.6875
40
0.6875
40
0.75
40
0.75
40
0.875
40
0.875
40
0.9375
40
0.9375
40
1
40
1
40
1
40
1
41
1
10
9.0303307456017
20
-2.45265150805307
30
0
41
1
10
9.03034143024618
20
-2.42245766096229
30
0
41
1
10
9.03035065095847
20
-2.38843250687597
30
0
41
1
10
9.03036668649449
20
-2.31271469588884
30
0
41
1
10
9.0303735085387
20
-2.27087483770151
30
0
41
1
10
9.03039087794937
20
-2.13595865741698
30
0
41
1
10
9.03039849956642
20
-2.03307832071889
30
0
41
1
10
9.0304104302744
20
-1.80172791902351
30
0
41
1
10
9.03041475376358
20
-1.67205727324929
30
0
41
1
10
9.03042379304364
20
-1.39729588313469
30
0
41
1
10
9.03042856435573
20
-1.25123950531079
30
0
41
1
10
9.03043842982231
20
-1.01889115262568
30
0
41
1
10
9.0304421773204
20
-0.939032922532277
30
0
41
1
10
9.03045065534366
20
-0.778292315148292
30
0
41
1
10
9.03046014638448
20
-0.615708690234953
30
0
41
1
10
9.03047190586622
20
-0.449504407957022
30
0
41
1
10
9.03048484228572
20
-0.281471062535985
30
0
41
1
10
9.03049192605289
20
-0.196240670360225
30
0
41
1
10
9.03051470750256
20
0.0602895610292364
30
0
41
1
10
9.03053168502333
20
0.229402439609487
30
0
41
1
10
9.03055831364827
20
0.480307741547449
30
0
41
1
10
9.0305673746895
20
0.563478865971859
30
0
41
1
10
9.03058548541543
20
0.728869323698348
30
0
41
1
10
9.03059453395207
20
0.811094143550918
30
0
41
1
10
9.0306031443186
20
0.891043365126762
30
0
0
SPLINE
5
BA
100
AcDbEntity
8
1
62
256
6
ByLayer
370
18
48
1
60
0
100
AcDbSpline
70
4
71
3
72
16
73
12
40
0
40
0
40
0
40
0
40
0.249999999999979
40
0.249999999999979
40
0.499999999999958
40
0.499999999999958
40
0.624999999999948
40
0.624999999999948
40
0.749999999999938
40
0.749999999999938
40
1
40
1
40
1
40
1
41
1
10
55.8195376267204
20
0.518672366735018
30
0
41
1
10
55.8136689725459
20
0.547644858519647
30
0
41
1
10
55.8114844119931
20
0.577324043087913
30
0
41
1
10
55.8151349418778
20
0.638472361477596
30
0
41
1
10
55.8209866365672
20
0.669435078221568
30
0
41
1
10
55.8375690442184
20
0.714178905489092
30
0
41
1
10
55.8441800497169
20
0.729002013615656
30
0
41
1
10
55.8619021489807
20
0.755701216391628
30
0
41
1
10
55.8725277979933
20
0.767493091416441
30
0
41
1
10
55.9095626889557
20
0.798315579080253
30
0
41
1
10
55.9393911229869
20
0.811203941345894
30
0
41
1
10
55.9704224700208
20
0.818451383169446
30
0
0
SPLINE
5
BB
100
AcDbEntity
8
1
62
256
6
ByLayer
370
13
48
1
60
0
100
AcDbSpline
70
4
71
3
72
28
73
24
40
0
40
0
40
0
40
0
40
0.125
40
0.125
40
0.187499999999999
40
0.187499999999999
40
0.249999999999999
40
0.249999999999999
40
0.374999999999999
40
0.374999999999999
40
0.437499999999999
40
0.437499999999999
40
0.499999999999999
40
0.499999999999999
40
0.624999999999999
40
0.624999999999999
40
0.687499999999999
40
0.687499999999999
40
0.749999999999999
40
0.749999999999999
40
0.875
40
0.875
40
1
40
1
40
1
40
1
41
1
10
9.25034311440385
20
-2.36107360791053
30
0
41
1
10
9.2503750796462
20
-2.30902364401118
30
0
41
1
10
9.25039730511503
20
-2.24249143688152
30
0
41
1
10
9.25042164593847
20
-2.12128010034741
30
0
41
1
10
9.25042826097214
20
-2.07709463496954
30
0
41
1
10
9.25043918248673
20
-1.98309002910258
30
0
41
1
10
9.25044352871475
20
-1.93313905314764
30
0
41
1
10
9.25045466042343
20
-1.77462043299033
30
0
41
1
10
9.250459569996
20
-1.65731715198723
30
0
41
1
10
9.25046811379971
20
-1.4638481287374
30
0
41
1
10
9.25047112248311
20
-1.39714869595789
30
0
41
1
10
9.25047815074353
20
-1.25936863663048
30
0
41
1
10
9.25048219154314
20
-1.18798105373958
30
0
41
1
10
9.25049649903201
20
-0.969988913800591
30
0
41
1
10
9.25050899841324
20
-0.819503936284235
30
0
41
1
10
9.25053383293033
20
-0.58620601263604
30
0
41
1
10
9.25054310940749
20
-0.507169427458479
30
0
41
1
10
9.25056374942454
20
-0.346472013159911
30
0
41
1
10
9.25057509253446
20
-0.265055835718982
30
0
41
1
10
9.25061125649322
20
-0.0223047664761964
30
0
41
1
10
9.25063841407655
20
0.138776317372816
30
0
41
1
10
9.25069542938877
20
0.459453938136079
30
0
41
1
10
9.25072552036431
20
0.62027399953584
30
0
41
1
10
9.25075294420031
20
0.773766654333542
30
0
0
SPLINE
5
BC
100
AcDbEntity
8
1
62
256
6
ByLayer
370
18
48
1
60
0
100
AcDbSpline
70
4
71
3
72
14
73
10
40
0
40
0
40
0
40
0
40
0.25
40
0.25
40
0.5
40
0.5
40
0.75
40
0.75
40
1
40
1
40
1
40
1
41
1
10
9.25075294453333
20
0.773766654334224
30
0
41
1
10
9.42023945504582
20
0.674232003948589
30
0
41
1
10
9.59098748445223
20
0.5751131198721
30
0
41
1
10
9.93479620868536
20
0.377737601489059
30
0
41
1
10
10.1080966879605
20
0.279357168636665
30
0
41
1
10
10.4560774023109
20
0.084610930141821
30
0
41
1
10
10.6304148062311
20
-0.0115473619061675
30
0
41
1
10
10.9802261874234
20
-0.200769819823989
30
0
41
1
10
11.1556808792419
20
-0.293914803688949
30
0
41
1
10
11.3320131685741
20
-0.384911886356264
30
0
0
SPLINE
5
BD
100
AcDbEntity
8
1
62
256
6
ByLayer
370
18
48
1
60
0
100
AcDbSpline
70
4
71
3
72
82
73
78
40
0
40
0
40
0
40
0
40
0.0110449936902567
40
0.0110449936902567
40
0.0284115325251931
40
0.0284115325251931
40
0.0631446101950659
40
0.0631446101950659
40
0.0805111490300027
40
0.0805111490300027
40
0.0978776878649395
40
0.0978776878649395
40
0.132610765534812
40
0.132610765534812
40
0.149977304369749
40
0.149977304369749
40
0.167343843204685
40
0.167343843204685
40
0.202076920874557
40
0.202076920874557
40
0.219443459709493
40
0.219443459709493
40
0.236809998544429
40
0.236809998544429
40
0.271543076214301
40
0.271543076214301
40
0.306276153884173
40
0.306276153884173
40
0.341009231554045
40
0.341009231554045
40
0.375742309223916
40
0.375742309223916
40
0.410475386893788
40
0.410475386893788
40
0.44520846456366
40
0.44520846456366
40
0.479941542233532
40
0.479941542233532
40
0.514674619903404
40
0.514674619903404
40
0.549407697573276
40
0.549407697573276
40
0.584140775243148
40
0.584140775243148
40
0.618873852913019
40
0.618873852913019
40
0.636240391747955
40
0.636240391747955
40
0.653606930582891
40
0.653606930582891
40
0.688340008252763
40
0.688340008252763
40
0.705706547087699
40
0.705706547087699
40
0.723073085922635
40
0.723073085922635
40
0.757806163592507
40
0.757806163592507
40
0.775172702427444
40
0.775172702427444
40
0.792539241262381
40
0.792539241262381
40
0.827272318932255
40
0.827272318932255
40
0.844638857767192
40
0.844638857767192
40
0.862005396602128
40
0.862005396602128
40
0.896738474272002
40
0.896738474272002
40
0.914105013106939
40
0.914105013106939
40
0.931471551941875
40
0.931471551941875
40
0.966204629611749
40
0.966204629611749
40
1
40
1
40
1
40
1
41
1
10
21.3964844878508
20
1.89527701942643
30
0
41
1
10
21.4647932776494
20
1.92167714770358
30
0
41
1
10
21.5330676597348
20
1.94751572346882
30
0
41
1
10
21.7089842685346
20
2.01206293105713
30
0
41
1
10
21.8167325005645
20
2.04976731055135
30
0
41
1
10
22.1403266085488
20
2.1580758434358
30
0
41
1
10
22.3569555734626
20
2.22395860970556
30
0
41
1
10
22.6801374044611
20
2.31296252590397
30
0
41
1
10
22.7874877302162
20
2.34106878043536
30
0
41
1
10
23.0025194744225
20
2.39322849393832
30
0
41
1
10
23.1102121375983
20
2.41729815463557
30
0
41
1
10
23.433480737879
20
2.48387178166675
30
0
41
1
10
23.6492942272857
20
2.52074861552626
30
0
41
1
10
23.9728418058937
20
2.56488191894019
30
0
41
1
10
24.0805491326218
20
2.57774056209232
30
0
41
1
10
24.2958257196423
20
2.59926064481087
30
0
41
1
10
24.4035895387474
20
2.60792958448502
30
0
41
1
10
24.7269251090521
20
2.62794348981811
30
0
41
1
10
24.9425721571587
20
2.63333157820622
30
0
41
1
10
25.2655538121869
20
2.62935510073518
30
0
41
1
10
25.3730270080029
20
2.62598427285329
30
0
41
1
10
25.5883554264438
20
2.6151395965106
30
0
41
1
10
25.6963999471737
20
2.60770509376462
30
0
41
1
10
26.0201822092605
20
2.57958049902325
30
0
41
1
10
26.2359244162645
20
2.55309406452886
30
0
41
1
10
26.6663570267764
20
2.48424617751155
30
0
41
1
10
26.8807792084829
20
2.44153205425181
30
0
41
1
10
27.312548063241
20
2.34246376865661
30
0
41
1
10
27.5289829262821
20
2.2858788924035
30
0
41
1
10
27.9596932217058
20
2.15850744031889
30
0
41
1
10
28.1739277592289
20
2.08708088728264
30
0
41
1
10
28.6048365576736
20
1.93385078951641
30
0
41
1
10
28.8212907680332
20
1.85139332125746
30
0
41
1
10
29.2528020287496
20
1.67462750761658
30
0
41
1
10
29.4671428761903
20
1.57964976013633
30
0
41
1
10
29.8977072948221
20
1.38332787024137
30
0
41
1
10
30.1134250728617
20
1.28135101406414
30
0
41
1
10
30.5448953526236
20
1.06839992139953
30
0
41
1
10
30.7599918000823
20
0.956474929233849
30
0
41
1
10
31.1907047016499
20
0.731097975329249
30
0
41
1
10
31.4063042184025
20
0.616826673688394
30
0
41
1
10
31.8371245302474
20
0.383622458393063
30
0
41
1
10
32.0520789448654
20
0.26342618585079
30
0
41
1
10
32.4834690209653
20
0.025132088793157
30
0
41
1
10
32.6992087944559
20
-0.0931990634300348
30
0
41
1
10
33.0222154830652
20
-0.270709916425204
30
0
41
1
10
33.1297880623049
20
-0.329873770124948
30
0
41
1
10
33.3446157690162
20
-0.448403736944272
30
0
41
1
10
33.4519556383372
20
-0.507615336271272
30
0
41
1
10
33.7751585380109
20
-0.682574788411841
30
0
41
1
10
33.991680997386
20
-0.796651271084158
30
0
41
1
10
34.3149683312753
20
-0.963979478896675
30
0
41
1
10
34.4225875915118
20
-1.01915772232476
30
0
41
1
10
34.6374013731962
20
-1.12851343293627
30
0
41
1
10
34.7446022505
20
-1.18266975814692
30
0
41
1
10
35.0672151395756
20
-1.34093356563653
30
0
41
1
10
35.2833713393017
20
-1.44182214158525
30
0
41
1
10
35.6073064753252
20
-1.58691301348324
30
0
41
1
10
35.7150893870144
20
-1.63414527079175
30
0
41
1
10
35.9301325589336
20
-1.7264880477766
30
0
41
1
10
36.037333929776
20
-1.77166265613866
30
0
41
1
10
36.3597130393667
20
-1.90185540089084
30
0
41
1
10
36.5753019667292
20
-1.9821391164306
30
0
41
1
10
36.8988726982137
20
-2.09394244803843
30
0
41
1
10
37.0068555984859
20
-2.12977351364506
30
0
41
1
10
37.2223969400729
20
-2.19843265901682
30
0
41
1
10
37.3297615141195
20
-2.2313110806719
30
0
41
1
10
37.6522983658434
20
-2.32395457903738
30
0
41
1
10
37.8678133145432
20
-2.3779732137196
30
0
41
1
10
38.1909480882987
20
-2.44840231014652
30
0
41
1
10
38.2986509887332
20
-2.47008727420197
30
0
41
1
10
38.5139269211655
20
-2.50986553024274
30
0
41
1
10
38.6214587811431
20
-2.52801392091038
30
0
41
1
10
38.9445256915253
20
-2.57624577343421
30
0
41
1
10
39.1602136723623
20
-2.60007189562867
30
0
41
1
10
39.5851828775555
20
-2.63170305963971
30
0
41
1
10
39.7942141542863
20
-2.63988583605709
30
0
41
1
10
40.0033542514174
20
-2.64029720096008
30
0
0
SPLINE
5
BE
100
AcDbEntity
8
1
62
256
6
ByLayer
370
18
48
1
60
0
100
AcDbSpline
70
4
71
3
72
26
73
22
40
0
40
0
40
0
40
0
40
0.0593933883039939
40
0.0593933883039939
40
0.126579574853709
40
0.126579574853709
40
0.193765761403424
40
0.193765761403424
40
0.328138134502854
40
0.328138134502854
40
0.395324321052566
40
0.395324321052566
40
0.462510507602278
40
0.462510507602278
40
0.596882880701708
40
0.596882880701708
40
0.731255253801139
40
0.731255253801139
40
0.865627626900569
40
0.865627626900569
40
1
40
1
40
1
40
1
41
1
10
51.3599454492909
20
1.9164933935358
30
0
41
1
10
51.4551506045952
20
1.95285261111451
30
0
41
1
10
51.5503622808708
20
1.98816421880153
30
0
41
1
10
51.7532150619737
20
2.06125605674001
30
0
41
1
10
51.8607021297277
20
2.09882631412688
30
0
41
1
10
52.0757079341021
20
2.17003341048473
30
0
41
1
10
52.1833291751646
20
2.20372076084052
30
0
41
1
10
52.5062075669251
20
2.29953567271573
30
0
41
1
10
52.7215284111734
20
2.3564053521298
30
0
41
1
10
53.0439871032944
20
2.43154421023888
30
0
41
1
10
53.1512761829888
20
2.45494928674523
30
0
41
1
10
53.3663887137179
20
2.49776305341925
30
0
41
1
10
53.4742956785746
20
2.51712212481203
30
0
41
1
10
53.797595529856
20
2.5692253184267
30
0
41
1
10
54.0129921402084
20
2.59610274468338
30
0
41
1
10
54.4426876692378
20
2.6343455555519
30
0
41
1
10
54.6568485983641
20
2.64554278781921
30
0
41
1
10
55.088129897634
20
2.65143625178769
30
0
41
1
10
55.3040901681836
20
2.64633436616867
30
0
41
1
10
55.7335127251481
20
2.6200320338117
30
0
41
1
10
55.9470304656041
20
2.59856516032792
30
0
41
1
10
56.1616230149085
20
2.56960587210415
30
0
0
SPLINE
5
BF
100
AcDbEntity
8
1
62
256
6
ByLayer
370
18
48
1
60
0
100
AcDbSpline
70
4
71
3
72
20
73
16
40
0
40
0
40
0
40
0
40
0.124999999999999
40
0.124999999999999
40
0.249999999999998
40
0.249999999999998
40
0.499999999999997
40
0.499999999999997
40
0.624999999999998
40
0.624999999999998
40
0.749999999999998
40
0.749999999999998
40
0.874999999999999
40
0.874999999999999
40
1
40
1
40
1
40
1
41
1
10
56.0831745571062
20
-2.51895720193553
30
0
41
1
10
56.0455985094392
20
-2.51892919921184
30
0
41
1
10
56.0098897084088
20
-2.51330355642304
30
0
41
1
10
55.9423919602791
20
-2.4903013157286
30
0
41
1
10
55.9104150215065
20
-2.47276526120225
30
0
41
1
10
55.8223169992744
20
-2.40204204233493
30
0
41
1
10
55.7745062467377
20
-2.33193544442125
30
0
41
1
10
55.7200799507408
20
-2.19043027355724
30
0
41
1
10
55.7047681959526
20
-2.13659275701866
30
0
41
1
10
55.6811292168297
20
-2.01887743849557
30
0
41
1
10
55.6727073212495
20
-1.95504009476281
30
0
41
1
10
55.6625902025426
20
-1.81750645812684
30
0
41
1
10
55.6608943023388
20
-1.74381115758211
30
0
41
1
10
55.6644749178009
20
-1.58620143342304
30
0
41
1
10
55.6697941235709
20
-1.50267567137166
30
0
41
1
10
55.6784556981377
20
-1.41638957329951
30
0
0
SPLINE
5
C0
100
AcDbEntity
8
1
62
256
6
ByLayer
370
18
48
1
60
0
100
AcDbSpline
70
4
71
3
72
12
73
8
40
0
40
0
40
0
40
0
40
0.275786562328959
40
0.275786562328959
40
0.551573124657919
40
0.551573124657919
40
1
40
1
40
1
40
1
41
1
10
9.20248578989009
20
-2.48099259911811
30
0
41
1
10
9.44887194040894
20
-2.51955948212691
30
0
41
1
10
9.69487608950598
20
-2.54799526252182
30
0
41
1
10
10.1871326202206
20
-2.58433924512818
30
0
41
1
10
10.4340463815756
20
-2.59222443489898
30
0
41
1
10
11.0783000268338
20
-2.58576644022102
30
0
41
1
10
11.4741807835078
20
-2.55459863136252
30
0
41
1
10
11.8696619167956
20
-2.49762957414674
30
0
0
SPLINE
5
C1
100
AcDbEntity
8
1
62
256
6
ByLayer
370
18
48
1
60
0
100
AcDbSpline
70
4
71
3
72
22
73
18
40
0
40
0
40
0
40
0
40
0.0745333935986578
40
0.0745333935986578
40
0.172861389302954
40
0.172861389302954
40
0.271189385007252
40
0.271189385007252
40
0.467845376415849
40
0.467845376415849
40
0.56617337212015
40
0.56617337212015
40
0.664501367824451
40
0.664501367824451
40
0.861157359233057
40
0.861157359233057
40
1
40
1
40
1
40
1
41
1
10
29.1902326881217
20
1.87862805680342
30
0
41
1
10
29.3744785925945
20
1.80911869092279
30
0
41
1
10
29.5588552969077
20
1.73531185455951
30
0
41
1
10
29.9873745764929
20
1.55489632333374
30
0
41
1
10
30.2318942053696
20
1.44555173988641
30
0
41
1
10
30.7238907634778
20
1.21492003399359
30
0
41
1
10
30.9700585530214
20
1.09405467284793
30
0
41
1
10
31.7057347805757
20
0.720992881010176
30
0
41
1
10
32.195363598838
20
0.457440555532031
30
0
41
1
10
32.9340865054109
20
0.0548083643001007
30
0
41
1
10
33.1796890749026
20
-0.0799375910544597
30
0
41
1
10
33.6711623243012
20
-0.34767733561128
30
0
41
1
10
33.9175668361512
20
-0.480999354973278
30
0
41
1
10
34.6550297424287
20
-0.873039743356941
30
0
41
1
10
35.1412277930041
20
-1.12141009325808
30
0
41
1
10
35.9696906879191
20
-1.50979499366454
30
0
41
1
10
36.3125818085537
20
-1.65970521449208
30
0
41
1
10
36.6570483976309
20
-1.79631353091906
30
0
0
SPLINE
5
C2
100
AcDbEntity
8
1
62
256
6
ByLayer
370
13
48
1
60
0
100
AcDbSpline
70
4
71
3
72
20
73
16
40
0
40
0
40
0
40
0
40
0.083672548305438
40
0.083672548305438
40
0.225981442004578
40
0.225981442004578
40
0.368290335703718
40
0.368290335703718
40
0.510599229402858
40
0.510599229402858
40
0.652908123101997
40
0.652908123101997
40
0.937525910500271
40
0.937525910500271
40
1
40
1
40
1
40
1
41
1
10
36.6570483976576
20
-1.79631353092967
30
0
41
1
10
36.8004824866912
20
-1.85319652057902
30
0
41
1
10
36.9441897377088
20
-1.90777316470164
30
0
41
1
10
37.3333490033851
20
-2.04845976504788
30
0
41
1
10
37.5801267911756
20
-2.12966557436974
30
0
41
1
10
38.0713989394452
20
-2.27370102761844
30
0
41
1
10
38.3165956724274
20
-2.3368907190187
30
0
41
1
10
38.8075972263125
20
-2.44444935375498
30
0
41
1
10
39.0542073694454
20
-2.48886276499502
30
0
41
1
10
39.5448946853573
20
-2.55692381031397
30
0
41
1
10
39.7889074264658
20
-2.58072641772955
30
0
41
1
10
40.5188898343186
20
-2.62176384430669
30
0
41
1
10
41.0031546753458
20
-2.6084270534482
30
0
41
1
10
41.5968873271723
20
-2.54274210616958
30
0
41
1
10
41.7038700761361
20
-2.52897635955941
30
0
41
1
10
41.8110262506925
20
-2.51327770432008
30
0
0
SPLINE
5
C3
100
AcDbEntity
8
1
62
256
6
ByLayer
370
18
48
1
60
0
100
AcDbSpline
70
4
71
3
72
8
73
4
40
0
40
0
40
0
40
0
40
1
40
1
40
1
40
1
41
1
10
9.12951353488268
20
-2.50012276795766
30
0
41
1
10
9.11706618263295
20
-2.4980542487514
30
0
41
1
10
9.10537737915834
20
-2.49567355240998
30
0
41
1
10
9.09441542976049
20
-2.49296909492602
30
0
0
SPLINE
5
C4
100
AcDbEntity
8
1
62
256
6
ByLayer
370
18
48
1
60
0
100
AcDbSpline
70
4
71
3
72
12
73
8
40
0
40
0
40
0
40
0
40
0.249999999999995
40
0.249999999999995
40
0.499999999999991
40
0.499999999999991
40
1
40
1
40
1
40
1
41
1
10
56.1067307764371
20
-2.59501283415645
30
0
41
1
10
56.1116692034613
20
-2.58185877637823
30
0
41
1
10
56.1162292360135
20
-2.56839184205163
30
0
41
1
10
56.123224082223
20
-2.54428597124343
30
0
41
1
10
56.1256289332463
20
-2.53368007313571
30
0
41
1
10
56.1288276297591
20
-2.51054889070738
30
0
41
1
10
56.1260615096465
20
-2.50614339961106
30
0
41
1
10
56.1210373745134
20
-2.5086419298635
30
0
0
SPLINE
5
C5
100
AcDbEntity
8
1
62
256
6
ByLayer
370
13
48
1
60
0
100
AcDbSpline
70
4
71
3
72
8
73
4
40
0
40
0
40
0
40
0
40
1
40
1
40
1
40
1
41
1
10
9.09441542975034
20
-2.49296909490002
30
0
41
1
10
9.10538623030055
20
-2.49078858601186
30
0
41
1
10
9.11721340190181
20
-2.48879641354304
30
0
41
1
10
9.13000819775277
20
-2.48702555895272
30
0
0
SPLINE
5
C6
100
AcDbEntity
8
1
62
256
6
ByLayer
370
18
48
1
60
0
100
AcDbSpline
70
4
71
3
72
16
73
12
40
0
40
0
40
0
40
0
40
0.125
40
0.125
40
0.25
40
0.25
40
0.5
40
0.5
40
0.75
40
0.75
40
1
40
1
40
1
40
1
41
1
10
53.9203422082306
20
0.812504725650598
30
0
41
1
10
53.9534695699286
20
0.69993378324105
30
0
41
1
10
53.995419605058
20
0.588345847564568
30
0
41
1
10
54.094454169059
20
0.366856234844988
30
0
41
1
10
54.152172090985
20
0.256072027317316
30
0
41
1
10
54.3396122557214
20
-0.0633404264938235
30
0
41
1
10
54.4839867474207
20
-0.262075025048887
30
0
41
1
10
54.8004610131062
20
-0.63925544229113
30
0
41
1
10
54.9674967672514
20
-0.811422247298964
30
0
41
1
10
55.3139339114563
20
-1.13141837451295
30
0
41
1
10
55.493854666889
20
-1.27952649934542
30
0
41
1
10
55.6784556981377
20
-1.41638957329951
30
0
0
SPLINE
5
C7
100
AcDbEntity
8
1
62
256
6
ByLayer
370
18
48
1
60
0
100
AcDbSpline
70
4
71
3
72
18
73
14
40
0
40
0
40
0
40
0
40
0.250000000000013
40
0.250000000000013
40
0.375000000000014
40
0.375000000000014
40
0.500000000000016
40
0.500000000000016
40
0.750000000000008
40
0.750000000000008
40
0.875000000000004
40
0.875000000000004
40
1
40
1
40
1
40
1
41
1
10
56.6472348130874
20
-1.30777334693946
30
0
41
1
10
56.6077834857532
20
-1.41453787887789
30
0
41
1
10
56.5680969531527
20
-1.52123740261442
30
0
41
1
10
56.5080272567286
20
-1.68068171191692
30
0
41
1
10
56.4879035934284
20
-1.73367127193393
30
0
41
1
10
56.447625242023
20
-1.83960141545208
30
0
41
1
10
56.4274806848979
20
-1.89255799196607
30
0
41
1
10
56.3668867349506
20
-2.05117470183387
30
0
41
1
10
56.3262242124535
20
-2.15687724520055
30
0
41
1
10
56.2646880386367
20
-2.31261495385416
30
0
41
1
10
56.2441363927931
20
-2.36432579874293
30
0
41
1
10
56.2029808082963
20
-2.46748102457118
30
0
41
1
10
56.1823603449669
20
-2.51884120214731
30
0
41
1
10
56.1616230149212
20
-2.56960587210239
30
0
0
SPLINE
5
C8
100
AcDbEntity
8
1
62
256
6
ByLayer
370
18
48
1
60
0
100
AcDbSpline
70
4
71
3
72
66
73
62
40
0
40
0
40
0
40
0
40
0.0323280496178066
40
0.0323280496178066
40
0.0686522380412813
40
0.0686522380412813
40
0.104976426464756
40
0.104976426464756
40
0.141300614888231
40
0.141300614888231
40
0.177624803311706
40
0.177624803311706
40
0.213948991735181
40
0.213948991735181
40
0.250273180158655
40
0.250273180158655
40
0.28659736858213
40
0.28659736858213
40
0.322921557005605
40
0.322921557005605
40
0.35924574542908
40
0.35924574542908
40
0.395569933852555
40
0.395569933852555
40
0.413732028064292
40
0.413732028064292
40
0.431894122276029
40
0.431894122276029
40
0.468218310699505
40
0.468218310699505
40
0.504542499122981
40
0.504542499122981
40
0.540866687546456
40
0.540866687546456
40
0.577190875969932
40
0.577190875969932
40
0.613515064393408
40
0.613515064393408
40
0.649839252816883
40
0.649839252816883
40
0.668001347028621
40
0.668001347028621
40
0.686163441240359
40
0.686163441240359
40
0.722487629663837
40
0.722487629663837
40
0.758811818087314
40
0.758811818087314
40
0.795136006510792
40
0.795136006510792
40
0.831460194934269
40
0.831460194934269
40
0.867784383357746
40
0.867784383357746
40
0.904108571781224
40
0.904108571781224
40
0.940432760204701
40
0.940432760204701
40
0.976756948628178
40
0.976756948628178
40
1
40
1
40
1
40
1
41
1
10
18.0609756868763
20
2.49625478487079
30
0
41
1
10
18.2584713679433
20
2.49709631318879
30
0
41
1
10
18.4562884180063
20
2.49208730650892
30
0
41
1
10
18.8751542409748
20
2.46534203338626
30
0
41
1
10
19.0962986324587
20
2.44253682582152
30
0
41
1
10
19.5389968838868
20
2.3822310632693
30
0
41
1
10
19.7612788426871
20
2.34533449926781
30
0
41
1
10
20.2052542914756
20
2.25515459510709
30
0
41
1
10
20.4264400344719
20
2.2034067754189
30
0
41
1
10
20.8687768306968
20
2.08364879795681
30
0
41
1
10
21.0903722647009
20
2.01648865608908
30
0
41
1
10
21.5341695486395
20
1.87013945798418
30
0
41
1
10
21.7561505454667
20
1.79087718257804
30
0
41
1
10
22.19885640249
20
1.6215286588467
30
0
41
1
10
22.4203162858246
20
1.53171183472259
30
0
41
1
10
22.8632846733429
20
1.34239026895133
30
0
41
1
10
23.0849620938455
20
1.24148402286392
30
0
41
1
10
23.5286913648408
20
1.03328596093348
30
0
41
1
10
23.7504804891473
20
0.926675380523278
30
0
41
1
10
24.1935227312337
20
0.708070969276775
30
0
41
1
10
24.4145745840679
20
0.595079869854175
30
0
41
1
10
24.8579757105158
20
0.366021065421307
30
0
41
1
10
25.0805780945957
20
0.250441292303861
30
0
41
1
10
25.4132540237987
20
0.0764766868797437
30
0
41
1
10
25.5240288859672
20
0.0183238423958016
30
0
41
1
10
25.7453613656222
20
-0.098236527695434
30
0
41
1
10
25.855902845274
20
-0.15667136414919
30
0
41
1
10
26.188068494202
20
-0.33071435793957
30
0
41
1
10
26.4102457662329
20
-0.44546287400928
30
0
41
1
10
26.8546310543647
20
-0.672596917009457
30
0
41
1
10
27.0758523133196
20
-0.785339669054537
30
0
41
1
10
27.5185848453548
20
-1.00277310148303
30
0
41
1
10
27.7402553626107
20
-1.10759105580749
30
0
41
1
10
28.1839829628829
20
-1.31116563587037
30
0
41
1
10
28.4059313100293
20
-1.41057227560768
30
0
41
1
10
28.8489617778101
20
-1.59726024657166
30
0
41
1
10
29.0704513411365
20
-1.68530663179339
30
0
41
1
10
29.5133700515156
20
-1.84999914945664
30
0
41
1
10
29.7347513280686
20
-1.92637630985905
30
0
41
1
10
30.0677701467918
20
-2.03166577705065
30
0
41
1
10
30.1787345107803
20
-2.0651010525375
30
0
41
1
10
30.4005185662951
20
-2.12944753893456
30
0
41
1
10
30.5113296197791
20
-2.16029864781521
30
0
41
1
10
30.8435191881687
20
-2.24616960819631
30
0
41
1
10
31.0644681875862
20
-2.29507598481959
30
0
41
1
10
31.5079039064337
20
-2.37780804941249
30
0
41
1
10
31.7304829982919
20
-2.41241614303334
30
0
41
1
10
32.1738903939871
20
-2.4662451391859
30
0
41
1
10
32.394803031197
20
-2.48494506535548
30
0
41
1
10
32.8376144349527
20
-2.5065164039874
30
0
41
1
10
33.0595632928943
20
-2.50859298482163
30
0
41
1
10
33.5039307919528
20
-2.49576004076593
30
0
41
1
10
33.7251718268975
20
-2.48128010010416
30
0
41
1
10
34.168177155137
20
-2.43855993420289
30
0
41
1
10
34.3898323523206
20
-2.40887907371408
30
0
41
1
10
34.833442703737
20
-2.33413747303879
30
0
41
1
10
35.0554159343109
20
-2.28809293777556
30
0
41
1
10
35.4988498612168
20
-2.18184055456339
30
0
41
1
10
35.7205336082706
20
-2.12159211738259
30
0
41
1
10
36.0838757246931
20
-2.01316811559642
30
0
41
1
10
36.2255425019711
20
-1.96795270660616
30
0
41
1
10
36.3673997247907
20
-1.9200035647857
30
0
0
SPLINE
5
C9
100
AcDbEntity
8
1
62
256
6
ByLayer
370
18
48
1
60
0
100
AcDbSpline
70
4
71
3
72
24
73
20
40
0
40
0
40
0
40
0
40
0.103240174179274
40
0.103240174179274
40
0.215335152406864
40
0.215335152406864
40
0.327430130634455
40
0.327430130634455
40
0.439525108862045
40
0.439525108862045
40
0.551620087089636
40
0.551620087089636
40
0.663715065317227
40
0.663715065317227
40
0.775810043544818
40
0.775810043544818
40
0.887905021772409
40
0.887905021772409
40
1
40
1
40
1
40
1
41
1
10
47.9758875249414
20
2.51397212607321
30
0
41
1
10
48.1804521150626
20
2.51488955132535
30
0
41
1
10
48.3852728247105
20
2.50823575453191
30
0
41
1
10
48.8120707331702
20
2.48057476193353
30
0
41
1
10
49.0340496981838
20
2.45860526505689
30
0
41
1
10
49.4776672045726
20
2.39809488925093
30
0
41
1
10
49.6995101763789
20
2.35907645817969
30
0
41
1
10
50.1447818124166
20
2.26702348247687
30
0
41
1
10
50.3670096169667
20
2.21443248364409
30
0
41
1
10
50.8105767313485
20
2.09416695081202
30
0
41
1
10
51.0320410350934
20
2.02626156793818
30
0
41
1
10
51.476602255939
20
1.8784698152283
30
0
41
1
10
51.6996021208121
20
1.79800521839448
30
0
41
1
10
52.1436484051501
20
1.6258514403537
30
0
41
1
10
52.3651558421344
20
1.53446788219864
30
0
41
1
10
52.8092109838509
20
1.34291368309829
30
0
41
1
10
53.0316449200145
20
1.2420597501995
30
0
41
1
10
53.4765687123265
20
1.03173337693883
30
0
41
1
10
53.6983387096209
20
0.923010204625513
30
0
41
1
10
53.9203422082309
20
0.812504725650825
30
0
0
SPLINE
5
CA
100
AcDbEntity
8
1
62
256
6
ByLayer
370
18
48
1
60
0
100
AcDbSpline
70
4
71
3
72
8
73
4
40
0
40
0
40
0
40
0
40
1
40
1
40
1
40
1
41
1
10
56.1210373745134
20
-2.5086419298635
30
0
41
1
10
56.1072242010814
20
-2.51551129758303
30
0
41
1
10
56.0945962166786
20
-2.5189699960716
30
0
41
1
10
56.0831745571051
20
-2.51895720193553
30
0
0
SPLINE
5
CB
100
AcDbEntity
8
1
62
256
6
ByLayer
370
18
48
1
60
0
100
AcDbSpline
70
4
71
3
72
68
73
64
40
0
40
0
40
0
40
0
40
0.0054464233383426
40
0.0054464233383426
40
0.0417561207712864
40
0.0417561207712864
40
0.0780658182042303
40
0.0780658182042303
40
0.114375515637174
40
0.114375515637174
40
0.150685213070118
40
0.150685213070118
40
0.186994910503062
40
0.186994910503062
40
0.223304607936006
40
0.223304607936006
40
0.25961430536895
40
0.25961430536895
40
0.295924002801893
40
0.295924002801893
40
0.314078851518365
40
0.314078851518365
40
0.332233700234837
40
0.332233700234837
40
0.368543397667779
40
0.368543397667779
40
0.386698246384251
40
0.386698246384251
40
0.404853095100723
40
0.404853095100723
40
0.441162792533667
40
0.441162792533667
40
0.477472489966611
40
0.477472489966611
40
0.513782187399555
40
0.513782187399555
40
0.550091884832498
40
0.550091884832498
40
0.586401582265442
40
0.586401582265442
40
0.622711279698386
40
0.622711279698386
40
0.65902097713133
40
0.65902097713133
40
0.695330674564274
40
0.695330674564274
40
0.731640371997218
40
0.731640371997218
40
0.767950069430162
40
0.767950069430162
40
0.804259766863105
40
0.804259766863105
40
0.840569464296049
40
0.840569464296049
40
0.876879161728993
40
0.876879161728993
40
0.913188859161937
40
0.913188859161937
40
0.949498556594881
40
0.949498556594881
40
0.985808254027824
40
0.985808254027824
40
1
40
1
40
1
40
1
41
1
10
51.3589756213503
20
-1.91711027952979
30
0
41
1
10
51.3256584790155
20
-1.92848139574366
30
0
41
1
10
51.2923326133469
20
-1.93971511359319
30
0
41
1
10
51.0367647865002
20
-2.02477782987927
30
0
41
1
10
50.8148958521415
20
-2.09288485174687
30
0
41
1
10
50.3718025308345
20
-2.21324175175593
30
0
41
1
10
50.1501142859066
20
-2.2657905638907
30
0
41
1
10
49.7064432443577
20
-2.3577701072843
30
0
41
1
10
49.4843856114572
20
-2.39700580217683
30
0
41
1
10
49.0405873058654
20
-2.45788112315196
30
0
41
1
10
48.8188330262954
20
-2.47996469686322
30
0
41
1
10
48.3755001923377
20
-2.50903537766777
30
0
41
1
10
48.1542705665861
20
-2.51583534514683
30
0
41
1
10
47.7102214070193
20
-2.51148712022257
30
0
41
1
10
47.4877304387945
20
-2.50037758106475
30
0
41
1
10
47.0440100695942
20
-2.46358561133383
30
0
41
1
10
46.8227714358254
20
-2.43770584406889
30
0
41
1
10
46.3792486421423
20
-2.37053373388847
30
0
41
1
10
46.156587591137
20
-2.32921368968542
30
0
41
1
10
45.8233761464599
20
-2.25539512173862
30
0
41
1
10
45.712470115653
20
-2.22890002762983
30
0
41
1
10
45.491005688084
20
-2.17146448599891
30
0
41
1
10
45.3803594005839
20
-2.14024795807214
30
0
41
1
10
45.0479495015949
20
-2.0440956092456
30
0
41
1
10
44.8260280692208
20
-1.97493859776242
30
0
41
1
10
44.4927420655531
20
-1.86079469345879
30
0
41
1
10
44.381528036025
20
-1.82099743802561
30
0
41
1
10
44.1597647878409
20
-1.7378600209862
30
0
41
1
10
44.0490293741632
20
-1.69454079542859
30
0
41
1
10
43.7165984541812
20
-1.56144521646701
30
0
41
1
10
43.4948445052373
20
-1.46884167153129
30
0
41
1
10
43.0512769792233
20
-1.27370028995446
30
0
41
1
10
42.829324333839
20
-1.17042817672089
30
0
41
1
10
42.3853384780176
20
-0.957384087937129
30
0
41
1
10
42.1634200800096
20
-0.84849936589066
30
0
41
1
10
41.7199314847235
20
-0.625834632883425
30
0
41
1
10
41.4986893902517
20
-0.511231436693294
30
0
41
1
10
41.0543670491292
20
-0.27980615639774
30
0
41
1
10
40.8317394588047
20
-0.163242295503665
30
0
41
1
10
40.3879790117791
20
0.0702390301153457
30
0
41
1
10
40.1667337562803
20
0.187805539325865
30
0
41
1
10
39.7229361476865
20
0.419787559982723
30
0
41
1
10
39.5001822950794
20
0.534817643067242
30
0
41
1
10
39.0558694555068
20
0.760595920160512
30
0
41
1
10
38.8346595928153
20
0.871518854628221
30
0
41
1
10
38.3911761731216
20
1.08624075693325
30
0
41
1
10
38.1691960693822
20
1.19035151570256
30
0
41
1
10
37.7247068089391
20
1.39093992276818
30
0
41
1
10
37.5028136665475
20
1.48709059208903
30
0
41
1
10
37.0591056141274
20
1.66824439207275
30
0
41
1
10
36.8372267556587
20
1.7538421679937
30
0
41
1
10
36.3934637422995
20
1.9132324216566
30
0
41
1
10
36.171372466833
20
1.98692473845841
30
0
41
1
10
35.7268251152125
20
2.11984423979999
30
0
41
1
10
35.5046836798309
20
2.18032098477138
30
0
41
1
10
35.0609463832497
20
2.28688640714785
30
0
41
1
10
34.839503139549
20
2.33298361377996
30
0
41
1
10
34.3946568559178
20
2.40819577764233
30
0
41
1
10
34.1718889496619
20
2.43812563949518
30
0
41
1
10
33.7279263643508
20
2.48108972580124
30
0
41
1
10
33.5064701916951
20
2.49562096223201
30
0
41
1
10
33.197544022625
20
2.50463338381394
30
0
41
1
10
33.1106027485053
20
2.50587012536437
30
0
41
1
10
33.0236230778184
20
2.50579175326809
30
0
0
SPLINE
5
CC
100
AcDbEntity
8
1
62
256
6
ByLayer
370
18
48
1
60
0
100
AcDbSpline
70
4
71
3
72
36
73
32
40
0
40
0
40
0
40
0
40
0.0096405851735412
40
0.0096405851735412
40
0.0756645461619715
40
0.0756645461619715
40
0.141688507150402
40
0.141688507150402
40
0.207712468138833
40
0.207712468138833
40
0.273736429127263
40
0.273736429127263
40
0.339760390115693
40
0.339760390115693
40
0.405784351104124
40
0.405784351104124
40
0.471808312092555
40
0.471808312092555
40
0.537832273080985
40
0.537832273080985
40
0.603856234069415
40
0.603856234069415
40
0.669880195057846
40
0.669880195057846
40
0.735904156046276
40
0.735904156046276
40
0.801928117034707
40
0.801928117034707
40
0.867952078023137
40
0.867952078023137
40
1
40
1
40
1
40
1
41
1
10
21.3952179680735
20
-1.91568158898207
30
0
41
1
10
21.3628012563515
20
-1.92659000183244
30
0
41
1
10
21.3303708696726
20
-1.93737513962995
30
0
41
1
10
21.0757158725024
20
-2.02105110003541
30
0
41
1
10
20.8533409639085
20
-2.08817175868234
30
0
41
1
10
20.4105687783089
20
-2.2073347605459
30
0
41
1
10
20.1893788421616
20
-2.25872416286043
30
0
41
1
10
19.7458509347798
20
-2.34809804649629
30
0
41
1
10
19.5233182523105
20
-2.38469881806773
30
0
41
1
10
19.0797687257955
20
-2.4444316539529
30
0
41
1
10
18.8583492567765
20
-2.46683829222067
30
0
41
1
10
18.4150492566048
20
-2.494263885501
30
0
41
1
10
18.1932543975282
20
-2.49836895615874
30
0
41
1
10
17.7494816436521
20
-2.4925854256301
30
0
41
1
10
17.5273931747946
20
-2.48243838293311
30
0
41
1
10
17.0838678714046
20
-2.44568611546882
30
0
41
1
10
16.8622653545441
20
-2.41884914026133
30
0
41
1
10
16.4193098468399
20
-2.3487176405099
30
0
41
1
10
16.1970241990484
20
-2.30609091251634
30
0
41
1
10
15.75277774872
20
-2.20617681796844
30
0
41
1
10
15.5309642224498
20
-2.14993215793709
30
0
41
1
10
15.0881765482283
20
-2.02263964765771
30
0
41
1
10
14.8666012871613
20
-1.95186271004425
30
0
41
1
10
14.4220219506557
20
-1.79761768622248
30
0
41
1
10
14.1996835101346
20
-1.71499465597637
30
0
41
1
10
13.7580489785849
20
-1.53942331480388
30
0
41
1
10
13.5378297688156
20
-1.44654124602547
30
0
41
1
10
13.0975990750176
20
-1.25258997538151
30
0
41
1
10
12.8776759476013
20
-1.15175313421565
30
0
41
1
10
12.2185145560512
20
-0.837412616946523
30
0
41
1
10
11.7772595758167
20
-0.616388789541872
30
0
41
1
10
11.3325898467861
20
-0.385211696942861
30
0
0
SPLINE
5
CD
100
AcDbEntity
8
1
62
256
6
ByLayer
370
18
48
1
60
0
100
AcDbSpline
70
4
71
3
72
16
73
12
40
0
40
0
40
0
40
0
40
0.31285191008227
40
0.31285191008227
40
0.537923747493831
40
0.537923747493831
40
0.650459666199611
40
0.650459666199611
40
0.762995584905392
40
0.762995584905392
40
1
40
1
40
1
40
1
41
1
10
55.6741473442769
20
-2.5188100116757
30
0
41
1
10
55.3353222102869
20
-2.51807810268929
30
0
41
1
10
54.9977012981686
20
-2.4981608013087
30
0
41
1
10
54.4167210796447
20
-2.43189286466779
30
0
41
1
10
54.173499183798
20
-2.39452329046023
30
0
41
1
10
53.8074155379928
20
-2.32446408715339
30
0
41
1
10
53.6851869385891
20
-2.29876570763716
30
0
41
1
10
53.440178180623
20
-2.24272982515501
30
0
41
1
10
53.3171632737964
20
-2.21232897700079
30
0
41
1
10
52.9364211762555
20
-2.11150649285756
30
0
41
1
10
52.679871229028
20
-2.0339651572956
30
0
41
1
10
52.4241956542296
20
-1.94831496417069
30
0
0
SPLINE
5
CE
100
AcDbEntity
8
1
62
256
6
ByLayer
370
13
48
1
60
0
100
AcDbSpline
70
4
71
3
72
22
73
18
40
0
40
0
40
0
40
0
40
0.09016327530897
40
0.09016327530897
40
0.2805853877482
40
0.2805853877482
40
0.375796443967813
40
0.375796443967813
40
0.471007500187425
40
0.471007500187425
40
0.661429612626651
40
0.661429612626651
40
0.851851725065877
40
0.851851725065877
40
0.947062781285487
40
0.947062781285487
40
1
40
1
40
1
40
1
41
1
10
52.4241956542368
20
-1.94831496417314
30
0
41
1
10
52.1942653268966
20
-1.87128931572212
30
0
41
1
10
51.9650421478342
20
-1.78770563264976
30
0
41
1
10
51.2522405858201
20
-1.50960959228266
30
0
41
1
10
50.7692797813637
20
-1.29503887653942
30
0
41
1
10
50.0391269578761
20
-0.945070718648367
30
0
41
1
10
49.7943105877462
20
-0.823595092882016
30
0
41
1
10
49.3032085558773
20
-0.574467315060105
30
0
41
1
10
49.0591469321877
20
-0.447981465279497
30
0
41
1
10
48.3298072050139
20
-0.0658625866365412
30
0
41
1
10
47.8469722617158
20
0.191603285805883
30
0
41
1
10
46.8791098617255
20
0.694587493909211
30
0
41
1
10
46.3939987646111
20
0.939980524916194
30
0
41
1
10
45.6566615078652
20
1.28362693914508
30
0
41
1
10
45.4118922744723
20
1.39293473238899
30
0
41
1
10
45.0328182240429
20
1.55362220176454
30
0
41
1
10
44.8976071231868
20
1.60910495351268
30
0
41
1
10
44.7625277865241
20
1.66249068258128
30
0
0
SPLINE
5
CF
100
AcDbEntity
8
1
62
256
6
ByLayer
370
18
48
1
60
0
100
AcDbSpline
70
4
71
3
72
12
73
8
40
0
40
0
40
0
40
0
40
0.619822378832056
40
0.619822378832056
40
0.865097228976684
40
0.865097228976684
40
1
40
1
40
1
40
1
41
1
10
25.7733179784127
20
-2.50059008432865
30
0
41
1
10
25.1595373937507
20
-2.50107746071726
30
0
41
1
10
24.5468370618335
20
-2.43946024168648
30
0
41
1
10
23.6793578253763
20
-2.26779269844724
30
0
41
1
10
23.4336075626764
20
-2.2099023347493
30
0
41
1
10
23.0532399583704
20
-2.10714241004837
30
0
41
1
10
22.9183033591086
20
-2.06811776479236
30
0
41
1
10
22.7833055002296
20
-2.02662946140828
30
0
0
SPLINE
5
D0
100
AcDbEntity
8
1
62
256
6
ByLayer
370
13
48
1
60
0
100
AcDbSpline
70
4
71
3
72
26
73
22
40
0
40
0
40
0
40
0
40
0.0404161732162945
40
0.0404161732162945
40
0.130231196268605
40
0.130231196268605
40
0.220046219320914
40
0.220046219320914
40
0.399676265425534
40
0.399676265425534
40
0.489491288477843
40
0.489491288477843
40
0.579306311530153
40
0.579306311530153
40
0.758936357634775
40
0.758936357634775
40
0.848751380687086
40
0.848751380687086
40
0.938566403739396
40
0.938566403739396
40
1
40
1
40
1
40
1
41
1
10
22.7833055001772
20
-2.02662946139219
30
0
41
1
10
22.6728556239737
20
-1.99268538249501
30
0
41
1
10
22.5623647414323
20
-1.9570921650307
30
0
41
1
10
22.2060354894256
20
-1.83725989019763
30
0
41
1
10
21.9598015003681
20
-1.74667966383828
30
0
41
1
10
21.4706630764896
20
-1.5538750859854
30
0
41
1
10
21.2270990798244
20
-1.45134050316324
30
0
41
1
10
20.4974609592153
20
-1.12863575012992
30
0
41
1
10
20.0125443592196
20
-0.893129730368145
30
0
41
1
10
19.2802169161457
20
-0.522104414690915
30
0
41
1
10
19.0348762231174
20
-0.395334829087091
30
0
41
1
10
18.5428574943121
20
-0.138902815191614
30
0
41
1
10
18.2981887935137
20
-0.010453138774551
30
0
41
1
10
17.5665036867618
20
0.372450323861472
30
0
41
1
10
17.0817759208271
20
0.624364784867794
30
0
41
1
10
16.3518369904372
20
0.982966256961504
30
0
41
1
10
16.1080859057373
20
1.09935803530502
30
0
41
1
10
15.6184374004338
20
1.32352887812934
30
0
41
1
10
15.3718781962303
20
1.43152525577756
30
0
41
1
10
14.9580116135171
20
1.60228874269768
30
0
41
1
10
14.790119967313
20
1.66868583159692
30
0
41
1
10
14.6222401185433
20
1.731875796602
30
0
0
SPLINE
5
D1
100
AcDbEntity
8
1
62
256
6
ByLayer
370
18
48
1
60
0
100
AcDbSpline
70
4
71
3
72
24
73
20
40
0
40
0
40
0
40
0
40
0.0634700144007427
40
0.0634700144007427
40
0.160370429932642
40
0.160370429932642
40
0.257270845464541
40
0.257270845464541
40
0.451071676528341
40
0.451071676528341
40
0.54797209206024
40
0.54797209206024
40
0.644872507592139
40
0.644872507592139
40
0.838673338655936
40
0.838673338655936
40
0.935573754187833
40
0.935573754187833
40
1
40
1
40
1
40
1
41
1
10
14.6003148626216
20
1.72551188332613
30
0
41
1
10
14.7612287027558
20
1.66018822929837
30
0
41
1
10
14.9221631113815
20
1.59191511451738
30
0
41
1
10
15.3293601288753
20
1.4126263845211
30
0
41
1
10
15.5762398845365
20
1.29774859446911
30
0
41
1
10
16.0662465658063
20
1.06015680379099
30
0
41
1
10
16.310102514357
20
0.937210520459331
30
0
41
1
10
17.0403116953747
20
0.559663492917622
30
0
41
1
10
17.5251709921513
20
0.296137280302759
30
0
41
1
10
18.257294630945
20
-0.10259750327441
30
0
41
1
10
18.5021605005082
20
-0.236049528682116
30
0
41
1
10
18.9948203541423
20
-0.501685544452926
30
0
41
1
10
19.2403403721699
20
-0.632550769262167
30
0
41
1
10
19.9730597723438
20
-1.01456083761116
30
0
41
1
10
20.4580342419571
20
-1.2554164828974
30
0
41
1
10
21.1880468068658
20
-1.58308056726608
30
0
41
1
10
21.4317615952224
20
-1.68679787266143
30
0
41
1
10
21.8392737017121
20
-1.84844025990804
30
0
41
1
10
22.0028049043512
20
-1.91018870307141
30
0
41
1
10
22.1664332042878
20
-1.9684940932369
30
0
0
SPLINE
5
D2
100
AcDbEntity
8
1
62
256
6
ByLayer
370
13
48
1
60
0
100
AcDbSpline
70
4
71
3
72
14
73
10
40
0
40
0
40
0
40
0
40
0.053000544186498
40
0.053000544186498
40
0.211150076488602
40
0.211150076488602
40
0.369299608790706
40
0.369299608790706
40
1
40
1
40
1
40
1
41
1
10
22.1664332041907
20
-1.96849409320234
30
0
41
1
10
22.2489103548952
20
-1.9978830341957
30
0
41
1
10
22.3314121749438
20
-2.02639720460669
30
0
41
1
10
22.6598377595253
20
-2.13618434105163
30
0
41
1
10
22.9053622508029
20
-2.2099556269475
30
0
41
1
10
23.3966794529217
20
-2.33952281090186
30
0
41
1
10
23.6427701014503
20
-2.39540912480683
30
0
41
1
10
24.8706152766725
20
-2.62530212915462
30
0
41
1
10
25.8292890595243
20
-2.64839347116853
30
0
41
1
10
26.8060272439939
20
-2.51026827432474
30
0
0
SPLINE
5
D3
100
AcDbEntity
8
1
62
256
6
ByLayer
370
18
48
1
60
0
100
AcDbSpline
70
4
71
3
72
22
73
18
40
0
40
0
40
0
40
0
40
0.0005052108924322
40
0.0005052108924322
40
0.101556138321917
40
0.101556138321917
40
0.202607065751401
40
0.202607065751401
40
0.404708920610366
40
0.404708920610366
40
0.606810775469331
40
0.606810775469331
40
0.707861702898811
40
0.707861702898811
40
0.808912630328291
40
0.808912630328291
40
1
40
1
40
1
40
1
41
1
10
44.4141371112669
20
1.78442848812091
30
0
41
1
10
44.4153511555069
20
1.78394387789268
30
0
41
1
10
44.4165652075674
20
1.78345909313845
30
0
41
1
10
44.6606122857912
20
1.68597390192585
30
0
41
1
10
44.9036266506891
20
1.58180310855093
30
0
41
1
10
45.3913168154542
20
1.3608504054545
30
0
41
1
10
45.6365942041199
20
1.24416999613933
30
0
41
1
10
46.3744913898193
20
0.879614617085906
30
0
41
1
10
46.8597240932449
20
0.621446169445392
30
0
41
1
10
47.8277341854143
20
0.0952596691190024
30
0
41
1
10
48.3107083545058
20
-0.172412497214196
30
0
41
1
10
49.0407123068836
20
-0.567531592687118
30
0
41
1
10
49.2850850129409
20
-0.697954691859735
30
0
41
1
10
49.7770655710096
20
-0.954079833297385
30
0
41
1
10
50.0217915978684
20
-1.07827033236165
30
0
41
1
10
50.725594960301
20
-1.42208397143992
30
0
41
1
10
51.1824588343966
20
-1.62813751189259
30
0
41
1
10
51.6399333651812
20
-1.80955181664822
30
0
0
SPLINE
5
D4
100
AcDbEntity
8
1
62
256
6
ByLayer
370
13
48
1
60
0
100
AcDbSpline
70
4
71
3
72
18
73
14
40
0
40
0
40
0
40
0
40
0.0178426284430559
40
0.0178426284430559
40
0.345228418962043
40
0.345228418962043
40
0.427074866591787
40
0.427074866591787
40
0.508921314221533
40
0.508921314221533
40
0.672614209481021
40
0.672614209481021
40
1
40
1
40
1
40
1
41
1
10
51.6399324358075
20
-1.8095514480994
30
0
41
1
10
51.6663020783412
20
-1.82000849200807
30
0
41
1
10
51.6926737498177
20
-1.83038367024898
30
0
41
1
10
52.2029809764331
20
-2.02952250499359
30
0
41
1
10
52.6877997323525
20
-2.190458140695
30
0
41
1
10
53.3017497774912
20
-2.34747573637455
30
0
41
1
10
53.4248765881838
20
-2.37665258391684
30
0
41
1
10
53.6700282486311
20
-2.42996867792709
30
0
41
1
10
53.7923069457046
20
-2.45417281173482
30
0
41
1
10
54.1585037829381
20
-2.51935889585556
30
0
41
1
10
54.4017791594388
20
-2.55295434883882
30
0
41
1
10
55.1312398638269
20
-2.62346665252889
30
0
41
1
10
55.6169390559697
20
-2.6301497325039
30
0
41
1
10
56.1067307764396
20
-2.59501283415628
30
0
0
SPLINE
5
D5
100
AcDbEntity
8
1
62
256
6
ByLayer
370
13
48
1
60
0
100
AcDbSpline
70
4
71
3
72
8
73
4
40
0
40
0
40
0
40
0
40
1
40
1
40
1
40
1
41
1
10
9.25034311440385
20
-2.36107360791053
30
0
41
1
10
9.20834342894514
20
-2.35682552419848
30
0
41
1
10
9.1673056590929
20
-2.36247917244003
30
0
41
1
10
9.13000819775277
20
-2.37791760342603
30
0
0
SPLINE
5
D6
100
AcDbEntity
8
1
62
256
6
ByLayer
370
18
48
1
60
0
100
AcDbSpline
70
4
71
3
72
8
73
4
40
0
40
0
40
0
40
0
40
1
40
1
40
1
40
1
41
1
10
56.0943093520687
20
2.6280617698373
30
0
41
1
10
55.8892313525229
20
2.64261611622968
30
0
41
1
10
55.6843308454864
20
2.64978789948515
30
0
41
1
10
55.4792364074175
20
2.64959027568457
30
0
0
SPLINE
5
D7
100
AcDbEntity
8
1
62
256
6
ByLayer
370
18
48
1
60
0
100
AcDbSpline
70
4
71
3
72
48
73
44
40
0
40
0
40
0
40
0
40
0.033496798808132
40
0.033496798808132
40
0.055829215280604
40
0.055829215280604
40
0.078161631753076
40
0.078161631753076
40
0.12282646469802
40
0.12282646469802
40
0.212156130587909
40
0.212156130587909
40
0.23448854706038
40
0.23448854706038
40
0.256820963532851
40
0.256820963532851
40
0.301485796477795
40
0.301485796477795
40
0.390815462367683
40
0.390815462367683
40
0.435480295312628
40
0.435480295312628
40
0.457812711785101
40
0.457812711785101
40
0.480145128257573
40
0.480145128257573
40
0.569474794147462
40
0.569474794147462
40
0.614139627092407
40
0.614139627092407
40
0.63647204356488
40
0.63647204356488
40
0.658804460037352
40
0.658804460037352
40
0.748134125927246
40
0.748134125927246
40
0.83746379181714
40
0.83746379181714
40
0.882128624762088
40
0.882128624762088
40
0.926793457707036
40
0.926793457707036
40
1
40
1
40
1
40
1
41
1
10
41.9809256215609
20
-2.51766628582141
30
0
41
1
10
41.7975123954118
20
-2.54835945428786
30
0
41
1
10
41.6135489402866
20
-2.57352660885689
30
0
41
1
10
41.3055334177278
20
-2.60581783822528
30
0
41
1
10
41.182116594037
20
-2.61613931177462
30
0
41
1
10
40.9364370124023
20
-2.63147410037445
30
0
41
1
10
40.8139552062384
20
-2.63651251612126
30
0
41
1
10
40.4471742304829
20
-2.64377247999235
30
0
41
1
10
40.2035263214466
20
-2.63815975060896
30
0
41
1
10
39.4735884895766
20
-2.59052416481705
30
0
41
1
10
38.9877786748191
20
-2.51782597123613
30
0
41
1
10
38.3754055219647
20
-2.37788947146964
30
0
41
1
10
38.2526611890976
20
-2.34745557837107
30
0
41
1
10
38.0064429298757
20
-2.28178118070775
30
0
41
1
10
37.8829140209461
20
-2.24651300485539
30
0
41
1
10
37.5140325253956
20
-2.1346496144958
30
0
41
1
10
37.2694327794088
20
-2.05167599152958
30
0
41
1
10
36.5379106210588
20
-1.77989934096974
30
0
41
1
10
36.0523500954739
20
-1.56944376678604
30
0
41
1
10
35.3205049570066
20
-1.21941006775515
30
0
41
1
10
35.0757784569309
20
-1.09730226312735
30
0
41
1
10
34.70663630144
20
-0.907289845232015
30
0
41
1
10
34.5830451174831
20
-0.842698811182856
30
0
41
1
10
34.3369316525631
20
-0.712488937275765
30
0
41
1
10
34.214226427352
20
-0.646776095623039
30
0
41
1
10
33.6019393128274
20
-0.316130052420533
30
0
41
1
10
33.116183290333
20
-0.0447498558366988
30
0
41
1
10
32.3856924843283
20
0.357915803938795
30
0
41
1
10
32.1418664360173
20
0.491367530337754
30
0
41
1
10
31.7747073289124
20
0.688681043597683
30
0
41
1
10
31.6520825108604
20
0.753971587598159
30
0
41
1
10
31.4061858924148
20
0.883277701217992
30
0
41
1
10
31.2826527652562
20
0.947417377237457
30
0
41
1
10
30.6668535183645
20
1.26205162458902
30
0
41
1
10
30.1796501041898
20
1.49413997331232
30
0
41
1
10
29.2062522150697
20
1.90532192049491
30
0
41
1
10
28.7196320160163
20
2.08380204494011
30
0
41
1
10
27.9823374682045
20
2.30061156194554
30
0
41
1
10
27.7348938554993
20
2.36431641466766
30
0
41
1
10
27.2443220118156
20
2.47139217588597
30
0
41
1
10
27.0001368773655
20
2.51503394767425
30
0
41
1
10
26.3568851019564
20
2.60360471169705
30
0
41
1
10
25.9586073190298
20
2.63154467554415
30
0
41
1
10
25.558658246425
20
2.63163422016291
30
0
0
SPLINE
5
D8
100
AcDbEntity
8
1
62
256
6
ByLayer
370
18
48
1
60
0
100
AcDbSpline
70
4
71
3
72
16
73
12
40
0
40
0
40
0
40
0
40
0.0019960466108699
40
0.0019960466108699
40
0.251497034958154
40
0.251497034958154
40
0.376247529131795
40
0.376247529131795
40
0.500998023305438
40
0.500998023305438
40
1
40
1
40
1
40
1
41
1
10
12.0866178733467
20
-2.49455559333782
30
0
41
1
10
12.0846634795471
20
-2.49488763184286
30
0
41
1
10
12.0827090404936
20
-2.4952190446547
30
0
41
1
10
11.8364487093196
20
-2.53689738208698
30
0
41
1
10
11.5914826240693
20
-2.56851828562301
30
0
41
1
10
11.2220603173552
20
-2.60056570535096
30
0
41
1
10
11.0983933719514
20
-2.60868987758886
30
0
41
1
10
10.851691968738
20
-2.61962540147891
30
0
41
1
10
10.7285683728821
20
-2.62245126562107
30
0
41
1
10
10.1135656358499
20
-2.62342431269659
30
0
41
1
10
9.62322792744632
20
-2.58216894797485
30
0
41
1
10
9.1295135348816
20
-2.50012276795746
30
0
0
SPLINE
5
D9
100
AcDbEntity
8
1
62
256
6
ByLayer
370
18
48
1
60
0
100
AcDbSpline
70
4
71
3
72
10
73
6
40
0
40
0
40
0
40
0
40
0.5
40
0.5
40
1
40
1
40
1
40
1
41
1
10
9.09441542975893
20
-2.49296909492483
30
0
41
1
10
9.07576523217679
20
-2.48836784522018
30
0
41
1
10
9.06007486161224
20
-2.48268339559178
30
0
41
1
10
9.03724593134771
20
-2.46901147743449
30
0
41
1
10
9.03032775528555
20
-2.46110187686432
30
0
41
1
10
9.03033074560165
20
-2.4526515080554
30
0
0
SPLINE
5
DA
100
AcDbEntity
8
1
62
256
6
ByLayer
370
18
48
1
60
0
100
AcDbSpline
70
4
71
3
72
60
73
56
40
0
40
0
40
0
40
0
40
0.0625000000000161
40
0.0625000000000161
40
0.125000000000032
40
0.125000000000032
40
0.250000000000066
40
0.250000000000066
40
0.3750000000001
40
0.3750000000001
40
0.437500000000117
40
0.437500000000117
40
0.500000000000134
40
0.500000000000134
40
0.625000000000168
40
0.625000000000168
40
0.628906250000168
40
0.628906250000168
40
0.632812500000169
40
0.632812500000169
40
0.634765625000169
40
0.634765625000169
40
0.636718750000168
40
0.636718750000168
40
0.640625000000167
40
0.640625000000167
40
0.656250000000159
40
0.656250000000159
40
0.687500000000146
40
0.687500000000146
40
0.718750000000132
40
0.718750000000132
40
0.734375000000125
40
0.734375000000125
40
0.742187500000122
40
0.742187500000122
40
0.750000000000119
40
0.750000000000119
40
0.765625000000112
40
0.765625000000112
40
0.781250000000105
40
0.781250000000105
40
0.796875000000098
40
0.796875000000098
40
0.812500000000091
40
0.812500000000091
40
0.843750000000076
40
0.843750000000076
40
0.875000000000061
40
0.875000000000061
40
0.93750000000003
40
0.93750000000003
40
0.968750000000015
40
0.968750000000015
40
1
40
1
40
1
40
1
41
1
10
14.8381167744704
20
1.41922514664566
30
0
41
1
10
14.6214003160181
20
1.52000959101886
30
0
41
1
10
14.403229628128
20
1.61378342968942
30
0
41
1
10
13.9634457373282
20
1.78779967277188
30
0
41
1
10
13.741855810719
20
1.86796562273275
30
0
41
1
10
13.0767014431935
20
2.08640688419842
30
0
41
1
10
12.6307141546671
20
2.20325579059485
30
0
41
1
10
11.7263148703461
20
2.38546717891415
30
0
41
1
10
11.267822974766
20
2.45076439255854
30
0
41
1
10
10.5663008582808
20
2.51977900880519
30
0
41
1
10
10.3301835991026
20
2.53802432028991
30
0
41
1
10
9.85294107785381
20
2.56713338333182
30
0
41
1
10
9.61163486835238
20
2.57800339563494
30
0
41
1
10
8.88459216578846
20
2.60272483161592
30
0
41
1
10
8.39367316752086
20
2.60911548651617
30
0
41
1
10
7.88438180620534
20
2.61239973366457
30
0
41
1
10
7.86894471648307
20
2.61249975830319
30
0
41
1
10
7.83807068779836
20
2.61267674190452
30
0
41
1
10
7.82245063707228
20
2.61263476085941
30
0
41
1
10
7.79965342992102
20
2.61225832084298
30
0
41
1
10
7.7922940689229
20
2.61208229435027
30
0
41
1
10
7.7783407453224
20
2.61155640397041
30
0
41
1
10
7.77162637320117
20
2.61123051854833
30
0
41
1
10
7.75119555635609
20
2.61029264260412
30
0
41
1
10
7.73762793487839
20
2.60962994951581
30
0
41
1
10
7.6701085368295
20
2.60611607001906
30
0
41
1
10
7.61705771163341
20
2.60266919102716
30
0
41
1
10
7.46158820362842
20
2.58967978080122
30
0
41
1
10
7.36402551133921
20
2.57781236303359
30
0
41
1
10
7.18945529683458
20
2.54089236281246
30
0
41
1
10
7.11281199133612
20
2.51560340041277
30
0
41
1
10
7.03732455940536
20
2.46095785962763
30
0
41
1
10
7.01939679413374
20
2.44043732105374
30
0
41
1
10
7.00433588974715
20
2.40554053868578
30
0
41
1
10
7.00129261918005
20
2.39310818242933
30
0
41
1
10
6.99937741494705
20
2.36736787122504
30
0
41
1
10
7.00046089847561
20
2.35409065697354
30
0
41
1
10
7.00929922692242
20
2.31306822317157
30
0
41
1
10
7.02290200007417
20
2.28378376777144
30
0
41
1
10
7.06104598723675
20
2.22452701157721
30
0
41
1
10
7.08545575593769
20
2.19443797449546
30
0
41
1
10
7.1421591639662
20
2.13333999743367
30
0
41
1
10
7.17458528547044
20
2.10226725290312
30
0
41
1
10
7.24376344036153
20
2.04076427247586
30
0
41
1
10
7.28072181597187
20
2.0101127764807
30
0
41
1
10
7.39691272512187
20
1.91818140450101
30
0
41
1
10
7.4818016348583
20
1.85661728338593
30
0
41
1
10
7.65855371112821
20
1.73416386532622
30
0
41
1
10
7.74990051548389
20
1.67364735251692
30
0
41
1
10
8.02979092519195
20
1.49282809987628
30
0
41
1
10
8.2240607853185
20
1.37319882695488
30
0
41
1
10
8.52206851858622
20
1.19293751711837
30
0
41
1
10
8.62256325007377
20
1.13274115955397
30
0
41
1
10
8.82550893723004
20
1.01198126503326
30
0
41
1
10
8.9280564766442
20
0.951364321395033
30
0
41
1
10
9.03060314430451
20
0.891043365135062
30
0
0
SPLINE
5
DB
100
AcDbEntity
8
1
62
256
6
ByLayer
370
18
48
1
60
0
100
AcDbSpline
70
4
71
3
72
8
73
4
40
0
40
0
40
0
40
0
40
1
40
1
40
1
40
1
41
1
10
14.8381204097596
20
1.41923081471961
30
0
41
1
10
14.8386405076927
20
1.41898647062362
30
0
41
1
10
14.8391606056258
20
1.41874210034581
30
0
41
1
10
14.8396807035589
20
1.41849770389962
30
0
0
SPLINE
5
DC
100
AcDbEntity
8
1
62
256
6
ByLayer
370
13
48
1
60
0
100
AcDbSpline
70
4
71
3
72
10
73
6
40
0
40
0
40
0
40
0
40
0.5
40
0.5
40
1
40
1
40
1
40
1
41
1
10
9.03033074560062
20
-2.45265150805648
30
0
41
1
10
9.04125149525828
20
-2.43780428233046
30
0
41
1
10
9.05523121542501
20
-2.42359201413959
30
0
41
1
10
9.08880286320459
20
-2.39811128124106
30
0
41
1
10
9.10800708478962
20
-2.38702446088752
30
0
41
1
10
9.13000819775277
20
-2.37791760342603
30
0
0
SPLINE
5
DD
100
AcDbEntity
8
1
62
256
6
ByLayer
370
18
48
1
60
0
100
AcDbSpline
70
4
71
3
72
44
73
40
40
0
40
0
40
0
40
0
40
0.0941308977724763
40
0.0941308977724763
40
0.141196346658715
40
0.141196346658715
40
0.188261795544953
40
0.188261795544953
40
0.282392693317429
40
0.282392693317429
40
0.305925417760548
40
0.305925417760548
40
0.329458142203667
40
0.329458142203667
40
0.376523591089905
40
0.376523591089905
40
0.470654488862379
40
0.470654488862379
40
0.517719937748617
40
0.517719937748617
40
0.541252662191736
40
0.541252662191736
40
0.564785386634856
40
0.564785386634856
40
0.65891628440734
40
0.65891628440734
40
0.705981733293582
40
0.705981733293582
40
0.729514457736703
40
0.729514457736703
40
0.753047182179823
40
0.753047182179823
40
0.847178079952301
40
0.847178079952301
40
0.941308977724779
40
0.941308977724779
40
0.988374426611018
40
0.988374426611018
40
1
40
1
40
1
40
1
41
1
10
56.0943093520684
20
-2.6280617698373
30
0
41
1
10
55.6031851046641
20
-2.66291676371401
30
0
41
1
10
55.1137922707106
20
-2.6554502473108
30
0
41
1
10
54.3749939172531
20
-2.58121486679238
30
0
41
1
10
54.1289422632385
20
-2.54596280588464
30
0
41
1
10
53.6399679405442
20
-2.4561903789
30
0
41
1
10
53.3964171879385
20
-2.40161522864383
30
0
41
1
10
52.6665924170779
20
-2.21074666979516
30
0
41
1
10
52.1813101351511
20
-2.0471096977985
30
0
41
1
10
51.5693194654042
20
-1.80399110917412
30
0
41
1
10
51.4466537015729
20
-1.75343990859358
30
0
41
1
10
51.2006230943106
20
-1.6486474579896
30
0
41
1
10
51.0771621200605
20
-1.59435104133581
30
0
41
1
10
50.708528614712
20
-1.42760802094097
30
0
41
1
10
50.4641184541555
20
-1.31091049499662
30
0
41
1
10
49.7329692753562
20
-0.947590673880143
30
0
41
1
10
49.2478999045096
20
-0.688440750337321
30
0
41
1
10
48.5165131727246
20
-0.287137529839981
30
0
41
1
10
48.2720255281929
20
-0.151380881973296
30
0
41
1
10
47.9031954054785
20
0.0533544631273344
30
0
41
1
10
47.7796863146293
20
0.121896475365304
30
0
41
1
10
47.5337177552769
20
0.258060928453034
30
0
41
1
10
47.411100468888
20
0.325800553231233
30
0
41
1
10
46.799358751559
20
0.661916392501155
30
0
41
1
10
46.3139724474372
20
0.921984978181257
30
0
41
1
10
45.583800161546
20
1.28513609297016
30
0
41
1
10
45.3401952740801
20
1.40191968426507
30
0
41
1
10
44.9734158548784
20
1.56888488775169
30
0
41
1
10
44.8508935810955
20
1.62311955789892
30
0
41
1
10
44.6051451189725
20
1.72845496888812
30
0
41
1
10
44.4816626369243
20
1.77965852652278
30
0
41
1
10
43.8660620853801
20
2.02567966744547
30
0
41
1
10
43.3795308429763
20
2.19117606691941
30
0
41
1
10
42.4065623790787
20
2.44877199857768
30
0
41
1
10
41.9206175173911
20
2.54130228249369
30
0
41
1
10
41.1836703440521
20
2.61860967776244
30
0
41
1
10
40.9364019452931
20
2.63409974591767
30
0
41
1
10
40.6307733094098
20
2.6401356643772
30
0
41
1
10
40.5702990562789
20
2.64069032384634
30
0
41
1
10
40.5098815505557
20
2.64060759428818
30
0
0
SPLINE
5
DE
100
AcDbEntity
8
1
62
256
6
ByLayer
370
18
48
1
60
0
100
AcDbSpline
70
4
71
3
72
44
73
40
40
0
40
0
40
0
40
0
40
0.0167924256445823
40
0.0167924256445823
40
0.106109973364889
40
0.106109973364889
40
0.150768747225043
40
0.150768747225043
40
0.17309813415512
40
0.17309813415512
40
0.195427521085197
40
0.195427521085197
40
0.284745068805501
40
0.284745068805501
40
0.329403842665654
40
0.329403842665654
40
0.35173322959573
40
0.35173322959573
40
0.374062616525805
40
0.374062616525805
40
0.552697711966406
40
0.552697711966406
40
0.597356485826556
40
0.597356485826556
40
0.642015259686706
40
0.642015259686706
40
0.731332807407008
40
0.731332807407008
40
0.775991581267158
40
0.775991581267158
40
0.820650355127308
40
0.820650355127308
40
0.909967902847609
40
0.909967902847609
40
0.954626676707759
40
0.954626676707759
40
0.999285450567909
40
0.999285450567909
40
1
40
1
40
1
40
1
41
1
10
27.0310721712804
20
-2.50655429823084
30
0
41
1
10
26.9390934942875
20
-2.52203775815377
30
0
41
1
10
26.8472389029313
20
-2.53609619622228
30
0
41
1
10
26.2673762688983
20
-2.61587915346962
30
0
41
1
10
25.7818492222891
20
-2.64252450971623
30
0
41
1
10
25.049526564158
20
-2.62016355509923
30
0
41
1
10
24.8046889006975
20
-2.60233312345355
30
0
41
1
10
24.435354726686
20
-2.55991572149222
30
0
41
1
10
24.3116922697485
20
-2.5431262495726
30
0
41
1
10
24.0654700235328
20
-2.50459474544684
30
0
41
1
10
23.9427266628665
20
-2.48283877951226
30
0
41
1
10
23.3302093476018
20
-2.36215910886352
30
0
41
1
10
22.8440160188505
20
-2.22764428193972
30
0
41
1
10
22.1132799444687
20
-1.97644825339887
30
0
41
1
10
21.8694018177114
20
-1.88452763352757
30
0
41
1
10
21.5020837665357
20
-1.73551857589655
30
0
41
1
10
21.3793992465337
20
-1.68398809950293
30
0
41
1
10
21.133365425494
20
-1.57740029855708
30
0
41
1
10
21.0097582279472
20
-1.52222334458176
30
0
41
1
10
19.9003982774849
20
-1.01388661075822
30
0
41
1
10
18.9370364207711
20
-0.47862251802195
30
0
41
1
10
17.7077284246776
20
0.19913589834573
30
0
41
1
10
17.4601662991653
20
0.335344151827513
30
0
41
1
10
16.9692369346096
20
0.601656135794684
30
0
41
1
10
16.7249084150228
20
0.73231344366269
30
0
41
1
10
15.9933004778473
20
1.11335452398907
30
0
41
1
10
15.507460738549
20
1.35289440802183
30
0
41
1
10
14.7733725284796
20
1.67687544920346
30
0
41
1
10
14.5278720047651
20
1.77914272354181
30
0
41
1
10
14.0337798007101
20
1.9695926827863
30
0
41
1
10
13.7882225529491
20
2.05657678292897
30
0
41
1
10
13.0540943368267
20
2.29135817244853
30
0
41
1
10
12.5682408705106
20
2.41307060084657
30
0
41
1
10
11.8363012664119
20
2.53690961461561
30
0
41
1
10
11.5918486167755
20
2.56845637166938
30
0
41
1
10
11.1007032529229
20
2.6111234743781
30
0
41
1
10
10.8533008211085
20
2.62221618517381
30
0
41
1
10
10.6029427813921
20
2.62265052981891
30
0
41
1
10
10.5990002178129
20
2.62265467068562
30
0
41
1
10
10.5950577835089
20
2.62265611299796
30
0
0
SPLINE
5
DF
100
AcDbEntity
8
1
62
256
6
ByLayer
370
13
48
1
60
0
100
AcDbSpline
70
4
71
3
72
8
73
4
40
0
40
0
40
0
40
0
40
1
40
1
40
1
40
1
41
1
10
9.13000819775277
20
-2.48702555895272
30
0
41
1
10
9.15267992463566
20
-2.47900569721853
30
0
41
1
10
9.17733452935749
20
-2.47705566629765
30
0
41
1
10
9.20248578989009
20
-2.48099259911811
30
0
0
SPLINE
5
E0
100
AcDbEntity
8
1
62
256
6
ByLayer
370
18
48
1
60
0
100
AcDbSpline
70
4
71
3
72
16
73
12
40
0
40
0
40
0
40
0
40
0.231774418441739
40
0.231774418441739
40
0.471700221301111
40
0.471700221301111
40
0.711626024160484
40
0.711626024160484
40
0.951551827019857
40
0.951551827019857
40
1
40
1
40
1
40
1
41
1
10
40.7600694785112
20
-2.50977083295817
30
0
41
1
10
40.5256500407573
20
-2.5104989503825
30
0
41
1
10
40.2912152390864
20
-2.50211515437908
30
0
41
1
10
39.8130178544785
20
-2.46662289577193
30
0
41
1
10
39.5691386528134
20
-2.43887911297475
30
0
41
1
10
39.0788043500798
20
-2.36380748342756
30
0
41
1
10
38.8325371109259
20
-2.31637283248446
30
0
41
1
10
38.3420700962863
20
-2.20399764566133
30
0
41
1
10
38.0971186197021
20
-2.13892815218509
30
0
41
1
10
37.8021723052004
20
-2.05074821807486
30
0
41
1
10
37.7525763049888
20
-2.03558258971219
30
0
41
1
10
37.7029593349789
20
-2.02008087005765
30
0
0
SPLINE
5
E1
100
AcDbEntity
8
1
62
256
6
ByLayer
370
13
48
1
60
0
100
AcDbSpline
70
4
71
3
72
24
73
20
40
0
40
0
40
0
40
0
40
0.0736086529899052
40
0.0736086529899052
40
0.258075268406725
40
0.258075268406725
40
0.442541883823545
40
0.442541883823545
40
0.534775191531953
40
0.534775191531953
40
0.62700849924036
40
0.62700849924036
40
0.81147511465718
40
0.81147511465718
40
0.903708422365592
40
0.903708422365592
40
0.995941730074004
40
0.995941730074004
40
1
40
1
40
1
40
1
41
1
10
37.7029593353143
20
-2.02008087016247
30
0
41
1
10
37.5068623673529
20
-1.95881473034089
30
0
41
1
10
37.3104378509548
20
-1.89229884153028
30
0
41
1
10
36.6255237648589
20
-1.64390955614988
30
0
41
1
10
36.1400619621605
20
-1.43967470233446
30
0
41
1
10
35.169174177954
20
-0.992032366377856
30
0
41
1
10
34.6831280055571
20
-0.749488653941796
30
0
41
1
10
33.9462327585191
20
-0.369427202172432
30
0
41
1
10
33.7001904034338
20
-0.240688282429801
30
0
41
1
10
33.2092708626499
20
0.0173105909595108
30
0
41
1
10
32.9639171031512
20
0.146783528591101
30
0
41
1
10
32.2259742782813
20
0.532435707213295
30
0
41
1
10
31.7368697949676
20
0.783274113313922
30
0
41
1
10
31.0018734976971
20
1.13639400227504
30
0
41
1
10
30.7559212164467
20
1.25039761666517
30
0
41
1
10
30.2645431234353
20
1.46687819013201
30
0
41
1
10
30.0202357970869
20
1.56916039114077
30
0
41
1
10
29.7659334655896
20
1.66898964477161
30
0
41
1
10
29.7552169437698
20
1.67318359278684
30
0
41
1
10
29.7445015859221
20
1.67736406490801
30
0
0
SPLINE
5
E2
100
AcDbEntity
8
1
62
256
6
ByLayer
370
18
48
1
60
0
100
AcDbSpline
70
4
71
3
72
12
73
8
40
0
40
0
40
0
40
0
40
0.0347489054611881
40
0.0347489054611881
40
0.517374452730592
40
0.517374452730592
40
1
40
1
40
1
40
1
41
1
10
10.7783576217222
20
-2.49181358339206
30
0
41
1
10
10.7607200016302
20
-2.4917699981485
30
0
41
1
10
10.7430770493983
20
-2.49167535288575
30
0
41
1
10
10.4803096286049
20
-2.48950464872897
30
0
41
1
10
10.2337184237617
20
-2.47753918644523
30
0
41
1
10
9.74206736003316
20
-2.43395273618603
30
0
41
1
10
9.49637947653969
20
-2.40233384496952
30
0
41
1
10
9.25034311440402
20
-2.36107360791056
30
0
0
SPLINE
5
E3
100
AcDbEntity
8
1
62
256
6
ByLayer
370
18
48
1
60
0
100
AcDbSpline
70
4
71
3
72
8
73
4
40
0
40
0
40
0
40
0
40
1
40
1
40
1
40
1
41
1
10
56.0943093520696
20
-2.62806176981346
30
0
41
1
10
56.0984530632989
20
-2.61704915055742
30
0
41
1
10
56.1025935658277
20
-2.60603276162587
30
0
41
1
10
56.1067307764523
20
-2.59501283416128
30
0
0
SPLINE
5
E4
100
AcDbEntity
8
1
62
256
6
ByLayer
370
13
48
1
60
0
100
AcDbSpline
70
4
71
3
72
8
73
4
40
0
40
0
40
0
40
0
40
1
40
1
40
1
40
1
41
1
10
9.12951353488236
20
-2.50012276796636
30
0
41
1
10
9.12967811842583
20
-2.49575712233437
30
0
41
1
10
9.12984300597469
20
-2.49139138622476
30
0
41
1
10
9.13000819775272
20
-2.48702555895255
30
0
0
SPLINE
5
E5
100
AcDbEntity
8
1
62
256
6
ByLayer
370
18
48
1
60
0
100
AcDbSpline
70
4
71
3
72
48
73
44
40
0
40
0
40
0
40
0
40
0.0633352358751819
40
0.0633352358751819
40
0.126670471750364
40
0.126670471750364
40
0.190005707625546
40
0.190005707625546
40
0.253340943500728
40
0.253340943500728
40
0.316676179375909
40
0.316676179375909
40
0.380011415251091
40
0.380011415251091
40
0.411679033188683
40
0.411679033188683
40
0.443346651126275
40
0.443346651126275
40
0.50668188700146
40
0.50668188700146
40
0.538349504939052
40
0.538349504939052
40
0.570017122876645
40
0.570017122876645
40
0.63335235875183
40
0.63335235875183
40
0.665019976689422
40
0.665019976689422
40
0.696687594627015
40
0.696687594627015
40
0.7600228305022
40
0.7600228305022
40
0.791690448439792
40
0.791690448439792
40
0.823358066377385
40
0.823358066377385
40
0.88669330225257
40
0.88669330225257
40
0.918360920190163
40
0.918360920190163
40
0.950028538127756
40
0.950028538127756
40
1
40
1
40
1
40
1
41
1
10
14.8396807035589
20
1.41849770389962
30
0
41
1
10
15.0551072291995
20
1.31727298897644
30
0
41
1
10
15.2704988467913
20
1.21373561435192
30
0
41
1
10
15.7001412402713
20
1.0005615655306
30
0
41
1
10
15.9143209111206
20
0.890794495545435
30
0
41
1
10
16.34098742473
20
0.664073552299129
30
0
41
1
10
16.5547811931048
20
0.549415010549922
30
0
41
1
10
16.9834364010466
20
0.317906354464952
30
0
41
1
10
17.198101998682
20
0.200708682227344
30
0
41
1
10
17.6274359671632
20
-0.0380462986494194
30
0
41
1
10
17.8438486374704
20
-0.157703650012877
30
0
41
1
10
18.2748779675076
20
-0.392619002779128
30
0
41
1
10
18.4896774050856
20
-0.508667124292799
30
0
41
1
10
18.810148250658
20
-0.68176280625454
30
0
41
1
10
18.9167647040445
20
-0.739141209047261
30
0
41
1
10
19.1304884846298
20
-0.851673132760311
30
0
41
1
10
19.2374724830627
20
-0.907050808463254
30
0
41
1
10
19.5585640528311
20
-1.07094717226116
30
0
41
1
10
19.7728455249174
20
-1.177187674881
30
0
41
1
10
20.0939555005961
20
-1.33293552209056
30
0
41
1
10
20.2009238579662
20
-1.38426236130732
30
0
41
1
10
20.4158094982144
20
-1.48398927560805
30
0
41
1
10
20.523622211191
20
-1.53256454834636
30
0
41
1
10
20.8479036917331
20
-1.67485920258187
30
0
41
1
10
21.064048512228
20
-1.76457797625468
30
0
41
1
10
21.386677399992
20
-1.8918556803213
30
0
41
1
10
21.4939263433276
20
-1.93315401713173
30
0
41
1
10
21.7089842685363
20
-2.01206293105773
30
0
41
1
10
21.8167325005662
20
-2.04976731055194
30
0
41
1
10
22.1403266085505
20
-2.15807584343634
30
0
41
1
10
22.3569555734643
20
-2.2239586097061
30
0
41
1
10
22.6801374044628
20
-2.31296252590443
30
0
41
1
10
22.787487730218
20
-2.34106878043579
30
0
41
1
10
23.0025194744242
20
-2.39322849393872
30
0
41
1
10
23.1102121376
20
-2.41729815463594
30
0
41
1
10
23.4334807378807
20
-2.48387178166706
30
0
41
1
10
23.6492942272874
20
-2.52074861552651
30
0
41
1
10
23.9728418058954
20
-2.56488191894039
30
0
41
1
10
24.0805491326235
20
-2.57774056209252
30
0
41
1
10
24.2958257196439
20
-2.59926064481101
30
0
41
1
10
24.403589538749
20
-2.60792958448516
30
0
41
1
10
24.6814424386366
20
-2.62512819220288
30
0
41
1
10
24.8515728426611
20
-2.630703653182
30
0
41
1
10
25.0215549749334
20
-2.6312857369249
30
0
0
SPLINE
5
E6
100
AcDbEntity
8
1
62
256
6
ByLayer
370
18
48
1
60
0
100
AcDbSpline
70
4
71
3
72
80
73
76
40
0
40
0
40
0
40
0
40
0.0223114847457785
40
0.0223114847457785
40
0.0396611020349173
40
0.0396611020349173
40
0.0570107193240559
40
0.0570107193240559
40
0.091709953902333
40
0.091709953902333
40
0.109059571191471
40
0.109059571191471
40
0.126409188480608
40
0.126409188480608
40
0.161108423058886
40
0.161108423058886
40
0.195807657637163
40
0.195807657637163
40
0.23050689221544
40
0.23050689221544
40
0.265206126793718
40
0.265206126793718
40
0.299905361371995
40
0.299905361371995
40
0.334604595950273
40
0.334604595950273
40
0.36930383052855
40
0.36930383052855
40
0.404003065106827
40
0.404003065106827
40
0.438702299685104
40
0.438702299685104
40
0.473401534263382
40
0.473401534263382
40
0.508100768841659
40
0.508100768841659
40
0.542800003419936
40
0.542800003419936
40
0.577499237998213
40
0.577499237998213
40
0.61219847257649
40
0.61219847257649
40
0.62954808986563
40
0.62954808986563
40
0.646897707154769
40
0.646897707154769
40
0.681596941733046
40
0.681596941733046
40
0.698946559022184
40
0.698946559022184
40
0.716296176311322
40
0.716296176311322
40
0.750995410889597
40
0.750995410889597
40
0.768345028178736
40
0.768345028178736
40
0.785694645467874
40
0.785694645467874
40
0.820393880046152
40
0.820393880046152
40
0.83774349733529
40
0.83774349733529
40
0.855093114624429
40
0.855093114624429
40
0.889792349202706
40
0.889792349202706
40
0.907141966491844
40
0.907141966491844
40
0.924491583780982
40
0.924491583780982
40
0.959190818359257
40
0.959190818359257
40
0.993890052937533
40
0.993890052937533
40
1
40
1
40
1
40
1
41
1
10
36.3752058178863
20
1.90556382922634
30
0
41
1
10
36.5136609808997
20
1.95844593141791
30
0
41
1
10
36.6523125660223
20
2.00874857375263
30
0
41
1
10
36.8988726982153
20
2.09394244803892
30
0
41
1
10
37.0068555984874
20
2.12977351364555
30
0
41
1
10
37.2223969400744
20
2.1984326590173
30
0
41
1
10
37.3297615141211
20
2.23131108067236
30
0
41
1
10
37.6522983658449
20
2.32395457903775
30
0
41
1
10
37.8678133145447
20
2.37797321371994
30
0
41
1
10
38.1909480883002
20
2.44840231014683
30
0
41
1
10
38.2986509887347
20
2.47008727420226
30
0
41
1
10
38.513926921167
20
2.50986553024299
30
0
41
1
10
38.6214587811447
20
2.52801392091064
30
0
41
1
10
38.9445256915268
20
2.57624577343438
30
0
41
1
10
39.1602136723637
20
2.60007189562881
30
0
41
1
10
39.5909979329021
20
2.6321358838706
30
0
41
1
10
39.8058135566721
20
2.64033421512875
30
0
41
1
10
40.2357130609332
20
2.640292757449
30
0
41
1
10
40.4521501225696
20
2.63211826585447
30
0
41
1
10
40.8833705314669
20
2.59999360287944
30
0
41
1
10
41.0982820113245
20
2.57592695343786
30
0
41
1
10
41.5275226436096
20
2.51156246999929
30
0
41
1
10
41.7431820587024
20
2.47195371451952
30
0
41
1
10
42.1753400290299
20
2.37776455246714
30
0
41
1
10
42.3905996151888
20
2.32324388715705
30
0
41
1
10
42.819755228408
20
2.19920166451331
30
0
41
1
10
43.0350130540332
20
2.13099066424454
30
0
41
1
10
43.466255171131
20
1.98198219338568
30
0
41
1
10
43.6823799047435
20
1.90083820787802
30
0
41
1
10
44.111970311796
20
1.7259517154192
30
0
41
1
10
44.3270966586866
20
1.63395263317395
30
0
41
1
10
44.7578275581107
20
1.44098623551295
30
0
41
1
10
44.9732496047088
20
1.33975830060618
30
0
41
1
10
45.4037210442343
20
1.12660113525175
30
0
41
1
10
45.619039975895
20
1.01728744345226
30
0
41
1
10
46.0497679050654
20
0.794249652496632
30
0
41
1
10
46.2650241039749
20
0.680119748047332
30
0
41
1
10
46.6945684189649
20
0.445140748658588
30
0
41
1
10
46.9103913631692
20
0.326187718432436
30
0
41
1
10
47.3416231505775
20
0.0890653485092798
30
0
41
1
10
47.5569565878385
20
-0.029757480509204
30
0
41
1
10
47.878864627394
20
-0.209585571099439
30
0
41
1
10
47.9860616946442
20
-0.269654520755921
30
0
41
1
10
48.2011893535617
20
-0.388338604860593
30
0
41
1
10
48.3089918046854
20
-0.447185847073229
30
0
41
1
10
48.6328768327554
20
-0.622674907618006
30
0
41
1
10
48.8486758364406
20
-0.73777718897162
30
0
41
1
10
49.1707187510521
20
-0.908269319439114
30
0
41
1
10
49.2778259328069
20
-0.96476006848718
30
0
41
1
10
49.4926630473523
20
-1.0752051759178
30
0
41
1
10
49.6002802652672
20
-1.12935756808059
30
0
41
1
10
49.9234551954951
20
-1.2890911818229
30
0
41
1
10
50.1397585907015
20
-1.39207231366444
30
0
41
1
10
50.4623376863811
20
-1.5409464680379
30
0
41
1
10
50.5695124534708
20
-1.58973706745627
30
0
41
1
10
50.7843135465572
20
-1.6839758811721
30
0
41
1
10
50.8918714587974
20
-1.72953975908089
30
0
41
1
10
51.2147106092524
20
-1.8620783715198
30
0
41
1
10
51.4302031192728
20
-1.94486851480085
30
0
41
1
10
51.7532150619751
20
-2.06125605674049
30
0
41
1
10
51.8607021297291
20
-2.09882631412734
30
0
41
1
10
52.0757079341034
20
-2.17003341048516
30
0
41
1
10
52.1833291751659
20
-2.20372076084092
30
0
41
1
10
52.5062075669264
20
-2.2995356727161
30
0
41
1
10
52.7215284111748
20
-2.35640535213014
30
0
41
1
10
53.0439871032958
20
-2.43154421023917
30
0
41
1
10
53.1512761829902
20
-2.45494928674549
30
0
41
1
10
53.3663887137192
20
-2.4977630534195
30
0
41
1
10
53.4742956785759
20
-2.51712212481226
30
0
41
1
10
53.7975955298572
20
-2.56922531842687
30
0
41
1
10
54.0129921402097
20
-2.59610274468352
30
0
41
1
10
54.4426876692391
20
-2.63434555555199
30
0
41
1
10
54.6568485983654
20
-2.64554278781924
30
0
41
1
10
54.9104599113247
20
-2.64900838935921
30
0
41
1
10
54.9484404845724
20
-2.64927770959008
30
0
41
1
10
54.9864224039051
20
-2.64929747687665
30
0
0
SPLINE
5
E7
100
AcDbEntity
8
1
62
256
6
ByLayer
370
18
48
1
60
0
100
AcDbSpline
70
2053
71
3
72
46
73
42
40
0
40
0
40
0
40
0
40
0.03125
40
0.03125
40
0.0625
40
0.0625
40
0.09375
40
0.09375
40
0.125
40
0.125
40
0.15625
40
0.15625
40
0.1875
40
0.1875
40
0.25
40
0.25
40
0.28125
40
0.28125
40
0.3125
40
0.3125
40
0.375
40
0.375
40
0.4375
40
0.4375
40
0.5
40
0.5
40
0.5625
40
0.5625
40
0.625
40
0.625
40
0.6875
40
0.6875
40
0.75
40
0.75
40
0.8125
40
0.8125
40
0.875
40
0.875
40
0.9375
40
0.9375
40
1
40
1
40
1
40
1
41
1
10
56.3575884388646
20
-1.33484672359216
30
0
41
1
10
56.3693591148913
20
-1.31775891336719
30
0
41
1
10
56.3808693093137
20
-1.299489490139
30
0
41
1
10
56.4033284633377
20
-1.26040473509258
30
0
41
1
10
56.4143962489906
20
-1.23933884558806
30
0
41
1
10
56.4352158865684
20
-1.19548344847442
30
0
41
1
10
56.4449300356682
20
-1.17283160626815
30
0
41
1
10
56.4627709928226
20
-1.12587561048502
30
0
41
1
10
56.4707278407261
20
-1.10193423737297
30
0
41
1
10
56.4839424187794
20
-1.05505451124526
30
0
41
1
10
56.4893654907116
20
-1.03144753575884
30
0
41
1
10
56.4969871930121
20
-0.987119803085676
30
0
41
1
10
56.499260863352
20
-0.966227852002248
30
0
41
1
10
56.5014645995645
20
-0.908269932147306
30
0
41
1
10
56.4966438708543
20
-0.877785393175259
30
0
41
1
10
56.4827432024946
20
-0.845392022147337
30
0
41
1
10
56.4769404505035
20
-0.836671565408807
30
0
41
1
10
56.4637051613275
20
-0.823550238716905
30
0
41
1
10
56.4562551964568
20
-0.819056499825081
30
0
41
1
10
56.4316275211873
20
-0.811231760156375
30
0
41
1
10
56.4127530248805
20
-0.813628613643431
30
0
41
1
10
56.3712632420756
20
-0.831893042468067
30
0
41
1
10
56.349299840607
20
-0.847455986752152
30
0
41
1
10
56.3033236002085
20
-0.89119218377175
30
0
41
1
10
56.2797268990432
20
-0.919073870174145
30
0
41
1
10
56.2332534220485
20
-0.9859727408259
30
0
41
1
10
56.2100145284484
20
-1.02564978308774
30
0
41
1
10
56.1681867214289
20
-1.11334812960988
30
0
41
1
10
56.1495161313305
20
-1.16186464138681
30
0
41
1
10
56.1229407112038
20
-1.2563453260021
30
0
41
1
10
56.1150964977168
20
-1.30227265519937
30
0
41
1
10
56.1121289186356
20
-1.37924990942676
30
0
41
1
10
56.116879608522
20
-1.41027129361089
30
0
41
1
10
56.1352754720835
20
-1.4539259258766
30
0
41
1
10
56.1489195113246
20
-1.46711520726058
30
0
41
1
10
56.1814908120836
20
-1.47784585395613
30
0
41
1
10
56.2006244947545
20
-1.47550647680592
30
0
41
1
10
56.241857979833
20
-1.45734728854862
30
0
41
1
10
56.2642802537582
20
-1.4413675910352
30
0
41
1
10
56.3100585505851
20
-1.39750946466722
30
0
41
1
10
56.3340470868112
20
-1.36902234404212
30
0
41
1
10
56.3575884388646
20
-1.33484672359217
30
0
0
SPLINE
5
E8
100
AcDbEntity
8
1
62
256
6
ByLayer
370
18
48
1
60
0
100
AcDbSpline
70
4
71
3
72
76
73
72
40
0
40
0
40
0
40
0
40
0.0134504837893713
40
0.0134504837893713
40
0.0900152572672666
40
0.0900152572672666
40
0.166580030745162
40
0.166580030745162
40
0.20486241748411
40
0.20486241748411
40
0.243144804223057
40
0.243144804223057
40
0.319709577700953
40
0.319709577700953
40
0.3579919644399
40
0.3579919644399
40
0.396274351178848
40
0.396274351178848
40
0.434556737917796
40
0.434556737917796
40
0.444127334602533
40
0.448912632944901
40
0.451305282116085
40
0.452501606701677
40
0.453099768994474
40
0.453099768994474
40
0.453398850140872
40
0.453398850140872
40
0.453697931287269
40
0.453697931287269
40
0.456090580458454
40
0.456090580458454
40
0.458483229629638
40
0.458483229629638
40
0.463268527972006
40
0.463268527972006
40
0.472839124656743
40
0.472839124656743
40
0.511121511395689
40
0.511121511395689
40
0.549403898134635
40
0.549403898134635
40
0.625968671612528
40
0.625968671612528
40
0.70253344509042
40
0.70253344509042
40
0.721674638459894
40
0.721674638459894
40
0.726459936802262
40
0.726459936802262
40
0.728852585973446
40
0.728852585973446
40
0.729450748266242
40
0.729450748266242
40
0.72974982941264
40
0.72974982941264
40
0.730048910559038
40
0.73124523514463
40
0.740815831829366
40
0.740815831829366
40
0.779098218568312
40
0.779098218568312
40
0.817380605307257
40
0.817380605307257
40
0.855662992046202
40
0.855662992046202
40
0.932227765524092
40
0.932227765524092
40
0.970510152263038
40
0.970510152263038
40
1
40
1
40
1
40
1
41
1
10
14.8381200140883
20
1.41923090552828
30
0
41
1
10
14.8023175764163
20
1.4274477534621
30
0
41
1
10
14.7664863811622
20
1.43532537503197
30
0
41
1
10
14.5264716319603
20
1.4856451552576
30
0
41
1
10
14.3205787758912
20
1.516695724155
30
0
41
1
10
13.9126343994677
20
1.54641703783466
30
0
41
1
10
13.7097337118701
20
1.545269920274
30
0
41
1
10
13.4044592128494
20
1.51597564821958
30
0
41
1
10
13.3025307337791
20
1.5016370081868
30
0
41
1
10
13.0977229749929
20
1.46354194358446
30
0
41
1
10
12.9956445599705
20
1.43990917512917
30
0
41
1
10
12.6921656614315
20
1.35688131008971
30
0
41
1
10
12.4923510140858
20
1.28511864933208
30
0
41
1
10
12.1920644644732
20
1.15843840806988
30
0
41
1
10
12.0918751451174
20
1.11304884967439
30
0
41
1
10
11.8906019877035
20
1.0169427303905
30
0
41
1
10
11.7892404457967
20
0.966079800935518
30
0
41
1
10
11.5863946267632
20
0.860817462153079
30
0
41
1
10
11.4849743862064
20
0.806465285373832
30
0
41
1
10
11.3581005957956
20
0.737269732568677
30
0
41
1
10
11.3200369689003
20
0.716419962537429
30
0
41
1
10
11.2756135008718
20
0.691959131335267
30
0
41
1
10
11.2534014360071
20
0.679700488618806
30
0
41
1
10
11.2422949331716
20
0.673564372219403
30
0
41
1
10
11.2375349314748
20
0.670933218587521
30
0
41
1
10
11.2351549160922
20
0.669617413005028
30
0
41
1
10
11.2343124006535
20
0.669267270611442
30
0
41
1
10
11.2328289933952
20
0.668204052549129
30
0
41
1
10
11.233745381936
20
0.667095471000465
30
0
41
1
10
11.2387940388881
20
0.660907561439672
30
0
41
1
10
11.2448987157299
20
0.657103557579433
30
0
41
1
10
11.2562780418189
20
0.648770336501087
30
0
41
1
10
11.2620631125013
20
0.644729867928675
30
0
41
1
10
11.2795025110815
20
0.632752291935589
30
0
41
1
10
11.291259602989
20
0.624966085629012
30
0
41
1
10
11.3266630362375
20
0.601810553382023
30
0
41
1
10
11.3504581123947
20
0.586667166900412
30
0
41
1
10
11.4697253596934
20
0.511473623040473
30
0
41
1
10
11.5660567321255
20
0.452880488074072
30
0
41
1
10
11.7589568449152
20
0.336230957710313
30
0
41
1
10
11.8556495376164
20
0.278388677489431
30
0
41
1
10
12.1459062674216
20
0.105473592193135
30
0
41
1
10
12.3395052260156
20
-0.0091393906620851
30
0
41
1
10
12.726792842576
20
-0.237282052452343
30
0
41
1
10
12.9204014010449
20
-0.35108986791289
30
0
41
1
10
13.1602715805434
20
-0.495241949041713
30
0
41
1
10
13.2082111875178
20
-0.524097039012219
30
0
41
1
10
13.2672165403667
20
-0.561072091939593
30
0
41
1
10
13.2789802452224
20
-0.568504787094128
30
0
41
1
10
13.2962777868928
20
-0.579967820858599
30
0
41
1
10
13.3020958751486
20
-0.583774890659157
30
0
41
1
10
13.3087132040808
20
-0.589025693872657
30
0
41
1
10
13.3104931878819
20
-0.590079485968232
30
0
41
1
10
13.3109835008464
20
-0.592008377606675
30
0
41
1
10
13.309732759085
20
-0.592032546755377
30
0
41
1
10
13.3083266866788
20
-0.592503131727653
30
0
41
1
10
13.3048114747556
20
-0.593678005852553
30
0
41
1
10
13.2787977538236
20
-0.602313267806409
30
0
41
1
10
13.2534777180949
20
-0.61030201871165
30
0
41
1
10
13.1409220198069
20
-0.644127155054974
30
0
41
1
10
13.050744825489
20
-0.665807639787545
30
0
41
1
10
12.8703594279388
20
-0.697482177430089
30
0
41
1
10
12.779969386381
20
-0.707537835790959
30
0
41
1
10
12.5973115509713
20
-0.715550155401019
30
0
41
1
10
12.5049831478758
20
-0.713421043522203
30
0
41
1
10
12.2282700035898
20
-0.688987670199708
30
0
41
1
10
12.0422981148189
20
-0.648663659053426
30
0
41
1
10
11.7537025967334
20
-0.557065320608643
30
0
41
1
10
11.6558130595426
20
-0.521284568843498
30
0
41
1
10
11.4831305699945
20
-0.451736535917434
30
0
41
1
10
11.4078517028214
20
-0.419299342209484
30
0
41
1
10
11.3323212723995
20
-0.3850900610839
30
0
0
SPLINE
5
E9
100
AcDbEntity
8
1
62
256
6
ByLayer
370
18
48
1
60
0
100
AcDbSpline
70
4
71
3
72
20
73
16
40
0
40
0
40
0
40
0
40
0.249999999999984
40
0.249999999999984
40
0.499999999999968
40
0.499999999999968
40
0.62499999999998
40
0.62499999999998
40
0.749999999999991
40
0.749999999999991
40
0.812499999999997
40
0.812499999999997
40
0.875000000000003
40
0.875000000000003
40
1
40
1
40
1
40
1
41
1
10
55.9704224700211
20
0.818451383167428
30
0
41
1
10
56.0440395078537
20
0.835644810134312
30
0
41
1
10
56.1172198481329
20
0.855240033696617
30
0
41
1
10
56.2600486585038
20
0.902019915455782
30
0
41
1
10
56.3299130066296
20
0.928998330150023
30
0
41
1
10
56.4299622049232
20
0.980895737564282
30
0
41
1
10
56.4626430063675
20
1.00027023200531
30
0
41
1
10
56.5236631673456
20
1.04432427824395
30
0
41
1
10
56.5524700637305
20
1.06937790287642
30
0
41
1
10
56.5888931011853
20
1.11207271625003
30
0
41
1
10
56.5999325620435
20
1.12717934525153
30
0
41
1
10
56.6192325775568
20
1.15962176500884
30
0
41
1
10
56.6274615281459
20
1.17704529938382
30
0
41
1
10
56.6460245360452
20
1.2306818644615
30
0
41
1
10
56.6504011658145
20
1.26964601763299
30
0
41
1
10
56.6472348130874
20
1.30777334693934
30
0
0
SPLINE
5
EA
100
AcDbEntity
8
1
62
256
6
ByLayer
370
18
48
1
60
0
100
AcDbSpline
70
4
71
3
72
30
73
26
40
0
40
0
40
0
40
0
40
0.249999999999987
40
0.249999999999987
40
0.374999999999981
40
0.374999999999981
40
0.499999999999975
40
0.499999999999975
40
0.624999999999968
40
0.624999999999968
40
0.68749999999996
40
0.68749999999996
40
0.718749999999961
40
0.718749999999961
40
0.749999999999962
40
0.749999999999962
40
0.812499999999974
40
0.812499999999974
40
0.874999999999987
40
0.874999999999987
40
0.90624999999999
40
0.90624999999999
40
0.937499999999993
40
0.937499999999993
40
1
40
1
40
1
40
1
41
1
10
53.9203422082309
20
0.812504725650825
30
0
41
1
10
54.101290230927
20
0.685589121270255
30
0
41
1
10
54.2838343680105
20
0.569875015340727
30
0
41
1
10
54.5611711247396
20
0.42101101280474
30
0
41
1
10
54.6541934711524
20
0.375437374498119
30
0
41
1
10
54.8415804139931
20
0.293709981310173
30
0
41
1
10
54.9361084024598
20
0.257521227341471
30
0
41
1
10
55.12263548735
20
0.197455399473455
30
0
41
1
10
55.215098450907
20
0.173332987785074
30
0
41
1
10
55.3524504368201
20
0.14706046027564
30
0
41
1
10
55.3980103948324
20
0.13995697038871
30
0
41
1
10
55.4659875789076
20
0.131979862745197
30
0
41
1
10
55.4886438331031
20
0.129514314306704
30
0
41
1
10
55.5331218457559
20
0.12747275063461
30
0
41
1
10
55.5550540133086
20
0.127731006279589
30
0
41
1
10
55.6187812130174
20
0.132814588570199
30
0
41
1
10
55.6587020622688
20
0.141605618259916
30
0
41
1
10
55.7314232747218
20
0.174189794723674
30
0
41
1
10
55.7643754539474
20
0.198406648623944
30
0
41
1
10
55.8006291262811
20
0.249262397352169
30
0
41
1
10
55.8104796186049
20
0.26895623794465
30
0
41
1
10
55.8245096326898
20
0.311847873480502
30
0
41
1
10
55.8289938207411
20
0.335254311335177
30
0
41
1
10
55.8355826388835
20
0.410068568518085
30
0
41
1
10
55.830727925977
20
0.463427868824454
30
0
41
1
10
55.8195376267204
20
0.518672366735018
30
0
0
SPLINE
5
EB
100
AcDbEntity
8
SK1
62
256
6
ByLayer
370
18
48
1
60
0
100
AcDbSpline
70
4
71
3
72
8
73
4
40
0
40
0
40
0
40
0
40
1
40
1
40
1
40
1
41
1
10
-36
20
-1.53839318476344
30
0
41
1
10
-35.8061863788745
20
-1.75759430933056
30
0
41
1
10
-35.6038183496577
20
-1.97428835558077
30
0
41
1
10
-35.4
20
-2.19052562131768
30
0
0
SPLINE
5
EC
100
AcDbEntity
8
SK1
62
256
6
ByLayer
370
18
48
1
60
0
100
AcDbSpline
70
4
71
3
72
8
73
4
40
0
40
0
40
0
40
0
40
1
40
1
40
1
40
1
41
1
10
-35.4
20
-0.979387696349619
30
0
41
1
10
-35.6037671791476
20
-0.763204719008343
30
0
41
1
10
-35.8060911221569
20
-0.546564118687371
30
0
41
1
10
-36
20
-0.327255259795407
30
0
0
SPLINE
5
ED
100
AcDbEntity
8
SK1
62
256
6
ByLayer
370
18
48
1
60
0
100
AcDbSpline
70
4
71
3
72
14
73
10
40
0
40
0
40
0
40
0
40
0.125000000000001
40
0.125000000000001
40
0.250000000000001
40
0.250000000000001
40
0.500000000000002
40
0.500000000000002
40
1
40
1
40
1
40
1
41
1
10
-35.3
20
-1.18033179447389
30
0
41
1
10
-35.3
20
-1.17021415208365
30
0
41
1
10
-35.3017593723636
20
-1.15901165822135
30
0
41
1
10
-35.3069353411979
20
-1.13750501146987
30
0
41
1
10
-35.3102739075534
20
-1.12724251043818
30
0
41
1
10
-35.3215583577555
20
-1.09728469613722
30
0
41
1
10
-35.3303095934911
20
-1.0795029641578
30
0
41
1
10
-35.358391202053
20
-1.02943089069163
30
0
41
1
10
-35.378655954467
20
-1.00203226222692
30
0
41
1
10
-35.4
20
-0.979387696349619
30
0
0
SPLINE
5
EE
100
AcDbEntity
8
SK1
62
256
6
ByLayer
370
18
48
1
60
0
100
AcDbSpline
70
4
71
3
72
14
73
10
40
0
40
0
40
0
40
0
40
0.5
40
0.5
40
0.749999999999999
40
0.749999999999999
40
0.874999999999999
40
0.874999999999999
40
1
40
1
40
1
40
1
41
1
10
-35.3999999999999
20
-2.19052562131836
30
0
41
1
10
-35.3787677796885
20
-2.21305154831848
30
0
41
1
10
-35.3584290958895
20
-2.23070690572064
30
0
41
1
10
-35.3303626450498
20
-2.24648401739464
30
0
41
1
10
-35.3215171954455
20
-2.24988099090356
30
0
41
1
10
-35.3102812516991
20
-2.2491744887183
30
0
41
1
10
-35.3068890218584
20
-2.24792465947303
30
0
41
1
10
-35.3017585680987
20
-2.24203664520704
30
0
41
1
10
-35.3
20
-2.23727708584144
30
0
41
1
10
-35.3
20
-2.22998466277954
30
0
0
LINE
5
76
100
AcDbEntity
8
81
62
256
6
ByLayer
370
18
48
1
60
0
100
AcDbLine
10
57
20
0
30
0
11
62
21
0
31
0
39
0
210
0
220
0
230
1
0
LINE
5
77
100
AcDbEntity
8
1
62
256
6
ByLayer
370
18
48
1
60
0
100
AcDbLine
10
10.58677
20
2.622655
30
0
11
1.039273
21
2.616927
31
0
39
0
210
0
220
0
230
1
0
LINE
5
79
100
AcDbEntity
8
1
62
256
6
ByLayer
370
18
48
1
60
0
100
AcDbLine
10
25.551411
20
2.631634
30
0
11
25.044621
21
2.63133
31
0
39
0
210
0
220
0
230
1
0
LINE
5
7A
100
AcDbEntity
8
1
62
256
6
ByLayer
370
18
48
1
60
0
100
AcDbLine
10
40.516263
20
2.640613
30
0
11
40.015303
21
2.640312
31
0
39
0
210
0
220
0
230
1
0
LINE
5
7B
100
AcDbEntity
8
1
62
256
6
ByLayer
370
18
48
1
60
0
100
AcDbLine
10
55.481851
20
2.649592
30
0
11
54.985445
21
2.649294
31
0
39
0
210
0
220
0
230
1
0
LINE
5
7C
100
AcDbEntity
8
1
62
256
6
ByLayer
370
18
48
1
60
0
100
AcDbLine
10
54.985445
20
-2.649294
30
0
11
55.481909
21
-2.649592
31
0
39
0
210
0
220
0
230
1
0
LINE
5
7D
100
AcDbEntity
8
1
62
256
6
ByLayer
370
18
48
1
60
0
100
AcDbLine
10
40.015303
20
-2.640312
30
0
11
40.516547
21
-2.640613
31
0
39
0
210
0
220
0
230
1
0
LINE
5
7E
100
AcDbEntity
8
1
62
256
6
ByLayer
370
18
48
1
60
0
100
AcDbLine
10
25.044621
20
-2.63133
30
0
11
25.551503
21
-2.631634
31
0
39
0
210
0
220
0
230
1
0
LINE
5
7F
100
AcDbEntity
8
1
62
256
6
ByLayer
370
18
48
1
60
0
100
AcDbLine
10
1.039273
20
-2.616927
30
0
11
10.586599
21
-2.622655
31
0
39
0
210
0
220
0
230
1
0
LINE
5
80
100
AcDbEntity
8
SK1
62
256
6
ByLayer
370
18
48
1
60
0
100
AcDbLine
10
-35.278312
20
3
30
0
11
-36
21
1.75
31
0
39
0
210
0
220
0
230
1
0
LINE
5
82
100
AcDbEntity
8
SK1
62
256
6
ByLayer
370
18
48
1
60
0
100
AcDbLine
10
-36
20
-1.75
30
0
11
-35.278312
21
-3
31
0
39
0
210
0
220
0
230
1
0
LINE
5
83
100
AcDbEntity
8
SK1
62
256
6
ByLayer
370
18
48
1
60
0
100
AcDbLine
10
0
20
3
30
0
11
-35.278312
21
3
31
0
39
0
210
0
220
0
230
1
0
LINE
5
84
100
AcDbEntity
8
SK1
62
256
6
ByLayer
370
18
48
1
60
0
100
AcDbLine
10
-35.278312
20
-3
30
0
11
0
21
-3
31
0
39
0
210
0
220
0
230
1
0
LINE
5
85
100
AcDbEntity
8
SK4
62
256
6
ByLayer
370
18
48
0.05
60
0
100
AcDbLine
10
62
20
0
30
0
11
-41
21
0
31
0
39
0
210
0
220
0
230
1
0
LINE
5
87
100
AcDbEntity
8
4
62
256
6
ByLayer
370
18
48
0.05
60
0
100
AcDbLine
10
57
20
0
30
0
11
0
21
0
31
0
39
0
210
0
220
0
230
1
0
LINE
5
89
100
AcDbEntity
8
80
62
256
6
ByLayer
370
18
48
1
60
0
100
AcDbLine
10
0
20
0
30
0
11
-5
21
0
31
0
39
0
210
0
220
0
230
1
0
LINE
5
8A
100
AcDbEntity
8
1
62
256
6
ByLayer
370
13
48
1
60
0
100
AcDbLine
10
1.039273
20
2.616927
30
0
11
1.039273
21
-2.616927
31
0
39
0
210
0
220
0
230
1
0
LINE
5
8B
100
AcDbEntity
8
1
62
256
6
ByLayer
370
18
48
1
60
0
100
AcDbLine
10
56.932231
20
-0.266749
30
0
11
56.867272
21
-0.569715
31
0
39
0
210
0
220
0
230
1
0
LINE
5
8C
100
AcDbEntity
8
1
62
256
6
ByLayer
370
18
48
1
60
0
100
AcDbLine
10
56.995667
20
0.026881
30
0
11
57
21
0
31
0
39
0
210
0
220
0
230
1
0
LINE
5
8D
100
AcDbEntity
8
1
62
256
6
ByLayer
370
18
48
1
60
0
100
AcDbLine
10
0
20
-3
30
0
11
0
21
3
31
0
39
0
210
0
220
0
230
1
0
LINE
5
8E
100
AcDbEntity
8
1
62
256
6
ByLayer
370
18
48
1
60
0
100
AcDbLine
10
56.932231
20
0.266749
30
0
11
56.867272
21
0.569715
31
0
39
0
210
0
220
0
230
1
0
LINE
5
8F
100
AcDbEntity
8
1
62
256
6
ByLayer
370
13
48
1
60
0
100
AcDbLine
10
56.231708
20
0.234385
30
0
11
56.895316
21
-0.159356
31
0
39
0
210
0
220
0
230
1
0
LINE
5
90
100
AcDbEntity
8
1
62
256
6
ByLayer
370
18
48
1
60
0
100
AcDbLine
10
57
20
0
30
0
11
56.995667
21
-0.026881
31
0
39
0
210
0
220
0
230
1
0
LINE
5
91
100
AcDbEntity
8
1
62
256
6
ByLayer
370
13
48
1
60
0
100
AcDbLine
10
56.867272
20
0.569715
30
0
11
56.421615
21
0.569715
31
0
39
0
210
0
220
0
230
1
0
LINE
5
92
100
AcDbEntity
8
1
62
256
6
ByLayer
370
13
48
1
60
0
100
AcDbLine
10
56.421615
20
0.569715
30
0
11
56.932231
21
0.266749
31
0
39
0
210
0
220
0
230
1
0
LINE
5
93
100
AcDbEntity
8
1
62
256
6
ByLayer
370
13
48
1
60
0
100
AcDbLine
10
0.519396
20
2.808463
30
0
11
0.519396
21
-2.808463
31
0
39
0
210
0
220
0
230
1
0
LINE
5
94
100
AcDbEntity
8
1
62
256
6
ByLayer
370
18
48
1
60
0
100
AcDbLine
10
55.678456
20
-1.41639
30
0
11
56.895316
21
-0.159356
31
0
39
0
210
0
220
0
230
1
0
LINE
5
95
100
AcDbEntity
8
1
62
256
6
ByLayer
370
18
48
1
60
0
100
AcDbLine
10
57
20
0
30
0
11
56.083175
21
-2.518957
31
0
39
0
210
0
220
0
230
1
0
LINE
5
96
100
AcDbEntity
8
SK1
62
256
6
ByLayer
370
18
48
1
60
0
100
AcDbLine
10
0
20
-3
30
0
11
0
21
3
31
0
39
0
210
0
220
0
230
1
0
LINE
5
97
100
AcDbEntity
8
SK1
62
256
6
ByLayer
370
18
48
1
60
0
100
AcDbLine
10
-35.3
20
-2.229985
30
0
11
-35.3
21
-1.180332
31
0
39
0
210
0
220
0
230
1
0
LINE
5
98
100
AcDbEntity
8
SK1
62
256
6
ByLayer
370
13
48
1
60
0
100
AcDbLine
10
-35.4
20
-0.979371
30
0
11
-35.4
21
-2.190526
31
0
39
0
210
0
220
0
230
1
0
LINE
5
99
100
AcDbEntity
8
SK1
62
256
6
ByLayer
370
18
48
1
60
0
100
AcDbLine
10
-35.278312
20
3
30
0
11
-35.278312
21
-3
31
0
39
0
210
0
220
0
230
1
0
LINE
5
9A
100
AcDbEntity
8
SK1
62
256
6
ByLayer
370
18
48
1
60
0
100
AcDbLine
10
-36
20
-1.75
30
0
11
-36
21
-1.538393
31
0
39
0
210
0
220
0
230
1
0
LINE
5
9B
100
AcDbEntity
8
SK1
62
256
6
ByLayer
370
18
48
1
60
0
100
AcDbLine
10
-36
20
1.75
30
0
11
-36
21
-0.327255
31
0
39
0
210
0
220
0
230
1
0
LINE
5
9C
100
AcDbEntity
8
SK1
62
256
6
ByLayer
370
18
48
1
60
0
100
AcDbLine
10
-36
20
-0.327267
30
0
11
-36
21
-1.538393
31
0
39
0
210
0
220
0
230
1
0
MTEXT
5
EF
100
AcDbEntity
8
SK6
62
256
6
ByLayer
370
13
48
1
60
0
100
AcDbMText
10
12.629169
20
35.032694
30
0
210
0
220
0
230
1
1
\W0.7542;R840-0530-70-A1A1220
40
3.5
41
0
44
1.084337
50
0
71
8
72
5
7
iso_b_vert
0
DIMENSION
5
FC
100
AcDbEntity
8
SK2
62
256
6
ByLayer
370
13
48
1
60
0
100
AcDbDimension
2
DimnDraft3D1
10
56.1
20
-12.863398
30
0
11
26.850059
21
-12.863398
31
0
70
32
71
5
72
1
41
1
210
0
220
0
230
1
3
Standard
100
AcDbAlignedDimension
13
0
23
-1.5875
33
0
14
56.1
24
-4.2375
34
0
50
0
100
AcDbRotatedDimension
1001
ACAD
1000
DSTYLE
1002
{
1070
   279
1070
     0
1070
   172
1070
     1
1070
   173
1070
     1
1070
   340
1005
F0
1070
   271
1070
     2
1070
   272
1070
     2
1070
    77
1070
     1
1070
    73
1070
     0
1070
   171
1070
     3
1070
   274
1070
     4
1070
   177
1070
    35
1070
   176
1070
    35
1070
   178
1070
    35
1070
    48
1040
-0.005
1070
    41
1041
3.5
1070
   147
1041
1.75
1070
    42
1041
1.5875
1070
    44
1041
2.0
1070
   140
1041
3.5
1070
   343
1005
0
1070
   344
1005
0
1002
}
0
DIMENSION
5
106
100
AcDbEntity
8
SK2
62
256
6
ByLayer
370
13
48
1
60
0
100
AcDbDimension
2
DimnDraft3D2
10
57
20
-31.692985
30
0
11
10.9413
21
-31.692985
31
0
70
32
71
5
72
1
41
1
210
0
220
0
230
1
3
Standard
100
AcDbAlignedDimension
13
-36
23
-4.5875
33
0
14
57
24
-1.5875
34
0
50
0
100
AcDbRotatedDimension
1001
ACAD
1000
DSTYLE
1002
{
1070
   279
1070
     0
1070
   172
1070
     1
1070
   173
1070
     1
1070
   340
1005
F0
1070
   271
1070
     2
1070
   272
1070
     2
1070
    77
1070
     1
1070
    73
1070
     0
1070
   171
1070
     3
1070
   274
1070
     4
1070
   177
1070
    35
1070
   176
1070
    35
1070
   178
1070
    35
1070
    48
1040
-0.005
1070
    41
1041
3.5
1070
   147
1041
1.75
1070
    42
1041
1.5875
1070
    44
1041
2.0
1070
   140
1041
3.5
1070
   343
1005
0
1070
   344
1005
0
1002
}
0
DIMENSION
5
110
100
AcDbEntity
8
SK2
62
256
6
ByLayer
370
13
48
1
60
0
100
AcDbDimension
2
DimnDraft3D3
10
57
20
14.259119
30
0
11
35.35
21
14.259119
31
0
70
32
71
5
72
1
41
1
210
0
220
0
230
1
3
Standard
100
AcDbAlignedDimension
13
13.7
23
4.2375
33
0
14
57
24
1.5875
34
0
50
0
100
AcDbRotatedDimension
1001
ACAD
1000
DSTYLE
1002
{
1070
   279
1070
     0
1070
   172
1070
     1
1070
   173
1070
     1
1070
   340
1005
F0
1070
   271
1070
     2
1070
   272
1070
     2
1070
    77
1070
     1
1070
    73
1070
     0
1070
   171
1070
     3
1070
   274
1070
     4
1070
   177
1070
    35
1070
   176
1070
    35
1070
   178
1070
    35
1070
    48
1040
-0.005
1070
    41
1041
3.5
1070
   147
1041
1.75
1070
    42
1041
1.5875
1070
    44
1041
2.0
1070
   140
1041
3.5
1070
   343
1005
0
1070
   344
1005
0
1002
}
0
DIMENSION
5
11A
100
AcDbEntity
8
SK2
62
256
6
ByLayer
370
13
48
1
60
0
100
AcDbDimension
2
DimnDraft3D4
10
56.1
20
-15.452503
30
0
11
66.981425
21
-15.452503
31
0
70
32
71
5
72
1
41
1
210
0
220
0
230
1
3
Standard
100
AcDbAlignedDimension
13
57
23
-1.5875
33
0
14
56.1
24
-4.2375
34
0
50
0
100
AcDbRotatedDimension
1001
ACAD
1000
DSTYLE
1002
{
1070
   279
1070
     0
1070
   172
1070
     1
1070
   173
1070
     1
1070
   340
1005
F0
1070
   271
1070
     2
1070
   272
1070
     2
1070
    77
1070
     1
1070
    73
1070
     0
1070
   171
1070
     3
1070
   274
1070
     4
1070
   177
1070
    35
1070
   176
1070
    35
1070
   178
1070
    35
1070
    48
1040
-0.005
1070
    41
1041
3.5
1070
   147
1041
1.75
1070
    42
1041
1.5875
1070
    44
1041
2.0
1070
   140
1041
3.5
1070
   343
1005
0
1070
   344
1005
0
1002
}
0
DIMENSION
5
124
100
AcDbEntity
8
SK2
62
256
6
ByLayer
370
13
48
1
60
0
100
AcDbDimension
2
DimnDraft3D5
10
56.1
20
-21.343428
30
0
11
7.860676
21
-21.343428
31
0
70
32
71
5
72
1
41
1
210
0
220
0
230
1
3
Standard
100
AcDbAlignedDimension
13
-36
23
-4.5875
33
0
14
56.1
24
-4.2375
34
0
50
0
100
AcDbRotatedDimension
1001
ACAD
1000
DSTYLE
1002
{
1070
   279
1070
     0
1070
   172
1070
     1
1070
   173
1070
     1
1070
   340
1005
F0
1070
   271
1070
     2
1070
   272
1070
     2
1070
    77
1070
     1
1070
    73
1070
     0
1070
   171
1070
     3
1070
   274
1070
     4
1070
   177
1070
    35
1070
   176
1070
    35
1070
   178
1070
    35
1070
    48
1040
-0.005
1070
    41
1041
3.5
1070
   147
1041
1.75
1070
    42
1041
1.5875
1070
    44
1041
2.0
1070
   140
1041
3.5
1070
   343
1005
0
1070
   344
1005
0
1002
}
0
DIMENSION
5
12F
100
AcDbEntity
8
SK2
62
256
6
ByLayer
370
13
48
1
60
0
100
AcDbDimension
2
DimnDraft3D6
10
-46.625163
20
3
30
0
11
-47.250163
21
21.47418
31
0
70
33
71
5
72
1
41
1
210
0
220
0
230
1
3
Standard
100
AcDbAlignedDimension
13
-37.5875
23
-3
33
0
14
-37.5875
24
3
34
0
1001
ACAD
1000
DSTYLE
1002
{
1070
   279
1070
     0
1070
    74
1070
     0
1070
   173
1070
     1
1070
   340
1005
F0
1070
   271
1070
     3
1070
   272
1070
     2
1070
    77
1070
     1
1070
    73
1070
     0
1070
   171
1070
     3
1070
   274
1070
     4
1070
   177
1070
    35
1070
   176
1070
    35
1070
   178
1070
    35
1070
    48
1040
-0.005
1070
    41
1041
3.5
1070
   147
1041
1.75
1070
    42
1041
1.5875
1070
    44
1041
2.0
1070
   140
1041
3.5
1070
   343
1005
0
1070
   344
1005
0
1002
}
0
DIMENSION
5
13A
100
AcDbEntity
8
2
62
256
6
ByLayer
370
13
48
1
60
0
100
AcDbDimension
2
DimnDraft3D7
10
71.083343
20
2.65
30
0
11
66.458343
21
19.717266
31
0
70
33
71
5
72
1
41
1
210
0
220
0
230
1
3
Standard
100
AcDbAlignedDimension
13
57.6875
23
-2.65
33
0
14
57.6875
24
2.65
34
0
1001
ACAD
1000
DSTYLE
1002
{
1070
   279
1070
     0
1070
    74
1070
     0
1070
   173
1070
     1
1070
   340
1005
F0
1070
   271
1070
     3
1070
   272
1070
     2
1070
    77
1070
     1
1070
    73
1070
     0
1070
   171
1070
     3
1070
   274
1070
     4
1070
   177
1070
    35
1070
   176
1070
    35
1070
   178
1070
    35
1070
    48
1040
-0.005
1070
    41
1041
3.5
1070
   147
1041
1.75
1070
    42
1041
1.5875
1070
    44
1041
2.0
1070
   140
1041
3.5
1070
   343
1005
0
1070
   344
1005
0
1002
}
0
ENDSEC
0
SECTION
2
OBJECTS
0
DICTIONARY
5
1a5
330
0
100
AcDbDictionary
280
0
281
1
3
ACAD_GROUP
350
1a6
3
ACAD_MLINESTYLE
350
1a7
0
DICTIONARY
5
1a6
330
0
100
AcDbDictionary
280
0
281
1
0
DICTIONARY
5
1a7
330
0
100
AcDbDictionary
280
0
281
1
3
Standard
350
18
0
MLINESTYLE
5
18
330
1a7
100
AcDbMlineStyle
2
Standard
70
0
3

62
256
51
90
52
90
71
2
49
-0.5
62
256
6
ByLayer
49
0.5
62
256
6
ByLayer
0
RASTERVARIABLES
5
193
330

100
AcDbRasterVariables
90
0
70
1
71
1
72
1
0
ENDSEC
0
EOF
