0
SECTION
2
HEADER
9
$ACADVER
1
AC1015
9
$DWGCODEPAGE
3
ANSI_1252
9
$HANDSEED
5
19e
9
$ANGBASE
50
0
9
$ANGDIR
70
0
9
$ATTMODE
70
1
9
$AUNITS
70
0
9
$AUPREC
70
0
9
$CECOLOR
62
256
9
$CELTSCALE
40
1
9
$CELTYPE
6
ByLayer
9
$CELWEIGHT
370
18
9
$CLAYER
8
0
9
$CMLJUST
70
0
9
$CMLSCALE
40
1
9
$CMLSTYLE
2
Standard
9
$DIMSTYLE
2
Standard
9
$TEXTSIZE
40
0.2
9
$TEXTSTYLE
7
Standard
9
$LUNITS
70
2
9
$LUPREC
70
4
9
$EXTNAMES
290
1
9
$INSUNITS
70
4
9
$LTSCALE
40
1
9
$LWDISPLAY
290
1
9
$PDMODE
70
0
9
$PDSIZE
40
0
9
$PLINEGEN
70
0
0
ENDSEC
0
SECTION
2
CLASSES
0
CLASS
1
RASTERVARIABLES
2
AcDbRasterVariables
3
ISM
90
0
280
0
281
0
0
ENDSEC
0
SECTION
2
TABLES
0
TABLE
2
VPORT
5
194
100
AcDbSymbolTable
0
VPORT
5
1
100
AcDbSymbolTableRecord
100
AcDbViewportTableRecord
2
*Active
70
0
10
0
20
0
11
1
21
1
12
-1
22
1
13
0
23
0
14
0.5
24
0.5
15
10
25
10
16
0
26
0
36
1
17
0
27
0
37
0
0
ENDTAB
0
TABLE
2
LTYPE
5
195
100
AcDbSymbolTable
0
LTYPE
5
14
100
AcDbSymbolTableRecord
100
AcDbLinetypeTableRecord
70
0
2
ByBlock
3

72
65
73
0
40
0
0
LTYPE
5
15
100
AcDbSymbolTableRecord
100
AcDbLinetypeTableRecord
70
0
2
ByLayer
3

72
65
73
0
40
0
0
LTYPE
5
16
100
AcDbSymbolTableRecord
100
AcDbLinetypeTableRecord
70
0
2
CONTINUOUS
3
Solid line
72
65
73
0
40
0
0
LTYPE
5
6A
100
AcDbSymbolTableRecord
100
AcDbLinetypeTableRecord
70
0
2
CENTER
3
____ _ ____ _ ____ _ ____
72
65
73
4
40
47.5
49
22
74
0
49
-8.5
74
0
49
8.5
74
0
49
-8.5
74
0
0
LTYPE
5
6B
100
AcDbSymbolTableRecord
100
AcDbLinetypeTableRecord
70
0
2
DASHED
3
__ __ __ __ __ __ __ __ __
72
65
73
2
40
25.72
49
12.86
74
0
49
-12.86
74
0
0
ENDTAB
0
TABLE
2
LAYER
5
196
100
AcDbSymbolTable
0
LAYER
5
10
100
AcDbSymbolTableRecord
100
AcDbLayerTableRecord
2
0
70
0
62
7
6
CONTINUOUS
290
1
370
-3
390
0
0
LAYER
5
6D
100
AcDbSymbolTableRecord
100
AcDbLayerTableRecord
2
81
70
0
62
-3
6
CONTINUOUS
290
1
370
-3
390
0
0
LAYER
5
6F
100
AcDbSymbolTableRecord
100
AcDbLayerTableRecord
2
80
70
0
62
-6
6
CONTINUOUS
290
1
370
-3
390
0
0
LAYER
5
74
100
AcDbSymbolTableRecord
100
AcDbLayerTableRecord
2
2
70
0
62
7
6
CONTINUOUS
290
1
370
-3
390
0
0
LAYER
5
78
100
AcDbSymbolTableRecord
100
AcDbLayerTableRecord
2
1
70
0
62
4
6
CONTINUOUS
290
1
370
-3
390
0
0
LAYER
5
86
100
AcDbSymbolTableRecord
100
AcDbLayerTableRecord
2
4
70
0
62
-2
6
CENTER
290
1
370
-3
390
0
0
LAYER
5
180
100
AcDbSymbolTableRecord
100
AcDbLayerTableRecord
2
SK2
70
0
62
7
6
CONTINUOUS
290
1
370
-3
390
0
0
LAYER
5
181
100
AcDbSymbolTableRecord
100
AcDbLayerTableRecord
2
SK1
70
0
62
4
6
CONTINUOUS
290
1
370
-3
390
0
0
LAYER
5
182
100
AcDbSymbolTableRecord
100
AcDbLayerTableRecord
2
SK4
70
0
62
2
6
CENTER
290
1
370
-3
390
0
0
LAYER
5
183
100
AcDbSymbolTableRecord
100
AcDbLayerTableRecord
2
SK6
70
0
62
5
6
CONTINUOUS
290
1
370
-3
390
0
0
ENDTAB
0
TABLE
2
STYLE
5
197
100
AcDbSymbolTable
0
STYLE
5
11
100
AcDbSymbolTableRecord
100
AcDbTextStyleTableRecord
2
Standard
3
txt
70
0
71
0
40
0
41
1
42
0
50
0
0
STYLE
5
DC
100
AcDbSymbolTableRecord
100
AcDbTextStyleTableRecord
2
iso_b_vert
3
simplex.shx
70
0
71
0
40
0
41
1
42
0
50
0
0
STYLE
5
DD
100
AcDbSymbolTableRecord
100
AcDbTextStyleTableRecord
2
DWGDirectTextStyle
3
simplex
70
0
71
0
40
0
41
1
42
0
50
0
0
ENDTAB
0
TABLE
2
DIMSTYLE
5
198
100
AcDbSymbolTable
100
AcDbDimStyleTable
0
DIMSTYLE
105
27
100
AcDbSymbolTableRecord
100
AcDbDimStyleTableRecord
2
Standard
70
0
3
<>
41
0.18
42
0.0625
44
0.18
140
0.18
147
0.09
73
0
74
0
77
1
271
2
275
0
278
52
280
0
340
11
0
ENDTAB
0
TABLE
2
VIEW
5
199
100
AcDbSymbolTable
0
ENDTAB
0
TABLE
2
UCS
5
19a
100
AcDbSymbolTable
0
ENDTAB
0
TABLE
2
APPID
5
19b
100
AcDbSymbolTable
0
APPID
5
12
100
AcDbSymbolTableRecord
100
AcDbRegAppTableRecord
2
ACAD
70
0
0
ENDTAB
0
TABLE
2
BLOCK_RECORD
5
19c
100
AcDbSymbolTable
0
BLOCK_RECORD
5
1F
100
AcDbSymbolTableRecord
100
AcDbBlockTableRecord
2
*Model_Space
340
0
70
0
0
BLOCK_RECORD
5
1B
100
AcDbSymbolTableRecord
100
AcDbBlockTableRecord
2
*Paper_Space
340
0
70
0
0
BLOCK_RECORD
5
23
100
AcDbSymbolTableRecord
100
AcDbBlockTableRecord
2
*Paper_Space0
340
0
70
0
0
BLOCK_RECORD
5
DF
100
AcDbSymbolTableRecord
100
AcDbBlockTableRecord
2
DimnDraft3D1
340
0
70
0
0
BLOCK_RECORD
5
E9
100
AcDbSymbolTableRecord
100
AcDbBlockTableRecord
2
DimnDraft3D2
340
0
70
0
0
BLOCK_RECORD
5
F3
100
AcDbSymbolTableRecord
100
AcDbBlockTableRecord
2
DimnDraft3D3
340
0
70
0
0
BLOCK_RECORD
5
FD
100
AcDbSymbolTableRecord
100
AcDbBlockTableRecord
2
DimnDraft3D4
340
0
70
0
0
BLOCK_RECORD
5
107
100
AcDbSymbolTableRecord
100
AcDbBlockTableRecord
2
DimnDraft3D5
340
0
70
0
0
BLOCK_RECORD
5
111
100
AcDbSymbolTableRecord
100
AcDbBlockTableRecord
2
DimnDraft3D6
340
0
70
0
0
BLOCK_RECORD
5
11C
100
AcDbSymbolTableRecord
100
AcDbBlockTableRecord
2
DimnDraft3D7
340
0
70
0
0
ENDTAB
0
ENDSEC
0
SECTION
2
BLOCKS
0
BLOCK
5
20
100
AcDbEntity
8
0
100
AcDbBlockBegin
2
*Model_Space
70
0
10
0
20
0
30
0
3
*Model_Space
0
ENDBLK
5
21
100
AcDbEntity
8
0
100
AcDbBlockEnd
0
BLOCK
5
1C
100
AcDbEntity
8
0
100
AcDbBlockBegin
2
*Paper_Space
70
0
10
0
20
0
30
0
3
*Paper_Space
0
ENDBLK
5
1D
100
AcDbEntity
8
0
100
AcDbBlockEnd
0
BLOCK
5
24
100
AcDbEntity
8
0
100
AcDbBlockBegin
2
*Paper_Space0
70
0
10
0
20
0
30
0
3
*Paper_Space0
0
ENDBLK
5
25
100
AcDbEntity
8
0
100
AcDbBlockEnd
0
BLOCK
5
E6
100
AcDbEntity
8
0
100
AcDbBlockBegin
2
DimnDraft3D1
70
0
10
0
20
0
30
0
3
DimnDraft3D1
0
MTEXT
5
E0
100
AcDbEntity
8
SK2
62
256
6
ByLayer
370
13
48
1
60
0
100
AcDbMText
10
9.358875
20
-11.938398
30
0
210
0
220
0
230
1
1
\W0.6713;29,12
40
3.5
41
0
44
1.084337
50
0
71
7
72
5
7
iso_b_vert
0
LINE
5
E1
100
AcDbEntity
8
SK2
62
256
6
ByLayer
370
13
48
1
60
0
100
AcDbLine
10
0
20
-1.5875
30
0
11
0
21
-14.813398
31
0
39
0
210
0
220
0
230
1
0
LINE
5
E2
100
AcDbEntity
8
SK2
62
256
6
ByLayer
370
13
48
1
60
0
100
AcDbLine
10
29.12
20
-4.1875
30
0
11
29.12
21
-14.813398
31
0
39
0
210
0
220
0
230
1
0
LINE
5
E3
100
AcDbEntity
8
SK2
62
256
6
ByLayer
370
13
48
1
60
0
100
AcDbLine
10
0
20
-12.813398
30
0
11
29.12
21
-12.813398
31
0
39
0
210
0
220
0
230
1
0
SOLID
5
E4
100
AcDbEntity
8
SK2
62
256
6
ByLayer
370
13
48
1
60
0
100
AcDbTrace
10
0
20
-12.813398
30
0
11
3.499998
21
-12.352615
31
0
12
3.500002
22
-13.274182
32
0
13
0
23
-12.813398
33
0
39
0
210
0
220
0
230
1
0
SOLID
5
E5
100
AcDbEntity
8
SK2
62
256
6
ByLayer
370
13
48
1
60
0
100
AcDbTrace
10
29.12
20
-12.813398
30
0
11
25.620002
21
-13.274182
31
0
12
25.619998
22
-12.352615
32
0
13
29.12
23
-12.813398
33
0
39
0
210
0
220
0
230
1
0
ENDBLK
5
E7
100
AcDbEntity
8
0
100
AcDbBlockEnd
0
BLOCK
5
F0
100
AcDbEntity
8
0
100
AcDbBlockBegin
2
DimnDraft3D2
70
0
10
0
20
0
30
0
3
DimnDraft3D2
0
MTEXT
5
EA
100
AcDbEntity
8
SK2
62
256
6
ByLayer
370
13
48
1
60
0
100
AcDbMText
10
-6.987384
20
-30.817985
30
0
210
0
220
0
230
1
1
\W0.7317;66,00
40
3.5
41
0
44
1.084337
50
0
71
7
72
5
7
iso_b_vert
0
LINE
5
EB
100
AcDbEntity
8
SK2
62
256
6
ByLayer
370
13
48
1
60
0
100
AcDbLine
10
-36
20
-4.5875
30
0
11
-36
21
-33.692985
31
0
39
0
210
0
220
0
230
1
0
LINE
5
EC
100
AcDbEntity
8
SK2
62
256
6
ByLayer
370
13
48
1
60
0
100
AcDbLine
10
30
20
-1.5875
30
0
11
30
21
-33.692985
31
0
39
0
210
0
220
0
230
1
0
LINE
5
ED
100
AcDbEntity
8
SK2
62
256
6
ByLayer
370
13
48
1
60
0
100
AcDbLine
10
-36
20
-31.692985
30
0
11
30
21
-31.692985
31
0
39
0
210
0
220
0
230
1
0
SOLID
5
EE
100
AcDbEntity
8
SK2
62
256
6
ByLayer
370
13
48
1
60
0
100
AcDbTrace
10
-36
20
-31.692985
30
0
11
-32.500002
21
-31.232202
31
0
12
-32.499998
22
-32.153769
32
0
13
-36
23
-31.692985
33
0
39
0
210
0
220
0
230
1
0
SOLID
5
EF
100
AcDbEntity
8
SK2
62
256
6
ByLayer
370
13
48
1
60
0
100
AcDbTrace
10
30
20
-31.692985
30
0
11
26.500002
21
-32.153769
31
0
12
26.499998
22
-31.232202
32
0
13
30
23
-31.692985
33
0
39
0
210
0
220
0
230
1
0
ENDBLK
5
F1
100
AcDbEntity
8
0
100
AcDbBlockEnd
0
BLOCK
5
FA
100
AcDbEntity
8
0
100
AcDbBlockBegin
2
DimnDraft3D3
70
0
10
0
20
0
30
0
3
DimnDraft3D3
0
MTEXT
5
F4
100
AcDbEntity
8
SK2
62
256
6
ByLayer
370
13
48
1
60
0
100
AcDbMText
10
17.564605
20
15.084119
30
0
210
0
220
0
230
1
1
\W0.6977;16,48
40
3.5
41
0
44
1.084337
50
0
71
7
72
5
7
iso_b_vert
0
LINE
5
F5
100
AcDbEntity
8
SK2
62
256
6
ByLayer
370
13
48
1
60
0
100
AcDbLine
10
13.52
20
4.1875
30
0
11
13.52
21
16.209119
31
0
39
0
210
0
220
0
230
1
0
LINE
5
F6
100
AcDbEntity
8
SK2
62
256
6
ByLayer
370
13
48
1
60
0
100
AcDbLine
10
30
20
1.5875
30
0
11
30
21
16.209119
31
0
39
0
210
0
220
0
230
1
0
LINE
5
F7
100
AcDbEntity
8
SK2
62
256
6
ByLayer
370
13
48
1
60
0
100
AcDbLine
10
13.52
20
14.209119
30
0
11
30
21
14.209119
31
0
39
0
210
0
220
0
230
1
0
SOLID
5
F8
100
AcDbEntity
8
SK2
62
256
6
ByLayer
370
13
48
1
60
0
100
AcDbTrace
10
13.52
20
14.209119
30
0
11
17.019998
21
14.669903
31
0
12
17.020002
22
13.748335
32
0
13
13.52
23
14.209119
33
0
39
0
210
0
220
0
230
1
0
SOLID
5
F9
100
AcDbEntity
8
SK2
62
256
6
ByLayer
370
13
48
1
60
0
100
AcDbTrace
10
30
20
14.209119
30
0
11
26.500002
21
13.748335
31
0
12
26.499998
22
14.669903
32
0
13
30
23
14.209119
33
0
39
0
210
0
220
0
230
1
0
ENDBLK
5
FB
100
AcDbEntity
8
0
100
AcDbBlockEnd
0
BLOCK
5
104
100
AcDbEntity
8
0
100
AcDbBlockBegin
2
DimnDraft3D4
70
0
10
0
20
0
30
0
3
DimnDraft3D4
0
MTEXT
5
FE
100
AcDbEntity
8
SK2
62
256
6
ByLayer
370
13
48
1
60
0
100
AcDbMText
10
36.840636
20
-14.527503
30
0
210
0
220
0
230
1
1
\W0.7150;0,88
40
3.5
41
0
44
1.084337
50
0
71
7
72
5
7
iso_b_vert
0
LINE
5
FF
100
AcDbEntity
8
SK2
62
256
6
ByLayer
370
13
48
1
60
0
100
AcDbLine
10
30
20
-1.5875
30
0
11
30
21
-17.402503
31
0
39
0
210
0
220
0
230
1
0
LINE
5
100
100
AcDbEntity
8
SK2
62
256
6
ByLayer
370
13
48
1
60
0
100
AcDbLine
10
29.12
20
-4.1875
30
0
11
29.12
21
-17.402503
31
0
39
0
210
0
220
0
230
1
0
LINE
5
101
100
AcDbEntity
8
SK2
62
256
6
ByLayer
370
13
48
1
60
0
100
AcDbLine
10
20.37
20
-15.402503
30
0
11
43.997215
21
-15.402503
31
0
39
0
210
0
220
0
230
1
0
SOLID
5
102
100
AcDbEntity
8
SK2
62
256
6
ByLayer
370
13
48
1
60
0
100
AcDbTrace
10
30
20
-15.402503
30
0
11
33.499998
21
-14.941719
31
0
12
33.500002
22
-15.863287
32
0
13
30
23
-15.402503
33
0
39
0
210
0
220
0
230
1
0
SOLID
5
103
100
AcDbEntity
8
SK2
62
256
6
ByLayer
370
13
48
1
60
0
100
AcDbTrace
10
29.12
20
-15.402503
30
0
11
25.620002
21
-15.863287
31
0
12
25.619998
22
-14.941719
32
0
13
29.12
23
-15.402503
33
0
39
0
210
0
220
0
230
1
0
ENDBLK
5
105
100
AcDbEntity
8
0
100
AcDbBlockEnd
0
BLOCK
5
10E
100
AcDbEntity
8
0
100
AcDbBlockBegin
2
DimnDraft3D5
70
0
10
0
20
0
30
0
3
DimnDraft3D5
0
MTEXT
5
108
100
AcDbEntity
8
SK2
62
256
6
ByLayer
370
13
48
1
60
0
100
AcDbMText
10
-9.630508
20
-20.468428
30
0
210
0
220
0
230
1
1
\W0.6713;65,12
40
3.5
41
0
44
1.084337
50
0
71
7
72
5
7
iso_b_vert
0
LINE
5
109
100
AcDbEntity
8
SK2
62
256
6
ByLayer
370
13
48
1
60
0
100
AcDbLine
10
-36
20
-4.5875
30
0
11
-36
21
-23.343428
31
0
39
0
210
0
220
0
230
1
0
LINE
5
10A
100
AcDbEntity
8
SK2
62
256
6
ByLayer
370
13
48
1
60
0
100
AcDbLine
10
29.12
20
-4.1875
30
0
11
29.12
21
-23.343428
31
0
39
0
210
0
220
0
230
1
0
LINE
5
10B
100
AcDbEntity
8
SK2
62
256
6
ByLayer
370
13
48
1
60
0
100
AcDbLine
10
-36
20
-21.343428
30
0
11
29.12
21
-21.343428
31
0
39
0
210
0
220
0
230
1
0
SOLID
5
10C
100
AcDbEntity
8
SK2
62
256
6
ByLayer
370
13
48
1
60
0
100
AcDbTrace
10
-36
20
-21.343428
30
0
11
-32.500002
21
-20.882645
31
0
12
-32.499998
22
-21.804212
32
0
13
-36
23
-21.343428
33
0
39
0
210
0
220
0
230
1
0
SOLID
5
10D
100
AcDbEntity
8
SK2
62
256
6
ByLayer
370
13
48
1
60
0
100
AcDbTrace
10
29.12
20
-21.343428
30
0
11
25.620002
21
-21.804212
31
0
12
25.619998
22
-20.882645
32
0
13
29.12
23
-21.343428
33
0
39
0
210
0
220
0
230
1
0
ENDBLK
5
10F
100
AcDbEntity
8
0
100
AcDbBlockEnd
0
BLOCK
5
119
100
AcDbEntity
8
0
100
AcDbBlockBegin
2
DimnDraft3D6
70
0
10
0
20
0
30
0
3
DimnDraft3D6
0
MTEXT
5
112
100
AcDbEntity
8
SK2
62
256
6
ByLayer
370
13
48
1
60
0
100
AcDbMText
10
-46.375163
20
22.34918
30
0
210
0
220
0
230
1
1
\W0.7317;6,000
40
3.5
41
0
44
1.084337
50
90
71
7
72
5
7
iso_b_vert
0
MTEXT
5
113
100
AcDbEntity
8
SK2
62
256
6
ByLayer
370
13
48
1
60
0
100
AcDbMText
10
-46.375163
20
17.126524
30
0
210
0
220
0
230
1
1
%%c
40
3.5
41
0
44
1.084337
50
90
71
7
72
5
7
iso_b_vert
0
LINE
5
114
100
AcDbEntity
8
SK2
62
256
6
ByLayer
370
13
48
1
60
0
100
AcDbLine
10
-37.5875
20
-3
30
0
11
-46.625163
21
-3
31
0
39
0
210
0
220
0
230
1
0
LINE
5
115
100
AcDbEntity
8
SK2
62
256
6
ByLayer
370
13
48
1
60
0
100
AcDbLine
10
-37.5875
20
3
30
0
11
-46.625163
21
3
31
0
39
0
210
0
220
0
230
1
0
LINE
5
116
100
AcDbEntity
8
SK2
62
256
6
ByLayer
370
13
48
1
60
0
100
AcDbLine
10
-44.625163
20
32.121549
30
0
11
-44.625163
21
-11.75
31
0
39
0
210
0
220
0
230
1
0
SOLID
5
117
100
AcDbEntity
8
SK2
62
256
6
ByLayer
370
13
48
1
60
0
100
AcDbTrace
10
-44.625163
20
-3
30
0
11
-44.164379
21
-6.499998
31
0
12
-45.085946
22
-6.500002
32
0
13
-44.625163
23
-3
33
0
39
0
210
0
220
0
230
1
0
SOLID
5
118
100
AcDbEntity
8
SK2
62
256
6
ByLayer
370
13
48
1
60
0
100
AcDbTrace
10
-44.625163
20
3
30
0
11
-45.085946
21
6.499998
31
0
12
-44.164379
22
6.500002
32
0
13
-44.625163
23
3
33
0
39
0
210
0
220
0
230
1
0
ENDBLK
5
11A
100
AcDbEntity
8
0
100
AcDbBlockEnd
0
BLOCK
5
124
100
AcDbEntity
8
0
100
AcDbBlockBegin
2
DimnDraft3D7
70
0
10
0
20
0
30
0
3
DimnDraft3D7
0
MTEXT
5
11D
100
AcDbEntity
8
2
62
256
6
ByLayer
370
13
48
1
60
0
100
AcDbMText
10
40.333343
20
20.542266
30
0
210
0
220
0
230
1
1
\W0.7317;5,200
40
3.5
41
0
44
1.084337
50
90
71
7
72
5
7
iso_b_vert
0
MTEXT
5
11E
100
AcDbEntity
8
2
62
256
6
ByLayer
370
13
48
1
60
0
100
AcDbMText
10
40.333343
20
15.31961
30
0
210
0
220
0
230
1
1
%%c
40
3.5
41
0
44
1.084337
50
90
71
7
72
5
7
iso_b_vert
0
LINE
5
11F
100
AcDbEntity
8
2
62
256
6
ByLayer
370
13
48
1
60
0
100
AcDbLine
10
30.7075
20
-2.6
30
0
11
44.083343
21
-2.6
31
0
39
0
210
0
220
0
230
1
0
LINE
5
120
100
AcDbEntity
8
2
62
256
6
ByLayer
370
13
48
1
60
0
100
AcDbLine
10
30.7075
20
2.6
30
0
11
44.083343
21
2.6
31
0
39
0
210
0
220
0
230
1
0
LINE
5
121
100
AcDbEntity
8
2
62
256
6
ByLayer
370
13
48
1
60
0
100
AcDbLine
10
42.083343
20
30.314635
30
0
11
42.083343
21
-11.35
31
0
39
0
210
0
220
0
230
1
0
SOLID
5
122
100
AcDbEntity
8
2
62
256
6
ByLayer
370
13
48
1
60
0
100
AcDbTrace
10
42.083343
20
-2.6
30
0
11
42.544126
21
-6.099998
31
0
12
41.622559
22
-6.100002
32
0
13
42.083343
23
-2.6
33
0
39
0
210
0
220
0
230
1
0
SOLID
5
123
100
AcDbEntity
8
2
62
256
6
ByLayer
370
13
48
1
60
0
100
AcDbTrace
10
42.083343
20
2.6
30
0
11
41.622559
21
6.099998
31
0
12
42.544126
22
6.100002
32
0
13
42.083343
23
2.6
33
0
39
0
210
0
220
0
230
1
0
ENDBLK
5
125
100
AcDbEntity
8
0
100
AcDbBlockEnd
0
ENDSEC
0
SECTION
2
ENTITIES
0
ARC
5
97
100
AcDbEntity
8
1
62
256
6
ByLayer
370
18
48
1
60
0
100
AcDbCircle
39
0
10
0
20
2.2
30
0
40
0.800000000000002
210
0
220
0
230
1
100
AcDbArc
50
47.685639
51
90
0
ARC
5
98
100
AcDbEntity
8
1
62
256
6
ByLayer
370
18
48
1
60
0
100
AcDbCircle
39
0
10
0
20
-2.2
30
0
40
0.800000000000002
210
0
220
0
230
1
100
AcDbArc
50
270
51
312.314361
0
ARC
5
99
100
AcDbEntity
8
1
62
256
6
ByLayer
370
18
48
1
60
0
100
AcDbCircle
39
0
10
-1.077117
20
-3.38314
30
0
40
0.800000000000001
210
0
220
0
230
-1
100
AcDbArc
50
47.685639
51
90.034377
0
ARC
5
9A
100
AcDbEntity
8
1
62
256
6
ByLayer
370
18
48
1
60
0
100
AcDbCircle
39
0
10
-1.077117
20
3.38314
30
0
40
0.800000000000001
210
0
220
0
230
-1
100
AcDbArc
50
269.965623
51
312.314361
0
ELLIPSE
5
9B
100
AcDbEntity
8
1
62
256
6
ByLayer
370
18
48
1
60
0
100
AcDbEllipse
10
4.25
20
-2.707404
30
0
11
0.25
21
0
31
0
210
0
220
0
230
1
40
0.999999
41
1.57253741576228
42
2.60377462039776
0
ELLIPSE
5
9C
100
AcDbEntity
8
1
62
256
6
ByLayer
370
18
48
1
60
0
100
AcDbEllipse
10
4.25
20
2.707404
30
0
11
0.25
21
0
31
0
210
0
220
0
230
1
40
0.999999
41
-2.60514651195689
42
-1.55939897397557
0
ELLIPSE
5
9D
100
AcDbEntity
8
1
62
256
6
ByLayer
370
13
48
1
60
0
100
AcDbEllipse
10
29.622331
20
1.212758
30
0
11
1.59781356141884
21
-1.10014007306278
31
0
210
0
220
0
230
-1
40
0.533762
41
1.44484622737966
42
1.69667723345066
0
ELLIPSE
5
9E
100
AcDbEntity
8
1
62
256
6
ByLayer
370
18
48
1
60
0
100
AcDbEllipse
10
30.057221
20
0.020257
30
0
11
0.135544944409681
21
0.427068210013946
31
0
210
0
220
0
230
-1
40
0.100282
41
-2.33653286892597
42
-1.71196073150164
0
ELLIPSE
5
9F
100
AcDbEntity
8
1
62
256
6
ByLayer
370
18
48
1
60
0
100
AcDbEllipse
10
30.057221
20
-0.020257
30
0
11
0.13554494435615
21
-0.427068209880793
31
0
210
0
220
0
230
-1
40
0.100282
41
1.71196073127927
42
2.33653286886686
0
ELLIPSE
5
A0
100
AcDbEntity
8
1
62
256
6
ByLayer
370
18
48
1
60
0
100
AcDbEllipse
10
30.000242
20
0.000568
30
0
11
0.964375146674708
21
2.59738754127905
31
0
210
0
220
0
230
-1
40
0.131755
41
2.84557669386706
42
2.96409316016507
0
ELLIPSE
5
A1
100
AcDbEntity
8
1
62
256
6
ByLayer
370
18
48
1
60
0
100
AcDbEllipse
10
30.000242
20
-0.000568
30
0
11
0.96437514532234
21
-2.59738753727231
31
0
210
0
220
0
230
-1
40
0.131755
41
-2.96409316002626
42
-2.84557669363701
0
ELLIPSE
5
A2
100
AcDbEntity
8
1
62
256
6
ByLayer
370
18
48
1
60
0
100
AcDbEllipse
10
29.86081
20
0.096281
30
0
11
0.0727819104919403
21
0.30191719571912
31
0
210
0
220
0
230
-1
40
0.478434
41
1.6880699355793
42
2.45976119973436
0
ELLIPSE
5
A3
100
AcDbEntity
8
1
62
256
6
ByLayer
370
18
48
1
60
0
100
AcDbEllipse
10
29.472013
20
1.335956
30
0
11
0.404960686955797
21
-1.09069572494404
31
0
210
0
220
0
230
-1
40
0.131755
41
-1.48022510825882
42
-0.73651812802707
0
ELLIPSE
5
A4
100
AcDbEntity
8
1
62
256
6
ByLayer
370
18
48
1
60
0
100
AcDbEllipse
10
29.472013
20
-1.335956
30
0
11
0.40496068693266
21
1.09069572489624
31
0
210
0
220
0
230
-1
40
0.131755
41
0.736518128029547
42
1.48022510829042
0
ELLIPSE
5
A5
100
AcDbEntity
8
1
62
256
6
ByLayer
370
13
48
1
60
0
100
AcDbEllipse
10
29.812237
20
1.335956
30
0
11
1.66420403042863
21
-0.761056748754364
31
0
210
0
220
0
230
-1
40
0.47056
41
1.5850751134532
42
1.86667073527408
0
ELLIPSE
5
A6
100
AcDbEntity
8
1
62
256
6
ByLayer
370
13
48
1
60
0
100
AcDbEllipse
10
4.178737
20
1.089764
30
0
11
-0.0574068431434129
21
-0.0818807325340192
31
0
210
0
220
0
230
1
40
0.214867
41
-0.955327830717559
42
-0.316310229369456
0
ELLIPSE
5
A7
100
AcDbEntity
8
1
62
256
6
ByLayer
370
13
48
1
60
0
100
AcDbEllipse
10
29.430389
20
0.351663
30
0
11
0.153082081612419
21
0.258003636193773
31
0
210
0
220
0
230
1
40
0.454519
41
0.917105603404808
42
2.31336900500026
0
POINT
5
6C
100
AcDbEntity
8
81
62
256
6
ByLayer
370
18
48
1
60
0
100
AcDbPoint
10
30
20
0
30
0
39
0
210
0
220
0
230
1
50
360
0
POINT
5
6E
100
AcDbEntity
8
80
62
256
6
ByLayer
370
18
48
1
60
0
100
AcDbPoint
10
0
20
0
30
0
39
0
210
0
220
0
230
1
50
360
0
POINT
5
70
100
AcDbEntity
8
SK2
62
256
6
ByLayer
370
18
48
1
60
1
100
AcDbPoint
10
-36
20
-3
30
0
39
0
210
0
220
0
230
1
50
360
0
POINT
5
72
100
AcDbEntity
8
SK2
62
256
6
ByLayer
370
18
48
1
60
1
100
AcDbPoint
10
-36
20
3
30
0
39
0
210
0
220
0
230
1
50
360
0
POINT
5
73
100
AcDbEntity
8
2
62
256
6
ByLayer
370
18
48
1
60
1
100
AcDbPoint
10
29.12
20
-2.6
30
0
39
0
210
0
220
0
230
1
50
360
0
POINT
5
75
100
AcDbEntity
8
2
62
256
6
ByLayer
370
18
48
1
60
1
100
AcDbPoint
10
29.12
20
2.6
30
0
39
0
210
0
220
0
230
1
50
360
0
SPLINE
5
A8
100
AcDbEntity
8
1
62
256
6
ByLayer
370
18
48
1
60
0
100
AcDbSpline
70
4
71
1
72
4
73
2
40
0
40
0
40
1
40
1
41
1
10
4.05705248880489
20
1.08014949047316
30
0
41
1
10
4.05986222423218
20
1.07550914752122
30
0
0
SPLINE
5
A9
100
AcDbEntity
8
1
62
256
6
ByLayer
370
18
48
1
60
0
100
AcDbSpline
70
4
71
3
72
12
73
8
40
0
40
0
40
0
40
0
40
0.0941759012751956
40
0.370992267028797
40
0.477857063823643
40
0.588417992093531
40
1
40
1
40
1
40
1
41
1
10
21.8241951894417
20
-0.71583353963905
30
0
41
1
10
21.8240310549985
20
-0.715839955335355
30
0
41
1
10
21.8264749128049
20
-0.717043702690574
30
0
41
1
10
21.8477195552778
20
-0.725914053737625
30
0
41
1
10
21.8845408062529
20
-0.743614482341286
30
0
41
1
10
21.9670665727566
20
-0.78203538756955
30
0
41
1
10
22.05965148669
20
-0.828277129017181
30
0
41
1
10
22.1526988306086
20
-0.875525018677251
30
0
0
SPLINE
5
AA
100
AcDbEntity
8
1
62
256
6
ByLayer
370
18
48
1
60
0
100
AcDbSpline
70
4
71
3
72
19
73
15
40
0
40
0
40
0
40
0
40
0.0937714352695664
40
0.165093714720374
40
0.215180210409548
40
0.261740034433356
40
0.310901449702473
40
0.409188008702079
40
0.502003673941879
40
0.724067386736233
40
0.769690330593983
40
0.832521875819429
40
0.918581082655218
40
1
40
1
40
1
40
1
41
1
10
13.7080058148983
20
-2.46174279027707
30
0
41
1
10
13.9351800764898
20
-2.46206854950759
30
0
41
1
10
14.3352113686172
20
-2.46248002981866
30
0
41
1
10
14.8570748139889
20
-2.46242062909516
30
0
41
1
10
15.2641156641477
20
-2.46245824785183
30
0
41
1
10
15.6175566770543
20
-2.46302313110124
30
0
41
1
10
16.0879513522866
20
-2.46365483173426
30
0
41
1
10
16.6704752764167
20
-2.4629139604863
30
0
41
1
10
17.6722186093546
20
-2.46512776428705
30
0
41
1
10
18.5462669692259
20
-2.46325643493231
30
0
41
1
10
19.3476258733431
20
-2.46568602376161
30
0
41
1
10
19.8192109915531
20
-2.46467002351335
30
0
41
1
10
20.3776150260064
20
-2.46374548839398
30
0
41
1
10
20.7836418911682
20
-2.46501855981666
30
0
41
1
10
20.9810269026254
20
-2.46595943715724
30
0
0
SPLINE
5
AB
100
AcDbEntity
8
1
62
256
6
ByLayer
370
18
48
1
60
0
100
AcDbSpline
70
4
71
2
72
6
73
3
40
0
40
0
40
0
40
1
40
1
40
1
41
1
10
28.5976921987609
20
-2.47047004340774
30
0
41
1
10
28.8431349623972
20
-2.47008732267722
30
0
41
1
10
29.0886158237446
20
-2.47101744538239
30
0
0
SPLINE
5
AC
100
AcDbEntity
8
1
62
256
6
ByLayer
370
18
48
1
60
0
100
AcDbSpline
70
4
71
2
72
6
73
3
40
0
40
0
40
0
40
1
40
1
40
1
41
1
10
6.02832913344676
20
2.4585810033511
30
0
41
1
10
5.13976019413482
20
2.45961656361891
30
0
41
1
10
4.25119256053375
20
2.45683825873289
30
0
0
SPLINE
5
AD
100
AcDbEntity
8
1
62
256
6
ByLayer
370
18
48
1
60
0
100
AcDbSpline
70
4
71
3
72
22
73
18
40
0
40
0
40
0
40
0
40
0.0855589840806033
40
0.173841341799548
40
0.236420198529235
40
0.296066895776379
40
0.355510723496321
40
0.415355570895825
40
0.475760483524245
40
0.540202185682113
40
0.610355584284789
40
0.685712345308045
40
0.765012253214195
40
0.843408557522983
40
0.911540193696127
40
0.984418091948291
40
1
40
1
40
1
40
1
41
1
10
20.981148323638
20
2.4659154777448
30
0
41
1
10
20.810166370511
20
2.46508364016773
30
0
41
1
10
20.4627544398009
20
2.46395381647761
30
0
41
1
10
19.9902468352246
20
2.46434428519595
30
0
41
1
10
19.5695456873582
20
2.4653121628152
30
0
41
1
10
19.206499797869
20
2.46534815166683
30
0
41
1
10
18.8489439434915
20
2.46429190855957
30
0
41
1
10
18.4897963071425
20
2.46413984155197
30
0
41
1
10
18.1207022554045
20
2.46297812784104
30
0
41
1
10
17.7309848422113
20
2.46368327493244
30
0
41
1
10
17.3113799266639
20
2.46443046210737
30
0
41
1
10
16.8620811921718
20
2.46349085441079
30
0
41
1
10
16.3963095241213
20
2.4631076038128
30
0
41
1
10
15.9449779747779
20
2.46360467175725
30
0
41
1
10
15.5064718933897
20
2.46274463524327
30
0
41
1
10
15.1935398356318
20
2.46250052728399
30
0
41
1
10
15.0167497256382
20
2.46247744116289
30
0
41
1
10
14.985608481951
20
2.46247583895394
30
0
0
SPLINE
5
AE
100
AcDbEntity
8
1
62
256
6
ByLayer
370
18
48
1
60
0
100
AcDbSpline
70
4
71
2
72
6
73
3
40
0
40
0
40
0
40
1
40
1
40
1
41
1
10
4.25119256053381
20
-2.45683825873291
30
0
41
1
10
5.13683412016542
20
-2.4596108975509
30
0
41
1
10
6.02247698120817
20
-2.45858223035705
30
0
0
SPLINE
5
AF
100
AcDbEntity
8
1
62
256
6
ByLayer
370
18
48
1
60
0
100
AcDbSpline
70
4
71
3
72
8
73
4
40
0
40
0
40
0
40
0
40
1
40
1
40
1
40
1
41
1
10
4.09887659464306
20
1.03268835368979
30
0
41
1
10
4.1089383585259
20
1.02393604246555
30
0
41
1
10
4.11969450342602
20
1.01594205928927
30
0
41
1
10
4.13122872261363
20
1.00879703971725
30
0
0
SPLINE
5
B0
100
AcDbEntity
8
1
62
256
6
ByLayer
370
18
48
1
60
0
100
AcDbSpline
70
4
71
3
72
16
73
12
40
0
40
0
40
0
40
0
40
0.25000000000002
40
0.25000000000002
40
0.50000000000004
40
0.50000000000004
40
0.625000000000051
40
0.625000000000051
40
0.750000000000061
40
0.750000000000061
40
1
40
1
40
1
40
1
41
1
10
28.839160966666
20
0.504776309160235
30
0
41
1
10
28.8330299370805
20
0.533972297898032
30
0
41
1
10
28.8306146953056
20
0.563887265709837
30
0
41
1
10
28.8326959939285
20
0.625625199815289
30
0
41
1
10
28.8368429652861
20
0.657337815211179
30
0
41
1
10
28.8516448928103
20
0.703165867722902
30
0
41
1
10
28.8583049130598
20
0.718083579960933
30
0
41
1
10
28.8757110785505
20
0.74482735461163
30
0
41
1
10
28.8865747239584
20
0.757082826574702
30
0
41
1
10
28.9232553670184
20
0.788060344311646
30
0
41
1
10
28.9532645818799
20
0.801350334460949
30
0
41
1
10
28.9844335282775
20
0.808782986839816
30
0
0
SPLINE
5
B1
100
AcDbEntity
8
1
62
256
6
ByLayer
370
18
48
1
60
0
100
AcDbSpline
70
4
71
3
72
10
73
6
40
0
40
0
40
0
40
0
40
0.878857656424189
40
0.878857656424189
40
1
40
1
40
1
40
1
41
1
10
29.1374828128255
20
-2.46099087537615
30
0
41
1
10
28.0970608925062
20
-2.50927601763044
30
0
41
1
10
27.0796891195708
20
-2.37855496077913
30
0
41
1
10
25.898117946474
20
-2.05243962463968
30
0
41
1
10
25.7542519362564
20
-2.00987055495293
30
0
41
1
10
25.6103837138153
20
-1.9646462382081
30
0
0
SPLINE
5
B2
100
AcDbEntity
8
1
62
256
6
ByLayer
370
13
48
1
60
0
100
AcDbSpline
70
4
71
3
72
24
73
20
40
0
40
0
40
0
40
0
40
0.0459591473113491
40
0.0459591473113491
40
0.148400990423018
40
0.148400990423018
40
0.353284676646355
40
0.353284676646355
40
0.455726519758025
40
0.455726519758025
40
0.50694744131386
40
0.50694744131386
40
0.558168362869694
40
0.558168362869694
40
0.763052049093034
40
0.763052049093034
40
0.967935735316373
40
0.967935735316373
40
1
40
1
40
1
40
1
41
1
10
25.6103831065757
20
-1.96464604732509
30
0
41
1
10
25.4933194636683
20
-1.92784762130208
30
0
41
1
10
25.3762543567549
20
-1.88929119412151
30
0
41
1
10
24.9995112281095
20
-1.75982563924535
30
0
41
1
10
24.7408276317929
20
-1.66264322000885
30
0
41
1
10
23.9667514598752
20
-1.35125766489966
30
0
41
1
10
23.4531986869676
20
-1.11739552666552
30
0
41
1
10
22.6783116561413
20
-0.74154378406385
30
0
41
1
10
22.4192360469842
20
-0.612092969467028
30
0
41
1
10
22.0284292284179
20
-0.413460089960211
30
0
41
1
10
21.8975429170267
20
-0.346395380192121
30
0
41
1
10
21.6368396348605
20
-0.212215387968087
30
0
41
1
10
21.5068622222364
20
-0.145023743050473
30
0
41
1
10
20.8584048567215
20
0.190561005086011
30
0
41
1
10
20.3443408660103
20
0.458007400147352
30
0
41
1
10
19.3138853655193
20
0.968357462815504
30
0
41
1
10
18.797490157268
20
1.21142767853195
30
0
41
1
10
18.192783723101
20
1.46604351831735
30
0
41
1
10
18.1110177228918
20
1.49983511641281
30
0
41
1
10
18.0292925589832
20
1.53292822902083
30
0
0
SPLINE
5
B3
100
AcDbEntity
8
1
62
256
6
ByLayer
370
18
48
1
60
0
100
AcDbSpline
70
4
71
3
72
18
73
14
40
0
40
0
40
0
40
0
40
0.25
40
0.25
40
0.5
40
0.5
40
0.625
40
0.625
40
0.75
40
0.75
40
0.875
40
0.875
40
1
40
1
40
1
40
1
41
1
10
29.6517567504495
20
1.29044234918948
30
0
41
1
10
29.6131388044724
20
1.39481146502888
30
0
41
1
10
29.5743128859876
20
1.4992108092118
30
0
41
1
10
29.4961793965566
20
1.70691296894583
30
0
41
1
10
29.4569021943586
20
1.81017504065375
30
0
41
1
10
29.397815345069
20
1.96458944114289
30
0
41
1
10
29.3780704316768
20
2.01592294037567
30
0
41
1
10
29.3383915789197
20
2.11806091113101
30
0
41
1
10
29.3184665473915
20
2.1688903130495
30
0
41
1
10
29.2785568611598
20
2.27038224927844
30
0
41
1
10
29.258551731952
20
2.32098748151566
30
0
41
1
10
29.2182815885915
20
2.4214706050029
30
0
41
1
10
29.1979962276031
20
2.47129155148599
30
0
41
1
10
29.1776402655621
20
2.52091490653402
30
0
0
SPLINE
5
B4
100
AcDbEntity
8
1
62
256
6
ByLayer
370
18
48
1
60
0
100
AcDbSpline
70
4
71
3
72
14
73
10
40
0
40
0
40
0
40
0
40
0.25
40
0.25
40
0.5
40
0.5
40
0.75
40
0.75
40
1
40
1
40
1
40
1
41
1
10
4.25142261094655
20
-2.2604475302528
30
0
41
1
10
4.23126680095137
20
-2.25552309642728
30
0
41
1
10
4.21096207163561
20
-2.25309219776227
30
0
41
1
10
4.1700181991585
20
-2.25404979630898
30
0
41
1
10
4.1493329147126
20
-2.2575582709099
30
0
41
1
10
4.11021300165714
20
-2.27134284859193
30
0
41
1
10
4.09129764156114
20
-2.28186740693857
30
0
41
1
10
4.05829288938395
20
-2.30908023960549
30
0
41
1
10
4.04365607880132
20
-2.32623777011671
30
0
41
1
10
4.03221339502906
20
-2.34545471282533
30
0
0
SPLINE
5
B5
100
AcDbEntity
8
1
62
256
6
ByLayer
370
18
48
1
60
0
100
AcDbSpline
70
4
71
3
72
20
73
16
40
0
40
0
40
0
40
0
40
0.250000000000016
40
0.250000000000016
40
0.500000000000032
40
0.500000000000032
40
0.62500000000002
40
0.62500000000002
40
0.750000000000008
40
0.750000000000008
40
0.874999999999996
40
0.874999999999996
40
0.937499999999998
40
0.937499999999998
40
1
40
1
40
1
40
1
41
1
10
28.9844335282821
20
0.808782986830948
30
0
41
1
10
29.0567090713782
20
0.826018057291606
30
0
41
1
10
29.1285235196066
20
0.845527458131585
30
0
41
1
10
29.2688040355527
20
0.891908547772317
30
0
41
1
10
29.3374850149742
20
0.918577351664595
30
0
41
1
10
29.4359124951879
20
0.969946521275233
30
0
41
1
10
29.4678911536426
20
0.98902747566774
30
0
41
1
10
29.527734856992
20
1.03245727942471
30
0
41
1
10
29.555902967348
20
1.05707538451168
30
0
41
1
10
29.6036900736574
20
1.11291688673074
30
0
41
1
10
29.6238417750342
20
1.14508495195045
30
0
41
1
10
29.6431004957138
20
1.19740854920016
30
0
41
1
10
29.6477886643295
20
1.21578599364818
30
0
41
1
10
29.6528467807325
20
1.25301961164942
30
0
41
1
10
29.6532204366443
20
1.27170102032673
30
0
41
1
10
29.6517567504495
20
1.29044234918945
30
0
0
SPLINE
5
B6
100
AcDbEntity
8
1
62
256
6
ByLayer
370
18
48
1
60
0
100
AcDbSpline
70
4
71
3
72
8
73
4
40
0
40
0
40
0
40
0
40
1
40
1
40
1
40
1
41
1
10
4.13122872261363
20
1.00879703971725
30
0
41
1
10
4.15371747000285
20
0.992901098371533
30
0
41
1
10
4.17812459146651
20
0.978552004772581
30
0
41
1
10
4.20302724796596
20
0.966208438580964
30
0
0
SPLINE
5
B7
100
AcDbEntity
8
1
62
256
6
ByLayer
370
13
48
1
60
0
100
AcDbSpline
70
4
71
3
72
10
73
6
40
0
40
0
40
0
40
0
40
0.5
40
0.5
40
1
40
1
40
1
40
1
41
1
10
4.03149039938265
20
1.14480135378449
30
0
41
1
10
4.04252580513992
20
1.12610007393366
30
0
41
1
10
4.05657700934293
20
1.10842034242614
30
0
41
1
10
4.09016418200375
20
1.07705056355715
30
0
41
1
10
4.10932743690555
20
1.06356291048917
30
0
41
1
10
4.13122872261363
20
1.05256274712656
30
0
0
SPLINE
5
B8
100
AcDbEntity
8
1
62
256
6
ByLayer
370
18
48
1
60
0
100
AcDbSpline
70
4
71
3
72
8
73
4
40
0
40
0
40
0
40
0
40
1
40
1
40
1
40
1
41
1
10
29.1114438207545
20
-2.57844532307928
30
0
41
1
10
29.1153273532707
20
-2.56810643786582
30
0
41
1
10
29.1192080020194
20
-2.55776431691211
30
0
41
1
10
29.1230856966626
20
-2.54741915299789
30
0
0
SPLINE
5
B9
100
AcDbEntity
8
1
62
256
6
ByLayer
370
18
48
1
60
0
100
AcDbSpline
70
4
71
3
72
16
73
12
40
0
40
0
40
0
40
0
40
0.208139236030338
40
0.208139236030338
40
0.416278472060677
40
0.416278472060677
40
0.624417708091015
40
0.624417708091015
40
0.832556944121354
40
0.832556944121354
40
1
40
1
40
1
40
1
41
1
10
6.2670620229992
20
-2.45543242177195
30
0
41
1
10
6.48326049241771
20
-2.45043955267874
30
0
41
1
10
6.69913898674517
20
-2.43731831883562
30
0
41
1
10
7.13026455770105
20
-2.39619363847683
30
0
41
1
10
7.34546381521002
20
-2.36789425723663
30
0
41
1
10
7.77701058503771
20
-2.29662966011435
30
0
41
1
10
7.99341953904889
20
-2.25356084186657
30
0
41
1
10
8.42523542629422
20
-2.15482532915067
30
0
41
1
10
8.64090085521795
20
-2.10006494673769
30
0
41
1
10
9.02983103058156
20
-1.98800439006209
30
0
41
1
10
9.20309808530979
20
-1.93315673989969
30
0
41
1
10
9.37670718181096
20
-1.87470733072729
30
0
0
SPLINE
5
BA
100
AcDbEntity
8
1
62
256
6
ByLayer
370
18
48
1
60
0
100
AcDbSpline
70
4
71
3
72
26
73
22
40
0
40
0
40
0
40
0
40
0.0303842240093008
40
0.0303842240093008
40
0.13811931023049
40
0.13811931023049
40
0.245854396451679
40
0.245854396451679
40
0.353589482672868
40
0.353589482672868
40
0.461324568894057
40
0.461324568894057
40
0.569059655115246
40
0.569059655115246
40
0.676794741336435
40
0.676794741336435
40
0.784529827557624
40
0.784529827557624
40
0.892264913778814
40
0.892264913778814
40
1
40
1
40
1
40
1
41
1
10
20.9763935225681
20
2.46622771607534
30
0
41
1
10
21.0371968988659
20
2.46649875411745
30
0
41
1
10
21.0980201788551
20
2.46608757089624
30
0
41
1
10
21.3747078001763
20
2.46074836714541
30
0
41
1
10
21.5911167624523
20
2.44839508476989
30
0
41
1
10
22.0233548529939
20
2.4092749371284
30
0
41
1
10
22.2392367694685
20
2.38345686758652
30
0
41
1
10
22.670700593069
20
2.31675407794106
30
0
41
1
10
22.8861651576524
20
2.2751382802677
30
0
41
1
10
23.3184423967212
20
2.17878478959483
30
0
41
1
10
23.5351012975558
20
2.12336954303456
30
0
41
1
10
23.9668512661219
20
2.00139792111219
30
0
41
1
10
24.1825798557908
20
1.93406244128278
30
0
41
1
10
24.6142302736178
20
1.78692972504211
30
0
41
1
10
24.8299695296403
20
1.70726248105294
30
0
41
1
10
25.262971400018
20
1.53897265425781
30
0
41
1
10
25.478926668649
20
1.45054687314368
30
0
41
1
10
25.9102320717293
20
1.26346422699333
30
0
41
1
10
26.1259717099621
20
1.16581943376102
30
0
41
1
10
26.5578893265022
20
0.964112996408687
30
0
41
1
10
26.7741675035357
20
0.859530046850978
30
0
41
1
10
26.9903058932751
20
0.753245265758409
30
0
0
SPLINE
5
BB
100
AcDbEntity
8
1
62
256
6
ByLayer
370
18
48
1
60
0
100
AcDbSpline
70
4
71
3
72
12
73
8
40
0
40
0
40
0
40
0
40
0.250000000000002
40
0.250000000000002
40
0.500000000000004
40
0.500000000000004
40
1
40
1
40
1
40
1
41
1
10
6.26694978008089
20
-2.45543501321862
30
0
41
1
10
6.09570380138672
20
-2.45936279258481
30
0
41
1
10
5.92481510894703
20
-2.45892745952901
30
0
41
1
10
5.58536897119552
20
-2.44898086536665
30
0
41
1
10
5.41663931873055
20
-2.43916097333377
30
0
41
1
10
4.91302213605167
20
-2.39314831140743
30
0
41
1
10
4.58053365763055
20
-2.34085539135208
30
0
41
1
10
4.25142261116156
20
-2.26044753030701
30
0
0
SPLINE
5
BC
100
AcDbEntity
8
1
62
256
6
ByLayer
370
13
48
1
60
0
100
AcDbSpline
70
4
71
3
72
8
73
4
40
0
40
0
40
0
40
0
40
1
40
1
40
1
40
1
41
1
10
4.25043574980603
20
1.0068974694791
30
0
41
1
10
4.20886264666947
20
1.01859470610739
30
0
41
1
10
4.16824163063086
20
1.03397260405728
30
0
41
1
10
4.13122872261363
20
1.05256274712653
30
0
0
SPLINE
5
BD
100
AcDbEntity
8
1
62
256
6
ByLayer
370
18
48
1
60
0
100
AcDbSpline
70
4
71
3
72
70
73
66
40
0
40
0
40
0
40
0
40
0.033289500891251
40
0.033289500891251
40
0.066579001782502
40
0.066579001782502
40
0.099868502673753
40
0.099868502673753
40
0.133158003565004
40
0.133158003565004
40
0.166447504456255
40
0.166447504456255
40
0.199737005347506
40
0.199737005347506
40
0.233026506238757
40
0.233026506238757
40
0.266316007130008
40
0.266316007130008
40
0.299605508021259
40
0.299605508021259
40
0.33289500891251
40
0.33289500891251
40
0.366184509803761
40
0.366184509803761
40
0.382829260249387
40
0.382829260249387
40
0.399474010695012
40
0.399474010695012
40
0.432763511586263
40
0.432763511586263
40
0.466053012477514
40
0.466053012477514
40
0.499342513368765
40
0.499342513368765
40
0.532632014260016
40
0.532632014260016
40
0.565921515151267
40
0.565921515151267
40
0.599211016042518
40
0.599211016042518
40
0.632500516933769
40
0.632500516933769
40
0.66579001782502
40
0.66579001782502
40
0.699079518716271
40
0.699079518716271
40
0.732369019607522
40
0.732369019607522
40
0.765658520498773
40
0.765658520498773
40
0.798948021390024
40
0.798948021390024
40
0.832237522281275
40
0.832237522281275
40
0.865527023172526
40
0.865527023172526
40
0.898816524063777
40
0.898816524063777
40
0.932106024955028
40
0.932106024955028
40
0.965395525846279
40
0.965395525846279
40
0.99868502673753
40
0.99868502673753
40
1
40
1
40
1
40
1
41
1
10
9.93033849850889
20
2.06059807474065
30
0
41
1
10
10.1324681885779
20
2.12767370065996
30
0
41
1
10
10.334181045978
20
2.18808777313006
30
0
41
1
10
10.7360657968399
20
2.29705385363448
30
0
41
1
10
10.9358668363249
20
2.34583185576758
30
0
41
1
10
11.335675107066
20
2.42998023691837
30
0
41
1
10
11.5356024000101
20
2.46553395231848
30
0
41
1
10
11.9347052894663
20
2.52403796233028
30
0
41
1
10
12.1342666214916
20
2.54670809449024
30
0
41
1
10
12.5348905500051
20
2.57839001987748
30
0
41
1
10
12.7354412746857
20
2.58757187281608
30
0
41
1
10
13.1377926088917
20
2.59199832994077
30
0
41
1
10
13.3409333537733
20
2.5872261319121
30
0
41
1
10
13.7443898346821
20
2.56386438500437
30
0
41
1
10
13.9448379738221
20
2.54516658682877
30
0
41
1
10
14.3456442351003
20
2.4948416602345
30
0
41
1
10
14.5457461541883
20
2.46321527013816
30
0
41
1
10
14.9447244246374
20
2.38662717947858
30
0
41
1
10
15.144263556703
20
2.34206094210481
30
0
41
1
10
15.5440431183271
20
2.24104802976907
30
0
41
1
10
15.743764711777
20
2.18410297219123
30
0
41
1
10
16.1446356376474
20
2.05877412488314
30
0
41
1
10
16.346063588107
20
1.99079486958766
30
0
41
1
10
16.6490892908898
20
1.87993265933971
30
0
41
1
10
16.7502555773747
20
1.84138844979563
30
0
41
1
10
16.9518932348301
20
1.76228069706039
30
0
41
1
10
17.0526105586422
20
1.72177917785459
30
0
41
1
10
17.3543117061977
20
1.59728848765434
30
0
41
1
10
17.5546299905561
20
1.50999256285644
30
0
41
1
10
17.9541039750761
20
1.32751440015019
30
0
41
1
10
18.1538005759436
20
1.23319805902389
30
0
41
1
10
18.5530698083637
20
1.03845704795219
30
0
41
1
10
18.7521872820724
20
0.937219501768482
30
0
41
1
10
19.1519561234782
20
0.73141876663189
30
0
41
1
10
19.3524623011406
20
0.626652945560807
30
0
41
1
10
19.7540154410781
20
0.411947543496723
30
0
41
1
10
19.9559530960916
20
0.302515284084564
30
0
41
1
10
20.3604136985691
20
0.083714586026332
30
0
41
1
10
20.5614388458533
20
-0.0261589808360441
30
0
41
1
10
20.962107052404
20
-0.244871597563162
30
0
41
1
10
21.1623689492332
20
-0.352547322836898
30
0
41
1
10
21.561739834789
20
-0.566518057233822
30
0
41
1
10
21.7607850017686
20
-0.672895794203214
30
0
41
1
10
22.16002515422
20
-0.880026004386707
30
0
41
1
10
22.359927539445
20
-0.981333208930465
30
0
41
1
10
22.7597450014038
20
-1.18031767104802
30
0
41
1
10
22.9603544318462
20
-1.27678329490257
30
0
41
1
10
23.363435688339
20
-1.46287067627446
30
0
41
1
10
23.5659403094608
20
-1.55349129262888
30
0
41
1
10
23.9686123376476
20
-1.72410835105899
30
0
41
1
10
24.1695239949803
20
-1.80408599523193
30
0
41
1
10
24.5696468960014
20
-1.95483551639288
30
0
41
1
10
24.7689289513387
20
-2.02540952415515
30
0
41
1
10
25.1682039034228
20
-2.15440723145886
30
0
41
1
10
25.3676067149011
20
-2.21354356383233
30
0
41
1
10
25.7664913581034
20
-2.32032935415376
30
0
41
1
10
25.9665079317073
20
-2.3675093342425
30
0
41
1
10
26.3675811982699
20
-2.44954587108242
30
0
41
1
10
26.5682100124887
20
-2.48461741745658
30
0
41
1
10
26.9722757701479
20
-2.54093598715755
30
0
41
1
10
27.1746510717221
20
-2.56224827787116
30
0
41
1
10
27.5763768060368
20
-2.59115670744572
30
0
41
1
10
27.7766467682367
20
-2.59863487123906
30
0
41
1
10
27.9848436000328
20
-2.59927681111986
30
0
41
1
10
27.9927542724454
20
-2.59929050664488
30
0
41
1
10
28.0006641549286
20
-2.59929350185777
30
0
0
SPLINE
5
BE
100
AcDbEntity
8
1
62
256
6
ByLayer
370
18
48
1
60
0
100
AcDbSpline
70
4
71
3
72
10
73
6
40
0
40
0
40
0
40
0
40
0.5
40
0.5
40
1
40
1
40
1
40
1
41
1
10
4.09887659464675
20
1.03268835369525
30
0
41
1
10
4.07938671319516
20
1.04624232493416
30
0
41
1
10
4.06289102850775
20
1.06282673405849
30
0
41
1
10
4.03884255034927
20
1.10120032225072
30
0
41
1
10
4.03148249348018
20
1.12277518395806
30
0
41
1
10
4.03149039938376
20
1.14480135378201
30
0
0
SPLINE
5
BF
100
AcDbEntity
8
1
62
256
6
ByLayer
370
18
48
1
60
0
100
AcDbSpline
70
4
71
3
72
14
73
10
40
0
40
0
40
0
40
0
40
0.108569220540604
40
0.108569220540604
40
0.554284610270302
40
0.554284610270302
40
0.777142305135151
40
0.777142305135151
40
1
40
1
40
1
40
1
41
1
10
4.03206543047725
20
-2.58492649851635
30
0
41
1
10
4.03207166160524
20
-2.5849168086238
30
0
41
1
10
4.0320778705005
20
-2.58394799806689
30
0
41
1
10
4.03210944618854
20
-2.57405551240012
30
0
41
1
10
4.03213361645663
20
-2.55004232548876
30
0
41
1
10
4.03216668508043
20
-2.49090281191141
30
0
41
1
10
4.03217716234914
20
-2.46730862617863
30
0
41
1
10
4.03219660735758
20
-2.41218951274027
30
0
41
1
10
4.03220559602687
20
-2.38049847740211
30
0
41
1
10
4.03221339502903
20
-2.3454547128253
30
0
0
SPLINE
5
C0
100
AcDbEntity
8
1
62
256
6
ByLayer
370
18
48
1
60
0
100
AcDbSpline
70
4
71
3
72
18
73
14
40
0
40
0
40
0
40
0
40
0.194233655256195
40
0.194233655256195
40
0.38846731051239
40
0.38846731051239
40
0.582700965768585
40
0.582700965768585
40
0.77693462102478
40
0.77693462102478
40
0.971168276280974
40
0.971168276280974
40
1
40
1
40
1
40
1
41
1
10
9.93033849850889
20
-2.06059807474065
30
0
41
1
10
10.1324681885779
20
-2.12767370065996
30
0
41
1
10
10.334181045978
20
-2.18808777313006
30
0
41
1
10
10.7360657968399
20
-2.29705385363448
30
0
41
1
10
10.9358668363249
20
-2.34583185576758
30
0
41
1
10
11.335675107066
20
-2.42998023691837
30
0
41
1
10
11.5356024000101
20
-2.46553395231848
30
0
41
1
10
11.9347052894663
20
-2.52403796233028
30
0
41
1
10
12.1342666214916
20
-2.54670809449027
30
0
41
1
10
12.5348905500051
20
-2.57839001987748
30
0
41
1
10
12.7354412746857
20
-2.58757187281608
30
0
41
1
10
12.966479126307
20
-2.59011362937915
30
0
41
1
10
12.9963846092396
20
-2.59028824087883
30
0
41
1
10
13.0263223435881
20
-2.59030918690615
30
0
0
SPLINE
5
C1
100
AcDbEntity
8
1
62
256
6
ByLayer
370
18
48
1
60
0
100
AcDbSpline
70
4
71
3
72
24
73
20
40
0
40
0
40
0
40
0
40
0.0029288114801465
40
0.0029288114801465
40
0.127562710045129
40
0.127562710045129
40
0.25219660861011
40
0.25219660861011
40
0.376830507175092
40
0.376830507175092
40
0.501464405740073
40
0.501464405740073
40
0.626098304305055
40
0.626098304305055
40
0.750732202870037
40
0.750732202870037
40
0.875366101435018
40
0.875366101435018
40
1
40
1
40
1
40
1
41
1
10
24.3554801202375
20
1.87413935482354
30
0
41
1
10
24.3601823611373
20
1.87591570324591
30
0
41
1
10
24.3648841380638
20
1.87768950042653
30
0
41
1
10
24.5696468960015
20
1.9548355163929
30
0
41
1
10
24.7689289513388
20
2.02540952415518
30
0
41
1
10
25.1682039034229
20
2.15440723145889
30
0
41
1
10
25.3676067149012
20
2.21354356383239
30
0
41
1
10
25.7664913581035
20
2.32032935415379
30
0
41
1
10
25.9665079317074
20
2.36750933424253
30
0
41
1
10
26.36758119827
20
2.44954587108245
30
0
41
1
10
26.5682100124888
20
2.4846174174566
30
0
41
1
10
26.972275770148
20
2.54093598715758
30
0
41
1
10
27.1746510717222
20
2.56224827787119
30
0
41
1
10
27.5763768060369
20
2.59115670744572
30
0
41
1
10
27.7766467682368
20
2.59863487123906
30
0
41
1
10
28.1772174335702
20
2.59986996344935
30
0
41
1
10
28.3769729350148
20
2.59363115145339
30
0
41
1
10
28.7766179955886
20
2.56737391931847
30
0
41
1
10
28.9770753158877
20
2.54757221151647
30
0
41
1
10
29.1776402655439
20
2.52091490655204
30
0
0
SPLINE
5
C2
100
AcDbEntity
8
1
62
256
6
ByLayer
370
13
48
1
60
0
100
AcDbSpline
70
4
71
3
72
12
73
8
40
0
40
0
40
0
40
0
40
0.0398535217116247
40
0.0398535217116247
40
0.519926760855812
40
0.519926760855812
40
1
40
1
40
1
40
1
41
1
10
4.25121701409654
20
-2.45740706985316
30
0
41
1
10
4.25122005221482
20
-2.45740388872755
30
0
41
1
10
4.25122308490899
20
-2.45729451697935
30
0
41
1
10
4.25126255816542
20
-2.45448637179663
30
0
41
1
10
4.25129841161831
20
-2.43676246248563
30
0
41
1
10
4.25136573103998
20
-2.37121352246768
30
0
41
1
10
4.25139738508881
20
-2.32257490776331
30
0
41
1
10
4.25142261094737
20
-2.26044753026548
30
0
0
SPLINE
5
C3
100
AcDbEntity
8
1
62
256
6
ByLayer
370
18
48
1
60
0
100
AcDbSpline
70
4
71
3
72
22
73
18
40
0
40
0
40
0
40
0
40
0.0868371196846326
40
0.0868371196846326
40
0.173674239369265
40
0.173674239369265
40
0.347348478738531
40
0.347348478738531
40
0.521022718107796
40
0.521022718107796
40
0.694696957477061
40
0.694696957477061
40
0.781534077161694
40
0.781534077161694
40
0.868371196846327
40
0.868371196846327
40
1
40
1
40
1
40
1
41
1
10
4.03149039938381
20
1.14480135378801
30
0
41
1
10
4.03151732915359
20
1.21982877783972
30
0
41
1
10
4.03154264792096
20
1.29288532173837
30
0
41
1
10
4.03159058688686
20
1.43505631900888
30
0
41
1
10
4.03161326764223
20
1.50437110092108
30
0
41
1
10
4.03167701939836
20
1.70306522999596
30
0
41
1
10
4.03171418822953
20
1.8242798665041
30
0
41
1
10
4.03178258459747
20
2.04452044248674
30
0
41
1
10
4.03181401148171
20
2.14404799574359
30
0
41
1
10
4.03187249464182
20
2.31234185270182
30
0
41
1
10
4.03189987526849
20
2.38225974278103
30
0
41
1
10
4.0319405242349
20
2.46548102809354
30
0
41
1
10
4.03195404465993
20
2.48963374675145
30
0
41
1
10
4.03198063022106
20
2.52959062728684
30
0
41
1
10
4.03199375561289
20
2.54554642249926
30
0
41
1
10
4.03202655519428
20
2.57577346425367
30
0
41
1
10
4.03204615770287
20
2.58499288582004
30
0
41
1
10
4.03206554486044
20
2.58492621289901
30
0
0
SPLINE
5
C4
100
AcDbEntity
8
1
62
256
6
ByLayer
370
18
48
1
60
0
100
AcDbSpline
70
4
71
3
72
8
73
4
40
0
40
0
40
0
40
0
40
1
40
1
40
1
40
1
41
1
10
6.02691276980369
20
2.45815887371592
30
0
41
1
10
6.10677090362205
20
2.45820603265341
30
0
41
1
10
6.18677880889163
20
2.45727385281532
30
0
41
1
10
6.26694978007887
20
2.45543501321865
30
0
0
SPLINE
5
C5
100
AcDbEntity
8
1
62
256
6
ByLayer
370
18
48
1
60
0
100
AcDbSpline
70
4
71
3
72
8
73
4
40
0
40
0
40
0
40
0
40
1
40
1
40
1
40
1
41
1
10
9.93095208942472
20
2.06080979353251
30
0
41
1
10
9.74870619870586
20
2.00056617662028
30
0
41
1
10
9.5654528126629
20
1.93711193261655
30
0
41
1
10
9.38105389273508
20
1.87112744148777
30
0
0
SPLINE
5
C6
100
AcDbEntity
8
1
62
256
6
ByLayer
370
18
48
1
60
0
100
AcDbSpline
70
4
71
3
72
10
73
6
40
0
40
0
40
0
40
0
40
0.350778777054648
40
0.350778777054648
40
1
40
1
40
1
40
1
41
1
10
9.93064014460703
20
2.06074582573831
30
0
41
1
10
9.87773812484647
20
2.03483391291766
30
0
41
1
10
9.8247680551134
20
2.00871633505955
30
0
41
1
10
9.67352870271682
20
1.93367225718842
30
0
41
1
10
9.57488370372528
20
1.88416747199693
30
0
41
1
10
9.47656173851783
20
1.83443346103618
30
0
0
SPLINE
5
C7
100
AcDbEntity
8
1
62
256
6
ByLayer
370
18
48
1
60
0
100
AcDbSpline
70
4
71
3
72
64
73
60
40
0
40
0
40
0
40
0
40
0.0329514866150623
40
0.0329514866150623
40
0.0687680982219122
40
0.0687680982219122
40
0.104584709828762
40
0.104584709828762
40
0.140401321435612
40
0.140401321435612
40
0.176217933042462
40
0.176217933042462
40
0.212034544649312
40
0.212034544649312
40
0.247851156256162
40
0.247851156256162
40
0.283667767863012
40
0.283667767863012
40
0.319484379469862
40
0.319484379469862
40
0.355300991076712
40
0.355300991076712
40
0.391117602683562
40
0.391117602683562
40
0.426934214290412
40
0.426934214290412
40
0.462750825897262
40
0.462750825897262
40
0.498567437504112
40
0.498567437504112
40
0.534384049110962
40
0.534384049110962
40
0.570200660717812
40
0.570200660717812
40
0.588108966521236
40
0.588108966521236
40
0.60601727232466
40
0.60601727232466
40
0.64183388393151
40
0.64183388393151
40
0.677650495538359
40
0.677650495538359
40
0.713467107145208
40
0.713467107145208
40
0.749283718752057
40
0.749283718752057
40
0.785100330358906
40
0.785100330358906
40
0.820916941965755
40
0.820916941965755
40
0.856733553572604
40
0.856733553572604
40
0.892550165179453
40
0.892550165179453
40
0.928366776786302
40
0.928366776786302
40
0.964183388393151
40
0.964183388393151
40
1
40
1
40
1
40
1
41
1
10
24.3537554626218
20
-1.87562538885649
30
0
41
1
10
24.1554195763712
20
-1.94243730609276
30
0
41
1
10
23.9565808897254
20
-2.00417022007218
30
0
41
1
10
23.5428594693574
20
-2.12131327244097
30
0
41
1
10
23.3275500240403
20
-2.17654084418285
30
0
41
1
10
22.8968750930974
20
-2.27295532267303
30
0
41
1
10
22.6817899925786
20
-2.31474833477341
30
0
41
1
10
22.2501450019215
20
-2.38204736711415
30
0
41
1
10
22.0340608496467
20
-2.40805120588337
30
0
41
1
10
21.6032113431119
20
-2.4475420811084
30
0
41
1
10
21.3878974721815
20
-2.46013598743403
30
0
41
1
10
20.9568493800919
20
-2.46914784760477
30
0
41
1
10
20.7410762022246
20
-2.46406846310467
30
0
41
1
10
20.3090431518759
20
-2.44175989148442
30
0
41
1
10
20.0933394694348
20
-2.42380849751015
30
0
41
1
10
19.6624737195487
20
-2.37311151659588
30
0
41
1
10
19.4470103145835
20
-2.34059730291955
30
0
41
1
10
19.0152231159402
20
-2.2594944883989
30
0
41
1
10
18.7990254769345
20
-2.21155017797338
30
0
41
1
10
18.3674481206189
20
-2.10307094794808
30
0
41
1
10
18.1518489915465
20
-2.04212733868198
30
0
41
1
10
17.7207787857643
20
-1.90929991168838
30
0
41
1
10
17.5050504300669
20
-1.8371561492182
30
0
41
1
10
17.0724184637355
20
-1.68052986647265
30
0
41
1
10
16.8568807034275
20
-1.59592645957815
30
0
41
1
10
16.4255880516509
20
-1.41931709123526
30
0
41
1
10
16.2099624676108
20
-1.32711385735399
30
0
41
1
10
15.7786134177046
20
-1.13371801343999
30
0
41
1
10
15.5621786380688
20
-1.03260444378645
30
0
41
1
10
15.1300548651522
20
-0.825632145952312
30
0
41
1
10
14.914593065262
20
-0.719242196886142
30
0
41
1
10
14.4832124035459
20
-0.503602446629799
30
0
41
1
10
14.2674606107402
20
-0.394138653798763
30
0
41
1
10
13.9433723254146
20
-0.227126043030239
30
0
41
1
10
13.8351417729629
20
-0.171083698853607
30
0
41
1
10
13.618833614333
20
-0.0594247139286779
30
0
41
1
10
13.5107124212483
20
-0.0036771605799402
30
0
41
1
10
13.1865735053287
20
0.163493360463264
30
0
41
1
10
12.9709882928705
20
0.27526024994981
30
0
41
1
10
12.539071697583
20
0.495766145432583
30
0
41
1
10
12.3225528819216
20
0.604675742631287
30
0
41
1
10
11.8897876882608
20
0.818969185696375
30
0
41
1
10
11.6737736257897
20
0.923243348794273
30
0
41
1
10
11.2416936799858
20
1.12576840371912
30
0
41
1
10
11.0259703770964
20
1.22463842233958
30
0
41
1
10
10.5934445180234
20
1.41374102040908
30
0
41
1
10
10.3765294464757
20
1.50417251118341
30
0
41
1
10
9.94447198193083
20
1.6737338864651
30
0
41
1
10
9.72855400288842
20
1.75342438895277
30
0
41
1
10
9.29645258248249
20
1.90318307778853
30
0
41
1
10
9.08062400973023
20
1.97319482148205
30
0
41
1
10
8.64739018123882
20
2.09836403765101
30
0
41
1
10
8.43091231340355
20
2.15342374844724
30
0
41
1
10
7.99844245209698
20
2.25251336146681
30
0
41
1
10
7.78210026401814
20
2.29569636420609
30
0
41
1
10
7.34860781803172
20
2.36746611654914
30
0
41
1
10
7.13254882261214
20
2.3959381950703
30
0
41
1
10
6.70005697918035
20
2.43726802480791
30
0
41
1
10
6.48364005766803
20
2.45043078703102
30
0
41
1
10
6.26706202299937
20
2.45543242177189
30
0
0
SPLINE
5
C8
100
AcDbEntity
8
1
62
256
6
ByLayer
370
18
48
1
60
0
100
AcDbSpline
70
4
71
3
72
20
73
16
40
0
40
0
40
0
40
0
40
0.140755765142224
40
0.140755765142224
40
0.281511530284448
40
0.281511530284448
40
0.563023060568899
40
0.563023060568899
40
0.633400943140012
40
0.633400943140012
40
0.703778825711126
40
0.703778825711126
40
0.844534590853353
40
0.844534590853353
40
1
40
1
40
1
40
1
41
1
10
4.20302724797446
20
0.966208438576729
30
0
41
1
10
4.46516935250636
20
0.836271762183458
30
0
41
1
10
4.72738482244506
20
0.701941829553533
30
0
41
1
10
5.24796026782917
20
0.429744119158642
30
0
41
1
10
5.50699152901962
20
0.291579462958566
30
0
41
1
10
6.28280973329251
20
-0.124363355497138
30
0
41
1
10
6.79855073369666
20
-0.403143920970422
30
0
41
1
10
7.44865646335737
20
-0.739639134584536
30
0
41
1
10
7.57894883226868
20
-0.806339833392428
30
0
41
1
10
7.84024703835757
20
-0.938218600482571
30
0
41
1
10
7.97147440655002
20
-1.00350972555111
30
0
41
1
10
8.36337821350494
20
-1.19501974800355
30
0
41
1
10
8.62326663641875
20
-1.31700907251712
30
0
41
1
10
9.16863037230078
20
-1.5595953461181
30
0
41
1
10
9.45392232322783
20
-1.67888105187754
30
0
41
1
10
9.7393409925678
20
-1.788603243035
30
0
0
SPLINE
5
C9
100
AcDbEntity
8
1
62
256
6
ByLayer
370
13
48
1
60
0
100
AcDbSpline
70
4
71
3
72
20
73
16
40
0
40
0
40
0
40
0
40
0.136966905296179
40
0.136966905296179
40
0.289917815179374
40
0.289917815179374
40
0.366393270120972
40
0.366393270120972
40
0.442868725062569
40
0.442868725062569
40
0.74877054482896
40
0.74877054482896
40
0.901721454712154
40
0.901721454712154
40
1
40
1
40
1
40
1
41
1
10
9.73934053744838
20
-1.7886030680755
30
0
41
1
10
9.97074853962854
20
-1.87756219423878
30
0
41
1
10
10.2022398388914
20
-1.96023481228747
30
0
41
1
10
10.6936065523309
20
-2.12019194996279
30
0
41
1
10
10.9536441683302
20
-2.19578852622263
30
0
41
1
10
11.3459670842415
20
-2.29459864827305
30
0
41
1
10
11.4771074120179
20
-2.3250779607157
30
0
41
1
10
11.7381372845829
20
-2.38041829833139
30
0
41
1
10
11.8682917595125
20
-2.40534950003044
30
0
41
1
10
12.5176260358664
20
-2.51622638756109
30
0
41
1
10
13.0333160041548
20
-2.56084542928556
30
0
41
1
10
13.8093261222086
20
-2.55976681351081
30
0
41
1
10
14.0685162009476
20
-2.54818613140589
30
0
41
1
10
14.4964605603175
20
-2.51025091961037
30
0
41
1
10
14.6646768746659
20
-2.49058080750532
30
0
41
1
10
14.8328387833952
20
-2.46631126670402
30
0
0
SPLINE
5
CA
100
AcDbEntity
8
1
62
256
6
ByLayer
370
18
48
1
60
0
100
AcDbSpline
70
4
71
3
72
34
73
30
40
0
40
0
40
0
40
0
40
0.125000000000004
40
0.125000000000004
40
0.250000000000008
40
0.250000000000008
40
0.375000000000013
40
0.375000000000013
40
0.500000000000017
40
0.500000000000017
40
0.625000000000021
40
0.625000000000021
40
0.687500000000018
40
0.687500000000018
40
0.750000000000014
40
0.750000000000014
40
0.812500000000011
40
0.812500000000011
40
0.843750000000009
40
0.843750000000009
40
0.875000000000007
40
0.875000000000007
40
0.906250000000005
40
0.906250000000005
40
0.937500000000004
40
0.937500000000004
40
0.968750000000002
40
0.968750000000002
40
1
40
1
40
1
40
1
41
1
10
26.990305893296
20
0.75324526574812
30
0
41
1
10
27.0795269296512
20
0.69324149401956
30
0
41
1
10
27.1692090816553
20
0.635665518279296
30
0
41
1
10
27.3498267985218
20
0.527112845562129
30
0
41
1
10
27.4409513820915
20
0.476023784206859
30
0
41
1
10
27.6233089850747
20
0.382313370018465
30
0
41
1
10
27.7146063229293
20
0.339628840871569
30
0
41
1
10
27.8974699422159
20
0.263722507921756
30
0
41
1
10
27.9890710202489
20
0.230511096226024
30
0
41
1
10
28.1703608527789
20
0.175565466975201
30
0
41
1
10
28.2603085561107
20
0.153705798125543
30
0
41
1
10
28.3940524563571
20
0.130397398078856
30
0
41
1
10
28.4383475200388
20
0.124234419928086
30
0
41
1
10
28.5260942979568
20
0.115335942304199
30
0
41
1
10
28.5696658511101
20
0.112582607396035
30
0
41
1
10
28.6517878826491
20
0.120815997620525
30
0
41
1
10
28.6906870025043
20
0.131185020389267
30
0
41
1
10
28.7424008340929
20
0.15690079090362
30
0
41
1
10
28.7586173441346
20
0.167232094610455
30
0
41
1
10
28.7883358300796
20
0.19257038195741
30
0
41
1
10
28.8016160103102
20
0.207564093293883
30
0
41
1
10
28.8236184529036
20
0.241697937989358
30
0
41
1
10
28.832597758319
20
0.261136439899559
30
0
41
1
10
28.8457161486058
20
0.303659736606534
30
0
41
1
10
28.8498039166698
20
0.326436966464598
30
0
41
1
10
28.8535711735436
20
0.37469476570493
30
0
41
1
10
28.8532157536384
20
0.400284001479747
30
0
41
1
10
28.8488043172752
20
0.45188076387339
30
0
41
1
10
28.8447551538242
20
0.478136766328817
30
0
41
1
10
28.8391609666668
20
0.504776309160377
30
0
0
SPLINE
5
CB
100
AcDbEntity
8
1
62
256
6
ByLayer
370
18
48
1
60
0
100
AcDbSpline
70
4
71
3
72
16
73
12
40
0
40
0
40
0
40
0
40
0.0502699280255593
40
0.0502699280255593
40
0.53365452774084
40
0.53365452774084
40
0.654500677669657
40
0.654500677669657
40
0.775346827598474
40
0.775346827598474
40
1
40
1
40
1
40
1
41
1
10
13.7462332581702
20
-2.46177643761976
30
0
41
1
10
13.6924472832668
20
-2.46174461731511
30
0
41
1
10
13.6386896165643
20
-2.46124684018574
30
0
41
1
10
13.0682453907891
20
-2.45105729117725
30
0
41
1
10
12.5530775719746
20
-2.39841303244012
30
0
41
1
10
11.9045754005863
20
-2.28028599091343
30
0
41
1
10
11.7746020894272
20
-2.25404312593847
30
0
41
1
10
11.5139718003393
20
-2.19640241010049
30
0
41
1
10
11.383072243971
20
-2.16493617143408
30
0
41
1
10
11.0099331335598
20
-2.06841773344496
30
0
41
1
10
10.7685341128016
20
-1.99778485177598
30
0
41
1
10
10.5278152945185
20
-1.91999752159458
30
0
0
SPLINE
5
CC
100
AcDbEntity
8
1
62
256
6
ByLayer
370
13
48
1
60
0
100
AcDbSpline
70
4
71
3
72
22
73
18
40
0
40
0
40
0
40
0
40
0.00873557740692
40
0.00873557740692
40
0.256551683055188
40
0.256551683055188
40
0.380459735879323
40
0.380459735879323
40
0.44241376229139
40
0.44241376229139
40
0.504367788703457
40
0.504367788703457
40
0.752183894351728
40
0.752183894351728
40
0.876091947175864
40
0.876091947175864
40
1
40
1
40
1
40
1
41
1
10
10.5278162463431
20
-1.9199978291729
30
0
41
1
10
10.5095582805672
20
-1.91409784151315
30
0
41
1
10
10.4913042279129
20
-1.90815669522388
30
0
41
1
10
9.95531617265476
20
-1.73247399200884
30
0
41
1
10
9.44054898967062
20
-1.52976336529056
30
0
41
1
10
8.66408757086057
20
-1.18980578822934
30
0
41
1
10
8.40452179813772
20
-1.07041461332642
30
0
41
1
10
8.0132781034271
20
-0.88370413890604
30
0
41
1
10
7.88232652595207
20
-0.82017307149539
30
0
41
1
10
7.6215224524322
20
-0.692037925305556
30
0
41
1
10
7.49145435777692
20
-0.627323275588594
30
0
41
1
10
6.8423760567089
20
-0.301322013959322
30
0
41
1
10
6.32711555720454
20
-0.0328252042515089
30
0
41
1
10
5.55220524832504
20
0.365573305663276
30
0
41
1
10
5.29351723964149
20
0.497553594897283
30
0
41
1
10
4.77376413706338
20
0.756690149928801
30
0
41
1
10
4.51206124367181
20
0.884114012616919
30
0
41
1
10
4.25043574980606
20
1.00689746947907
30
0
0
SPLINE
5
CD
100
AcDbEntity
8
1
62
256
6
ByLayer
370
18
48
1
60
0
100
AcDbSpline
70
4
71
3
72
20
73
16
40
0
40
0
40
0
40
0
40
0.124999999999998
40
0.124999999999998
40
0.249999999999997
40
0.249999999999997
40
0.499999999999998
40
0.499999999999998
40
0.624999999999998
40
0.624999999999998
40
0.749999999999999
40
0.749999999999999
40
0.874999999999999
40
0.874999999999999
40
1
40
1
40
1
40
1
41
1
10
29.1006543616288
20
-2.47093183371325
30
0
41
1
10
29.0638458725168
20
-2.47088192793024
30
0
41
1
10
29.0288701359773
20
-2.46534149894472
30
0
41
1
10
28.9627618569902
20
-2.44274727760285
30
0
41
1
10
28.9314461427339
20
-2.4255379449074
30
0
41
1
10
28.8451631811614
20
-2.35616826698762
30
0
41
1
10
28.7983354035906
20
-2.28744177490881
30
0
41
1
10
28.745015440735
20
-2.14878128935371
30
0
41
1
10
28.7300129271008
20
-2.09603540967987
30
0
41
1
10
28.7068433703201
20
-1.98073278690384
30
0
41
1
10
28.6985820028004
20
-1.91820754462518
30
0
41
1
10
28.6886393789046
20
-1.78350703236526
30
0
41
1
10
28.6869574800532
20
-1.71133270460285
30
0
41
1
10
28.6904131735922
20
-1.55698295974079
30
0
41
1
10
28.6955925009441
20
-1.47519124418517
30
0
41
1
10
28.7040398255363
20
-1.39070130038138
30
0
0
SPLINE
5
CE
100
AcDbEntity
8
1
62
256
6
ByLayer
370
18
48
1
60
0
100
AcDbSpline
70
4
71
3
72
8
73
4
40
0
40
0
40
0
40
0
40
1
40
1
40
1
40
1
41
1
10
4.13078578975356
20
1.01378500987215
30
0
41
1
10
4.11954699576808
20
1.0193910656117
30
0
41
1
10
4.10891902600031
20
1.02570448229167
30
0
41
1
10
4.09887659464817
20
1.03268835369445
30
0
0
SPLINE
5
CF
100
AcDbEntity
8
1
62
256
6
ByLayer
370
18
48
1
60
0
100
AcDbSpline
70
4
71
3
72
8
73
4
40
0
40
0
40
0
40
0
40
1
40
1
40
1
40
1
41
1
10
29.1114438207533
20
2.57844532310082
30
0
41
1
10
28.905916166432
20
2.59276449079133
30
0
41
1
10
28.7007328519994
20
2.59980858928196
30
0
41
1
10
28.4955431824425
20
2.59960774451153
30
0
0
SPLINE
5
D0
100
AcDbEntity
8
1
62
256
6
ByLayer
370
18
48
1
60
0
100
AcDbSpline
70
4
71
3
72
30
73
26
40
0
40
0
40
0
40
0
40
0.0653533717245608
40
0.0653533717245608
40
0.137249266207287
40
0.137249266207287
40
0.281041055172741
40
0.281041055172741
40
0.352936949655468
40
0.352936949655468
40
0.388884896896831
40
0.388884896896831
40
0.424832844138194
40
0.424832844138194
40
0.568624633103646
40
0.568624633103646
40
0.712416422069099
40
0.712416422069099
40
0.748364369310462
40
0.748364369310462
40
0.784312316551826
40
0.784312316551826
40
0.85620821103455
40
0.85620821103455
40
1
40
1
40
1
40
1
41
1
10
14.9932532795197
20
-2.47076415089174
30
0
41
1
10
14.7575662465421
20
-2.50932159419446
30
0
41
1
10
14.5213466985428
20
-2.53884754996667
30
0
41
1
10
14.0228944615553
20
-2.58105123500434
30
0
41
1
10
13.7597032572992
20
-2.59171253402411
30
0
41
1
10
12.9765199533705
20
-2.58814779814688
30
0
41
1
10
12.4593859323442
20
-2.53912778411572
30
0
41
1
10
11.6825996987679
20
-2.40009937765774
30
0
41
1
10
11.4233556116347
20
-2.34291583248452
30
0
41
1
10
11.0330121848177
20
-2.24143538090942
30
0
41
1
10
10.9026298489648
20
-2.20500899367303
30
0
41
1
10
10.6411495177933
20
-2.12706266943161
30
0
41
1
10
10.5097789137087
20
-2.08544884362834
30
0
41
1
10
9.85427492359619
20
-1.86610919551137
30
0
41
1
10
9.33636119171192
20
-1.65566810744227
30
0
41
1
10
8.30045003674417
20
-1.18520407967159
30
0
41
1
10
7.78291633979893
20
-0.924417322227526
30
0
41
1
10
7.1280056905951
20
-0.580264548564116
30
0
41
1
10
6.99647258248973
20
-0.510407838579141
30
0
41
1
10
6.73456368902438
20
-0.370279830918548
30
0
41
1
10
6.60395469858094
20
-0.299881834520477
30
0
41
1
10
6.21281251707853
20
-0.0883459216152005
30
0
41
1
10
5.95299435847022
20
0.0531923340896583
30
0
41
1
10
5.17417999156595
20
0.475255130626607
30
0
41
1
10
4.65525716073165
20
0.752171909450766
30
0
41
1
10
4.13078578975222
20
1.0137850098728
30
0
0
SPLINE
5
D1
100
AcDbEntity
8
1
62
256
6
ByLayer
370
18
48
1
60
0
100
AcDbSpline
70
4
71
3
72
12
73
8
40
0
40
0
40
0
40
0
40
0.249999999999996
40
0.249999999999996
40
0.499999999999992
40
0.499999999999992
40
1
40
1
40
1
40
1
41
1
10
29.1230856966486
20
-2.54741915299908
30
0
41
1
10
29.1280028878804
20
-2.53430075302904
30
0
41
1
10
29.1325412907718
20
-2.52088484151008
30
0
41
1
10
29.1395216215876
20
-2.49684665394315
30
0
41
1
10
29.1419369339132
20
-2.48625010648058
30
0
41
1
10
29.1452007631933
20
-2.46301921774511
30
0
41
1
10
29.1424846858786
20
-2.45852014787613
30
0
41
1
10
29.1374828128255
20
-2.46099087537615
30
0
0
SPLINE
5
D2
100
AcDbEntity
8
1
62
256
6
ByLayer
370
18
48
1
60
0
100
AcDbSpline
70
4
71
3
72
58
73
54
40
0
40
0
40
0
40
0
40
0.062499999999986
40
0.062499999999986
40
0.124999999999972
40
0.124999999999972
40
0.249999999999944
40
0.249999999999944
40
0.374999999999916
40
0.374999999999916
40
0.437499999999902
40
0.437499999999902
40
0.499999999999888
40
0.499999999999888
40
0.624999999999858
40
0.624999999999858
40
0.632812499999857
40
0.636718749999856
40
0.636718749999856
40
0.640624999999856
40
0.640624999999856
40
0.642578124999856
40
0.642578124999856
40
0.644531249999857
40
0.644531249999857
40
0.648437499999858
40
0.656249999999861
40
0.656249999999861
40
0.687499999999874
40
0.687499999999874
40
0.718749999999887
40
0.718749999999887
40
0.734374999999894
40
0.734374999999894
40
0.742187499999897
40
0.742187499999897
40
0.749999999999901
40
0.749999999999901
40
0.765624999999907
40
0.765624999999907
40
0.781249999999914
40
0.781249999999914
40
0.79687499999992
40
0.79687499999992
40
0.812499999999927
40
0.812499999999927
40
0.843749999999938
40
0.843749999999938
40
0.87499999999995
40
0.87499999999995
40
0.937499999999975
40
0.937499999999975
40
1
40
1
40
1
40
1
41
1
10
9.93095208942478
20
-2.06080979353254
30
0
41
1
10
9.71399294086211
20
-1.98909128300778
30
0
41
1
10
9.49560593934117
20
-1.91282257430282
30
0
41
1
10
9.0555104393886
20
-1.7534806035172
30
0
41
1
10
8.83365416801206
20
-1.67033856744615
30
0
41
1
10
8.16780017546336
20
-1.41682682574392
30
0
41
1
10
7.72157347323758
20
-1.24163566990222
30
0
41
1
10
6.81754132893118
20
-0.902718414669465
30
0
41
1
10
6.35965897171974
20
-0.739189473316458
30
0
41
1
10
5.65985131336561
20
-0.519888824669209
30
0
41
1
10
5.42443712937813
20
-0.451091076191574
30
0
41
1
10
4.9488745657861
20
-0.324417862731309
30
0
41
1
10
4.70835132472928
20
-0.266472876396278
30
0
41
1
10
3.98325493078067
20
-0.112619021742091
30
0
41
1
10
3.49388845496546
20
-0.0365027880059472
30
0
41
1
10
2.97072123744675
20
0.0118336847410205
30
0
41
1
10
2.92454338763164
20
0.015920240472326
30
0
41
1
10
2.87834133666001
20
0.0197375518297633
30
0
41
1
10
2.8475345744443
20
0.0222224089260976
30
0
41
1
10
2.83190665117371
20
0.0228698568876666
30
0
41
1
10
2.80911403652499
20
0.0198503147496183
30
0
41
1
10
2.80161277774585
20
0.0182922719484964
30
0
41
1
10
2.78691541421779
20
0.013428106099667
30
0
41
1
10
2.77994629487125
20
0.0097131857242516
30
0
41
1
10
2.75910891223734
20
-0.0009141668065524
30
0
41
1
10
2.71760502127989
20
-0.0224811178655386
30
0
41
1
10
2.67663881393392
20
-0.0450304560762618
30
0
41
1
10
2.54141645507744
20
-0.1226272151155
30
0
41
1
10
2.43811505128676
20
-0.191786115021699
30
0
41
1
10
2.24986750462892
20
-0.351673970142628
30
0
41
1
10
2.1635060680735
20
-0.444026994178472
30
0
41
1
10
2.06900718411927
20
-0.601903888517285
30
0
41
1
10
2.04342679874483
20
-0.658141810456584
30
0
41
1
10
2.01779581023504
20
-0.74375165240221
30
0
41
1
10
2.0112542672513
20
-0.772677243222006
30
0
41
1
10
2.00239435279144
20
-0.831330227148783
30
0
41
1
10
2.00010634531918
20
-0.861245173614435
30
0
41
1
10
1.99979403570848
20
-0.94919945903024
30
0
41
1
10
2.00808899340905
20
-1.00645734232126
30
0
41
1
10
2.03873833512094
20
-1.11763120027012
30
0
41
1
10
2.06048390020305
20
-1.16975155446804
30
0
41
1
10
2.11309446935533
20
-1.26891823734863
30
0
41
1
10
2.14424783565696
20
-1.31624230738612
30
0
41
1
10
2.21214176539775
20
-1.40508120690865
30
0
41
1
10
2.24884240098371
20
-1.44666998083156
30
0
41
1
10
2.36494360176977
20
-1.56509667276706
30
0
41
1
10
2.45057630840441
20
-1.63593909589702
30
0
41
1
10
2.63014602186911
20
-1.76554866203946
30
0
41
1
10
2.72320409263355
20
-1.82364752679535
30
0
41
1
10
3.0086704774144
20
-1.98404935942881
30
0
41
1
10
3.20724087712139
20
-2.07268728197855
30
0
41
1
10
3.61364118617746
20
-2.22629760593244
30
0
41
1
10
3.82256946476915
20
-2.29114719221821
30
0
41
1
10
4.03221339569052
20
-2.34545471299717
30
0
0
SPLINE
5
D3
100
AcDbEntity
8
1
62
256
6
ByLayer
370
18
48
1
60
0
100
AcDbSpline
70
4
71
3
72
24
73
20
40
0
40
0
40
0
40
0
40
0.0565070089781768
40
0.0565070089781768
40
0.157264482080253
40
0.157264482080253
40
0.358779428284406
40
0.358779428284406
40
0.560294374488559
40
0.560294374488559
40
0.610673111039597
40
0.610673111039597
40
0.661051847590636
40
0.661051847590636
40
0.761809320692713
40
0.761809320692713
40
0.963324266896866
40
0.963324266896866
40
1
40
1
40
1
40
1
41
1
10
17.023786919623
20
1.90461346926111
30
0
41
1
10
17.1705545658149
20
1.85190773704124
30
0
41
1
10
17.3172803414655
20
1.7965240496948
30
0
41
1
10
17.7252237623088
20
1.63557224971649
30
0
41
1
10
17.9865800416729
20
1.52452757238723
30
0
41
1
10
18.7722539456777
20
1.17119448276148
30
0
41
1
10
19.2889620319976
20
0.913530733259137
30
0
41
1
10
20.3203942812279
20
0.376530584990491
30
0
41
1
10
20.8348933518073
20
0.0967952854961993
30
0
41
1
10
21.4844829725836
20
-0.252023405593889
30
0
41
1
10
21.6147108663317
20
-0.321765341562383
30
0
41
1
10
21.8759757724238
20
-0.460848562527531
30
0
41
1
10
22.0070925207552
20
-0.530230156052937
30
0
41
1
10
22.3983720035951
20
-0.735295057946047
30
0
41
1
10
22.6577060317076
20
-0.868381016621612
30
0
41
1
10
23.4333092524071
20
-1.2533960413827
30
0
41
1
10
23.9472153141865
20
-1.49100372292011
30
0
41
1
10
24.557981956437
20
-1.7378687293108
30
0
41
1
10
24.652121606635
20
-1.77492566272446
30
0
41
1
10
24.7463940936904
20
-1.81096911525737
30
0
0
SPLINE
5
D4
100
AcDbEntity
8
1
62
256
6
ByLayer
370
13
48
1
60
0
100
AcDbSpline
70
4
71
3
72
16
73
12
40
0
40
0
40
0
40
0
40
0.112845969938533
40
0.112845969938533
40
0.201561372944679
40
0.201561372944679
40
0.290276775950825
40
0.290276775950825
40
0.645138387975413
40
0.645138387975413
40
1
40
1
40
1
40
1
41
1
10
24.7463940936001
20
-1.81096911522286
30
0
41
1
10
24.9111118645755
20
-1.87394610188176
30
0
41
1
10
25.0762351717032
20
-1.93382904412243
30
0
41
1
10
25.3722474871874
20
-2.03470079677311
30
0
41
1
10
25.5031708350839
20
-2.07707366854291
30
0
41
1
10
25.7646503481666
20
-2.15694417161762
30
0
41
1
10
25.894931023442
20
-2.19436329262967
30
0
41
1
10
26.5445806606706
20
-2.36853268694071
30
0
41
1
10
27.0585901268568
20
-2.46640591413828
30
0
41
1
10
28.0874262491296
20
-2.57414492950966
30
0
41
1
10
28.6022609509915
20
-2.58416986414991
30
0
41
1
10
29.1230856966624
20
-2.54741915299812
30
0
0
SPLINE
5
D5
100
AcDbEntity
8
1
62
256
6
ByLayer
370
18
48
1
60
0
100
AcDbSpline
70
4
71
3
72
18
73
14
40
0
40
0
40
0
40
0
40
0.250000000000006
40
0.250000000000006
40
0.500000000000011
40
0.500000000000011
40
0.625000000000008
40
0.625000000000008
40
0.750000000000006
40
0.750000000000006
40
0.875000000000003
40
0.875000000000003
40
1
40
1
40
1
40
1
41
1
10
29.6517567504495
20
-1.29044234918953
30
0
41
1
10
29.6131388044726
20
-1.39481146502834
30
0
41
1
10
29.574312885988
20
-1.49921080921067
30
0
41
1
10
29.4961793965575
20
-1.70691296894344
30
0
41
1
10
29.4569021943598
20
-1.81017504065076
30
0
41
1
10
29.3978153450706
20
-1.96458944113903
30
0
41
1
10
29.3780704316783
20
-2.0159229403715
30
0
41
1
10
29.3383915789216
20
-2.11806091112626
30
0
41
1
10
29.3184665473934
20
-2.16889031304447
30
0
41
1
10
29.278556861162
20
-2.27038224927284
30
0
41
1
10
29.2585517319544
20
-2.32098748150975
30
0
41
1
10
29.2182815885941
20
-2.42147060499647
30
0
41
1
10
29.1979962276058
20
-2.47129155147928
30
0
41
1
10
29.1776402655648
20
-2.52091490652705
30
0
0
SPLINE
5
D6
100
AcDbEntity
8
1
62
256
6
ByLayer
370
18
48
1
60
0
100
AcDbSpline
70
4
71
3
72
8
73
4
40
0
40
0
40
0
40
0
40
1
40
1
40
1
40
1
41
1
10
29.1374828128254
20
-2.46099087537615
30
0
41
1
10
29.1240527511761
20
-2.46762479476834
30
0
41
1
10
29.1117700040462
20
-2.4709574289929
30
0
41
1
10
29.1006543616277
20
-2.47093183371325
30
0
0
SPLINE
5
D7
100
AcDbEntity
8
1
62
256
6
ByLayer
370
18
48
1
60
0
100
AcDbSpline
70
4
71
3
72
18
73
14
40
0
40
0
40
0
40
0
40
0.062583296644384
40
0.062583296644384
40
0.22073857402232
40
0.22073857402232
40
0.378893851400257
40
0.378893851400257
40
0.69520440615613
40
0.69520440615613
40
0.853359683534066
40
0.853359683534066
40
1
40
1
40
1
40
1
41
1
10
8.07366908174174
20
-1.38516710201969
30
0
41
1
10
8.03741632307569
20
-1.41255114293776
30
0
41
1
10
8.00114295142782
20
-1.44000217328156
30
0
41
1
10
7.8731318186037
20
-1.53677221460811
30
0
41
1
10
7.78111401405414
20
-1.60614069483034
30
0
41
1
10
7.59504733897822
20
-1.74305923306593
30
0
41
1
10
7.50137105574612
20
-1.8102969010981
30
0
41
1
10
7.22027726526841
20
-2.00277060799658
30
0
41
1
10
7.03120159946502
20
-2.11964033336682
30
0
41
1
10
6.73848797957669
20
-2.26952250817175
30
0
41
1
10
6.63949857539848
20
-2.31517957972696
30
0
41
1
10
6.44981866767066
20
-2.3929713307684
30
0
41
1
10
6.35852604849916
20
-2.42614016717621
30
0
41
1
10
6.26700920169165
20
-2.45544933875252
30
0
0
SPLINE
5
D8
100
AcDbEntity
8
1
62
256
6
ByLayer
370
18
48
1
60
0
100
AcDbSpline
70
4
71
3
72
42
73
38
40
0
40
0
40
0
40
0
40
0.100192843681407
40
0.100192843681407
40
0.12524105460176
40
0.12524105460176
40
0.150289265522113
40
0.150289265522113
40
0.200385687362815
40
0.200385687362815
40
0.30057853104422
40
0.30057853104422
40
0.350674952884922
40
0.350674952884922
40
0.400771374725625
40
0.400771374725625
40
0.50096421840703
40
0.50096421840703
40
0.551060640247733
40
0.551060640247733
40
0.601157062088436
40
0.601157062088436
40
0.701349905769842
40
0.701349905769842
40
0.751446327610545
40
0.751446327610545
40
0.776494538530896
40
0.776494538530896
40
0.801542749451248
40
0.801542749451248
40
0.901735593132657
40
0.901735593132657
40
0.951832014973361
40
0.951832014973361
40
0.976880225893713
40
0.976880225893713
40
1
40
1
40
1
40
1
41
1
10
29.111443820753
20
-2.57844532310085
30
0
41
1
10
28.5881500033894
20
-2.61490334597366
30
0
41
1
10
28.0674760114523
20
-2.60417312164964
30
0
41
1
10
27.4126884234734
20
-2.53265735421925
30
0
41
1
10
27.2813511841792
20
-2.51540778200828
30
0
41
1
10
27.0197629641459
20
-2.47539757866198
30
0
41
1
10
26.8893485294607
20
-2.45262731801091
30
0
41
1
10
26.4989094638677
20
-2.37634674802186
30
0
41
1
10
26.2396939406587
20
-2.31486862572862
30
0
41
1
10
25.463081779618
20
-2.10084314432973
30
0
41
1
10
24.9465900228996
20
-1.91879173876467
30
0
41
1
10
24.1644386925194
20
-1.5966445417989
30
0
41
1
10
23.9013892950629
20
-1.48061263389354
30
0
41
1
10
23.3791203449285
20
-1.23795389862522
30
0
41
1
10
23.119384049908
20
-1.11111512325658
30
0
41
1
10
22.3418078162239
20
-0.718659190038068
30
0
41
1
10
21.8258426424655
20
-0.440666074475558
30
0
41
1
10
21.0458886575792
20
-0.0166162174582496
30
0
41
1
10
20.7844724413306
20
0.126189864452698
30
0
41
1
10
20.2601379820895
20
0.410542510531599
30
0
41
1
10
19.9995766472693
20
0.55045498725795
30
0
41
1
10
19.2203432889243
20
0.959398106912943
30
0
41
1
10
18.704325846591
20
1.21798906854033
30
0
41
1
10
17.9261467439751
20
1.56893249250729
30
0
41
1
10
17.666000237918
20
1.67966569443499
30
0
41
1
10
17.2735091145525
20
1.83450993332545
30
0
41
1
10
17.1420413707006
20
1.88433617919489
30
0
41
1
10
16.8802150988291
20
1.97922918767063
30
0
41
1
10
16.7497074035714
20
2.02437158181752
30
0
41
1
10
16.0986043873127
20
2.23801711174014
30
0
41
1
10
15.5821449409697
20
2.3701430685073
30
0
41
1
10
14.805033236473
20
2.50328552426012
30
0
41
1
10
14.5455179909119
20
2.53677930070379
30
0
41
1
10
14.1543473208728
20
2.56993198507399
30
0
41
1
10
14.0236547943875
20
2.57814261351351
30
0
41
1
10
13.7716623125167
20
2.58833849532712
30
0
41
1
10
13.6504846806162
20
2.59072812394237
30
0
41
1
10
13.5297748162114
20
2.59061032026281
30
0
0
SPLINE
5
D9
100
AcDbEntity
8
1
62
256
6
ByLayer
370
13
48
1
60
0
100
AcDbSpline
70
4
71
3
72
26
73
22
40
0
40
0
40
0
40
0
40
0.153046600897341
40
0.153046600897341
40
0.229569901346012
40
0.229569901346012
40
0.306093201794682
40
0.306093201794682
40
0.459139802692023
40
0.459139802692023
40
0.535663103140694
40
0.535663103140694
40
0.612186403589365
40
0.612186403589365
40
0.765233004486706
40
0.765233004486706
40
0.841756304935377
40
0.841756304935377
40
0.918279605384047
40
0.918279605384047
40
1
40
1
40
1
40
1
41
1
10
4.250435749806
20
1.0068974694791
30
0
41
1
10
4.2505107770121
20
1.15306655534707
30
0
41
1
10
4.25057465173654
20
1.29113875191183
30
0
41
1
10
4.2506595537215
20
1.48627848996617
30
0
41
1
10
4.2506861041029
20
1.54951871636447
30
0
41
1
10
4.2507355875357
20
1.66974420754787
30
0
41
1
10
4.25075863458403
20
1.72697976643485
30
0
41
1
10
4.25082421663245
20
1.89023486484155
30
0
41
1
10
4.25086324604649
20
1.98791617915268
30
0
41
1
10
4.25091973608983
20
2.11683105526259
30
0
41
1
10
4.25093799074529
20
2.1563333076603
30
0
41
1
10
4.25097408683973
20
2.2284663657951
30
0
41
1
10
4.25099200059699
20
2.2612077787347
30
0
41
1
10
4.25104536450516
20
2.34795199552156
30
0
41
1
10
4.25108049906896
20
2.39067509046004
30
0
41
1
10
4.25113445710008
20
2.43264563945928
30
0
41
1
10
4.2511526301337
20
2.44292437907077
30
0
41
1
10
4.25118940976324
20
2.45583128557288
30
0
41
1
10
4.25120788684768
20
2.45837571387702
30
0
41
1
10
4.25124557206371
20
2.45569477070026
30
0
41
1
10
4.25126486412512
20
2.44999626055275
30
0
41
1
10
4.25128374327855
20
2.4399959841391
30
0
0
SPLINE
5
DA
100
AcDbEntity
8
1
62
256
6
ByLayer
370
18
48
1
60
0
100
AcDbSpline
70
4
71
3
72
18
73
14
40
0
40
0
40
0
40
0
40
0.124999999999998
40
0.124999999999998
40
0.249999999999997
40
0.249999999999997
40
0.5
40
0.5
40
0.624999999999998
40
0.624999999999998
40
0.749999999999995
40
0.749999999999995
40
1
40
1
40
1
40
1
41
1
10
26.9903058932959
20
0.75324526574795
30
0
41
1
10
27.0246470829075
20
0.644351795730529
30
0
41
1
10
27.0671322183412
20
0.536721382740581
30
0
41
1
10
27.1660319564331
20
0.32362089916046
30
0
41
1
10
27.223083545745
20
0.217241972212207
30
0
41
1
10
27.4078606296808
20
-0.0902660123695114
30
0
41
1
10
27.5487079405128
20
-0.28103223524829
30
0
41
1
10
27.7787143165943
20
-0.55207758965679
30
0
41
1
10
27.85828130521
20
-0.639410943185283
30
0
41
1
10
28.0198213686123
20
-0.806226458338728
30
0
41
1
10
28.1021858386264
20
-0.886165867396301
30
0
41
1
10
28.3534282374458
20
-1.11695888552498
30
0
41
1
10
28.5263906723039
20
-1.25892755348264
30
0
41
1
10
28.7040398255363
20
-1.39070130038138
30
0
0
LINE
5
76
100
AcDbEntity
8
81
62
256
6
ByLayer
370
18
48
1
60
0
100
AcDbLine
10
30
20
0
30
0
11
35
21
0
31
0
39
0
210
0
220
0
230
1
0
LINE
5
77
100
AcDbEntity
8
1
62
256
6
ByLayer
370
18
48
1
60
0
100
AcDbLine
10
4.032061
20
2.584913
30
0
11
1.077597
21
2.58314
31
0
39
0
210
0
220
0
230
1
0
LINE
5
79
100
AcDbEntity
8
1
62
256
6
ByLayer
370
18
48
1
60
0
100
AcDbLine
10
13.533169
20
2.590613
30
0
11
13.027921
21
2.59031
31
0
39
0
210
0
220
0
230
1
0
LINE
5
7A
100
AcDbEntity
8
1
62
256
6
ByLayer
370
18
48
1
60
0
100
AcDbLine
10
28.498574
20
2.599593
30
0
11
27.998894
21
2.599293
31
0
39
0
210
0
220
0
230
1
0
LINE
5
7B
100
AcDbEntity
8
1
62
256
6
ByLayer
370
18
48
1
60
0
100
AcDbLine
10
27.998894
20
-2.599293
30
0
11
28.49851
21
-2.599592
31
0
39
0
210
0
220
0
230
1
0
LINE
5
7C
100
AcDbEntity
8
1
62
256
6
ByLayer
370
18
48
1
60
0
100
AcDbLine
10
13.027921
20
-2.59031
30
0
11
13.533081
21
-2.590613
31
0
39
0
210
0
220
0
230
1
0
LINE
5
7D
100
AcDbEntity
8
1
62
256
6
ByLayer
370
18
48
1
60
0
100
AcDbLine
10
1.077597
20
-2.58314
30
0
11
4.032061
21
-2.584913
31
0
39
0
210
0
220
0
230
1
0
LINE
5
7E
100
AcDbEntity
8
SK1
62
256
6
ByLayer
370
18
48
1
60
0
100
AcDbLine
10
0
20
3
30
0
11
-35.278312
21
3
31
0
39
0
210
0
220
0
230
1
0
LINE
5
80
100
AcDbEntity
8
SK1
62
256
6
ByLayer
370
18
48
1
60
0
100
AcDbLine
10
-35.278312
20
-3
30
0
11
0
21
-3
31
0
39
0
210
0
220
0
230
1
0
LINE
5
81
100
AcDbEntity
8
SK1
62
256
6
ByLayer
370
18
48
1
60
0
100
AcDbLine
10
-35.278312
20
3
30
0
11
-36
21
1.75
31
0
39
0
210
0
220
0
230
1
0
LINE
5
82
100
AcDbEntity
8
SK1
62
256
6
ByLayer
370
18
48
1
60
0
100
AcDbLine
10
-36
20
-1.75
30
0
11
-35.278312
21
-3
31
0
39
0
210
0
220
0
230
1
0
LINE
5
83
100
AcDbEntity
8
SK4
62
256
6
ByLayer
370
18
48
0.05
60
0
100
AcDbLine
10
35
20
0
30
0
11
-41
21
0
31
0
39
0
210
0
220
0
230
1
0
LINE
5
85
100
AcDbEntity
8
4
62
256
6
ByLayer
370
18
48
0.05
60
0
100
AcDbLine
10
30
20
0
30
0
11
0
21
0
31
0
39
0
210
0
220
0
230
1
0
LINE
5
87
100
AcDbEntity
8
80
62
256
6
ByLayer
370
18
48
1
60
0
100
AcDbLine
10
0
20
0
30
0
11
-5
21
0
31
0
39
0
210
0
220
0
230
1
0
LINE
5
88
100
AcDbEntity
8
1
62
256
6
ByLayer
370
18
48
1
60
0
100
AcDbLine
10
30
20
0
30
0
11
29.100654
21
-2.470932
31
0
39
0
210
0
220
0
230
1
0
LINE
5
89
100
AcDbEntity
8
1
62
256
6
ByLayer
370
18
48
1
60
0
100
AcDbLine
10
29.932406
20
-0.265932
30
0
11
29.868541
21
-0.563795
31
0
39
0
210
0
220
0
230
1
0
LINE
5
8A
100
AcDbEntity
8
1
62
256
6
ByLayer
370
13
48
1
60
0
100
AcDbLine
10
1.077597
20
2.58314
30
0
11
1.077597
21
-2.58314
31
0
39
0
210
0
220
0
230
1
0
LINE
5
8B
100
AcDbEntity
8
1
62
256
6
ByLayer
370
18
48
1
60
0
100
AcDbLine
10
0
20
-3
30
0
11
0
21
3
31
0
39
0
210
0
220
0
230
1
0
LINE
5
8C
100
AcDbEntity
8
1
62
256
6
ByLayer
370
18
48
1
60
0
100
AcDbLine
10
29.995749
20
0.026373
30
0
11
30
21
0
31
0
39
0
210
0
220
0
230
1
0
LINE
5
8D
100
AcDbEntity
8
1
62
256
6
ByLayer
370
18
48
1
60
0
100
AcDbLine
10
29.932406
20
0.265932
30
0
11
29.868541
21
0.563795
31
0
39
0
210
0
220
0
230
1
0
LINE
5
8E
100
AcDbEntity
8
1
62
256
6
ByLayer
370
13
48
1
60
0
100
AcDbLine
10
29.240483
20
0.228466
30
0
11
29.895333
21
-0.160079
31
0
39
0
210
0
220
0
230
1
0
LINE
5
8F
100
AcDbEntity
8
1
62
256
6
ByLayer
370
13
48
1
60
0
100
AcDbLine
10
29.868541
20
0.563795
30
0
11
29.430389
21
0.563795
31
0
39
0
210
0
220
0
230
1
0
LINE
5
90
100
AcDbEntity
8
1
62
256
6
ByLayer
370
13
48
1
60
0
100
AcDbLine
10
29.430389
20
0.563795
30
0
11
29.932406
21
0.265932
31
0
39
0
210
0
220
0
230
1
0
LINE
5
91
100
AcDbEntity
8
1
62
256
6
ByLayer
370
18
48
1
60
0
100
AcDbLine
10
28.70404
20
-1.390701
30
0
11
29.895333
21
-0.160079
31
0
39
0
210
0
220
0
230
1
0
LINE
5
92
100
AcDbEntity
8
1
62
256
6
ByLayer
370
13
48
1
60
0
100
AcDbLine
10
0.538558
20
2.79157
30
0
11
0.538558
21
-2.79157
31
0
39
0
210
0
220
0
230
1
0
LINE
5
93
100
AcDbEntity
8
1
62
256
6
ByLayer
370
18
48
1
60
0
100
AcDbLine
10
30
20
0
30
0
11
29.995749
21
-0.026373
31
0
39
0
210
0
220
0
230
1
0
LINE
5
94
100
AcDbEntity
8
SK1
62
256
6
ByLayer
370
18
48
1
60
0
100
AcDbLine
10
-35.278312
20
3
30
0
11
-35.278312
21
-3
31
0
39
0
210
0
220
0
230
1
0
LINE
5
95
100
AcDbEntity
8
SK1
62
256
6
ByLayer
370
18
48
1
60
0
100
AcDbLine
10
-36
20
1.75
30
0
11
-36
21
-1.75
31
0
39
0
210
0
220
0
230
1
0
LINE
5
96
100
AcDbEntity
8
SK1
62
256
6
ByLayer
370
18
48
1
60
0
100
AcDbLine
10
0
20
-3
30
0
11
0
21
3
31
0
39
0
210
0
220
0
230
1
0
MTEXT
5
DB
100
AcDbEntity
8
SK6
62
256
6
ByLayer
370
13
48
1
60
0
100
AcDbMText
10
-0.870831
20
34.982694
30
0
210
0
220
0
230
1
1
\W0.7670;R840-0520-30-A0A1220
40
3.5
41
0
44
1.084337
50
0
71
8
72
5
7
iso_b_vert
0
DIMENSION
5
E8
100
AcDbEntity
8
SK2
62
256
6
ByLayer
370
13
48
1
60
0
100
AcDbDimension
2
DimnDraft3D1
10
29.12
20
-12.813398
30
0
11
13.370059
21
-12.813398
31
0
70
32
71
5
72
1
41
1
210
0
220
0
230
1
3
Standard
100
AcDbAlignedDimension
13
0
23
-1.5875
33
0
14
29.12
24
-4.1875
34
0
50
0
100
AcDbRotatedDimension
1001
ACAD
1000
DSTYLE
1002
{
1070
   279
1070
     0
1070
   172
1070
     1
1070
   173
1070
     1
1070
   340
1005
DC
1070
   271
1070
     2
1070
   272
1070
     2
1070
    77
1070
     1
1070
    73
1070
     0
1070
   171
1070
     3
1070
   274
1070
     4
1070
   177
1070
    35
1070
   176
1070
    35
1070
   178
1070
    35
1070
    48
1040
-0.005
1070
    41
1041
3.5
1070
   147
1041
1.75
1070
    42
1041
1.5875
1070
    44
1041
2.0
1070
   140
1041
3.5
1070
   343
1005
0
1070
   344
1005
0
1002
}
0
DIMENSION
5
F2
100
AcDbEntity
8
SK2
62
256
6
ByLayer
370
13
48
1
60
0
100
AcDbDimension
2
DimnDraft3D2
10
30
20
-31.692985
30
0
11
-2.5387
21
-31.692985
31
0
70
32
71
5
72
1
41
1
210
0
220
0
230
1
3
Standard
100
AcDbAlignedDimension
13
-36
23
-4.5875
33
0
14
30
24
-1.5875
34
0
50
0
100
AcDbRotatedDimension
1001
ACAD
1000
DSTYLE
1002
{
1070
   279
1070
     0
1070
   172
1070
     1
1070
   173
1070
     1
1070
   340
1005
DC
1070
   271
1070
     2
1070
   272
1070
     2
1070
    77
1070
     1
1070
    73
1070
     0
1070
   171
1070
     3
1070
   274
1070
     4
1070
   177
1070
    35
1070
   176
1070
    35
1070
   178
1070
    35
1070
    48
1040
-0.005
1070
    41
1041
3.5
1070
   147
1041
1.75
1070
    42
1041
1.5875
1070
    44
1041
2.0
1070
   140
1041
3.5
1070
   343
1005
0
1070
   344
1005
0
1002
}
0
DIMENSION
5
FC
100
AcDbEntity
8
SK2
62
256
6
ByLayer
370
13
48
1
60
0
100
AcDbDimension
2
DimnDraft3D3
10
30
20
14.209119
30
0
11
21.76
21
14.209119
31
0
70
32
71
5
72
1
41
1
210
0
220
0
230
1
3
Standard
100
AcDbAlignedDimension
13
13.52
23
4.1875
33
0
14
30
24
1.5875
34
0
50
0
100
AcDbRotatedDimension
1001
ACAD
1000
DSTYLE
1002
{
1070
   279
1070
     0
1070
   172
1070
     1
1070
   173
1070
     1
1070
   340
1005
DC
1070
   271
1070
     2
1070
   272
1070
     2
1070
    77
1070
     1
1070
    73
1070
     0
1070
   171
1070
     3
1070
   274
1070
     4
1070
   177
1070
    35
1070
   176
1070
    35
1070
   178
1070
    35
1070
    48
1040
-0.005
1070
    41
1041
3.5
1070
   147
1041
1.75
1070
    42
1041
1.5875
1070
    44
1041
2.0
1070
   140
1041
3.5
1070
   343
1005
0
1070
   344
1005
0
1002
}
0
DIMENSION
5
106
100
AcDbEntity
8
SK2
62
256
6
ByLayer
370
13
48
1
60
0
100
AcDbDimension
2
DimnDraft3D4
10
29.12
20
-15.402503
30
0
11
39.981425
21
-15.402503
31
0
70
32
71
5
72
1
41
1
210
0
220
0
230
1
3
Standard
100
AcDbAlignedDimension
13
30
23
-1.5875
33
0
14
29.12
24
-4.1875
34
0
50
0
100
AcDbRotatedDimension
1001
ACAD
1000
DSTYLE
1002
{
1070
   279
1070
     0
1070
   172
1070
     1
1070
   173
1070
     1
1070
   340
1005
DC
1070
   271
1070
     2
1070
   272
1070
     2
1070
    77
1070
     1
1070
    73
1070
     0
1070
   171
1070
     3
1070
   274
1070
     4
1070
   177
1070
    35
1070
   176
1070
    35
1070
   178
1070
    35
1070
    48
1040
-0.005
1070
    41
1041
3.5
1070
   147
1041
1.75
1070
    42
1041
1.5875
1070
    44
1041
2.0
1070
   140
1041
3.5
1070
   343
1005
0
1070
   344
1005
0
1002
}
0
DIMENSION
5
110
100
AcDbEntity
8
SK2
62
256
6
ByLayer
370
13
48
1
60
0
100
AcDbDimension
2
DimnDraft3D5
10
29.12
20
-21.343428
30
0
11
-5.619324
21
-21.343428
31
0
70
32
71
5
72
1
41
1
210
0
220
0
230
1
3
Standard
100
AcDbAlignedDimension
13
-36
23
-4.5875
33
0
14
29.12
24
-4.1875
34
0
50
0
100
AcDbRotatedDimension
1001
ACAD
1000
DSTYLE
1002
{
1070
   279
1070
     0
1070
   172
1070
     1
1070
   173
1070
     1
1070
   340
1005
DC
1070
   271
1070
     2
1070
   272
1070
     2
1070
    77
1070
     1
1070
    73
1070
     0
1070
   171
1070
     3
1070
   274
1070
     4
1070
   177
1070
    35
1070
   176
1070
    35
1070
   178
1070
    35
1070
    48
1040
-0.005
1070
    41
1041
3.5
1070
   147
1041
1.75
1070
    42
1041
1.5875
1070
    44
1041
2.0
1070
   140
1041
3.5
1070
   343
1005
0
1070
   344
1005
0
1002
}
0
DIMENSION
5
11B
100
AcDbEntity
8
SK2
62
256
6
ByLayer
370
13
48
1
60
0
100
AcDbDimension
2
DimnDraft3D6
10
-46.625163
20
3
30
0
11
-47.250163
21
21.47418
31
0
70
33
71
5
72
1
41
1
210
0
220
0
230
1
3
Standard
100
AcDbAlignedDimension
13
-37.5875
23
-3
33
0
14
-37.5875
24
3
34
0
1001
ACAD
1000
DSTYLE
1002
{
1070
   279
1070
     0
1070
    74
1070
     0
1070
   173
1070
     1
1070
   340
1005
DC
1070
   271
1070
     3
1070
   272
1070
     2
1070
    77
1070
     1
1070
    73
1070
     0
1070
   171
1070
     3
1070
   274
1070
     4
1070
   177
1070
    35
1070
   176
1070
    35
1070
   178
1070
    35
1070
    48
1040
-0.005
1070
    41
1041
3.5
1070
   147
1041
1.75
1070
    42
1041
1.5875
1070
    44
1041
2.0
1070
   140
1041
3.5
1070
   343
1005
0
1070
   344
1005
0
1002
}
0
DIMENSION
5
126
100
AcDbEntity
8
2
62
256
6
ByLayer
370
13
48
1
60
0
100
AcDbDimension
2
DimnDraft3D7
10
44.083343
20
2.6
30
0
11
39.458343
21
19.667266
31
0
70
33
71
5
72
1
41
1
210
0
220
0
230
1
3
Standard
100
AcDbAlignedDimension
13
30.7075
23
-2.6
33
0
14
30.7075
24
2.6
34
0
1001
ACAD
1000
DSTYLE
1002
{
1070
   279
1070
     0
1070
    74
1070
     0
1070
   173
1070
     1
1070
   340
1005
DC
1070
   271
1070
     3
1070
   272
1070
     2
1070
    77
1070
     1
1070
    73
1070
     0
1070
   171
1070
     3
1070
   274
1070
     4
1070
   177
1070
    35
1070
   176
1070
    35
1070
   178
1070
    35
1070
    48
1040
-0.005
1070
    41
1041
3.5
1070
   147
1041
1.75
1070
    42
1041
1.5875
1070
    44
1041
2.0
1070
   140
1041
3.5
1070
   343
1005
0
1070
   344
1005
0
1002
}
0
ENDSEC
0
SECTION
2
OBJECTS
0
DICTIONARY
5
191
330
0
100
AcDbDictionary
280
0
281
1
3
ACAD_GROUP
350
192
3
ACAD_MLINESTYLE
350
193
0
DICTIONARY
5
192
330
0
100
AcDbDictionary
280
0
281
1
0
DICTIONARY
5
193
330
0
100
AcDbDictionary
280
0
281
1
3
Standard
350
18
0
MLINESTYLE
5
18
330
193
100
AcDbMlineStyle
2
Standard
70
0
3

62
256
51
90
52
90
71
2
49
-0.5
62
256
6
ByLayer
49
0.5
62
256
6
ByLayer
0
RASTERVARIABLES
5
17f
330

100
AcDbRasterVariables
90
0
70
1
71
1
72
1
0
ENDSEC
0
EOF
