0
SECTION
2
HEADER
9
$ACADVER
1
AC1015
9
$DWGCODEPAGE
3
ANSI_1252
9
$HANDSEED
5
1b3
9
$ANGBASE
50
0
9
$ANGDIR
70
0
9
$ATTMODE
70
1
9
$AUNITS
70
0
9
$AUPREC
70
0
9
$CECOLOR
62
256
9
$CELTSCALE
40
1
9
$CELTYPE
6
ByLayer
9
$CELWEIGHT
370
18
9
$CLAYER
8
0
9
$CMLJUST
70
0
9
$CMLSCALE
40
1
9
$CMLSTYLE
2
Standard
9
$DIMSTYLE
2
Standard
9
$TEXTSIZE
40
0.2
9
$TEXTSTYLE
7
Standard
9
$LUNITS
70
2
9
$LUPREC
70
4
9
$EXTNAMES
290
1
9
$INSUNITS
70
4
9
$LTSCALE
40
1
9
$LWDISPLAY
290
1
9
$PDMODE
70
0
9
$PDSIZE
40
0
9
$PLINEGEN
70
0
0
ENDSEC
0
SECTION
2
CLASSES
0
CLASS
1
RASTERVARIABLES
2
AcDbRasterVariables
3
ISM
90
0
280
0
281
0
0
ENDSEC
0
SECTION
2
TABLES
0
TABLE
2
VPORT
5
1a9
100
AcDbSymbolTable
0
VPORT
5
1
100
AcDbSymbolTableRecord
100
AcDbViewportTableRecord
2
*Active
70
0
10
0
20
0
11
1
21
1
12
-1
22
1
13
0
23
0
14
0.5
24
0.5
15
10
25
10
16
0
26
0
36
1
17
0
27
0
37
0
0
ENDTAB
0
TABLE
2
LTYPE
5
1aa
100
AcDbSymbolTable
0
LTYPE
5
14
100
AcDbSymbolTableRecord
100
AcDbLinetypeTableRecord
70
0
2
ByBlock
3

72
65
73
0
40
0
0
LTYPE
5
15
100
AcDbSymbolTableRecord
100
AcDbLinetypeTableRecord
70
0
2
ByLayer
3

72
65
73
0
40
0
0
LTYPE
5
16
100
AcDbSymbolTableRecord
100
AcDbLinetypeTableRecord
70
0
2
CONTINUOUS
3
Solid line
72
65
73
0
40
0
0
LTYPE
5
6A
100
AcDbSymbolTableRecord
100
AcDbLinetypeTableRecord
70
0
2
CENTER
3
____ _ ____ _ ____ _ ____
72
65
73
4
40
47.5
49
22
74
0
49
-8.5
74
0
49
8.5
74
0
49
-8.5
74
0
0
LTYPE
5
6B
100
AcDbSymbolTableRecord
100
AcDbLinetypeTableRecord
70
0
2
DASHED
3
__ __ __ __ __ __ __ __ __
72
65
73
2
40
25.72
49
12.86
74
0
49
-12.86
74
0
0
ENDTAB
0
TABLE
2
LAYER
5
1ab
100
AcDbSymbolTable
0
LAYER
5
10
100
AcDbSymbolTableRecord
100
AcDbLayerTableRecord
2
0
70
0
62
7
6
CONTINUOUS
290
1
370
-3
390
0
0
LAYER
5
6D
100
AcDbSymbolTableRecord
100
AcDbLayerTableRecord
2
81
70
0
62
-3
6
CONTINUOUS
290
1
370
-3
390
0
0
LAYER
5
6F
100
AcDbSymbolTableRecord
100
AcDbLayerTableRecord
2
80
70
0
62
-6
6
CONTINUOUS
290
1
370
-3
390
0
0
LAYER
5
74
100
AcDbSymbolTableRecord
100
AcDbLayerTableRecord
2
2
70
0
62
7
6
CONTINUOUS
290
1
370
-3
390
0
0
LAYER
5
78
100
AcDbSymbolTableRecord
100
AcDbLayerTableRecord
2
1
70
0
62
4
6
CONTINUOUS
290
1
370
-3
390
0
0
LAYER
5
88
100
AcDbSymbolTableRecord
100
AcDbLayerTableRecord
2
4
70
0
62
-2
6
CENTER
290
1
370
-3
390
0
0
LAYER
5
195
100
AcDbSymbolTableRecord
100
AcDbLayerTableRecord
2
SK2
70
0
62
7
6
CONTINUOUS
290
1
370
-3
390
0
0
LAYER
5
196
100
AcDbSymbolTableRecord
100
AcDbLayerTableRecord
2
SK1
70
0
62
4
6
CONTINUOUS
290
1
370
-3
390
0
0
LAYER
5
197
100
AcDbSymbolTableRecord
100
AcDbLayerTableRecord
2
SK4
70
0
62
2
6
CENTER
290
1
370
-3
390
0
0
LAYER
5
198
100
AcDbSymbolTableRecord
100
AcDbLayerTableRecord
2
SK6
70
0
62
5
6
CONTINUOUS
290
1
370
-3
390
0
0
ENDTAB
0
TABLE
2
STYLE
5
1ac
100
AcDbSymbolTable
0
STYLE
5
11
100
AcDbSymbolTableRecord
100
AcDbTextStyleTableRecord
2
Standard
3
txt
70
0
71
0
40
0
41
1
42
0
50
0
0
STYLE
5
F1
100
AcDbSymbolTableRecord
100
AcDbTextStyleTableRecord
2
iso_b_vert
3
simplex.shx
70
0
71
0
40
0
41
1
42
0
50
0
0
STYLE
5
F2
100
AcDbSymbolTableRecord
100
AcDbTextStyleTableRecord
2
DWGDirectTextStyle
3
simplex
70
0
71
0
40
0
41
1
42
0
50
0
0
ENDTAB
0
TABLE
2
DIMSTYLE
5
1ad
100
AcDbSymbolTable
100
AcDbDimStyleTable
0
DIMSTYLE
105
27
100
AcDbSymbolTableRecord
100
AcDbDimStyleTableRecord
2
Standard
70
0
3
<>
41
0.18
42
0.0625
44
0.18
140
0.18
147
0.09
73
0
74
0
77
1
271
2
275
0
278
52
280
0
340
11
0
ENDTAB
0
TABLE
2
VIEW
5
1ae
100
AcDbSymbolTable
0
ENDTAB
0
TABLE
2
UCS
5
1af
100
AcDbSymbolTable
0
ENDTAB
0
TABLE
2
APPID
5
1b0
100
AcDbSymbolTable
0
APPID
5
12
100
AcDbSymbolTableRecord
100
AcDbRegAppTableRecord
2
ACAD
70
0
0
ENDTAB
0
TABLE
2
BLOCK_RECORD
5
1b1
100
AcDbSymbolTable
0
BLOCK_RECORD
5
1F
100
AcDbSymbolTableRecord
100
AcDbBlockTableRecord
2
*Model_Space
340
0
70
0
0
BLOCK_RECORD
5
1B
100
AcDbSymbolTableRecord
100
AcDbBlockTableRecord
2
*Paper_Space
340
0
70
0
0
BLOCK_RECORD
5
23
100
AcDbSymbolTableRecord
100
AcDbBlockTableRecord
2
*Paper_Space0
340
0
70
0
0
BLOCK_RECORD
5
F4
100
AcDbSymbolTableRecord
100
AcDbBlockTableRecord
2
DimnDraft3D1
340
0
70
0
0
BLOCK_RECORD
5
FE
100
AcDbSymbolTableRecord
100
AcDbBlockTableRecord
2
DimnDraft3D2
340
0
70
0
0
BLOCK_RECORD
5
108
100
AcDbSymbolTableRecord
100
AcDbBlockTableRecord
2
DimnDraft3D3
340
0
70
0
0
BLOCK_RECORD
5
112
100
AcDbSymbolTableRecord
100
AcDbBlockTableRecord
2
DimnDraft3D4
340
0
70
0
0
BLOCK_RECORD
5
11C
100
AcDbSymbolTableRecord
100
AcDbBlockTableRecord
2
DimnDraft3D5
340
0
70
0
0
BLOCK_RECORD
5
126
100
AcDbSymbolTableRecord
100
AcDbBlockTableRecord
2
DimnDraft3D6
340
0
70
0
0
BLOCK_RECORD
5
131
100
AcDbSymbolTableRecord
100
AcDbBlockTableRecord
2
DimnDraft3D7
340
0
70
0
0
ENDTAB
0
ENDSEC
0
SECTION
2
BLOCKS
0
BLOCK
5
20
100
AcDbEntity
8
0
100
AcDbBlockBegin
2
*Model_Space
70
0
10
0
20
0
30
0
3
*Model_Space
0
ENDBLK
5
21
100
AcDbEntity
8
0
100
AcDbBlockEnd
0
BLOCK
5
1C
100
AcDbEntity
8
0
100
AcDbBlockBegin
2
*Paper_Space
70
0
10
0
20
0
30
0
3
*Paper_Space
0
ENDBLK
5
1D
100
AcDbEntity
8
0
100
AcDbBlockEnd
0
BLOCK
5
24
100
AcDbEntity
8
0
100
AcDbBlockBegin
2
*Paper_Space0
70
0
10
0
20
0
30
0
3
*Paper_Space0
0
ENDBLK
5
25
100
AcDbEntity
8
0
100
AcDbBlockEnd
0
BLOCK
5
FB
100
AcDbEntity
8
0
100
AcDbBlockBegin
2
DimnDraft3D1
70
0
10
0
20
0
30
0
3
DimnDraft3D1
0
MTEXT
5
F5
100
AcDbEntity
8
SK2
62
256
6
ByLayer
370
13
48
1
60
0
100
AcDbMText
10
17.184664
20
-11.918398
30
0
210
0
220
0
230
1
1
\W0.6977;45,13
40
3.5
41
0
44
1.084337
50
0
71
7
72
5
7
iso_b_vert
0
LINE
5
F6
100
AcDbEntity
8
SK2
62
256
6
ByLayer
370
13
48
1
60
0
100
AcDbLine
10
0
20
-1.5875
30
0
11
0
21
-14.793398
31
0
39
0
210
0
220
0
230
1
0
LINE
5
F7
100
AcDbEntity
8
SK2
62
256
6
ByLayer
370
13
48
1
60
0
100
AcDbLine
10
45.13
20
-4.1675
30
0
11
45.13
21
-14.793398
31
0
39
0
210
0
220
0
230
1
0
LINE
5
F8
100
AcDbEntity
8
SK2
62
256
6
ByLayer
370
13
48
1
60
0
100
AcDbLine
10
0
20
-12.793398
30
0
11
45.13
21
-12.793398
31
0
39
0
210
0
220
0
230
1
0
SOLID
5
F9
100
AcDbEntity
8
SK2
62
256
6
ByLayer
370
13
48
1
60
0
100
AcDbTrace
10
0
20
-12.793398
30
0
11
3.499998
21
-12.332615
31
0
12
3.500002
22
-13.254182
32
0
13
0
23
-12.793398
33
0
39
0
210
0
220
0
230
1
0
SOLID
5
FA
100
AcDbEntity
8
SK2
62
256
6
ByLayer
370
13
48
1
60
0
100
AcDbTrace
10
45.13
20
-12.793398
30
0
11
41.630002
21
-13.254182
31
0
12
41.629998
22
-12.332615
32
0
13
45.13
23
-12.793398
33
0
39
0
210
0
220
0
230
1
0
ENDBLK
5
FC
100
AcDbEntity
8
0
100
AcDbBlockEnd
0
BLOCK
5
105
100
AcDbEntity
8
0
100
AcDbBlockBegin
2
DimnDraft3D2
70
0
10
0
20
0
30
0
3
DimnDraft3D2
0
MTEXT
5
FF
100
AcDbEntity
8
SK2
62
256
6
ByLayer
370
13
48
1
60
0
100
AcDbMText
10
1.022616
20
-30.817985
30
0
210
0
220
0
230
1
1
\W0.7317;82,00
40
3.5
41
0
44
1.084337
50
0
71
7
72
5
7
iso_b_vert
0
LINE
5
100
100
AcDbEntity
8
SK2
62
256
6
ByLayer
370
13
48
1
60
0
100
AcDbLine
10
-36
20
-4.5875
30
0
11
-36
21
-33.692985
31
0
39
0
210
0
220
0
230
1
0
LINE
5
101
100
AcDbEntity
8
SK2
62
256
6
ByLayer
370
13
48
1
60
0
100
AcDbLine
10
46
20
-1.5875
30
0
11
46
21
-33.692985
31
0
39
0
210
0
220
0
230
1
0
LINE
5
102
100
AcDbEntity
8
SK2
62
256
6
ByLayer
370
13
48
1
60
0
100
AcDbLine
10
-36
20
-31.692985
30
0
11
46
21
-31.692985
31
0
39
0
210
0
220
0
230
1
0
SOLID
5
103
100
AcDbEntity
8
SK2
62
256
6
ByLayer
370
13
48
1
60
0
100
AcDbTrace
10
-36
20
-31.692985
30
0
11
-32.500002
21
-31.232202
31
0
12
-32.499998
22
-32.153769
32
0
13
-36
23
-31.692985
33
0
39
0
210
0
220
0
230
1
0
SOLID
5
104
100
AcDbEntity
8
SK2
62
256
6
ByLayer
370
13
48
1
60
0
100
AcDbTrace
10
46
20
-31.692985
30
0
11
42.500002
21
-32.153769
31
0
12
42.499998
22
-31.232202
32
0
13
46
23
-31.692985
33
0
39
0
210
0
220
0
230
1
0
ENDBLK
5
106
100
AcDbEntity
8
0
100
AcDbBlockEnd
0
BLOCK
5
10F
100
AcDbEntity
8
0
100
AcDbBlockBegin
2
DimnDraft3D3
70
0
10
0
20
0
30
0
3
DimnDraft3D3
0
MTEXT
5
109
100
AcDbEntity
8
SK2
62
256
6
ByLayer
370
13
48
1
60
0
100
AcDbMText
10
28.216316
20
15.064119
30
0
210
0
220
0
230
1
1
\W0.7317;26,67
40
3.5
41
0
44
1.084337
50
0
71
7
72
5
7
iso_b_vert
0
LINE
5
10A
100
AcDbEntity
8
SK2
62
256
6
ByLayer
370
13
48
1
60
0
100
AcDbLine
10
19.33
20
4.1675
30
0
11
19.33
21
16.189119
31
0
39
0
210
0
220
0
230
1
0
LINE
5
10B
100
AcDbEntity
8
SK2
62
256
6
ByLayer
370
13
48
1
60
0
100
AcDbLine
10
46
20
1.5875
30
0
11
46
21
16.189119
31
0
39
0
210
0
220
0
230
1
0
LINE
5
10C
100
AcDbEntity
8
SK2
62
256
6
ByLayer
370
13
48
1
60
0
100
AcDbLine
10
19.33
20
14.189119
30
0
11
46
21
14.189119
31
0
39
0
210
0
220
0
230
1
0
SOLID
5
10D
100
AcDbEntity
8
SK2
62
256
6
ByLayer
370
13
48
1
60
0
100
AcDbTrace
10
19.33
20
14.189119
30
0
11
22.829998
21
14.649903
31
0
12
22.830002
22
13.728335
32
0
13
19.33
23
14.189119
33
0
39
0
210
0
220
0
230
1
0
SOLID
5
10E
100
AcDbEntity
8
SK2
62
256
6
ByLayer
370
13
48
1
60
0
100
AcDbTrace
10
46
20
14.189119
30
0
11
42.500002
21
13.728335
31
0
12
42.499998
22
14.649903
32
0
13
46
23
14.189119
33
0
39
0
210
0
220
0
230
1
0
ENDBLK
5
110
100
AcDbEntity
8
0
100
AcDbBlockEnd
0
BLOCK
5
119
100
AcDbEntity
8
0
100
AcDbBlockBegin
2
DimnDraft3D4
70
0
10
0
20
0
30
0
3
DimnDraft3D4
0
MTEXT
5
113
100
AcDbEntity
8
SK2
62
256
6
ByLayer
370
13
48
1
60
0
100
AcDbMText
10
52.840636
20
-14.507503
30
0
210
0
220
0
230
1
1
\W0.7150;0,87
40
3.5
41
0
44
1.084337
50
0
71
7
72
5
7
iso_b_vert
0
LINE
5
114
100
AcDbEntity
8
SK2
62
256
6
ByLayer
370
13
48
1
60
0
100
AcDbLine
10
46
20
-1.5875
30
0
11
46
21
-17.382503
31
0
39
0
210
0
220
0
230
1
0
LINE
5
115
100
AcDbEntity
8
SK2
62
256
6
ByLayer
370
13
48
1
60
0
100
AcDbLine
10
45.13
20
-4.1675
30
0
11
45.13
21
-17.382503
31
0
39
0
210
0
220
0
230
1
0
LINE
5
116
100
AcDbEntity
8
SK2
62
256
6
ByLayer
370
13
48
1
60
0
100
AcDbLine
10
36.38
20
-15.382503
30
0
11
59.997215
21
-15.382503
31
0
39
0
210
0
220
0
230
1
0
SOLID
5
117
100
AcDbEntity
8
SK2
62
256
6
ByLayer
370
13
48
1
60
0
100
AcDbTrace
10
46
20
-15.382503
30
0
11
49.499998
21
-14.921719
31
0
12
49.500002
22
-15.843287
32
0
13
46
23
-15.382503
33
0
39
0
210
0
220
0
230
1
0
SOLID
5
118
100
AcDbEntity
8
SK2
62
256
6
ByLayer
370
13
48
1
60
0
100
AcDbTrace
10
45.13
20
-15.382503
30
0
11
41.630002
21
-15.843287
31
0
12
41.629998
22
-14.921719
32
0
13
45.13
23
-15.382503
33
0
39
0
210
0
220
0
230
1
0
ENDBLK
5
11A
100
AcDbEntity
8
0
100
AcDbBlockEnd
0
BLOCK
5
123
100
AcDbEntity
8
0
100
AcDbBlockBegin
2
DimnDraft3D5
70
0
10
0
20
0
30
0
3
DimnDraft3D5
0
MTEXT
5
11D
100
AcDbEntity
8
SK2
62
256
6
ByLayer
370
13
48
1
60
0
100
AcDbMText
10
-1.183008
20
-20.468428
30
0
210
0
220
0
230
1
1
\W0.6110;81,13
40
3.5
41
0
44
1.084337
50
0
71
7
72
5
7
iso_b_vert
0
LINE
5
11E
100
AcDbEntity
8
SK2
62
256
6
ByLayer
370
13
48
1
60
0
100
AcDbLine
10
-36
20
-4.5875
30
0
11
-36
21
-23.343428
31
0
39
0
210
0
220
0
230
1
0
LINE
5
11F
100
AcDbEntity
8
SK2
62
256
6
ByLayer
370
13
48
1
60
0
100
AcDbLine
10
45.13
20
-4.1675
30
0
11
45.13
21
-23.343428
31
0
39
0
210
0
220
0
230
1
0
LINE
5
120
100
AcDbEntity
8
SK2
62
256
6
ByLayer
370
13
48
1
60
0
100
AcDbLine
10
-36
20
-21.343428
30
0
11
45.13
21
-21.343428
31
0
39
0
210
0
220
0
230
1
0
SOLID
5
121
100
AcDbEntity
8
SK2
62
256
6
ByLayer
370
13
48
1
60
0
100
AcDbTrace
10
-36
20
-21.343428
30
0
11
-32.500002
21
-20.882645
31
0
12
-32.499998
22
-21.804212
32
0
13
-36
23
-21.343428
33
0
39
0
210
0
220
0
230
1
0
SOLID
5
122
100
AcDbEntity
8
SK2
62
256
6
ByLayer
370
13
48
1
60
0
100
AcDbTrace
10
45.13
20
-21.343428
30
0
11
41.630002
21
-21.804212
31
0
12
41.629998
22
-20.882645
32
0
13
45.13
23
-21.343428
33
0
39
0
210
0
220
0
230
1
0
ENDBLK
5
124
100
AcDbEntity
8
0
100
AcDbBlockEnd
0
BLOCK
5
12E
100
AcDbEntity
8
0
100
AcDbBlockBegin
2
DimnDraft3D6
70
0
10
0
20
0
30
0
3
DimnDraft3D6
0
MTEXT
5
127
100
AcDbEntity
8
SK2
62
256
6
ByLayer
370
13
48
1
60
0
100
AcDbMText
10
-46.375163
20
22.34918
30
0
210
0
220
0
230
1
1
\W0.7317;6,000
40
3.5
41
0
44
1.084337
50
90
71
7
72
5
7
iso_b_vert
0
MTEXT
5
128
100
AcDbEntity
8
SK2
62
256
6
ByLayer
370
13
48
1
60
0
100
AcDbMText
10
-46.375163
20
17.126524
30
0
210
0
220
0
230
1
1
%%c
40
3.5
41
0
44
1.084337
50
90
71
7
72
5
7
iso_b_vert
0
LINE
5
129
100
AcDbEntity
8
SK2
62
256
6
ByLayer
370
13
48
1
60
0
100
AcDbLine
10
-37.5875
20
-3
30
0
11
-46.625163
21
-3
31
0
39
0
210
0
220
0
230
1
0
LINE
5
12A
100
AcDbEntity
8
SK2
62
256
6
ByLayer
370
13
48
1
60
0
100
AcDbLine
10
-37.5875
20
3
30
0
11
-46.625163
21
3
31
0
39
0
210
0
220
0
230
1
0
LINE
5
12B
100
AcDbEntity
8
SK2
62
256
6
ByLayer
370
13
48
1
60
0
100
AcDbLine
10
-44.625163
20
32.121549
30
0
11
-44.625163
21
-11.75
31
0
39
0
210
0
220
0
230
1
0
SOLID
5
12C
100
AcDbEntity
8
SK2
62
256
6
ByLayer
370
13
48
1
60
0
100
AcDbTrace
10
-44.625163
20
-3
30
0
11
-44.164379
21
-6.499998
31
0
12
-45.085946
22
-6.500002
32
0
13
-44.625163
23
-3
33
0
39
0
210
0
220
0
230
1
0
SOLID
5
12D
100
AcDbEntity
8
SK2
62
256
6
ByLayer
370
13
48
1
60
0
100
AcDbTrace
10
-44.625163
20
3
30
0
11
-45.085946
21
6.499998
31
0
12
-44.164379
22
6.500002
32
0
13
-44.625163
23
3
33
0
39
0
210
0
220
0
230
1
0
ENDBLK
5
12F
100
AcDbEntity
8
0
100
AcDbBlockEnd
0
BLOCK
5
139
100
AcDbEntity
8
0
100
AcDbBlockBegin
2
DimnDraft3D7
70
0
10
0
20
0
30
0
3
DimnDraft3D7
0
MTEXT
5
132
100
AcDbEntity
8
2
62
256
6
ByLayer
370
13
48
1
60
0
100
AcDbMText
10
56.333343
20
20.522266
30
0
210
0
220
0
230
1
1
\W0.6713;5,160
40
3.5
41
0
44
1.084337
50
90
71
7
72
5
7
iso_b_vert
0
MTEXT
5
133
100
AcDbEntity
8
2
62
256
6
ByLayer
370
13
48
1
60
0
100
AcDbMText
10
56.333343
20
15.29961
30
0
210
0
220
0
230
1
1
%%c
40
3.5
41
0
44
1.084337
50
90
71
7
72
5
7
iso_b_vert
0
LINE
5
134
100
AcDbEntity
8
2
62
256
6
ByLayer
370
13
48
1
60
0
100
AcDbLine
10
46.7175
20
-2.58
30
0
11
60.083343
21
-2.58
31
0
39
0
210
0
220
0
230
1
0
LINE
5
135
100
AcDbEntity
8
2
62
256
6
ByLayer
370
13
48
1
60
0
100
AcDbLine
10
46.7175
20
2.58
30
0
11
60.083343
21
2.58
31
0
39
0
210
0
220
0
230
1
0
LINE
5
136
100
AcDbEntity
8
2
62
256
6
ByLayer
370
13
48
1
60
0
100
AcDbLine
10
58.083343
20
29.419635
30
0
11
58.083343
21
-11.33
31
0
39
0
210
0
220
0
230
1
0
SOLID
5
137
100
AcDbEntity
8
2
62
256
6
ByLayer
370
13
48
1
60
0
100
AcDbTrace
10
58.083343
20
-2.58
30
0
11
58.544126
21
-6.079998
31
0
12
57.622559
22
-6.080002
32
0
13
58.083343
23
-2.58
33
0
39
0
210
0
220
0
230
1
0
SOLID
5
138
100
AcDbEntity
8
2
62
256
6
ByLayer
370
13
48
1
60
0
100
AcDbTrace
10
58.083343
20
2.58
30
0
11
57.622559
21
6.079998
31
0
12
58.544126
22
6.080002
32
0
13
58.083343
23
2.58
33
0
39
0
210
0
220
0
230
1
0
ENDBLK
5
13A
100
AcDbEntity
8
0
100
AcDbBlockEnd
0
ENDSEC
0
SECTION
2
ENTITIES
0
ARC
5
9D
100
AcDbEntity
8
1
62
256
6
ByLayer
370
18
48
1
60
0
100
AcDbCircle
39
0
10
0
20
2.2
30
0
40
0.799999999999999
210
0
220
0
230
1
100
AcDbArc
50
46.134774
51
90
0
ARC
5
9E
100
AcDbEntity
8
1
62
256
6
ByLayer
370
18
48
1
60
0
100
AcDbCircle
39
0
10
-1.108743
20
-3.353555
30
0
40
0.799999999999999
210
0
220
0
230
-1
100
AcDbArc
50
46.134774
51
90.034377
0
ARC
5
9F
100
AcDbEntity
8
1
62
256
6
ByLayer
370
18
48
1
60
0
100
AcDbCircle
39
0
10
0
20
-2.2
30
0
40
0.799999999999999
210
0
220
0
230
1
100
AcDbArc
50
270
51
313.865226
0
ARC
5
A0
100
AcDbEntity
8
1
62
256
6
ByLayer
370
18
48
1
60
0
100
AcDbCircle
39
0
10
-1.108743
20
3.353555
30
0
40
0.799999999999999
210
0
220
0
230
-1
100
AcDbArc
50
269.965623
51
313.865226
0
ELLIPSE
5
A1
100
AcDbEntity
8
1
62
256
6
ByLayer
370
18
48
1
60
0
100
AcDbEllipse
10
4.25
20
-2.678437
30
0
11
-0.25
21
3.06151588455594E-17
31
0
210
0
220
0
230
1
40
1
41
-1.57337743196166
42
-0.544715953471152
0
ELLIPSE
5
A2
100
AcDbEntity
8
1
62
256
6
ByLayer
370
18
48
1
60
0
100
AcDbEllipse
10
4.25
20
2.678437
30
0
11
-0.25
21
3.06151588455594E-17
31
0
210
0
220
0
230
1
40
1
41
0.543147971168935
42
1.5781730890363
0
ELLIPSE
5
A3
100
AcDbEntity
8
1
62
256
6
ByLayer
370
13
48
1
60
0
100
AcDbEllipse
10
4.250263
20
1.512204
30
0
11
0.0390699001857341
21
0.0920518489736995
31
0
210
0
220
0
230
1
40
0.281526
41
-2.39241999398026
42
-2.15271440902715
0
ELLIPSE
5
A4
100
AcDbEntity
8
1
62
256
6
ByLayer
370
13
48
1
60
0
100
AcDbEllipse
10
45.62377
20
1.204312
30
0
11
1.58817158300585
21
-1.09350129674266
31
0
210
0
220
0
230
-1
40
0.533762
41
1.44484622737756
42
1.69592424235244
0
ELLIPSE
5
A5
100
AcDbEntity
8
1
62
256
6
ByLayer
370
18
48
1
60
0
100
AcDbEllipse
10
46.057291
20
-0.020583
30
0
11
0.135544944350617
21
-0.427068209866196
31
0
210
0
220
0
230
-1
40
0.100282
41
1.71225210262127
42
2.33653286887321
0
ELLIPSE
5
A6
100
AcDbEntity
8
1
62
256
6
ByLayer
370
18
48
1
60
0
100
AcDbEllipse
10
45.475601
20
-1.32751
30
0
11
0.401845604736593
21
1.08230575780454
31
0
210
0
220
0
230
-1
40
0.131755
41
0.736518128027827
42
1.4877382810235
0
ELLIPSE
5
A7
100
AcDbEntity
8
1
62
256
6
ByLayer
370
18
48
1
60
0
100
AcDbEllipse
10
45.475601
20
1.32751
30
0
11
0.401845604738373
21
-1.08230575780817
31
0
210
0
220
0
230
-1
40
0.131755
41
-1.48773828102103
42
-0.736518128027648
0
ELLIPSE
5
A8
100
AcDbEntity
8
1
62
256
6
ByLayer
370
13
48
1
60
0
100
AcDbEllipse
10
45.434133
20
0.349157
30
0
11
0.15308208161242
21
0.258003636193772
31
0
210
0
220
0
230
1
40
0.454519
41
0.917105603404794
42
2.31336900500022
0
ELLIPSE
5
A9
100
AcDbEntity
8
1
62
256
6
ByLayer
370
18
48
1
60
0
100
AcDbEllipse
10
46.00024
20
0.000564
30
0
11
0.956956854624233
21
2.57740758068143
31
0
210
0
220
0
230
-1
40
0.131755
41
2.84596713358924
42
2.9640813251278
0
ELLIPSE
5
AA
100
AcDbEntity
8
1
62
256
6
ByLayer
370
18
48
1
60
0
100
AcDbEllipse
10
46.057291
20
0.020583
30
0
11
0.135544944410937
21
0.427068210019014
31
0
210
0
220
0
230
-1
40
0.100282
41
-2.33653286889531
42
-1.71225210284257
0
ELLIPSE
5
AB
100
AcDbEntity
8
1
62
256
6
ByLayer
370
18
48
1
60
0
100
AcDbEllipse
10
45.860816
20
0.095991
30
0
11
0.0727819104920045
21
0.301917195719797
31
0
210
0
220
0
230
-1
40
0.478434
41
1.68777856422243
42
2.45976119973233
0
ELLIPSE
5
AC
100
AcDbEntity
8
1
62
256
6
ByLayer
370
13
48
1
60
0
100
AcDbEllipse
10
45.813677
20
1.32751
30
0
11
1.65443212796743
21
-0.754610229285488
31
0
210
0
220
0
230
-1
40
0.470045
41
1.58583695963275
42
1.86735273378291
0
ELLIPSE
5
AD
100
AcDbEntity
8
1
62
256
6
ByLayer
370
18
48
1
60
0
100
AcDbEllipse
10
46.00024
20
-0.000564
30
0
11
0.956956839909762
21
-2.57740753695969
31
0
210
0
220
0
230
-1
40
0.131755
41
-2.96408132359967
42
-2.84596713104353
0
ELLIPSE
5
AE
100
AcDbEntity
8
1
62
256
6
ByLayer
370
13
48
1
60
0
100
AcDbEllipse
10
4.179303
20
1.552536
30
0
11
0.0592218243028318
21
0.0805777607423073
31
0
210
0
220
0
230
1
40
0.087492
41
2.36355288809398
42
2.63474249658572
0
POINT
5
6C
100
AcDbEntity
8
81
62
256
6
ByLayer
370
18
48
1
60
0
100
AcDbPoint
10
46
20
0
30
0
39
0
210
0
220
0
230
1
50
360
0
POINT
5
6E
100
AcDbEntity
8
80
62
256
6
ByLayer
370
18
48
1
60
0
100
AcDbPoint
10
0
20
0
30
0
39
0
210
0
220
0
230
1
50
360
0
POINT
5
70
100
AcDbEntity
8
SK2
62
256
6
ByLayer
370
18
48
1
60
1
100
AcDbPoint
10
-36
20
-3
30
0
39
0
210
0
220
0
230
1
50
360
0
POINT
5
72
100
AcDbEntity
8
SK2
62
256
6
ByLayer
370
18
48
1
60
1
100
AcDbPoint
10
-36
20
3
30
0
39
0
210
0
220
0
230
1
50
360
0
POINT
5
73
100
AcDbEntity
8
2
62
256
6
ByLayer
370
18
48
1
60
1
100
AcDbPoint
10
45.13
20
-2.58
30
0
39
0
210
0
220
0
230
1
50
360
0
POINT
5
75
100
AcDbEntity
8
2
62
256
6
ByLayer
370
18
48
1
60
1
100
AcDbPoint
10
45.13
20
2.58
30
0
39
0
210
0
220
0
230
1
50
360
0
SPLINE
5
AF
100
AcDbEntity
8
1
62
256
6
ByLayer
370
18
48
1
60
0
100
AcDbSpline
70
4
71
1
72
4
73
2
40
0
40
0
40
1
40
1
41
1
10
4.04908819312701
20
1.5596230902205
30
0
41
1
10
4.0610988468994
20
1.53900277611916
30
0
0
SPLINE
5
B0
100
AcDbEntity
8
1
62
256
6
ByLayer
370
18
48
1
60
0
100
AcDbSpline
70
4
71
3
72
13
73
9
40
0
40
0
40
0
40
0
40
0.042848309985572
40
0.294219267140428
40
0.399254856809907
40
0.528162899867912
40
0.729082044132715
40
1
40
1
40
1
40
1
41
1
10
22.8724683715221
20
-0.714679040823739
30
0
41
1
10
22.8726408272396
20
-0.714746228303738
30
0
41
1
10
22.8749699916267
20
-0.715646517742471
30
0
41
1
10
22.889647340583
20
-0.721469743530093
30
0
41
1
10
22.9263226198343
20
-0.738804599956126
30
0
41
1
10
22.9994678033081
20
-0.772822429648016
30
0
41
1
10
23.1296618203904
20
-0.835734456406527
30
0
41
1
10
23.2360715006918
20
-0.889147920189345
30
0
41
1
10
23.3013541218414
20
-0.922502777297382
30
0
0
SPLINE
5
B1
100
AcDbEntity
8
1
62
256
6
ByLayer
370
18
48
1
60
0
100
AcDbSpline
70
4
71
3
72
23
73
19
40
0
40
0
40
0
40
0
40
0.0650021615146343
40
0.127668039732741
40
0.189598562586428
40
0.245419358811877
40
0.290586532240772
40
0.326589798608461
40
0.374682925566853
40
0.442616389776645
40
0.524133214418361
40
0.594462535043747
40
0.651224735435823
40
0.699453697081259
40
0.741965467036143
40
0.802075131515896
40
0.897037944016957
40
1
40
1
40
1
40
1
41
1
10
14.7468353085114
20
-2.43352405098295
30
0
41
1
10
14.8997326652532
20
-2.43286646849771
30
0
41
1
10
15.2025582512395
20
-2.43204778658156
30
0
41
1
10
15.6659245544342
20
-2.42991785427475
30
0
41
1
10
16.1018242211679
20
-2.43351083282528
30
0
41
1
10
16.4908381737109
20
-2.4354383036106
30
0
41
1
10
16.8228725980761
20
-2.43542199299537
30
0
41
1
10
17.1376467381136
20
-2.43531161833741
30
0
41
1
10
17.5071478283936
20
-2.43539959801566
30
0
41
1
10
17.9875440531313
20
-2.43757259382824
30
0
41
1
10
18.5217559814763
20
-2.43522124439625
30
0
41
1
10
19.0294706137562
20
-2.43728210412161
30
0
41
1
10
19.455597544806
20
-2.43808853677481
30
0
41
1
10
19.8136765544953
20
-2.43691675102522
30
0
41
1
10
20.1802510663402
20
-2.437235163118
30
0
41
1
10
20.6611121775106
20
-2.43936488342087
30
0
41
1
10
21.2886189012891
20
-2.43780590367891
30
0
41
1
10
21.7701144962974
20
-2.43849366676309
30
0
41
1
10
22.0205823661264
20
-2.43882307304295
30
0
0
SPLINE
5
B2
100
AcDbEntity
8
1
62
256
6
ByLayer
370
18
48
1
60
0
100
AcDbSpline
70
4
71
3
72
18
73
14
40
0
40
0
40
0
40
0
40
0.106067064769052
40
0.192125392248084
40
0.258114774506884
40
0.303936958115743
40
0.341261136594203
40
0.446677115329599
40
0.544312281560826
40
0.636252879519949
40
0.743259333435286
40
0.871402490482097
40
1
40
1
40
1
40
1
41
1
10
29.7149977661519
20
-2.44265173456856
30
0
41
1
10
29.9725440918772
20
-2.44291594789314
30
0
41
1
10
30.4391170750515
20
-2.44337329884533
30
0
41
1
10
31.0662722101283
20
-2.44304951968718
30
0
41
1
10
31.5469103800813
20
-2.4439707167503
30
0
41
1
10
31.9092294128895
20
-2.44425121487831
30
0
41
1
10
32.3672925309416
20
-2.44363094601087
30
0
41
1
10
32.9516365553714
20
-2.44547722467647
30
0
41
1
10
33.6667083601729
20
-2.44366839176593
30
0
41
1
10
34.3883044804452
20
-2.44652436536396
30
0
41
1
10
35.1781138507309
20
-2.4444964589095
30
0
41
1
10
36.0628497715975
20
-2.44404747952288
30
0
41
1
10
36.6853903945423
20
-2.44597087883872
30
0
41
1
10
36.9973021421759
20
-2.44742547308178
30
0
0
SPLINE
5
B3
100
AcDbEntity
8
1
62
256
6
ByLayer
370
18
48
1
60
0
100
AcDbSpline
70
4
71
3
72
11
73
7
40
0
40
0
40
0
40
0
40
0.166836235961031
40
0.432239292580566
40
0.738868709989277
40
1
40
1
40
1
40
1
41
1
10
7.07660017684236
20
2.43102784180255
30
0
41
1
10
6.91992524255878
20
2.43074154336455
30
0
41
1
10
6.51367883695801
20
2.43014738462972
30
0
41
1
10
5.81689344847916
20
2.42854655062771
30
0
41
1
10
5.03110710455047
20
2.43072753554972
30
0
41
1
10
4.49682456824945
20
2.42889630412569
30
0
41
1
10
4.25125094708719
20
2.42779838666721
30
0
0
SPLINE
5
B4
100
AcDbEntity
8
1
62
256
6
ByLayer
370
18
48
1
60
0
100
AcDbSpline
70
4
71
3
72
20
73
16
40
0
40
0
40
0
40
0
40
0.12553802385047
40
0.241372220161429
40
0.314693075894627
40
0.36654828717842
40
0.425377242050128
40
0.494614911935268
40
0.580401549010593
40
0.679834533558438
40
0.784931585944595
40
0.849758951454094
40
0.920362633496965
40
0.98845199287743
40
1
40
1
40
1
40
1
41
1
10
22.0202621226376
20
2.43882284491926
30
0
41
1
10
21.7699010060359
20
2.43849360990558
30
0
41
1
10
21.288512178017
20
2.43780607759902
30
0
41
1
10
20.6611121671276
20
2.43936485527104
30
0
41
1
10
20.1802510895657
20
2.43723524996253
30
0
41
1
10
19.8136764911077
20
2.43691650970206
30
0
41
1
10
19.4555978419763
20
2.43808966969692
30
0
41
1
10
19.0294691529896
20
2.43727653419799
30
0
41
1
10
18.5217633298375
20
2.43524926385504
30
0
41
1
10
17.9432077162333
20
2.43764237239523
30
0
41
1
10
17.406306837981
20
2.43516784419231
30
0
41
1
10
16.9267088742706
20
2.43533655501545
30
0
41
1
10
16.5211054336401
20
2.43558375850876
30
0
41
1
10
16.2270866364902
20
2.43413106739933
30
0
41
1
10
16.070182061459
20
2.43306670580031
30
0
41
1
10
16.0474078937538
20
2.43291054924262
30
0
0
SPLINE
5
B5
100
AcDbEntity
8
1
62
256
6
ByLayer
370
18
48
1
60
0
100
AcDbSpline
70
4
71
2
72
6
73
3
40
0
40
0
40
0
40
1
40
1
40
1
41
1
10
44.6875282134362
20
-2.4516144644725
30
0
41
1
10
44.882372328795
20
-2.45158871705766
30
0
41
1
10
45.0736279796496
20
-2.44983992899611
30
0
0
SPLINE
5
B6
100
AcDbEntity
8
1
62
256
6
ByLayer
370
18
48
1
60
0
100
AcDbSpline
70
4
71
3
72
20
73
16
40
0
40
0
40
0
40
0
40
0.0519356326514044
40
0.118426188730022
40
0.213125550861552
40
0.302497707173625
40
0.384972760778092
40
0.472394426269458
40
0.572072000744874
40
0.682295539682501
40
0.755248372436779
40
0.784051197002991
40
0.831105604505551
40
0.897284859908518
40
1
40
1
40
1
40
1
41
1
10
37.0602093728265
20
2.44669359113172
30
0
41
1
10
36.9626863816208
20
2.44587187819187
30
0
41
1
10
36.7363398663781
20
2.44408814678837
30
0
41
1
10
36.3010769007876
20
2.43313465628094
30
0
41
1
10
35.7964310912315
20
2.44396970308796
30
0
41
1
10
35.2650411855979
20
2.44520401938502
30
0
41
1
10
34.7388658359523
20
2.44522521198695
30
0
41
1
10
34.1900776446535
20
2.44654604901984
30
0
41
1
10
33.5851702756947
20
2.4435637642122
30
0
41
1
10
33.0099827544753
20
2.44545701099716
30
0
41
1
10
32.5788834856343
20
2.44383042400557
30
0
41
1
10
32.2766440340957
20
2.44368287434182
30
0
41
1
10
31.9877465975009
20
2.44381869236412
30
0
41
1
10
31.548433465615
20
2.44340298612499
30
0
41
1
10
31.2046671031412
20
2.44315758563948
30
0
41
1
10
30.9956632677068
20
2.44303685278155
30
0
0
SPLINE
5
B7
100
AcDbEntity
8
1
62
256
6
ByLayer
370
18
48
1
60
0
100
AcDbSpline
70
4
71
3
72
12
73
8
40
0
40
0
40
0
40
0
40
0.183682544400244
40
0.450486573884416
40
0.527140766823333
40
0.644636224461434
40
1
40
1
40
1
40
1
41
1
10
37.8338619856736
20
-0.713790263302855
30
0
41
1
10
37.8345076250547
20
-0.71421572034518
30
0
41
1
10
37.8443179518894
20
-0.718050685021154
30
0
41
1
10
37.879084139145
20
-0.732024051628883
30
0
41
1
10
37.9313195134595
20
-0.756885844352809
30
0
41
1
10
38.0373737999869
20
-0.807536016459778
30
0
41
1
10
38.1332051848439
20
-0.855528984377287
30
0
41
1
10
38.2176068719174
20
-0.898540890425153
30
0
0
SPLINE
5
B8
100
AcDbEntity
8
1
62
256
6
ByLayer
370
18
48
1
60
0
100
AcDbSpline
70
4
71
3
72
11
73
7
40
0
40
0
40
0
40
0
40
0.124744616856158
40
0.391479099976939
40
0.707843016435955
40
1
40
1
40
1
40
1
41
1
10
4.2512381679916
20
-2.42827174135832
30
0
41
1
10
4.36745290800979
20
-2.42895646296057
30
0
41
1
10
4.73216507446307
20
-2.43072433679276
30
0
41
1
10
5.39160728069061
20
-2.43088318256886
30
0
41
1
10
6.20707140213526
20
-2.42946644368169
30
0
41
1
10
6.77395797561545
20
-2.43039897861752
30
0
41
1
10
7.04611937516708
20
-2.43104522331839
30
0
0
SPLINE
5
B9
100
AcDbEntity
8
1
62
256
6
ByLayer
370
18
48
1
60
0
100
AcDbSpline
70
4
71
3
72
8
73
4
40
0
40
0
40
0
40
0
40
1
40
1
40
1
40
1
41
1
10
29.1593409288276
20
0.172145620787006
30
0
41
1
10
29.1611001612257
20
0.171950543319639
30
0
41
1
10
29.1579124093199
20
0.174259898922202
30
0
41
1
10
29.148859503441
20
0.179346323604051
30
0
0
SPLINE
5
BA
100
AcDbEntity
8
1
62
256
6
ByLayer
370
18
48
1
60
0
100
AcDbSpline
70
4
71
3
72
8
73
4
40
0
40
0
40
0
40
0
40
1
40
1
40
1
40
1
41
1
10
45.1182848508735
20
2.55860713368364
30
0
41
1
10
44.9131155636525
20
2.57280536926359
30
0
41
1
10
44.7081262308374
20
2.57979794542857
30
0
41
1
10
44.5029909825407
20
2.57960478720909
30
0
0
SPLINE
5
BB
100
AcDbEntity
8
1
62
256
6
ByLayer
370
18
48
1
60
0
100
AcDbSpline
70
4
71
3
72
38
73
34
40
0
40
0
40
0
40
0
40
0.0376299980781371
40
0.0376299980781371
40
0.0765844733522319
40
0.0765844733522319
40
0.232402374448615
40
0.232402374448615
40
0.27135684972271
40
0.27135684972271
40
0.310311324996805
40
0.310311324996805
40
0.388220275544998
40
0.388220275544998
40
0.46612922609319
40
0.46612922609319
40
0.505083701367287
40
0.505083701367287
40
0.544038176641383
40
0.544038176641383
40
0.621947127189577
40
0.621947127189577
40
0.660901602463674
40
0.660901602463674
40
0.699856077737771
40
0.699856077737771
40
0.855673978834161
40
0.855673978834161
40
0.894628454108259
40
0.894628454108259
40
0.933582929382356
40
0.933582929382356
40
1
40
1
40
1
40
1
41
1
10
31.0179702587504
20
-2.4487100216744
30
0
41
1
10
30.8124353743913
20
-2.48248174207407
30
0
41
1
10
30.6064578629367
20
-2.5094691007489
30
0
41
1
10
30.1855491538194
20
-2.54998690886364
30
0
41
1
10
29.9698076490641
20
-2.56300878645538
30
0
41
1
10
28.8971612979938
20
-2.58853645936802
30
0
41
1
10
28.0545355984448
20
-2.48329550149654
30
0
41
1
10
26.9867358020683
20
-2.21108195309634
30
0
41
1
10
26.7722934844952
20
-2.14956674466808
30
0
41
1
10
26.3416619401193
20
-2.01331642359122
30
0
41
1
10
26.1274914341249
20
-1.93917245830531
30
0
41
1
10
25.4871350687589
20
-1.70062555004924
30
0
41
1
10
25.0628467112829
20
-1.52047073670465
30
0
41
1
10
24.213305980611
20
-1.12764983551958
30
0
41
1
10
23.7877842757793
20
-0.91541814413938
30
0
41
1
10
23.1436003167963
20
-0.580972566404341
30
0
41
1
10
22.9279190106882
20
-0.466972549241717
30
0
41
1
10
22.4998277415342
20
-0.23846030376103
30
0
41
1
10
22.28663184417
20
-0.123592332863694
30
0
41
1
10
21.6482996269135
20
0.220401863879402
30
0
41
1
10
21.224268980339
20
0.448635644175937
30
0
41
1
10
20.5858642147728
20
0.780603828978172
30
0
41
1
10
20.3726122109339
20
0.889422440987346
30
0
41
1
10
19.9443214185158
20
1.10173204783098
30
0
41
1
10
19.7285512467851
20
1.20564209700444
30
0
41
1
10
18.6550939268008
20
1.70327477534431
30
0
41
1
10
17.811907692117
20
2.02911071091725
30
0
41
1
10
16.7438274061544
20
2.30407248657693
30
0
41
1
10
16.5295330258909
20
2.35248305075584
30
0
41
1
10
16.0986648422408
20
2.43504121975451
30
0
41
1
10
15.88419193093
20
2.46874102849853
30
0
41
1
10
15.3061622257192
20
2.5392545488736
30
0
41
1
10
14.9439934191669
20
2.56155888700098
30
0
41
1
10
14.5817286010697
20
2.56163257797945
30
0
0
SPLINE
5
BC
100
AcDbEntity
8
1
62
256
6
ByLayer
370
18
48
1
60
0
100
AcDbSpline
70
2053
71
3
72
46
73
42
40
0
40
0
40
0
40
0
40
0.0312499999999978
40
0.0312499999999978
40
0.0624999999999955
40
0.0624999999999955
40
0.0937499999999933
40
0.0937499999999933
40
0.124999999999991
40
0.124999999999991
40
0.156249999999989
40
0.156249999999989
40
0.187499999999987
40
0.187499999999987
40
0.249999999999983
40
0.249999999999983
40
0.281249999999981
40
0.281249999999981
40
0.312499999999979
40
0.312499999999979
40
0.374999999999981
40
0.374999999999981
40
0.437499999999982
40
0.437499999999982
40
0.499999999999984
40
0.499999999999984
40
0.562499999999986
40
0.562499999999986
40
0.624999999999988
40
0.624999999999988
40
0.68749999999999
40
0.68749999999999
40
0.749999999999992
40
0.749999999999992
40
0.812499999999994
40
0.812499999999994
40
0.874999999999996
40
0.874999999999996
40
0.937499999999998
40
0.937499999999998
40
1
40
1
40
1
40
1
41
1
10
45.3575935168666
20
-1.33482592529359
30
0
41
1
10
45.3693661367192
20
-1.31773756875359
30
0
41
1
10
45.3808784962813
20
-1.29946783682541
30
0
41
1
10
45.4033424357667
20
-1.26038280323908
30
0
41
1
10
45.4144127452618
20
-1.2393172686937
30
0
41
1
10
45.4352391880998
20
-1.1954595443911
30
0
41
1
10
45.4449569484704
20
-1.17280626460192
30
0
41
1
10
45.4628054334906
20
-1.12584659063194
30
0
41
1
10
45.4707669473684
20
-1.10190059782349
30
0
41
1
10
45.4839895589133
20
-1.05501267309467
30
0
41
1
10
45.4894165477749
20
-1.03140092489034
30
0
41
1
10
45.4970450537597
20
-0.987061333069448
30
0
41
1
10
45.499321280442
20
-0.966164819361325
30
0
41
1
10
45.501530593594
20
-0.908190208274249
30
0
41
1
10
45.4967098908232
20
-0.877699348387409
30
0
41
1
10
45.4828065139362
20
-0.845301564668773
30
0
41
1
10
45.4770024045688
20
-0.836580569282432
30
0
41
1
10
45.4637640065163
20
-0.823459590982054
30
0
41
1
10
45.4563122126135
20
-0.818966640268599
30
0
41
1
10
45.4316783634053
20
-0.81114578491119
30
0
41
1
10
45.412800134363
20
-0.81354702083928
30
0
41
1
10
45.3713010877337
20
-0.831821936702198
30
0
41
1
10
45.3493346414424
20
-0.847389642171208
30
0
41
1
10
45.3033496873309
20
-0.891136663114935
30
0
41
1
10
45.2797504737496
20
-0.919021319333382
30
0
41
1
10
45.2332684988779
20
-0.985927647412097
30
0
41
1
10
45.2100258050364
20
-1.02560607717504
30
0
41
1
10
45.1681864076949
20
-1.11331016375581
30
0
41
1
10
45.1495081535288
20
-1.16183059631814
30
0
41
1
10
45.1229152090706
20
-1.25632902587898
30
0
41
1
10
45.1150617391505
20
-1.30227015577856
30
0
41
1
10
45.1120831623208
20
-1.37927121374733
30
0
41
1
10
45.1168323556736
20
-1.4103026317444
30
0
41
1
10
45.1352314045507
20
-1.45396371642474
30
0
41
1
10
45.148879653021
20
-1.46715056394891
30
0
41
1
10
45.181460960392
20
-1.47787071956742
30
0
41
1
10
45.2005995180871
20
-1.47552342389952
30
0
41
1
10
45.2418434634904
20
-1.45734858520481
30
0
41
1
10
45.264269195085
20
-1.44136222527663
30
0
41
1
10
45.3100559554634
20
-1.39749322305116
30
0
41
1
10
45.3340482771613
20
-1.36900263837359
30
0
41
1
10
45.3575935168666
20
-1.33482592529359
30
0
0
SPLINE
5
BD
100
AcDbEntity
8
1
62
256
6
ByLayer
370
18
48
1
60
0
100
AcDbSpline
70
4
71
3
72
58
73
54
40
0
40
0
40
0
40
0
40
0.0625000000000018
40
0.0625000000000018
40
0.125000000000004
40
0.125000000000004
40
0.250000000000006
40
0.250000000000006
40
0.375000000000008
40
0.375000000000008
40
0.437500000000009
40
0.437500000000009
40
0.50000000000001
40
0.50000000000001
40
0.625000000000012
40
0.625000000000012
40
0.628906250000011
40
0.628906250000011
40
0.63281250000001
40
0.63281250000001
40
0.636718750000009
40
0.636718750000009
40
0.638671875000008
40
0.638671875000008
40
0.640625000000007
40
0.640625000000007
40
0.656250000000006
40
0.656250000000006
40
0.687500000000004
40
0.687500000000004
40
0.703125000000004
40
0.703125000000004
40
0.718750000000004
40
0.718750000000004
40
0.734375000000003
40
0.734375000000003
40
0.750000000000003
40
0.750000000000003
40
0.765625000000003
40
0.765625000000003
40
0.781250000000003
40
0.781250000000003
40
0.812500000000002
40
0.812500000000002
40
0.828125000000002
40
0.828125000000002
40
0.843750000000002
40
0.843750000000002
40
0.875000000000002
40
0.875000000000002
40
0.937500000000001
40
0.937500000000001
40
1
40
1
40
1
40
1
41
1
10
9.8833137962697
20
-1.63568369665308
30
0
41
1
10
9.66528220357222
20
-1.545176957531
30
0
41
1
10
9.44578474667071
20
-1.45194162278719
30
0
41
1
10
9.00339409538208
20
-1.26211315127259
30
0
41
1
10
8.78050937307825
20
-1.16552616893034
30
0
41
1
10
8.11152507568158
20
-0.876986603547692
30
0
41
1
10
7.66309404149916
20
-0.68540467750671
30
0
41
1
10
6.75455260599361
20
-0.32525451655269
30
0
41
1
10
6.29436768398955
20
-0.156890466655057
30
0
41
1
10
5.59118635604312
20
0.0640238046727575
30
0
41
1
10
5.35466128669364
20
0.132433621599887
30
0
41
1
10
4.87692802713562
20
0.257085337358006
30
0
41
1
10
4.63537799832727
20
0.313386126324588
30
0
41
1
10
3.90748292370859
20
0.461353502676133
30
0
41
1
10
3.41649066599462
20
0.53239360354641
30
0
41
1
10
2.90715434372225
20
0.574734941343735
30
0
41
1
10
2.89171739560268
20
0.575988782826414
30
0
41
1
10
2.86083845569448
20
0.578437891454655
30
0
41
1
10
2.84534299850839
20
0.580182699148764
30
0
41
1
10
2.81446809587553
20
0.579436197058982
30
0
41
1
10
2.79881635933279
20
0.577332961564707
30
0
41
1
10
2.77746397987633
20
0.569015983030567
30
0
41
1
10
2.77082329401355
20
0.565348986806555
30
0
41
1
10
2.75723964152297
20
0.558578269515976
30
0
41
1
10
2.75046102161588
20
0.555166666051065
30
0
41
1
10
2.68957531479791
20
0.524219779578402
30
0
41
1
10
2.63620698180841
20
0.49493310441818
30
0
41
1
10
2.48041173671919
20
0.401268315624975
30
0
41
1
10
2.38193285608071
20
0.33142803849671
30
0
41
1
10
2.2481790513998
20
0.207245891450185
30
0
41
1
10
2.20599590058069
20
0.162420072648302
30
0
41
1
10
2.13100011312241
20
0.06667149716165
30
0
41
1
10
2.09756402342083
20
0.0149244552369794
30
0
41
1
10
2.04393468267253
20
-0.0950424107081744
30
0
41
1
10
2.02405649877073
20
-0.152398679738894
30
0
41
1
10
2.0004899723227
20
-0.272625270492483
30
0
41
1
10
1.99736335817278
20
-0.333296186249726
30
0
41
1
10
2.00698461915724
20
-0.453308567015341
30
0
41
1
10
2.01987154370548
20
-0.512900768155276
30
0
41
1
10
2.05697613121674
20
-0.625554991782792
30
0
41
1
10
2.08137517942288
20
-0.67978910515302
30
0
41
1
10
2.16677329830833
20
-0.835478227653311
30
0
41
1
10
2.2376198639011
20
-0.927370454846056
30
0
41
1
10
2.35495624410271
20
-1.05537514289395
30
0
41
1
10
2.39616018821209
20
-1.09642056179007
30
0
41
1
10
2.48045551954934
20
-1.17460383994162
30
0
41
1
10
2.5236711869465
20
-1.21188830273223
30
0
41
1
10
2.65581039253752
20
-1.31941716430112
30
0
41
1
10
2.74718911354276
20
-1.38539413006879
30
0
41
1
10
3.02797303865378
20
-1.57115921238326
30
0
41
1
10
3.22441264760502
20
-1.67924175814892
30
0
41
1
10
3.62547914824574
20
-1.87316389207834
30
0
41
1
10
3.82829867721785
20
-1.95793040680329
30
0
41
1
10
4.0326149672388
20
-2.03344153088551
30
0
0
SPLINE
5
BE
100
AcDbEntity
8
1
62
256
6
ByLayer
370
18
48
1
60
0
100
AcDbSpline
70
4
71
3
72
18
73
14
40
0
40
0
40
0
40
0
40
0.25
40
0.25
40
0.5
40
0.5
40
0.625
40
0.625
40
0.75
40
0.75
40
0.875
40
0.875
40
1
40
1
40
1
40
1
41
1
10
44.9909866745282
20
0.804316001825839
30
0
41
1
10
45.0636475624707
20
0.821335474754278
30
0
41
1
10
45.1355855317098
20
0.840589955004759
30
0
41
1
10
45.276764822746
20
0.886825896416781
30
0
41
1
10
45.3464799253863
20
0.913791726100186
30
0
41
1
10
45.4444931977434
20
0.96514881040045
30
0
41
1
10
45.476111485517
20
0.984124338443849
30
0
41
1
10
45.5359136933128
20
1.02824791855565
30
0
41
1
10
45.5635863231199
20
1.05301973255419
30
0
41
1
10
45.6106089253944
20
1.1107527059622
30
0
41
1
10
45.6293082599813
20
1.14328310341028
30
0
41
1
10
45.651717477669
20
1.21515731757106
30
0
41
1
10
45.6548052310619
20
1.25303087757567
30
0
41
1
10
45.6510469188955
20
1.29048146095818
30
0
0
SPLINE
5
BF
100
AcDbEntity
8
1
62
256
6
ByLayer
370
18
48
1
60
0
100
AcDbSpline
70
4
71
3
72
16
73
12
40
0
40
0
40
0
40
0
40
0.249999999999999
40
0.249999999999999
40
0.499999999999999
40
0.499999999999999
40
0.624999999999999
40
0.624999999999999
40
0.749999999999999
40
0.749999999999999
40
1
40
1
40
1
40
1
41
1
10
44.8464581711635
20
0.499705403362299
30
0
41
1
10
44.8399405746648
20
0.529023319032547
30
0
41
1
10
44.8369578657258
20
0.559101520850419
30
0
41
1
10
44.8388045822288
20
0.621102520244818
30
0
41
1
10
44.8437126015297
20
0.652664765252098
30
0
41
1
10
44.8591383172865
20
0.698363939639648
30
0
41
1
10
44.8652443372167
20
0.713241099577232
30
0
41
1
10
44.8824444223102
20
0.740308682043803
30
0
41
1
10
44.893192183663
20
0.752621522267077
30
0
41
1
10
44.9297011189161
20
0.783756847869341
30
0
41
1
10
44.95977318923
20
0.7970048185596
30
0
41
1
10
44.9909866745282
20
0.804316001825839
30
0
0
SPLINE
5
C0
100
AcDbEntity
8
1
62
256
6
ByLayer
370
18
48
1
60
0
100
AcDbSpline
70
4
71
3
72
8
73
4
40
0
40
0
40
0
40
0
40
1
40
1
40
1
40
1
41
1
10
45.1182848508743
20
-2.55860713366525
30
0
41
1
10
45.1220664751486
20
-2.5485327889746
30
0
41
1
10
45.1258453759862
20
-2.53845544416035
30
0
41
1
10
45.1296214909535
20
-2.52837527502197
30
0
0
SPLINE
5
C1
100
AcDbEntity
8
1
62
256
6
ByLayer
370
13
48
1
60
0
100
AcDbSpline
70
4
71
3
72
8
73
4
40
0
40
0
40
0
40
0
40
1
40
1
40
1
40
1
41
1
10
4.25043913700685
20
1.4524211864684
30
0
41
1
10
4.20921735623097
20
1.46248481536827
30
0
41
1
10
4.16894286699454
20
1.47808430755572
30
0
41
1
10
4.1321712904039
20
1.49877771311549
30
0
0
SPLINE
5
C2
100
AcDbEntity
8
1
62
256
6
ByLayer
370
18
48
1
60
0
100
AcDbSpline
70
4
71
3
72
74
73
70
40
0
40
0
40
0
40
0
40
0.0289273669397682
40
0.0289273669397682
40
0.0586246878484507
40
0.0586246878484507
40
0.0883220087571332
40
0.0883220087571332
40
0.118019329665816
40
0.118019329665816
40
0.147716650574498
40
0.147716650574498
40
0.177413971483181
40
0.177413971483181
40
0.207111292391863
40
0.207111292391863
40
0.236808613300546
40
0.236808613300546
40
0.266505934209228
40
0.266505934209228
40
0.296203255117911
40
0.296203255117911
40
0.325900576026593
40
0.325900576026593
40
0.355597896935276
40
0.355597896935276
40
0.385295217843958
40
0.385295217843958
40
0.414992538752641
40
0.414992538752641
40
0.444689859661323
40
0.444689859661323
40
0.474387180570006
40
0.474387180570006
40
0.504084501478688
40
0.504084501478688
40
0.533781822387371
40
0.533781822387371
40
0.563479143296054
40
0.563479143296054
40
0.593176464204736
40
0.593176464204736
40
0.622873785113419
40
0.622873785113419
40
0.652571106022101
40
0.652571106022101
40
0.682268426930783
40
0.682268426930783
40
0.711965747839466
40
0.711965747839466
40
0.741663068748148
40
0.741663068748148
40
0.771360389656831
40
0.771360389656831
40
0.801057710565514
40
0.801057710565514
40
0.830755031474196
40
0.830755031474196
40
0.860452352382879
40
0.860452352382879
40
0.89014967329156
40
0.89014967329156
40
0.919846994200242
40
0.919846994200242
40
0.949544315108924
40
0.949544315108924
40
0.979241636017605
40
0.979241636017605
40
1
40
1
40
1
40
1
41
1
10
10.4488946430329
20
1.85769118292495
30
0
41
1
10
10.6277811364098
20
1.92346977454278
30
0
41
1
10
10.806270053828
20
1.98508647402249
30
0
41
1
10
11.1665945213049
20
2.10253657821113
30
0
41
1
10
11.3488633756668
20
2.15745274243261
30
0
41
1
10
11.7144653631085
20
2.25670725857873
30
0
41
1
10
11.8974967987206
20
2.3013995171078
30
0
41
1
10
12.2634992703555
20
2.38119296315793
30
0
41
1
10
12.4462599151935
20
2.41634500690677
30
0
41
1
10
12.8143149681642
20
2.47501196135295
30
0
41
1
10
12.9995060390099
20
2.49887820614981
30
0
41
1
10
13.3683884299315
20
2.53543464733346
30
0
41
1
10
13.5519566156291
20
2.54821002440173
30
0
41
1
10
13.919977460711
20
2.56201806734296
30
0
41
1
10
14.104482331493
20
2.56316255523626
30
0
41
1
10
14.4738217929304
20
2.55407591196013
30
0
41
1
10
14.6582314495297
20
2.54375964757048
30
0
41
1
10
15.0259845621613
20
2.51156576515871
30
0
41
1
10
15.2102434352102
20
2.48995105434179
30
0
41
1
10
15.5789999151734
20
2.43581352274134
30
0
41
1
10
15.7635772028013
20
2.40324282110933
30
0
41
1
10
16.1320127415947
20
2.32656925319711
30
0
41
1
10
16.3160938378021
20
2.28307281248581
30
0
41
1
10
16.684715268099
20
2.18672106566297
30
0
41
1
10
16.8690723544263
20
2.13373943365096
30
0
41
1
10
17.2372570060899
20
2.01732431314065
30
0
41
1
10
17.4214469113667
20
1.95382938163718
30
0
41
1
10
17.790389454523
20
1.82008635214206
30
0
41
1
10
17.974812604201
20
1.74939681594739
30
0
41
1
10
18.3430465736162
20
1.59967969407739
30
0
41
1
10
18.5265073687452
20
1.52007072595364
30
0
41
1
10
18.8952530028406
20
1.3559578453731
30
0
41
1
10
19.0802304200535
20
1.27108732431506
30
0
41
1
10
19.448914941492
20
1.09582362365123
30
0
41
1
10
19.6325291746099
20
1.00471641956881
30
0
41
1
10
20.0002752969659
20
0.818827303165619
30
0
41
1
10
20.1847787312582
20
0.724733139947205
30
0
41
1
10
20.5542838157689
20
0.532955796893845
30
0
41
1
10
20.7385156487038
20
0.435419988920188
30
0
41
1
10
21.1060111932864
20
0.237698371720739
30
0
41
1
10
21.2901041745031
20
0.138961452513286
30
0
41
1
10
21.6588445978692
20
-0.0584867962131455
30
0
41
1
10
21.8436768978452
20
-0.157438096716248
30
0
41
1
10
22.21185502576
20
-0.356032551867514
30
0
41
1
10
22.3956447766102
20
-0.454574536250419
30
0
41
1
10
22.7640675760329
20
-0.647568699982685
30
0
41
1
10
22.9484145396419
20
-0.742557211914772
30
0
41
1
10
23.3168205749232
20
-0.930476516011595
30
0
41
1
10
23.5009464717229
20
-1.0236892122017
30
0
41
1
10
23.8686345435679
20
-1.20188432438189
30
0
41
1
10
24.052142847359
20
-1.287806633744
30
0
41
1
10
24.418015569885
20
-1.45420425178599
30
0
41
1
10
24.5999872971288
20
-1.53523523885988
30
0
41
1
10
24.964754013725
20
-1.68869143095938
30
0
41
1
10
25.1475067013577
20
-1.76125709851539
30
0
41
1
10
25.5131435470811
20
-1.8990055751303
30
0
41
1
10
25.6958172942193
20
-1.96443129627016
30
0
41
1
10
26.0618891580195
20
-2.08681304600839
30
0
41
1
10
26.2460717963094
20
-2.14306702969631
30
0
41
1
10
26.6153728321333
20
-2.24615335439466
30
0
41
1
10
26.7995705281938
20
-2.29277722660203
30
0
41
1
10
27.1666962103561
20
-2.37626148051657
30
0
41
1
10
27.3503658062098
20
-2.41250965599937
30
0
41
1
10
27.7185865664319
20
-2.47387847725523
30
0
41
1
10
27.9029830789298
20
-2.49914740823502
30
0
41
1
10
28.2716055678204
20
-2.53881529062193
30
0
41
1
10
28.455158288208
20
-2.55296981395642
30
0
41
1
10
28.7678213902959
20
-2.56706072636661
30
0
41
1
10
28.8964939644327
20
-2.570076420953
30
0
41
1
10
29.0251163156724
20
-2.57030316942232
30
0
0
SPLINE
5
C3
100
AcDbEntity
8
1
62
256
6
ByLayer
370
18
48
1
60
0
100
AcDbSpline
70
4
71
3
72
24
73
20
40
0
40
0
40
0
40
0
40
0.0852933828972528
40
0.0852933828972528
40
0.199631710035096
40
0.199631710035096
40
0.31397003717294
40
0.31397003717294
40
0.428308364310784
40
0.428308364310784
40
0.542646691448627
40
0.542646691448627
40
0.656985018586471
40
0.656985018586471
40
0.771323345724314
40
0.771323345724314
40
0.885661672862157
40
0.885661672862157
40
1
40
1
40
1
40
1
41
1
10
40.3705617635454
20
1.86254168913982
30
0
41
1
10
40.507478642312
20
1.91403621619159
30
0
41
1
10
40.6441517948701
20
1.9634177014841
30
0
41
1
10
40.9650009722556
20
2.07214347342031
30
0
41
1
10
41.14918847115
20
2.12962163989215
30
0
41
1
10
41.517890375364
20
2.23554333310602
30
0
41
1
10
41.7017057605786
20
2.28414278274957
30
0
41
1
10
42.0689439712767
20
2.37024286946459
30
0
41
1
10
42.2529104095425
20
2.40763299384139
30
0
41
1
10
42.6207755225942
20
2.47188996929972
30
0
41
1
10
42.804566933067
20
2.49878423737516
30
0
41
1
10
43.1722418419597
20
2.54149892363006
30
0
41
1
10
43.3564760630581
20
2.55695340766127
30
0
41
1
10
43.7235112315476
20
2.57645378820672
30
0
41
1
10
43.9065740057063
20
2.58056202439792
30
0
41
1
10
44.2711710787313
20
2.57735758848409
30
0
41
1
10
44.4532309632827
20
2.56998868735297
30
0
41
1
10
44.8183178400724
20
2.54423825363136
30
0
41
1
10
45.0010568943283
20
2.52585517584814
30
0
41
1
10
45.1837303821389
20
2.5017694555865
30
0
0
SPLINE
5
C4
100
AcDbEntity
8
1
62
256
6
ByLayer
370
18
48
1
60
0
100
AcDbSpline
70
4
71
3
72
70
73
66
40
0
40
0
40
0
40
0
40
0.0181420032889093
40
0.0181420032889093
40
0.049475224213494
40
0.049475224213494
40
0.0808084451380787
40
0.0808084451380787
40
0.112141666062663
40
0.112141666062663
40
0.143474886987248
40
0.143474886987248
40
0.174808107911833
40
0.174808107911833
40
0.206141328836418
40
0.206141328836418
40
0.237474549761002
40
0.237474549761002
40
0.268807770685587
40
0.268807770685587
40
0.300140991610172
40
0.300140991610172
40
0.331474212534756
40
0.331474212534756
40
0.362807433459341
40
0.362807433459341
40
0.394140654383926
40
0.394140654383926
40
0.42547387530851
40
0.42547387530851
40
0.456807096233095
40
0.456807096233095
40
0.48814031715768
40
0.48814031715768
40
0.519473538082264
40
0.519473538082264
40
0.550806759006849
40
0.550806759006849
40
0.582139979931434
40
0.582139979931434
40
0.644806421780602
40
0.644806421780602
40
0.676139642705187
40
0.676139642705187
40
0.707472863629771
40
0.707472863629771
40
0.738806084554355
40
0.738806084554355
40
0.770139305478939
40
0.770139305478939
40
0.801472526403524
40
0.801472526403524
40
0.832805747328108
40
0.832805747328108
40
0.864138968252692
40
0.864138968252692
40
0.895472189177276
40
0.895472189177276
40
0.926805410101861
40
0.926805410101861
40
0.958138631026445
40
0.958138631026445
40
0.989471851951029
40
0.989471851951029
40
1
40
1
40
1
40
1
41
1
10
7.0767519979033
20
2.43134001873352
30
0
41
1
10
7.18756962232612
20
2.43100573410831
30
0
41
1
10
7.29834522432498
20
2.42864309210961
30
0
41
1
10
7.60039066698278
20
2.41709954375548
30
0
41
1
10
7.79190969061818
20
2.4042275868309
30
0
41
1
10
8.1760839585337
20
2.36642296757819
30
0
41
1
10
8.36785338127356
20
2.34141085267595
30
0
41
1
10
8.75053188223214
20
2.28036880824635
30
0
41
1
10
8.94167544289206
20
2.24462351696602
30
0
41
1
10
9.3246473758459
20
2.16266214843134
30
0
41
1
10
9.51632954235799
20
2.11602169027293
30
0
41
1
10
9.90015469767346
20
2.01207301832724
30
0
41
1
10
10.0916561141881
20
1.95540848553395
30
0
41
1
10
10.4746946448478
20
1.83336057294966
30
0
41
1
10
10.6661379622204
20
1.76742906873704
30
0
41
1
10
11.0489672823751
20
1.62704092455005
30
0
41
1
10
11.2402226100544
20
1.55254182384309
30
0
41
1
10
11.6240739100143
20
1.39739534226237
30
0
41
1
10
11.8159285163235
20
1.31603677194099
30
0
41
1
10
12.198793098145
20
1.14719158443222
30
0
41
1
10
12.3897853788833
20
1.05939600816035
30
0
41
1
10
12.7724384825378
20
0.880464832570595
30
0
41
1
10
12.9640525170045
20
0.788775486989152
30
0
41
1
10
13.3479941492594
20
0.600850744910645
30
0
41
1
10
13.5394840341249
20
0.50484869920885
30
0
41
1
10
13.922204733922
20
0.311735750501782
30
0
41
1
10
14.1136244634523
20
0.214754009911616
30
0
41
1
10
14.4966005780606
20
0.0195929078994652
30
0
41
1
10
14.6880717283128
20
-0.0786519247114938
30
0
41
1
10
15.0716924467749
20
-0.274909190221336
30
0
41
1
10
15.2634600925355
20
-0.372146527264306
30
0
41
1
10
15.6464297286277
20
-0.563874365423999
30
0
41
1
10
15.8376875943112
20
-0.658535663468598
30
0
41
1
10
16.2201863599855
20
-0.84521552696674
30
0
41
1
10
16.4117367078098
20
-0.936761077464155
30
0
41
1
10
16.795771130465
20
-1.11488779597366
30
0
41
1
10
16.9872904510914
20
-1.2006876580345
30
0
41
1
10
17.3696901029506
20
-1.36731929968616
30
0
41
1
10
17.5608692472566
20
-1.44758526002695
30
0
41
1
10
18.1350790674977
20
-1.6777296442537
30
0
41
1
10
18.5188794947314
20
-1.81442439581642
30
0
41
1
10
19.0933093016488
20
-1.99467807245659
30
0
41
1
10
19.2846582214082
20
-2.05005047318119
30
0
41
1
10
19.6674045674107
20
-2.14897960759484
30
0
41
1
10
19.8589012128533
20
-2.1934323797648
30
0
41
1
10
20.2428100296404
20
-2.27262985743374
30
0
41
1
10
20.434445033161
20
-2.30754767285998
30
0
41
1
10
20.817103017588
20
-2.36365927252336
30
0
41
1
10
21.0080743505729
20
-2.38575692708452
30
0
41
1
10
21.3909542883936
20
-2.41949955870857
30
0
41
1
10
21.5828116223909
20
-2.43128118746691
30
0
41
1
10
21.966469720319
20
-2.4414671751087
30
0
41
1
10
22.1575848812019
20
-2.43978691883646
30
0
41
1
10
22.5401882810761
20
-2.4258182913135
30
0
41
1
10
22.7315308169181
20
-2.4143579582356
30
0
41
1
10
23.1143404360048
20
-2.37781565652227
30
0
41
1
10
23.3059080728334
20
-2.35267974821022
30
0
41
1
10
23.6893725904665
20
-2.29202550777578
30
0
41
1
10
23.881010414262
20
-2.25714817641037
30
0
41
1
10
24.263822309655
20
-2.17603207759137
30
0
41
1
10
24.4549342511447
20
-2.12946886725442
30
0
41
1
10
24.8375690712328
20
-2.02570850282103
30
0
41
1
10
25.0295769578431
20
-1.96940908877846
30
0
41
1
10
25.2858532990715
20
-1.88831476948008
30
0
41
1
10
25.3502483076739
20
-1.8673579261316
30
0
41
1
10
25.4145964827294
20
-1.84585541459901
30
0
0
SPLINE
5
C5
100
AcDbEntity
8
1
62
256
6
ByLayer
370
18
48
1
60
0
100
AcDbSpline
70
4
71
3
72
28
73
24
40
0
40
0
40
0
40
0
40
0.036423756737532
40
0.036423756737532
40
0.132781381063779
40
0.132781381063779
40
0.229139005390025
40
0.229139005390025
40
0.325496629716273
40
0.325496629716273
40
0.42185425404252
40
0.42185425404252
40
0.518211878368766
40
0.518211878368766
40
0.614569502695013
40
0.614569502695013
40
0.710927127021259
40
0.710927127021259
40
0.807284751347507
40
0.807284751347507
40
0.903642375673753
40
0.903642375673753
40
1
40
1
40
1
40
1
41
1
10
37.0619142815605
20
2.44774029621712
30
0
41
1
10
37.1343481880204
20
2.44702296157652
30
0
41
1
10
37.2067857987745
20
2.44538891087083
30
0
41
1
10
37.4706594386621
20
2.43626521139325
30
0
41
1
10
37.6619116556492
20
2.42366012819971
30
0
41
1
10
38.0440054337471
20
2.38692806040396
30
0
41
1
10
38.2350191410766
20
2.36282038446888
30
0
41
1
10
38.6180429542476
20
2.30443484554294
30
0
41
1
10
38.8100125107662
20
2.27022383578682
30
0
41
1
10
39.1924710511569
20
2.19080114764316
30
0
41
1
10
39.3831886743843
20
2.14509406882959
30
0
41
1
10
39.7653404001948
20
2.043406929702
30
0
41
1
10
39.9565498752245
20
1.98753338496559
30
0
41
1
10
40.3392581441266
20
1.86606074575755
30
0
41
1
10
40.5307571307238
20
1.80006690165277
30
0
41
1
10
40.9133637299918
20
1.6608675120913
30
0
41
1
10
41.1045731581976
20
1.5874850622244
30
0
41
1
10
41.4867451862604
20
1.4333835517842
30
0
41
1
10
41.677530643678
20
1.35224312612146
30
0
41
1
10
42.0602784803517
20
1.18396586263685
30
0
41
1
10
42.252220574414
20
1.09686681358448
30
0
41
1
10
42.6347598058275
20
0.918189094671476
30
0
41
1
10
42.8254782246597
20
0.825983666182225
30
0
41
1
10
43.0163554023665
20
0.732007722448117
30
0
0
SPLINE
5
C6
100
AcDbEntity
8
1
62
256
6
ByLayer
370
18
48
1
60
0
100
AcDbSpline
70
4
71
3
72
18
73
14
40
0
40
0
40
0
40
0
40
0.249999999999999
40
0.249999999999999
40
0.499999999999999
40
0.499999999999999
40
0.624999999999999
40
0.624999999999999
40
0.749999999999999
40
0.749999999999999
40
0.875
40
0.875
40
1
40
1
40
1
40
1
41
1
10
45.651046918896
20
-1.29048146095846
30
0
41
1
10
45.6130708714711
20
-1.39306217611275
30
0
41
1
10
45.5747008250337
20
-1.49532429772816
30
0
41
1
10
45.4977942890234
20
-1.69971395253211
30
0
41
1
10
45.4592208598193
20
-1.80186509202818
30
0
41
1
10
45.4008652449201
20
-1.95401703140911
30
0
41
1
10
45.3813093162614
20
-2.00452447512544
30
0
41
1
10
45.3420457388079
20
-2.10523336288736
30
0
41
1
10
45.3223897936255
20
-2.15558830021115
30
0
41
1
10
45.2829940485075
20
-2.25586674407919
30
0
41
1
10
45.2632568004809
20
-2.30576220852012
30
0
41
1
10
45.223620525241
20
-2.40455162830821
30
0
41
1
10
45.2036849674419
20
-2.45321943766757
30
0
41
1
10
45.1837303821528
20
-2.50176945558044
30
0
0
SPLINE
5
C7
100
AcDbEntity
8
1
62
256
6
ByLayer
370
18
48
1
60
0
100
AcDbSpline
70
4
71
3
72
8
73
4
40
0
40
0
40
0
40
0
40
1
40
1
40
1
40
1
41
1
10
4.13174329713965
20
1.48778795796665
30
0
41
1
10
4.12080676225423
20
1.49255802287897
30
0
41
1
10
4.11044291804404
20
1.4979149566683
30
0
41
1
10
4.10062819353817
20
1.50382428853018
30
0
0
SPLINE
5
C8
100
AcDbEntity
8
1
62
256
6
ByLayer
370
18
48
1
60
0
100
AcDbSpline
70
4
71
3
72
20
73
16
40
0
40
0
40
0
40
0
40
0.108125209378365
40
0.108125209378365
40
0.216250418756729
40
0.216250418756729
40
0.432500837513458
40
0.432500837513458
40
0.648751256270187
40
0.648751256270187
40
0.865001675026917
40
0.865001675026917
40
0.973126884405281
40
0.973126884405281
40
1
40
1
40
1
40
1
41
1
10
4.03193774560344
20
1.60258718692916
30
0
41
1
10
4.03196330423452
20
1.66691576662214
30
0
41
1
10
4.03198760023966
20
1.72858547538291
30
0
41
1
10
4.03203406942987
20
1.84660849989194
30
0
41
1
10
4.03205631149507
20
1.90313377512149
30
0
41
1
10
4.03211944409776
20
2.06205768689247
30
0
41
1
10
4.03215708089294
20
2.15468581854569
30
0
41
1
10
4.03222701488482
20
2.31370404959949
30
0
41
1
10
4.0322595366051
20
2.38032738914012
30
0
41
1
10
4.03231964809157
20
2.48137217870121
30
0
41
1
10
4.03234755576554
20
2.51667670819944
30
0
41
1
10
4.03238787729583
20
2.54651736701524
30
0
41
1
10
4.03240110703089
20
2.55256489854912
30
0
41
1
10
4.03241707122635
20
2.55505486676463
30
0
41
1
10
4.03242022500922
20
2.5553046594512
30
0
41
1
10
4.03242335555723
20
2.55530988765344
30
0
0
SPLINE
5
C9
100
AcDbEntity
8
1
62
256
6
ByLayer
370
18
48
1
60
0
100
AcDbSpline
70
4
71
3
72
16
73
12
40
0
40
0
40
0
40
0
40
0.111530942610312
40
0.111530942610312
40
0.407687295073541
40
0.407687295073541
40
0.703843647536771
40
0.703843647536771
40
0.851921823768385
40
0.851921823768385
40
1
40
1
40
1
40
1
41
1
10
4.03242329030945
20
-2.55530974328136
30
0
41
1
10
4.03243277839104
20
-2.55533588516729
30
0
41
1
10
4.03244205303147
20
-2.5531158914647
30
0
41
1
10
4.03247526221548
20
-2.5369230129748
30
0
41
1
10
4.0324981025324
20
-2.50968896751289
30
0
41
1
10
4.03254083341756
20
-2.42299461149517
30
0
41
1
10
4.03256004378824
20
-2.3648656866622
30
0
41
1
10
4.03258450272375
20
-2.25659016075576
30
0
41
1
10
4.03259192099591
20
-2.21695074736277
30
0
41
1
10
4.03260494607784
20
-2.13043208248078
30
0
41
1
10
4.03261056528095
20
-2.08330153957061
30
0
41
1
10
4.03261496726515
20
-2.03344153089526
30
0
0
SPLINE
5
CA
100
AcDbEntity
8
1
62
256
6
ByLayer
370
18
48
1
60
0
100
AcDbSpline
70
4
71
3
72
10
73
6
40
0
40
0
40
0
40
0
40
0.5
40
0.5
40
1
40
1
40
1
40
1
41
1
10
4.25153704622954
20
-1.97637766931825
30
0
41
1
10
4.57871177141044
20
-2.09286836636636
30
0
41
1
10
4.91085406008426
20
-2.18340432473511
30
0
41
1
10
5.58258425645491
20
-2.32121394559556
30
0
41
1
10
5.91963010857768
20
-2.36791224567401
30
0
41
1
10
6.25955552391176
20
-2.39655997991349
30
0
0
SPLINE
5
CB
100
AcDbEntity
8
1
62
256
6
ByLayer
370
18
48
1
60
0
100
AcDbSpline
70
4
71
3
72
20
73
16
40
0
40
0
40
0
40
0
40
0.0861924357537593
40
0.0861924357537593
40
0.216736373503224
40
0.216736373503224
40
0.47782424900215
40
0.47782424900215
40
0.608368186751612
40
0.608368186751612
40
0.738912124501075
40
0.738912124501075
40
0.869456062250538
40
0.869456062250538
40
1
40
1
40
1
40
1
41
1
10
45.0710252014315
20
-2.4498590229407
30
0
41
1
10
45.0477252165372
20
-2.44738902721457
30
0
41
1
10
45.0252298132327
20
-2.44251114738492
30
0
41
1
10
44.9707517669621
20
-2.42399637995027
30
0
41
1
10
44.9396675745549
20
-2.40699686163421
30
0
41
1
10
44.8539482289931
20
-2.33835945811711
30
0
41
1
10
44.8074220079104
20
-2.27030509758774
30
0
41
1
10
44.7544190080318
20
-2.13298163011009
30
0
41
1
10
44.7394961581113
20
-2.08074120776936
30
0
41
1
10
44.7164160406417
20
-1.96643446786109
30
0
41
1
10
44.7081772913726
20
-1.90444872761557
30
0
41
1
10
44.6982297617748
20
-1.77091884969539
30
0
41
1
10
44.6965203668822
20
-1.6993756116029
30
0
41
1
10
44.69986330345
20
-1.54639149756076
30
0
41
1
10
44.7049618236157
20
-1.46524153847022
30
0
41
1
10
44.7133085532159
20
-1.38142283475875
30
0
0
SPLINE
5
CC
100
AcDbEntity
8
1
62
256
6
ByLayer
370
18
48
1
60
0
100
AcDbSpline
70
4
71
3
72
63
73
59
40
0
40
0
40
0
40
0
40
0.117941731081266
40
0.117941731081266
40
0.173524579674802
40
0.173524579674802
40
0.20131600397157
40
0.20131600397157
40
0.202184485980844
40
0.202618726985481
40
0.202618726985481
40
0.203052967990118
40
0.203052967990118
40
0.203921449999392
40
0.203921449999392
40
0.204789932008666
40
0.204789932008666
40
0.208263860045763
40
0.208263860045763
40
0.215211716119955
40
0.215211716119955
40
0.229107428268339
40
0.229107428268339
40
0.284690276861878
40
0.284690276861878
40
0.340273125455416
40
0.340273125455416
40
0.451438822642492
40
0.451438822642492
40
0.562604519829568
40
0.562604519829568
40
0.590395944126338
40
0.590395944126338
40
0.59734380020053
40
0.59734380020053
40
0.600817728237626
40
0.600817728237626
40
0.602554692256174
40
0.602554692256174
40
0.603423174265448
40
0.603423174265448
40
0.603857415270085
40
0.603857415270085
40
0.604291656274722
40
0.604291656274722
40
0.618187368423107
40
0.618187368423107
40
0.673770217016645
40
0.673770217016645
40
0.729353065610183
40
0.729353065610183
40
0.784935914203722
40
0.784935914203722
40
0.896101611390798
40
0.896101611390798
40
0.951684459984336
40
0.951684459984336
40
1
40
1
40
1
40
1
41
1
10
7.34065086633291
20
-0.550272466135198
30
0
41
1
10
7.1265076716814
20
-0.502822700217763
30
0
41
1
10
6.91294171164276
20
-0.472893556904438
30
0
41
1
10
6.59497126479758
20
-0.458053779803976
30
0
41
1
10
6.49253748133174
20
-0.457692521425059
30
0
41
1
10
6.3392433081795
20
-0.463792534558621
30
0
41
1
10
6.28812532532152
20
-0.466928063883501
30
0
41
1
10
6.23538275151603
20
-0.471288914103496
30
0
41
1
10
6.23298535872112
20
-0.47148873226547
30
0
41
1
10
6.23058795870526
20
-0.471690946125932
30
0
41
1
10
6.22898969013417
20
-0.471826287649634
30
0
41
1
10
6.22781648615478
20
-0.47186284197565
30
0
41
1
10
6.22879404476993
20
-0.472953225340973
30
0
41
1
10
6.23031754757551
20
-0.473562786988111
30
0
41
1
10
6.23294716792722
20
-0.474792929501973
30
0
41
1
10
6.23431319254632
20
-0.475390647861474
30
0
41
1
10
6.24121829732621
20
-0.478343988170167
30
0
41
1
10
6.24699006271828
20
-0.480612191867209
30
0
41
1
10
6.26437277821719
20
-0.487377153790646
30
0
41
1
10
6.27615596347209
20
-0.491798798133232
30
0
41
1
10
6.31164239426187
20
-0.505009288342734
30
0
41
1
10
6.33552674136888
20
-0.513721921091559
30
0
41
1
10
6.4552353809799
20
-0.55718516686477
30
0
41
1
10
6.55197413159414
20
-0.59166734774081
30
0
41
1
10
6.74564009160972
20
-0.660937569399835
30
0
41
1
10
6.84270335044548
20
-0.695646081832649
30
0
41
1
10
7.13414379036376
20
-0.800312460465165
30
0
41
1
10
7.32852496405329
20
-0.871259960622183
30
0
41
1
10
7.71741491065077
20
-1.01531986154384
30
0
41
1
10
7.91178652376641
20
-1.08831594187222
30
0
41
1
10
8.15282567281253
20
-1.18408511700332
30
0
41
1
10
8.20097795139753
20
-1.20339793936927
30
0
41
1
10
8.26046092670373
20
-1.22882498640431
30
0
41
1
10
8.27232348513988
20
-1.23397835817448
30
0
41
1
10
8.28992627320022
20
-1.2420197778192
30
0
41
1
10
8.29576602697574
20
-1.24474565104106
30
0
41
1
10
8.30438097077572
20
-1.24906770546647
30
0
41
1
10
8.30723178593507
20
-1.2505404370317
30
0
41
1
10
8.31137937861965
20
-1.25293431398254
30
0
41
1
10
8.31274758253548
20
-1.2537548424757
30
0
41
1
10
8.31465744753629
20
-1.25515467661137
30
0
41
1
10
8.31530346731438
20
-1.25563390274098
30
0
41
1
10
8.31620978905801
20
-1.25688298746621
30
0
41
1
10
8.31538967338699
20
-1.25760609002006
30
0
41
1
10
8.29145926240057
20
-1.27587343758586
30
0
41
1
10
8.26824140770157
20
-1.29361182136591
30
0
41
1
10
8.15210933913994
20
-1.38231242580809
30
0
41
1
10
8.0589658823904
20
-1.45338731961354
30
0
41
1
10
7.87263437203163
20
-1.59271518119192
30
0
41
1
10
7.77926741828543
20
-1.66110703669779
30
0
41
1
10
7.59071443949332
20
-1.79342785313438
30
0
41
1
10
7.49518364129909
20
-1.85753686999391
30
0
41
1
10
7.2089610117502
20
-2.03682730666028
30
0
41
1
10
7.01709482350884
20
-2.13979287423035
30
0
41
1
10
6.72123589841948
20
-2.26313877977157
30
0
41
1
10
6.62075050795295
20
-2.2992620613627
30
0
41
1
10
6.4336393708324
20
-2.35600364507505
30
0
41
1
10
6.34671106768263
20
-2.37817939295692
30
0
41
1
10
6.25969578513383
20
-2.39660888115765
30
0
0
SPLINE
5
CD
100
AcDbEntity
8
1
62
256
6
ByLayer
370
18
48
1
60
0
100
AcDbSpline
70
4
71
3
72
30
73
26
40
0
40
0
40
0
40
0
40
0.250000000000008
40
0.250000000000008
40
0.375000000000007
40
0.375000000000007
40
0.500000000000006
40
0.500000000000006
40
0.625000000000004
40
0.625000000000004
40
0.687500000000004
40
0.687500000000004
40
0.750000000000003
40
0.750000000000003
40
0.812500000000002
40
0.812500000000002
40
0.875000000000002
40
0.875000000000002
40
0.906250000000001
40
0.906250000000001
40
0.937500000000001
40
0.937500000000001
40
0.96875
40
0.96875
40
1
40
1
40
1
40
1
41
1
10
43.0163554023664
20
0.732007722448145
30
0
41
1
10
43.1939430024175
20
0.614953498613431
30
0
41
1
10
43.3729020122544
20
0.507362903876725
30
0
41
1
10
43.6436870452344
20
0.370175221525187
30
0
41
1
10
43.7345963366957
20
0.328294373872239
30
0
41
1
10
43.9156917422532
20
0.254313785323802
30
0
41
1
10
44.0059827503932
20
0.222097122627218
30
0
41
1
10
44.1859799142154
20
0.168540028131332
30
0
41
1
10
44.2753845159125
20
0.147302793915031
30
0
41
1
10
44.4074885415938
20
0.124906180810712
30
0
41
1
10
44.4512840924438
20
0.118999931099864
30
0
41
1
10
44.5380522259348
20
0.110549593854131
30
0
41
1
10
44.5807833615683
20
0.108345436460041
30
0
41
1
10
44.66225909834
20
0.116276602556127
30
0
41
1
10
44.7013038917674
20
0.126192890402251
30
0
41
1
10
44.769577070629
20
0.161518542579699
30
0
41
1
10
44.7995168137263
20
0.187432144871963
30
0
41
1
10
44.8325117270697
20
0.238203483502446
30
0
41
1
10
44.8416882435033
20
0.257513353949406
30
0
41
1
10
44.8549729522366
20
0.299239591353483
30
0
41
1
10
44.8591640780357
20
0.321688417792586
30
0
41
1
10
44.8626065240118
20
0.369781647002981
30
0
41
1
10
44.8619079022279
20
0.39538518973049
30
0
41
1
10
44.8567974628576
20
0.446894285773567
30
0
41
1
10
44.8523693785102
20
0.473115190462238
30
0
41
1
10
44.8464581711636
20
0.499705403362327
30
0
0
SPLINE
5
CE
100
AcDbEntity
8
1
62
256
6
ByLayer
370
18
48
1
60
0
100
AcDbSpline
70
4
71
3
72
20
73
16
40
0
40
0
40
0
40
0
40
0.124999999999998
40
0.124999999999998
40
0.187500000000001
40
0.187500000000001
40
0.250000000000003
40
0.250000000000003
40
0.500000000000012
40
0.500000000000012
40
0.625000000000011
40
0.625000000000011
40
0.750000000000011
40
0.750000000000011
40
1
40
1
40
1
40
1
41
1
10
43.0163554023662
20
0.732007722447946
30
0
41
1
10
43.0512706929624
20
0.624578357302511
30
0
41
1
10
43.0941093216767
20
0.518551150530783
30
0
41
1
10
43.168382809731
20
0.361282747413156
30
0
41
1
10
43.1948220615926
20
0.309157500336227
30
0
41
1
10
43.2508661997415
20
0.205467214613748
30
0
41
1
10
43.280523318698
20
0.153843654837374
30
0
41
1
10
43.4335599223954
20
-0.0985801981452994
30
0
41
1
10
43.5727172945152
20
-0.286438434786305
30
0
41
1
10
43.7993407643576
20
-0.553169085903193
30
0
41
1
10
43.8780145154564
20
-0.639515561237261
30
0
41
1
10
44.0376469900489
20
-0.804373368770172
30
0
41
1
10
44.1190096444157
20
-0.883371331126654
30
0
41
1
10
44.367149275179
20
-1.11137602981452
30
0
41
1
10
44.5379184705762
20
-1.25152547289144
30
0
41
1
10
44.7133085532159
20
-1.38142283475875
30
0
0
SPLINE
5
CF
100
AcDbEntity
8
1
62
256
6
ByLayer
370
18
48
1
60
0
100
AcDbSpline
70
4
71
3
72
8
73
4
40
0
40
0
40
0
40
0
40
1
40
1
40
1
40
1
41
1
10
45.1440440274235
20
-2.44193768179974
30
0
41
1
10
45.1307705615096
20
-2.44848072723846
30
0
41
1
10
45.118625453306
20
-2.45177734654919
30
0
41
1
10
45.1076287679384
20
-2.45176980986048
30
0
0
SPLINE
5
D0
100
AcDbEntity
8
1
62
256
6
ByLayer
370
18
48
1
60
0
100
AcDbSpline
70
4
71
3
72
10
73
6
40
0
40
0
40
0
40
0
40
0.5
40
0.5
40
1
40
1
40
1
40
1
41
1
10
4.10062819353678
20
1.50382428853078
30
0
41
1
10
4.08081180466965
20
1.51575550657475
30
0
41
1
10
4.06400024211979
20
1.53040243465247
30
0
41
1
10
4.03946798808727
20
1.56424216377005
30
0
41
1
10
4.03193006562756
20
1.58325743332435
30
0
41
1
10
4.03193774560339
20
1.60258718692316
30
0
0
SPLINE
5
D1
100
AcDbEntity
8
1
62
256
6
ByLayer
370
18
48
1
60
0
100
AcDbSpline
70
4
71
3
72
40
73
36
40
0
40
0
40
0
40
0
40
0.0821625626508923
40
0.0821625626508923
40
0.123243843976338
40
0.123243843976338
40
0.164325125301785
40
0.164325125301785
40
0.246487687952675
40
0.246487687952675
40
0.28756896927812
40
0.28756896927812
40
0.328650250603565
40
0.328650250603565
40
0.492975375905343
40
0.492975375905343
40
0.534056657230788
40
0.534056657230788
40
0.575137938556233
40
0.575137938556233
40
0.657300501207122
40
0.657300501207122
40
0.739463063858011
40
0.739463063858011
40
0.780544345183455
40
0.780544345183455
40
0.8216256265089
40
0.8216256265089
40
0.903788189159789
40
0.903788189159789
40
0.944869470485235
40
0.944869470485235
40
0.98595075181068
40
0.98595075181068
40
1
40
1
40
1
40
1
41
1
10
45.1182848508732
20
-2.55860713368364
30
0
41
1
10
44.6894915312071
20
-2.58828072006781
30
0
41
1
10
44.2620308542693
20
-2.58644337638012
30
0
41
1
10
43.6183896792243
20
-2.53705221532371
30
0
41
1
10
43.4028221604881
20
-2.51269439480973
30
0
41
1
10
42.9740357416509
20
-2.4491460636296
30
0
41
1
10
42.7606173020999
20
-2.40999225489551
30
0
41
1
10
42.122176202754
20
-2.27146181864023
30
0
41
1
10
41.698622634376
20
-2.15124329028609
30
0
41
1
10
41.0612410865253
20
-1.93455832828548
30
0
41
1
10
40.8484737656419
20
-1.8562333417382
30
0
41
1
10
40.4214546288887
20
-1.68831936297101
30
0
41
1
10
40.2068193461471
20
-1.59857788887305
30
0
41
1
10
39.1316962666891
20
-1.12608770207711
30
0
41
1
10
38.289518299428
20
-0.682126980320561
30
0
41
1
10
37.2238434630069
20
-0.108866752939463
30
0
41
1
10
37.0100710301195
20
0.0067061139173461
30
0
41
1
10
36.5805842517769
20
0.238499808516082
30
0
41
1
10
36.3653073253299
20
0.354408922334471
30
0
41
1
10
35.7241048475672
20
0.695441788698759
30
0
41
1
10
35.2997144100297
20
0.914986292559234
30
0
41
1
10
34.4507541363102
20
1.32763972401972
30
0
41
1
10
34.0259582620728
20
1.52038216252583
30
0
41
1
10
33.3838957857224
20
1.7815376333327
30
0
41
1
10
33.1681914164198
20
1.86394042566019
30
0
41
1
10
32.7392571950978
20
2.01577960602378
30
0
41
1
10
32.5257464574453
20
2.0854561585781
30
0
41
1
10
31.8871058634393
20
2.27496841270022
30
0
41
1
10
31.4631974907295
20
2.3746018473046
30
0
41
1
10
30.8257103613163
20
2.48074342834318
30
0
41
1
10
30.6128871486842
20
2.5088583022881
30
0
41
1
10
30.1857186006541
20
2.54996248260113
30
0
41
1
10
29.9710870414072
20
2.56296298428518
30
0
41
1
10
29.682319666043
20
2.56985587011022
30
0
41
1
10
29.6088604672417
20
2.57068816824918
30
0
41
1
10
29.5355134271693
20
2.57060554266414
30
0
0
SPLINE
5
D2
100
AcDbEntity
8
1
62
256
6
ByLayer
370
18
48
1
60
0
100
AcDbSpline
70
4
71
3
72
28
73
24
40
0
40
0
40
0
40
0
40
0.0354631687028716
40
0.0354631687028716
40
0.142633927735886
40
0.142633927735886
40
0.249804686768899
40
0.249804686768899
40
0.303390066285407
40
0.303390066285407
40
0.356975445801915
40
0.356975445801915
40
0.571316963867943
40
0.571316963867943
40
0.678487722900957
40
0.678487722900957
40
0.785658481933971
40
0.785658481933971
40
0.839243861450478
40
0.839243861450478
40
0.892829240966986
40
0.892829240966986
40
1
40
1
40
1
40
1
41
1
10
16.097058824334
20
-2.43282662496375
30
0
41
1
10
15.9546708465762
20
-2.45679951532819
30
0
41
1
10
15.8122232008271
20
-2.47752078812238
30
0
41
1
10
15.2421297296525
20
-2.54706482627776
30
0
41
1
10
14.8173051389135
20
-2.56864835374171
30
0
41
1
10
13.9673540977557
20
-2.55064277490189
30
0
41
1
10
13.5425212627225
20
-2.51103353540484
30
0
41
1
10
12.8999834536533
20
-2.40645376815712
30
0
41
1
10
12.6842384892602
20
-2.3638343930219
30
0
41
1
10
12.2545760271411
20
-2.26478216370896
30
0
41
1
10
12.0407165582528
20
-2.2084624471251
30
0
41
1
10
10.9742546471757
20
-1.8955393453094
30
0
41
1
10
10.1304830662949
20
-1.54425104316121
30
0
41
1
10
8.83773364478529
20
-0.92059991501111
30
0
41
1
10
8.4106666058245
20
-0.700901023846399
30
0
41
1
10
7.55965978905127
20
-0.25186828405424
30
0
41
1
10
7.13531403754945
20
-0.0224190048297999
30
0
41
1
10
6.49554430726937
20
0.319687232119946
30
0
41
1
10
6.28178783046144
20
0.433458774545727
30
0
41
1
10
5.8523516273336
20
0.658718843463788
30
0
41
1
10
5.63642704593343
20
0.770242365541321
30
0
41
1
10
4.99131085477933
20
1.09513234680583
30
0
41
1
10
4.56244646252907
20
1.2999330223403
30
0
41
1
10
4.13174329713877
20
1.48778795796702
30
0
0
SPLINE
5
D3
100
AcDbEntity
8
1
62
256
6
ByLayer
370
18
48
1
60
0
100
AcDbSpline
70
4
71
3
72
72
73
68
40
0
40
0
40
0
40
0
40
0.0113985150504159
40
0.0113985150504159
40
0.0427131441154331
40
0.0427131441154331
40
0.0740277731804504
40
0.0740277731804504
40
0.105342402245468
40
0.105342402245468
40
0.136657031310485
40
0.136657031310485
40
0.167971660375502
40
0.167971660375502
40
0.199286289440519
40
0.199286289440519
40
0.230600918505537
40
0.230600918505537
40
0.261915547570554
40
0.261915547570554
40
0.293230176635571
40
0.293230176635571
40
0.324544805700589
40
0.324544805700589
40
0.355859434765606
40
0.355859434765606
40
0.387174063830623
40
0.387174063830623
40
0.41848869289564
40
0.41848869289564
40
0.449803321960657
40
0.449803321960657
40
0.481117951025675
40
0.481117951025675
40
0.512432580090692
40
0.512432580090692
40
0.543747209155709
40
0.543747209155709
40
0.575061838220727
40
0.575061838220727
40
0.606376467285744
40
0.606376467285744
40
0.637691096350761
40
0.637691096350761
40
0.669005725415778
40
0.669005725415778
40
0.700320354480796
40
0.700320354480796
40
0.731634983545813
40
0.731634983545813
40
0.76294961261083
40
0.76294961261083
40
0.794264241675848
40
0.794264241675848
40
0.825578870740867
40
0.825578870740867
40
0.856893499805885
40
0.856893499805885
40
0.888208128870903
40
0.888208128870903
40
0.919522757935921
40
0.919522757935921
40
0.950837387000939
40
0.950837387000939
40
0.982152016065957
40
0.982152016065957
40
1
40
1
40
1
40
1
41
1
10
40.3566183187081
20
-1.85856203110771
30
0
41
1
10
40.2870053915375
20
-1.88196022485673
30
0
41
1
10
40.2173473419746
20
-1.90475745402068
30
0
41
1
10
39.9559870933577
20
-1.98770680548347
30
0
41
1
10
39.7641808668591
20
-2.04373970358546
30
0
41
1
10
39.3816260077028
20
-2.14548547486064
30
0
41
1
10
39.190893619295
20
-2.19115690795982
30
0
41
1
10
38.8087751315165
20
-2.27045240065132
30
0
41
1
10
38.6173689173621
20
-2.30455300635467
30
0
41
1
10
38.2339590472926
20
-2.36296649283608
30
0
41
1
10
38.0424729688798
20
-2.38710846721443
30
0
41
1
10
37.6601581434218
20
-2.42379532876805
30
0
41
1
10
37.4689693919617
20
-2.43635390776817
30
0
41
1
10
37.0864788061934
20
-2.44951815657367
30
0
41
1
10
36.8952945820576
20
-2.45005193684744
30
0
41
1
10
36.5122269350026
20
-2.43713161504147
30
0
41
1
10
36.3205538706629
20
-2.42385778041415
30
0
41
1
10
35.9376058552325
20
-2.38887846594582
30
0
41
1
10
35.7463267493471
20
-2.36626249016791
30
0
41
1
10
35.3640289228896
20
-2.30821954689293
30
0
41
1
10
35.1725772789359
20
-2.27268447003664
30
0
41
1
10
34.7887159048041
20
-2.19295947875253
30
0
41
1
10
34.5970208304563
20
-2.14816609213128
30
0
41
1
10
34.2147152486174
20
-2.04722844991863
30
0
41
1
10
34.0237221296515
20
-1.99086246885679
30
0
41
1
10
33.6409836507746
20
-1.86941282399803
30
0
41
1
10
33.4493455710372
20
-1.80499721855421
30
0
41
1
10
33.0658692568605
20
-1.66646547243633
30
0
41
1
10
32.8747303546635
20
-1.5926012286271
30
0
41
1
10
32.4921710103806
20
-1.43798720885363
30
0
41
1
10
32.3008497479499
20
-1.35778230519207
30
0
41
1
10
31.9183343298303
20
-1.19063601165905
30
0
41
1
10
31.7271014919968
20
-1.10332481058325
30
0
41
1
10
31.3434965838745
20
-0.923729931534581
30
0
41
1
10
31.1518927960296
20
-0.832127222717986
30
0
41
1
10
30.7691568945692
20
-0.645405221455889
30
0
41
1
10
30.5782625688781
20
-0.549634776760371
30
0
41
1
10
30.1955554661528
20
-0.356499663495811
30
0
41
1
10
30.0036549823853
20
-0.258957907390709
30
0
41
1
10
29.6199436632321
20
-0.0630575248530931
30
0
41
1
10
29.4288015789637
20
0.0357339720134746
30
0
41
1
10
29.0464020568983
20
0.231839003413739
30
0
41
1
10
28.8551034138952
20
0.329031211377838
30
0
41
1
10
28.4721907508946
20
0.521862888085508
30
0
41
1
10
28.2805607532288
20
0.618011084554723
30
0
41
1
10
27.897384237335
20
0.806465984830993
30
0
41
1
10
27.7059856473625
20
0.898093823493838
30
0
41
1
10
27.3233068373265
20
1.07677189022422
30
0
41
1
10
27.1321555707644
20
1.16434979181176
30
0
41
1
10
26.7497288604009
20
1.33356303327113
30
0
41
1
10
26.5578276405822
20
1.41472330099606
30
0
41
1
10
26.1742515455039
20
1.56928403076725
30
0
41
1
10
25.9827706701433
20
1.6433909323676
30
0
41
1
10
25.60046390944
20
1.78377026709245
30
0
41
1
10
25.4092560243563
20
1.84932838908986
30
0
41
1
10
25.0261326447148
20
1.97043543799239
30
0
41
1
10
24.8340104916829
20
2.02673719084439
30
0
41
1
10
24.4509152363878
20
2.13049374936742
30
0
41
1
10
24.2597164743675
20
2.17698212295136
30
0
41
1
10
23.877050737195
20
2.25790547132601
30
0
41
1
10
23.6856364145693
20
2.29267504983298
30
0
41
1
10
23.3028700662684
20
2.35310066250474
30
0
41
1
10
23.1110876934648
20
2.37820882219478
30
0
41
1
10
22.7278437386419
20
2.41462574504209
30
0
41
1
10
22.5364499059925
20
2.42602231183537
30
0
41
1
10
22.2362121797715
20
2.43687676142673
30
0
41
1
10
22.1273151740452
20
2.4390904998817
30
0
41
1
10
22.0183599096863
20
2.4393110939331
30
0
0
SPLINE
5
D4
100
AcDbEntity
8
1
62
256
6
ByLayer
370
18
48
1
60
0
100
AcDbSpline
70
4
71
3
72
22
73
18
40
0
40
0
40
0
40
0
40
0.0410960561040366
40
0.0410960561040366
40
0.17808233380346
40
0.17808233380346
40
0.315068611502883
40
0.315068611502883
40
0.452054889202307
40
0.452054889202307
40
0.58904116690173
40
0.58904116690173
40
0.726027444601152
40
0.726027444601152
40
0.863013722300576
40
0.863013722300576
40
1
40
1
40
1
40
1
41
1
10
10.4547458068045
20
-1.83841482033949
30
0
41
1
10
10.3973154576656
20
-1.85757978560676
30
0
41
1
10
10.3398876178764
20
-1.87631791625162
30
0
41
1
10
10.0910410908563
20
-1.95559215622725
30
0
41
1
10
9.89982071345537
20
-2.01216664352844
30
0
41
1
10
9.51630907002777
20
-2.11602405711469
30
0
41
1
10
9.32429116677636
20
-2.16274611824701
30
0
41
1
10
8.94120631316852
20
-2.24471616455017
30
0
41
1
10
8.75005717906569
20
-2.28045293338329
30
0
41
1
10
8.36745831543789
20
-2.34146544753247
30
0
41
1
10
8.17583432761711
20
-2.36645106780114
30
0
41
1
10
7.79182221151129
20
-2.40423265677145
30
0
41
1
10
7.60020075863727
20
-2.41711043811765
30
0
41
1
10
7.21763123405557
20
-2.43172417288116
30
0
41
1
10
7.02630235156528
20
-2.43345171161576
30
0
41
1
10
6.64332287265785
20
-2.42412438653395
30
0
41
1
10
6.45163174475653
20
-2.4128576188742
30
0
41
1
10
6.25982049302132
20
-2.39658246594917
30
0
0
SPLINE
5
D5
100
AcDbEntity
8
1
62
256
6
ByLayer
370
18
48
1
60
0
100
AcDbSpline
70
4
71
3
72
20
73
16
40
0
40
0
40
0
40
0
40
0.193030353123059
40
0.193030353123059
40
0.28954552968459
40
0.28954552968459
40
0.386060706246121
40
0.386060706246121
40
0.579091059369185
40
0.579091059369185
40
0.675606235930717
40
0.675606235930717
40
0.772121412492249
40
0.772121412492249
40
1
40
1
40
1
40
1
41
1
10
4.20340709577013
20
1.43957534506086
30
0
41
1
10
4.63307778607356
20
1.25259806798113
30
0
41
1
10
5.06125934928534
20
1.04877312135815
30
0
41
1
10
5.70594497383391
20
0.726061991499193
30
0
41
1
10
5.92090893099214
20
0.615836255184632
30
0
41
1
10
6.34818991502186
20
0.393637759267733
30
0
41
1
10
6.56106239630603
20
0.281486806904553
30
0
41
1
10
7.19858273896836
20
-0.0557840438587505
30
0
41
1
10
7.62201975440382
20
-0.281947572673943
30
0
41
1
10
8.25974243627664
20
-0.613685786626178
30
0
41
1
10
8.47275520065341
20
-0.722994178124651
30
0
41
1
10
8.90046795514425
20
-0.937512981955393
30
0
41
1
10
9.11591575157823
20
-1.04306936121827
30
0
41
1
10
9.83620679483909
20
-1.38429221768905
30
0
41
1
10
10.3367683740011
20
-1.60195921495492
30
0
41
1
10
10.8373824744797
20
-1.79005877156752
30
0
0
SPLINE
5
D6
100
AcDbEntity
8
1
62
256
6
ByLayer
370
13
48
1
60
0
100
AcDbSpline
70
4
71
3
72
18
73
14
40
0
40
0
40
0
40
0
40
0.207700194524855
40
0.207700194524855
40
0.33442893038306
40
0.33442893038306
40
0.461157666241266
40
0.461157666241266
40
0.714615137957678
40
0.714615137957678
40
0.96807260967409
40
0.96807260967409
40
1
40
1
40
1
40
1
41
1
10
10.8373824223007
20
-1.79005875196194
30
0
41
1
10
11.1848841508
20
-1.92062822993862
30
0
41
1
10
11.532411186366
20
-2.03695077063654
30
0
41
1
10
12.0949733250052
20
-2.19725066254327
30
0
41
1
10
12.3088189820871
20
-2.25179641037485
30
0
41
1
10
12.7386679766096
20
-2.34736577183938
30
0
41
1
10
12.9529286377274
20
-2.38797471383367
30
0
41
1
10
13.5929146493584
20
-2.48740782511976
30
0
41
1
10
14.0165172946634
20
-2.52410780718978
30
0
41
1
10
14.8647490095601
20
-2.53734559723631
30
0
41
1
10
15.2890957258091
20
-2.51378907485221
30
0
41
1
10
15.7711986319199
20
-2.45323848673243
30
0
41
1
10
15.825223658253
20
-2.44597467380234
30
0
41
1
10
15.8792907034712
20
-2.43823305537003
30
0
0
SPLINE
5
D7
100
AcDbEntity
8
1
62
256
6
ByLayer
370
18
48
1
60
0
100
AcDbSpline
70
4
71
3
72
24
73
20
40
0
40
0
40
0
40
0
40
0.0771221137917331
40
0.0771221137917331
40
0.248310746456914
40
0.248310746456914
40
0.419499379122096
40
0.419499379122096
40
0.505093695454686
40
0.505093695454686
40
0.590688011787276
40
0.590688011787276
40
0.676282328119866
40
0.676282328119866
40
0.761876644452457
40
0.761876644452457
40
0.933065277117634
40
0.933065277117634
40
1
40
1
40
1
40
1
41
1
10
33.0502360267361
20
1.88342727469717
30
0
41
1
10
33.2425355378288
20
1.81454617881747
30
0
41
1
10
33.4356899750484
20
1.74063290455965
30
0
41
1
10
34.057926554017
20
1.48897827902348
30
0
41
1
10
34.482919182968
20
1.29753262004334
30
0
41
1
10
35.3306511608151
20
0.888960249262936
30
0
41
1
10
35.7536128338123
20
0.672186222202271
30
0
41
1
10
36.3913259218593
20
0.336549532870578
30
0
41
1
10
36.6045045151981
20
0.223044079578045
30
0
41
1
10
37.0329861130978
20
-0.0055960257482184
30
0
41
1
10
37.2480941670182
20
-0.12053419343971
30
0
41
1
10
37.6766113983018
20
-0.348312471719538
30
0
41
1
10
37.8905783306459
20
-0.461433159771047
30
0
41
1
10
38.3187751418439
20
-0.684560011948548
30
0
41
1
10
38.5332339798243
20
-0.794717572012388
30
0
41
1
10
39.176823265527
20
-1.11711851880975
30
0
41
1
10
39.6017868541842
20
-1.31832524079255
30
0
41
1
10
40.191407088914
20
-1.57312922859631
30
0
41
1
10
40.3569879952521
20
-1.64198532601424
30
0
41
1
10
40.5226149304988
20
-1.70777778072315
30
0
0
SPLINE
5
D8
100
AcDbEntity
8
1
62
256
6
ByLayer
370
13
48
1
60
0
100
AcDbSpline
70
4
71
3
72
14
73
10
40
0
40
0
40
0
40
0
40
0.168744679946523
40
0.168744679946523
40
0.307287233288766
40
0.307287233288766
40
0.445829786631009
40
0.445829786631009
40
1
40
1
40
1
40
1
41
1
10
40.5226158597384
20
-1.7077781498476
30
0
41
1
10
40.7805871204891
20
-1.81025278351839
30
0
41
1
10
41.0386700457021
20
-1.9052951910808
30
0
41
1
10
41.51024425375
20
-2.06279680283723
30
0
41
1
10
41.7234349202741
20
-2.12805788920346
30
0
41
1
10
42.1517565479403
20
-2.24595808907037
30
0
41
1
10
42.3665328661934
20
-2.29842183649049
30
0
41
1
10
43.4330677385134
20
-2.52354541001793
30
0
41
1
10
44.2749545875653
20
-2.58810736086062
30
0
41
1
10
45.1296214909534
20
-2.52837527502226
30
0
0
SPLINE
5
D9
100
AcDbEntity
8
1
62
256
6
ByLayer
370
18
48
1
60
0
100
AcDbSpline
70
4
71
3
72
12
73
8
40
0
40
0
40
0
40
0
40
0.249999999999985
40
0.249999999999985
40
0.499999999999969
40
0.499999999999969
40
1
40
1
40
1
40
1
41
1
10
4.03261496726509
20
-2.03344153089526
30
0
41
1
10
4.04403653793804
20
-2.01626099806103
30
0
41
1
10
4.05857248479958
20
-2.00138576397896
30
0
41
1
10
4.09154865333991
20
-1.97872608076136
30
0
41
1
10
4.11034124409474
20
-1.97067992385831
30
0
41
1
10
4.16891523693403
20
-1.95723587354641
30
0
41
1
10
4.21134016001446
20
-1.9620655512536
30
0
41
1
10
4.25153704594385
20
-1.97637766921653
30
0
0
SPLINE
5
DA
100
AcDbEntity
8
1
62
256
6
ByLayer
370
18
48
1
60
0
100
AcDbSpline
70
4
71
3
72
12
73
8
40
0
40
0
40
0
40
0
40
0.25
40
0.25
40
0.5
40
0.5
40
1
40
1
40
1
40
1
41
1
10
45.1296214909534
20
-2.52837527502226
30
0
41
1
10
45.1345312215852
20
-2.51526896983279
30
0
41
1
10
45.1390618177671
20
-2.50187078012618
30
0
41
1
10
45.1460359048254
20
-2.47785740403438
30
0
41
1
10
45.1484537748517
20
-2.46726615523508
30
0
41
1
10
45.1517378280799
20
-2.44400542410204
30
0
41
1
10
45.1490385358004
20
-2.43947568012916
30
0
41
1
10
45.1440440274235
20
-2.44193768179974
30
0
0
SPLINE
5
DB
100
AcDbEntity
8
1
62
256
6
ByLayer
370
18
48
1
60
0
100
AcDbSpline
70
4
71
3
72
26
73
22
40
0
40
0
40
0
40
0
40
0.0181230275135509
40
0.0181230275135509
40
0.0930122003737644
40
0.0930122003737644
40
0.167901373233978
40
0.167901373233978
40
0.46745806467483
40
0.46745806467483
40
0.542347237535043
40
0.542347237535043
40
0.617236410395256
40
0.617236410395256
40
0.767014756115682
40
0.767014756115682
40
0.916793101836109
40
0.916793101836109
40
0.991682274696322
40
0.991682274696322
40
1
40
1
40
1
40
1
41
1
10
18.1190239520227
20
1.86432927545627
30
0
41
1
10
18.1703500474798
20
1.84585691152631
30
0
41
1
10
18.2216893426523
20
1.82705407520146
30
0
41
1
10
18.4852737845194
20
1.72889262759921
30
0
41
1
10
18.6978519295217
20
1.64439158586745
30
0
41
1
10
19.1245457478398
20
1.46537141664931
30
0
41
1
10
19.3389946497697
20
1.37052095948431
30
0
41
1
10
20.4125788039327
20
0.876253215965534
30
0
41
1
10
21.2545268083276
20
0.427580744792039
30
0
41
1
10
22.3181598312557
20
-0.138923531084799
30
0
41
1
10
22.5314690214372
20
-0.252457448377186
30
0
41
1
10
22.9600861317738
20
-0.478390208160761
30
0
41
1
10
23.1753128337478
20
-0.590677228659217
30
0
41
1
10
23.8183838119691
20
-0.920113431143562
30
0
41
1
10
24.2465812834082
20
-1.1307001250573
30
0
41
1
10
25.1057307778327
20
-1.52148979397191
30
0
41
1
10
25.5328599071818
20
-1.69934313825516
30
0
41
1
10
26.1745961925714
20
-1.93322501336962
30
0
41
1
10
26.3887506458781
20
-2.00564277974919
30
0
41
1
10
26.6274063613768
20
-2.07927179652916
30
0
41
1
10
26.6512566445133
20
-2.08655235674692
30
0
41
1
10
26.6750994903794
20
-2.09375243860859
30
0
0
SPLINE
5
DC
100
AcDbEntity
8
1
62
256
6
ByLayer
370
13
48
1
60
0
100
AcDbSpline
70
4
71
3
72
14
73
10
40
0
40
0
40
0
40
0
40
0.136090089301768
40
0.136090089301768
40
0.748466213978386
40
0.748466213978386
40
0.901560245147543
40
0.901560245147543
40
1
40
1
40
1
40
1
41
1
10
26.6751004478189
20
-2.09375272773693
30
0
41
1
10
26.8659278720724
20
-2.15137893075536
30
0
41
1
10
27.0562788878503
20
-2.20384994523926
30
0
41
1
10
28.0987107283974
20
-2.46193341423216
30
0
41
1
10
28.9397441531043
20
-2.5613743972859
30
0
41
1
10
30.0093367992096
20
-2.53156250243418
30
0
41
1
10
30.2246866713191
20
-2.51781767660393
30
0
41
1
10
30.5759263781691
20
-2.48286784347417
30
0
41
1
10
30.7130028637339
20
-2.46610164303536
30
0
41
1
10
30.8498124686452
20
-2.44634838959496
30
0
0
SPLINE
5
DD
100
AcDbEntity
8
1
62
256
6
ByLayer
370
18
48
1
60
0
100
AcDbSpline
70
4
71
3
72
8
73
4
40
0
40
0
40
0
40
0
40
1
40
1
40
1
40
1
41
1
10
4.10062819353396
20
1.50382428852401
30
0
41
1
10
4.11046439346583
20
1.49540140171791
30
0
41
1
10
4.12095315444552
20
1.48769794197469
30
0
41
1
10
4.1321712904039
20
1.4807991647522
30
0
0
SPLINE
5
DE
100
AcDbEntity
8
1
62
256
6
ByLayer
370
18
48
1
60
0
100
AcDbSpline
70
4
71
3
72
12
73
8
40
0
40
0
40
0
40
0
40
0.697749191107193
40
0.697749191107193
40
0.907791590294389
40
0.907791590294389
40
1
40
1
40
1
40
1
41
1
10
44.7106417076916
20
-2.45162976063315
30
0
41
1
10
44.0041926663709
20
-2.45077863314859
30
0
41
1
10
43.3033639446671
20
-2.36862373767036
30
0
41
1
10
42.3818427040222
20
-2.16380712508146
30
0
41
1
10
42.1672134790099
20
-2.10938311202267
30
0
41
1
10
41.8595087491636
20
-2.02243720868125
30
0
41
1
10
41.7658073467086
20
-1.99477668920576
30
0
41
1
10
41.6722463408067
20
-1.9660278044216
30
0
0
SPLINE
5
DF
100
AcDbEntity
8
1
62
256
6
ByLayer
370
13
48
1
60
0
100
AcDbSpline
70
4
71
3
72
24
73
20
40
0
40
0
40
0
40
0
40
0.044148689922353
40
0.044148689922353
40
0.201540832553254
40
0.201540832553254
40
0.358932975184155
40
0.358932975184155
40
0.516325117815055
40
0.516325117815055
40
0.595021189130505
40
0.595021189130505
40
0.673717260445956
40
0.673717260445956
40
0.83110940307686
40
0.83110940307686
40
0.988501545707765
40
0.988501545707765
40
1
40
1
40
1
40
1
41
1
10
41.6722472967049
20
-1.96602809814445
30
0
41
1
10
41.5526844920342
20
-1.92928954086466
30
0
41
1
10
41.4333509636719
20
-1.8907736163531
30
0
41
1
10
40.8893443760711
20
-1.70728395368604
30
0
41
1
10
40.4666780912161
20
-1.54258558399064
30
0
41
1
10
39.6192474109534
20
-1.18030797008672
30
0
41
1
10
39.1944375837561
20
-0.982757986484074
30
0
41
1
10
38.3369406692573
20
-0.563895856966099
30
0
41
1
10
37.9098523155321
20
-0.34608283401559
30
0
41
1
10
37.2677812249885
20
-0.0169422832859709
30
0
41
1
10
37.0529346150805
20
0.0934895147328803
30
0
41
1
10
36.6250972360086
20
0.312401883724732
30
0
41
1
10
36.4121293947169
20
0.420753467856002
30
0
41
1
10
35.7749434724254
20
0.740509909303285
30
0
41
1
10
35.3521464453519
20
0.945975192107198
30
0
41
1
10
34.5047591338221
20
1.3308393114074
30
0
41
1
10
34.0799265002416
20
1.50983929362093
30
0
41
1
10
33.6199789362048
20
1.68235106013057
30
0
41
1
10
33.5886731112033
20
1.69398301375745
30
0
41
1
10
33.5573774648792
20
1.70549916622494
30
0
0
SPLINE
5
E0
100
AcDbEntity
8
1
62
256
6
ByLayer
370
18
48
1
60
0
100
AcDbSpline
70
4
71
3
72
16
73
12
40
0
40
0
40
0
40
0
40
0.0933096093116038
40
0.0933096093116038
40
0.502558045905748
40
0.502558045905748
40
0.707182264202822
40
0.707182264202822
40
0.911806482499896
40
0.911806482499896
40
1
40
1
40
1
40
1
41
1
10
14.7689278338122
20
-2.43352759831723
30
0
41
1
10
14.6722168186592
20
-2.43327405728655
30
0
41
1
10
14.5755573287887
20
-2.43151337123277
30
0
41
1
10
14.0550268744578
20
-2.41392306759579
30
0
41
1
10
13.6315535121708
20
-2.37080797256033
30
0
41
1
10
12.9920855506899
20
-2.2639010053766
30
0
41
1
10
12.7779929260589
20
-2.22116448946946
30
0
41
1
10
12.3487381459388
20
-2.12225931634558
30
0
41
1
10
12.1351340785664
20
-2.06643955336921
30
0
41
1
10
11.8303572398052
20
-1.97822521164468
30
0
41
1
10
11.738680451663
20
-1.9505707305062
30
0
41
1
10
11.6470913075896
20
-1.92187695735683
30
0
0
SPLINE
5
E1
100
AcDbEntity
8
1
62
256
6
ByLayer
370
13
48
1
60
0
100
AcDbSpline
70
4
71
3
72
20
73
16
40
0
40
0
40
0
40
0
40
0.308496794355606
40
0.308496794355606
40
0.394934695061154
40
0.394934695061154
40
0.481372595766702
40
0.481372595766702
40
0.654248397177801
40
0.654248397177801
40
0.74068629788335
40
0.74068629788335
40
0.827124198588899
40
0.827124198588899
40
1
40
1
40
1
40
1
41
1
10
11.647092260872
20
-1.92187725600863
30
0
41
1
10
10.8886704445533
20
-1.68427291812202
30
0
41
1
10
10.1362583822026
20
-1.37540440172421
30
0
41
1
10
9.15816031981376
20
-0.922191368591115
30
0
41
1
10
8.94302681053085
20
-0.819423256667449
30
0
41
1
10
8.51575480956245
20
-0.611036827123684
30
0
41
1
10
8.30291606555289
20
-0.505088731261822
30
0
41
1
10
7.66561945170875
20
-0.184323786506838
30
0
41
1
10
7.24234287647965
20
0.0333370750250879
30
0
41
1
10
6.6051986199578
20
0.356316366058905
30
0
41
1
10
6.39245198512964
20
0.46340421056351
30
0
41
1
10
5.9655611115636
20
0.675093412385053
30
0
41
1
10
5.75087574892061
20
0.77982343739032
30
0
41
1
10
5.10707829516852
20
1.08559599378475
30
0
41
1
10
4.67944619997172
20
1.27761219997458
30
0
41
1
10
4.25043913700668
20
1.45242118646846
30
0
0
SPLINE
5
E2
100
AcDbEntity
8
1
62
256
6
ByLayer
370
13
48
1
60
0
100
AcDbSpline
70
4
71
3
72
20
73
16
40
0
40
0
40
0
40
0
40
0.210156884174528
40
0.210156884174528
40
0.315235326261792
40
0.315235326261792
40
0.420313768349057
40
0.420313768349057
40
0.630470652523584
40
0.630470652523584
40
0.735549094610849
40
0.735549094610849
40
0.840627536698113
40
0.840627536698113
40
1
40
1
40
1
40
1
41
1
10
4.25043913700688
20
1.4524211864684
30
0
41
1
10
4.25052044687965
20
1.57915754047892
30
0
41
1
10
4.25059365898096
20
1.69523883967014
30
0
41
1
10
4.25069546558953
20
1.85361064992077
30
0
41
1
10
4.25072816213739
20
1.90390967382618
30
0
41
1
10
4.25079039291003
20
1.99743979447089
30
0
41
1
10
4.25082005695282
20
2.04087861338226
30
0
41
1
10
4.25090574730001
20
2.16142506568966
30
0
41
1
10
4.25095852243223
20
2.228865628872
30
0
41
1
10
4.251034348102
20
2.30976384971311
30
0
41
1
10
4.25105875029584
20
2.33300082189726
30
0
41
1
10
4.25110628134655
20
2.37209046862046
30
0
41
1
10
4.25112950040725
20
2.38798394745925
30
0
41
1
10
4.25118609987192
20
2.41821020017511
30
0
41
1
10
4.25121855434674
20
2.42762374210278
30
0
41
1
10
4.25124965994536
20
2.42839962093512
30
0
0
SPLINE
5
E3
100
AcDbEntity
8
1
62
256
6
ByLayer
370
18
48
1
60
0
100
AcDbSpline
70
4
71
3
72
18
73
14
40
0
40
0
40
0
40
0
40
0.25
40
0.25
40
0.5
40
0.5
40
0.625
40
0.625
40
0.75
40
0.75
40
0.875
40
0.875
40
1
40
1
40
1
40
1
41
1
10
45.6510469188961
20
1.2904814609584
30
0
41
1
10
45.6130708714711
20
1.39306217611272
30
0
41
1
10
45.5747008250337
20
1.49532429772813
30
0
41
1
10
45.4977942890234
20
1.69971395253208
30
0
41
1
10
45.4592208598193
20
1.80186509202818
30
0
41
1
10
45.4008652449201
20
1.95401703140911
30
0
41
1
10
45.3813093162614
20
2.00452447512544
30
0
41
1
10
45.3420457388079
20
2.10523336288736
30
0
41
1
10
45.3223897936256
20
2.15558830021115
30
0
41
1
10
45.2829940485075
20
2.25586674407919
30
0
41
1
10
45.2632568004809
20
2.30576220852015
30
0
41
1
10
45.223620525241
20
2.40455162830824
30
0
41
1
10
45.2036849674419
20
2.45321943766757
30
0
41
1
10
45.1837303821527
20
2.50176945558044
30
0
0
SPLINE
5
E4
100
AcDbEntity
8
1
62
256
6
ByLayer
370
13
48
1
60
0
100
AcDbSpline
70
4
71
3
72
16
73
12
40
0
40
0
40
0
40
0
40
0.0696001614233782
40
0.0696001614233782
40
0.224666801186149
40
0.224666801186149
40
0.379733440948919
40
0.379733440948919
40
0.689866720474459
40
0.689866720474459
40
1
40
1
40
1
40
1
41
1
10
4.25125177803886
20
-2.42843913078565
30
0
41
1
10
4.25126096509493
20
-2.42855261029595
30
0
41
1
10
4.25127003463197
20
-2.4279099668729
30
0
41
1
10
4.25129895706783
20
-2.42340858437618
30
0
41
1
10
4.25131835537758
20
-2.41654358957203
30
0
41
1
10
4.25135595617911
20
-2.39507026657802
30
0
41
1
10
4.25137403299294
20
-2.38048923029112
30
0
41
1
10
4.25142507041576
20
-2.32617888837842
30
0
41
1
10
4.25145527782985
20
-2.27579343638033
30
0
41
1
10
4.25150542134534
20
-2.14680988860988
30
0
41
1
10
4.25152536383726
20
-2.06718406125444
30
0
41
1
10
4.25153704593984
20
-1.97637766931703
30
0
0
SPLINE
5
E5
100
AcDbEntity
8
1
62
256
6
ByLayer
370
18
48
1
60
0
100
AcDbSpline
70
4
71
3
72
20
73
16
40
0
40
0
40
0
40
0
40
0.264025910884253
40
0.264025910884253
40
0.396038866326381
40
0.396038866326381
40
0.528051821768509
40
0.528051821768509
40
0.660064777210638
40
0.660064777210638
40
0.792077732652766
40
0.792077732652766
40
0.924090688094894
40
0.924090688094894
40
1
40
1
40
1
40
1
41
1
10
9.88268875307472
20
-1.63541716415776
30
0
41
1
10
10.2510314900205
20
-1.78961293753514
30
0
41
1
10
10.6190092768646
20
-1.92404760558591
30
0
41
1
10
11.1665945213049
20
-2.10253657821113
30
0
41
1
10
11.3488633756669
20
-2.15745274243261
30
0
41
1
10
11.7144653631085
20
-2.25670725857873
30
0
41
1
10
11.8974967987206
20
-2.30139951710783
30
0
41
1
10
12.2634992703556
20
-2.38119296315796
30
0
41
1
10
12.4462599151936
20
-2.41634500690677
30
0
41
1
10
12.8143149681644
20
-2.47501196135295
30
0
41
1
10
12.99950603901
20
-2.49887820614984
30
0
41
1
10
13.3683884299317
20
-2.53543464733349
30
0
41
1
10
13.5519566156291
20
-2.54821002440173
30
0
41
1
10
13.8417756272717
20
-2.55908395562446
30
0
41
1
10
13.9477477013454
20
-2.56114952613822
30
0
41
1
10
14.0538205979524
20
-2.56132439383091
30
0
0
SPLINE
5
E6
100
AcDbEntity
8
1
62
256
6
ByLayer
370
18
48
1
60
0
100
AcDbSpline
70
4
71
3
72
72
73
68
40
0
40
0
40
0
40
0
40
0.0256453251606484
40
0.0256453251606484
40
0.0552934080136074
40
0.0552934080136074
40
0.0849414908665664
40
0.0849414908665664
40
0.114589573719525
40
0.114589573719525
40
0.144237656572485
40
0.144237656572485
40
0.173885739425443
40
0.173885739425443
40
0.203533822278403
40
0.203533822278403
40
0.233181905131362
40
0.233181905131362
40
0.262829987984321
40
0.262829987984321
40
0.29247807083728
40
0.29247807083728
40
0.322126153690239
40
0.322126153690239
40
0.351774236543198
40
0.351774236543198
40
0.411070402249118
40
0.411070402249118
40
0.440718485102077
40
0.440718485102077
40
0.470366567955037
40
0.470366567955037
40
0.500014650807997
40
0.500014650807997
40
0.529662733660957
40
0.529662733660957
40
0.559310816513917
40
0.559310816513917
40
0.588958899366877
40
0.588958899366877
40
0.618606982219837
40
0.618606982219837
40
0.648255065072796
40
0.648255065072796
40
0.677903147925756
40
0.677903147925756
40
0.707551230778716
40
0.707551230778716
40
0.737199313631676
40
0.737199313631676
40
0.766847396484636
40
0.766847396484636
40
0.796495479337596
40
0.796495479337596
40
0.826143562190556
40
0.826143562190556
40
0.855791645043515
40
0.855791645043515
40
0.885439727896476
40
0.885439727896476
40
0.915087810749435
40
0.915087810749435
40
0.944735893602395
40
0.944735893602395
40
0.974383976455355
40
0.974383976455355
40
1
40
1
40
1
40
1
41
1
10
25.4043648516704
20
1.85783675283585
30
0
41
1
10
25.5624753446203
20
1.9165945057124
30
0
41
1
10
25.7205287903393
20
1.97269261442344
30
0
41
1
10
26.0618891580197
20
2.08681304600847
30
0
41
1
10
26.2460717963098
20
2.14306702969643
30
0
41
1
10
26.6153728321336
20
2.24615335439475
30
0
41
1
10
26.7995705281941
20
2.29277722660208
30
0
41
1
10
27.1666962103563
20
2.37626148051663
30
0
41
1
10
27.3503658062101
20
2.4125096559994
30
0
41
1
10
27.7185865664322
20
2.47387847725528
30
0
41
1
10
27.9029830789302
20
2.49914740823505
30
0
41
1
10
28.2716055678207
20
2.53881529062196
30
0
41
1
10
28.4551582882083
20
2.55296981395642
30
0
41
1
10
28.8232141970341
20
2.56955713602508
30
0
41
1
10
29.0073187511474
20
2.57215786200138
30
0
41
1
10
29.3751677825037
20
2.56593017179836
30
0
41
1
10
29.5585656001875
20
2.55694836655593
30
0
41
1
10
29.9274607157521
20
2.52765762723641
30
0
41
1
10
30.1118624344103
20
2.50746247270456
30
0
41
1
10
30.4799425956552
20
2.45596852719538
30
0
41
1
10
30.6633006917504
20
2.42441753684335
30
0
41
1
10
31.0306121317548
20
2.35064031344706
30
0
41
1
10
31.2149377245203
20
2.3087653784934
30
0
41
1
10
31.5841648225883
20
2.21459765643954
30
0
41
1
10
31.7682529613171
20
2.16236042878205
30
0
41
1
10
32.318847697328
20
1.99044374719824
30
0
41
1
10
32.6874089330107
20
1.85967513119075
30
0
41
1
10
33.2397221933275
20
1.63572536857831
30
0
41
1
10
33.4235709915989
20
1.55725419795942
30
0
41
1
10
33.791663910636
20
1.39530293825894
30
0
41
1
10
33.9757106580603
20
1.31137754159275
30
0
41
1
10
34.3432516727788
20
1.13667702474217
30
0
41
1
10
34.5265946588007
20
1.04558740416553
30
0
41
1
10
34.8954316081955
20
0.861017448248077
30
0
41
1
10
35.0799355223023
20
0.767159297729904
30
0
41
1
10
35.4478566196282
20
0.575820468383768
30
0
41
1
10
35.6309954211326
20
0.477534967085006
30
0
41
1
10
35.9984421074288
20
0.280840033029818
30
0
41
1
10
36.1827025946741
20
0.182367243285967
30
0
41
1
10
36.5516744391907
20
-0.0159773415777806
30
0
41
1
10
36.7356416334058
20
-0.116012589037496
30
0
41
1
10
37.1027383853535
20
-0.315142622909263
30
0
41
1
10
37.2866694145072
20
-0.413111682013039
30
0
41
1
10
37.6546780479283
20
-0.607049398084939
30
0
41
1
10
37.8387178781095
20
-0.703085207017864
30
0
41
1
10
38.2065961867988
20
-0.893712971836379
30
0
41
1
10
38.3907267123423
20
-0.986695798923336
30
0
41
1
10
38.7588244223279
20
-1.16665241545883
30
0
41
1
10
38.9428055405914
20
-1.25400465274936
30
0
41
1
10
39.3100026983551
20
-1.42438025202682
30
0
41
1
10
39.4933990209768
20
-1.50706498681882
30
0
41
1
10
39.8621525729851
20
-1.66384333584247
30
0
41
1
10
40.0467128351816
20
-1.73840007409203
30
0
41
1
10
40.4144437028679
20
-1.88006494256644
30
0
41
1
10
40.597470601461
20
-1.94759890204171
30
0
41
1
10
40.9650009722558
20
-2.07214347342043
30
0
41
1
10
41.1491884711503
20
-2.12962163989224
30
0
41
1
10
41.5178903753644
20
-2.23554333310614
30
0
41
1
10
41.701705760579
20
-2.28414278274968
30
0
41
1
10
42.068943971277
20
-2.37024286946465
30
0
41
1
10
42.2529104095428
20
-2.40763299384145
30
0
41
1
10
42.6207755225945
20
-2.47188996929975
30
0
41
1
10
42.8045669330673
20
-2.49878423737519
30
0
41
1
10
43.17224184196
20
-2.54149892363009
30
0
41
1
10
43.3564760630584
20
-2.5569534076613
30
0
41
1
10
43.6985533350301
20
-2.57512778862554
30
0
41
1
10
43.8567735067275
20
-2.57934025686947
30
0
41
1
10
44.0144545882457
20
-2.57929682158996
30
0
0
SPLINE
5
E7
100
AcDbEntity
8
1
62
256
6
ByLayer
370
18
48
1
60
0
100
AcDbSpline
70
4
71
3
72
10
73
6
40
0
40
0
40
0
40
0
40
0.818788187619383
40
0.818788187619383
40
1
40
1
40
1
40
1
41
1
10
29.7561136468318
20
-2.44267965087448
30
0
41
1
10
28.923802913371
20
-2.44239689766098
30
0
41
1
10
28.103657557757
20
-2.33017330098448
30
0
41
1
10
27.0889671700256
20
-2.07086089139625
30
0
41
1
10
26.9043158756316
20
-2.01894718319025
30
0
41
1
10
26.7193240965751
20
-1.96251639624632
30
0
0
SPLINE
5
E8
100
AcDbEntity
8
1
62
256
6
ByLayer
370
13
48
1
60
0
100
AcDbSpline
70
4
71
3
72
24
73
20
40
0
40
0
40
0
40
0
40
0.0108393349642337
40
0.0108393349642337
40
0.0899089448641115
40
0.0899089448641115
40
0.248048164663867
40
0.248048164663867
40
0.406187384463622
40
0.406187384463622
40
0.4852569943635
40
0.4852569943635
40
0.564326604263378
40
0.564326604263378
40
0.880605043862891
40
0.880605043862891
40
0.959674653762769
40
0.959674653762769
40
1
40
1
40
1
40
1
41
1
10
26.7193250528552
20
-1.96251668795458
30
0
41
1
10
26.6899365681562
20
-1.953551884869
30
0
41
1
10
26.6605394903931
20
-1.94447308115019
30
0
41
1
10
26.4166430387819
20
-1.86823510788446
30
0
41
1
10
26.2027345451964
20
-1.79546613405711
30
0
41
1
10
25.5617014165283
20
-1.56175018579188
30
0
41
1
10
25.1349129214076
20
-1.38571085820959
30
0
41
1
10
24.2767460348193
20
-1.00190000396691
30
0
41
1
10
23.8491075833926
20
-0.796545553226224
30
0
41
1
10
23.2067609613125
20
-0.476952175283032
30
0
41
1
10
22.9918198594668
20
-0.368326248121519
30
0
41
1
10
22.563744982785
20
-0.150459996958574
30
0
41
1
10
22.3506426825364
20
-0.0412074033486363
30
0
41
1
10
21.2878926386032
20
0.502817933469601
30
0
41
1
10
20.4458320732748
20
0.929322962050122
30
0
41
1
10
19.3734255981731
20
1.39335340062715
30
0
41
1
10
19.1593189207704
20
1.4819971234167
30
0
41
1
10
18.8374632352319
20
1.60787364956244
30
0
41
1
10
18.7289470251584
20
1.64910320269996
30
0
41
1
10
18.6205675462654
20
1.68898423907623
30
0
0
SPLINE
5
E9
100
AcDbEntity
8
1
62
256
6
ByLayer
370
13
48
1
60
0
100
AcDbSpline
70
4
71
3
72
10
73
6
40
0
40
0
40
0
40
0
40
0.5
40
0.5
40
1
40
1
40
1
40
1
41
1
10
4.1321712904039
20
1.49877771311549
30
0
41
1
10
4.11019739347938
20
1.51114364362346
30
0
41
1
10
4.09095304366735
20
1.52633192295784
30
0
41
1
10
4.05719200919148
20
1.56165724203282
30
0
41
1
10
4.04305820821111
20
1.5815544133236
30
0
41
1
10
4.03193774560242
20
1.60258718692677
30
0
0
SPLINE
5
EA
100
AcDbEntity
8
SK1
62
256
6
ByLayer
370
18
48
1
60
0
100
AcDbSpline
70
4
71
3
72
14
73
10
40
0
40
0
40
0
40
0
40
0.499999999999998
40
0.499999999999998
40
0.749999999999997
40
0.749999999999997
40
0.874999999999999
40
0.874999999999999
40
1
40
1
40
1
40
1
41
1
10
-35.4
20
0.197567158819254
30
0
41
1
10
-35.3787677796885
20
0.189931145332224
30
0
41
1
10
-35.3584290958895
20
0.176330482618766
30
0
41
1
10
-35.3303626450498
20
0.14440170716162
30
0
41
1
10
-35.3215171954455
20
0.13192310020483
30
0
41
1
10
-35.3102812516991
20
0.108454391682528
30
0
41
1
10
-35.3068890218585
20
0.0997968250184442
30
0
41
1
10
-35.3017585680987
20
0.0806391973937934
30
0
41
1
10
-35.3
20
0.0699159944575172
30
0
41
1
10
-35.3
20
0.0588405564697325
30
0
0
SPLINE
5
EB
100
AcDbEntity
8
SK1
62
256
6
ByLayer
370
18
48
1
60
0
100
AcDbSpline
70
4
71
3
72
8
73
4
40
0
40
0
40
0
40
0
40
1
40
1
40
1
40
1
41
1
10
-36
20
0.418632071300237
30
0
41
1
10
-35.8060540431149
20
0.344274837160128
30
0
41
1
10
-35.6037430884363
20
0.270841877541471
30
0
41
1
10
-35.4
20
0.197567158818487
30
0
0
SPLINE
5
EC
100
AcDbEntity
8
SK1
62
256
6
ByLayer
370
18
48
1
60
0
100
AcDbSpline
70
4
71
3
72
8
73
4
40
0
40
0
40
0
40
0
40
1
40
1
40
1
40
1
41
1
10
-36
20
-0.418632071300266
30
0
41
1
10
-35.8060540431149
20
-0.344274837160157
30
0
41
1
10
-35.6037430884363
20
-0.270841877541471
30
0
41
1
10
-35.4
20
-0.197567158818515
30
0
0
SPLINE
5
ED
100
AcDbEntity
8
SK1
62
256
6
ByLayer
370
18
48
1
60
0
100
AcDbSpline
70
4
71
3
72
14
73
10
40
0
40
0
40
0
40
0
40
0.125
40
0.125
40
0.249999999999999
40
0.249999999999999
40
0.499999999999998
40
0.499999999999998
40
1
40
1
40
1
40
1
41
1
10
-35.3
20
1.21489608583633
30
0
41
1
10
-35.3
20
1.22495683992605
30
0
41
1
10
-35.3017593723636
20
1.23358704686879
30
0
41
1
10
-35.306935341198
20
1.2475759430109
30
0
41
1
10
-35.3102739075535
20
1.25300604140659
30
0
41
1
10
-35.3215583577555
20
1.26665189831473
30
0
41
1
10
-35.3303095934912
20
1.27180920989213
30
0
41
1
10
-35.358391202053
20
1.28146355932557
30
0
41
1
10
-35.378655954467
20
1.27980519753325
30
0
41
1
10
-35.4
20
1.27212896691927
30
0
0
SPLINE
5
EE
100
AcDbEntity
8
SK1
62
256
6
ByLayer
370
18
48
1
60
0
100
AcDbSpline
70
4
71
3
72
8
73
4
40
0
40
0
40
0
40
0
40
1
40
1
40
1
40
1
41
1
10
-35.4
20
1.27212896691927
30
0
41
1
10
-35.6037694491256
20
1.19884476776625
30
0
41
1
10
-35.8061051627009
20
1.12540168976216
30
0
41
1
10
-36
20
1.05106405443752
30
0
0
SPLINE
5
EF
100
AcDbEntity
8
SK1
62
256
6
ByLayer
370
18
48
1
60
0
100
AcDbSpline
70
4
71
3
72
14
73
10
40
0
40
0
40
0
40
0
40
0.499999999999998
40
0.499999999999998
40
0.749999999999998
40
0.749999999999998
40
0.874999999999999
40
0.874999999999999
40
1
40
1
40
1
40
1
41
1
10
-35.4
20
-0.197567158819254
30
0
41
1
10
-35.3787677796885
20
-0.189931145332224
30
0
41
1
10
-35.3584290958895
20
-0.176330482618795
30
0
41
1
10
-35.3303626450498
20
-0.14440170716162
30
0
41
1
10
-35.3215171954455
20
-0.13192310020483
30
0
41
1
10
-35.3102812516991
20
-0.108454391682557
30
0
41
1
10
-35.3068890218585
20
-0.0997968250184442
30
0
41
1
10
-35.3017585680987
20
-0.0806391973937934
30
0
41
1
10
-35.3
20
-0.0699159944575172
30
0
41
1
10
-35.3
20
-0.0588405564697609
30
0
0
LINE
5
76
100
AcDbEntity
8
81
62
256
6
ByLayer
370
18
48
1
60
0
100
AcDbLine
10
46
20
0
30
0
11
51
21
0
31
0
39
0
210
0
220
0
230
1
0
LINE
5
77
100
AcDbEntity
8
1
62
256
6
ByLayer
370
18
48
1
60
0
100
AcDbLine
10
4.032418
20
2.555309
30
0
11
1.109223
21
2.553555
31
0
39
0
210
0
220
0
230
1
0
LINE
5
79
100
AcDbEntity
8
1
62
256
6
ByLayer
370
18
48
1
60
0
100
AcDbLine
10
14.57499
20
2.561635
30
0
11
14.065802
21
2.561329
31
0
39
0
210
0
220
0
230
1
0
LINE
5
7A
100
AcDbEntity
8
1
62
256
6
ByLayer
370
18
48
1
60
0
100
AcDbLine
10
29.539967
20
2.570613
30
0
11
29.034729
21
2.57031
31
0
39
0
210
0
220
0
230
1
0
LINE
5
7B
100
AcDbEntity
8
1
62
256
6
ByLayer
370
18
48
1
60
0
100
AcDbLine
10
44.505526
20
2.579593
30
0
11
44.006571
21
2.579293
31
0
39
0
210
0
220
0
230
1
0
LINE
5
7C
100
AcDbEntity
8
1
62
256
6
ByLayer
370
18
48
1
60
0
100
AcDbLine
10
44.006571
20
-2.579293
30
0
11
44.505431
21
-2.579593
31
0
39
0
210
0
220
0
230
1
0
LINE
5
7D
100
AcDbEntity
8
1
62
256
6
ByLayer
370
18
48
1
60
0
100
AcDbLine
10
29.034729
20
-2.57031
30
0
11
29.539767
21
-2.570613
31
0
39
0
210
0
220
0
230
1
0
LINE
5
7E
100
AcDbEntity
8
1
62
256
6
ByLayer
370
18
48
1
60
0
100
AcDbLine
10
14.065802
20
-2.561329
30
0
11
14.57457
21
-2.561634
31
0
39
0
210
0
220
0
230
1
0
LINE
5
7F
100
AcDbEntity
8
1
62
256
6
ByLayer
370
18
48
1
60
0
100
AcDbLine
10
1.109223
20
-2.553555
30
0
11
4.032418
21
-2.555309
31
0
39
0
210
0
220
0
230
1
0
LINE
5
80
100
AcDbEntity
8
SK1
62
256
6
ByLayer
370
18
48
1
60
0
100
AcDbLine
10
-35.278312
20
3
30
0
11
-36
21
1.75
31
0
39
0
210
0
220
0
230
1
0
LINE
5
82
100
AcDbEntity
8
SK1
62
256
6
ByLayer
370
18
48
1
60
0
100
AcDbLine
10
-36
20
-1.75
30
0
11
-35.278312
21
-3
31
0
39
0
210
0
220
0
230
1
0
LINE
5
83
100
AcDbEntity
8
SK1
62
256
6
ByLayer
370
18
48
1
60
0
100
AcDbLine
10
0
20
3
30
0
11
-35.278312
21
3
31
0
39
0
210
0
220
0
230
1
0
LINE
5
84
100
AcDbEntity
8
SK1
62
256
6
ByLayer
370
18
48
1
60
0
100
AcDbLine
10
-35.278312
20
-3
30
0
11
0
21
-3
31
0
39
0
210
0
220
0
230
1
0
LINE
5
85
100
AcDbEntity
8
SK4
62
256
6
ByLayer
370
18
48
0.05
60
0
100
AcDbLine
10
51
20
0
30
0
11
-41
21
0
31
0
39
0
210
0
220
0
230
1
0
LINE
5
87
100
AcDbEntity
8
4
62
256
6
ByLayer
370
18
48
0.05
60
0
100
AcDbLine
10
46
20
0
30
0
11
0
21
0
31
0
39
0
210
0
220
0
230
1
0
LINE
5
89
100
AcDbEntity
8
80
62
256
6
ByLayer
370
18
48
1
60
0
100
AcDbLine
10
0
20
0
30
0
11
-5
21
0
31
0
39
0
210
0
220
0
230
1
0
LINE
5
8A
100
AcDbEntity
8
1
62
256
6
ByLayer
370
13
48
1
60
0
100
AcDbLine
10
1.109223
20
2.553555
30
0
11
1.109223
21
-2.553555
31
0
39
0
210
0
220
0
230
1
0
LINE
5
8B
100
AcDbEntity
8
1
62
256
6
ByLayer
370
18
48
1
60
0
100
AcDbLine
10
45.995782
20
0.02617
30
0
11
46
21
0
31
0
39
0
210
0
220
0
230
1
0
LINE
5
8C
100
AcDbEntity
8
1
62
256
6
ByLayer
370
13
48
1
60
0
100
AcDbLine
10
45.869079
20
0.561289
30
0
11
45.434133
21
0.561289
31
0
39
0
210
0
220
0
230
1
0
LINE
5
8D
100
AcDbEntity
8
1
62
256
6
ByLayer
370
18
48
1
60
0
100
AcDbLine
10
44.713309
20
-1.381423
30
0
11
45.89534
21
-0.160368
31
0
39
0
210
0
220
0
230
1
0
LINE
5
8E
100
AcDbEntity
8
1
62
256
6
ByLayer
370
18
48
1
60
0
100
AcDbLine
10
46
20
0
30
0
11
45.107629
21
-2.45177
31
0
39
0
210
0
220
0
230
1
0
LINE
5
8F
100
AcDbEntity
8
1
62
256
6
ByLayer
370
13
48
1
60
0
100
AcDbLine
10
45.434133
20
0.561289
30
0
11
45.932476
21
0.265605
31
0
39
0
210
0
220
0
230
1
0
LINE
5
90
100
AcDbEntity
8
1
62
256
6
ByLayer
370
13
48
1
60
0
100
AcDbLine
10
0.554372
20
2.776777
30
0
11
0.554372
21
-2.776777
31
0
39
0
210
0
220
0
230
1
0
LINE
5
91
100
AcDbEntity
8
1
62
256
6
ByLayer
370
18
48
1
60
0
100
AcDbLine
10
46
20
0
30
0
11
45.995782
21
-0.02617
31
0
39
0
210
0
220
0
230
1
0
LINE
5
92
100
AcDbEntity
8
1
62
256
6
ByLayer
370
18
48
1
60
0
100
AcDbLine
10
45.932476
20
0.265605
30
0
11
45.869079
21
0.561289
31
0
39
0
210
0
220
0
230
1
0
LINE
5
93
100
AcDbEntity
8
1
62
256
6
ByLayer
370
18
48
1
60
0
100
AcDbLine
10
45.932476
20
-0.265605
30
0
11
45.869079
21
-0.561289
31
0
39
0
210
0
220
0
230
1
0
LINE
5
94
100
AcDbEntity
8
1
62
256
6
ByLayer
370
18
48
1
60
0
100
AcDbLine
10
0
20
-3
30
0
11
0
21
3
31
0
39
0
210
0
220
0
230
1
0
LINE
5
95
100
AcDbEntity
8
1
62
256
6
ByLayer
370
13
48
1
60
0
100
AcDbLine
10
45.244227
20
0.225959
30
0
11
45.89534
21
-0.160368
31
0
39
0
210
0
220
0
230
1
0
LINE
5
96
100
AcDbEntity
8
SK1
62
256
6
ByLayer
370
18
48
1
60
0
100
AcDbLine
10
-36
20
1.75
30
0
11
-36
21
1.051064
31
0
39
0
210
0
220
0
230
1
0
LINE
5
97
100
AcDbEntity
8
SK1
62
256
6
ByLayer
370
18
48
1
60
0
100
AcDbLine
10
-35.278312
20
3
30
0
11
-35.278312
21
-3
31
0
39
0
210
0
220
0
230
1
0
LINE
5
98
100
AcDbEntity
8
SK1
62
256
6
ByLayer
370
13
48
1
60
0
100
AcDbLine
10
-35.4
20
1.272129
30
0
11
-35.4
21
0.197567
31
0
39
0
210
0
220
0
230
1
0
LINE
5
99
100
AcDbEntity
8
SK1
62
256
6
ByLayer
370
18
48
1
60
0
100
AcDbLine
10
-36
20
-0.418632
30
0
11
-36
21
-1.75
31
0
39
0
210
0
220
0
230
1
0
LINE
5
9A
100
AcDbEntity
8
SK1
62
256
6
ByLayer
370
18
48
1
60
0
100
AcDbLine
10
-35.3
20
-0.058841
30
0
11
-35.3
21
1.214896
31
0
39
0
210
0
220
0
230
1
0
LINE
5
9B
100
AcDbEntity
8
SK1
62
256
6
ByLayer
370
18
48
1
60
0
100
AcDbLine
10
-36
20
1.051064
30
0
11
-36
21
0.418632
31
0
39
0
210
0
220
0
230
1
0
LINE
5
9C
100
AcDbEntity
8
SK1
62
256
6
ByLayer
370
18
48
1
60
0
100
AcDbLine
10
0
20
-3
30
0
11
0
21
3
31
0
39
0
210
0
220
0
230
1
0
MTEXT
5
F0
100
AcDbEntity
8
SK6
62
256
6
ByLayer
370
13
48
1
60
0
100
AcDbMText
10
7.129169
20
34.962694
30
0
210
0
220
0
230
1
1
\W0.7415;R840-0516-50-A1A1220
40
3.5
41
0
44
1.084337
50
0
71
8
72
5
7
iso_b_vert
0
DIMENSION
5
FD
100
AcDbEntity
8
SK2
62
256
6
ByLayer
370
13
48
1
60
0
100
AcDbDimension
2
DimnDraft3D1
10
45.13
20
-12.793398
30
0
11
21.380059
21
-12.793398
31
0
70
32
71
5
72
1
41
1
210
0
220
0
230
1
3
Standard
100
AcDbAlignedDimension
13
0
23
-1.5875
33
0
14
45.13
24
-4.1675
34
0
50
0
100
AcDbRotatedDimension
1001
ACAD
1000
DSTYLE
1002
{
1070
   279
1070
     0
1070
   172
1070
     1
1070
   173
1070
     1
1070
   340
1005
F1
1070
   271
1070
     2
1070
   272
1070
     2
1070
    77
1070
     1
1070
    73
1070
     0
1070
   171
1070
     3
1070
   274
1070
     4
1070
   177
1070
    35
1070
   176
1070
    35
1070
   178
1070
    35
1070
    48
1040
-0.005
1070
    41
1041
3.5
1070
   147
1041
1.75
1070
    42
1041
1.5875
1070
    44
1041
2.0
1070
   140
1041
3.5
1070
   343
1005
0
1070
   344
1005
0
1002
}
0
DIMENSION
5
107
100
AcDbEntity
8
SK2
62
256
6
ByLayer
370
13
48
1
60
0
100
AcDbDimension
2
DimnDraft3D2
10
46
20
-31.692985
30
0
11
5.4713
21
-31.692985
31
0
70
32
71
5
72
1
41
1
210
0
220
0
230
1
3
Standard
100
AcDbAlignedDimension
13
-36
23
-4.5875
33
0
14
46
24
-1.5875
34
0
50
0
100
AcDbRotatedDimension
1001
ACAD
1000
DSTYLE
1002
{
1070
   279
1070
     0
1070
   172
1070
     1
1070
   173
1070
     1
1070
   340
1005
F1
1070
   271
1070
     2
1070
   272
1070
     2
1070
    77
1070
     1
1070
    73
1070
     0
1070
   171
1070
     3
1070
   274
1070
     4
1070
   177
1070
    35
1070
   176
1070
    35
1070
   178
1070
    35
1070
    48
1040
-0.005
1070
    41
1041
3.5
1070
   147
1041
1.75
1070
    42
1041
1.5875
1070
    44
1041
2.0
1070
   140
1041
3.5
1070
   343
1005
0
1070
   344
1005
0
1002
}
0
DIMENSION
5
111
100
AcDbEntity
8
SK2
62
256
6
ByLayer
370
13
48
1
60
0
100
AcDbDimension
2
DimnDraft3D3
10
46
20
14.189119
30
0
11
32.665
21
14.189119
31
0
70
32
71
5
72
1
41
1
210
0
220
0
230
1
3
Standard
100
AcDbAlignedDimension
13
19.33
23
4.1675
33
0
14
46
24
1.5875
34
0
50
0
100
AcDbRotatedDimension
1001
ACAD
1000
DSTYLE
1002
{
1070
   279
1070
     0
1070
   172
1070
     1
1070
   173
1070
     1
1070
   340
1005
F1
1070
   271
1070
     2
1070
   272
1070
     2
1070
    77
1070
     1
1070
    73
1070
     0
1070
   171
1070
     3
1070
   274
1070
     4
1070
   177
1070
    35
1070
   176
1070
    35
1070
   178
1070
    35
1070
    48
1040
-0.005
1070
    41
1041
3.5
1070
   147
1041
1.75
1070
    42
1041
1.5875
1070
    44
1041
2.0
1070
   140
1041
3.5
1070
   343
1005
0
1070
   344
1005
0
1002
}
0
DIMENSION
5
11B
100
AcDbEntity
8
SK2
62
256
6
ByLayer
370
13
48
1
60
0
100
AcDbDimension
2
DimnDraft3D4
10
45.13
20
-15.382503
30
0
11
55.981425
21
-15.382503
31
0
70
32
71
5
72
1
41
1
210
0
220
0
230
1
3
Standard
100
AcDbAlignedDimension
13
46
23
-1.5875
33
0
14
45.13
24
-4.1675
34
0
50
0
100
AcDbRotatedDimension
1001
ACAD
1000
DSTYLE
1002
{
1070
   279
1070
     0
1070
   172
1070
     1
1070
   173
1070
     1
1070
   340
1005
F1
1070
   271
1070
     2
1070
   272
1070
     2
1070
    77
1070
     1
1070
    73
1070
     0
1070
   171
1070
     3
1070
   274
1070
     4
1070
   177
1070
    35
1070
   176
1070
    35
1070
   178
1070
    35
1070
    48
1040
-0.005
1070
    41
1041
3.5
1070
   147
1041
1.75
1070
    42
1041
1.5875
1070
    44
1041
2.0
1070
   140
1041
3.5
1070
   343
1005
0
1070
   344
1005
0
1002
}
0
DIMENSION
5
125
100
AcDbEntity
8
SK2
62
256
6
ByLayer
370
13
48
1
60
0
100
AcDbDimension
2
DimnDraft3D5
10
45.13
20
-21.343428
30
0
11
2.390676
21
-21.343428
31
0
70
32
71
5
72
1
41
1
210
0
220
0
230
1
3
Standard
100
AcDbAlignedDimension
13
-36
23
-4.5875
33
0
14
45.13
24
-4.1675
34
0
50
0
100
AcDbRotatedDimension
1001
ACAD
1000
DSTYLE
1002
{
1070
   279
1070
     0
1070
   172
1070
     1
1070
   173
1070
     1
1070
   340
1005
F1
1070
   271
1070
     2
1070
   272
1070
     2
1070
    77
1070
     1
1070
    73
1070
     0
1070
   171
1070
     3
1070
   274
1070
     4
1070
   177
1070
    35
1070
   176
1070
    35
1070
   178
1070
    35
1070
    48
1040
-0.005
1070
    41
1041
3.5
1070
   147
1041
1.75
1070
    42
1041
1.5875
1070
    44
1041
2.0
1070
   140
1041
3.5
1070
   343
1005
0
1070
   344
1005
0
1002
}
0
DIMENSION
5
130
100
AcDbEntity
8
SK2
62
256
6
ByLayer
370
13
48
1
60
0
100
AcDbDimension
2
DimnDraft3D6
10
-46.625163
20
3
30
0
11
-47.250163
21
21.47418
31
0
70
33
71
5
72
1
41
1
210
0
220
0
230
1
3
Standard
100
AcDbAlignedDimension
13
-37.5875
23
-3
33
0
14
-37.5875
24
3
34
0
1001
ACAD
1000
DSTYLE
1002
{
1070
   279
1070
     0
1070
    74
1070
     0
1070
   173
1070
     1
1070
   340
1005
F1
1070
   271
1070
     3
1070
   272
1070
     2
1070
    77
1070
     1
1070
    73
1070
     0
1070
   171
1070
     3
1070
   274
1070
     4
1070
   177
1070
    35
1070
   176
1070
    35
1070
   178
1070
    35
1070
    48
1040
-0.005
1070
    41
1041
3.5
1070
   147
1041
1.75
1070
    42
1041
1.5875
1070
    44
1041
2.0
1070
   140
1041
3.5
1070
   343
1005
0
1070
   344
1005
0
1002
}
0
DIMENSION
5
13B
100
AcDbEntity
8
2
62
256
6
ByLayer
370
13
48
1
60
0
100
AcDbDimension
2
DimnDraft3D7
10
60.083343
20
2.58
30
0
11
55.458343
21
19.647266
31
0
70
33
71
5
72
1
41
1
210
0
220
0
230
1
3
Standard
100
AcDbAlignedDimension
13
46.7175
23
-2.58
33
0
14
46.7175
24
2.58
34
0
1001
ACAD
1000
DSTYLE
1002
{
1070
   279
1070
     0
1070
    74
1070
     0
1070
   173
1070
     1
1070
   340
1005
F1
1070
   271
1070
     3
1070
   272
1070
     2
1070
    77
1070
     1
1070
    73
1070
     0
1070
   171
1070
     3
1070
   274
1070
     4
1070
   177
1070
    35
1070
   176
1070
    35
1070
   178
1070
    35
1070
    48
1040
-0.005
1070
    41
1041
3.5
1070
   147
1041
1.75
1070
    42
1041
1.5875
1070
    44
1041
2.0
1070
   140
1041
3.5
1070
   343
1005
0
1070
   344
1005
0
1002
}
0
ENDSEC
0
SECTION
2
OBJECTS
0
DICTIONARY
5
1a6
330
0
100
AcDbDictionary
280
0
281
1
3
ACAD_GROUP
350
1a7
3
ACAD_MLINESTYLE
350
1a8
0
DICTIONARY
5
1a7
330
0
100
AcDbDictionary
280
0
281
1
0
DICTIONARY
5
1a8
330
0
100
AcDbDictionary
280
0
281
1
3
Standard
350
18
0
MLINESTYLE
5
18
330
1a8
100
AcDbMlineStyle
2
Standard
70
0
3

62
256
51
90
52
90
71
2
49
-0.5
62
256
6
ByLayer
49
0.5
62
256
6
ByLayer
0
RASTERVARIABLES
5
194
330

100
AcDbRasterVariables
90
0
70
1
71
1
72
1
0
ENDSEC
0
EOF
