0
SECTION
2
HEADER
9
$ACADVER
1
AC1015
9
$DWGCODEPAGE
3
ANSI_1252
9
$HANDSEED
5
1aa
9
$ANGBASE
50
0
9
$ANGDIR
70
0
9
$ATTMODE
70
1
9
$AUNITS
70
0
9
$AUPREC
70
0
9
$CECOLOR
62
256
9
$CELTSCALE
40
1
9
$CELTYPE
6
ByLayer
9
$CELWEIGHT
370
18
9
$CLAYER
8
0
9
$CMLJUST
70
0
9
$CMLSCALE
40
1
9
$CMLSTYLE
2
Standard
9
$DIMSTYLE
2
Standard
9
$TEXTSIZE
40
0.2
9
$TEXTSTYLE
7
Standard
9
$LUNITS
70
2
9
$LUPREC
70
4
9
$EXTNAMES
290
1
9
$INSUNITS
70
4
9
$LTSCALE
40
1
9
$LWDISPLAY
290
1
9
$PDMODE
70
0
9
$PDSIZE
40
0
9
$PLINEGEN
70
0
0
ENDSEC
0
SECTION
2
CLASSES
0
CLASS
1
RASTERVARIABLES
2
AcDbRasterVariables
3
ISM
90
0
280
0
281
0
0
ENDSEC
0
SECTION
2
TABLES
0
TABLE
2
VPORT
5
1a0
100
AcDbSymbolTable
0
VPORT
5
1
100
AcDbSymbolTableRecord
100
AcDbViewportTableRecord
2
*Active
70
0
10
0
20
0
11
1
21
1
12
-1
22
1
13
0
23
0
14
0.5
24
0.5
15
10
25
10
16
0
26
0
36
1
17
0
27
0
37
0
0
ENDTAB
0
TABLE
2
LTYPE
5
1a1
100
AcDbSymbolTable
0
LTYPE
5
14
100
AcDbSymbolTableRecord
100
AcDbLinetypeTableRecord
70
0
2
ByBlock
3

72
65
73
0
40
0
0
LTYPE
5
15
100
AcDbSymbolTableRecord
100
AcDbLinetypeTableRecord
70
0
2
ByLayer
3

72
65
73
0
40
0
0
LTYPE
5
16
100
AcDbSymbolTableRecord
100
AcDbLinetypeTableRecord
70
0
2
CONTINUOUS
3
Solid line
72
65
73
0
40
0
0
LTYPE
5
6A
100
AcDbSymbolTableRecord
100
AcDbLinetypeTableRecord
70
0
2
CENTER
3
____ _ ____ _ ____ _ ____
72
65
73
4
40
47.5
49
22
74
0
49
-8.5
74
0
49
8.5
74
0
49
-8.5
74
0
0
LTYPE
5
6B
100
AcDbSymbolTableRecord
100
AcDbLinetypeTableRecord
70
0
2
DASHED
3
__ __ __ __ __ __ __ __ __
72
65
73
2
40
25.72
49
12.86
74
0
49
-12.86
74
0
0
ENDTAB
0
TABLE
2
LAYER
5
1a2
100
AcDbSymbolTable
0
LAYER
5
10
100
AcDbSymbolTableRecord
100
AcDbLayerTableRecord
2
0
70
0
62
7
6
CONTINUOUS
290
1
370
-3
390
0
0
LAYER
5
6D
100
AcDbSymbolTableRecord
100
AcDbLayerTableRecord
2
81
70
0
62
-3
6
CONTINUOUS
290
1
370
-3
390
0
0
LAYER
5
6F
100
AcDbSymbolTableRecord
100
AcDbLayerTableRecord
2
80
70
0
62
-6
6
CONTINUOUS
290
1
370
-3
390
0
0
LAYER
5
74
100
AcDbSymbolTableRecord
100
AcDbLayerTableRecord
2
2
70
0
62
7
6
CONTINUOUS
290
1
370
-3
390
0
0
LAYER
5
78
100
AcDbSymbolTableRecord
100
AcDbLayerTableRecord
2
1
70
0
62
4
6
CONTINUOUS
290
1
370
-3
390
0
0
LAYER
5
86
100
AcDbSymbolTableRecord
100
AcDbLayerTableRecord
2
4
70
0
62
-2
6
CENTER
290
1
370
-3
390
0
0
LAYER
5
18c
100
AcDbSymbolTableRecord
100
AcDbLayerTableRecord
2
SK2
70
0
62
7
6
CONTINUOUS
290
1
370
-3
390
0
0
LAYER
5
18d
100
AcDbSymbolTableRecord
100
AcDbLayerTableRecord
2
SK1
70
0
62
4
6
CONTINUOUS
290
1
370
-3
390
0
0
LAYER
5
18e
100
AcDbSymbolTableRecord
100
AcDbLayerTableRecord
2
SK4
70
0
62
2
6
CENTER
290
1
370
-3
390
0
0
LAYER
5
18f
100
AcDbSymbolTableRecord
100
AcDbLayerTableRecord
2
SK6
70
0
62
5
6
CONTINUOUS
290
1
370
-3
390
0
0
ENDTAB
0
TABLE
2
STYLE
5
1a3
100
AcDbSymbolTable
0
STYLE
5
11
100
AcDbSymbolTableRecord
100
AcDbTextStyleTableRecord
2
Standard
3
txt
70
0
71
0
40
0
41
1
42
0
50
0
0
STYLE
5
E8
100
AcDbSymbolTableRecord
100
AcDbTextStyleTableRecord
2
iso_b_vert
3
simplex.shx
70
0
71
0
40
0
41
1
42
0
50
0
0
STYLE
5
E9
100
AcDbSymbolTableRecord
100
AcDbTextStyleTableRecord
2
DWGDirectTextStyle
3
simplex
70
0
71
0
40
0
41
1
42
0
50
0
0
ENDTAB
0
TABLE
2
DIMSTYLE
5
1a4
100
AcDbSymbolTable
100
AcDbDimStyleTable
0
DIMSTYLE
105
27
100
AcDbSymbolTableRecord
100
AcDbDimStyleTableRecord
2
Standard
70
0
3
<>
41
0.18
42
0.0625
44
0.18
140
0.18
147
0.09
73
0
74
0
77
1
271
2
275
0
278
52
280
0
340
11
0
ENDTAB
0
TABLE
2
VIEW
5
1a5
100
AcDbSymbolTable
0
ENDTAB
0
TABLE
2
UCS
5
1a6
100
AcDbSymbolTable
0
ENDTAB
0
TABLE
2
APPID
5
1a7
100
AcDbSymbolTable
0
APPID
5
12
100
AcDbSymbolTableRecord
100
AcDbRegAppTableRecord
2
ACAD
70
0
0
ENDTAB
0
TABLE
2
BLOCK_RECORD
5
1a8
100
AcDbSymbolTable
0
BLOCK_RECORD
5
1F
100
AcDbSymbolTableRecord
100
AcDbBlockTableRecord
2
*Model_Space
340
0
70
0
0
BLOCK_RECORD
5
1B
100
AcDbSymbolTableRecord
100
AcDbBlockTableRecord
2
*Paper_Space
340
0
70
0
0
BLOCK_RECORD
5
23
100
AcDbSymbolTableRecord
100
AcDbBlockTableRecord
2
*Paper_Space0
340
0
70
0
0
BLOCK_RECORD
5
EB
100
AcDbSymbolTableRecord
100
AcDbBlockTableRecord
2
DimnDraft3D1
340
0
70
0
0
BLOCK_RECORD
5
F5
100
AcDbSymbolTableRecord
100
AcDbBlockTableRecord
2
DimnDraft3D2
340
0
70
0
0
BLOCK_RECORD
5
FF
100
AcDbSymbolTableRecord
100
AcDbBlockTableRecord
2
DimnDraft3D3
340
0
70
0
0
BLOCK_RECORD
5
109
100
AcDbSymbolTableRecord
100
AcDbBlockTableRecord
2
DimnDraft3D4
340
0
70
0
0
BLOCK_RECORD
5
113
100
AcDbSymbolTableRecord
100
AcDbBlockTableRecord
2
DimnDraft3D5
340
0
70
0
0
BLOCK_RECORD
5
11D
100
AcDbSymbolTableRecord
100
AcDbBlockTableRecord
2
DimnDraft3D6
340
0
70
0
0
BLOCK_RECORD
5
128
100
AcDbSymbolTableRecord
100
AcDbBlockTableRecord
2
DimnDraft3D7
340
0
70
0
0
ENDTAB
0
ENDSEC
0
SECTION
2
BLOCKS
0
BLOCK
5
20
100
AcDbEntity
8
0
100
AcDbBlockBegin
2
*Model_Space
70
0
10
0
20
0
30
0
3
*Model_Space
0
ENDBLK
5
21
100
AcDbEntity
8
0
100
AcDbBlockEnd
0
BLOCK
5
1C
100
AcDbEntity
8
0
100
AcDbBlockBegin
2
*Paper_Space
70
0
10
0
20
0
30
0
3
*Paper_Space
0
ENDBLK
5
1D
100
AcDbEntity
8
0
100
AcDbBlockEnd
0
BLOCK
5
24
100
AcDbEntity
8
0
100
AcDbBlockBegin
2
*Paper_Space0
70
0
10
0
20
0
30
0
3
*Paper_Space0
0
ENDBLK
5
25
100
AcDbEntity
8
0
100
AcDbBlockEnd
0
BLOCK
5
F2
100
AcDbEntity
8
0
100
AcDbBlockBegin
2
DimnDraft3D1
70
0
10
0
20
0
30
0
3
DimnDraft3D1
0
MTEXT
5
EC
100
AcDbEntity
8
SK2
62
256
6
ByLayer
370
13
48
1
60
0
100
AcDbMText
10
9.388875
20
-11.838398
30
0
210
0
220
0
230
1
1
\W0.6713;29,15
40
3.5
41
0
44
1.084337
50
0
71
7
72
5
7
iso_b_vert
0
LINE
5
ED
100
AcDbEntity
8
SK2
62
256
6
ByLayer
370
13
48
1
60
0
100
AcDbLine
10
0
20
-1.5875
30
0
11
0
21
-14.713398
31
0
39
0
210
0
220
0
230
1
0
LINE
5
EE
100
AcDbEntity
8
SK2
62
256
6
ByLayer
370
13
48
1
60
0
100
AcDbLine
10
29.15
20
-4.0875
30
0
11
29.15
21
-14.713398
31
0
39
0
210
0
220
0
230
1
0
LINE
5
EF
100
AcDbEntity
8
SK2
62
256
6
ByLayer
370
13
48
1
60
0
100
AcDbLine
10
0
20
-12.713398
30
0
11
29.15
21
-12.713398
31
0
39
0
210
0
220
0
230
1
0
SOLID
5
F0
100
AcDbEntity
8
SK2
62
256
6
ByLayer
370
13
48
1
60
0
100
AcDbTrace
10
0
20
-12.713398
30
0
11
3.499998
21
-12.252615
31
0
12
3.500002
22
-13.174182
32
0
13
0
23
-12.713398
33
0
39
0
210
0
220
0
230
1
0
SOLID
5
F1
100
AcDbEntity
8
SK2
62
256
6
ByLayer
370
13
48
1
60
0
100
AcDbTrace
10
29.15
20
-12.713398
30
0
11
25.650002
21
-13.174182
31
0
12
25.649998
22
-12.252615
32
0
13
29.15
23
-12.713398
33
0
39
0
210
0
220
0
230
1
0
ENDBLK
5
F3
100
AcDbEntity
8
0
100
AcDbBlockEnd
0
BLOCK
5
FC
100
AcDbEntity
8
0
100
AcDbBlockBegin
2
DimnDraft3D2
70
0
10
0
20
0
30
0
3
DimnDraft3D2
0
MTEXT
5
F6
100
AcDbEntity
8
SK2
62
256
6
ByLayer
370
13
48
1
60
0
100
AcDbMText
10
-6.957384
20
-30.817985
30
0
210
0
220
0
230
1
1
\W0.7317;66,00
40
3.5
41
0
44
1.084337
50
0
71
7
72
5
7
iso_b_vert
0
LINE
5
F7
100
AcDbEntity
8
SK2
62
256
6
ByLayer
370
13
48
1
60
0
100
AcDbLine
10
-36
20
-4.5875
30
0
11
-36
21
-33.692985
31
0
39
0
210
0
220
0
230
1
0
LINE
5
F8
100
AcDbEntity
8
SK2
62
256
6
ByLayer
370
13
48
1
60
0
100
AcDbLine
10
30
20
-1.5875
30
0
11
30
21
-33.692985
31
0
39
0
210
0
220
0
230
1
0
LINE
5
F9
100
AcDbEntity
8
SK2
62
256
6
ByLayer
370
13
48
1
60
0
100
AcDbLine
10
-36
20
-31.692985
30
0
11
30
21
-31.692985
31
0
39
0
210
0
220
0
230
1
0
SOLID
5
FA
100
AcDbEntity
8
SK2
62
256
6
ByLayer
370
13
48
1
60
0
100
AcDbTrace
10
-36
20
-31.692985
30
0
11
-32.500002
21
-31.232202
31
0
12
-32.499998
22
-32.153769
32
0
13
-36
23
-31.692985
33
0
39
0
210
0
220
0
230
1
0
SOLID
5
FB
100
AcDbEntity
8
SK2
62
256
6
ByLayer
370
13
48
1
60
0
100
AcDbTrace
10
30
20
-31.692985
30
0
11
26.500002
21
-32.153769
31
0
12
26.499998
22
-31.232202
32
0
13
30
23
-31.692985
33
0
39
0
210
0
220
0
230
1
0
ENDBLK
5
FD
100
AcDbEntity
8
0
100
AcDbBlockEnd
0
BLOCK
5
106
100
AcDbEntity
8
0
100
AcDbBlockBegin
2
DimnDraft3D3
70
0
10
0
20
0
30
0
3
DimnDraft3D3
0
MTEXT
5
100
100
AcDbEntity
8
SK2
62
256
6
ByLayer
370
13
48
1
60
0
100
AcDbMText
10
18.063816
20
14.984119
30
0
210
0
220
0
230
1
1
\W0.6713;15,85
40
3.5
41
0
44
1.084337
50
0
71
7
72
5
7
iso_b_vert
0
LINE
5
101
100
AcDbEntity
8
SK2
62
256
6
ByLayer
370
13
48
1
60
0
100
AcDbLine
10
14.15
20
4.0875
30
0
11
14.15
21
16.109119
31
0
39
0
210
0
220
0
230
1
0
LINE
5
102
100
AcDbEntity
8
SK2
62
256
6
ByLayer
370
13
48
1
60
0
100
AcDbLine
10
30
20
1.5875
30
0
11
30
21
16.109119
31
0
39
0
210
0
220
0
230
1
0
LINE
5
103
100
AcDbEntity
8
SK2
62
256
6
ByLayer
370
13
48
1
60
0
100
AcDbLine
10
14.15
20
14.109119
30
0
11
30
21
14.109119
31
0
39
0
210
0
220
0
230
1
0
SOLID
5
104
100
AcDbEntity
8
SK2
62
256
6
ByLayer
370
13
48
1
60
0
100
AcDbTrace
10
14.15
20
14.109119
30
0
11
17.649998
21
14.569903
31
0
12
17.650002
22
13.648335
32
0
13
14.15
23
14.109119
33
0
39
0
210
0
220
0
230
1
0
SOLID
5
105
100
AcDbEntity
8
SK2
62
256
6
ByLayer
370
13
48
1
60
0
100
AcDbTrace
10
30
20
14.109119
30
0
11
26.500002
21
13.648335
31
0
12
26.499998
22
14.569903
32
0
13
30
23
14.109119
33
0
39
0
210
0
220
0
230
1
0
ENDBLK
5
107
100
AcDbEntity
8
0
100
AcDbBlockEnd
0
BLOCK
5
110
100
AcDbEntity
8
0
100
AcDbBlockBegin
2
DimnDraft3D4
70
0
10
0
20
0
30
0
3
DimnDraft3D4
0
MTEXT
5
10A
100
AcDbEntity
8
SK2
62
256
6
ByLayer
370
13
48
1
60
0
100
AcDbMText
10
36.840636
20
-14.427503
30
0
210
0
220
0
230
1
1
\W0.7150;0,85
40
3.5
41
0
44
1.084337
50
0
71
7
72
5
7
iso_b_vert
0
LINE
5
10B
100
AcDbEntity
8
SK2
62
256
6
ByLayer
370
13
48
1
60
0
100
AcDbLine
10
30
20
-1.5875
30
0
11
30
21
-17.302503
31
0
39
0
210
0
220
0
230
1
0
LINE
5
10C
100
AcDbEntity
8
SK2
62
256
6
ByLayer
370
13
48
1
60
0
100
AcDbLine
10
29.15
20
-4.0875
30
0
11
29.15
21
-17.302503
31
0
39
0
210
0
220
0
230
1
0
LINE
5
10D
100
AcDbEntity
8
SK2
62
256
6
ByLayer
370
13
48
1
60
0
100
AcDbLine
10
20.4
20
-15.302503
30
0
11
43.997215
21
-15.302503
31
0
39
0
210
0
220
0
230
1
0
SOLID
5
10E
100
AcDbEntity
8
SK2
62
256
6
ByLayer
370
13
48
1
60
0
100
AcDbTrace
10
30
20
-15.302503
30
0
11
33.499998
21
-14.841719
31
0
12
33.500002
22
-15.763287
32
0
13
30
23
-15.302503
33
0
39
0
210
0
220
0
230
1
0
SOLID
5
10F
100
AcDbEntity
8
SK2
62
256
6
ByLayer
370
13
48
1
60
0
100
AcDbTrace
10
29.15
20
-15.302503
30
0
11
25.650002
21
-15.763287
31
0
12
25.649998
22
-14.841719
32
0
13
29.15
23
-15.302503
33
0
39
0
210
0
220
0
230
1
0
ENDBLK
5
111
100
AcDbEntity
8
0
100
AcDbBlockEnd
0
BLOCK
5
11A
100
AcDbEntity
8
0
100
AcDbBlockBegin
2
DimnDraft3D5
70
0
10
0
20
0
30
0
3
DimnDraft3D5
0
MTEXT
5
114
100
AcDbEntity
8
SK2
62
256
6
ByLayer
370
13
48
1
60
0
100
AcDbMText
10
-9.600508
20
-20.468428
30
0
210
0
220
0
230
1
1
\W0.6713;65,15
40
3.5
41
0
44
1.084337
50
0
71
7
72
5
7
iso_b_vert
0
LINE
5
115
100
AcDbEntity
8
SK2
62
256
6
ByLayer
370
13
48
1
60
0
100
AcDbLine
10
-36
20
-4.5875
30
0
11
-36
21
-23.343428
31
0
39
0
210
0
220
0
230
1
0
LINE
5
116
100
AcDbEntity
8
SK2
62
256
6
ByLayer
370
13
48
1
60
0
100
AcDbLine
10
29.15
20
-4.0875
30
0
11
29.15
21
-23.343428
31
0
39
0
210
0
220
0
230
1
0
LINE
5
117
100
AcDbEntity
8
SK2
62
256
6
ByLayer
370
13
48
1
60
0
100
AcDbLine
10
-36
20
-21.343428
30
0
11
29.15
21
-21.343428
31
0
39
0
210
0
220
0
230
1
0
SOLID
5
118
100
AcDbEntity
8
SK2
62
256
6
ByLayer
370
13
48
1
60
0
100
AcDbTrace
10
-36
20
-21.343428
30
0
11
-32.500002
21
-20.882645
31
0
12
-32.499998
22
-21.804212
32
0
13
-36
23
-21.343428
33
0
39
0
210
0
220
0
230
1
0
SOLID
5
119
100
AcDbEntity
8
SK2
62
256
6
ByLayer
370
13
48
1
60
0
100
AcDbTrace
10
29.15
20
-21.343428
30
0
11
25.650002
21
-21.804212
31
0
12
25.649998
22
-20.882645
32
0
13
29.15
23
-21.343428
33
0
39
0
210
0
220
0
230
1
0
ENDBLK
5
11B
100
AcDbEntity
8
0
100
AcDbBlockEnd
0
BLOCK
5
125
100
AcDbEntity
8
0
100
AcDbBlockBegin
2
DimnDraft3D6
70
0
10
0
20
0
30
0
3
DimnDraft3D6
0
MTEXT
5
11E
100
AcDbEntity
8
SK2
62
256
6
ByLayer
370
13
48
1
60
0
100
AcDbMText
10
-46.375163
20
22.34918
30
0
210
0
220
0
230
1
1
\W0.7317;6,000
40
3.5
41
0
44
1.084337
50
90
71
7
72
5
7
iso_b_vert
0
MTEXT
5
11F
100
AcDbEntity
8
SK2
62
256
6
ByLayer
370
13
48
1
60
0
100
AcDbMText
10
-46.375163
20
17.126524
30
0
210
0
220
0
230
1
1
%%c
40
3.5
41
0
44
1.084337
50
90
71
7
72
5
7
iso_b_vert
0
LINE
5
120
100
AcDbEntity
8
SK2
62
256
6
ByLayer
370
13
48
1
60
0
100
AcDbLine
10
-37.5875
20
-3
30
0
11
-46.625163
21
-3
31
0
39
0
210
0
220
0
230
1
0
LINE
5
121
100
AcDbEntity
8
SK2
62
256
6
ByLayer
370
13
48
1
60
0
100
AcDbLine
10
-37.5875
20
3
30
0
11
-46.625163
21
3
31
0
39
0
210
0
220
0
230
1
0
LINE
5
122
100
AcDbEntity
8
SK2
62
256
6
ByLayer
370
13
48
1
60
0
100
AcDbLine
10
-44.625163
20
32.121549
30
0
11
-44.625163
21
-11.75
31
0
39
0
210
0
220
0
230
1
0
SOLID
5
123
100
AcDbEntity
8
SK2
62
256
6
ByLayer
370
13
48
1
60
0
100
AcDbTrace
10
-44.625163
20
-3
30
0
11
-44.164379
21
-6.499998
31
0
12
-45.085946
22
-6.500002
32
0
13
-44.625163
23
-3
33
0
39
0
210
0
220
0
230
1
0
SOLID
5
124
100
AcDbEntity
8
SK2
62
256
6
ByLayer
370
13
48
1
60
0
100
AcDbTrace
10
-44.625163
20
3
30
0
11
-45.085946
21
6.499998
31
0
12
-44.164379
22
6.500002
32
0
13
-44.625163
23
3
33
0
39
0
210
0
220
0
230
1
0
ENDBLK
5
126
100
AcDbEntity
8
0
100
AcDbBlockEnd
0
BLOCK
5
130
100
AcDbEntity
8
0
100
AcDbBlockBegin
2
DimnDraft3D7
70
0
10
0
20
0
30
0
3
DimnDraft3D7
0
MTEXT
5
129
100
AcDbEntity
8
2
62
256
6
ByLayer
370
13
48
1
60
0
100
AcDbMText
10
40.333343
20
20.442266
30
0
210
0
220
0
230
1
1
\W0.7317;5,000
40
3.5
41
0
44
1.084337
50
90
71
7
72
5
7
iso_b_vert
0
MTEXT
5
12A
100
AcDbEntity
8
2
62
256
6
ByLayer
370
13
48
1
60
0
100
AcDbMText
10
40.333343
20
15.21961
30
0
210
0
220
0
230
1
1
%%c
40
3.5
41
0
44
1.084337
50
90
71
7
72
5
7
iso_b_vert
0
LINE
5
12B
100
AcDbEntity
8
2
62
256
6
ByLayer
370
13
48
1
60
0
100
AcDbLine
10
30.7375
20
-2.5
30
0
11
44.083343
21
-2.5
31
0
39
0
210
0
220
0
230
1
0
LINE
5
12C
100
AcDbEntity
8
2
62
256
6
ByLayer
370
13
48
1
60
0
100
AcDbLine
10
30.7375
20
2.5
30
0
11
44.083343
21
2.5
31
0
39
0
210
0
220
0
230
1
0
LINE
5
12D
100
AcDbEntity
8
2
62
256
6
ByLayer
370
13
48
1
60
0
100
AcDbLine
10
42.083343
20
30.214635
30
0
11
42.083343
21
-11.25
31
0
39
0
210
0
220
0
230
1
0
SOLID
5
12E
100
AcDbEntity
8
2
62
256
6
ByLayer
370
13
48
1
60
0
100
AcDbTrace
10
42.083343
20
-2.5
30
0
11
42.544126
21
-5.999998
31
0
12
41.622559
22
-6.000002
32
0
13
42.083343
23
-2.5
33
0
39
0
210
0
220
0
230
1
0
SOLID
5
12F
100
AcDbEntity
8
2
62
256
6
ByLayer
370
13
48
1
60
0
100
AcDbTrace
10
42.083343
20
2.5
30
0
11
41.622559
21
5.999998
31
0
12
42.544126
22
6.000002
32
0
13
42.083343
23
2.5
33
0
39
0
210
0
220
0
230
1
0
ENDBLK
5
131
100
AcDbEntity
8
0
100
AcDbBlockEnd
0
ENDSEC
0
SECTION
2
ENTITIES
0
ARC
5
9B
100
AcDbEntity
8
1
62
256
6
ByLayer
370
18
48
1
60
0
100
AcDbCircle
39
0
10
0
20
2.2
30
0
40
0.800000000000001
210
0
220
0
230
1
100
AcDbArc
50
42.608718
51
90
0
ARC
5
9C
100
AcDbEntity
8
1
62
256
6
ByLayer
370
18
48
1
60
0
100
AcDbCircle
39
0
10
-1.177591
20
-3.283181
30
0
40
0.799999999999996
210
0
220
0
230
-1
100
AcDbArc
50
42.608718
51
90.034377
0
ARC
5
9D
100
AcDbEntity
8
1
62
256
6
ByLayer
370
18
48
1
60
0
100
AcDbCircle
39
0
10
0
20
-2.2
30
0
40
0.800000000000001
210
0
220
0
230
1
100
AcDbArc
50
270
51
317.391282
0
ARC
5
9E
100
AcDbEntity
8
1
62
256
6
ByLayer
370
18
48
1
60
0
100
AcDbCircle
39
0
10
-1.177591
20
3.283181
30
0
40
0.799999999999996
210
0
220
0
230
-1
100
AcDbArc
50
269.965623
51
317.391282
0
ELLIPSE
5
9F
100
AcDbEntity
8
1
62
256
6
ByLayer
370
18
48
1
60
0
100
AcDbEllipse
10
4.25
20
-2.611355
30
0
11
-0.25
21
3.06151588455594E-17
31
0
210
0
220
0
230
1
40
0.999968
41
-1.57023365442045
42
-0.558218628263337
0
ELLIPSE
5
A0
100
AcDbEntity
8
1
62
256
6
ByLayer
370
18
48
1
60
0
100
AcDbEllipse
10
4.25
20
2.611355
30
0
11
-0.25
21
3.06151588455594E-17
31
0
210
0
220
0
230
1
40
0.999968
41
0.556008117870403
42
1.58140604978175
0
ELLIPSE
5
A1
100
AcDbEntity
8
1
62
256
6
ByLayer
370
13
48
1
60
0
100
AcDbEllipse
10
4.180846
20
1.06655
30
0
11
-0.0560017353917191
21
-0.0828480876853285
31
0
210
0
220
0
230
1
40
0.205563
41
-0.959062143990734
42
-0.370372828754752
0
ELLIPSE
5
A2
100
AcDbEntity
8
1
62
256
6
ByLayer
370
18
48
1
60
0
100
AcDbEllipse
10
30.000232
20
-0.000546
30
0
11
0.927283645825678
21
-2.49748761608526
31
0
210
0
220
0
230
-1
40
0.131755
41
-2.96399939239895
42
-2.8444395129716
0
ELLIPSE
5
A3
100
AcDbEntity
8
1
62
256
6
ByLayer
370
18
48
1
60
0
100
AcDbEllipse
10
30.000232
20
0.000546
30
0
11
0.927283656612208
21
2.49748764824972
31
0
210
0
220
0
230
-1
40
0.131755
41
2.84443951491295
42
2.96399939355703
0
ELLIPSE
5
A4
100
AcDbEntity
8
1
62
256
6
ByLayer
370
18
48
1
60
0
100
AcDbEllipse
10
29.489551
20
-1.29559
30
0
11
0.389385275927406
21
1.04874588938647
31
0
210
0
220
0
230
-1
40
0.131755
41
0.736518128026744
42
1.46830886405255
0
ELLIPSE
5
A5
100
AcDbEntity
8
1
62
256
6
ByLayer
370
18
48
1
60
0
100
AcDbEllipse
10
29.860843
20
0.094834
30
0
11
0.0727819104927731
21
0.301917195714567
31
0
210
0
220
0
230
-1
40
0.478434
41
1.68661194620322
42
2.45976119973166
0
ELLIPSE
5
A6
100
AcDbEntity
8
1
62
256
6
ByLayer
370
18
48
1
60
0
100
AcDbEllipse
10
30.057571
20
0.021891
30
0
11
0.135544944378925
21
0.42706820993676
31
0
210
0
220
0
230
-1
40
0.100282
41
-2.33653286890602
42
-1.71341872074786
0
ELLIPSE
5
A7
100
AcDbEntity
8
1
62
256
6
ByLayer
370
18
48
1
60
0
100
AcDbEllipse
10
30.057571
20
-0.021891
30
0
11
0.135544944359918
21
-0.427068209889256
31
0
210
0
220
0
230
-1
40
0.100282
41
1.713418720669
42
2.33653286888575
0
ELLIPSE
5
A8
100
AcDbEntity
8
1
62
256
6
ByLayer
370
13
48
1
60
0
100
AcDbEllipse
10
29.445964
20
0.340996
30
0
11
0.153082081612423
21
0.258003636193771
31
0
210
0
220
0
230
1
40
0.454519
41
0.917105603404823
42
2.31336900500028
0
ELLIPSE
5
A9
100
AcDbEntity
8
1
62
256
6
ByLayer
370
13
48
1
60
0
100
AcDbEllipse
10
29.81629
20
1.29559
30
0
11
1.61532976802979
21
-0.728850814700303
31
0
210
0
220
0
230
-1
40
0.46791
41
1.58896494145877
42
1.86876216914568
0
ELLIPSE
5
AA
100
AcDbEntity
8
1
62
256
6
ByLayer
370
18
48
1
60
0
100
AcDbEllipse
10
29.489551
20
1.29559
30
0
11
0.389385275915247
21
-1.04874588936109
31
0
210
0
220
0
230
-1
40
0.131755
41
-1.46830886406746
42
-0.736518128024879
0
ELLIPSE
5
AB
100
AcDbEntity
8
1
62
256
6
ByLayer
370
13
48
1
60
0
100
AcDbEllipse
10
29.626384
20
1.172393
30
0
11
1.54960366906397
21
-1.0669461912639
31
0
210
0
220
0
230
-1
40
0.533762
41
1.44484622734412
42
1.68928476217908
0
POINT
5
6C
100
AcDbEntity
8
81
62
256
6
ByLayer
370
18
48
1
60
0
100
AcDbPoint
10
30
20
0
30
0
39
0
210
0
220
0
230
1
50
360
0
POINT
5
6E
100
AcDbEntity
8
80
62
256
6
ByLayer
370
18
48
1
60
0
100
AcDbPoint
10
0
20
0
30
0
39
0
210
0
220
0
230
1
50
360
0
POINT
5
70
100
AcDbEntity
8
SK2
62
256
6
ByLayer
370
18
48
1
60
1
100
AcDbPoint
10
-36
20
-3
30
0
39
0
210
0
220
0
230
1
50
360
0
POINT
5
72
100
AcDbEntity
8
SK2
62
256
6
ByLayer
370
18
48
1
60
1
100
AcDbPoint
10
-36
20
3
30
0
39
0
210
0
220
0
230
1
50
360
0
POINT
5
73
100
AcDbEntity
8
2
62
256
6
ByLayer
370
18
48
1
60
1
100
AcDbPoint
10
29.15
20
-2.5
30
0
39
0
210
0
220
0
230
1
50
360
0
POINT
5
75
100
AcDbEntity
8
2
62
256
6
ByLayer
370
18
48
1
60
1
100
AcDbPoint
10
29.15
20
2.5
30
0
39
0
210
0
220
0
230
1
50
360
0
SPLINE
5
AC
100
AcDbEntity
8
1
62
256
6
ByLayer
370
18
48
1
60
0
100
AcDbSpline
70
4
71
1
72
4
73
2
40
0
40
0
40
1
40
1
41
1
10
4.06097894652208
20
1.05248235128252
30
0
41
1
10
4.06679940960828
20
1.04323232348995
30
0
0
SPLINE
5
AD
100
AcDbEntity
8
1
62
256
6
ByLayer
370
18
48
1
60
0
100
AcDbSpline
70
4
71
3
72
11
73
7
40
0
40
0
40
0
40
0
40
0.413837419072481
40
0.588406967744256
40
0.73468591351297
40
1
40
1
40
1
40
1
41
1
10
21.8706408832341
20
-0.705244102424132
30
0
41
1
10
21.8706077652698
20
-0.705336360255927
30
0
41
1
10
21.9007525551162
20
-0.715244722490951
30
0
41
1
10
21.9851657485183
20
-0.753094959906491
30
0
41
1
10
22.1153447580179
20
-0.811493278548426
30
0
41
1
10
22.21170223832
20
-0.857679882262374
30
0
41
1
10
22.2814977038095
20
-0.891807552863355
30
0
0
SPLINE
5
AE
100
AcDbEntity
8
1
62
256
6
ByLayer
370
18
48
1
60
0
100
AcDbSpline
70
4
71
3
72
18
73
14
40
0
40
0
40
0
40
0
40
0.112181276576613
40
0.190677566146858
40
0.248816996198091
40
0.31059713298403
40
0.410109984034409
40
0.504139843718656
40
0.723186013904953
40
0.768681819443688
40
0.83159152118739
40
0.917763698242507
40
1
40
1
40
1
40
1
41
1
10
13.7483882844742
20
-2.36574858863679
30
0
41
1
10
14.0173407655041
20
-2.36610281644485
30
0
41
1
10
14.4745287747445
20
-2.36658234673431
30
0
41
1
10
15.071469389685
20
-2.36633515264612
30
0
41
1
10
15.5471871166235
20
-2.36681706468607
30
0
41
1
10
16.0735944502512
20
-2.36770386141495
30
0
41
1
10
16.6860290316404
20
-2.36689967897593
30
0
41
1
10
17.6757301052058
20
-2.36913044223962
30
0
41
1
10
18.5358443064784
20
-2.36723955941997
30
0
41
1
10
19.3213169898985
20
-2.36957132731087
30
0
41
1
10
19.7880408333925
20
-2.3688905202884
30
0
41
1
10
20.3429181221977
20
-2.36770545018015
30
0
41
1
10
20.7468592217432
20
-2.36899721984941
30
0
41
1
10
20.9441063769093
20
-2.36994292504619
30
0
0
SPLINE
5
AF
100
AcDbEntity
8
1
62
256
6
ByLayer
370
18
48
1
60
0
100
AcDbSpline
70
4
71
2
72
6
73
3
40
0
40
0
40
0
40
1
40
1
40
1
41
1
10
28.6350529186963
20
-2.374444908112
30
0
41
1
10
28.8794612352911
20
-2.3740869798882
30
0
41
1
10
29.1239225357147
20
-2.3750152324215
30
0
0
SPLINE
5
B0
100
AcDbEntity
8
1
62
256
6
ByLayer
370
18
48
1
60
0
100
AcDbSpline
70
4
71
2
72
6
73
3
40
0
40
0
40
0
40
1
40
1
40
1
41
1
10
5.99020678449159
20
2.36248026333894
30
0
41
1
10
5.12072439089428
20
2.36381953398381
30
0
41
1
10
4.25123298584589
20
2.36085459770359
30
0
0
SPLINE
5
B1
100
AcDbEntity
8
1
62
256
6
ByLayer
370
18
48
1
60
0
100
AcDbSpline
70
4
71
3
72
21
73
17
40
0
40
0
40
0
40
0
40
0.0954090124446434
40
0.187348756133029
40
0.25735090688952
40
0.326705655733615
40
0.39702089625403
40
0.468966047717581
40
0.544952279122296
40
0.616367041718156
40
0.692178617111817
40
0.77189621423421
40
0.850647810748738
40
0.919062644352127
40
0.992333401834637
40
1
40
1
40
1
40
1
41
1
10
20.947638630059
20
2.36993396860277
30
0
41
1
10
20.7603041622867
20
2.36901341184773
30
0
41
1
10
20.3924462789817
20
2.36785500693389
30
0
41
1
10
19.8871462146751
20
2.36857568622978
30
0
41
1
10
19.432987328157
20
2.36969624086063
30
0
41
1
10
19.0213262396737
20
2.36853171845874
30
0
41
1
10
18.6058246700314
20
2.36837109985205
30
0
41
1
10
18.1773014298261
20
2.36702064570329
30
0
41
1
10
17.7466196369064
20
2.36772696507961
30
0
41
1
10
17.3083415249236
20
2.36842576487965
30
0
41
1
10
16.8627384255922
20
2.3674268158816
30
0
41
1
10
16.4027300966728
20
2.36713555260854
30
0
41
1
10
15.957245556898
20
2.36757998317609
30
0
41
1
10
15.5244110156808
20
2.36675408127471
30
0
41
1
10
15.2311815780164
20
2.36652233642067
30
0
41
1
10
15.0722647965894
20
2.366488275324
30
0
41
1
10
15.0572117164188
20
2.36648574686203
30
0
0
SPLINE
5
B2
100
AcDbEntity
8
1
62
256
6
ByLayer
370
18
48
1
60
0
100
AcDbSpline
70
4
71
3
72
8
73
4
40
0
40
0
40
0
40
0
40
1
40
1
40
1
40
1
41
1
10
13.0798438467956
20
0.191209015713724
30
0
41
1
10
13.080352210248
20
0.191457412449637
30
0
41
1
10
13.0734079709781
20
0.194966313934771
30
0
41
1
10
13.0600993672546
20
0.201172828092666
30
0
0
SPLINE
5
B3
100
AcDbEntity
8
1
62
256
6
ByLayer
370
18
48
1
60
0
100
AcDbSpline
70
4
71
2
72
6
73
3
40
0
40
0
40
0
40
1
40
1
40
1
41
1
10
4.25123298584589
20
-2.36085459770359
30
0
41
1
10
5.12085842559935
20
-2.36381980518357
30
0
41
1
10
5.99047485251259
20
-2.36248014223025
30
0
0
SPLINE
5
B4
100
AcDbEntity
8
1
62
256
6
ByLayer
370
18
48
1
60
0
100
AcDbSpline
70
4
71
3
72
14
73
10
40
0
40
0
40
0
40
0
40
0.25
40
0.25
40
0.499999999999999
40
0.499999999999999
40
0.75
40
0.75
40
1
40
1
40
1
40
1
41
1
10
4.25144514039633
20
-2.18065878606552
30
0
41
1
10
4.23154022273579
20
-2.17607522542627
30
0
41
1
10
4.21148919126969
20
-2.17394123296228
30
0
41
1
10
4.17105994003902
20
-2.17537409186715
30
0
41
1
10
4.1506491705355
20
-2.17905816273611
30
0
41
1
10
4.11203856938397
20
-2.19295521837796
30
0
41
1
10
4.09335974742172
20
-2.20341401561427
30
0
41
1
10
4.06064903465384
20
-2.23019194336547
30
0
41
1
10
4.04607941239647
20
-2.24695688958522
30
0
41
1
10
4.03453491215379
20
-2.26569235214706
30
0
0
SPLINE
5
B5
100
AcDbEntity
8
1
62
256
6
ByLayer
370
18
48
1
60
0
100
AcDbSpline
70
4
71
3
72
8
73
4
40
0
40
0
40
0
40
0
40
1
40
1
40
1
40
1
41
1
10
29.1703343630709
20
-2.3657016788176
30
0
41
1
10
29.1576822138468
20
-2.37186281828409
30
0
41
1
10
29.1460966051066
20
-2.37495675748991
30
0
41
1
10
29.1355954395873
20
-2.37493201100784
30
0
0
SPLINE
5
B6
100
AcDbEntity
8
1
62
256
6
ByLayer
370
18
48
1
60
0
100
AcDbSpline
70
4
71
3
72
14
73
10
40
0
40
0
40
0
40
0
40
0.353110188860687
40
0.353110188860687
40
0.612749526395724
40
0.612749526395724
40
0.872388863930761
40
0.872388863930761
40
1
40
1
40
1
40
1
41
1
10
28.6710173779744
20
-2.37444105155455
30
0
41
1
10
28.3178871014724
20
-2.37134508793412
30
0
41
1
10
27.9656881233444
20
-2.34861061566247
30
0
41
1
10
27.3533973925209
20
-2.27613415340736
30
0
41
1
10
27.0935834633425
20
-2.23514256085775
30
0
41
1
10
26.5717498293874
20
-2.1330684764495
30
0
41
1
10
26.3102571930781
20
-2.07201563099494
30
0
41
1
10
25.9216641646273
20
-1.96783322327423
30
0
41
1
10
25.7936807597583
20
-1.93135952839887
30
0
41
1
10
25.6656826951879
20
-1.89284456218911
30
0
0
SPLINE
5
B7
100
AcDbEntity
8
1
62
256
6
ByLayer
370
13
48
1
60
0
100
AcDbSpline
70
4
71
3
72
24
73
20
40
0
40
0
40
0
40
0
40
0.0493721298497113
40
0.0493721298497113
40
0.146464621791866
40
0.146464621791866
40
0.340649605676177
40
0.340649605676177
40
0.534834589560488
40
0.534834589560488
40
0.583380835531566
40
0.583380835531566
40
0.631927081502643
40
0.631927081502643
40
0.729019573444799
40
0.729019573444799
40
0.92320455732911
40
0.92320455732911
40
1
40
1
40
1
40
1
41
1
10
25.6656826951853
20
-1.89284456218834
30
0
41
1
10
25.5332541722775
20
-1.85299645899929
30
0
41
1
10
25.4008099572581
20
-1.81096332783758
30
0
41
1
10
25.0075831287599
20
-1.68012022166079
30
0
41
1
10
24.7457473141485
20
-1.58496928518949
30
0
41
1
10
23.9643717419886
20
-1.28091444670392
30
0
41
1
10
23.4484631894871
20
-1.05379234888471
30
0
41
1
10
22.4160912326659
20
-0.570867691985086
30
0
41
1
10
21.8996816568859
20
-0.314836139382294
30
0
41
1
10
21.247063861099
20
0.0098239494652432
30
0
41
1
10
21.1162266559988
20
0.074964702678983
30
0
41
1
10
20.8557091234634
20
0.20432879462814
30
0
41
1
10
20.7257775131052
20
0.26868123553092
30
0
41
1
10
20.3367584534435
20
0.460426311841815
30
0
41
1
10
20.078338709138
20
0.586257904869882
30
0
41
1
10
19.3038184815051
20
0.953721624264375
30
0
41
1
10
18.7885745682024
20
1.18548579020151
30
0
41
1
10
18.0637742044355
20
1.47674471649225
30
0
41
1
10
17.8572978421202
20
1.55578793024594
30
0
41
1
10
17.6506081885457
20
1.63024364079132
30
0
0
SPLINE
5
B8
100
AcDbEntity
8
1
62
256
6
ByLayer
370
18
48
1
60
0
100
AcDbSpline
70
4
71
3
72
18
73
14
40
0
40
0
40
0
40
0
40
0.250000000000006
40
0.250000000000006
40
0.500000000000012
40
0.500000000000012
40
0.625000000000009
40
0.625000000000009
40
0.750000000000006
40
0.750000000000006
40
0.875000000000003
40
0.875000000000003
40
1
40
1
40
1
40
1
41
1
10
29.6668415011845
20
1.23932919284536
30
0
41
1
10
29.6297276470325
20
1.33963900397003
30
0
41
1
10
29.592503552501
20
1.43988540859127
30
0
41
1
10
29.5173844401793
20
1.63969165306042
30
0
41
1
10
29.4794930285907
20
1.73920821427359
30
0
41
1
10
29.4224650467137
20
1.88801070471993
30
0
41
1
10
29.4034024556648
20
1.93749425201452
30
0
41
1
10
29.3650663006626
20
2.03599679986544
30
0
41
1
10
29.3457815169012
20
2.08501475261116
30
0
41
1
10
29.3071725465647
20
2.18282508297625
30
0
41
1
10
29.2878121687068
20
2.23159450863432
30
0
41
1
10
29.2489535182302
20
2.32821509422723
30
0
41
1
10
29.2294615242446
20
2.37590486704644
30
0
41
1
10
29.2099356442019
20
2.4232591141635
30
0
0
SPLINE
5
B9
100
AcDbEntity
8
1
62
256
6
ByLayer
370
18
48
1
60
0
100
AcDbSpline
70
4
71
3
72
15
73
11
40
0
40
0
40
0
40
0
40
0.104574749452921
40
0.104574749452921
40
0.328431062089691
40
0.328431062089691
40
0.552287374726461
40
0.776143687363231
40
0.776143687363231
40
1
40
1
40
1
40
1
41
1
10
4.03439069027238
20
-2.48489447061434
30
0
41
1
10
4.03439677345827
20
-2.48501033438822
30
0
41
1
10
4.03440280438895
20
-2.48430295943058
30
0
41
1
10
4.03442158025169
20
-2.47947771856667
30
0
41
1
10
4.03443405948082
20
-2.47233721803994
30
0
41
1
10
4.03445783565422
20
-2.45073496696534
30
0
41
1
10
4.03448055280583
20
-2.42178970958182
30
0
41
1
10
4.03450068658151
20
-2.3783501949514
30
0
41
1
10
4.03451917138861
20
-2.32756131574482
30
0
41
1
10
4.03452762543657
20
-2.29831891862551
30
0
41
1
10
4.03453491215225
20
-2.26569235214703
30
0
0
SPLINE
5
BA
100
AcDbEntity
8
1
62
256
6
ByLayer
370
18
48
1
60
0
100
AcDbSpline
70
4
71
3
72
18
73
14
40
0
40
0
40
0
40
0
40
0.194687038099815
40
0.194687038099815
40
0.38937407619963
40
0.38937407619963
40
0.584061114299445
40
0.584061114299445
40
0.77874815239926
40
0.77874815239926
40
0.973435190499075
40
0.973435190499075
40
1
40
1
40
1
40
1
41
1
10
9.96393422971519
20
-1.9833641366026
30
0
41
1
10
10.1659775070263
20
-2.04770682258464
30
0
41
1
10
10.3676354886268
20
-2.10563456737836
30
0
41
1
10
10.7694980219657
20
-2.21009819509064
30
0
41
1
10
10.9693404559195
20
-2.25686555160479
30
0
41
1
10
11.3692196696908
20
-2.33748126094548
30
0
41
1
10
11.5691768506033
20
-2.37151454575232
30
0
41
1
10
11.9683543691573
20
-2.42746642716281
30
0
41
1
10
12.1679574336761
20
-2.44910184921508
30
0
41
1
10
12.5685533600248
20
-2.47923962357328
30
0
41
1
10
12.7690526285851
20
-2.48790636340021
30
0
41
1
10
12.9975873620384
20
-2.49014302461214
30
0
41
1
10
13.0250615264454
20
-2.49028681288513
30
0
41
1
10
13.0525626913986
20
-2.49030597384214
30
0
0
SPLINE
5
BB
100
AcDbEntity
8
1
62
256
6
ByLayer
370
18
48
1
60
0
100
AcDbSpline
70
4
71
3
72
24
73
20
40
0
40
0
40
0
40
0
40
0.0104520950779761
40
0.0104520950779761
40
0.134145583193229
40
0.134145583193229
40
0.257839071308482
40
0.257839071308482
40
0.381532559423735
40
0.381532559423735
40
0.505226047538988
40
0.505226047538988
40
0.628919535654241
40
0.628919535654241
40
0.752613023769494
40
0.752613023769494
40
0.876306511884747
40
0.876306511884747
40
1
40
1
40
1
40
1
41
1
10
24.3488704633729
20
1.7898403938762
30
0
41
1
10
24.3658242074669
20
1.79604132244236
30
0
41
1
10
24.3827709027634
20
1.80221016182489
30
0
41
1
10
24.6001765993898
20
1.88097706228356
30
0
41
1
10
24.7998281403727
20
1.94878853679685
30
0
41
1
10
25.1993466720031
20
2.07271935041984
30
0
41
1
10
25.3986262636826
20
2.12955762886381
30
0
41
1
10
25.7970685171998
20
2.23194028020029
30
0
41
1
10
25.9967050317918
20
2.27707691402978
30
0
41
1
10
26.3964287977327
20
2.35562778285643
30
0
41
1
10
26.5961935928468
20
2.38917397198685
30
0
41
1
10
26.9980977735765
20
2.44299578651877
30
0
41
1
10
27.2004329553902
20
2.46358225356539
30
0
41
1
10
27.6039098478705
20
2.49152193394556
30
0
41
1
10
27.8050832892062
20
2.4987038243469
30
0
41
1
10
28.2070837311786
20
2.49980926415466
30
0
41
1
10
28.4073642509171
20
2.49369593909094
30
0
41
1
10
28.8082362988189
20
2.46823503272137
30
0
41
1
10
29.0091208719127
20
2.44906937400191
30
0
41
1
10
29.2099356441843
20
2.42325911417871
30
0
0
SPLINE
5
BC
100
AcDbEntity
8
1
62
256
6
ByLayer
370
18
48
1
60
0
100
AcDbSpline
70
4
71
3
72
14
73
10
40
0
40
0
40
0
40
0
40
0.25
40
0.25
40
0.5
40
0.5
40
0.75
40
0.75
40
1
40
1
40
1
40
1
41
1
10
28.8777009148472
20
0.477198160586767
30
0
41
1
10
28.8709841818868
20
0.50672842075943
30
0
41
1
10
28.8674635634685
20
0.537108040973095
30
0
41
1
10
28.8670577801807
20
0.599769148139131
30
0
41
1
10
28.8707750995748
20
0.631918645262203
30
0
41
1
10
28.8879698205093
20
0.694471134995553
30
0
41
1
10
28.905388266255
20
0.723387992846682
30
0
41
1
10
28.9540066150545
20
0.765894052653977
30
0
41
1
10
28.9845347364476
20
0.779578636355325
30
0
41
1
10
29.0160589792626
20
0.78704009549557
30
0
0
SPLINE
5
BD
100
AcDbEntity
8
1
62
256
6
ByLayer
370
18
48
1
60
0
100
AcDbSpline
70
4
71
3
72
8
73
4
40
0
40
0
40
0
40
0
40
1
40
1
40
1
40
1
41
1
10
29.1456649123165
20
-2.47924389377454
30
0
41
1
10
29.1490339937959
20
-2.47024324954637
30
0
41
1
10
29.152400836532
20
-2.46124032392348
30
0
41
1
10
29.1557653946801
20
-2.45223524352494
30
0
0
SPLINE
5
BE
100
AcDbEntity
8
1
62
256
6
ByLayer
370
18
48
1
60
0
100
AcDbSpline
70
4
71
3
72
70
73
66
40
0
40
0
40
0
40
0
40
0.0332989228549939
40
0.0332989228549939
40
0.0665978457099878
40
0.0665978457099878
40
0.0998967685649818
40
0.0998967685649818
40
0.133195691419976
40
0.133195691419976
40
0.16649461427497
40
0.16649461427497
40
0.199793537129964
40
0.199793537129964
40
0.233092459984958
40
0.233092459984958
40
0.266391382839951
40
0.266391382839951
40
0.299690305694945
40
0.299690305694945
40
0.332989228549939
40
0.332989228549939
40
0.366288151404933
40
0.366288151404933
40
0.38293761283243
40
0.38293761283243
40
0.399587074259927
40
0.399587074259927
40
0.432885997114921
40
0.432885997114921
40
0.466184919969915
40
0.466184919969915
40
0.499483842824909
40
0.499483842824909
40
0.532782765679903
40
0.532782765679903
40
0.566081688534897
40
0.566081688534897
40
0.599380611389891
40
0.599380611389891
40
0.632679534244885
40
0.632679534244885
40
0.665978457099878
40
0.665978457099878
40
0.699277379954872
40
0.699277379954872
40
0.732576302809866
40
0.732576302809866
40
0.76587522566486
40
0.76587522566486
40
0.799174148519854
40
0.799174148519854
40
0.832473071374848
40
0.832473071374848
40
0.865771994229842
40
0.865771994229842
40
0.899070917084836
40
0.899070917084836
40
0.93236983993983
40
0.93236983993983
40
0.965668762794826
40
0.965668762794826
40
0.998967685649821
40
0.998967685649821
40
1
40
1
40
1
40
1
41
1
10
9.96393422971519
20
1.9833641366026
30
0
41
1
10
10.1659775070263
20
2.04770682258461
30
0
41
1
10
10.3676354886268
20
2.10563456737833
30
0
41
1
10
10.7694980219656
20
2.21009819509064
30
0
41
1
10
10.9693404559195
20
2.25686555160479
30
0
41
1
10
11.3692196696908
20
2.33748126094548
30
0
41
1
10
11.5691768506033
20
2.37151454575232
30
0
41
1
10
11.9683543691572
20
2.42746642716281
30
0
41
1
10
12.1679574336761
20
2.44910184921508
30
0
41
1
10
12.5685533600248
20
2.47923962357325
30
0
41
1
10
12.7690526285851
20
2.48790636340021
30
0
41
1
10
13.1712436235208
20
2.49184259219379
30
0
41
1
10
13.3742151503153
20
2.4871098402497
30
0
41
1
10
13.7776689232606
20
2.46434591346204
30
0
41
1
10
13.9781793275555
20
2.44621242739961
30
0
41
1
10
14.3790983021114
20
2.39753339496747
30
0
41
1
10
14.5792356251261
20
2.36697233576928
30
0
41
1
10
14.9783177034855
20
2.29301277427237
30
0
41
1
10
15.1779271428276
20
2.25003886033846
30
0
41
1
10
15.5777026478716
20
2.15264944014973
30
0
41
1
10
15.7773870555848
20
2.09774071363196
30
0
41
1
10
16.1781383211443
20
1.97706884292649
30
0
41
1
10
16.379426396287
20
1.91166148980415
30
0
41
1
10
16.6821155699533
20
1.80499634302302
30
0
41
1
10
16.7832382995391
20
1.76787774067122
30
0
41
1
10
16.9849670979376
20
1.69172065507081
30
0
41
1
10
17.0857252435622
20
1.65274169889034
30
0
41
1
10
17.3875101400546
20
1.53290694960859
30
0
41
1
10
17.5878361874243
20
1.44881891722758
30
0
41
1
10
17.9873605244483
20
1.27320841059787
30
0
41
1
10
18.1870627627653
20
1.18253484503595
30
0
41
1
10
18.5861508548013
20
0.995227614165145
30
0
41
1
10
18.7851427247133
20
0.897854326773171
30
0
41
1
10
19.1845409668522
20
0.700196694990353
30
0
41
1
10
19.3847247237247
20
0.599551276390969
30
0
41
1
10
19.7854945583871
20
0.393409907697276
30
0
41
1
10
19.9865296183817
20
0.288767825426163
30
0
41
1
10
20.3909501941313
20
0.0784205637878586
30
0
41
1
10
20.5926263159499
20
-0.0277321059041924
30
0
41
1
10
20.9939328387736
20
-0.238160064226292
30
0
41
1
10
21.1943843064793
20
-0.341719072905732
30
0
41
1
10
21.5938719847288
20
-0.547613464175043
30
0
41
1
10
21.7929503376649
20
-0.649826744925036
30
0
41
1
10
22.191962726065
20
-0.848677462190665
30
0
41
1
10
22.3915536711265
20
-0.945985351067776
30
0
41
1
10
22.7905536220672
20
-1.13691713191019
30
0
41
1
10
22.9906938993664
20
-1.2292282436444
30
0
41
1
10
23.3923030134274
20
-1.40747057535148
30
0
41
1
10
23.5935668740654
20
-1.49416515577812
30
0
41
1
10
23.9977552686918
20
-1.65865774250577
30
0
41
1
10
24.1992439959941
20
-1.7357176741794
30
0
41
1
10
24.6001765993897
20
-1.88097706228356
30
0
41
1
10
24.7998281403727
20
-1.94878853679685
30
0
41
1
10
25.1993466720031
20
-2.07271935041984
30
0
41
1
10
25.3986262636825
20
-2.12955762886381
30
0
41
1
10
25.7970685171997
20
-2.23194028020026
30
0
41
1
10
25.9967050317917
20
-2.27707691402978
30
0
41
1
10
26.3964287977327
20
-2.3556277828564
30
0
41
1
10
26.5961935928468
20
-2.38917397198682
30
0
41
1
10
26.9980977735764
20
-2.44299578651877
30
0
41
1
10
27.2004329553902
20
-2.46358225356536
30
0
41
1
10
27.6039098478705
20
-2.49152193394556
30
0
41
1
10
27.8050832892061
20
-2.49870382434693
30
0
41
1
10
28.012314805223
20
-2.49927367936027
30
0
41
1
10
28.0185454085568
20
-2.49928440780795
30
0
41
1
10
28.0247753462705
20
-2.49928873105137
30
0
0
SPLINE
5
BF
100
AcDbEntity
8
1
62
256
6
ByLayer
370
18
48
1
60
0
100
AcDbSpline
70
4
71
3
72
18
73
14
40
0
40
0
40
0
40
0
40
0.0808437753276924
40
0.0808437753276924
40
0.234993864474429
40
0.234993864474429
40
0.389143953621168
40
0.389143953621168
40
0.543294042767905
40
0.543294042767905
40
0.697444131914643
40
0.697444131914643
40
1
40
1
40
1
40
1
41
1
10
8.06705660501731
20
-1.33269614784118
30
0
41
1
10
8.0178364639122
20
-1.36731718391931
30
0
41
1
10
7.96853954766749
20
-1.40201163393482
30
0
41
1
10
7.82478923197061
20
-1.50271032503807
30
0
41
1
10
7.72964210763925
20
-1.56875795642867
30
0
41
1
10
7.53953957702583
20
-1.69690573002811
30
0
41
1
10
7.44432608816612
20
-1.75918583259465
30
0
41
1
10
7.25246167980259
20
-1.87851955302844
30
0
41
1
10
7.1558081185519
20
-1.9355685197801
30
0
41
1
10
6.96006444691884
20
-2.04303683161208
30
0
41
1
10
6.86057845152652
20
-2.09359972893427
30
0
41
1
10
6.56670653354928
20
-2.2296580930342
30
0
41
1
10
6.37160184613481
20
-2.30267709424217
30
0
41
1
10
6.17447744406357
20
-2.36051166048051
30
0
0
SPLINE
5
C0
100
AcDbEntity
8
1
62
256
6
ByLayer
370
18
48
1
60
0
100
AcDbSpline
70
4
71
3
72
18
73
14
40
0
40
0
40
0
40
0
40
0.25
40
0.25
40
0.5
40
0.5
40
0.625000000000001
40
0.625000000000001
40
0.75
40
0.75
40
0.875
40
0.875
40
1
40
1
40
1
40
1
41
1
10
29.6668415011846
20
-1.23932919284539
30
0
41
1
10
29.6297276470325
20
-1.33963900397006
30
0
41
1
10
29.592503552501
20
-1.43988540859129
30
0
41
1
10
29.5173844401793
20
-1.63969165306042
30
0
41
1
10
29.4794930285907
20
-1.73920821427362
30
0
41
1
10
29.4224650467137
20
-1.88801070471996
30
0
41
1
10
29.4034024556648
20
-1.93749425201455
30
0
41
1
10
29.3650663006627
20
-2.03599679986547
30
0
41
1
10
29.3457815169012
20
-2.08501475261119
30
0
41
1
10
29.3071725465647
20
-2.18282508297625
30
0
41
1
10
29.2878121687068
20
-2.23159450863435
30
0
41
1
10
29.2489535182302
20
-2.32821509422723
30
0
41
1
10
29.2294615242446
20
-2.37590486704644
30
0
41
1
10
29.2099356442019
20
-2.4232591141635
30
0
0
SPLINE
5
C1
100
AcDbEntity
8
1
62
256
6
ByLayer
370
18
48
1
60
0
100
AcDbSpline
70
4
71
3
72
19
73
15
40
0
40
0
40
0
40
0
40
0.124999999999998
40
0.124999999999998
40
0.249999999999996
40
0.249999999999996
40
0.499999999999997
40
0.499999999999997
40
0.624999999999998
40
0.624999999999998
40
0.749999999999998
40
0.874999999999999
40
0.874999999999999
40
1
40
1
40
1
40
1
41
1
10
29.1355954395823
20
-2.37493201100784
30
0
41
1
10
29.100282840767
20
-2.37488273080652
30
0
41
1
10
29.0667317840073
20
-2.36957532485687
30
0
41
1
10
29.0033187029192
20
-2.34794891300396
30
0
41
1
10
28.9732943350268
20
-2.33149548512751
30
0
41
1
10
28.890425060916
20
-2.26505764238556
30
0
41
1
10
28.8454476089598
20
-2.19923820651675
30
0
41
1
10
28.7941835877068
20
-2.06654257771035
30
0
41
1
10
28.7797437667335
20
-2.01608059178457
30
0
41
1
10
28.757381984616
20
-1.90563277750073
30
0
41
1
10
28.7413935619836
20
-1.78586349698389
30
0
41
1
10
28.7380041702194
20
-1.64766728776777
30
0
41
1
10
28.7411320316962
20
-1.4999391580381
30
0
41
1
10
28.746002496434
20
-1.42153341762636
30
0
41
1
10
28.7540064778835
20
-1.34056671850161
30
0
0
SPLINE
5
C2
100
AcDbEntity
8
1
62
256
6
ByLayer
370
18
48
1
60
0
100
AcDbSpline
70
4
71
3
72
22
73
18
40
0
40
0
40
0
40
0
40
0.0867090747420939
40
0.0867090747420939
40
0.173418149484188
40
0.173418149484188
40
0.346836298968376
40
0.346836298968376
40
0.520254448452563
40
0.520254448452563
40
0.693672597936751
40
0.693672597936751
40
0.780381672678845
40
0.780381672678845
40
0.867090747420939
40
0.867090747420939
40
1
40
1
40
1
40
1
41
1
10
4.03376149682703
20
1.1189867112553
30
0
41
1
10
4.03379026590895
20
1.18992239363615
30
0
41
1
10
4.03381750703386
20
1.25896845058455
30
0
41
1
10
4.0338694104741
20
1.39328612642348
30
0
41
1
10
4.03389416558025
20
1.4588124712723
30
0
41
1
10
4.03396424830487
20
1.64687613678646
30
0
41
1
10
4.03400564348991
20
1.76148103415437
30
0
41
1
10
4.03408214496275
20
1.9695809314008
30
0
41
1
10
4.03411754332973
20
2.06375118195407
30
0
41
1
10
4.03418314708324
20
2.22340380382846
30
0
41
1
10
4.0342136219503
20
2.28972509637347
30
0
41
1
10
4.03425805647535
20
2.36884821952526
30
0
41
1
10
4.03427272152715
20
2.39190022065219
30
0
41
1
10
4.03430138496202
20
2.43029702648195
30
0
41
1
10
4.03431538281274
20
2.4456875240131
30
0
41
1
10
4.03435020609763
20
2.47527016801399
30
0
41
1
10
4.03437072888619
20
2.48451392223731
30
0
41
1
10
4.03439068907991
20
2.4848944478903
30
0
0
SPLINE
5
C3
100
AcDbEntity
8
1
62
256
6
ByLayer
370
18
48
1
60
0
100
AcDbSpline
70
4
71
3
72
10
73
6
40
0
40
0
40
0
40
0
40
0.5
40
0.5
40
1
40
1
40
1
40
1
41
1
10
4.10799177090607
20
1.00358724195519
30
0
41
1
10
4.08679755282594
20
1.01696462336477
30
0
41
1
10
4.06864522021908
20
1.03379669190781
30
0
41
1
10
4.04205122413671
20
1.07332596473097
30
0
41
1
10
4.03375212710057
20
1.09588385114648
30
0
41
1
10
4.03376149682688
20
1.11898671124695
30
0
0
SPLINE
5
C4
100
AcDbEntity
8
1
62
256
6
ByLayer
370
18
48
1
60
0
100
AcDbSpline
70
2053
71
3
72
46
73
42
40
0
40
0
40
0
40
0
40
0.0312499999999967
40
0.0312499999999967
40
0.0624999999999934
40
0.0624999999999934
40
0.0937499999999901
40
0.0937499999999901
40
0.124999999999987
40
0.124999999999987
40
0.156249999999984
40
0.156249999999984
40
0.18749999999998
40
0.18749999999998
40
0.249999999999974
40
0.249999999999974
40
0.281249999999973
40
0.281249999999973
40
0.312499999999971
40
0.312499999999971
40
0.374999999999974
40
0.374999999999974
40
0.437499999999977
40
0.437499999999977
40
0.499999999999979
40
0.499999999999979
40
0.562499999999982
40
0.562499999999982
40
0.624999999999985
40
0.624999999999985
40
0.687499999999987
40
0.687499999999987
40
0.74999999999999
40
0.74999999999999
40
0.812499999999992
40
0.812499999999992
40
0.874999999999995
40
0.874999999999995
40
0.937499999999997
40
0.937499999999997
40
1
40
1
40
1
40
1
41
1
10
29.357619891135
20
-1.33477872927137
30
0
41
1
10
29.3693901149217
20
-1.31769059959555
30
0
41
1
10
29.3808997998069
20
-1.29942085051266
30
0
41
1
10
29.4033577420905
20
-1.26033511599266
30
0
41
1
10
29.414424894566
20
-1.23926836877757
30
0
41
1
10
29.435242165415
20
-1.19541234929593
30
0
41
1
10
29.4449549243378
20
-1.17276011541466
30
0
41
1
10
29.4627924703502
20
-1.12580298725476
30
0
41
1
10
29.4707464829989
20
-1.10186329266912
30
0
41
1
10
29.4839554992599
20
-1.05498586423002
30
0
41
1
10
29.4893753503958
20
-1.03138041052108
30
0
41
1
10
29.4969900763574
20
-0.987060085801488
30
0
41
1
10
29.499260526682
20
-0.966169889502197
30
0
41
1
10
29.5014550585723
20
-0.908227507734608
30
0
41
1
10
29.4966308210216
20
-0.877749747830279
30
0
41
1
10
29.4827280190864
20
-0.845362309411797
30
0
41
1
10
29.4769250366349
20
-0.83664307083842
30
0
41
1
10
29.4636900564628
20
-0.823523049291481
30
0
41
1
10
29.4562404397099
20
-0.819029239905063
30
0
41
1
10
29.4316138317111
20
-0.811203568723244
30
0
41
1
10
29.4127408426629
20
-0.813598869332907
30
0
41
1
10
29.3712522499725
20
-0.831863041403921
30
0
41
1
10
29.3492895881375
20
-0.847426913171944
30
0
41
1
10
29.3033137611897
20
-0.891169659380353
30
0
41
1
10
29.2797179333567
20
-0.919055760290519
30
0
41
1
10
29.2332461787647
20
-0.985966342978372
30
0
41
1
10
29.2100101485504
20
-1.02564774063362
30
0
41
1
10
29.1681882183839
20
-1.11335324413804
30
0
41
1
10
29.1495223174071
20
-1.16186897734966
30
0
41
1
10
29.1229548314204
20
-1.25634319802202
30
0
41
1
10
29.1151135163225
20
-1.30226681634406
30
0
41
1
10
29.1121510829312
20
-1.37923520013564
30
0
41
1
10
29.1169041089322
20
-1.41025135583078
30
0
41
1
10
29.1353043581707
20
-1.45389446625163
30
0
41
1
10
29.1489503590576
20
-1.46707740985926
30
0
41
1
10
29.1815244617256
20
-1.4777966246148
30
0
41
1
10
29.2006589140788
20
-1.47545215140141
30
0
41
1
10
29.2418928932428
20
-1.45728543388469
30
0
41
1
10
29.2643148266889
20
-1.4413032808811
30
0
41
1
10
29.3100918578604
20
-1.39744239677697
30
0
41
1
10
29.3340794435616
20
-1.36895498862302
30
0
41
1
10
29.357619891135
20
-1.33477872927137
30
0
0
SPLINE
5
C5
100
AcDbEntity
8
1
62
256
6
ByLayer
370
18
48
1
60
0
100
AcDbSpline
70
4
71
3
72
66
73
62
40
0
40
0
40
0
40
0
40
0.0271320439960168
40
0.0271320439960168
40
0.0631641905146828
40
0.0631641905146828
40
0.0991963370333488
40
0.0991963370333488
40
0.135228483552015
40
0.135228483552015
40
0.171260630070681
40
0.171260630070681
40
0.189276703330014
40
0.189276703330014
40
0.207292776589348
40
0.207292776589348
40
0.243324923108014
40
0.243324923108014
40
0.27935706962668
40
0.27935706962668
40
0.315389216145346
40
0.315389216145346
40
0.351421362664012
40
0.351421362664012
40
0.387453509182678
40
0.387453509182678
40
0.423485655701344
40
0.423485655701344
40
0.45951780222001
40
0.45951780222001
40
0.495549948738676
40
0.495549948738676
40
0.531582095257342
40
0.531582095257342
40
0.567614241776008
40
0.567614241776008
40
0.585630315035341
40
0.585630315035341
40
0.603646388294674
40
0.603646388294674
40
0.63967853481334
40
0.63967853481334
40
0.675710681332006
40
0.675710681332006
40
0.711742827850672
40
0.711742827850672
40
0.747774974369338
40
0.747774974369338
40
0.783807120888004
40
0.783807120888004
40
0.81983926740667
40
0.81983926740667
40
0.855871413925336
40
0.855871413925336
40
0.891903560444002
40
0.891903560444002
40
0.927935706962668
40
0.927935706962668
40
0.963967853481334
40
0.963967853481334
40
1
40
1
40
1
40
1
41
1
10
24.351669537618
20
-1.79106254036651
30
0
41
1
10
24.1875035454773
20
-1.84471306078316
30
0
41
1
10
24.0231220168077
20
-1.89497419565726
30
0
41
1
10
23.6398796208592
20
-2.00357014673551
30
0
41
1
10
23.4217840858451
20
-2.06003334081998
30
0
41
1
10
22.9856043559122
20
-2.15918371899545
30
0
41
1
10
22.7677074214138
20
-2.20226676547978
30
0
41
1
10
22.3316580807645
20
-2.27339197280821
30
0
41
1
10
22.112716881343
20
-2.30102376870866
30
0
41
1
10
21.6757793164745
20
-2.34437696424635
30
0
41
1
10
21.4578671061271
20
-2.35914848947741
30
0
41
1
10
21.130784902364
20
-2.36941940185233
30
0
41
1
10
21.0217540078657
20
-2.37084784086787
30
0
41
1
10
20.8036813378209
20
-2.36904976941457
30
0
41
1
10
20.6946670116367
20
-2.36601491470498
30
0
41
1
10
20.367201771108
20
-2.35292328804181
30
0
41
1
10
20.1481225340782
20
-2.33753135823451
30
0
41
1
10
19.7116825703117
20
-2.29222160105189
30
0
41
1
10
19.4938908712231
20
-2.26244892116714
30
0
41
1
10
19.0577362308804
20
-2.18727693527626
30
0
41
1
10
18.8396434905929
20
-2.14254598882007
30
0
41
1
10
18.4024228010386
20
-2.03977957220877
30
0
41
1
10
18.1838143562736
20
-1.98178309871778
30
0
41
1
10
17.7475672177271
20
-1.85517135394713
30
0
41
1
10
17.5297000143911
20
-1.78605180518835
30
0
41
1
10
17.0931763042664
20
-1.63616460421062
30
0
41
1
10
16.8744904670703
20
-1.55473491016386
30
0
41
1
10
16.4373428626399
20
-1.38388797977396
30
0
41
1
10
16.2189184959651
20
-1.29490505106784
30
0
41
1
10
15.7827186951027
20
-1.10809277287939
30
0
41
1
10
15.5647233675277
20
-1.01032422163144
30
0
41
1
10
15.1276017608341
20
-0.809807887906032
30
0
41
1
10
14.908660184757
20
-0.706370002250537
30
0
41
1
10
14.4718835502761
20
-0.49664291388828
30
0
41
1
10
14.2536274836121
20
-0.390507932497343
30
0
41
1
10
13.926529938392
20
-0.228569251311569
30
0
41
1
10
13.8174857200984
20
-0.174287948629626
30
0
41
1
10
13.5991431934029
20
-0.0658819653376383
30
0
41
1
10
13.489846613919
20
-0.0117058431475812
30
0
41
1
10
13.1616172957843
20
0.150928328538185
30
0
41
1
10
12.9431394475221
20
0.259659895238229
30
0
41
1
10
12.5068876083101
20
0.47390693086146
30
0
41
1
10
12.2888113164384
20
0.579233572493735
30
0
41
1
10
11.8525812141236
20
0.786813700288775
30
0
41
1
10
11.6338972052025
20
0.888315327690862
30
0
41
1
10
11.1964300412662
20
1.08536194956699
30
0
41
1
10
10.9783458043604
20
1.18131314795144
30
0
41
1
10
10.5420873599186
20
1.36434204570131
30
0
41
1
10
10.3239084416251
20
1.45129918808448
30
0
41
1
10
9.88717499656417
20
1.61546682221808
30
0
41
1
10
9.66812761355089
20
1.6931287370538
30
0
41
1
10
9.23107320072438
20
1.83791838593353
30
0
41
1
10
9.01317517941436
20
1.90510315554684
30
0
41
1
10
8.57691468681847
20
2.02482069192649
30
0
41
1
10
8.35855387227579
20
2.07778121841699
30
0
41
1
10
7.92129567873167
20
2.17262686121751
30
0
41
1
10
7.70246830113425
20
2.21373946186336
30
0
41
1
10
7.26586500651874
20
2.2812855783078
30
0
41
1
10
7.04809795821063
20
2.30770878367986
30
0
41
1
10
6.61180460530045
20
2.34554878393593
30
0
41
1
10
6.39332093978075
20
2.35685122375028
30
0
41
1
10
6.17452135815523
20
2.36049877621116
30
0
0
SPLINE
5
C6
100
AcDbEntity
8
1
62
256
6
ByLayer
370
18
48
1
60
0
100
AcDbSpline
70
4
71
3
72
8
73
4
40
0
40
0
40
0
40
0
40
1
40
1
40
1
40
1
41
1
10
4.13474249928646
20
0.985119491413883
30
0
41
1
10
4.15665297643633
20
0.970178097562894
30
0
41
1
10
4.18029051076118
20
0.95678288863283
30
0
41
1
10
4.20442235006127
20
0.945303041560777
30
0
0
SPLINE
5
C7
100
AcDbEntity
8
1
62
256
6
ByLayer
370
18
48
1
60
0
100
AcDbSpline
70
4
71
3
72
40
73
36
40
0
40
0
40
0
40
0
40
0.100315989237109
40
0.100315989237109
40
0.125394986546388
40
0.125394986546388
40
0.150473983855666
40
0.150473983855666
40
0.200631978474221
40
0.200631978474221
40
0.300947967711329
40
0.300947967711329
40
0.326026965020606
40
0.326026965020606
40
0.351105962329884
40
0.351105962329884
40
0.401263956948438
40
0.401263956948438
40
0.501579946185546
40
0.501579946185546
40
0.5517379408041
40
0.5517379408041
40
0.576816938113378
40
0.576816938113378
40
0.601895935422655
40
0.601895935422655
40
0.702211924659765
40
0.702211924659765
40
0.752369919278319
40
0.752369919278319
40
0.777448916587597
40
0.777448916587597
40
0.802527913896874
40
0.802527913896874
40
1
40
1
40
1
40
1
41
1
10
29.1456649123156
20
-2.47924389378855
30
0
41
1
10
28.6217624858483
20
-2.51435377727688
30
0
41
1
10
28.1003575096248
20
-2.50397527697405
30
0
41
1
10
27.4449125306836
20
-2.43502486283194
30
0
41
1
10
27.3134495130016
20
-2.41839705572863
30
0
41
1
10
27.0515397177512
20
-2.37982264891437
30
0
41
1
10
26.92095555736
20
-2.35787009561429
30
0
41
1
10
26.5300055857575
20
-2.28432949811304
30
0
41
1
10
26.2704469552214
20
-2.22505916750893
30
0
41
1
10
25.4929226798582
20
-2.01875825530402
30
0
41
1
10
24.9759573943705
20
-1.84334597966935
30
0
41
1
10
24.3242424573912
20
-1.58503378234442
30
0
41
1
10
24.1936255965234
20
-1.53141736686004
30
0
41
1
10
23.9316156458011
20
-1.42057202267668
30
0
41
1
10
23.8000760119377
20
-1.36327740404727
30
0
41
1
10
23.4073346093744
20
-1.1877173067584
30
0
41
1
10
23.1469841830987
20
-1.06539137780777
30
0
41
1
10
22.3679337929741
20
-0.687113309263509
30
0
41
1
10
21.8514550004994
20
-0.41944373832078
30
0
41
1
10
21.0720081861915
20
-0.0119572324688306
30
0
41
1
10
20.8114268951404
20
0.124906153500774
30
0
41
1
10
20.4183829445329
20
0.329804109964726
30
0
41
1
10
20.2868654278259
20
0.398029615633618
30
0
41
1
10
20.0250620529533
20
0.532721954824979
30
0
41
1
10
19.8945105190465
20
0.599328829828892
30
0
41
1
10
19.2430395226678
20
0.927862613333986
30
0
41
1
10
18.7261457249619
20
1.17657892396434
30
0
41
1
10
17.948400968199
20
1.51323161378926
30
0
41
1
10
17.6886950135561
20
1.61929453216706
30
0
41
1
10
17.2973932973105
20
1.76740705750279
30
0
41
1
10
17.1666683933809
20
1.81494718104005
30
0
41
1
10
16.904481881792
20
1.90610068897075
30
0
41
1
10
16.7729462417418
20
1.94973400814493
30
0
41
1
10
15.611326011219
20
2.31502372064978
30
0
41
1
10
14.6022991249207
20
2.49078805550144
30
0
41
1
10
13.5707478346033
20
2.4906152994202
30
0
0
SPLINE
5
C8
100
AcDbEntity
8
1
62
256
6
ByLayer
370
18
48
1
60
0
100
AcDbSpline
70
4
71
3
72
16
73
12
40
0
40
0
40
0
40
0
40
0.204855520838829
40
0.204855520838829
40
0.409711041677657
40
0.409711041677657
40
0.614566562516486
40
0.614566562516486
40
0.819422083355314
40
0.819422083355314
40
1
40
1
40
1
40
1
41
1
10
6.17452135815529
20
-2.36049877621113
30
0
41
1
10
6.39325485320379
20
-2.35685232546285
30
0
41
1
10
6.61169259920914
20
-2.34555540706671
30
0
41
1
10
7.04793381885725
20
-2.30772610886305
30
0
41
1
10
7.26569398913199
20
-2.28130858845813
30
0
41
1
10
7.70232423368597
20
-2.2137651954385
30
0
41
1
10
7.92123444603294
20
-2.17263639039726
30
0
41
1
10
8.35821999671788
20
-2.0778573887487
30
0
41
1
10
8.57648022684106
20
-2.02492912961037
30
0
41
1
10
8.98678587838549
20
-1.9123543277004
30
0
41
1
10
9.1788726075302
20
-1.85391119866165
30
0
41
1
10
9.3714011227726
20
-1.7912120126721
30
0
0
SPLINE
5
C9
100
AcDbEntity
8
1
62
256
6
ByLayer
370
18
48
1
60
0
100
AcDbSpline
70
4
71
3
72
26
73
22
40
0
40
0
40
0
40
0
40
0.0469130272850982
40
0.0469130272850982
40
0.152811579808976
40
0.152811579808976
40
0.258710132332855
40
0.258710132332855
40
0.364608684856733
40
0.364608684856733
40
0.470507237380612
40
0.470507237380612
40
0.57640578990449
40
0.57640578990449
40
0.682304342428368
40
0.682304342428368
40
0.788202894952246
40
0.788202894952246
40
0.894101447476125
40
0.894101447476125
40
1
40
1
40
1
40
1
41
1
10
20.9497142745464
20
2.37016501325687
30
0
41
1
10
21.0463224842307
20
2.37049886273127
30
0
41
1
10
21.1429332523371
20
2.36903505348411
30
0
41
1
10
21.457637148703
20
2.35916217727441
30
0
41
1
10
21.6756137333248
20
2.34439186318642
30
0
41
1
10
22.1127321531457
20
2.30102378322044
30
0
41
1
10
22.3316277497351
20
2.27339653608956
30
0
41
1
10
22.7677065607083
20
2.20226728994086
30
0
41
1
10
22.9856488300968
20
2.15917606284776
30
0
41
1
10
23.4219743922925
20
2.05998762638924
30
0
41
1
10
23.6402945037711
20
2.00345956093764
30
0
41
1
10
24.0774907735485
20
1.87956122167239
30
0
41
1
10
24.2956984359486
20
1.81122876212609
30
0
41
1
10
24.7314408510505
20
1.66284759234679
30
0
41
1
10
24.9494166376343
20
1.58352621358191
30
0
41
1
10
25.385828877567
20
1.41602392228947
30
0
41
1
10
25.6044042721742
20
1.32716325398619
30
0
41
1
10
26.0407791543663
20
1.14144019323638
30
0
41
1
10
26.258686850015
20
1.04504256348452
30
0
41
1
10
26.6939405740678
20
0.845876345998079
30
0
41
1
10
26.9116916090039
20
0.744032324139596
30
0
41
1
10
27.1297460049371
20
0.63967092354801
30
0
0
SPLINE
5
CA
100
AcDbEntity
8
1
62
256
6
ByLayer
370
18
48
1
60
0
100
AcDbSpline
70
4
71
3
72
8
73
4
40
0
40
0
40
0
40
0
40
1
40
1
40
1
40
1
41
1
10
29.1456649123157
20
2.47924389378852
30
0
41
1
10
28.9400291521679
20
2.49302479499283
30
0
41
1
10
28.7347217741373
20
2.49980138086244
30
0
41
1
10
28.5294126590024
20
2.4996049276138
30
0
0
SPLINE
5
CB
100
AcDbEntity
8
1
62
256
6
ByLayer
370
18
48
1
60
0
100
AcDbSpline
70
4
71
3
72
26
73
22
40
0
40
0
40
0
40
0
40
0.139264468556702
40
0.139264468556702
40
0.21099242951031
40
0.21099242951031
40
0.282720390463917
40
0.282720390463917
40
0.426176312371134
40
0.426176312371134
40
0.497904273324743
40
0.497904273324743
40
0.569632234278351
40
0.569632234278351
40
0.713088156185568
40
0.713088156185568
40
0.784816117139176
40
0.784816117139176
40
0.856544078092783
40
0.856544078092783
40
1
40
1
40
1
40
1
41
1
10
15.0373443757021
20
-2.37361058635551
30
0
41
1
10
14.534177837145
20
-2.4532708366942
30
0
41
1
10
14.0303232156542
20
-2.49337863275869
30
0
41
1
10
13.2578768256678
20
-2.48896822908611
30
0
41
1
10
12.9961433252072
20
-2.47607751111428
30
0
41
1
10
12.4752761083283
20
-2.42855445295183
30
0
41
1
10
12.2158806115019
20
-2.39387016544114
30
0
41
1
10
11.4384004472164
20
-2.25854652020001
30
0
41
1
10
10.920745339155
20
-2.12686331280713
30
0
41
1
10
10.1369442764009
20
-1.87376117300923
30
0
41
1
10
9.87347673044036
20
-1.77968666519953
30
0
41
1
10
9.35037178260706
20
-1.5778099264235
30
0
41
1
10
9.0901276475914
20
-1.46983430863247
30
0
41
1
10
8.31118447723694
20
-1.12850594859592
30
0
41
1
10
7.79428184285129
20
-0.877693346232718
30
0
41
1
10
7.01344256611034
20
-0.482737127654587
30
0
41
1
10
6.75229294962742
20
-0.347885928244864
30
0
41
1
10
6.22672637278237
20
-0.0745618713450824
30
0
41
1
10
5.96464787525287
20
0.0626828226218095
30
0
41
1
10
5.18070170335719
20
0.470921449455773
30
0
41
1
10
4.65957724315322
20
0.737860584748461
30
0
41
1
10
4.13439211441829
20
0.989016020159767
30
0
0
SPLINE
5
CC
100
AcDbEntity
8
1
62
256
6
ByLayer
370
18
48
1
60
0
100
AcDbSpline
70
4
71
3
72
10
73
6
40
0
40
0
40
0
40
0
40
0.335756171112166
40
0.335756171112166
40
1
40
1
40
1
40
1
41
1
10
9.96419960814839
20
1.9834890299625
30
0
41
1
10
9.9092928117777
20
1.95764883018669
30
0
41
1
10
9.85433559982766
20
1.93163859918798
30
0
41
1
10
9.69046834039415
20
1.85367489014854
30
0
41
1
10
9.58112503999516
20
1.80109667092333
30
0
41
1
10
9.4717188896899
20
1.74821637489643
30
0
0
SPLINE
5
CD
100
AcDbEntity
8
1
62
256
6
ByLayer
370
18
48
1
60
0
100
AcDbSpline
70
4
71
3
72
22
73
18
40
0
40
0
40
0
40
0
40
0.0949187794448927
40
0.0949187794448927
40
0.308223187976172
40
0.308223187976172
40
0.414875392241811
40
0.414875392241811
40
0.468201494374632
40
0.468201494374632
40
0.521527596507452
40
0.521527596507452
40
0.73483200503873
40
0.73483200503873
40
0.948136413570008
40
0.948136413570008
40
1
40
1
40
1
40
1
41
1
10
17.546820913954
20
1.65472574285172
30
0
41
1
10
17.7797887664874
20
1.56540329085246
30
0
41
1
10
18.0125483492193
20
1.47015804024025
30
0
41
1
10
18.763680099904
20
1.14678231994199
30
0
41
1
10
19.2791315308066
20
0.900485777823462
30
0
41
1
10
20.0542561503832
20
0.51300015506132
30
0
41
1
10
20.3129081054655
20
0.380758697178237
30
0
41
1
10
20.7023799515496
20
0.179781513542167
30
0
41
1
10
20.8324799819823
20
0.11241032355332
30
0
41
1
10
21.0934151490902
20
-0.0227638234510152
30
0
41
1
10
21.22451242658
20
-0.0907195575273647
30
0
41
1
10
21.877860256345
20
-0.42856377203853
30
0
41
1
10
22.3944995546046
20
-0.693083981622635
30
0
41
1
10
23.4275522632454
20
-1.18837752022415
30
0
41
1
10
23.9438414637882
20
-1.41948411053966
30
0
41
1
10
24.5925003855266
20
-1.67336250365537
30
0
41
1
10
24.7196829596697
20
-1.72139632064139
30
0
41
1
10
24.8468836870374
20
-1.76755331114529
30
0
0
SPLINE
5
CE
100
AcDbEntity
8
1
62
256
6
ByLayer
370
13
48
1
60
0
100
AcDbSpline
70
4
71
3
72
16
73
12
40
0
40
0
40
0
40
0
40
0.0931702530372354
40
0.0931702530372354
40
0.274536202429786
40
0.274536202429786
40
0.455902151822338
40
0.455902151822338
40
0.63726810121489
40
0.63726810121489
40
1
40
1
40
1
40
1
41
1
10
24.8468827471086
20
-1.7675529700758
30
0
41
1
10
24.9812577250911
20
-1.81631327167
30
0
41
1
10
25.1156529625757
20
-1.86297906730351
30
0
41
1
10
25.5106988376936
20
-1.99342678489307
30
0
41
1
10
25.7712552872197
20
-2.07092156345456
30
0
41
1
10
26.2930838550717
20
-2.20690491869573
30
0
41
1
10
26.5550897925946
20
-2.26549580490644
30
0
41
1
10
27.0774204445998
20
-2.36131644438228
30
0
41
1
10
27.3374227129856
20
-2.3985612650354
30
0
41
1
10
28.1163492493854
20
-2.4778982757671
30
0
41
1
10
28.6341465560959
20
-2.48759521135938
30
0
41
1
10
29.1557653946802
20
-2.45223524352508
30
0
0
SPLINE
5
CF
100
AcDbEntity
8
1
62
256
6
ByLayer
370
18
48
1
60
0
100
AcDbSpline
70
4
71
3
72
14
73
10
40
0
40
0
40
0
40
0
40
0.061483467615581
40
0.061483467615581
40
0.568584336174743
40
0.568584336174743
40
0.822134770454326
40
0.822134770454326
40
1
40
1
40
1
40
1
41
1
10
13.7666564659872
20
-2.36575571039785
30
0
41
1
10
13.7039179684742
20
-2.36558831517246
30
0
41
1
10
13.6412186084733
20
-2.36481113526713
30
0
41
1
10
13.0616649359571
20
-2.35203822784538
30
0
41
1
10
12.5463484774785
20
-2.29890790349228
30
0
41
1
10
11.768507439915
20
-2.15918039505579
30
0
41
1
10
11.5079615580242
20
-2.10250945579574
30
0
41
1
10
11.063114323041
20
-1.99008249902369
30
0
41
1
10
10.880441870116
20
-1.9394420056901
30
0
41
1
10
10.6982661339328
20
-1.88481943499278
30
0
0
SPLINE
5
D0
100
AcDbEntity
8
1
62
256
6
ByLayer
370
13
48
1
60
0
100
AcDbSpline
70
4
71
3
72
18
73
14
40
0
40
0
40
0
40
0
40
0.0359705394287313
40
0.0359705394287313
40
0.276977904571552
40
0.276977904571552
40
0.39748158714296
40
0.39748158714296
40
0.517985269714369
40
0.517985269714369
40
0.758992634857185
40
0.758992634857185
40
1
40
1
40
1
40
1
41
1
10
10.6982661341066
20
-1.88481943504488
30
0
41
1
10
10.6207467227178
20
-1.86157644112316
30
0
41
1
10
10.5433172504553
20
-1.8376124234691
30
0
41
1
10
9.94765400226373
20
-1.64771631618891
30
0
41
1
10
9.43257812572213
20
-1.45116065196487
30
0
41
1
10
8.65681181948395
20
-1.12259889503474
30
0
41
1
10
8.39769313681259
20
-1.00736089274423
30
0
41
1
10
7.87711011746143
20
-0.767864650700744
30
0
41
1
10
7.61484974180897
20
-0.643266658169068
30
0
41
1
10
6.83427331688782
20
-0.265603174036414
30
0
41
1
10
6.31883565873108
20
-0.0073708405257946
30
0
41
1
10
5.28787141109569
20
0.501437643708528
30
0
41
1
10
4.77202298665128
20
0.751366627135468
30
0
41
1
10
4.25043568503395
20
0.9856775174419
30
0
0
SPLINE
5
D1
100
AcDbEntity
8
1
62
256
6
ByLayer
370
18
48
1
60
0
100
AcDbSpline
70
4
71
3
72
14
73
10
40
0
40
0
40
0
40
0
40
0.508226786329232
40
0.508226786329232
40
0.635283482911541
40
0.635283482911541
40
0.762340179493849
40
0.762340179493849
40
1
40
1
40
1
40
1
41
1
10
4.20442235006158
20
0.945303041560635
30
0
41
1
10
5.25241404334199
20
0.446759013398122
30
0
41
1
10
6.27439288187048
20
-0.108923332096083
30
0
41
1
10
7.57759995098033
20
-0.759525612759319
30
0
41
1
10
7.84031331436674
20
-0.887871513177885
30
0
41
1
10
8.36147756850704
20
-1.13359819268598
30
0
41
1
10
8.6207826748479
20
-1.25134881219344
30
0
41
1
10
9.36361457484716
20
-1.57113606434663
30
0
41
1
10
9.84572234151673
20
-1.75778494473121
30
0
41
1
10
10.3305821973821
20
-1.91541937851591
30
0
0
SPLINE
5
D2
100
AcDbEntity
8
1
62
256
6
ByLayer
370
13
48
1
60
0
100
AcDbSpline
70
4
71
3
72
18
73
14
40
0
40
0
40
0
40
0
40
0.0222753168924171
40
0.0222753168924171
40
0.194287537103895
40
0.194287537103895
40
0.366299757315374
40
0.366299757315374
40
0.710324197738327
40
0.710324197738327
40
0.882336417949802
40
0.882336417949802
40
1
40
1
40
1
40
1
41
1
10
10.3305817484778
20
-1.91541923257105
30
0
41
1
10
10.3641495277721
20
-1.92633256853432
30
0
41
1
10
10.3977304979852
20
-1.93710683655584
30
0
41
1
10
10.6907557129961
20
-2.02984704068055
30
0
41
1
10
10.9510646517786
20
-2.10356702332277
30
0
41
1
10
11.4748796360949
20
-2.23232227039713
30
0
41
1
10
11.7356133523256
20
-2.28661850945886
30
0
41
1
10
12.51409923223
20
-2.41754130211498
30
0
41
1
10
13.0297188613636
20
-2.46259237609706
30
0
41
1
10
13.805687437988
20
-2.46472390705367
30
0
41
1
10
14.0648572935366
20
-2.45463115966163
30
0
41
1
10
14.5035280741897
20
-2.41897962635039
30
0
41
1
10
14.6826105061945
20
-2.39923093848921
30
0
41
1
10
14.8615918404657
20
-2.37446804500536
30
0
0
SPLINE
5
D3
100
AcDbEntity
8
1
62
256
6
ByLayer
370
18
48
1
60
0
100
AcDbSpline
70
4
71
3
72
8
73
4
40
0
40
0
40
0
40
0
40
1
40
1
40
1
40
1
41
1
10
4.13439211441965
20
0.989016020159085
30
0
41
1
10
4.1252034509362
20
0.993410247359691
30
0
41
1
10
4.11640843516693
20
0.998274805913155
30
0
41
1
10
4.10799177090698
20
1.0035872419547
30
0
0
SPLINE
5
D4
100
AcDbEntity
8
1
62
256
6
ByLayer
370
13
48
1
60
0
100
AcDbSpline
70
4
71
3
72
20
73
16
40
0
40
0
40
0
40
0
40
0.188048276285594
40
0.188048276285594
40
0.282072414428391
40
0.282072414428391
40
0.376096552571189
40
0.376096552571189
40
0.564144828856783
40
0.564144828856783
40
0.752193105142378
40
0.752193105142378
40
0.940241381427973
40
0.940241381427973
40
1
40
1
40
1
40
1
41
1
10
4.25043568503395
20
0.9856775174419
30
0
41
1
10
4.2505128107839
20
1.12397233313342
30
0
41
1
10
4.25057975458012
20
1.2545627527179
30
0
41
1
10
4.25066996519953
20
1.43906390830514
30
0
41
1
10
4.25069841964751
20
1.49886267154218
30
0
41
1
10
4.25075178567016
20
1.6125902523942
30
0
41
1
10
4.25077680532496
20
1.66673073155042
30
0
41
1
10
4.25084822218028
20
1.82115870836697
30
0
41
1
10
4.25089101545993
20
1.913527449507
30
0
41
1
10
4.25097284361712
20
2.07625575431544
30
0
41
1
10
4.25101118601222
20
2.14505195762359
30
0
41
1
10
4.25108605378071
20
2.25521966653486
30
0
41
1
10
4.25112212302284
20
2.29604107736125
30
0
41
1
10
4.25116948219048
20
2.33158974728144
30
0
41
1
10
4.25118088117054
20
2.33875446106154
30
0
41
1
10
4.25119226702333
20
2.34448728345419
30
0
0
SPLINE
5
D5
100
AcDbEntity
8
1
62
256
6
ByLayer
370
13
48
1
60
0
100
AcDbSpline
70
4
71
3
72
8
73
4
40
0
40
0
40
0
40
0
40
1
40
1
40
1
40
1
41
1
10
4.03376149682597
20
1.11898671125218
30
0
41
1
10
4.05646277109241
20
1.08198384005715
30
0
41
1
10
4.090788532777
20
1.04972209455914
30
0
41
1
10
4.13474249928646
20
1.02839588692822
30
0
0
SPLINE
5
D6
100
AcDbEntity
8
1
62
256
6
ByLayer
370
18
48
1
60
0
100
AcDbSpline
70
4
71
3
72
10
73
6
40
0
40
0
40
0
40
0
40
0.5
40
0.5
40
1
40
1
40
1
40
1
41
1
10
6.17442892541436
20
-2.36050031671582
30
0
41
1
10
5.84752989848946
20
-2.36590903322426
30
0
41
1
10
5.5242346651228
20
-2.35717952374242
30
0
41
1
10
4.88357998371805
20
-2.30051860140793
30
0
41
1
10
4.56603998032088
20
-2.25310141305934
30
0
41
1
10
4.25144514060494
20
-2.18065878611392
30
0
0
SPLINE
5
D7
100
AcDbEntity
8
1
62
256
6
ByLayer
370
18
48
1
60
0
100
AcDbSpline
70
4
71
3
72
12
73
8
40
0
40
0
40
0
40
0
40
0.25
40
0.25
40
0.5
40
0.5
40
1
40
1
40
1
40
1
41
1
10
29.1557653946633
20
-2.45223524352622
30
0
41
1
10
29.1606407590047
20
-2.43918656196576
30
0
41
1
10
29.1651362148877
20
-2.4258710054028
30
0
41
1
10
29.1720863233252
20
-2.40196613020194
30
0
41
1
10
29.1745190119832
20
-2.39139667399417
30
0
41
1
10
29.1779088276325
20
-2.36797005689112
30
0
41
1
10
29.175292040097
20
-2.36328746925949
30
0
41
1
10
29.1703343630709
20
-2.3657016788176
30
0
0
SPLINE
5
D8
100
AcDbEntity
8
1
62
256
6
ByLayer
370
18
48
1
60
0
100
AcDbSpline
70
4
71
3
72
61
73
57
40
0
40
0
40
0
40
0
40
0.0625000000000144
40
0.0625000000000144
40
0.125000000000029
40
0.125000000000029
40
0.25000000000006
40
0.25000000000006
40
0.37500000000009
40
0.37500000000009
40
0.437500000000105
40
0.437500000000105
40
0.500000000000121
40
0.500000000000121
40
0.625000000000149
40
0.625000000000149
40
0.632812500000151
40
0.632812500000151
40
0.63671875000015
40
0.63671875000015
40
0.64062500000015
40
0.64062500000015
40
0.642578125000149
40
0.642578125000149
40
0.644531250000148
40
0.648437500000146
40
0.648437500000146
40
0.656250000000142
40
0.656250000000142
40
0.687500000000128
40
0.687500000000128
40
0.703125000000121
40
0.703125000000121
40
0.718750000000115
40
0.718750000000115
40
0.734375000000109
40
0.734375000000109
40
0.742187500000105
40
0.742187500000105
40
0.750000000000102
40
0.750000000000102
40
0.765625000000096
40
0.765625000000096
40
0.781250000000089
40
0.781250000000089
40
0.796875000000083
40
0.796875000000083
40
0.812500000000077
40
0.812500000000077
40
0.843750000000064
40
0.843750000000064
40
0.875000000000051
40
0.875000000000051
40
0.937500000000026
40
0.937500000000026
40
1
40
1
40
1
40
1
41
1
10
9.96447366236848
20
-1.98354322164346
30
0
41
1
10
9.74472353859926
20
-1.91383488500338
30
0
41
1
10
9.5235069902985
20
-1.83975640388226
30
0
41
1
10
9.07775793884264
20
-1.68518170969895
30
0
41
1
10
8.85315038713176
20
-1.60464589657332
30
0
41
1
10
8.17907920703323
20
-1.35936343569702
30
0
41
1
10
7.72742233081439
20
-1.19024298334696
30
0
41
1
10
6.81329788000491
20
-0.863923687757136
30
0
41
1
10
6.3507608788218
20
-0.706913119304971
30
0
41
1
10
5.64501082689176
20
-0.49697281659428
30
0
41
1
10
5.40778775108811
20
-0.431224331076379
30
0
41
1
10
4.92900596580148
20
-0.310380052003865
30
0
41
1
10
4.68709405033954
20
-0.255216611262114
30
0
41
1
10
3.95732531291796
20
-0.108881817078668
30
0
41
1
10
3.46560392419525
20
-0.0369857355670433
30
0
41
1
10
2.94020719578251
20
0.0080449797799247
30
0
41
1
10
2.9092887803902
20
0.0105793790976634
30
0
41
1
10
2.86289194409244
20
0.0142081406872308
30
0
41
1
10
2.84739761760733
20
0.0159864806341261
30
0
41
1
10
2.816438261852
20
0.0159354901363997
30
0
41
1
10
2.80072384044496
20
0.0141882719044588
30
0
41
1
10
2.77899060230828
20
0.0067166544373833
30
0
41
1
10
2.77231088815057
20
0.0030954294500702
30
0
41
1
10
2.75873742125731
20
-0.0037182783645733
30
0
41
1
10
2.73841465727671
20
-0.014013589151574
30
0
41
1
10
2.71820705157944
20
-0.0245388244144635
30
0
41
1
10
2.67795377127919
20
-0.0459125722093461
30
0
41
1
10
2.65130586100867
20
-0.0606089778205501
30
0
41
1
10
2.51983982309451
20
-0.136171459434081
30
0
41
1
10
2.41983430557966
20
-0.203122953318513
30
0
41
1
10
2.2827361264782
20
-0.319645719595286
30
0
41
1
10
2.23921821458401
20
-0.361205916239925
30
0
41
1
10
2.15847553595938
20
-0.452137283121516
30
0
41
1
10
2.12211572905551
20
-0.500655036763021
30
0
41
1
10
2.06147778756011
20
-0.603899621794994
30
0
41
1
10
2.03712829835587
20
-0.659288858132442
30
0
41
1
10
2.0137160113031
20
-0.743386621003424
30
0
41
1
10
2.00797202908811
20
-0.771761091529328
30
0
41
1
10
2.00080600930883
20
-0.829208046225688
30
0
41
1
10
1.99942744007041
20
-0.858392520586534
30
0
41
1
10
2.00180901162102
20
-0.943950523142291
30
0
41
1
10
2.01198387865847
20
-0.999744863333746
30
0
41
1
10
2.04578460437247
20
-1.10656080421103
30
0
41
1
10
2.06888289749395
20
-1.15652841054654
30
0
41
1
10
2.12384753894654
20
-1.25145350871307
30
0
41
1
10
2.15598396780493
20
-1.2966216045933
30
0
41
1
10
2.22519395889941
20
-1.38098542302325
30
0
41
1
10
2.26238924117607
20
-1.4204513901785
30
0
41
1
10
2.37963251947275
20
-1.5327579160932
30
0
41
1
10
2.46572361670866
20
-1.59992418793135
30
0
41
1
10
2.64482533871146
20
-1.72209981832921
30
0
41
1
10
2.73742163218844
20
-1.77682727903542
30
0
41
1
10
3.02111655959982
20
-1.92777338101371
30
0
41
1
10
3.21800021099921
20
-2.01097389485054
30
0
41
1
10
3.62058579823645
20
-2.15477852260128
30
0
41
1
10
3.82730224211235
20
-2.2152442474688
30
0
41
1
10
4.03453491215259
20
-2.26569235214754
30
0
0
SPLINE
5
D9
100
AcDbEntity
8
1
62
256
6
ByLayer
370
18
48
1
60
0
100
AcDbSpline
70
4
71
3
72
16
73
12
40
0
40
0
40
0
40
0
40
0.25
40
0.25
40
0.5
40
0.5
40
0.75
40
0.75
40
0.875
40
0.875
40
1
40
1
40
1
40
1
41
1
10
29.0160589792626
20
0.787040095495541
30
0
41
1
10
29.0852770019333
20
0.803423278779462
30
0
41
1
10
29.15386092389
20
0.821857871124621
30
0
41
1
10
29.2888962848369
20
0.865851416241867
30
0
41
1
10
29.3548673082813
20
0.891072008810113
30
0
41
1
10
29.4805013136716
20
0.954908502553906
30
0
41
1
10
29.541415794215
20
0.993847366425058
30
0
41
1
10
29.6128266804551
20
1.07239747639497
30
0
41
1
10
29.6325843929474
20
1.10136175616878
30
0
41
1
10
29.6604270309788
20
1.16749157557356
30
0
41
1
10
29.6677045307827
20
1.20334881282761
30
0
41
1
10
29.6668415011846
20
1.23932919284536
30
0
0
SPLINE
5
DA
100
AcDbEntity
8
1
62
256
6
ByLayer
370
18
48
1
60
0
100
AcDbSpline
70
4
71
3
72
8
73
4
40
0
40
0
40
0
40
0
40
1
40
1
40
1
40
1
41
1
10
9.96447366236845
20
1.98354322164346
30
0
41
1
10
9.76636891419335
20
1.92070115248365
30
0
41
1
10
9.56707239936253
20
1.85430745665539
30
0
41
1
10
9.36644377641565
20
1.7852129462612
30
0
0
SPLINE
5
DB
100
AcDbEntity
8
1
62
256
6
ByLayer
370
13
48
1
60
0
100
AcDbSpline
70
4
71
3
72
8
73
4
40
0
40
0
40
0
40
0
40
1
40
1
40
1
40
1
41
1
10
4.25043568503395
20
0.9856775174419
30
0
41
1
10
4.2101739855122
20
0.996520812978105
30
0
41
1
10
4.17084648307542
20
1.01087844502965
30
0
41
1
10
4.13474249928646
20
1.02839588692822
30
0
0
SPLINE
5
DC
100
AcDbEntity
8
1
62
256
6
ByLayer
370
18
48
1
60
0
100
AcDbSpline
70
4
71
3
72
18
73
14
40
0
40
0
40
0
40
0
40
0.125000000000001
40
0.125000000000001
40
0.250000000000001
40
0.250000000000001
40
0.499999999999994
40
0.499999999999994
40
0.624999999999996
40
0.624999999999996
40
0.749999999999997
40
0.749999999999997
40
1
40
1
40
1
40
1
41
1
10
27.129746004937
20
0.639670923547811
30
0
41
1
10
27.165925233479
20
0.538477459020953
30
0
41
1
10
27.2089608103892
20
0.438983226848251
30
0
41
1
10
27.3066312119238
20
0.242869443883848
30
0
41
1
10
27.3616380259486
20
0.145695505628652
30
0
41
1
10
27.5397522849002
20
-0.138103997429738
30
0
41
1
10
27.67284188007
20
-0.313407681648016
30
0
41
1
10
27.8875812196542
20
-0.561732854692451
30
0
41
1
10
27.9620665524176
20
-0.642314239834889
30
0
41
1
10
28.1140176631217
20
-0.797269693894805
30
0
41
1
10
28.1913393648159
20
-0.871546688329147
30
0
41
1
10
28.4268144603785
20
-1.08603196612884
30
0
41
1
10
28.5884284324358
20
-1.21801203160987
30
0
41
1
10
28.7540064778835
20
-1.34056671850161
30
0
0
SPLINE
5
DD
100
AcDbEntity
8
1
62
256
6
ByLayer
370
18
48
1
60
0
100
AcDbSpline
70
4
71
3
72
8
73
4
40
0
40
0
40
0
40
0
40
1
40
1
40
1
40
1
41
1
10
5.98921034181987
20
2.36201508637618
30
0
41
1
10
6.05086965605582
20
2.36204125908995
30
0
41
1
10
6.11260905528033
20
2.36152315901455
30
0
41
1
10
6.17442892541646
20
2.36050031671582
30
0
0
SPLINE
5
DE
100
AcDbEntity
8
1
62
256
6
ByLayer
370
18
48
1
60
0
100
AcDbSpline
70
4
71
3
72
8
73
4
40
0
40
0
40
0
40
0
40
1
40
1
40
1
40
1
41
1
10
4.10799177090564
20
1.00358724195328
30
0
41
1
10
4.11643928478816
20
0.99689963031696
30
0
41
1
10
4.12534074509185
20
0.99072633772866
30
0
41
1
10
4.13474249928646
20
0.985119491413883
30
0
0
SPLINE
5
DF
100
AcDbEntity
8
1
62
256
6
ByLayer
370
18
48
1
60
0
100
AcDbSpline
70
4
71
3
72
30
73
26
40
0
40
0
40
0
40
0
40
0.12499999999999
40
0.12499999999999
40
0.249999999999981
40
0.249999999999981
40
0.499999999999961
40
0.499999999999961
40
0.624999999999952
40
0.624999999999952
40
0.687499999999953
40
0.687499999999953
40
0.718749999999953
40
0.718749999999953
40
0.749999999999954
40
0.749999999999954
40
0.812499999999965
40
0.812499999999965
40
0.874999999999977
40
0.874999999999977
40
0.906249999999983
40
0.906249999999983
40
0.937499999999989
40
0.937499999999989
40
1
40
1
40
1
40
1
41
1
10
27.1297460049372
20
0.639670923547982
30
0
41
1
10
27.2158473904378
20
0.586635392263531
30
0
41
1
10
27.3022259413794
20
0.535553818695263
30
0
41
1
10
27.4758726765238
20
0.43966239782327
30
0
41
1
10
27.5633041502664
20
0.394619321695103
30
0
41
1
10
27.8239969904799
20
0.271870470539824
30
0
41
1
10
27.9964658786374
20
0.205854474722003
30
0
41
1
10
28.2526839108589
20
0.136467652196444
30
0
41
1
10
28.3376724949506
20
0.118316518855551
30
0
41
1
10
28.4644371065434
20
0.0996551144434079
30
0
41
1
10
28.5066606670861
20
0.0948635865551068
30
0
41
1
10
28.569372467466
20
0.0900349293029024
30
0
41
1
10
28.5902159373475
20
0.0887497583761103
30
0
41
1
10
28.6310113271247
20
0.0888866787041991
30
0
41
1
10
28.6509123681855
20
0.0903528581650335
30
0
41
1
10
28.7091710919569
20
0.0988163303413785
30
0
41
1
10
28.7454626076156
20
0.109603684320661
30
0
41
1
10
28.8101362766564
20
0.145001788609846
30
0
41
1
10
28.8385875556095
20
0.170784894151609
30
0
41
1
10
28.8684346081412
20
0.221881244583017
30
0
41
1
10
28.8764588293126
20
0.241257045797624
30
0
41
1
10
28.8877081308044
20
0.28272827354408
30
0
41
1
10
28.8910745596969
20
0.304915653594264
30
0
41
1
10
28.8950135084863
20
0.375438153163003
30
0
41
1
10
28.8894087749167
20
0.42572430328849
30
0
41
1
10
28.8777009148472
20
0.477198160586767
30
0
0
SPLINE
5
E0
100
AcDbEntity
8
1
62
256
6
ByLayer
370
13
48
1
60
0
100
AcDbSpline
70
4
71
3
72
12
73
8
40
0
40
0
40
0
40
0
40
0.0292761645200795
40
0.0292761645200795
40
0.514638082260039
40
0.514638082260039
40
1
40
1
40
1
40
1
41
1
10
4.25125866252071
20
-2.36143889669114
30
0
41
1
10
4.25126077285955
20
-2.36144197034281
30
0
41
1
10
4.25126287720536
20
-2.36139210032121
30
0
41
1
10
4.2512997507352
20
-2.3595847758647
30
0
41
1
10
4.25133316667007
20
-2.34361062084127
30
0
41
1
10
4.25139473599799
20
-2.28338807250367
30
0
41
1
10
4.25142304892603
20
-2.23839500869019
30
0
41
1
10
4.25144514039647
20
-2.18065878607445
30
0
0
SPLINE
5
E1
100
AcDbEntity
8
SK1
62
256
6
ByLayer
370
18
48
1
60
0
100
AcDbSpline
70
4
71
3
72
8
73
4
40
0
40
0
40
0
40
0
40
1
40
1
40
1
40
1
41
1
10
-35.4
20
0.707131368561619
30
0
41
1
10
-35.6037656607381
20
0.712965501206384
30
0
41
1
10
-35.8061201031067
20
0.718812955332794
30
0
41
1
10
-35.9999999999999
20
0.724730605720396
30
0
0
SPLINE
5
E2
100
AcDbEntity
8
SK1
62
256
6
ByLayer
370
18
48
1
60
0
100
AcDbSpline
70
4
71
3
72
8
73
4
40
0
40
0
40
0
40
0
40
1
40
1
40
1
40
1
41
1
10
-35.4
20
-0.707131368561619
30
0
41
1
10
-35.6037656607381
20
-0.712965501206384
30
0
41
1
10
-35.8061201031067
20
-0.718812955332794
30
0
41
1
10
-35.9999999999999
20
-0.724730605720396
30
0
0
SPLINE
5
E3
100
AcDbEntity
8
SK1
62
256
6
ByLayer
370
18
48
1
60
0
100
AcDbSpline
70
4
71
3
72
14
73
10
40
0
40
0
40
0
40
0
40
0.125000000000001
40
0.125000000000001
40
0.250000000000002
40
0.250000000000002
40
0.5
40
0.5
40
1
40
1
40
1
40
1
41
1
10
-35.3
20
-0.603900138897188
30
0
41
1
10
-35.3
20
-0.614715928862097
30
0
41
1
10
-35.3017473405979
20
-0.624653093008334
30
0
41
1
10
-35.3069361278352
20
-0.641891719824656
30
0
41
1
10
-35.3102875585928
20
-0.649132837491777
30
0
41
1
10
-35.3215071660416
20
-0.668408241758272
30
0
41
1
10
-35.3303450359861
20
-0.677725054011262
30
0
41
1
10
-35.3582889425212
20
-0.699751026213022
30
0
41
1
10
-35.3787666842182
20
-0.706523425200686
30
0
41
1
10
-35.3999999999999
20
-0.707131368562244
30
0
0
SPLINE
5
E4
100
AcDbEntity
8
SK1
62
256
6
ByLayer
370
18
48
1
60
0
100
AcDbSpline
70
4
71
3
72
14
73
10
40
0
40
0
40
0
40
0
40
0.5
40
0.5
40
0.75
40
0.75
40
0.875
40
0.875
40
1
40
1
40
1
40
1
41
1
10
-35.4
20
-0.79267849537797
30
0
41
1
10
-35.3787678516107
20
-0.793286405315229
30
0
41
1
10
-35.3584289872789
20
-0.787820430920078
30
0
41
1
10
-35.330362650101
20
-0.767506054405715
30
0
41
1
10
-35.3215171181658
20
-0.758759344569825
30
0
41
1
10
-35.310281247835
20
-0.740241367342009
30
0
41
1
10
-35.3068890128889
20
-0.733121722211649
30
0
41
1
10
-35.30175857625
20
-0.716457177239306
30
0
41
1
10
-35.3
20
-0.706702758733371
30
0
41
1
10
-35.3
20
-0.695935076516434
30
0
0
SPLINE
5
E5
100
AcDbEntity
8
SK1
62
256
6
ByLayer
370
18
48
1
60
0
100
AcDbSpline
70
4
71
3
72
14
73
10
40
0
40
0
40
0
40
0
40
0.125
40
0.125
40
0.25
40
0.25
40
0.5
40
0.5
40
1
40
1
40
1
40
1
41
1
10
-35.3
20
0.603900138897188
30
0
41
1
10
-35.3
20
0.614715928862097
30
0
41
1
10
-35.3017473405979
20
0.624653093008334
30
0
41
1
10
-35.3069361278352
20
0.641891719824628
30
0
41
1
10
-35.3102875585928
20
0.649132837491777
30
0
41
1
10
-35.3215071660416
20
0.668408241758243
30
0
41
1
10
-35.3303450359861
20
0.677725054011262
30
0
41
1
10
-35.3582889425211
20
0.699751026212994
30
0
41
1
10
-35.3787666842182
20
0.706523425200686
30
0
41
1
10
-35.3999999999999
20
0.707131368562244
30
0
0
SPLINE
5
E6
100
AcDbEntity
8
SK1
62
256
6
ByLayer
370
18
48
1
60
0
100
AcDbSpline
70
4
71
3
72
8
73
4
40
0
40
0
40
0
40
0
40
1
40
1
40
1
40
1
41
1
10
-36
20
-0.775079258218398
30
0
41
1
10
-35.8060534491693
20
-0.780998943034035
30
0
41
1
10
-35.6037427026638
20
-0.786845020058337
30
0
41
1
10
-35.4
20
-0.792678495377174
30
0
0
LINE
5
76
100
AcDbEntity
8
81
62
256
6
ByLayer
370
18
48
1
60
0
100
AcDbLine
10
30
20
0
30
0
11
35
21
0
31
0
39
0
210
0
220
0
230
1
0
LINE
5
77
100
AcDbEntity
8
1
62
256
6
ByLayer
370
18
48
1
60
0
100
AcDbLine
10
4.034386
20
2.484895
30
0
11
1.178071
21
2.483181
31
0
39
0
210
0
220
0
230
1
0
LINE
5
79
100
AcDbEntity
8
1
62
256
6
ByLayer
370
18
48
1
60
0
100
AcDbLine
10
13.566746
20
2.490614
30
0
11
13.054193
21
2.490307
31
0
39
0
210
0
220
0
230
1
0
LINE
5
7A
100
AcDbEntity
8
1
62
256
6
ByLayer
370
18
48
1
60
0
100
AcDbLine
10
28.532335
20
2.499593
30
0
11
28.026429
21
2.49929
31
0
39
0
210
0
220
0
230
1
0
LINE
5
7B
100
AcDbEntity
8
1
62
256
6
ByLayer
370
18
48
1
60
0
100
AcDbLine
10
28.026429
20
-2.49929
30
0
11
28.532273
21
-2.499593
31
0
39
0
210
0
220
0
230
1
0
LINE
5
7C
100
AcDbEntity
8
1
62
256
6
ByLayer
370
18
48
1
60
0
100
AcDbLine
10
13.054193
20
-2.490307
30
0
11
13.56681
21
-2.490614
31
0
39
0
210
0
220
0
230
1
0
LINE
5
7D
100
AcDbEntity
8
1
62
256
6
ByLayer
370
18
48
1
60
0
100
AcDbLine
10
1.178071
20
-2.483181
30
0
11
4.034386
21
-2.484895
31
0
39
0
210
0
220
0
230
1
0
LINE
5
7E
100
AcDbEntity
8
SK1
62
256
6
ByLayer
370
18
48
1
60
0
100
AcDbLine
10
-35.278312
20
3
30
0
11
-36
21
1.75
31
0
39
0
210
0
220
0
230
1
0
LINE
5
80
100
AcDbEntity
8
SK1
62
256
6
ByLayer
370
18
48
1
60
0
100
AcDbLine
10
-36
20
-1.75
30
0
11
-35.278312
21
-3
31
0
39
0
210
0
220
0
230
1
0
LINE
5
81
100
AcDbEntity
8
SK1
62
256
6
ByLayer
370
18
48
1
60
0
100
AcDbLine
10
0
20
3
30
0
11
-35.278312
21
3
31
0
39
0
210
0
220
0
230
1
0
LINE
5
82
100
AcDbEntity
8
SK1
62
256
6
ByLayer
370
18
48
1
60
0
100
AcDbLine
10
-35.278312
20
-3
30
0
11
0
21
-3
31
0
39
0
210
0
220
0
230
1
0
LINE
5
83
100
AcDbEntity
8
SK4
62
256
6
ByLayer
370
18
48
0.05
60
0
100
AcDbLine
10
35
20
0
30
0
11
-41
21
0
31
0
39
0
210
0
220
0
230
1
0
LINE
5
85
100
AcDbEntity
8
4
62
256
6
ByLayer
370
18
48
0.05
60
0
100
AcDbLine
10
30
20
0
30
0
11
0
21
0
31
0
39
0
210
0
220
0
230
1
0
LINE
5
87
100
AcDbEntity
8
80
62
256
6
ByLayer
370
18
48
1
60
0
100
AcDbLine
10
0
20
0
30
0
11
-5
21
0
31
0
39
0
210
0
220
0
230
1
0
LINE
5
88
100
AcDbEntity
8
1
62
256
6
ByLayer
370
18
48
1
60
0
100
AcDbLine
10
29.932756
20
-0.264298
30
0
11
29.870828
21
-0.553128
31
0
39
0
210
0
220
0
230
1
0
LINE
5
89
100
AcDbEntity
8
1
62
256
6
ByLayer
370
18
48
1
60
0
100
AcDbLine
10
30
20
0
30
0
11
29.135595
21
-2.374932
31
0
39
0
210
0
220
0
230
1
0
LINE
5
8A
100
AcDbEntity
8
1
62
256
6
ByLayer
370
18
48
1
60
0
100
AcDbLine
10
28.754006
20
-1.340567
30
0
11
29.895367
21
-0.161525
31
0
39
0
210
0
220
0
230
1
0
LINE
5
8B
100
AcDbEntity
8
1
62
256
6
ByLayer
370
13
48
1
60
0
100
AcDbLine
10
29.256057
20
0.217798
30
0
11
29.895367
21
-0.161525
31
0
39
0
210
0
220
0
230
1
0
LINE
5
8C
100
AcDbEntity
8
1
62
256
6
ByLayer
370
18
48
1
60
0
100
AcDbLine
10
29.932756
20
0.264298
30
0
11
29.870828
21
0.553128
31
0
39
0
210
0
220
0
230
1
0
LINE
5
8D
100
AcDbEntity
8
1
62
256
6
ByLayer
370
18
48
1
60
0
100
AcDbLine
10
30
20
0
30
0
11
29.995913
21
-0.025357
31
0
39
0
210
0
220
0
230
1
0
LINE
5
8E
100
AcDbEntity
8
1
62
256
6
ByLayer
370
13
48
1
60
0
100
AcDbLine
10
1.178071
20
2.483181
30
0
11
1.178071
21
-2.483181
31
0
39
0
210
0
220
0
230
1
0
LINE
5
8F
100
AcDbEntity
8
1
62
256
6
ByLayer
370
13
48
1
60
0
100
AcDbLine
10
0.588795
20
2.74159
30
0
11
0.588795
21
-2.74159
31
0
39
0
210
0
220
0
230
1
0
LINE
5
90
100
AcDbEntity
8
1
62
256
6
ByLayer
370
13
48
1
60
0
100
AcDbLine
10
29.870828
20
0.553128
30
0
11
29.445964
21
0.553128
31
0
39
0
210
0
220
0
230
1
0
LINE
5
91
100
AcDbEntity
8
1
62
256
6
ByLayer
370
13
48
1
60
0
100
AcDbLine
10
29.445964
20
0.553128
30
0
11
29.932756
21
0.264298
31
0
39
0
210
0
220
0
230
1
0
LINE
5
92
100
AcDbEntity
8
1
62
256
6
ByLayer
370
18
48
1
60
0
100
AcDbLine
10
0
20
-3
30
0
11
0
21
3
31
0
39
0
210
0
220
0
230
1
0
LINE
5
93
100
AcDbEntity
8
1
62
256
6
ByLayer
370
18
48
1
60
0
100
AcDbLine
10
29.995913
20
0.025357
30
0
11
30
21
0
31
0
39
0
210
0
220
0
230
1
0
LINE
5
94
100
AcDbEntity
8
SK1
62
256
6
ByLayer
370
18
48
1
60
0
100
AcDbLine
10
-35.278312
20
3
30
0
11
-35.278312
21
-3
31
0
39
0
210
0
220
0
230
1
0
LINE
5
95
100
AcDbEntity
8
SK1
62
256
6
ByLayer
370
18
48
1
60
0
100
AcDbLine
10
-36
20
-0.724731
30
0
11
-36
21
-0.775079
31
0
39
0
210
0
220
0
230
1
0
LINE
5
96
100
AcDbEntity
8
SK1
62
256
6
ByLayer
370
13
48
1
60
0
100
AcDbLine
10
-35.4
20
-0.707131
30
0
11
-35.4
21
-0.792678
31
0
39
0
210
0
220
0
230
1
0
LINE
5
97
100
AcDbEntity
8
SK1
62
256
6
ByLayer
370
18
48
1
60
0
100
AcDbLine
10
-36
20
1.75
30
0
11
-36
21
0.724731
31
0
39
0
210
0
220
0
230
1
0
LINE
5
98
100
AcDbEntity
8
SK1
62
256
6
ByLayer
370
18
48
1
60
0
100
AcDbLine
10
-35.3
20
-0.695935
30
0
11
-35.3
21
0.6039
31
0
39
0
210
0
220
0
230
1
0
LINE
5
99
100
AcDbEntity
8
SK1
62
256
6
ByLayer
370
18
48
1
60
0
100
AcDbLine
10
-36
20
-1.75
30
0
11
-36
21
-0.775079
31
0
39
0
210
0
220
0
230
1
0
LINE
5
9A
100
AcDbEntity
8
SK1
62
256
6
ByLayer
370
18
48
1
60
0
100
AcDbLine
10
0
20
-3
30
0
11
0
21
3
31
0
39
0
210
0
220
0
230
1
0
MTEXT
5
E7
100
AcDbEntity
8
SK6
62
256
6
ByLayer
370
13
48
1
60
0
100
AcDbMText
10
-0.870831
20
34.882694
30
0
210
0
220
0
230
1
1
\W0.7542;R840-0500-30-A1A1220
40
3.5
41
0
44
1.084337
50
0
71
8
72
5
7
iso_b_vert
0
DIMENSION
5
F4
100
AcDbEntity
8
SK2
62
256
6
ByLayer
370
13
48
1
60
0
100
AcDbDimension
2
DimnDraft3D1
10
29.15
20
-12.713398
30
0
11
13.400059
21
-12.713398
31
0
70
32
71
5
72
1
41
1
210
0
220
0
230
1
3
Standard
100
AcDbAlignedDimension
13
0
23
-1.5875
33
0
14
29.15
24
-4.0875
34
0
50
0
100
AcDbRotatedDimension
1001
ACAD
1000
DSTYLE
1002
{
1070
   279
1070
     0
1070
   172
1070
     1
1070
   173
1070
     1
1070
   340
1005
E8
1070
   271
1070
     2
1070
   272
1070
     2
1070
    77
1070
     1
1070
    73
1070
     0
1070
   171
1070
     3
1070
   274
1070
     4
1070
   177
1070
    35
1070
   176
1070
    35
1070
   178
1070
    35
1070
    48
1040
-0.005
1070
    41
1041
3.5
1070
   147
1041
1.75
1070
    42
1041
1.5875
1070
    44
1041
2.0
1070
   140
1041
3.5
1070
   343
1005
0
1070
   344
1005
0
1002
}
0
DIMENSION
5
FE
100
AcDbEntity
8
SK2
62
256
6
ByLayer
370
13
48
1
60
0
100
AcDbDimension
2
DimnDraft3D2
10
30
20
-31.692985
30
0
11
-2.5087
21
-31.692985
31
0
70
32
71
5
72
1
41
1
210
0
220
0
230
1
3
Standard
100
AcDbAlignedDimension
13
-36
23
-4.5875
33
0
14
30
24
-1.5875
34
0
50
0
100
AcDbRotatedDimension
1001
ACAD
1000
DSTYLE
1002
{
1070
   279
1070
     0
1070
   172
1070
     1
1070
   173
1070
     1
1070
   340
1005
E8
1070
   271
1070
     2
1070
   272
1070
     2
1070
    77
1070
     1
1070
    73
1070
     0
1070
   171
1070
     3
1070
   274
1070
     4
1070
   177
1070
    35
1070
   176
1070
    35
1070
   178
1070
    35
1070
    48
1040
-0.005
1070
    41
1041
3.5
1070
   147
1041
1.75
1070
    42
1041
1.5875
1070
    44
1041
2.0
1070
   140
1041
3.5
1070
   343
1005
0
1070
   344
1005
0
1002
}
0
DIMENSION
5
108
100
AcDbEntity
8
SK2
62
256
6
ByLayer
370
13
48
1
60
0
100
AcDbDimension
2
DimnDraft3D3
10
30
20
14.109119
30
0
11
22.075
21
14.109119
31
0
70
32
71
5
72
1
41
1
210
0
220
0
230
1
3
Standard
100
AcDbAlignedDimension
13
14.15
23
4.0875
33
0
14
30
24
1.5875
34
0
50
0
100
AcDbRotatedDimension
1001
ACAD
1000
DSTYLE
1002
{
1070
   279
1070
     0
1070
   172
1070
     1
1070
   173
1070
     1
1070
   340
1005
E8
1070
   271
1070
     2
1070
   272
1070
     2
1070
    77
1070
     1
1070
    73
1070
     0
1070
   171
1070
     3
1070
   274
1070
     4
1070
   177
1070
    35
1070
   176
1070
    35
1070
   178
1070
    35
1070
    48
1040
-0.005
1070
    41
1041
3.5
1070
   147
1041
1.75
1070
    42
1041
1.5875
1070
    44
1041
2.0
1070
   140
1041
3.5
1070
   343
1005
0
1070
   344
1005
0
1002
}
0
DIMENSION
5
112
100
AcDbEntity
8
SK2
62
256
6
ByLayer
370
13
48
1
60
0
100
AcDbDimension
2
DimnDraft3D4
10
29.15
20
-15.302503
30
0
11
39.981425
21
-15.302503
31
0
70
32
71
5
72
1
41
1
210
0
220
0
230
1
3
Standard
100
AcDbAlignedDimension
13
30
23
-1.5875
33
0
14
29.15
24
-4.0875
34
0
50
0
100
AcDbRotatedDimension
1001
ACAD
1000
DSTYLE
1002
{
1070
   279
1070
     0
1070
   172
1070
     1
1070
   173
1070
     1
1070
   340
1005
E8
1070
   271
1070
     2
1070
   272
1070
     2
1070
    77
1070
     1
1070
    73
1070
     0
1070
   171
1070
     3
1070
   274
1070
     4
1070
   177
1070
    35
1070
   176
1070
    35
1070
   178
1070
    35
1070
    48
1040
-0.005
1070
    41
1041
3.5
1070
   147
1041
1.75
1070
    42
1041
1.5875
1070
    44
1041
2.0
1070
   140
1041
3.5
1070
   343
1005
0
1070
   344
1005
0
1002
}
0
DIMENSION
5
11C
100
AcDbEntity
8
SK2
62
256
6
ByLayer
370
13
48
1
60
0
100
AcDbDimension
2
DimnDraft3D5
10
29.15
20
-21.343428
30
0
11
-5.589324
21
-21.343428
31
0
70
32
71
5
72
1
41
1
210
0
220
0
230
1
3
Standard
100
AcDbAlignedDimension
13
-36
23
-4.5875
33
0
14
29.15
24
-4.0875
34
0
50
0
100
AcDbRotatedDimension
1001
ACAD
1000
DSTYLE
1002
{
1070
   279
1070
     0
1070
   172
1070
     1
1070
   173
1070
     1
1070
   340
1005
E8
1070
   271
1070
     2
1070
   272
1070
     2
1070
    77
1070
     1
1070
    73
1070
     0
1070
   171
1070
     3
1070
   274
1070
     4
1070
   177
1070
    35
1070
   176
1070
    35
1070
   178
1070
    35
1070
    48
1040
-0.005
1070
    41
1041
3.5
1070
   147
1041
1.75
1070
    42
1041
1.5875
1070
    44
1041
2.0
1070
   140
1041
3.5
1070
   343
1005
0
1070
   344
1005
0
1002
}
0
DIMENSION
5
127
100
AcDbEntity
8
SK2
62
256
6
ByLayer
370
13
48
1
60
0
100
AcDbDimension
2
DimnDraft3D6
10
-46.625163
20
3
30
0
11
-47.250163
21
21.47418
31
0
70
33
71
5
72
1
41
1
210
0
220
0
230
1
3
Standard
100
AcDbAlignedDimension
13
-37.5875
23
-3
33
0
14
-37.5875
24
3
34
0
1001
ACAD
1000
DSTYLE
1002
{
1070
   279
1070
     0
1070
    74
1070
     0
1070
   173
1070
     1
1070
   340
1005
E8
1070
   271
1070
     3
1070
   272
1070
     2
1070
    77
1070
     1
1070
    73
1070
     0
1070
   171
1070
     3
1070
   274
1070
     4
1070
   177
1070
    35
1070
   176
1070
    35
1070
   178
1070
    35
1070
    48
1040
-0.005
1070
    41
1041
3.5
1070
   147
1041
1.75
1070
    42
1041
1.5875
1070
    44
1041
2.0
1070
   140
1041
3.5
1070
   343
1005
0
1070
   344
1005
0
1002
}
0
DIMENSION
5
132
100
AcDbEntity
8
2
62
256
6
ByLayer
370
13
48
1
60
0
100
AcDbDimension
2
DimnDraft3D7
10
44.083343
20
2.5
30
0
11
39.458343
21
19.567266
31
0
70
33
71
5
72
1
41
1
210
0
220
0
230
1
3
Standard
100
AcDbAlignedDimension
13
30.7375
23
-2.5
33
0
14
30.7375
24
2.5
34
0
1001
ACAD
1000
DSTYLE
1002
{
1070
   279
1070
     0
1070
    74
1070
     0
1070
   173
1070
     1
1070
   340
1005
E8
1070
   271
1070
     3
1070
   272
1070
     2
1070
    77
1070
     1
1070
    73
1070
     0
1070
   171
1070
     3
1070
   274
1070
     4
1070
   177
1070
    35
1070
   176
1070
    35
1070
   178
1070
    35
1070
    48
1040
-0.005
1070
    41
1041
3.5
1070
   147
1041
1.75
1070
    42
1041
1.5875
1070
    44
1041
2.0
1070
   140
1041
3.5
1070
   343
1005
0
1070
   344
1005
0
1002
}
0
ENDSEC
0
SECTION
2
OBJECTS
0
DICTIONARY
5
19d
330
0
100
AcDbDictionary
280
0
281
1
3
ACAD_GROUP
350
19e
3
ACAD_MLINESTYLE
350
19f
0
DICTIONARY
5
19e
330
0
100
AcDbDictionary
280
0
281
1
0
DICTIONARY
5
19f
330
0
100
AcDbDictionary
280
0
281
1
3
Standard
350
18
0
MLINESTYLE
5
18
330
19f
100
AcDbMlineStyle
2
Standard
70
0
3

62
256
51
90
52
90
71
2
49
-0.5
62
256
6
ByLayer
49
0.5
62
256
6
ByLayer
0
RASTERVARIABLES
5
18b
330

100
AcDbRasterVariables
90
0
70
1
71
1
72
1
0
ENDSEC
0
EOF
