0
SECTION
2
HEADER
9
$ACADVER
1
AC1015
9
$DWGCODEPAGE
3
ANSI_1252
9
$HANDSEED
5
19d
9
$ANGBASE
50
0
9
$ANGDIR
70
0
9
$ATTMODE
70
1
9
$AUNITS
70
0
9
$AUPREC
70
0
9
$CECOLOR
62
256
9
$CELTSCALE
40
1
9
$CELTYPE
6
ByLayer
9
$CELWEIGHT
370
18
9
$CLAYER
8
0
9
$CMLJUST
70
0
9
$CMLSCALE
40
1
9
$CMLSTYLE
2
Standard
9
$DIMSTYLE
2
Standard
9
$TEXTSIZE
40
0.2
9
$TEXTSTYLE
7
Standard
9
$LUNITS
70
2
9
$LUPREC
70
4
9
$EXTNAMES
290
1
9
$INSUNITS
70
4
9
$LTSCALE
40
1
9
$LWDISPLAY
290
1
9
$PDMODE
70
0
9
$PDSIZE
40
0
9
$PLINEGEN
70
0
0
ENDSEC
0
SECTION
2
CLASSES
0
CLASS
1
RASTERVARIABLES
2
AcDbRasterVariables
3
ISM
90
0
280
0
281
0
0
ENDSEC
0
SECTION
2
TABLES
0
TABLE
2
VPORT
5
193
100
AcDbSymbolTable
0
VPORT
5
1
100
AcDbSymbolTableRecord
100
AcDbViewportTableRecord
2
*Active
70
0
10
0
20
0
11
1
21
1
12
-1
22
1
13
0
23
0
14
0.5
24
0.5
15
10
25
10
16
0
26
0
36
1
17
0
27
0
37
0
0
ENDTAB
0
TABLE
2
LTYPE
5
194
100
AcDbSymbolTable
0
LTYPE
5
14
100
AcDbSymbolTableRecord
100
AcDbLinetypeTableRecord
70
0
2
ByBlock
3

72
65
73
0
40
0
0
LTYPE
5
15
100
AcDbSymbolTableRecord
100
AcDbLinetypeTableRecord
70
0
2
ByLayer
3

72
65
73
0
40
0
0
LTYPE
5
16
100
AcDbSymbolTableRecord
100
AcDbLinetypeTableRecord
70
0
2
CONTINUOUS
3
Solid line
72
65
73
0
40
0
0
LTYPE
5
6A
100
AcDbSymbolTableRecord
100
AcDbLinetypeTableRecord
70
0
2
CENTER
3
____ _ ____ _ ____ _ ____
72
65
73
4
40
47.5
49
22
74
0
49
-8.5
74
0
49
8.5
74
0
49
-8.5
74
0
0
LTYPE
5
6B
100
AcDbSymbolTableRecord
100
AcDbLinetypeTableRecord
70
0
2
DASHED
3
__ __ __ __ __ __ __ __ __
72
65
73
2
40
25.72
49
12.86
74
0
49
-12.86
74
0
0
ENDTAB
0
TABLE
2
LAYER
5
195
100
AcDbSymbolTable
0
LAYER
5
10
100
AcDbSymbolTableRecord
100
AcDbLayerTableRecord
2
0
70
0
62
7
6
CONTINUOUS
290
1
370
-3
390
0
0
LAYER
5
6D
100
AcDbSymbolTableRecord
100
AcDbLayerTableRecord
2
81
70
0
62
-3
6
CONTINUOUS
290
1
370
-3
390
0
0
LAYER
5
6F
100
AcDbSymbolTableRecord
100
AcDbLayerTableRecord
2
80
70
0
62
-6
6
CONTINUOUS
290
1
370
-3
390
0
0
LAYER
5
74
100
AcDbSymbolTableRecord
100
AcDbLayerTableRecord
2
2
70
0
62
7
6
CONTINUOUS
290
1
370
-3
390
0
0
LAYER
5
78
100
AcDbSymbolTableRecord
100
AcDbLayerTableRecord
2
1
70
0
62
4
6
CONTINUOUS
290
1
370
-3
390
0
0
LAYER
5
86
100
AcDbSymbolTableRecord
100
AcDbLayerTableRecord
2
4
70
0
62
-2
6
CENTER
290
1
370
-3
390
0
0
LAYER
5
17f
100
AcDbSymbolTableRecord
100
AcDbLayerTableRecord
2
SK2
70
0
62
7
6
CONTINUOUS
290
1
370
-3
390
0
0
LAYER
5
180
100
AcDbSymbolTableRecord
100
AcDbLayerTableRecord
2
SK1
70
0
62
4
6
CONTINUOUS
290
1
370
-3
390
0
0
LAYER
5
181
100
AcDbSymbolTableRecord
100
AcDbLayerTableRecord
2
SK4
70
0
62
2
6
CENTER
290
1
370
-3
390
0
0
LAYER
5
182
100
AcDbSymbolTableRecord
100
AcDbLayerTableRecord
2
SK6
70
0
62
5
6
CONTINUOUS
290
1
370
-3
390
0
0
ENDTAB
0
TABLE
2
STYLE
5
196
100
AcDbSymbolTable
0
STYLE
5
11
100
AcDbSymbolTableRecord
100
AcDbTextStyleTableRecord
2
Standard
3
txt
70
0
71
0
40
0
41
1
42
0
50
0
0
STYLE
5
DB
100
AcDbSymbolTableRecord
100
AcDbTextStyleTableRecord
2
iso_b_vert
3
simplex.shx
70
0
71
0
40
0
41
1
42
0
50
0
0
STYLE
5
DC
100
AcDbSymbolTableRecord
100
AcDbTextStyleTableRecord
2
DWGDirectTextStyle
3
simplex
70
0
71
0
40
0
41
1
42
0
50
0
0
ENDTAB
0
TABLE
2
DIMSTYLE
5
197
100
AcDbSymbolTable
100
AcDbDimStyleTable
0
DIMSTYLE
105
27
100
AcDbSymbolTableRecord
100
AcDbDimStyleTableRecord
2
Standard
70
0
3
<>
41
0.18
42
0.0625
44
0.18
140
0.18
147
0.09
73
0
74
0
77
1
271
2
275
0
278
52
280
0
340
11
0
ENDTAB
0
TABLE
2
VIEW
5
198
100
AcDbSymbolTable
0
ENDTAB
0
TABLE
2
UCS
5
199
100
AcDbSymbolTable
0
ENDTAB
0
TABLE
2
APPID
5
19a
100
AcDbSymbolTable
0
APPID
5
12
100
AcDbSymbolTableRecord
100
AcDbRegAppTableRecord
2
ACAD
70
0
0
ENDTAB
0
TABLE
2
BLOCK_RECORD
5
19b
100
AcDbSymbolTable
0
BLOCK_RECORD
5
1F
100
AcDbSymbolTableRecord
100
AcDbBlockTableRecord
2
*Model_Space
340
0
70
0
0
BLOCK_RECORD
5
1B
100
AcDbSymbolTableRecord
100
AcDbBlockTableRecord
2
*Paper_Space
340
0
70
0
0
BLOCK_RECORD
5
23
100
AcDbSymbolTableRecord
100
AcDbBlockTableRecord
2
*Paper_Space0
340
0
70
0
0
BLOCK_RECORD
5
DE
100
AcDbSymbolTableRecord
100
AcDbBlockTableRecord
2
DimnDraft3D1
340
0
70
0
0
BLOCK_RECORD
5
E8
100
AcDbSymbolTableRecord
100
AcDbBlockTableRecord
2
DimnDraft3D2
340
0
70
0
0
BLOCK_RECORD
5
F2
100
AcDbSymbolTableRecord
100
AcDbBlockTableRecord
2
DimnDraft3D3
340
0
70
0
0
BLOCK_RECORD
5
FC
100
AcDbSymbolTableRecord
100
AcDbBlockTableRecord
2
DimnDraft3D4
340
0
70
0
0
BLOCK_RECORD
5
106
100
AcDbSymbolTableRecord
100
AcDbBlockTableRecord
2
DimnDraft3D5
340
0
70
0
0
BLOCK_RECORD
5
110
100
AcDbSymbolTableRecord
100
AcDbBlockTableRecord
2
DimnDraft3D6
340
0
70
0
0
BLOCK_RECORD
5
11B
100
AcDbSymbolTableRecord
100
AcDbBlockTableRecord
2
DimnDraft3D7
340
0
70
0
0
ENDTAB
0
ENDSEC
0
SECTION
2
BLOCKS
0
BLOCK
5
20
100
AcDbEntity
8
0
100
AcDbBlockBegin
2
*Model_Space
70
0
10
0
20
0
30
0
3
*Model_Space
0
ENDBLK
5
21
100
AcDbEntity
8
0
100
AcDbBlockEnd
0
BLOCK
5
1C
100
AcDbEntity
8
0
100
AcDbBlockBegin
2
*Paper_Space
70
0
10
0
20
0
30
0
3
*Paper_Space
0
ENDBLK
5
1D
100
AcDbEntity
8
0
100
AcDbBlockEnd
0
BLOCK
5
24
100
AcDbEntity
8
0
100
AcDbBlockBegin
2
*Paper_Space0
70
0
10
0
20
0
30
0
3
*Paper_Space0
0
ENDBLK
5
25
100
AcDbEntity
8
0
100
AcDbBlockEnd
0
BLOCK
5
E5
100
AcDbEntity
8
0
100
AcDbBlockBegin
2
DimnDraft3D1
70
0
10
0
20
0
30
0
3
DimnDraft3D1
0
MTEXT
5
DF
100
AcDbEntity
8
SK2
62
256
6
ByLayer
370
13
48
1
60
0
100
AcDbMText
10
9.428875
20
-11.738398
30
0
210
0
220
0
230
1
1
\W0.6791;29,19
40
3.5
41
0
44
1.084337
50
0
71
7
72
5
7
iso_b_vert
0
LINE
5
E0
100
AcDbEntity
8
SK2
62
256
6
ByLayer
370
13
48
1
60
0
100
AcDbLine
10
0
20
-1.5875
30
0
11
0
21
-14.613398
31
0
39
0
210
0
220
0
230
1
0
LINE
5
E1
100
AcDbEntity
8
SK2
62
256
6
ByLayer
370
13
48
1
60
0
100
AcDbLine
10
29.19
20
-3.9875
30
0
11
29.19
21
-14.613398
31
0
39
0
210
0
220
0
230
1
0
LINE
5
E2
100
AcDbEntity
8
SK2
62
256
6
ByLayer
370
13
48
1
60
0
100
AcDbLine
10
0
20
-12.613398
30
0
11
29.19
21
-12.613398
31
0
39
0
210
0
220
0
230
1
0
SOLID
5
E3
100
AcDbEntity
8
SK2
62
256
6
ByLayer
370
13
48
1
60
0
100
AcDbTrace
10
0
20
-12.613398
30
0
11
3.499998
21
-12.152615
31
0
12
3.500002
22
-13.074182
32
0
13
0
23
-12.613398
33
0
39
0
210
0
220
0
230
1
0
SOLID
5
E4
100
AcDbEntity
8
SK2
62
256
6
ByLayer
370
13
48
1
60
0
100
AcDbTrace
10
29.19
20
-12.613398
30
0
11
25.690002
21
-13.074182
31
0
12
25.689998
22
-12.152615
32
0
13
29.19
23
-12.613398
33
0
39
0
210
0
220
0
230
1
0
ENDBLK
5
E6
100
AcDbEntity
8
0
100
AcDbBlockEnd
0
BLOCK
5
EF
100
AcDbEntity
8
0
100
AcDbBlockBegin
2
DimnDraft3D2
70
0
10
0
20
0
30
0
3
DimnDraft3D2
0
MTEXT
5
E9
100
AcDbEntity
8
SK2
62
256
6
ByLayer
370
13
48
1
60
0
100
AcDbMText
10
-6.917384
20
-30.817985
30
0
210
0
220
0
230
1
1
\W0.7317;66,00
40
3.5
41
0
44
1.084337
50
0
71
7
72
5
7
iso_b_vert
0
LINE
5
EA
100
AcDbEntity
8
SK2
62
256
6
ByLayer
370
13
48
1
60
0
100
AcDbLine
10
-36
20
-4.5875
30
0
11
-36
21
-33.692985
31
0
39
0
210
0
220
0
230
1
0
LINE
5
EB
100
AcDbEntity
8
SK2
62
256
6
ByLayer
370
13
48
1
60
0
100
AcDbLine
10
30
20
-1.5875
30
0
11
30
21
-33.692985
31
0
39
0
210
0
220
0
230
1
0
LINE
5
EC
100
AcDbEntity
8
SK2
62
256
6
ByLayer
370
13
48
1
60
0
100
AcDbLine
10
-36
20
-31.692985
30
0
11
30
21
-31.692985
31
0
39
0
210
0
220
0
230
1
0
SOLID
5
ED
100
AcDbEntity
8
SK2
62
256
6
ByLayer
370
13
48
1
60
0
100
AcDbTrace
10
-36
20
-31.692985
30
0
11
-32.500002
21
-31.232202
31
0
12
-32.499998
22
-32.153769
32
0
13
-36
23
-31.692985
33
0
39
0
210
0
220
0
230
1
0
SOLID
5
EE
100
AcDbEntity
8
SK2
62
256
6
ByLayer
370
13
48
1
60
0
100
AcDbTrace
10
30
20
-31.692985
30
0
11
26.500002
21
-32.153769
31
0
12
26.499998
22
-31.232202
32
0
13
30
23
-31.692985
33
0
39
0
210
0
220
0
230
1
0
ENDBLK
5
F0
100
AcDbEntity
8
0
100
AcDbBlockEnd
0
BLOCK
5
F9
100
AcDbEntity
8
0
100
AcDbBlockBegin
2
DimnDraft3D3
70
0
10
0
20
0
30
0
3
DimnDraft3D3
0
MTEXT
5
F3
100
AcDbEntity
8
SK2
62
256
6
ByLayer
370
13
48
1
60
0
100
AcDbMText
10
18.821316
20
14.884119
30
0
210
0
220
0
230
1
1
\W0.6563;15,21
40
3.5
41
0
44
1.084337
50
0
71
7
72
5
7
iso_b_vert
0
LINE
5
F4
100
AcDbEntity
8
SK2
62
256
6
ByLayer
370
13
48
1
60
0
100
AcDbLine
10
14.79
20
3.9875
30
0
11
14.79
21
16.009119
31
0
39
0
210
0
220
0
230
1
0
LINE
5
F5
100
AcDbEntity
8
SK2
62
256
6
ByLayer
370
13
48
1
60
0
100
AcDbLine
10
30
20
1.5875
30
0
11
30
21
16.009119
31
0
39
0
210
0
220
0
230
1
0
LINE
5
F6
100
AcDbEntity
8
SK2
62
256
6
ByLayer
370
13
48
1
60
0
100
AcDbLine
10
14.79
20
14.009119
30
0
11
30
21
14.009119
31
0
39
0
210
0
220
0
230
1
0
SOLID
5
F7
100
AcDbEntity
8
SK2
62
256
6
ByLayer
370
13
48
1
60
0
100
AcDbTrace
10
14.79
20
14.009119
30
0
11
18.289998
21
14.469903
31
0
12
18.290002
22
13.548335
32
0
13
14.79
23
14.009119
33
0
39
0
210
0
220
0
230
1
0
SOLID
5
F8
100
AcDbEntity
8
SK2
62
256
6
ByLayer
370
13
48
1
60
0
100
AcDbTrace
10
30
20
14.009119
30
0
11
26.500002
21
13.548335
31
0
12
26.499998
22
14.469903
32
0
13
30
23
14.009119
33
0
39
0
210
0
220
0
230
1
0
ENDBLK
5
FA
100
AcDbEntity
8
0
100
AcDbBlockEnd
0
BLOCK
5
103
100
AcDbEntity
8
0
100
AcDbBlockBegin
2
DimnDraft3D4
70
0
10
0
20
0
30
0
3
DimnDraft3D4
0
MTEXT
5
FD
100
AcDbEntity
8
SK2
62
256
6
ByLayer
370
13
48
1
60
0
100
AcDbMText
10
37.278136
20
-14.327503
30
0
210
0
220
0
230
1
1
\W0.6993;0,81
40
3.5
41
0
44
1.084337
50
0
71
7
72
5
7
iso_b_vert
0
LINE
5
FE
100
AcDbEntity
8
SK2
62
256
6
ByLayer
370
13
48
1
60
0
100
AcDbLine
10
30
20
-1.5875
30
0
11
30
21
-17.202503
31
0
39
0
210
0
220
0
230
1
0
LINE
5
FF
100
AcDbEntity
8
SK2
62
256
6
ByLayer
370
13
48
1
60
0
100
AcDbLine
10
29.19
20
-3.9875
30
0
11
29.19
21
-17.202503
31
0
39
0
210
0
220
0
230
1
0
LINE
5
100
100
AcDbEntity
8
SK2
62
256
6
ByLayer
370
13
48
1
60
0
100
AcDbLine
10
20.44
20
-15.202503
30
0
11
43.559715
21
-15.202503
31
0
39
0
210
0
220
0
230
1
0
SOLID
5
101
100
AcDbEntity
8
SK2
62
256
6
ByLayer
370
13
48
1
60
0
100
AcDbTrace
10
30
20
-15.202503
30
0
11
33.499998
21
-14.741719
31
0
12
33.500002
22
-15.663287
32
0
13
30
23
-15.202503
33
0
39
0
210
0
220
0
230
1
0
SOLID
5
102
100
AcDbEntity
8
SK2
62
256
6
ByLayer
370
13
48
1
60
0
100
AcDbTrace
10
29.19
20
-15.202503
30
0
11
25.690002
21
-15.663287
31
0
12
25.689998
22
-14.741719
32
0
13
29.19
23
-15.202503
33
0
39
0
210
0
220
0
230
1
0
ENDBLK
5
104
100
AcDbEntity
8
0
100
AcDbBlockEnd
0
BLOCK
5
10D
100
AcDbEntity
8
0
100
AcDbBlockBegin
2
DimnDraft3D5
70
0
10
0
20
0
30
0
3
DimnDraft3D5
0
MTEXT
5
107
100
AcDbEntity
8
SK2
62
256
6
ByLayer
370
13
48
1
60
0
100
AcDbMText
10
-9.560508
20
-20.468428
30
0
210
0
220
0
230
1
1
\W0.6791;65,19
40
3.5
41
0
44
1.084337
50
0
71
7
72
5
7
iso_b_vert
0
LINE
5
108
100
AcDbEntity
8
SK2
62
256
6
ByLayer
370
13
48
1
60
0
100
AcDbLine
10
-36
20
-4.5875
30
0
11
-36
21
-23.343428
31
0
39
0
210
0
220
0
230
1
0
LINE
5
109
100
AcDbEntity
8
SK2
62
256
6
ByLayer
370
13
48
1
60
0
100
AcDbLine
10
29.19
20
-3.9875
30
0
11
29.19
21
-23.343428
31
0
39
0
210
0
220
0
230
1
0
LINE
5
10A
100
AcDbEntity
8
SK2
62
256
6
ByLayer
370
13
48
1
60
0
100
AcDbLine
10
-36
20
-21.343428
30
0
11
29.19
21
-21.343428
31
0
39
0
210
0
220
0
230
1
0
SOLID
5
10B
100
AcDbEntity
8
SK2
62
256
6
ByLayer
370
13
48
1
60
0
100
AcDbTrace
10
-36
20
-21.343428
30
0
11
-32.500002
21
-20.882645
31
0
12
-32.499998
22
-21.804212
32
0
13
-36
23
-21.343428
33
0
39
0
210
0
220
0
230
1
0
SOLID
5
10C
100
AcDbEntity
8
SK2
62
256
6
ByLayer
370
13
48
1
60
0
100
AcDbTrace
10
29.19
20
-21.343428
30
0
11
25.690002
21
-21.804212
31
0
12
25.689998
22
-20.882645
32
0
13
29.19
23
-21.343428
33
0
39
0
210
0
220
0
230
1
0
ENDBLK
5
10E
100
AcDbEntity
8
0
100
AcDbBlockEnd
0
BLOCK
5
118
100
AcDbEntity
8
0
100
AcDbBlockBegin
2
DimnDraft3D6
70
0
10
0
20
0
30
0
3
DimnDraft3D6
0
MTEXT
5
111
100
AcDbEntity
8
SK2
62
256
6
ByLayer
370
13
48
1
60
0
100
AcDbMText
10
-46.375163
20
22.34918
30
0
210
0
220
0
230
1
1
\W0.7317;6,000
40
3.5
41
0
44
1.084337
50
90
71
7
72
5
7
iso_b_vert
0
MTEXT
5
112
100
AcDbEntity
8
SK2
62
256
6
ByLayer
370
13
48
1
60
0
100
AcDbMText
10
-46.375163
20
17.126524
30
0
210
0
220
0
230
1
1
%%c
40
3.5
41
0
44
1.084337
50
90
71
7
72
5
7
iso_b_vert
0
LINE
5
113
100
AcDbEntity
8
SK2
62
256
6
ByLayer
370
13
48
1
60
0
100
AcDbLine
10
-37.5875
20
-3
30
0
11
-46.625163
21
-3
31
0
39
0
210
0
220
0
230
1
0
LINE
5
114
100
AcDbEntity
8
SK2
62
256
6
ByLayer
370
13
48
1
60
0
100
AcDbLine
10
-37.5875
20
3
30
0
11
-46.625163
21
3
31
0
39
0
210
0
220
0
230
1
0
LINE
5
115
100
AcDbEntity
8
SK2
62
256
6
ByLayer
370
13
48
1
60
0
100
AcDbLine
10
-44.625163
20
32.121549
30
0
11
-44.625163
21
-11.75
31
0
39
0
210
0
220
0
230
1
0
SOLID
5
116
100
AcDbEntity
8
SK2
62
256
6
ByLayer
370
13
48
1
60
0
100
AcDbTrace
10
-44.625163
20
-3
30
0
11
-44.164379
21
-6.499998
31
0
12
-45.085946
22
-6.500002
32
0
13
-44.625163
23
-3
33
0
39
0
210
0
220
0
230
1
0
SOLID
5
117
100
AcDbEntity
8
SK2
62
256
6
ByLayer
370
13
48
1
60
0
100
AcDbTrace
10
-44.625163
20
3
30
0
11
-45.085946
21
6.499998
31
0
12
-44.164379
22
6.500002
32
0
13
-44.625163
23
3
33
0
39
0
210
0
220
0
230
1
0
ENDBLK
5
119
100
AcDbEntity
8
0
100
AcDbBlockEnd
0
BLOCK
5
123
100
AcDbEntity
8
0
100
AcDbBlockBegin
2
DimnDraft3D7
70
0
10
0
20
0
30
0
3
DimnDraft3D7
0
MTEXT
5
11C
100
AcDbEntity
8
2
62
256
6
ByLayer
370
13
48
1
60
0
100
AcDbMText
10
40.333343
20
20.342266
30
0
210
0
220
0
230
1
1
\W0.7581;4,800
40
3.5
41
0
44
1.084337
50
90
71
7
72
5
7
iso_b_vert
0
MTEXT
5
11D
100
AcDbEntity
8
2
62
256
6
ByLayer
370
13
48
1
60
0
100
AcDbMText
10
40.333343
20
15.11961
30
0
210
0
220
0
230
1
1
%%c
40
3.5
41
0
44
1.084337
50
90
71
7
72
5
7
iso_b_vert
0
LINE
5
11E
100
AcDbEntity
8
2
62
256
6
ByLayer
370
13
48
1
60
0
100
AcDbLine
10
30.7775
20
-2.4
30
0
11
44.083343
21
-2.4
31
0
39
0
210
0
220
0
230
1
0
LINE
5
11F
100
AcDbEntity
8
2
62
256
6
ByLayer
370
13
48
1
60
0
100
AcDbLine
10
30.7775
20
2.4
30
0
11
44.083343
21
2.4
31
0
39
0
210
0
220
0
230
1
0
LINE
5
120
100
AcDbEntity
8
2
62
256
6
ByLayer
370
13
48
1
60
0
100
AcDbLine
10
42.083343
20
30.483056
30
0
11
42.083343
21
-11.15
31
0
39
0
210
0
220
0
230
1
0
SOLID
5
121
100
AcDbEntity
8
2
62
256
6
ByLayer
370
13
48
1
60
0
100
AcDbTrace
10
42.083343
20
-2.4
30
0
11
42.544126
21
-5.899998
31
0
12
41.622559
22
-5.900002
32
0
13
42.083343
23
-2.4
33
0
39
0
210
0
220
0
230
1
0
SOLID
5
122
100
AcDbEntity
8
2
62
256
6
ByLayer
370
13
48
1
60
0
100
AcDbTrace
10
42.083343
20
2.4
30
0
11
41.622559
21
5.899998
31
0
12
42.544126
22
5.900002
32
0
13
42.083343
23
2.4
33
0
39
0
210
0
220
0
230
1
0
ENDBLK
5
124
100
AcDbEntity
8
0
100
AcDbBlockEnd
0
ENDSEC
0
SECTION
2
ENTITIES
0
ARC
5
97
100
AcDbEntity
8
1
62
256
6
ByLayer
370
18
48
1
60
0
100
AcDbCircle
39
0
10
0
20
2.2
30
0
40
0.800000000000003
210
0
220
0
230
1
100
AcDbArc
50
37.916153
51
90
0
ARC
5
98
100
AcDbEntity
8
1
62
256
6
ByLayer
370
18
48
1
60
0
100
AcDbCircle
39
0
10
0
20
-2.2
30
0
40
0.800000000000003
210
0
220
0
230
1
100
AcDbArc
50
270
51
322.083847
0
ARC
5
99
100
AcDbEntity
8
1
62
256
6
ByLayer
370
18
48
1
60
0
100
AcDbCircle
39
0
10
-1.262257
20
-3.183212
30
0
40
0.799999999999998
210
0
220
0
230
-1
100
AcDbArc
50
37.916153
51
90.034377
0
ARC
5
9A
100
AcDbEntity
8
1
62
256
6
ByLayer
370
18
48
1
60
0
100
AcDbCircle
39
0
10
-1.262257
20
3.183212
30
0
40
0.799999999999998
210
0
220
0
230
-1
100
AcDbArc
50
269.965623
51
322.083847
0
ELLIPSE
5
9B
100
AcDbEntity
8
1
62
256
6
ByLayer
370
18
48
1
60
0
100
AcDbEllipse
10
29.494387
20
1.31447
30
0
11
0.373809864898894
21
-1.00679605382844
31
0
210
0
220
0
230
-1
40
0.131755
41
-1.51343028767817
42
-0.736518128022889
0
ELLIPSE
5
9C
100
AcDbEntity
8
1
62
256
6
ByLayer
370
18
48
1
60
0
100
AcDbEllipse
10
29.860877
20
0.093386
30
0
11
0.0727819104923185
21
0.301917195716971
31
0
210
0
220
0
230
-1
40
0.478434
41
1.68515111357112
42
2.45976119973366
0
ELLIPSE
5
9D
100
AcDbEntity
8
1
62
256
6
ByLayer
370
13
48
1
60
0
100
AcDbEllipse
10
29.720489
20
1.31447
30
0
11
1.56641683568187
21
-0.696715555728634
31
0
210
0
220
0
230
-1
40
0.465048
41
1.59306550801675
42
1.80542092941608
0
ELLIPSE
5
9E
100
AcDbEntity
8
1
62
256
6
ByLayer
370
18
48
1
60
0
100
AcDbEllipse
10
30.057922
20
0.023527
30
0
11
0.13554494438328
21
0.427068209947757
31
0
210
0
220
0
230
-1
40
0.100282
41
-2.33653286890426
42
-1.71487955340033
0
ELLIPSE
5
9F
100
AcDbEntity
8
1
62
256
6
ByLayer
370
13
48
1
60
0
100
AcDbEllipse
10
29.530583
20
1.191272
30
0
11
1.50139377671956
21
-1.03375230932945
31
0
210
0
220
0
230
-1
40
0.533762
41
1.44484622742297
42
1.61557586786674
0
ELLIPSE
5
A0
100
AcDbEntity
8
1
62
256
6
ByLayer
370
13
48
1
60
0
100
AcDbEllipse
10
29.361684
20
0.389574
30
0
11
0.153082081612418
21
0.258003636193773
31
0
210
0
220
0
230
1
40
0.454519
41
0.917105603404807
42
2.31336900500037
0
ELLIPSE
5
A1
100
AcDbEntity
8
1
62
256
6
ByLayer
370
18
48
1
60
0
100
AcDbEllipse
10
30.000223
20
0.000524
30
0
11
0.890192169985324
21
2.39758776171416
31
0
210
0
220
0
230
-1
40
0.131755
41
2.84354926335285
42
2.96736357251852
0
ELLIPSE
5
A2
100
AcDbEntity
8
1
62
256
6
ByLayer
370
18
48
1
60
0
100
AcDbEllipse
10
30.000223
20
-0.000524
30
0
11
0.890192182418699
21
-2.39758779867915
31
0
210
0
220
0
230
-1
40
0.131755
41
-2.96736357388135
42
-2.84354926568541
0
ELLIPSE
5
A3
100
AcDbEntity
8
1
62
256
6
ByLayer
370
13
48
1
60
0
100
AcDbEllipse
10
4.250211
20
-2.362688
30
0
11
0.00232720151457065
21
0.0999729169981079
31
0
210
0
220
0
230
1
40
0.517759
41
0.0422187117516482
42
1.58236528056176
0
ELLIPSE
5
A4
100
AcDbEntity
8
1
62
256
6
ByLayer
370
18
48
1
60
0
100
AcDbEllipse
10
30.057922
20
-0.023527
30
0
11
0.135544944477509
21
-0.427068210185454
31
0
210
0
220
0
230
-1
40
0.100282
41
1.71487955375334
42
2.33653286895416
0
ELLIPSE
5
A5
100
AcDbEntity
8
1
62
256
6
ByLayer
370
18
48
1
60
0
100
AcDbEllipse
10
29.494387
20
-1.31447
30
0
11
0.373809864880854
21
1.00679605379102
31
0
210
0
220
0
230
-1
40
0.131755
41
0.736518128023948
42
1.51343028770544
0
ELLIPSE
5
A6
100
AcDbEntity
8
1
62
256
6
ByLayer
370
13
48
1
60
0
100
AcDbEllipse
10
4.17178
20
-2.382515
30
0
11
-0.0499937481298739
21
0.0866061495964734
31
0
210
0
220
0
230
1
40
0.474702
41
0.0541890544931295
42
1.32224765690178
0
POINT
5
6C
100
AcDbEntity
8
81
62
256
6
ByLayer
370
18
48
1
60
0
100
AcDbPoint
10
30
20
0
30
0
39
0
210
0
220
0
230
1
50
360
0
POINT
5
6E
100
AcDbEntity
8
80
62
256
6
ByLayer
370
18
48
1
60
0
100
AcDbPoint
10
0
20
0
30
0
39
0
210
0
220
0
230
1
50
360
0
POINT
5
70
100
AcDbEntity
8
SK2
62
256
6
ByLayer
370
18
48
1
60
1
100
AcDbPoint
10
-36
20
-3
30
0
39
0
210
0
220
0
230
1
50
360
0
POINT
5
72
100
AcDbEntity
8
SK2
62
256
6
ByLayer
370
18
48
1
60
1
100
AcDbPoint
10
-36
20
3
30
0
39
0
210
0
220
0
230
1
50
360
0
POINT
5
73
100
AcDbEntity
8
2
62
256
6
ByLayer
370
18
48
1
60
1
100
AcDbPoint
10
29.19
20
-2.4
30
0
39
0
210
0
220
0
230
1
50
360
0
POINT
5
75
100
AcDbEntity
8
2
62
256
6
ByLayer
370
18
48
1
60
1
100
AcDbPoint
10
29.19
20
2.4
30
0
39
0
210
0
220
0
230
1
50
360
0
SPLINE
5
A7
100
AcDbEntity
8
1
62
256
6
ByLayer
370
18
48
1
60
0
100
AcDbSpline
70
4
71
3
72
19
73
15
40
0
40
0
40
0
40
0
40
0.15854769162551
40
0.279005193757734
40
0.353391932118098
40
0.423120354764241
40
0.641013818248346
40
0.701687659055482
40
0.761440763783684
40
0.820270549859846
40
0.878092789379935
40
0.934863156980601
40
0.998915717998985
40
1
40
1
40
1
40
1
41
1
10
22.0880433620982
20
2.27439459062262
30
0
41
1
10
21.8533003087419
20
2.27419841785519
30
0
41
1
10
21.4402098759795
20
2.27383128160099
30
0
41
1
10
20.9169892472934
20
2.27412074294986
30
0
41
1
10
20.5252647201817
20
2.27333906828727
30
0
41
1
10
19.9892779545625
20
2.27403373980343
30
0
41
1
10
19.4735974305843
20
2.27252071433344
30
0
41
1
10
18.9726820628195
20
2.2728303549479
30
0
41
1
10
18.7072748261843
20
2.27307184684457
30
0
41
1
10
18.4460918768262
20
2.27211697777844
30
0
41
1
10
18.189324295439
20
2.2718639485868
30
0
41
1
10
17.9248215046717
20
2.27212153657209
30
0
41
1
10
17.744329468334
20
2.27228801241361
30
0
41
1
10
17.647888938762
20
2.27230448799324
30
0
41
1
10
17.6462835685688
20
2.27230474240389
30
0
0
SPLINE
5
A8
100
AcDbEntity
8
1
62
256
6
ByLayer
370
18
48
1
60
0
100
AcDbSpline
70
4
71
3
72
13
73
9
40
0
40
0
40
0
40
0
40
0.0138194044115398
40
0.191021054688588
40
0.428626521540991
40
0.603853195289022
40
0.742623217355407
40
1
40
1
40
1
40
1
41
1
10
23.1899374785873
20
-0.715791378156553
30
0
41
1
10
23.1899376650135
20
-0.715913412950812
30
0
41
1
10
23.1922970813935
20
-0.717951480681819
30
0
41
1
10
23.2432357343004
20
-0.728376765130264
30
0
41
1
10
23.3170077574256
20
-0.755842790083221
30
0
41
1
10
23.3889073923335
20
-0.781484981145525
30
0
41
1
10
23.6005323551737
20
-0.880893659154083
30
0
41
1
10
23.7576921423207
20
-0.964186647899652
30
0
41
1
10
23.8761979329671
20
-1.02977224271632
30
0
0
SPLINE
5
A9
100
AcDbEntity
8
1
62
256
6
ByLayer
370
18
48
1
60
0
100
AcDbSpline
70
4
71
3
72
18
73
14
40
0
40
0
40
0
40
0
40
0.11676186183329
40
0.203725489391127
40
0.27242419514413
40
0.339091744690303
40
0.40425776234945
40
0.469282059359823
40
0.656846624499552
40
0.70891256086445
40
0.785687502239979
40
0.887386007961065
40
1
40
1
40
1
40
1
41
1
10
4.62650454516481
20
-2.25944387984328
30
0
41
1
10
4.82663135356398
20
-2.26167118232081
30
0
41
1
10
5.177321953937
20
-2.26450873934826
30
0
41
1
10
5.64938872447124
20
-2.26513477013057
30
0
41
1
10
6.03743920417421
20
-2.26517440033947
30
0
41
1
10
6.38685002253339
20
-2.26585661560648
30
0
41
1
10
6.73001562554052
20
-2.26600556444598
30
0
41
1
10
7.28386113542084
20
-2.26492046769866
30
0
41
1
10
7.81489160169136
20
-2.26743186534299
30
0
41
1
10
8.36640332912413
20
-2.26768668616424
30
0
41
1
10
8.76822747479591
20
-2.26686869604336
30
0
41
1
10
9.27560861959495
20
-2.26654970537274
30
0
41
1
10
9.64915396926745
20
-2.26732013491318
30
0
41
1
10
9.84543886840549
20
-2.26796929369698
30
0
0
SPLINE
5
AA
100
AcDbEntity
8
1
62
256
6
ByLayer
370
18
48
1
60
0
100
AcDbSpline
70
4
71
3
72
14
73
10
40
0
40
0
40
0
40
0
40
0.0892389804576375
40
0.265478283655943
40
0.424968638173852
40
0.51269724664411
40
0.591749695833411
40
0.741397208024519
40
1
40
1
40
1
40
1
41
1
10
10.9447879559526
20
-0.716510123322934
30
0
41
1
10
10.9451036988801
20
-0.717139253952581
30
0
41
1
10
10.9549054127982
20
-0.720537238304701
30
0
41
1
10
11.0086516055262
20
-0.731574384365899
30
0
41
1
10
11.0712055805694
20
-0.754798363886295
30
0
41
1
10
11.1337136906851
20
-0.77963833008269
30
0
41
1
10
11.1957036200712
20
-0.805244067945267
30
0
41
1
10
11.3683432992599
20
-0.887175959616542
30
0
41
1
10
11.5205388824284
20
-0.968129210598306
30
0
41
1
10
11.6315883424646
20
-1.02986422401401
30
0
0
SPLINE
5
AB
100
AcDbEntity
8
1
62
256
6
ByLayer
370
18
48
1
60
0
100
AcDbSpline
70
4
71
3
72
20
73
16
40
0
40
0
40
0
40
0
40
0.110013806908746
40
0.190058884295604
40
0.241980855783773
40
0.287999771515942
40
0.334871350481884
40
0.382559661873891
40
0.430996429283341
40
0.48017955923753
40
0.705259973514119
40
0.749697166716724
40
0.809942859976722
40
0.89807713417699
40
1
40
1
40
1
40
1
41
1
10
16.6097660491841
20
-2.27151021149589
30
0
41
1
10
16.8106627024877
20
-2.27173785568238
30
0
41
1
10
17.1577514179407
20
-2.27199887723751
30
0
41
1
10
17.5997344081719
20
-2.27242140371641
30
0
41
1
10
17.9248215046555
20
-2.27212148165299
30
0
41
1
10
18.1893242954846
20
-2.27186413161971
30
0
41
1
10
18.4460918766394
20
-2.27211627182669
30
0
41
1
10
18.707274826887
20
-2.27307454981923
30
0
41
1
10
18.9726820601208
20
-2.27282003013352
30
0
41
1
10
19.5620966595178
20
-2.27256448715423
30
0
41
1
10
20.1441998156447
20
-2.27340808519645
30
0
41
1
10
20.7465165767657
20
-2.27364803208403
30
0
41
1
10
21.098691816748
20
-2.27422410388326
30
0
41
1
10
21.5558720288479
20
-2.27403908025343
30
0
41
1
10
21.9030057546459
20
-2.27428134663259
30
0
41
1
10
22.0891642197177
20
-2.27440380833121
30
0
0
SPLINE
5
AC
100
AcDbEntity
8
1
62
256
6
ByLayer
370
18
48
1
60
0
100
AcDbSpline
70
4
71
3
72
9
73
5
40
0
40
0
40
0
40
0
40
0.379663604508596
40
1
40
1
40
1
40
1
41
1
10
15.4014004555876
20
0.329140370530013
30
0
41
1
10
15.399119224573
20
0.330605891247785
30
0
41
1
10
15.3758653336584
20
0.343040677302298
30
0
41
1
10
15.3173960208932
20
0.377214789597247
30
0
41
1
10
15.2662467748091
20
0.406889864997964
30
0
0
SPLINE
5
AD
100
AcDbEntity
8
1
62
256
6
ByLayer
370
18
48
1
60
0
100
AcDbSpline
70
4
71
2
72
6
73
3
40
0
40
0
40
0
40
1
40
1
40
1
41
1
10
28.7097515526817
20
-2.27727749661992
30
0
41
1
10
28.9334134783899
20
-2.27772570529501
30
0
41
1
10
29.1575727257757
20
-2.27903346641099
30
0
0
SPLINE
5
AE
100
AcDbEntity
8
1
62
256
6
ByLayer
370
18
48
1
60
0
100
AcDbSpline
70
4
71
3
72
16
73
12
40
0
40
0
40
0
40
0
40
0.122878274286816
40
0.229844583162663
40
0.304017834275171
40
0.357601644141897
40
0.568231129087751
40
0.769115459560747
40
0.819625956411226
40
0.9001374284474
40
1
40
1
40
1
40
1
41
1
10
9.84354537035188
20
2.26796809037896
30
0
41
1
10
9.66086771312314
20
2.26741485768608
30
0
41
1
10
9.31916683205415
20
2.26675547235411
30
0
41
1
10
8.86718558656406
20
2.266705838489
30
0
41
1
10
8.51823133587428
20
2.26737176013342
30
0
41
1
10
8.01515847128098
20
2.26803738663267
30
0
41
1
10
7.32362238410548
20
2.26404422345396
30
0
41
1
10
6.63701567115299
20
2.26631268874581
30
0
41
1
10
6.14317595469029
20
2.26536030142094
30
0
41
1
10
5.80210767404947
20
2.26482835178899
30
0
41
1
10
5.53576018644821
20
2.263567929602
30
0
41
1
10
5.38809223693008
20
2.26287195979748
30
0
0
SPLINE
5
AF
100
AcDbEntity
8
1
62
256
6
ByLayer
370
18
48
1
60
0
100
AcDbSpline
70
4
71
3
72
10
73
6
40
0
40
0
40
0
40
0
40
0.5
40
0.5
40
1
40
1
40
1
40
1
41
1
10
4.11902153328543
20
-2.38442250156103
30
0
41
1
10
4.09569698378306
20
-2.38411368431244
30
0
41
1
10
4.07545327208064
20
-2.38359341177653
30
0
41
1
10
4.04560607981946
20
-2.381583171671
30
0
41
1
10
4.03609250096417
20
-2.38006710790415
30
0
41
1
10
4.03609652045535
20
-2.37797314856823
30
0
0
SPLINE
5
B0
100
AcDbEntity
8
1
62
256
6
ByLayer
370
18
48
1
60
0
100
AcDbSpline
70
4
71
3
72
8
73
4
40
0
40
0
40
0
40
0
40
1
40
1
40
1
40
1
41
1
10
4.1196238826715
20
-2.38443042397887
30
0
41
1
10
4.11942287764975
20
-2.38442779775508
30
0
41
1
10
4.11922209463796
20
-2.38442515698179
30
0
41
1
10
4.11902153331965
20
-2.3844225015481
30
0
0
SPLINE
5
B1
100
AcDbEntity
8
1
62
256
6
ByLayer
370
18
48
1
60
0
100
AcDbSpline
70
4
71
3
72
12
73
8
40
0
40
0
40
0
40
0
40
0.505815330551933
40
0.505815330551933
40
0.863914477685628
40
0.863914477685628
40
1
40
1
40
1
40
1
41
1
10
28.7421396578396
20
-2.27740200334884
30
0
41
1
10
28.3754126313852
20
-2.26954933669501
30
0
41
1
10
28.0111457517584
20
-2.23135307979965
30
0
41
1
10
27.3874993372744
20
-2.11740348179481
30
0
41
1
10
27.1285011048581
20
-2.05575915957064
30
0
41
1
10
26.7686047171585
20
-1.95166361416182
30
0
41
1
10
26.6690505354381
20
-1.92093969061682
30
0
41
1
10
26.5696939888968
20
-1.88844474259574
30
0
0
SPLINE
5
B2
100
AcDbEntity
8
1
62
256
6
ByLayer
370
13
48
1
60
0
100
AcDbSpline
70
4
71
3
72
26
73
22
40
0
40
0
40
0
40
0
40
0.0141692857609762
40
0.0141692857609762
40
0.073218758502021
40
0.073218758502021
40
0.309416649466207
40
0.309416649466207
40
0.368466122207253
40
0.368466122207253
40
0.427515594948299
40
0.427515594948299
40
0.545614540430391
40
0.545614540430391
40
0.663713485912483
40
0.663713485912483
40
0.722762958653527
40
0.722762958653527
40
0.781812431394572
40
0.781812431394572
40
1
40
1
40
1
40
1
41
1
10
26.5696939888957
20
-1.8884447425954
30
0
41
1
10
26.5383257751047
20
-1.87818564531256
30
0
41
1
10
26.5069772606164
20
-1.86775002101928
30
0
41
1
10
26.3451928866716
20
-1.81295928272377
30
0
41
1
10
26.2151761142404
20
-1.76581111245582
30
0
41
1
10
25.566579259641
20
-1.51637131263828
30
0
41
1
10
25.0525239466792
20
-1.27300542571115
30
0
41
1
10
24.4028025467347
20
-0.932130624139376
30
0
41
1
10
24.2724918723937
20
-0.862134359348488
30
0
41
1
10
24.0108513239862
20
-0.718866315906922
30
0
41
1
10
23.8800057242057
20
-0.645847394256236
30
0
41
1
10
23.4894275181197
20
-0.425054041741021
30
0
41
1
10
23.2306320580143
20
-0.274922165523691
30
0
41
1
10
22.7135012204216
20
0.0264732333910729
30
0
41
1
10
22.4551247350123
20
0.177664361718882
30
0
41
1
10
22.0662335273286
20
0.402384449139049
30
0
41
1
10
21.9363723146667
20
0.476929649915377
30
0
41
1
10
21.6757281233765
20
0.624494410797809
30
0
41
1
10
21.5445744647521
20
0.697676886693415
30
0
41
1
10
20.9309995465237
20
1.03452987309166
30
0
41
1
10
20.4545699786279
20
1.27789626369554
30
0
41
1
10
19.976679222816
20
1.48859836719976
30
0
0
SPLINE
5
B3
100
AcDbEntity
8
1
62
256
6
ByLayer
370
18
48
1
60
0
100
AcDbSpline
70
4
71
3
72
8
73
4
40
0
40
0
40
0
40
0
40
1
40
1
40
1
40
1
41
1
10
4.65217131744365
20
-2.25952662076114
30
0
41
1
10
4.51831512626686
20
-2.26463748179876
30
0
41
1
10
4.38425080172445
20
-2.2657469164692
30
0
41
1
10
4.25035157093433
20
-2.26275375985122
30
0
0
SPLINE
5
B4
100
AcDbEntity
8
1
62
256
6
ByLayer
370
18
48
1
60
0
100
AcDbSpline
70
4
71
3
72
78
73
74
40
0
40
0
40
0
40
0
40
0.0228750385043136
40
0.0228750385043136
40
0.0971665441228668
40
0.0971665441228668
40
0.17145804974142
40
0.17145804974142
40
0.245749555359973
40
0.245749555359973
40
0.28289530816925
40
0.28289530816925
40
0.320041060978526
40
0.320041060978526
40
0.39433256659708
40
0.39433256659708
40
0.431478319406356
40
0.431478319406356
40
0.450051195810995
40
0.450051195810995
40
0.452372805361574
40
0.453533610136864
40
0.453533610136864
40
0.453823811330687
40
0.453823811330687
40
0.454114012524509
40
0.454114012524509
40
0.454694414912154
40
0.454694414912154
40
0.459337634013313
40
0.459337634013313
40
0.468624072215632
40
0.468624072215632
40
0.505769825024905
40
0.505769825024905
40
0.542915577834178
40
0.542915577834178
40
0.617207083452724
40
0.617207083452724
40
0.654352836261997
40
0.654352836261997
40
0.672925712666634
40
0.672925712666634
40
0.69149858907127
40
0.69149858907127
40
0.69614180817243
40
0.69614180817243
40
0.697302612947719
40
0.697302612947719
40
0.698463417723009
40
0.698463417723009
40
0.69860851831992
40
0.69860851831992
40
0.698753618916832
40
0.698753618916832
40
0.699043820110654
40
0.699624222498299
40
0.700785027273588
40
0.710071465475905
40
0.710071465475905
40
0.72864434188054
40
0.72864434188054
40
0.765790094689808
40
0.765790094689808
40
0.840081600308344
40
0.840081600308344
40
0.91437310592688
40
0.91437310592688
40
0.951518858736148
40
0.951518858736148
40
0.988664611545416
40
0.988664611545416
40
1
40
1
40
1
40
1
41
1
10
9.10507014792466
20
0.479446138416307
30
0
41
1
10
9.04795025708071
20
0.501399675786075
30
0
41
1
10
8.99075700060766
20
0.522537894067597
30
0
41
1
10
8.74741737298496
20
0.60854183770175
30
0
41
1
10
8.55996818424057
20
0.664978264874122
30
0
41
1
10
8.18233190306387
20
0.752419435892534
30
0
41
1
10
7.99452652074888
20
0.782829155738909
30
0
41
1
10
7.61824973588085
20
0.813909466079878
30
0
41
1
10
7.42976592473451
20
0.814569924910387
30
0
41
1
10
7.14375307947768
20
0.792482698805799
30
0
41
1
10
7.04785849656963
20
0.781253507826705
30
0
41
1
10
6.85744610488439
20
0.751827295718016
30
0
41
1
10
6.76255310100012
20
0.73361260385073
30
0
41
1
10
6.47806959569368
20
0.669431599658253
30
0
41
1
10
6.28866497689677
20
0.613928271086536
30
0
41
1
10
6.00213698595564
20
0.515614085041875
30
0
41
1
10
5.90622674767815
20
0.480333277729528
30
0
41
1
10
5.76142482398609
20
0.424155347548549
30
0
41
1
10
5.71296621739526
20
0.404871603837592
30
0
41
1
10
5.65845717976612
20
0.382703668871045
30
0
41
1
10
5.64937148194301
20
0.378998767213517
30
0
41
1
10
5.64028487359539
20
0.375278923618424
30
0
41
1
10
5.63649865360304
20
0.373726929885322
30
0
41
1
10
5.63539009407526
20
0.373430697612747
30
0
41
1
10
5.63583515314571
20
0.371870481084358
30
0
41
1
10
5.63638966713484
20
0.371225354118707
30
0
41
1
10
5.63794348666312
20
0.369334919181114
30
0
41
1
10
5.63910640766795
20
0.36818173200848
30
0
41
1
10
5.64969021283289
20
0.358009462181457
30
0
41
1
10
5.66016544333337
20
0.350120798186396
30
0
41
1
10
5.69113224949334
20
0.326100724257998
30
0
41
1
10
5.71215808898066
20
0.310584560233139
30
0
41
1
10
5.81757080232927
20
0.233431185146969
30
0
41
1
10
5.90312418485371
20
0.173373821819126
30
0
41
1
10
6.07434367064215
20
0.0534846353460523
30
0
41
1
10
6.16024182524814
20
-0.0060475586590485
30
0
41
1
10
6.41794539103543
20
-0.184632058792602
30
0
41
1
10
6.58996745457631
20
-0.303359076941888
30
0
41
1
10
6.84777436527554
20
-0.481719232608526
30
0
41
1
10
6.9336091725165
20
-0.541313324007007
30
0
41
1
10
7.06196622957978
20
-0.63123378118496
30
0
41
1
10
7.10468901764023
20
-0.661294196691784
30
0
41
1
10
7.18983710255267
20
-0.721812881027006
30
0
41
1
10
7.23238671686167
20
-0.75211560122446
30
0
41
1
10
7.28459713560065
20
-0.791248114305489
30
0
41
1
10
7.29500942900646
20
-0.799119406507231
30
0
41
1
10
7.30767141474297
20
-0.809368396799982
30
0
41
1
10
7.31018550431884
20
-0.811440972938499
30
0
41
1
10
7.31509730298057
20
-0.81570426290682
30
0
41
1
10
7.31775279759719
20
-0.817746860527649
30
0
41
1
10
7.31976268805249
20
-0.820714394049332
30
0
41
1
10
7.32001584163848
20
-0.821081565721897
30
0
41
1
10
7.31993346343501
20
-0.82180465448323
30
0
41
1
10
7.31943751026671
20
-0.82186980806361
30
0
41
1
10
7.318404519696
20
-0.822294357330577
30
0
41
1
10
7.31633854517355
20
-0.823142789875334
30
0
41
1
10
7.31151799689485
20
-0.825117792531103
30
0
41
1
10
7.28534995624619
20
-0.835788363622754
30
0
41
1
10
7.26056158297999
20
-0.845607076824763
30
0
41
1
10
7.19447530749704
20
-0.871069813904342
30
0
41
1
10
7.15039700031178
20
-0.887099316601507
30
0
41
1
10
7.01830468700686
20
-0.932058841853376
30
0
41
1
10
6.93052968831029
20
-0.95783617143789
30
0
41
1
10
6.66669593523349
20
-1.02151173906563
30
0
41
1
10
6.48909088493804
20
-1.04546266911734
30
0
41
1
10
6.13597387588013
20
-1.05209905967618
30
0
41
1
10
5.9592674295848
20
-1.03522544300714
30
0
41
1
10
5.68966400061777
20
-0.98204350426397
30
0
41
1
10
5.59871153687646
20
-0.959572345328183
30
0
41
1
10
5.41824443593623
20
-0.907236782201039
30
0
41
1
10
5.32837987139865
20
-0.877341150721321
30
0
41
1
10
5.21127321239973
20
-0.834328709769892
30
0
41
1
10
5.18390406272047
20
-0.823989234145301
30
0
41
1
10
5.15654317986167
20
-0.813382223044528
30
0
0
SPLINE
5
B5
100
AcDbEntity
8
1
62
256
6
ByLayer
370
13
48
1
60
0
100
AcDbSpline
70
4
71
3
72
8
73
4
40
0
40
0
40
0
40
0
40
1
40
1
40
1
40
1
41
1
10
4.11963267254976
20
-2.38421294804746
30
0
41
1
10
4.1440488626701
20
-2.3697191125884
30
0
41
1
10
4.17088657298098
20
-2.36261039661028
30
0
41
1
10
4.19842581137701
20
-2.3626401568491
30
0
0
SPLINE
5
B6
100
AcDbEntity
8
1
62
256
6
ByLayer
370
18
48
1
60
0
100
AcDbSpline
70
4
71
3
72
12
73
8
40
0
40
0
40
0
40
0
40
0.249999999999985
40
0.249999999999985
40
0.49999999999997
40
0.49999999999997
40
1
40
1
40
1
40
1
41
1
10
4.25067265590599
20
-0.282028827646883
30
0
41
1
10
4.23112010659563
20
-0.269655314579183
30
0
41
1
10
4.21149379886987
20
-0.258314533948464
30
0
41
1
10
4.17209879269154
20
-0.23793361405319
30
0
41
1
10
4.15213239518906
20
-0.228840025892197
30
0
41
1
10
4.09532403475902
20
-0.20714208018498
30
0
41
1
10
4.0603827586749
20
-0.199899736032165
30
0
41
1
10
4.03632351362623
20
-0.202314070224389
30
0
0
SPLINE
5
B7
100
AcDbEntity
8
1
62
256
6
ByLayer
370
18
48
1
60
0
100
AcDbSpline
70
4
71
3
72
40
73
36
40
0
40
0
40
0
40
0
40
0.122929542775799
40
0.122929542775799
40
0.153661928469748
40
0.153661928469748
40
0.184394314163697
40
0.184394314163697
40
0.245859085551593
40
0.245859085551593
40
0.307323856939488
40
0.307323856939488
40
0.368788628327384
40
0.368788628327384
40
0.43025339971528
40
0.43025339971528
40
0.491718171103176
40
0.491718171103176
40
0.553182942491072
40
0.553182942491072
40
0.614647713878968
40
0.614647713878968
40
0.676112485266864
40
0.676112485266864
40
0.737577256654759
40
0.737577256654759
40
0.799042028042655
40
0.799042028042655
40
0.860506799430551
40
0.860506799430551
40
0.921971570818447
40
0.921971570818447
40
0.983436342206342
40
0.983436342206342
40
1
40
1
40
1
40
1
41
1
10
29.1782680102085
20
-2.38109687742377
30
0
41
1
10
28.6569905001442
20
-2.42108507947992
30
0
41
1
10
28.1401779769417
20
-2.39652723516574
30
0
41
1
10
27.4871800921429
20
-2.28700158997762
30
0
41
1
10
27.3561284772313
20
-2.26112529967671
30
0
41
1
10
27.0948926522969
20
-2.20198120884518
30
0
41
1
10
26.9644759515425
20
-2.16866976589844
30
0
41
1
10
26.5731616830437
20
-2.0579992505821
30
0
41
1
10
26.3114786305591
20
-1.96966941205758
30
0
41
1
10
25.7886114503518
20
-1.76788823022991
30
0
41
1
10
25.5280102342173
20
-1.65470265599163
30
0
41
1
10
25.0055830652465
20
-1.40707061969277
30
0
41
1
10
24.7436132348647
20
-1.27257500643975
30
0
41
1
10
24.22149086278
20
-0.989495965475982
30
0
41
1
10
23.9603457396462
20
-0.840357616616387
30
0
41
1
10
23.4368482386801
20
-0.53181055099239
30
0
41
1
10
23.1761320012705
20
-0.373558748182091
30
0
41
1
10
22.6538569482457
20
-0.0538083303616759
30
0
41
1
10
22.3916149316633
20
0.107938427335569
30
0
41
1
10
21.8693925854002
20
0.42710030292838
30
0
41
1
10
21.6086237771919
20
0.584433506070098
30
0
41
1
10
21.0851870340273
20
0.890446572628832
30
0
41
1
10
20.8239632715762
20
1.03820578447858
30
0
41
1
10
20.3017862400329
20
1.31733376471649
30
0
41
1
10
20.0397260047005
20
1.44933256066028
30
0
41
1
10
19.5171136172677
20
1.69171409424135
30
0
41
1
10
19.2564171950222
20
1.80188791031304
30
0
41
1
10
18.7333706336357
20
1.9970487391723
30
0
41
1
10
18.4713968948012
20
2.08182713825604
30
0
41
1
10
17.9493605124185
20
2.22201732414479
30
0
41
1
10
17.6877483093755
20
2.27758207639002
30
0
41
1
10
17.1641660123509
20
2.35726012140611
30
0
41
1
10
16.9034138448617
20
2.38136701325939
30
0
41
1
10
16.5717368560057
20
2.39150910075591
30
0
41
1
10
16.5012590531051
20
2.39248315991233
30
0
41
1
10
16.4307492262062
20
2.3922841025643
30
0
0
SPLINE
5
B8
100
AcDbEntity
8
1
62
256
6
ByLayer
370
18
48
1
60
0
100
AcDbSpline
70
4
71
3
72
8
73
4
40
0
40
0
40
0
40
0
40
1
40
1
40
1
40
1
41
1
10
5.38541236680288
20
-2.27610136597562
30
0
41
1
10
4.9645241352012
20
-2.35305474921924
30
0
41
1
10
4.54464707956913
20
-2.38998354907514
30
0
41
1
10
4.11962388267142
20
-2.38443042397887
30
0
0
SPLINE
5
B9
100
AcDbEntity
8
1
62
256
6
ByLayer
370
18
48
1
60
0
100
AcDbSpline
70
4
71
3
72
8
73
4
40
0
40
0
40
0
40
0
40
1
40
1
40
1
40
1
41
1
10
29.2012528671829
20
-2.27132125684526
30
0
41
1
10
29.1901219349452
20
-2.27641907721622
30
0
41
1
10
29.1798734772656
20
-2.27898321470121
30
0
41
1
10
29.1705215667573
20
-2.27897326525914
30
0
0
SPLINE
5
BA
100
AcDbEntity
8
1
62
256
6
ByLayer
370
13
48
1
60
0
100
AcDbSpline
70
4
71
3
72
8
73
4
40
0
40
0
40
0
40
0
40
1
40
1
40
1
40
1
41
1
10
4.11962388267125
20
-2.38443042397842
30
0
41
1
10
4.11962681252101
20
-2.38435793200139
30
0
41
1
10
4.11962974248075
20
-2.38428544002443
30
0
41
1
10
4.11963267254978
20
-2.38421294804746
30
0
0
SPLINE
5
BB
100
AcDbEntity
8
1
62
256
6
ByLayer
370
18
48
1
60
0
100
AcDbSpline
70
4
71
3
72
10
73
6
40
0
40
0
40
0
40
0
40
0.5
40
0.5
40
1
40
1
40
1
40
1
41
1
10
4.11963267254978
20
-2.29732135333731
30
0
41
1
10
4.13951601299263
20
-2.28556759640003
30
0
41
1
10
4.16104025561896
20
-2.2766810723214
30
0
41
1
10
4.20498292180321
20
-2.26517299393086
30
0
41
1
10
4.22743708906336
20
-2.26243358204567
30
0
41
1
10
4.25035157093436
20
-2.26275375985122
30
0
0
SPLINE
5
BC
100
AcDbEntity
8
1
62
256
6
ByLayer
370
18
48
1
60
0
100
AcDbSpline
70
4
71
3
72
28
73
24
40
0
40
0
40
0
40
0
40
0.125
40
0.125
40
0.25
40
0.25
40
0.3125
40
0.3125
40
0.375
40
0.375
40
0.5
40
0.5
40
0.5625
40
0.5625
40
0.625
40
0.625
40
0.75
40
0.75
40
0.8125
40
0.8125
40
0.875
40
0.875
40
1
40
1
40
1
40
1
41
1
10
4.03609652045554
20
-2.37797314856888
30
0
41
1
10
4.03611706774694
20
-2.36726900423597
30
0
41
1
10
4.03612996507357
20
-2.34412479759024
30
0
41
1
10
4.03614538954827
20
-2.27349058080802
30
0
41
1
10
4.03614788671433
20
-2.22664091550934
30
0
41
1
10
4.03614821322941
20
-2.13963053783235
30
0
41
1
10
4.03614774328702
20
-2.10782120935059
30
0
41
1
10
4.03614630833687
20
-2.03848687732659
30
0
41
1
10
4.0361453385122
20
-2.00075104833675
30
0
41
1
10
4.03614269530254
20
-1.88064400067952
30
0
41
1
10
4.03614133094266
20
-1.79137958717811
30
0
41
1
10
4.03614302042999
20
-1.6440356846386
30
0
41
1
10
4.03614419632677
20
-1.59266677061271
30
0
41
1
10
4.03614820185027
20
-1.48531854214576
30
0
41
1
10
4.03615105141049
20
-1.42914724544545
30
0
41
1
10
4.03616237882596
20
-1.2568904890897
30
0
41
1
10
4.03617368689674
20
-1.13619557752045
30
0
41
1
10
4.03619683518855
20
-0.946517608383715
30
0
41
1
10
4.03620557280317
20
-0.881844089693715
30
0
41
1
10
4.03622506814619
20
-0.749524688269986
30
0
41
1
10
4.0362358216961
20
-0.681968297777473
30
0
41
1
10
4.03627017330382
20
-0.478842086939551
30
0
41
1
10
4.03629608554081
20
-0.341521029725811
30
0
41
1
10
4.03632351362623
20
-0.202314070224418
30
0
0
SPLINE
5
BD
100
AcDbEntity
8
1
62
256
6
ByLayer
370
18
48
1
60
0
100
AcDbSpline
70
4
71
3
72
18
73
14
40
0
40
0
40
0
40
0
40
0.125
40
0.125
40
0.25
40
0.25
40
0.5
40
0.5
40
0.75
40
0.75
40
0.875
40
0.875
40
1
40
1
40
1
40
1
41
1
10
29.6482516111468
20
1.30591599785117
30
0
41
1
10
29.6318790261077
20
1.34973059569791
30
0
41
1
10
29.6154244848049
20
1.39347782527895
30
0
41
1
10
29.5822796986296
20
1.48077853548344
30
0
41
1
10
29.5655503069409
20
1.52429958505766
30
0
41
1
10
29.5152231903141
20
1.65475007459602
30
0
41
1
10
29.4815757631032
20
1.74136802795454
30
0
41
1
10
29.413697344324
20
1.91248255030663
30
0
41
1
10
29.3793952343946
20
1.997079413271
30
0
41
1
10
29.3279270007566
20
2.12248813963316
30
0
41
1
10
29.3107642500627
20
2.16393568783488
30
0
41
1
10
29.2764157446362
20
2.24560570474071
30
0
41
1
10
29.2592295083898
20
2.28580253043674
30
0
41
1
10
29.2420395729822
20
2.3258023573957
30
0
0
SPLINE
5
BE
100
AcDbEntity
8
1
62
256
6
ByLayer
370
18
48
1
60
0
100
AcDbSpline
70
4
71
3
72
36
73
32
40
0
40
0
40
0
40
0
40
0.0901062897395423
40
0.0901062897395423
40
0.180212579479085
40
0.180212579479085
40
0.270318869218627
40
0.270318869218627
40
0.315372014088398
40
0.315372014088398
40
0.360425158958169
40
0.360425158958169
40
0.450531448697713
40
0.450531448697713
40
0.540637738437258
40
0.540637738437258
40
0.585690883307031
40
0.585690883307031
40
0.630744028176804
40
0.630744028176804
40
0.720850317916348
40
0.720850317916348
40
0.810956607655892
40
0.810956607655892
40
0.901062897395437
40
0.901062897395437
40
0.94611604226521
40
0.94611604226521
40
0.991169187134983
40
0.991169187134983
40
1
40
1
40
1
40
1
41
1
10
5.1565833461425
20
-0.813397794138041
30
0
41
1
10
5.38752673059113
20
-0.938854706363571
30
0
41
1
10
5.61804640120613
20
-1.05916162014185
30
0
41
1
10
6.07849530947834
20
-1.28835017288353
30
0
41
1
10
6.30908779845143
20
-1.39756571605704
30
0
41
1
10
6.77083195055493
20
-1.59899654258311
30
0
41
1
10
7.0006970567741
20
-1.69113039545937
30
0
41
1
10
7.34628197487007
20
-1.81556572014705
30
0
41
1
10
7.46153883309472
20
-1.85485285709831
30
0
41
1
10
7.69211813456329
20
-1.92922510572973
30
0
41
1
10
7.80747121314403
20
-1.96447914183409
30
0
41
1
10
8.1531103024777
20
-2.06111456818868
30
0
41
1
10
8.38316403246697
20
-2.1134743032311
30
0
41
1
10
8.84345951946875
20
-2.19611956137757
30
0
41
1
10
9.07470357885006
20
-2.22591413503321
30
0
41
1
10
9.42018165585012
20
-2.25470610254527
30
0
41
1
10
9.53508157479135
20
-2.26155792415005
30
0
41
1
10
9.76512760994191
20
-2.26865522335936
30
0
41
1
10
9.8802757782305
20
-2.26899872802827
30
0
41
1
10
10.2260108812757
20
-2.26133490470787
30
0
41
1
10
10.456788190987
20
-2.24409719887348
30
0
41
1
10
10.9172856459047
20
-2.18688370897002
30
0
41
1
10
11.1472000614015
20
-2.14734534390377
30
0
41
1
10
11.608304424975
20
-2.04390420800033
30
0
41
1
10
11.8392344712647
20
-1.98219656725001
30
0
41
1
10
12.1843405670039
20
-1.87373013575583
30
0
41
1
10
12.2993066361918
20
-1.83519119940132
30
0
41
1
10
12.5294836906152
20
-1.75395100456515
30
0
41
1
10
12.6448282812027
20
-1.71045447039279
30
0
41
1
10
12.7830028556913
20
-1.65552780960971
30
0
41
1
10
12.8056375878693
20
-1.64644472401935
30
0
41
1
10
12.8282635539131
20
-1.63728209401037
30
0
0
SPLINE
5
BF
100
AcDbEntity
8
1
62
256
6
ByLayer
370
18
48
1
60
0
100
AcDbSpline
70
4
71
3
72
24
73
20
40
0
40
0
40
0
40
0
40
0.0662308716096393
40
0.0662308716096393
40
0.199626461379691
40
0.199626461379691
40
0.333022051149742
40
0.333022051149742
40
0.466417640919794
40
0.466417640919794
40
0.599813230689845
40
0.599813230689845
40
0.666511025574871
40
0.666511025574871
40
0.733208820459897
40
0.733208820459897
40
0.866604410229948
40
0.866604410229948
40
1
40
1
40
1
40
1
41
1
10
22.0881296832466
20
2.27448115491754
30
0
41
1
10
22.2023367333435
20
2.27439991576608
30
0
41
1
10
22.3165550369083
20
2.27176946780676
30
0
41
1
10
22.660879657378
20
2.25514351168593
30
0
41
1
10
22.8916410110718
20
2.23049068800569
30
0
41
1
10
23.3521862731888
20
2.16060141498858
30
0
41
1
10
23.5818819184303
20
2.11346669645272
30
0
41
1
10
24.0423850026895
20
1.99943675108756
30
0
41
1
10
24.2733375485403
20
1.9311249826201
30
0
41
1
10
24.7332259175327
20
1.7744694188535
30
0
41
1
10
24.9632808435172
20
1.68681411672154
30
0
41
1
10
25.3089131930907
20
1.54309517337242
30
0
41
1
10
25.4240892812295
20
1.49301471295433
30
0
41
1
10
25.6541460386308
20
1.38925732450824
30
0
41
1
10
25.7691452940871
20
1.33547205864707
30
0
41
1
10
26.1140665968342
20
1.1689617435062
30
0
41
1
10
26.3437865930582
20
1.05081003517301
30
0
41
1
10
26.8049538806953
20
0.805271276195384
30
0
41
1
10
27.0346048704965
20
0.678111893087021
30
0
41
1
10
27.2642720008684
20
0.5477104419993
30
0
0
SPLINE
5
C0
100
AcDbEntity
8
1
62
256
6
ByLayer
370
18
48
1
60
0
100
AcDbSpline
70
4
71
3
72
12
73
8
40
0
40
0
40
0
40
0
40
0.250000000000005
40
0.250000000000005
40
0.500000000000011
40
0.500000000000011
40
1
40
1
40
1
40
1
41
1
10
29.1870110344165
20
-2.35809898444049
30
0
41
1
10
29.1920548550038
20
-2.3448189337285
30
0
41
1
10
29.1967328290357
20
-2.3311204197812
30
0
41
1
10
29.2038334265927
20
-2.30665811534183
30
0
41
1
10
29.2061983447151
20
-2.29601266635586
30
0
41
1
10
29.2091655484597
20
-2.27320243730745
30
0
41
1
10
29.2062599319713
20
-2.2690280871164
30
0
41
1
10
29.2012528671862
20
-2.27132125684375
30
0
0
SPLINE
5
C1
100
AcDbEntity
8
1
62
256
6
ByLayer
370
13
48
1
60
0
100
AcDbSpline
70
4
71
3
72
8
73
4
40
0
40
0
40
0
40
0
40
1
40
1
40
1
40
1
41
1
10
4.11902153332045
20
-2.38442250155353
30
0
41
1
10
4.11922497197713
20
-2.38435252326224
30
0
41
1
10
4.11942868479127
20
-2.3842826719586
30
0
41
1
10
4.11963267254976
20
-2.38421294804746
30
0
0
SPLINE
5
C2
100
AcDbEntity
8
1
62
256
6
ByLayer
370
18
48
1
60
0
100
AcDbSpline
70
4
71
3
72
8
73
4
40
0
40
0
40
0
40
0
40
1
40
1
40
1
40
1
41
1
10
5.15650333639843
20
-0.813345311633185
30
0
41
1
10
4.85194022178237
20
-0.648792745783055
30
0
41
1
10
4.55042172036403
20
-0.471720151520771
30
0
41
1
10
4.25067265970696
20
-0.28202883005298
30
0
0
SPLINE
5
C3
100
AcDbEntity
8
1
62
256
6
ByLayer
370
18
48
1
60
0
100
AcDbSpline
70
4
71
3
72
19
73
15
40
0
40
0
40
0
40
0
40
0.125
40
0.125
40
0.25
40
0.25
40
0.5
40
0.5
40
0.625
40
0.625
40
0.75
40
0.875
40
0.875
40
1
40
1
40
1
40
1
41
1
10
29.1705215667578
20
-2.27897326525914
30
0
41
1
10
29.1366834010778
20
-2.27895258420142
30
0
41
1
10
29.1045361479265
20
-2.27391233306699
30
0
41
1
10
29.043779390869
20
-2.25332982081835
30
0
41
1
10
29.0150422207395
20
-2.23768655110888
30
0
41
1
10
28.9354787114429
20
-2.17427228635344
30
0
41
1
10
28.8923048766072
20
-2.11140944454473
30
0
41
1
10
28.8430409681889
20
-1.98478725098818
30
0
41
1
10
28.829148375653
20
-1.93666787006603
30
0
41
1
10
28.8075404092435
20
-1.83105638615172
30
0
41
1
10
28.7920473300576
20
-1.71655343940606
30
0
41
1
10
28.7886071731915
20
-1.58452472204482
30
0
41
1
10
28.7913843682231
20
-1.44345555123161
30
0
41
1
10
28.7959371434344
20
-1.36840826694834
30
0
41
1
10
28.8034959155599
20
-1.29092603312321
30
0
0
SPLINE
5
C4
100
AcDbEntity
8
1
62
256
6
ByLayer
370
18
48
1
60
0
100
AcDbSpline
70
4
71
3
72
10
73
6
40
0
40
0
40
0
40
0
40
0.5
40
0.5
40
1
40
1
40
1
40
1
41
1
10
4.03609652045046
20
-2.37797314857659
30
0
41
1
10
4.04604522696076
20
-2.36226760228178
30
0
41
1
10
4.05827313167836
20
-2.34710488195648
30
0
41
1
10
4.08617610719716
20
-2.31996309716118
30
0
41
1
10
4.10188940652867
20
-2.30781003539187
30
0
41
1
10
4.11963267254978
20
-2.29732135333731
30
0
0
SPLINE
5
C5
100
AcDbEntity
8
1
62
256
6
ByLayer
370
18
48
1
60
0
100
AcDbSpline
70
4
71
3
72
18
73
14
40
0
40
0
40
0
40
0
40
0.125
40
0.125
40
0.25
40
0.25
40
0.5
40
0.5
40
0.750000000000001
40
0.750000000000001
40
0.875
40
0.875
40
1
40
1
40
1
40
1
41
1
10
29.6482516111468
20
-1.3059159978512
30
0
41
1
10
29.6318790261076
20
-1.34973059569796
30
0
41
1
10
29.6154244848048
20
-1.39347782527903
30
0
41
1
10
29.5822796986296
20
-1.48077853548352
30
0
41
1
10
29.5655503069409
20
-1.52429958505772
30
0
41
1
10
29.515223190314
20
-1.65475007459608
30
0
41
1
10
29.4815757631033
20
-1.74136802795459
30
0
41
1
10
29.413697344324
20
-1.91248255030666
30
0
41
1
10
29.3793952343946
20
-1.99707941327102
30
0
41
1
10
29.3279270007566
20
-2.12248813963319
30
0
41
1
10
29.3107642500627
20
-2.16393568783488
30
0
41
1
10
29.276415744636
20
-2.24560570474071
30
0
41
1
10
29.2592295083898
20
-2.28580253043677
30
0
41
1
10
29.2420395729822
20
-2.32580235739573
30
0
0
SPLINE
5
C6
100
AcDbEntity
8
1
62
256
6
ByLayer
370
18
48
1
60
0
100
AcDbSpline
70
4
71
3
72
8
73
4
40
0
40
0
40
0
40
0
40
1
40
1
40
1
40
1
41
1
10
29.1782680102087
20
2.38109687742377
30
0
41
1
10
29.0154286173023
20
2.39358860096934
30
0
41
1
10
28.8529492992486
20
2.39978734665377
30
0
41
1
10
28.6905220904934
20
2.39972080804512
30
0
0
SPLINE
5
C7
100
AcDbEntity
8
1
62
256
6
ByLayer
370
18
48
1
60
0
100
AcDbSpline
70
4
71
3
72
44
73
40
40
0
40
0
40
0
40
0
40
0.0760159270468201
40
0.0760159270468201
40
0.10507385742387
40
0.10507385742387
40
0.134131787800919
40
0.134131787800919
40
0.192247648555018
40
0.192247648555018
40
0.250363509309117
40
0.250363509309117
40
0.308479370063216
40
0.308479370063216
40
0.366595230817315
40
0.366595230817315
40
0.424711091571414
40
0.424711091571414
40
0.453769021948464
40
0.453769021948464
40
0.482826952325514
40
0.482826952325514
40
0.540942813079613
40
0.540942813079613
40
0.599058673833712
40
0.599058673833712
40
0.65717453458781
40
0.65717453458781
40
0.715290395341909
40
0.715290395341909
40
0.773406256096008
40
0.773406256096008
40
0.831522116850107
40
0.831522116850107
40
0.889637977604206
40
0.889637977604206
40
0.947753838358305
40
0.947753838358305
40
1
40
1
40
1
40
1
41
1
10
17.6743528448138
20
-2.27497761143084
30
0
41
1
10
17.336323864127
20
-2.33917646502567
30
0
41
1
10
16.9983076346093
20
-2.37762506345385
30
0
41
1
10
16.5271493704215
20
-2.3931682075762
30
0
41
1
10
16.3961073133496
20
-2.39345653706786
30
0
41
1
10
16.134337502959
20
-2.38592043279488
30
0
41
1
10
16.0036653413213
20
-2.37812143486065
30
0
41
1
10
15.611802334895
20
-2.34280144020545
30
0
41
1
10
15.3505935109299
20
-2.3032814499019
30
0
41
1
10
14.8267528184016
20
-2.19336957997351
30
0
41
1
10
14.565788730087
20
-2.12346747291383
30
0
41
1
10
14.0430903050762
20
-1.95598368229611
30
0
41
1
10
13.7808682540107
20
-1.85793996662011
30
0
41
1
10
13.2581968087978
20
-1.63901748601606
30
0
41
1
10
12.9972303603904
20
-1.51806247491288
30
0
41
1
10
12.4733200992707
20
-1.25643408588263
30
0
41
1
10
12.2118789052068
20
-1.11625782947269
30
0
41
1
10
11.8200138964162
20
-0.896528518981881
30
0
41
1
10
11.6893437552165
20
-0.821651733720955
30
0
41
1
10
11.4275638058744
20
-0.669138860601379
30
0
41
1
10
11.2963819706248
20
-0.591453979037311
30
0
41
1
10
10.9050649039941
20
-0.35712649751747
30
0
41
1
10
10.6460126989912
20
-0.198590334491115
30
0
41
1
10
10.1286733818261
20
0.11833304792421
30
0
41
1
10
9.8704511746227
20
0.27682811552333
30
0
41
1
10
9.35202726436907
20
0.589116001935452
30
0
41
1
10
9.09139365630188
20
0.743248175485292
30
0
41
1
10
8.56737521307434
20
1.04102033985748
30
0
41
1
10
8.30629648148525
20
1.18309032139484
30
0
41
1
10
7.78337850645238
20
1.44994623139144
30
0
41
1
10
7.52107752841104
20
1.57514015347354
30
0
41
1
10
6.99829679030506
20
1.80145696896085
30
0
41
1
10
6.73723778148809
20
1.90287769030692
30
0
41
1
10
6.21305051209418
20
2.07936549915061
30
0
41
1
10
5.951383754419
20
2.15395816713709
30
0
41
1
10
5.42843659329432
20
2.27312115238971
30
0
41
1
10
5.16607873155345
20
2.31786113961499
30
0
41
1
10
4.66930963013058
20
2.37226378229178
30
0
41
1
10
4.43445571491853
20
2.3851268852539
30
0
41
1
10
4.19900450582702
20
2.38497471678863
30
0
0
SPLINE
5
C8
100
AcDbEntity
8
1
62
256
6
ByLayer
370
18
48
1
60
0
100
AcDbSpline
70
4
71
3
72
32
73
28
40
0
40
0
40
0
40
0
40
0.0910622320058264
40
0.0910622320058264
40
0.182124464011653
40
0.182124464011653
40
0.273186696017479
40
0.273186696017479
40
0.364248928023305
40
0.364248928023305
40
0.409780044026217
40
0.409780044026217
40
0.45531116002913
40
0.45531116002913
40
0.546373392034954
40
0.546373392034954
40
0.637435624040778
40
0.637435624040778
40
0.728497856046602
40
0.728497856046602
40
0.819560088052427
40
0.819560088052427
40
0.865091204055339
40
0.865091204055339
40
0.910622320058251
40
0.910622320058251
40
1
40
1
40
1
40
1
41
1
10
9.1048926209221
20
0.479514366672447
30
0
41
1
10
9.3147115982843
20
0.352424125257556
30
0
41
1
10
9.52490870557875
20
0.225485219695401
30
0
41
1
10
9.9444328245371
20
-0.0307110154038526
30
0
41
1
10
10.1535806560757
20
-0.1604490076422
30
0
41
1
10
10.5747035141144
20
-0.41547557525729
30
0
41
1
10
10.7841590126378
20
-0.541961325969822
30
0
41
1
10
11.2030893407201
20
-0.789247000458261
30
0
41
1
10
11.4134947848463
20
-0.908946669837462
30
0
41
1
10
11.7287213015732
20
-1.08383284601803
30
0
41
1
10
11.8333703531693
20
-1.14127565743073
30
0
41
1
10
12.0431000336294
20
-1.25261573343045
30
0
41
1
10
12.1480582283802
20
-1.30670592882589
30
0
41
1
10
12.4628217823384
20
-1.46482684385276
30
0
41
1
10
12.6721588653916
20
-1.56548547058296
30
0
41
1
10
13.0926855260055
20
-1.7511088121401
30
0
41
1
10
13.3027377680189
20
-1.83595957537841
30
0
41
1
10
13.7212234305018
20
-1.99091472734855
30
0
41
1
10
13.9315646540024
20
-2.05947059373855
30
0
41
1
10
14.3520381828632
20
-2.17889150509362
30
0
41
1
10
14.5609639153369
20
-2.22959429858935
30
0
41
1
10
14.8756791373818
20
-2.29022270947294
30
0
41
1
10
14.9806484795072
20
-2.3079790351681
30
0
41
1
10
15.1905435439143
20
-2.33860760125137
30
0
41
1
10
15.2954591044248
20
-2.35151642350149
30
0
41
1
10
15.6063890218526
20
-2.38189155879857
30
0
41
1
10
15.8126312112201
20
-2.39191995255908
30
0
41
1
10
16.018207439182
20
-2.39206574176171
30
0
0
SPLINE
5
C9
100
AcDbEntity
8
1
62
256
6
ByLayer
370
18
48
1
60
0
100
AcDbSpline
70
4
71
3
72
22
73
18
40
0
40
0
40
0
40
0
40
0.095116397028726
40
0.095116397028726
40
0.170523363942999
40
0.170523363942999
40
0.245930330857272
40
0.245930330857272
40
0.396744264685818
40
0.396744264685818
40
0.547558198514363
40
0.547558198514363
40
0.698372132342909
40
0.698372132342909
40
0.849186066171455
40
0.849186066171455
40
1
40
1
40
1
40
1
41
1
10
25.0707858352556
20
1.63522192663368
30
0
41
1
10
25.2030656267453
20
1.69490672780205
30
0
41
1
10
25.3354683532693
20
1.75179759539287
30
0
41
1
10
25.572853316804
20
1.84755278622328
30
0
41
1
10
25.6777009982793
20
1.88792763766867
30
0
41
1
10
25.8870137999272
20
1.96483009798695
30
0
41
1
10
25.9913981952073
20
2.0014110425262
30
0
41
1
10
26.3056575254248
20
2.10378767600511
30
0
41
1
10
26.516464975558
20
2.16304004277677
30
0
41
1
10
26.9352973654347
20
2.26301035786389
30
0
41
1
10
27.1446076712216
20
2.3030596500862
30
0
41
1
10
27.5640372747429
20
2.36311580271982
30
0
41
1
10
27.7736568445171
20
2.38330547541335
30
0
41
1
10
28.193363973482
20
2.40236295305411
30
0
41
1
10
28.4028557968408
20
2.40158470737376
30
0
41
1
10
28.821889604526
20
2.37905930339514
30
0
41
1
10
29.0324772080701
20
2.35748190581151
30
0
41
1
10
29.2420395729708
20
2.32580235739738
30
0
0
SPLINE
5
CA
100
AcDbEntity
8
1
62
256
6
ByLayer
370
18
48
1
60
0
100
AcDbSpline
70
4
71
3
72
24
73
20
40
0
40
0
40
0
40
0
40
0.22234058140844
40
0.22234058140844
40
0.346865658577958
40
0.346865658577958
40
0.409128197162718
40
0.409128197162718
40
0.471390735747477
40
0.471390735747477
40
0.72044089008651
40
0.72044089008651
40
0.78270342867127
40
0.78270342867127
40
0.84496596725603
40
0.84496596725603
40
0.969491044425548
40
0.969491044425548
40
1
40
1
40
1
40
1
41
1
10
7.49538148706532
20
1.56830727077948
30
0
41
1
10
7.96168604781965
20
1.35665950483266
30
0
41
1
10
8.42266863582864
20
1.11411834536349
30
0
41
1
10
9.14516992399018
20
0.705014872085485
30
0
41
1
10
9.40531673348488
20
0.552177415557907
30
0
41
1
10
9.79872484598542
20
0.31678486292779
30
0
41
1
10
9.93003265629923
20
0.237506321499183
30
0
41
1
10
10.191166462455
20
0.0793765250624858
30
0
41
1
10
10.3213125665938
20
0.00031682022626
30
0
41
1
10
10.97073765109
20
-0.393648275171671
30
0
41
1
10
11.4861604847395
20
-0.704432169038455
30
0
41
1
10
12.139052010519
20
-1.0646958187298
30
0
41
1
10
12.2704220080799
20
-1.13552558674672
30
0
41
1
10
12.5325077514017
20
-1.27272724520901
30
0
41
1
10
12.6630601534285
20
-1.33897118598065
30
0
41
1
10
13.0536952401152
20
-1.53012647348237
30
0
41
1
10
13.3127240369962
20
-1.64758394673865
30
0
41
1
10
13.6351159156346
20
-1.77948031388718
30
0
41
1
10
13.6985558604909
20
-1.80473771186775
30
0
41
1
10
13.7620154142822
20
-1.82927295278918
30
0
0
SPLINE
5
CB
100
AcDbEntity
8
1
62
256
6
ByLayer
370
13
48
1
60
0
100
AcDbSpline
70
4
71
3
72
18
73
14
40
0
40
0
40
0
40
0
40
0.159974381918263
40
0.159974381918263
40
0.265917863981345
40
0.265917863981345
40
0.371861346044427
40
0.371861346044427
40
0.795635274296755
40
0.795635274296755
40
0.901578756359836
40
0.901578756359836
40
1
40
1
40
1
40
1
41
1
10
13.7620144816029
20
-1.82927259218923
30
0
41
1
10
13.9575711789801
20
-1.90488031073667
30
0
41
1
10
14.1533140863138
20
-1.97363025868353
30
0
41
1
10
14.4801050885757
20
-2.07535143054025
30
0
41
1
10
14.610648606303
20
-2.11258847821003
30
0
41
1
10
14.8727402210409
20
-2.18009217082431
30
0
41
1
10
15.0041200416585
20
-2.21029427696811
30
0
41
1
10
15.6577700907826
20
-2.34173497295271
30
0
41
1
10
16.1759070370156
20
-2.38556767229798
30
0
41
1
10
16.830963524389
20
-2.3597672882876
30
0
41
1
10
16.962354373211
20
-2.35057276272667
30
0
41
1
10
17.2145607940521
20
-2.3253477705862
30
0
41
1
10
17.3357751942188
20
-2.30986589254152
30
0
41
1
10
17.4568097862784
20
-2.29106276946288
30
0
0
SPLINE
5
CC
100
AcDbEntity
8
1
62
256
6
ByLayer
370
18
48
1
60
0
100
AcDbSpline
70
4
71
3
72
70
73
66
40
0
40
0
40
0
40
0
40
0.0048049161845645
40
0.0048049161845645
40
0.0455054052768617
40
0.0455054052768617
40
0.0862058943691589
40
0.0862058943691589
40
0.126906383461456
40
0.126906383461456
40
0.147256628007605
40
0.147256628007605
40
0.167606872553753
40
0.167606872553753
40
0.20830736164605
40
0.20830736164605
40
0.228657606192198
40
0.228657606192198
40
0.249007850738347
40
0.249007850738347
40
0.269358095284495
40
0.269358095284495
40
0.289708339830644
40
0.289708339830644
40
0.330408828922941
40
0.330408828922941
40
0.371109318015238
40
0.371109318015238
40
0.411809807107536
40
0.411809807107536
40
0.452510296199833
40
0.452510296199833
40
0.49321078529213
40
0.49321078529213
40
0.513561029838279
40
0.513561029838279
40
0.533911274384427
40
0.533911274384427
40
0.574611763476725
40
0.574611763476725
40
0.615312252569023
40
0.615312252569023
40
0.635662497115173
40
0.635662497115173
40
0.656012741661323
40
0.656012741661323
40
0.696713230753622
40
0.696713230753622
40
0.737413719845921
40
0.737413719845921
40
0.77811420893822
40
0.77811420893822
40
0.818814698030519
40
0.818814698030519
40
0.839164942576669
40
0.839164942576669
40
0.859515187122818
40
0.859515187122818
40
0.900215676215117
40
0.900215676215117
40
0.940916165307416
40
0.940916165307416
40
0.981616654399716
40
0.981616654399716
40
1
40
1
40
1
40
1
41
1
10
12.8079903464326
20
1.62510335496901
30
0
41
1
10
12.8327896239052
20
1.63627392301169
30
0
41
1
10
12.8575994552021
20
1.64734021408648
30
0
41
1
10
13.0926855260054
20
1.75110881214005
30
0
41
1
10
13.3027377680188
20
1.83595957537833
30
0
41
1
10
13.7212234305017
20
1.99091472734853
30
0
41
1
10
13.9315646540023
20
2.05947059373852
30
0
41
1
10
14.352038182863
20
2.17889150509356
30
0
41
1
10
14.5609639153367
20
2.22959429858932
30
0
41
1
10
14.8756791373817
20
2.29022270947291
30
0
41
1
10
14.980648479507
20
2.30797903516807
30
0
41
1
10
15.1905435439141
20
2.33860760125134
30
0
41
1
10
15.2954591044246
20
2.35151642350147
30
0
41
1
10
15.610271479112
20
2.38227084093876
30
0
41
1
10
15.8204056280644
20
2.39229438811105
30
0
41
1
10
16.134543026384
20
2.39194798796873
30
0
41
1
10
16.2391659980126
20
2.38921992923847
30
0
41
1
10
16.4489331522866
20
2.37857412188501
30
0
41
1
10
16.554257787527
20
2.3706716711302
30
0
41
1
10
16.7645389850317
20
2.34978073699543
30
0
41
1
10
16.8694947686059
20
2.33679531174496
30
0
41
1
10
17.0789057628241
20
2.30564492059119
30
0
41
1
10
17.183387691703
20
2.28746445158313
30
0
41
1
10
17.4978276274208
20
2.22595660665601
30
0
41
1
10
17.7083428621752
20
2.17525779979493
30
0
41
1
10
18.1278160477941
20
2.05444398117126
30
0
41
1
10
18.3374525350224
20
1.98536741572084
30
0
41
1
10
18.7568478115837
20
1.83051609059422
30
0
41
1
10
18.9663679287954
20
1.74371146443417
30
0
41
1
10
19.386680349559
20
1.55771180908258
30
0
41
1
10
19.5960422057159
20
1.45753842929031
30
0
41
1
10
20.0147197099635
20
1.24467183689561
30
0
41
1
10
20.2254511018991
20
1.13307225612854
30
0
41
1
10
20.5402272794272
20
0.958006811222077
30
0
41
1
10
20.6447316822407
20
0.898187888637125
30
0
41
1
10
20.8541459282362
20
0.777511077905871
30
0
41
1
10
20.9590114951583
20
0.716595871973851
30
0
41
1
10
21.273689226088
20
0.531540113190289
30
0
41
1
10
21.4834767696065
20
0.403825108067934
30
0
41
1
10
21.9030957539236
20
0.147669753481694
30
0
41
1
10
22.1130171090947
20
0.0197362616150656
30
0
41
1
10
22.426870288576
20
-0.17390366968678
30
0
41
1
10
22.5315020244566
20
-0.238437222109638
30
0
41
1
10
22.7415685392435
20
-0.366210802573278
30
0
41
1
10
22.8468923673294
20
-0.429686617627965
30
0
41
1
10
23.1618006148495
20
-0.61861172985553
30
0
41
1
10
23.3704771588483
20
-0.743330871432505
30
0
41
1
10
23.789909754604
20
-0.983116578903037
30
0
41
1
10
24.0003504075204
20
-1.09973330676226
30
0
41
1
10
24.4191649539572
20
-1.32329762077131
30
0
41
1
10
24.6291084254145
20
-1.42818618133117
30
0
41
1
10
25.0480057662036
20
-1.62708618626485
30
0
41
1
10
25.2579320119929
20
-1.72052136355131
30
0
41
1
10
25.5728533168036
20
-1.84755278622308
30
0
41
1
10
25.6777009982788
20
-1.8879276376685
30
0
41
1
10
25.8870137999267
20
-1.96483009798675
30
0
41
1
10
25.9913981952068
20
-2.00141104252603
30
0
41
1
10
26.3056575254243
20
-2.10378767600494
30
0
41
1
10
26.5164649755575
20
-2.16304004277663
30
0
41
1
10
26.9352973654342
20
-2.26301035786378
30
0
41
1
10
27.1446076712211
20
-2.30305965008608
30
0
41
1
10
27.5640372747424
20
-2.36311580271976
30
0
41
1
10
27.7736568445166
20
-2.3833054754133
30
0
41
1
10
28.0782957712236
20
-2.39713809614707
30
0
41
1
10
28.1730073349148
20
-2.39933925793971
30
0
41
1
10
28.2676807439957
20
-2.39942134635899
30
0
0
SPLINE
5
CD
100
AcDbEntity
8
1
62
256
6
ByLayer
370
18
48
1
60
0
100
AcDbSpline
70
4
71
3
72
66
73
62
40
0
40
0
40
0
40
0
40
0.037949153063109
40
0.037949153063109
40
0.0832905268068048
40
0.0832905268068048
40
0.128631900550501
40
0.128631900550501
40
0.173973274294196
40
0.173973274294196
40
0.196643961166044
40
0.196643961166044
40
0.219314648037891
40
0.219314648037891
40
0.241985334909738
40
0.241985334909738
40
0.264656021781586
40
0.264656021781586
40
0.309997395525281
40
0.309997395525281
40
0.355338769268977
40
0.355338769268977
40
0.400680143012673
40
0.400680143012673
40
0.42335082988452
40
0.42335082988452
40
0.446021516756368
40
0.446021516756368
40
0.491362890500062
40
0.491362890500062
40
0.51403357737191
40
0.51403357737191
40
0.536704264243758
40
0.536704264243758
40
0.582045637987453
40
0.582045637987453
40
0.627387011731148
40
0.627387011731148
40
0.650057698602995
40
0.650057698602995
40
0.672728385474843
40
0.672728385474843
40
0.718069759218538
40
0.718069759218538
40
0.740740446090386
40
0.740740446090386
40
0.763411132962234
40
0.763411132962234
40
0.80875250670593
40
0.80875250670593
40
0.831423193577777
40
0.831423193577777
40
0.854093880449625
40
0.854093880449625
40
0.899435254193321
40
0.899435254193321
40
0.944776627937016
40
0.944776627937016
40
0.990118001680713
40
0.990118001680713
40
1
40
1
40
1
40
1
41
1
10
25.0804102251054
20
-1.63745635875688
30
0
41
1
10
24.8875066527562
20
-1.71543431415063
30
0
41
1
10
24.6943351131276
20
-1.78774984694701
30
0
41
1
10
24.2719594226037
20
-1.93155505529134
30
0
41
1
10
24.0420136801529
20
-1.99954761900713
30
0
41
1
10
23.5809766644769
20
-2.11367188241368
30
0
41
1
10
23.3506108526571
20
-2.16088757223167
30
0
41
1
10
22.8903786094198
20
-2.23063488846637
30
0
41
1
10
22.6605933317497
20
-2.25519675349133
30
0
41
1
10
22.3143257174449
20
-2.27185726974614
30
0
41
1
10
22.1990418890033
20
-2.27446768365104
30
0
41
1
10
21.9687091806317
20
-2.27449827643545
30
0
41
1
10
21.8537763971002
20
-2.27163948776533
30
0
41
1
10
21.6237461412567
20
-2.25928290774542
30
0
41
1
10
21.5086384867415
20
-2.24974191457568
30
0
41
1
10
21.2780948470737
20
-2.22588668280588
30
0
41
1
10
21.1625959501748
20
-2.21110568617542
30
0
41
1
10
20.816796401829
20
-2.15766585312778
30
0
41
1
10
20.5868353565174
20
-2.11017098693762
30
0
41
1
10
20.1264021560226
20
-1.99512639740905
30
0
41
1
10
19.8957613629586
20
-1.92512833327129
30
0
41
1
10
19.4345569846193
20
-1.76854128053725
30
0
41
1
10
19.2047869085262
20
-1.68053520446537
30
0
41
1
10
18.859283273258
20
-1.53648282078348
30
0
41
1
10
18.743971583444
20
-1.48649313190833
30
0
41
1
10
18.5130045872485
20
-1.38159578473355
30
0
41
1
10
18.397816051142
20
-1.32669934582651
30
0
41
1
10
18.0523297114231
20
-1.15897279056102
30
0
41
1
10
17.8218617100616
20
-1.04210751513528
30
0
41
1
10
17.4760598068968
20
-0.858158382722991
30
0
41
1
10
17.3605622816256
20
-0.795481303867604
30
0
41
1
10
17.1298092952652
20
-0.668042181776599
30
0
41
1
10
17.0146624073845
20
-0.603206655858429
30
0
41
1
10
16.6692845744472
20
-0.407097761169581
30
0
41
1
10
16.4394102532121
20
-0.273889822544504
30
0
41
1
10
15.9778600237213
20
-0.0061349929757455
30
0
41
1
10
15.7471591309112
20
0.129031060036993
30
0
41
1
10
15.4022275462127
20
0.32895463605459
30
0
41
1
10
15.2871680842408
20
0.395029031822389
30
0
41
1
10
15.0568123282518
20
0.526149789452319
30
0
41
1
10
14.941572715084
20
0.591231451194091
30
0
41
1
10
14.5956038898366
20
0.784793048999234
30
0
41
1
10
14.365063767511
20
0.909825322872422
30
0
41
1
10
14.0201672754327
20
1.08887933513796
30
0
41
1
10
13.9053267600777
20
1.14685801890374
30
0
41
1
10
13.6751339872963
20
1.26026799392267
30
0
41
1
10
13.5596945756338
20
1.31556094291307
30
0
41
1
10
13.2135788322771
20
1.47583703207314
30
0
41
1
10
12.9838284433889
20
1.57586708589753
30
0
41
1
10
12.6385517119673
20
1.71286034872625
30
0
41
1
10
12.5233886159399
20
1.75618478667616
30
0
41
1
10
12.2929245449693
20
1.83735658740795
30
0
41
1
10
12.1775016021118
20
1.87597936932534
30
0
41
1
10
11.8318453836426
20
1.98431004169711
30
0
41
1
10
11.6016613997577
20
2.04558411353474
30
0
41
1
10
11.1412974328835
20
2.14847461259603
30
0
41
1
10
10.9101916312025
20
2.18799145974958
30
0
41
1
10
10.4492632902715
20
2.24479845033216
30
0
41
1
10
10.2194830134056
20
2.26169834390382
30
0
41
1
10
9.93867491821572
20
2.26765266890629
30
0
41
1
10
9.88837411491369
20
2.26816634661532
30
0
41
1
10
9.8380597584972
20
2.26810063731435
30
0
0
SPLINE
5
CE
100
AcDbEntity
8
1
62
256
6
ByLayer
370
18
48
1
60
0
100
AcDbSpline
70
4
71
3
72
14
73
10
40
0
40
0
40
0
40
0
40
0.615938580003361
40
0.615938580003361
40
0.779577594072019
40
0.779577594072019
40
0.943216608140679
40
0.943216608140679
40
1
40
1
40
1
40
1
41
1
10
16.640234313716
20
-2.27151150373433
30
0
41
1
10
16.148702375849
20
-2.27152501264951
30
0
41
1
10
15.6614587644957
20
-2.21720027649297
30
0
41
1
10
15.0395996624477
20
-2.08366565103947
30
0
41
1
10
14.908451591031
20
-2.051951887721
30
0
41
1
10
14.6469525936558
20
-1.98192279038756
30
0
41
1
10
14.5166701986897
20
-1.94364276258662
30
0
41
1
10
14.341606796803
20
-1.88793276432986
30
0
41
1
10
14.2965477630226
20
-1.87321026699053
30
0
41
1
10
14.2515211009009
20
-1.85812516051718
30
0
0
SPLINE
5
CF
100
AcDbEntity
8
1
62
256
6
ByLayer
370
13
48
1
60
0
100
AcDbSpline
70
4
71
3
72
24
73
20
40
0
40
0
40
0
40
0
40
0.0991953857848985
40
0.0991953857848985
40
0.219214291528025
40
0.219214291528025
40
0.279223744399588
40
0.279223744399588
40
0.33923319727115
40
0.33923319727115
40
0.579271008757399
40
0.579271008757399
40
0.639280461628961
40
0.639280461628961
40
0.699289914500524
40
0.699289914500524
40
0.819308820243651
40
0.819308820243651
40
1
40
1
40
1
40
1
41
1
10
14.2515211009907
20
-1.8581251605473
30
0
41
1
10
14.0370310855771
20
-1.78626540973724
30
0
41
1
10
13.823275651022
20
-1.70617729685495
30
0
41
1
10
13.3508492205363
20
-1.5129970106735
30
0
41
1
10
13.092103278804
20
-1.39663540998663
30
0
41
1
10
12.7020183267793
20
-1.2084496363974
30
0
41
1
10
12.571667419553
20
-1.143419870423
30
0
41
1
10
12.3099910884137
20
-1.009227351508
30
0
41
1
10
12.178936145962
20
-0.94017573760641
30
0
41
1
10
11.5272683453298
20
-0.589569017265347
30
0
41
1
10
11.012288705197
20
-0.289509623132233
30
0
41
1
10
10.3636972539904
20
0.0878221499310143
30
0
41
1
10
10.2337290574858
20
0.163389424722794
30
0
41
1
10
9.97299559583595
20
0.314212026627217
30
0
41
1
10
9.8419166673105
20
0.389668347583495
30
0
41
1
10
9.44934050532788
20
0.613172449545601
30
0
41
1
10
9.18956636755999
20
0.757717176948915
30
0
41
1
10
8.5405482370403
20
1.1045584519548
30
0
41
1
10
8.15193909320419
20
1.29836984689067
30
0
41
1
10
7.76055429240037
20
1.47131921410184
30
0
0
SPLINE
5
D0
100
AcDbEntity
8
1
62
256
6
ByLayer
370
18
48
1
60
0
100
AcDbSpline
70
4
71
3
72
64
73
60
40
0
40
0
40
0
40
0
40
0.0624999999999978
40
0.0624999999999978
40
0.124999999999996
40
0.124999999999996
40
0.249999999999991
40
0.249999999999991
40
0.374999999999987
40
0.374999999999987
40
0.437499999999985
40
0.437499999999985
40
0.499999999999982
40
0.499999999999982
40
0.56249999999998
40
0.56249999999998
40
0.59374999999998
40
0.59374999999998
40
0.60156249999998
40
0.60156249999998
40
0.605468749999981
40
0.605468749999981
40
0.609374999999982
40
0.609374999999982
40
0.613281249999983
40
0.613281249999983
40
0.617187499999984
40
0.617187499999984
40
0.624999999999985
40
0.624999999999985
40
0.656249999999984
40
0.656249999999984
40
0.671874999999985
40
0.671874999999985
40
0.687499999999985
40
0.687499999999985
40
0.703124999999985
40
0.703124999999985
40
0.718749999999986
40
0.718749999999986
40
0.734374999999986
40
0.734374999999986
40
0.749999999999986
40
0.749999999999986
40
0.765624999999987
40
0.765624999999987
40
0.781249999999987
40
0.781249999999987
40
0.812499999999989
40
0.812499999999989
40
0.84374999999999
40
0.84374999999999
40
0.874999999999992
40
0.874999999999992
40
0.937499999999997
40
0.937499999999997
40
0.968749999999998
40
0.968749999999998
40
1
40
1
40
1
40
1
41
1
10
9.10525196471616
20
0.479283930629663
30
0
41
1
10
8.90615432128851
20
0.599307454745571
30
0
41
1
10
8.70502157245474
20
0.713381718758967
30
0
41
1
10
8.2983761330571
20
0.929994052045686
30
0
41
1
10
8.09237272169096
20
1.0326967414457
30
0
41
1
10
7.47333825484543
20
1.31961291618199
30
0
41
1
10
7.05749169997335
20
1.48355117930424
30
0
41
1
10
6.21155835356714
20
1.75688753140719
30
0
41
1
10
5.78137978643363
20
1.86611239121879
30
0
41
1
10
5.12068362238159
20
1.99365477088216
30
0
41
1
10
4.89765626216897
20
2.03022228291456
30
0
41
1
10
4.44712222197154
20
2.09271430013322
30
0
41
1
10
4.22060837971014
20
2.11853110406093
30
0
41
1
10
3.76484572211672
20
2.1612894171943
30
0
41
1
10
3.53559886746996
20
2.17824128450295
30
0
41
1
10
3.1895530018333
20
2.19828288902227
30
0
41
1
10
3.07384216595591
20
2.20406233327205
30
0
41
1
10
2.92873845013608
20
2.21025775158807
30
0
41
1
10
2.89969444535115
20
2.21144528478209
30
0
41
1
10
2.85609329962475
20
2.21315075358194
30
0
41
1
10
2.84155197768354
20
2.21370666740759
30
0
41
1
10
2.81246858143891
20
2.21479303968343
30
0
41
1
10
2.79766866062468
20
2.2148037945075
30
0
41
1
10
2.76896423447886
20
2.21257969054125
30
0
41
1
10
2.7563826839779
20
2.20987242829466
30
0
41
1
10
2.73075891813261
20
2.20480526122537
30
0
41
1
10
2.71799385586351
20
2.20220868139748
30
0
41
1
10
2.67988116843762
20
2.19422491002763
30
0
41
1
10
2.6547020942503
20
2.18864145965929
30
0
41
1
10
2.53007200426816
20
2.15923795031259
30
0
41
1
10
2.43434382530935
20
2.13109991580322
30
0
41
1
10
2.30365137328172
20
2.07780932333711
30
0
41
1
10
2.26214263404793
20
2.05814627961135
30
0
41
1
10
2.18463624062562
20
2.01344499354414
30
0
41
1
10
2.14892025864083
20
1.98847688888475
30
0
41
1
10
2.08744578700583
20
1.93306479551114
30
0
41
1
10
2.06113402676775
20
1.90197973240473
30
0
41
1
10
2.02206673966347
20
1.8345463499038
30
0
41
1
10
2.0092383906001
20
1.79844133302402
30
0
41
1
10
1.99772165208273
20
1.72082030413307
30
0
41
1
10
1.99931010473489
20
1.67973883041611
30
0
41
1
10
2.01519695593106
20
1.59680936672237
30
0
41
1
10
2.02963180217233
20
1.55404557431424
30
0
41
1
10
2.06744555680334
20
1.46991965578957
30
0
41
1
10
2.09080030752583
20
1.42823459088945
30
0
41
1
10
2.14419069659223
20
1.34526336888774
30
0
41
1
10
2.17440946340747
20
1.30380163435842
30
0
41
1
10
2.27083794708605
20
1.18233080848668
30
0
41
1
10
2.34312825518035
20
1.10428772419448
30
0
41
1
10
2.49732210441144
20
0.951174366494712
30
0
41
1
10
2.57971223460834
20
0.875870275392742
30
0
41
1
10
2.74831399666226
20
0.72965156342508
30
0
41
1
10
2.83485798599497
20
0.658426356641797
30
0
41
1
10
3.09929043333665
20
0.448559877556932
30
0
41
1
10
3.28187817679989
20
0.313628330903214
30
0
41
1
10
3.56200444385871
20
0.115703056481976
30
0
41
1
10
3.6566265523312
20
0.0504045033363241
30
0
41
1
10
3.8460562041891
20
-0.0776265468568056
30
0
41
1
10
3.941056357196
20
-0.14049734833344
30
0
41
1
10
4.03632351361151
20
-0.20231407021484
30
0
0
SPLINE
5
D1
100
AcDbEntity
8
1
62
256
6
ByLayer
370
18
48
1
60
0
100
AcDbSpline
70
4
71
3
72
18
73
14
40
0
40
0
40
0
40
0
40
0.25
40
0.25
40
0.5
40
0.5
40
0.625
40
0.625
40
0.75
40
0.75
40
0.875
40
0.875
40
1
40
1
40
1
40
1
41
1
10
29.0412035658531
20
0.767941022654355
30
0
41
1
10
29.1123612966064
20
0.78671430527254
30
0
41
1
10
29.1825236539522
20
0.808113755588295
30
0
41
1
10
29.319464956349
20
0.860278169764371
30
0
41
1
10
29.3867075480147
20
0.890884777544244
30
0
41
1
10
29.4811671388014
20
0.951620437716429
30
0
41
1
10
29.5109319724229
20
0.974030172294164
30
0
41
1
10
29.5652824995935
20
1.02554274382567
30
0
41
1
10
29.5892857188809
20
1.05420200351352
30
0
41
1
10
29.6273522763901
20
1.11837493991652
30
0
41
1
10
29.641330164964
20
1.15436682566349
30
0
41
1
10
29.6548688796166
20
1.22908041692958
30
0
41
1
10
29.6543716360583
20
1.26801277577601
30
0
41
1
10
29.6482516111468
20
1.30591599785114
30
0
0
SPLINE
5
D2
100
AcDbEntity
8
1
62
256
6
ByLayer
370
18
48
1
60
0
100
AcDbSpline
70
4
71
3
72
10
73
6
40
0
40
0
40
0
40
0
40
0.815666435677118
40
0.815666435677118
40
1
40
1
40
1
40
1
41
1
10
4.19842581137701
20
-2.3626401568491
30
0
41
1
10
4.46111811761114
20
-2.36292403491618
30
0
41
1
10
4.72442373735038
20
-2.34677837007175
30
0
41
1
10
5.04440627371918
20
-2.30802136240732
30
0
41
1
10
5.10330681450233
20
-2.30009679392128
30
0
41
1
10
5.16214018616546
20
-2.29140247153234
30
0
0
SPLINE
5
D3
100
AcDbEntity
8
1
62
256
6
ByLayer
370
18
48
1
60
0
100
AcDbSpline
70
4
71
3
72
24
73
20
40
0
40
0
40
0
40
0
40
0.0916572172725948
40
0.0916572172725948
40
0.342945533412628
40
0.342945533412628
40
0.405767612447636
40
0.405767612447636
40
0.468589691482646
40
0.468589691482646
40
0.594233849552661
40
0.594233849552661
40
0.719878007622676
40
0.719878007622676
40
0.782700086657683
40
0.782700086657683
40
0.84552216569269
40
0.84552216569269
40
1
40
1
40
1
40
1
41
1
10
19.2616141995738
20
1.77882028269244
30
0
41
1
10
19.4519226168138
20
1.70227717392058
30
0
41
1
10
19.6412952970799
20
1.61967538087222
30
0
41
1
10
20.3484965714145
20
1.29100280374792
30
0
41
1
10
20.8642212403778
20
1.01102403825749
30
0
41
1
10
21.5192384591425
20
0.630456044949028
30
0
41
1
10
21.6505564270806
20
0.553058478663786
30
0
41
1
10
21.9115143167765
20
0.397398188787605
30
0
41
1
10
22.0415221926941
20
0.318965306774686
30
0
41
1
10
22.4308291265215
20
0.0830233070657869
30
0
41
1
10
22.6894800722668
20
-0.0750133555100945
30
0
41
1
10
23.2072555639016
20
-0.388825190668769
30
0
41
1
10
23.4664607005726
20
-0.54446362103451
30
0
41
1
10
23.8578512420318
20
-0.772502031135872
30
0
41
1
10
23.9891052927482
20
-0.847798289170868
30
0
41
1
10
24.2511013602408
20
-0.994861739802417
30
0
41
1
10
24.3815716728404
20
-1.06651069410447
30
0
41
1
10
24.8315560852905
20
-1.30724459082367
30
0
41
1
10
25.1491983483043
20
-1.46590143490502
30
0
41
1
10
25.4672404998194
20
-1.6086827608294
30
0
0
SPLINE
5
D4
100
AcDbEntity
8
1
62
256
6
ByLayer
370
13
48
1
60
0
100
AcDbSpline
70
4
71
3
72
16
73
12
40
0
40
0
40
0
40
0
40
0.161515994232913
40
0.161515994232913
40
0.266326494953799
40
0.266326494953799
40
0.371136995674688
40
0.371136995674688
40
0.580757997116459
40
0.580757997116459
40
1
40
1
40
1
40
1
41
1
10
25.4672395876332
20
-1.60868235131392
30
0
41
1
10
25.6665553080158
20
-1.69816284569794
30
0
41
1
10
25.8660280827264
20
-1.78140826677298
30
0
41
1
10
26.1962767064259
20
-1.90701392280781
30
0
41
1
10
26.3265732632669
20
-1.9534770000858
30
0
41
1
10
26.5881715618533
20
-2.04001538537409
30
0
41
1
10
26.7195775393173
20
-2.08009491108183
30
0
41
1
10
27.111178599192
20
-2.18888906454569
30
0
41
1
10
27.3704187375675
20
-2.24665950348063
30
0
41
1
10
28.1466943079202
20
-2.37427769774533
30
0
41
1
10
28.6626642913172
20
-2.39883291349412
30
0
41
1
10
29.1870110344163
20
-2.35809898444052
30
0
0
SPLINE
5
D5
100
AcDbEntity
8
1
62
256
6
ByLayer
370
18
48
1
60
0
100
AcDbSpline
70
4
71
3
72
8
73
4
40
0
40
0
40
0
40
0
40
1
40
1
40
1
40
1
41
1
10
29.1782680102102
20
-2.38109687740342
30
0
41
1
10
29.181184112635
20
-2.37343358398942
30
0
41
1
10
29.1840984685438
20
-2.36576758046215
30
0
41
1
10
29.1870110344165
20
-2.35809898444043
30
0
0
SPLINE
5
D6
100
AcDbEntity
8
1
62
256
6
ByLayer
370
18
48
1
60
0
100
AcDbSpline
70
4
71
3
72
18
73
14
40
0
40
0
40
0
40
0
40
0.249999999999995
40
0.249999999999995
40
0.374999999999996
40
0.374999999999996
40
0.499999999999997
40
0.499999999999997
40
0.749999999999998
40
0.749999999999998
40
0.874999999999999
40
0.874999999999999
40
1
40
1
40
1
40
1
41
1
10
28.9121493430481
20
0.436964765350552
30
0
41
1
10
28.9027616275707
20
0.468223903800975
30
0
41
1
10
28.8970229542184
20
0.500321973979908
30
0
41
1
10
28.8937729738506
20
0.549890842466226
30
0
41
1
10
28.8935928855569
20
0.566651922238037
30
0
41
1
10
28.8954305587177
20
0.600726240244086
30
0
41
1
10
28.8972112969774
20
0.617894993743477
30
0
41
1
10
28.9096615318317
20
0.667697243796056
30
0
41
1
10
28.9274454097961
20
0.698504496384828
30
0
41
1
10
28.9648570144029
20
0.73283396466735
30
0
41
1
10
28.9791837235448
20
0.742531887741109
30
0
41
1
10
29.0091211187707
20
0.757840353680109
30
0
41
1
10
29.0248573928457
20
0.763628471897789
30
0
41
1
10
29.0412035658531
20
0.767941022654355
30
0
0
SPLINE
5
D7
100
AcDbEntity
8
1
62
256
6
ByLayer
370
18
48
1
60
0
100
AcDbSpline
70
4
71
3
72
14
73
10
40
0
40
0
40
0
40
0
40
0.25
40
0.25
40
0.5
40
0.5
40
0.75
40
0.75
40
1
40
1
40
1
40
1
41
1
10
27.264272000868
20
0.547710441999271
30
0
41
1
10
27.3381391164571
20
0.35917517128803
30
0
41
1
10
27.435157461403
20
0.177777004222321
30
0
41
1
10
27.6626999374316
20
-0.173720084464634
30
0
41
1
10
27.7883783000886
20
-0.336491896494323
30
0
41
1
10
28.0571648676916
20
-0.643039969197474
30
0
41
1
10
28.201475604729
20
-0.787296440530355
30
0
41
1
10
28.4967960353423
20
-1.05363274541463
30
0
41
1
10
28.6484295909027
20
-1.1766600041187
30
0
41
1
10
28.8034959155599
20
-1.29092603312324
30
0
0
SPLINE
5
D8
100
AcDbEntity
8
1
62
256
6
ByLayer
370
13
48
1
60
0
100
AcDbSpline
70
4
71
3
72
26
73
22
40
0
40
0
40
0
40
0
40
0.125
40
0.125
40
0.25
40
0.25
40
0.375
40
0.375
40
0.5
40
0.5
40
0.5625
40
0.5625
40
0.625
40
0.625
40
0.75
40
0.75
40
0.8125
40
0.8125
40
0.875
40
0.875
40
1
40
1
40
1
40
1
41
1
10
4.25035157093436
20
-2.26275375985122
30
0
41
1
10
4.25037666212276
20
-2.25791468223326
30
0
41
1
10
4.25039214208482
20
-2.24131950295109
30
0
41
1
10
4.25041114212266
20
-2.18510030290156
30
0
41
1
10
4.25041458739651
20
-2.1450588116974
30
0
41
1
10
4.25041636235039
20
-2.04449715360741
30
0
41
1
10
4.25041478886757
20
-1.98384930812526
30
0
41
1
10
4.25041324218003
20
-1.84162042975916
30
0
41
1
10
4.25041331310774
20
-1.75977119928785
30
0
41
1
10
4.25041866942866
20
-1.62436927876877
30
0
41
1
10
4.25042133100496
20
-1.57681655521435
30
0
41
1
10
4.25042877996808
20
-1.47845004450468
30
0
41
1
10
4.25043356297675
20
-1.42757409811944
30
0
41
1
10
4.25045149900956
20
-1.26998512588617
30
0
41
1
10
4.25046828416157
20
-1.15834903834124
30
0
41
1
10
4.25050146673081
20
-0.980799877616107
30
0
41
1
10
4.25051389234116
20
-0.919773910580659
30
0
41
1
10
4.25054080356071
20
-0.796611523876578
30
0
41
1
10
4.25055533332838
20
-0.73421083698679
30
0
41
1
10
4.25060166117248
20
-0.544590646521272
30
0
41
1
10
4.2506362564757
20
-0.414972222149629
30
0
41
1
10
4.25067265590547
20
-0.2820288295799
30
0
0
SPLINE
5
D9
100
AcDbEntity
8
1
62
256
6
ByLayer
370
18
48
1
60
0
100
AcDbSpline
70
4
71
3
72
34
73
30
40
0
40
0
40
0
40
0
40
0.249999999999987
40
0.249999999999987
40
0.37499999999998
40
0.37499999999998
40
0.499999999999973
40
0.499999999999973
40
0.624999999999966
40
0.624999999999966
40
0.687499999999969
40
0.687499999999969
40
0.71874999999997
40
0.71874999999997
40
0.749999999999972
40
0.749999999999972
40
0.812499999999985
40
0.812499999999985
40
0.843749999999988
40
0.843749999999988
40
0.87499999999999
40
0.87499999999999
40
0.906249999999993
40
0.906249999999993
40
0.937499999999995
40
0.937499999999995
40
0.968749999999997
40
0.968749999999997
40
1
40
1
40
1
40
1
41
1
10
27.2642720008682
20
0.547710441999385
30
0
41
1
10
27.4310032500554
20
0.445514322729224
30
0
41
1
10
27.5990026562305
20
0.35081474501834
30
0
41
1
10
27.8523436140188
20
0.231835175980905
30
0
41
1
10
27.9366461962492
20
0.196096359932
30
0
41
1
10
28.1049109353314
20
0.133862408146882
30
0
41
1
10
28.1891211274875
20
0.107172618228418
30
0
41
1
10
28.3556132834323
20
0.0646864483250056
30
0
41
1
10
28.4379114570377
20
0.0489444547074243
30
0
41
1
10
28.559793999545
20
0.0344121863293196
30
0
41
1
10
28.6000541071827
20
0.0311064982732319
30
0
41
1
10
28.6597801300099
20
0.0285632062586103
30
0
41
1
10
28.6796735291836
20
0.0278398062927749
30
0
41
1
10
28.7185322190719
20
0.0292120357157444
30
0
41
1
10
28.7375297963038
20
0.0311601621142756
30
0
41
1
10
28.7924205401405
20
0.0413121499948943
30
0
41
1
10
28.8270330996683
20
0.0537604947077455
30
0
41
1
10
28.8709992898093
20
0.0839419927014546
30
0
41
1
10
28.8844666876993
20
0.095756544256318
30
0
41
1
10
28.9067038636059
20
0.125905645990315
30
0
41
1
10
28.9156485495172
20
0.142867017213916
30
0
41
1
10
28.9296931522925
20
0.180126795260833
30
0
41
1
10
28.934727013284
20
0.200757923106551
30
0
41
1
10
28.9404493112734
20
0.244109664808974
30
0
41
1
10
28.9412154156312
20
0.266797278065809
30
0
41
1
10
28.9387608004517
20
0.314097828139495
30
0
41
1
10
28.9354867797151
20
0.338623810225641
30
0
41
1
10
28.9258931587
20
0.387554876249652
30
0
41
1
10
28.9195883587578
20
0.412194391497223
30
0
41
1
10
28.9121493430481
20
0.436964765350552
30
0
0
LINE
5
76
100
AcDbEntity
8
81
62
256
6
ByLayer
370
18
48
1
60
0
100
AcDbLine
10
30
20
0
30
0
11
35
21
0
31
0
39
0
210
0
220
0
230
1
0
LINE
5
77
100
AcDbEntity
8
1
62
256
6
ByLayer
370
18
48
1
60
0
100
AcDbLine
10
4.198714
20
2.384974
30
0
11
1.262737
21
2.383212
31
0
39
0
210
0
220
0
230
1
0
LINE
5
79
100
AcDbEntity
8
1
62
256
6
ByLayer
370
18
48
1
60
0
100
AcDbLine
10
16.443521
20
2.392321
30
0
11
16.018546
21
2.392066
31
0
39
0
210
0
220
0
230
1
0
LINE
5
7A
100
AcDbEntity
8
1
62
256
6
ByLayer
370
18
48
1
60
0
100
AcDbLine
10
28.68946
20
2.399668
30
0
11
28.26873
21
2.399416
31
0
39
0
210
0
220
0
230
1
0
LINE
5
7B
100
AcDbEntity
8
1
62
256
6
ByLayer
370
18
48
1
60
0
100
AcDbLine
10
28.26873
20
-2.399416
30
0
11
28.689419
21
-2.399668
31
0
39
0
210
0
220
0
230
1
0
LINE
5
7C
100
AcDbEntity
8
1
62
256
6
ByLayer
370
18
48
1
60
0
100
AcDbLine
10
16.018546
20
-2.392066
30
0
11
16.443859
21
-2.392321
31
0
39
0
210
0
220
0
230
1
0
LINE
5
7D
100
AcDbEntity
8
1
62
256
6
ByLayer
370
18
48
1
60
0
100
AcDbLine
10
1.262737
20
-2.383212
30
0
11
4.198687
21
-2.384974
31
0
39
0
210
0
220
0
230
1
0
LINE
5
7E
100
AcDbEntity
8
SK1
62
256
6
ByLayer
370
18
48
1
60
0
100
AcDbLine
10
0
20
3
30
0
11
-35.278312
21
3
31
0
39
0
210
0
220
0
230
1
0
LINE
5
80
100
AcDbEntity
8
SK1
62
256
6
ByLayer
370
18
48
1
60
0
100
AcDbLine
10
-35.278312
20
-3
30
0
11
0
21
-3
31
0
39
0
210
0
220
0
230
1
0
LINE
5
81
100
AcDbEntity
8
SK1
62
256
6
ByLayer
370
18
48
1
60
0
100
AcDbLine
10
-35.278312
20
3
30
0
11
-36
21
1.75
31
0
39
0
210
0
220
0
230
1
0
LINE
5
82
100
AcDbEntity
8
SK1
62
256
6
ByLayer
370
18
48
1
60
0
100
AcDbLine
10
-36
20
-1.75
30
0
11
-35.278312
21
-3
31
0
39
0
210
0
220
0
230
1
0
LINE
5
83
100
AcDbEntity
8
SK4
62
256
6
ByLayer
370
18
48
0.05
60
0
100
AcDbLine
10
35
20
0
30
0
11
-41
21
0
31
0
39
0
210
0
220
0
230
1
0
LINE
5
85
100
AcDbEntity
8
4
62
256
6
ByLayer
370
18
48
0.05
60
0
100
AcDbLine
10
30
20
0
30
0
11
0
21
0
31
0
39
0
210
0
220
0
230
1
0
LINE
5
87
100
AcDbEntity
8
80
62
256
6
ByLayer
370
18
48
1
60
0
100
AcDbLine
10
0
20
0
30
0
11
-5
21
0
31
0
39
0
210
0
220
0
230
1
0
LINE
5
88
100
AcDbEntity
8
1
62
256
6
ByLayer
370
13
48
1
60
0
100
AcDbLine
10
0.631129
20
2.691606
30
0
11
0.631129
21
-2.691606
31
0
39
0
210
0
220
0
230
1
0
LINE
5
89
100
AcDbEntity
8
1
62
256
6
ByLayer
370
18
48
1
60
0
100
AcDbLine
10
29.933107
20
0.262662
30
0
11
29.860413
21
0.601706
31
0
39
0
210
0
220
0
230
1
0
LINE
5
8A
100
AcDbEntity
8
1
62
256
6
ByLayer
370
13
48
1
60
0
100
AcDbLine
10
29.361684
20
0.601706
30
0
11
29.933107
21
0.262662
31
0
39
0
210
0
220
0
230
1
0
LINE
5
8B
100
AcDbEntity
8
1
62
256
6
ByLayer
370
18
48
1
60
0
100
AcDbLine
10
30
20
0
30
0
11
29.996076
21
-0.024342
31
0
39
0
210
0
220
0
230
1
0
LINE
5
8C
100
AcDbEntity
8
1
62
256
6
ByLayer
370
18
48
1
60
0
100
AcDbLine
10
29.933107
20
-0.262662
30
0
11
29.860413
21
-0.601706
31
0
39
0
210
0
220
0
230
1
0
LINE
5
8D
100
AcDbEntity
8
1
62
256
6
ByLayer
370
18
48
1
60
0
100
AcDbLine
10
28.803496
20
-1.290926
30
0
11
29.895401
21
-0.162973
31
0
39
0
210
0
220
0
230
1
0
LINE
5
8E
100
AcDbEntity
8
1
62
256
6
ByLayer
370
13
48
1
60
0
100
AcDbLine
10
1.262737
20
2.383212
30
0
11
1.262737
21
-2.383212
31
0
39
0
210
0
220
0
230
1
0
LINE
5
8F
100
AcDbEntity
8
1
62
256
6
ByLayer
370
18
48
1
60
0
100
AcDbLine
10
29.996076
20
0.024342
30
0
11
30
21
0
31
0
39
0
210
0
220
0
230
1
0
LINE
5
90
100
AcDbEntity
8
1
62
256
6
ByLayer
370
18
48
1
60
0
100
AcDbLine
10
30
20
0
30
0
11
29.170522
21
-2.278973
31
0
39
0
210
0
220
0
230
1
0
LINE
5
91
100
AcDbEntity
8
1
62
256
6
ByLayer
370
13
48
1
60
0
100
AcDbLine
10
29.860413
20
0.601706
30
0
11
29.361684
21
0.601706
31
0
39
0
210
0
220
0
230
1
0
LINE
5
92
100
AcDbEntity
8
1
62
256
6
ByLayer
370
13
48
1
60
0
100
AcDbLine
10
29.171777
20
0.266377
30
0
11
29.895401
21
-0.162973
31
0
39
0
210
0
220
0
230
1
0
LINE
5
93
100
AcDbEntity
8
1
62
256
6
ByLayer
370
18
48
1
60
0
100
AcDbLine
10
0
20
-3
30
0
11
0
21
3
31
0
39
0
210
0
220
0
230
1
0
LINE
5
94
100
AcDbEntity
8
SK1
62
256
6
ByLayer
370
18
48
1
60
0
100
AcDbLine
10
0
20
-3
30
0
11
0
21
3
31
0
39
0
210
0
220
0
230
1
0
LINE
5
95
100
AcDbEntity
8
SK1
62
256
6
ByLayer
370
18
48
1
60
0
100
AcDbLine
10
-35.278312
20
3
30
0
11
-35.278312
21
-3
31
0
39
0
210
0
220
0
230
1
0
LINE
5
96
100
AcDbEntity
8
SK1
62
256
6
ByLayer
370
18
48
1
60
0
100
AcDbLine
10
-36
20
1.75
30
0
11
-36
21
-1.75
31
0
39
0
210
0
220
0
230
1
0
MTEXT
5
DA
100
AcDbEntity
8
SK6
62
256
6
ByLayer
370
13
48
1
60
0
100
AcDbMText
10
-0.870831
20
34.782694
30
0
210
0
220
0
230
1
1
\W0.7725;R840-0480-30-A0A1220
40
3.5
41
0
44
1.084337
50
0
71
8
72
5
7
iso_b_vert
0
DIMENSION
5
E7
100
AcDbEntity
8
SK2
62
256
6
ByLayer
370
13
48
1
60
0
100
AcDbDimension
2
DimnDraft3D1
10
29.19
20
-12.613398
30
0
11
13.440059
21
-12.613398
31
0
70
32
71
5
72
1
41
1
210
0
220
0
230
1
3
Standard
100
AcDbAlignedDimension
13
0
23
-1.5875
33
0
14
29.19
24
-3.9875
34
0
50
0
100
AcDbRotatedDimension
1001
ACAD
1000
DSTYLE
1002
{
1070
   279
1070
     0
1070
   172
1070
     1
1070
   173
1070
     1
1070
   340
1005
DB
1070
   271
1070
     2
1070
   272
1070
     2
1070
    77
1070
     1
1070
    73
1070
     0
1070
   171
1070
     3
1070
   274
1070
     4
1070
   177
1070
    35
1070
   176
1070
    35
1070
   178
1070
    35
1070
    48
1040
-0.005
1070
    41
1041
3.5
1070
   147
1041
1.75
1070
    42
1041
1.5875
1070
    44
1041
2.0
1070
   140
1041
3.5
1070
   343
1005
0
1070
   344
1005
0
1002
}
0
DIMENSION
5
F1
100
AcDbEntity
8
SK2
62
256
6
ByLayer
370
13
48
1
60
0
100
AcDbDimension
2
DimnDraft3D2
10
30
20
-31.692985
30
0
11
-2.4687
21
-31.692985
31
0
70
32
71
5
72
1
41
1
210
0
220
0
230
1
3
Standard
100
AcDbAlignedDimension
13
-36
23
-4.5875
33
0
14
30
24
-1.5875
34
0
50
0
100
AcDbRotatedDimension
1001
ACAD
1000
DSTYLE
1002
{
1070
   279
1070
     0
1070
   172
1070
     1
1070
   173
1070
     1
1070
   340
1005
DB
1070
   271
1070
     2
1070
   272
1070
     2
1070
    77
1070
     1
1070
    73
1070
     0
1070
   171
1070
     3
1070
   274
1070
     4
1070
   177
1070
    35
1070
   176
1070
    35
1070
   178
1070
    35
1070
    48
1040
-0.005
1070
    41
1041
3.5
1070
   147
1041
1.75
1070
    42
1041
1.5875
1070
    44
1041
2.0
1070
   140
1041
3.5
1070
   343
1005
0
1070
   344
1005
0
1002
}
0
DIMENSION
5
FB
100
AcDbEntity
8
SK2
62
256
6
ByLayer
370
13
48
1
60
0
100
AcDbDimension
2
DimnDraft3D3
10
30
20
14.009119
30
0
11
22.395
21
14.009119
31
0
70
32
71
5
72
1
41
1
210
0
220
0
230
1
3
Standard
100
AcDbAlignedDimension
13
14.79
23
3.9875
33
0
14
30
24
1.5875
34
0
50
0
100
AcDbRotatedDimension
1001
ACAD
1000
DSTYLE
1002
{
1070
   279
1070
     0
1070
   172
1070
     1
1070
   173
1070
     1
1070
   340
1005
DB
1070
   271
1070
     2
1070
   272
1070
     2
1070
    77
1070
     1
1070
    73
1070
     0
1070
   171
1070
     3
1070
   274
1070
     4
1070
   177
1070
    35
1070
   176
1070
    35
1070
   178
1070
    35
1070
    48
1040
-0.005
1070
    41
1041
3.5
1070
   147
1041
1.75
1070
    42
1041
1.5875
1070
    44
1041
2.0
1070
   140
1041
3.5
1070
   343
1005
0
1070
   344
1005
0
1002
}
0
DIMENSION
5
105
100
AcDbEntity
8
SK2
62
256
6
ByLayer
370
13
48
1
60
0
100
AcDbDimension
2
DimnDraft3D4
10
29.19
20
-15.202503
30
0
11
39.981425
21
-15.202503
31
0
70
32
71
5
72
1
41
1
210
0
220
0
230
1
3
Standard
100
AcDbAlignedDimension
13
30
23
-1.5875
33
0
14
29.19
24
-3.9875
34
0
50
0
100
AcDbRotatedDimension
1001
ACAD
1000
DSTYLE
1002
{
1070
   279
1070
     0
1070
   172
1070
     1
1070
   173
1070
     1
1070
   340
1005
DB
1070
   271
1070
     2
1070
   272
1070
     2
1070
    77
1070
     1
1070
    73
1070
     0
1070
   171
1070
     3
1070
   274
1070
     4
1070
   177
1070
    35
1070
   176
1070
    35
1070
   178
1070
    35
1070
    48
1040
-0.005
1070
    41
1041
3.5
1070
   147
1041
1.75
1070
    42
1041
1.5875
1070
    44
1041
2.0
1070
   140
1041
3.5
1070
   343
1005
0
1070
   344
1005
0
1002
}
0
DIMENSION
5
10F
100
AcDbEntity
8
SK2
62
256
6
ByLayer
370
13
48
1
60
0
100
AcDbDimension
2
DimnDraft3D5
10
29.19
20
-21.343428
30
0
11
-5.549324
21
-21.343428
31
0
70
32
71
5
72
1
41
1
210
0
220
0
230
1
3
Standard
100
AcDbAlignedDimension
13
-36
23
-4.5875
33
0
14
29.19
24
-3.9875
34
0
50
0
100
AcDbRotatedDimension
1001
ACAD
1000
DSTYLE
1002
{
1070
   279
1070
     0
1070
   172
1070
     1
1070
   173
1070
     1
1070
   340
1005
DB
1070
   271
1070
     2
1070
   272
1070
     2
1070
    77
1070
     1
1070
    73
1070
     0
1070
   171
1070
     3
1070
   274
1070
     4
1070
   177
1070
    35
1070
   176
1070
    35
1070
   178
1070
    35
1070
    48
1040
-0.005
1070
    41
1041
3.5
1070
   147
1041
1.75
1070
    42
1041
1.5875
1070
    44
1041
2.0
1070
   140
1041
3.5
1070
   343
1005
0
1070
   344
1005
0
1002
}
0
DIMENSION
5
11A
100
AcDbEntity
8
SK2
62
256
6
ByLayer
370
13
48
1
60
0
100
AcDbDimension
2
DimnDraft3D6
10
-46.625163
20
3
30
0
11
-47.250163
21
21.47418
31
0
70
33
71
5
72
1
41
1
210
0
220
0
230
1
3
Standard
100
AcDbAlignedDimension
13
-37.5875
23
-3
33
0
14
-37.5875
24
3
34
0
1001
ACAD
1000
DSTYLE
1002
{
1070
   279
1070
     0
1070
    74
1070
     0
1070
   173
1070
     1
1070
   340
1005
DB
1070
   271
1070
     3
1070
   272
1070
     2
1070
    77
1070
     1
1070
    73
1070
     0
1070
   171
1070
     3
1070
   274
1070
     4
1070
   177
1070
    35
1070
   176
1070
    35
1070
   178
1070
    35
1070
    48
1040
-0.005
1070
    41
1041
3.5
1070
   147
1041
1.75
1070
    42
1041
1.5875
1070
    44
1041
2.0
1070
   140
1041
3.5
1070
   343
1005
0
1070
   344
1005
0
1002
}
0
DIMENSION
5
125
100
AcDbEntity
8
2
62
256
6
ByLayer
370
13
48
1
60
0
100
AcDbDimension
2
DimnDraft3D7
10
44.083343
20
2.4
30
0
11
39.458343
21
19.467266
31
0
70
33
71
5
72
1
41
1
210
0
220
0
230
1
3
Standard
100
AcDbAlignedDimension
13
30.7775
23
-2.4
33
0
14
30.7775
24
2.4
34
0
1001
ACAD
1000
DSTYLE
1002
{
1070
   279
1070
     0
1070
    74
1070
     0
1070
   173
1070
     1
1070
   340
1005
DB
1070
   271
1070
     3
1070
   272
1070
     2
1070
    77
1070
     1
1070
    73
1070
     0
1070
   171
1070
     3
1070
   274
1070
     4
1070
   177
1070
    35
1070
   176
1070
    35
1070
   178
1070
    35
1070
    48
1040
-0.005
1070
    41
1041
3.5
1070
   147
1041
1.75
1070
    42
1041
1.5875
1070
    44
1041
2.0
1070
   140
1041
3.5
1070
   343
1005
0
1070
   344
1005
0
1002
}
0
ENDSEC
0
SECTION
2
OBJECTS
0
DICTIONARY
5
190
330
0
100
AcDbDictionary
280
0
281
1
3
ACAD_GROUP
350
191
3
ACAD_MLINESTYLE
350
192
0
DICTIONARY
5
191
330
0
100
AcDbDictionary
280
0
281
1
0
DICTIONARY
5
192
330
0
100
AcDbDictionary
280
0
281
1
3
Standard
350
18
0
MLINESTYLE
5
18
330
192
100
AcDbMlineStyle
2
Standard
70
0
3

62
256
51
90
52
90
71
2
49
-0.5
62
256
6
ByLayer
49
0.5
62
256
6
ByLayer
0
RASTERVARIABLES
5
17e
330

100
AcDbRasterVariables
90
0
70
1
71
1
72
1
0
ENDSEC
0
EOF
