0
SECTION
2
HEADER
9
$ACADVER
1
AC1015
9
$DWGCODEPAGE
3
ANSI_1252
9
$HANDSEED
5
193
9
$ANGBASE
50
0
9
$ANGDIR
70
0
9
$ATTMODE
70
1
9
$AUNITS
70
0
9
$AUPREC
70
0
9
$CECOLOR
62
256
9
$CELTSCALE
40
1
9
$CELTYPE
6
ByLayer
9
$CELWEIGHT
370
18
9
$CLAYER
8
0
9
$CMLJUST
70
0
9
$CMLSCALE
40
1
9
$CMLSTYLE
2
Standard
9
$DIMSTYLE
2
Standard
9
$TEXTSIZE
40
0.2
9
$TEXTSTYLE
7
Standard
9
$LUNITS
70
2
9
$LUPREC
70
4
9
$EXTNAMES
290
1
9
$INSUNITS
70
4
9
$LTSCALE
40
1
9
$LWDISPLAY
290
1
9
$PDMODE
70
0
9
$PDSIZE
40
0
9
$PLINEGEN
70
0
0
ENDSEC
0
SECTION
2
CLASSES
0
CLASS
1
RASTERVARIABLES
2
AcDbRasterVariables
3
ISM
90
0
280
0
281
0
0
ENDSEC
0
SECTION
2
TABLES
0
TABLE
2
VPORT
5
189
100
AcDbSymbolTable
0
VPORT
5
1
100
AcDbSymbolTableRecord
100
AcDbViewportTableRecord
2
*Active
70
0
10
0
20
0
11
1
21
1
12
-1
22
1
13
0
23
0
14
0.5
24
0.5
15
10
25
10
16
0
26
0
36
1
17
0
27
0
37
0
0
ENDTAB
0
TABLE
2
LTYPE
5
18a
100
AcDbSymbolTable
0
LTYPE
5
14
100
AcDbSymbolTableRecord
100
AcDbLinetypeTableRecord
70
0
2
ByBlock
3

72
65
73
0
40
0
0
LTYPE
5
15
100
AcDbSymbolTableRecord
100
AcDbLinetypeTableRecord
70
0
2
ByLayer
3

72
65
73
0
40
0
0
LTYPE
5
16
100
AcDbSymbolTableRecord
100
AcDbLinetypeTableRecord
70
0
2
CONTINUOUS
3
Solid line
72
65
73
0
40
0
0
LTYPE
5
6A
100
AcDbSymbolTableRecord
100
AcDbLinetypeTableRecord
70
0
2
CENTER
3
____ _ ____ _ ____ _ ____
72
65
73
4
40
47.5
49
22
74
0
49
-8.5
74
0
49
8.5
74
0
49
-8.5
74
0
0
LTYPE
5
6B
100
AcDbSymbolTableRecord
100
AcDbLinetypeTableRecord
70
0
2
DASHED
3
__ __ __ __ __ __ __ __ __
72
65
73
2
40
25.72
49
12.86
74
0
49
-12.86
74
0
0
ENDTAB
0
TABLE
2
LAYER
5
18b
100
AcDbSymbolTable
0
LAYER
5
10
100
AcDbSymbolTableRecord
100
AcDbLayerTableRecord
2
0
70
0
62
7
6
CONTINUOUS
290
1
370
-3
390
0
0
LAYER
5
6D
100
AcDbSymbolTableRecord
100
AcDbLayerTableRecord
2
81
70
0
62
-3
6
CONTINUOUS
290
1
370
-3
390
0
0
LAYER
5
6F
100
AcDbSymbolTableRecord
100
AcDbLayerTableRecord
2
80
70
0
62
-6
6
CONTINUOUS
290
1
370
-3
390
0
0
LAYER
5
74
100
AcDbSymbolTableRecord
100
AcDbLayerTableRecord
2
2
70
0
62
7
6
CONTINUOUS
290
1
370
-3
390
0
0
LAYER
5
78
100
AcDbSymbolTableRecord
100
AcDbLayerTableRecord
2
1
70
0
62
4
6
CONTINUOUS
290
1
370
-3
390
0
0
LAYER
5
86
100
AcDbSymbolTableRecord
100
AcDbLayerTableRecord
2
4
70
0
62
-2
6
CENTER
290
1
370
-3
390
0
0
LAYER
5
175
100
AcDbSymbolTableRecord
100
AcDbLayerTableRecord
2
SK2
70
0
62
7
6
CONTINUOUS
290
1
370
-3
390
0
0
LAYER
5
176
100
AcDbSymbolTableRecord
100
AcDbLayerTableRecord
2
SK1
70
0
62
4
6
CONTINUOUS
290
1
370
-3
390
0
0
LAYER
5
177
100
AcDbSymbolTableRecord
100
AcDbLayerTableRecord
2
SK4
70
0
62
2
6
CENTER
290
1
370
-3
390
0
0
LAYER
5
178
100
AcDbSymbolTableRecord
100
AcDbLayerTableRecord
2
SK6
70
0
62
5
6
CONTINUOUS
290
1
370
-3
390
0
0
ENDTAB
0
TABLE
2
STYLE
5
18c
100
AcDbSymbolTable
0
STYLE
5
11
100
AcDbSymbolTableRecord
100
AcDbTextStyleTableRecord
2
Standard
3
txt
70
0
71
0
40
0
41
1
42
0
50
0
0
STYLE
5
D1
100
AcDbSymbolTableRecord
100
AcDbTextStyleTableRecord
2
iso_b_vert
3
simplex.shx
70
0
71
0
40
0
41
1
42
0
50
0
0
STYLE
5
D2
100
AcDbSymbolTableRecord
100
AcDbTextStyleTableRecord
2
DWGDirectTextStyle
3
simplex
70
0
71
0
40
0
41
1
42
0
50
0
0
ENDTAB
0
TABLE
2
DIMSTYLE
5
18d
100
AcDbSymbolTable
100
AcDbDimStyleTable
0
DIMSTYLE
105
27
100
AcDbSymbolTableRecord
100
AcDbDimStyleTableRecord
2
Standard
70
0
3
<>
41
0.18
42
0.0625
44
0.18
140
0.18
147
0.09
73
0
74
0
77
1
271
2
275
0
278
52
280
0
340
11
0
ENDTAB
0
TABLE
2
VIEW
5
18e
100
AcDbSymbolTable
0
ENDTAB
0
TABLE
2
UCS
5
18f
100
AcDbSymbolTable
0
ENDTAB
0
TABLE
2
APPID
5
190
100
AcDbSymbolTable
0
APPID
5
12
100
AcDbSymbolTableRecord
100
AcDbRegAppTableRecord
2
ACAD
70
0
0
ENDTAB
0
TABLE
2
BLOCK_RECORD
5
191
100
AcDbSymbolTable
0
BLOCK_RECORD
5
1F
100
AcDbSymbolTableRecord
100
AcDbBlockTableRecord
2
*Model_Space
340
0
70
0
0
BLOCK_RECORD
5
1B
100
AcDbSymbolTableRecord
100
AcDbBlockTableRecord
2
*Paper_Space
340
0
70
0
0
BLOCK_RECORD
5
23
100
AcDbSymbolTableRecord
100
AcDbBlockTableRecord
2
*Paper_Space0
340
0
70
0
0
BLOCK_RECORD
5
D4
100
AcDbSymbolTableRecord
100
AcDbBlockTableRecord
2
DimnDraft3D1
340
0
70
0
0
BLOCK_RECORD
5
DE
100
AcDbSymbolTableRecord
100
AcDbBlockTableRecord
2
DimnDraft3D2
340
0
70
0
0
BLOCK_RECORD
5
E8
100
AcDbSymbolTableRecord
100
AcDbBlockTableRecord
2
DimnDraft3D3
340
0
70
0
0
BLOCK_RECORD
5
F2
100
AcDbSymbolTableRecord
100
AcDbBlockTableRecord
2
DimnDraft3D4
340
0
70
0
0
BLOCK_RECORD
5
FC
100
AcDbSymbolTableRecord
100
AcDbBlockTableRecord
2
DimnDraft3D5
340
0
70
0
0
BLOCK_RECORD
5
106
100
AcDbSymbolTableRecord
100
AcDbBlockTableRecord
2
DimnDraft3D6
340
0
70
0
0
BLOCK_RECORD
5
111
100
AcDbSymbolTableRecord
100
AcDbBlockTableRecord
2
DimnDraft3D7
340
0
70
0
0
ENDTAB
0
ENDSEC
0
SECTION
2
BLOCKS
0
BLOCK
5
20
100
AcDbEntity
8
0
100
AcDbBlockBegin
2
*Model_Space
70
0
10
0
20
0
30
0
3
*Model_Space
0
ENDBLK
5
21
100
AcDbEntity
8
0
100
AcDbBlockEnd
0
BLOCK
5
1C
100
AcDbEntity
8
0
100
AcDbBlockBegin
2
*Paper_Space
70
0
10
0
20
0
30
0
3
*Paper_Space
0
ENDBLK
5
1D
100
AcDbEntity
8
0
100
AcDbBlockEnd
0
BLOCK
5
24
100
AcDbEntity
8
0
100
AcDbBlockBegin
2
*Paper_Space0
70
0
10
0
20
0
30
0
3
*Paper_Space0
0
ENDBLK
5
25
100
AcDbEntity
8
0
100
AcDbBlockEnd
0
BLOCK
5
DB
100
AcDbEntity
8
0
100
AcDbBlockBegin
2
DimnDraft3D1
70
0
10
0
20
0
30
0
3
DimnDraft3D1
0
MTEXT
5
D5
100
AcDbEntity
8
SK2
62
256
6
ByLayer
370
13
48
1
60
0
100
AcDbMText
10
9.021375
20
-11.638398
30
0
210
0
220
0
230
1
1
\W0.7317;29,22
40
3.5
41
0
44
1.084337
50
0
71
7
72
5
7
iso_b_vert
0
LINE
5
D6
100
AcDbEntity
8
SK2
62
256
6
ByLayer
370
13
48
1
60
0
100
AcDbLine
10
0
20
-1.5875
30
0
11
0
21
-14.513398
31
0
39
0
210
0
220
0
230
1
0
LINE
5
D7
100
AcDbEntity
8
SK2
62
256
6
ByLayer
370
13
48
1
60
0
100
AcDbLine
10
29.22
20
-3.8875
30
0
11
29.22
21
-14.513398
31
0
39
0
210
0
220
0
230
1
0
LINE
5
D8
100
AcDbEntity
8
SK2
62
256
6
ByLayer
370
13
48
1
60
0
100
AcDbLine
10
0
20
-12.513398
30
0
11
29.22
21
-12.513398
31
0
39
0
210
0
220
0
230
1
0
SOLID
5
D9
100
AcDbEntity
8
SK2
62
256
6
ByLayer
370
13
48
1
60
0
100
AcDbTrace
10
0
20
-12.513398
30
0
11
3.499998
21
-12.052615
31
0
12
3.500002
22
-12.974182
32
0
13
0
23
-12.513398
33
0
39
0
210
0
220
0
230
1
0
SOLID
5
DA
100
AcDbEntity
8
SK2
62
256
6
ByLayer
370
13
48
1
60
0
100
AcDbTrace
10
29.22
20
-12.513398
30
0
11
25.720002
21
-12.974182
31
0
12
25.719998
22
-12.052615
32
0
13
29.22
23
-12.513398
33
0
39
0
210
0
220
0
230
1
0
ENDBLK
5
DC
100
AcDbEntity
8
0
100
AcDbBlockEnd
0
BLOCK
5
E5
100
AcDbEntity
8
0
100
AcDbBlockBegin
2
DimnDraft3D2
70
0
10
0
20
0
30
0
3
DimnDraft3D2
0
MTEXT
5
DF
100
AcDbEntity
8
SK2
62
256
6
ByLayer
370
13
48
1
60
0
100
AcDbMText
10
-6.887384
20
-30.817985
30
0
210
0
220
0
230
1
1
\W0.7317;66,00
40
3.5
41
0
44
1.084337
50
0
71
7
72
5
7
iso_b_vert
0
LINE
5
E0
100
AcDbEntity
8
SK2
62
256
6
ByLayer
370
13
48
1
60
0
100
AcDbLine
10
-36
20
-4.5875
30
0
11
-36
21
-33.692985
31
0
39
0
210
0
220
0
230
1
0
LINE
5
E1
100
AcDbEntity
8
SK2
62
256
6
ByLayer
370
13
48
1
60
0
100
AcDbLine
10
30
20
-1.5875
30
0
11
30
21
-33.692985
31
0
39
0
210
0
220
0
230
1
0
LINE
5
E2
100
AcDbEntity
8
SK2
62
256
6
ByLayer
370
13
48
1
60
0
100
AcDbLine
10
-36
20
-31.692985
30
0
11
30
21
-31.692985
31
0
39
0
210
0
220
0
230
1
0
SOLID
5
E3
100
AcDbEntity
8
SK2
62
256
6
ByLayer
370
13
48
1
60
0
100
AcDbTrace
10
-36
20
-31.692985
30
0
11
-32.500002
21
-31.232202
31
0
12
-32.499998
22
-32.153769
32
0
13
-36
23
-31.692985
33
0
39
0
210
0
220
0
230
1
0
SOLID
5
E4
100
AcDbEntity
8
SK2
62
256
6
ByLayer
370
13
48
1
60
0
100
AcDbTrace
10
30
20
-31.692985
30
0
11
26.500002
21
-32.153769
31
0
12
26.499998
22
-31.232202
32
0
13
30
23
-31.692985
33
0
39
0
210
0
220
0
230
1
0
ENDBLK
5
E6
100
AcDbEntity
8
0
100
AcDbBlockEnd
0
BLOCK
5
EF
100
AcDbEntity
8
0
100
AcDbBlockBegin
2
DimnDraft3D3
70
0
10
0
20
0
30
0
3
DimnDraft3D3
0
MTEXT
5
E9
100
AcDbEntity
8
SK2
62
256
6
ByLayer
370
13
48
1
60
0
100
AcDbMText
10
18.514605
20
14.784119
30
0
210
0
220
0
230
1
1
\W0.6977;14,58
40
3.5
41
0
44
1.084337
50
0
71
7
72
5
7
iso_b_vert
0
LINE
5
EA
100
AcDbEntity
8
SK2
62
256
6
ByLayer
370
13
48
1
60
0
100
AcDbLine
10
15.42
20
3.8875
30
0
11
15.42
21
15.909119
31
0
39
0
210
0
220
0
230
1
0
LINE
5
EB
100
AcDbEntity
8
SK2
62
256
6
ByLayer
370
13
48
1
60
0
100
AcDbLine
10
30
20
1.5875
30
0
11
30
21
15.909119
31
0
39
0
210
0
220
0
230
1
0
LINE
5
EC
100
AcDbEntity
8
SK2
62
256
6
ByLayer
370
13
48
1
60
0
100
AcDbLine
10
15.42
20
13.909119
30
0
11
30
21
13.909119
31
0
39
0
210
0
220
0
230
1
0
SOLID
5
ED
100
AcDbEntity
8
SK2
62
256
6
ByLayer
370
13
48
1
60
0
100
AcDbTrace
10
15.42
20
13.909119
30
0
11
18.919998
21
14.369903
31
0
12
18.920002
22
13.448335
32
0
13
15.42
23
13.909119
33
0
39
0
210
0
220
0
230
1
0
SOLID
5
EE
100
AcDbEntity
8
SK2
62
256
6
ByLayer
370
13
48
1
60
0
100
AcDbTrace
10
30
20
13.909119
30
0
11
26.500002
21
13.448335
31
0
12
26.499998
22
14.369903
32
0
13
30
23
13.909119
33
0
39
0
210
0
220
0
230
1
0
ENDBLK
5
F0
100
AcDbEntity
8
0
100
AcDbBlockEnd
0
BLOCK
5
F9
100
AcDbEntity
8
0
100
AcDbBlockBegin
2
DimnDraft3D4
70
0
10
0
20
0
30
0
3
DimnDraft3D4
0
MTEXT
5
F3
100
AcDbEntity
8
SK2
62
256
6
ByLayer
370
13
48
1
60
0
100
AcDbMText
10
36.840636
20
-14.227503
30
0
210
0
220
0
230
1
1
\W0.7150;0,78
40
3.5
41
0
44
1.084337
50
0
71
7
72
5
7
iso_b_vert
0
LINE
5
F4
100
AcDbEntity
8
SK2
62
256
6
ByLayer
370
13
48
1
60
0
100
AcDbLine
10
30
20
-1.5875
30
0
11
30
21
-17.102503
31
0
39
0
210
0
220
0
230
1
0
LINE
5
F5
100
AcDbEntity
8
SK2
62
256
6
ByLayer
370
13
48
1
60
0
100
AcDbLine
10
29.22
20
-3.8875
30
0
11
29.22
21
-17.102503
31
0
39
0
210
0
220
0
230
1
0
LINE
5
F6
100
AcDbEntity
8
SK2
62
256
6
ByLayer
370
13
48
1
60
0
100
AcDbLine
10
20.47
20
-15.102503
30
0
11
43.997215
21
-15.102503
31
0
39
0
210
0
220
0
230
1
0
SOLID
5
F7
100
AcDbEntity
8
SK2
62
256
6
ByLayer
370
13
48
1
60
0
100
AcDbTrace
10
30
20
-15.102503
30
0
11
33.499998
21
-14.641719
31
0
12
33.500002
22
-15.563287
32
0
13
30
23
-15.102503
33
0
39
0
210
0
220
0
230
1
0
SOLID
5
F8
100
AcDbEntity
8
SK2
62
256
6
ByLayer
370
13
48
1
60
0
100
AcDbTrace
10
29.22
20
-15.102503
30
0
11
25.720002
21
-15.563287
31
0
12
25.719998
22
-14.641719
32
0
13
29.22
23
-15.102503
33
0
39
0
210
0
220
0
230
1
0
ENDBLK
5
FA
100
AcDbEntity
8
0
100
AcDbBlockEnd
0
BLOCK
5
103
100
AcDbEntity
8
0
100
AcDbBlockBegin
2
DimnDraft3D5
70
0
10
0
20
0
30
0
3
DimnDraft3D5
0
MTEXT
5
FD
100
AcDbEntity
8
SK2
62
256
6
ByLayer
370
13
48
1
60
0
100
AcDbMText
10
-9.968008
20
-20.468428
30
0
210
0
220
0
230
1
1
\W0.7317;65,22
40
3.5
41
0
44
1.084337
50
0
71
7
72
5
7
iso_b_vert
0
LINE
5
FE
100
AcDbEntity
8
SK2
62
256
6
ByLayer
370
13
48
1
60
0
100
AcDbLine
10
-36
20
-4.5875
30
0
11
-36
21
-23.343428
31
0
39
0
210
0
220
0
230
1
0
LINE
5
FF
100
AcDbEntity
8
SK2
62
256
6
ByLayer
370
13
48
1
60
0
100
AcDbLine
10
29.22
20
-3.8875
30
0
11
29.22
21
-23.343428
31
0
39
0
210
0
220
0
230
1
0
LINE
5
100
100
AcDbEntity
8
SK2
62
256
6
ByLayer
370
13
48
1
60
0
100
AcDbLine
10
-36
20
-21.343428
30
0
11
29.22
21
-21.343428
31
0
39
0
210
0
220
0
230
1
0
SOLID
5
101
100
AcDbEntity
8
SK2
62
256
6
ByLayer
370
13
48
1
60
0
100
AcDbTrace
10
-36
20
-21.343428
30
0
11
-32.500002
21
-20.882645
31
0
12
-32.499998
22
-21.804212
32
0
13
-36
23
-21.343428
33
0
39
0
210
0
220
0
230
1
0
SOLID
5
102
100
AcDbEntity
8
SK2
62
256
6
ByLayer
370
13
48
1
60
0
100
AcDbTrace
10
29.22
20
-21.343428
30
0
11
25.720002
21
-21.804212
31
0
12
25.719998
22
-20.882645
32
0
13
29.22
23
-21.343428
33
0
39
0
210
0
220
0
230
1
0
ENDBLK
5
104
100
AcDbEntity
8
0
100
AcDbBlockEnd
0
BLOCK
5
10E
100
AcDbEntity
8
0
100
AcDbBlockBegin
2
DimnDraft3D6
70
0
10
0
20
0
30
0
3
DimnDraft3D6
0
MTEXT
5
107
100
AcDbEntity
8
SK2
62
256
6
ByLayer
370
13
48
1
60
0
100
AcDbMText
10
-46.375163
20
22.34918
30
0
210
0
220
0
230
1
1
\W0.7317;6,000
40
3.5
41
0
44
1.084337
50
90
71
7
72
5
7
iso_b_vert
0
MTEXT
5
108
100
AcDbEntity
8
SK2
62
256
6
ByLayer
370
13
48
1
60
0
100
AcDbMText
10
-46.375163
20
17.126524
30
0
210
0
220
0
230
1
1
%%c
40
3.5
41
0
44
1.084337
50
90
71
7
72
5
7
iso_b_vert
0
LINE
5
109
100
AcDbEntity
8
SK2
62
256
6
ByLayer
370
13
48
1
60
0
100
AcDbLine
10
-37.5875
20
-3
30
0
11
-46.625163
21
-3
31
0
39
0
210
0
220
0
230
1
0
LINE
5
10A
100
AcDbEntity
8
SK2
62
256
6
ByLayer
370
13
48
1
60
0
100
AcDbLine
10
-37.5875
20
3
30
0
11
-46.625163
21
3
31
0
39
0
210
0
220
0
230
1
0
LINE
5
10B
100
AcDbEntity
8
SK2
62
256
6
ByLayer
370
13
48
1
60
0
100
AcDbLine
10
-44.625163
20
32.121549
30
0
11
-44.625163
21
-11.75
31
0
39
0
210
0
220
0
230
1
0
SOLID
5
10C
100
AcDbEntity
8
SK2
62
256
6
ByLayer
370
13
48
1
60
0
100
AcDbTrace
10
-44.625163
20
-3
30
0
11
-44.164379
21
-6.499998
31
0
12
-45.085946
22
-6.500002
32
0
13
-44.625163
23
-3
33
0
39
0
210
0
220
0
230
1
0
SOLID
5
10D
100
AcDbEntity
8
SK2
62
256
6
ByLayer
370
13
48
1
60
0
100
AcDbTrace
10
-44.625163
20
3
30
0
11
-45.085946
21
6.499998
31
0
12
-44.164379
22
6.500002
32
0
13
-44.625163
23
3
33
0
39
0
210
0
220
0
230
1
0
ENDBLK
5
10F
100
AcDbEntity
8
0
100
AcDbBlockEnd
0
BLOCK
5
119
100
AcDbEntity
8
0
100
AcDbBlockBegin
2
DimnDraft3D7
70
0
10
0
20
0
30
0
3
DimnDraft3D7
0
MTEXT
5
112
100
AcDbEntity
8
2
62
256
6
ByLayer
370
13
48
1
60
0
100
AcDbMText
10
40.333343
20
20.242266
30
0
210
0
220
0
230
1
1
\W0.7581;4,600
40
3.5
41
0
44
1.084337
50
90
71
7
72
5
7
iso_b_vert
0
MTEXT
5
113
100
AcDbEntity
8
2
62
256
6
ByLayer
370
13
48
1
60
0
100
AcDbMText
10
40.333343
20
15.01961
30
0
210
0
220
0
230
1
1
%%c
40
3.5
41
0
44
1.084337
50
90
71
7
72
5
7
iso_b_vert
0
LINE
5
114
100
AcDbEntity
8
2
62
256
6
ByLayer
370
13
48
1
60
0
100
AcDbLine
10
30.8075
20
-2.3
30
0
11
44.083343
21
-2.3
31
0
39
0
210
0
220
0
230
1
0
LINE
5
115
100
AcDbEntity
8
2
62
256
6
ByLayer
370
13
48
1
60
0
100
AcDbLine
10
30.8075
20
2.3
30
0
11
44.083343
21
2.3
31
0
39
0
210
0
220
0
230
1
0
LINE
5
116
100
AcDbEntity
8
2
62
256
6
ByLayer
370
13
48
1
60
0
100
AcDbLine
10
42.083343
20
30.383056
30
0
11
42.083343
21
-11.05
31
0
39
0
210
0
220
0
230
1
0
SOLID
5
117
100
AcDbEntity
8
2
62
256
6
ByLayer
370
13
48
1
60
0
100
AcDbTrace
10
42.083343
20
-2.3
30
0
11
42.544126
21
-5.799998
31
0
12
41.622559
22
-5.800002
32
0
13
42.083343
23
-2.3
33
0
39
0
210
0
220
0
230
1
0
SOLID
5
118
100
AcDbEntity
8
2
62
256
6
ByLayer
370
13
48
1
60
0
100
AcDbTrace
10
42.083343
20
2.3
30
0
11
41.622559
21
5.799998
31
0
12
42.544126
22
5.800002
32
0
13
42.083343
23
2.3
33
0
39
0
210
0
220
0
230
1
0
ENDBLK
5
11A
100
AcDbEntity
8
0
100
AcDbBlockEnd
0
ENDSEC
0
SECTION
2
ENTITIES
0
ARC
5
97
100
AcDbEntity
8
1
62
256
6
ByLayer
370
18
48
1
60
0
100
AcDbCircle
39
0
10
0
20
2.2
30
0
40
0.799999999999998
210
0
220
0
230
1
100
AcDbArc
50
33.505879
51
90
0
ARC
5
98
100
AcDbEntity
8
1
62
256
6
ByLayer
370
18
48
1
60
0
100
AcDbCircle
39
0
10
-1.334127
20
-3.083236
30
0
40
0.799999999999998
210
0
220
0
230
-1
100
AcDbArc
50
33.505879
51
90.034377
0
ARC
5
99
100
AcDbEntity
8
1
62
256
6
ByLayer
370
18
48
1
60
0
100
AcDbCircle
39
0
10
0
20
-2.2
30
0
40
0.799999999999998
210
0
220
0
230
1
100
AcDbArc
50
270
51
326.494121
0
ARC
5
9A
100
AcDbEntity
8
1
62
256
6
ByLayer
370
18
48
1
60
0
100
AcDbCircle
39
0
10
-1.334127
20
3.083236
30
0
40
0.799999999999998
210
0
220
0
230
-1
100
AcDbArc
50
269.965623
51
326.494121
0
ELLIPSE
5
9B
100
AcDbEntity
8
1
62
256
6
ByLayer
370
18
48
1
60
0
100
AcDbEllipse
10
8.25
20
2.42069
30
0
11
0.25
21
0
31
0
210
0
220
0
230
1
40
1
41
-2.49146924192169
42
-1.55985007652916
0
ELLIPSE
5
9C
100
AcDbEntity
8
1
62
256
6
ByLayer
370
18
48
1
60
0
100
AcDbEllipse
10
8.25
20
-2.42069
30
0
11
0.25
21
0
31
0
210
0
220
0
230
1
40
1
41
1.57880927304277
42
2.4873536663695
0
ELLIPSE
5
9D
100
AcDbEntity
8
1
62
256
6
ByLayer
370
18
48
1
60
0
100
AcDbEllipse
10
29.860911
20
0.091938
30
0
11
0.0727819104929979
21
0.301917195714603
31
0
210
0
220
0
230
-1
40
0.478434
41
1.6836874179172
42
2.45976119972779
0
ELLIPSE
5
9E
100
AcDbEntity
8
1
62
256
6
ByLayer
370
18
48
1
60
0
100
AcDbEllipse
10
30.058273
20
-0.025164
30
0
11
0.135544944334501
21
-0.427068209825287
31
0
210
0
220
0
230
-1
40
0.100282
41
1.71634324885508
42
2.3365328688678
0
ELLIPSE
5
9F
100
AcDbEntity
8
1
62
256
6
ByLayer
370
18
48
1
60
0
100
AcDbEllipse
10
30.058273
20
0.025164
30
0
11
0.135544944371299
21
0.427068209918264
31
0
210
0
220
0
230
-1
40
0.100282
41
-2.33653286889094
42
-1.71634324899605
0
ELLIPSE
5
A0
100
AcDbEntity
8
1
62
256
6
ByLayer
370
18
48
1
60
0
100
AcDbEllipse
10
29.539429
20
-1.145826
30
0
11
0.358234453836592
21
0.964846218200608
31
0
210
0
220
0
230
-1
40
0.131755
41
0.736518128023457
42
1.50500809296093
0
ELLIPSE
5
A1
100
AcDbEntity
8
1
62
256
6
ByLayer
370
13
48
1
60
0
100
AcDbEllipse
10
29.593454
20
0.250629
30
0
11
0.153082081612423
21
0.258003636193771
31
0
210
0
220
0
230
1
40
0.454519
41
0.917105603404823
42
2.3133690050003
0
ELLIPSE
5
A2
100
AcDbEntity
8
1
62
256
6
ByLayer
370
18
48
1
60
0
100
AcDbEllipse
10
29.539429
20
1.145826
30
0
11
0.358234453823714
21
-0.964846218174567
31
0
210
0
220
0
230
-1
40
0.131755
41
-1.50500809298309
42
-0.736518128028012
0
ELLIPSE
5
A3
100
AcDbEntity
8
1
62
256
6
ByLayer
370
13
48
1
60
0
100
AcDbEllipse
10
29.940738
20
1.145826
30
0
11
1.51746203502446
21
-0.664658277041626
31
0
210
0
220
0
230
-1
40
0.461948
41
1.59739324918045
42
1.91055724884753
0
ELLIPSE
5
A4
100
AcDbEntity
8
1
62
256
6
ByLayer
370
18
48
1
60
0
100
AcDbEllipse
10
30.000214
20
0.000502
30
0
11
0.85310070536389
21
2.29768793681224
31
0
210
0
220
0
230
-1
40
0.131755
41
2.84244072594327
42
2.96974541256805
0
ELLIPSE
5
A5
100
AcDbEntity
8
1
62
256
6
ByLayer
370
18
48
1
60
0
100
AcDbEllipse
10
30.000214
20
-0.000502
30
0
11
0.853100698099141
21
-2.29768791526017
31
0
210
0
220
0
230
-1
40
0.131755
41
-2.96974541174896
42
-2.8424407245182
0
ELLIPSE
5
A6
100
AcDbEntity
8
1
62
256
6
ByLayer
370
13
48
1
60
0
100
AcDbEllipse
10
29.750831
20
1.022629
30
0
11
1.45318388568111
21
-1.00055842858218
31
0
210
0
220
0
230
-1
40
0.533762
41
1.44484622737952
42
1.7502030214609
0
POINT
5
6C
100
AcDbEntity
8
81
62
256
6
ByLayer
370
18
48
1
60
0
100
AcDbPoint
10
30
20
0
30
0
39
0
210
0
220
0
230
1
50
360
0
POINT
5
6E
100
AcDbEntity
8
80
62
256
6
ByLayer
370
18
48
1
60
0
100
AcDbPoint
10
0
20
0
30
0
39
0
210
0
220
0
230
1
50
360
0
POINT
5
70
100
AcDbEntity
8
SK2
62
256
6
ByLayer
370
18
48
1
60
1
100
AcDbPoint
10
-36
20
-3
30
0
39
0
210
0
220
0
230
1
50
360
0
POINT
5
72
100
AcDbEntity
8
SK2
62
256
6
ByLayer
370
18
48
1
60
1
100
AcDbPoint
10
-36
20
3
30
0
39
0
210
0
220
0
230
1
50
360
0
POINT
5
73
100
AcDbEntity
8
2
62
256
6
ByLayer
370
18
48
1
60
1
100
AcDbPoint
10
29.22
20
-2.3
30
0
39
0
210
0
220
0
230
1
50
360
0
POINT
5
75
100
AcDbEntity
8
2
62
256
6
ByLayer
370
18
48
1
60
1
100
AcDbPoint
10
29.22
20
2.3
30
0
39
0
210
0
220
0
230
1
50
360
0
SPLINE
5
A7
100
AcDbEntity
8
1
62
256
6
ByLayer
370
18
48
1
60
0
100
AcDbSpline
70
4
71
3
72
20
73
16
40
0
40
0
40
0
40
0
40
0.116101195851178
40
0.199379988220127
40
0.252882286736445
40
0.29983632210731
40
0.3453631969151
40
0.44960930967603
40
0.542792328876773
40
0.608737526630926
40
0.679958568919515
40
0.756692167469537
40
0.82945070142199
40
0.911835043240278
40
1
40
1
40
1
40
1
41
1
10
18.0528480337685
20
-2.17642136884132
30
0
41
1
10
18.2651217838943
20
-2.17625998140343
30
0
41
1
10
18.6296974983684
20
-2.17617612881131
30
0
41
1
10
19.0922332305895
20
-2.17741672431345
30
0
41
1
10
19.4282856275804
20
-2.17742300783905
30
0
41
1
10
19.6952947550025
20
-2.17677894462466
30
0
41
1
10
20.0551164381634
20
-2.17626432288011
30
0
41
1
10
20.4994894197613
20
-2.17732010708053
30
0
41
1
10
20.9812066083422
20
-2.17969759912327
30
0
41
1
10
21.4025228354444
20
-2.17767126955829
30
0
41
1
10
21.7937519378691
20
-2.1761397362682
30
0
41
1
10
22.1974427165761
20
-2.17919857382793
30
0
41
1
10
22.6215526805964
20
-2.17974167202902
30
0
41
1
10
23.0665659448721
20
-2.17699394586273
30
0
41
1
10
23.3785065268269
20
-2.17840853669571
30
0
41
1
10
23.5397636089152
20
-2.17951924330066
30
0
0
SPLINE
5
A8
100
AcDbEntity
8
1
62
256
6
ByLayer
370
18
48
1
60
0
100
AcDbSpline
70
4
71
3
72
18
73
14
40
0
40
0
40
0
40
0
40
0.120244064663963
40
0.231874720241143
40
0.306452923611685
40
0.370735576535977
40
0.438857108112317
40
0.509041927958082
40
0.593274775468623
40
0.674652706367595
40
0.752194261777815
40
0.86564928971913
40
1
40
1
40
1
40
1
41
1
10
8.25035304182384
20
-2.17057708833431
30
0
41
1
10
8.42654500176792
20
-2.17079420447732
30
0
41
1
10
8.76631344144724
20
-2.17109010989492
30
0
41
1
10
9.21539062025494
20
-2.17110349958386
30
0
41
1
10
9.58245183851199
20
-2.17099738723618
30
0
41
1
10
9.88579489505014
20
-2.17125331082576
30
0
41
1
10
10.1826897116039
20
-2.17191153679349
30
0
41
1
10
10.5088262204447
20
-2.17138499297241
30
0
41
1
10
10.8543759184504
20
-2.17092117510322
30
0
41
1
10
11.2107542841034
20
-2.17266754783623
30
0
41
1
10
11.6095821940876
20
-2.17392186734699
30
0
41
1
10
12.0865187261625
20
-2.17228873644572
30
0
41
1
10
12.449499226086
20
-2.1727188126309
30
0
41
1
10
12.646285177492
20
-2.17300384206661
30
0
0
SPLINE
5
A9
100
AcDbEntity
8
1
62
256
6
ByLayer
370
18
48
1
60
0
100
AcDbSpline
70
4
71
2
72
6
73
3
40
0
40
0
40
0
40
1
40
1
40
1
41
1
10
28.8196447560931
20
-2.18164801305014
30
0
41
1
10
29.0034163432325
20
-2.18168286114982
30
0
41
1
10
29.1874957014649
20
-2.18263264930144
30
0
0
SPLINE
5
AA
100
AcDbEntity
8
1
62
256
6
ByLayer
370
18
48
1
60
0
100
AcDbSpline
70
4
71
3
72
18
73
14
40
0
40
0
40
0
40
0
40
0.109943511118097
40
0.215621146926727
40
0.286428485021863
40
0.351620793567537
40
0.420549658627692
40
0.49077123428441
40
0.574923615689025
40
0.655306874671574
40
0.73398722544054
40
0.854289399192851
40
1
40
1
40
1
40
1
41
1
10
12.6446626041279
20
2.17294100896271
30
0
41
1
10
12.4837117063474
20
2.17258015672135
30
0
41
1
10
12.1680197063158
20
2.17216724762957
30
0
41
1
10
11.7482543989635
20
2.17346248322716
30
0
41
1
10
11.3944493008655
20
2.1735699284333
30
0
41
1
10
11.0943255588128
20
2.17184537330994
30
0
41
1
10
10.7949581892302
20
2.17103986216534
30
0
41
1
10
10.4678295567486
20
2.17144112949052
30
0
41
1
10
10.1239133408676
20
2.17197222578761
30
0
41
1
10
9.76760925381635
20
2.17091604651114
30
0
41
1
10
9.35833533724266
20
2.17119238579272
30
0
41
1
10
8.85346423439935
20
2.1710197010072
30
0
41
1
10
8.4637843302296
20
2.17076896103518
30
0
41
1
10
8.25033381829905
20
2.17055783188178
30
0
0
SPLINE
5
AB
100
AcDbEntity
8
1
62
256
6
ByLayer
370
18
48
1
60
0
100
AcDbSpline
70
4
71
3
72
19
73
15
40
0
40
0
40
0
40
0
40
0.104054519780337
40
0.201424296701789
40
0.287417363633477
40
0.378108546063476
40
0.462284456761042
40
0.540224864521429
40
0.650357561976376
40
0.773565692556368
40
0.827373752997649
40
0.882868569715548
40
0.946102756653863
40
1
40
1
40
1
40
1
41
1
10
23.5390795350256
20
2.179516866977
30
0
41
1
10
23.3780504786926
20
2.17840810675807
30
0
41
1
10
23.066337921839
20
2.17699464165963
30
0
41
1
10
22.6215526807676
20
2.17974183317159
30
0
41
1
10
22.1974427165298
20
2.17919853032257
30
0
41
1
10
21.7937519378809
20
2.17613974725907
30
0
41
1
10
21.4025228354415
20
2.17767126697316
30
0
41
1
10
20.9812066083425
20
2.17969760010698
30
0
41
1
10
20.4994894197594
20
2.17732010673197
30
0
41
1
10
20.0551164381614
20
2.1762643229192
30
0
41
1
10
19.6952947550006
20
2.17677894461772
30
0
41
1
10
19.4282856275789
20
2.17742300784127
30
0
41
1
10
19.1611436506534
20
2.17741801280386
30
0
41
1
10
18.9798771707529
20
2.17706481087916
30
0
41
1
10
18.8964711671613
20
2.17689920001075
30
0
0
SPLINE
5
AC
100
AcDbEntity
8
1
62
256
6
ByLayer
370
18
48
1
60
0
100
AcDbSpline
70
4
71
3
72
10
73
6
40
0
40
0
40
0
40
0
40
0.5
40
0.5
40
1
40
1
40
1
40
1
41
1
10
8.10934289681569
20
2.17423453664739
30
0
41
1
10
8.08917461228492
20
2.17869111190311
30
0
41
1
10
8.07192035539771
20
2.18411300306889
30
0
41
1
10
8.04652764811556
20
2.19625619997103
30
0
41
1
10
8.03856638471814
20
2.20290008680806
30
0
41
1
10
8.03856903423261
20
2.20934265572365
30
0
0
SPLINE
5
AD
100
AcDbEntity
8
1
62
256
6
ByLayer
370
18
48
1
60
0
100
AcDbSpline
70
4
71
3
72
18
73
14
40
0
40
0
40
0
40
0
40
0.250000000000024
40
0.250000000000024
40
0.500000000000048
40
0.500000000000048
40
0.625000000000036
40
0.625000000000036
40
0.750000000000024
40
0.750000000000024
40
0.875000000000012
40
0.875000000000012
40
1
40
1
40
1
40
1
41
1
10
29.1455401721751
20
0.706414990995626
30
0
41
1
10
29.2064439700227
20
0.721039379418073
30
0
41
1
10
29.2670116608004
20
0.737764616826212
30
0
41
1
10
29.3856428690421
20
0.778396210057906
30
0
41
1
10
29.4440550446805
20
0.802307911602185
30
0
41
1
10
29.5251933991473
20
0.847889364542425
30
0
41
1
10
29.5511033652019
20
0.864687648631531
30
0
41
1
10
29.5994441526155
20
0.903287146527475
30
0
41
1
10
29.6222499045919
20
0.925525641698471
30
0
41
1
10
29.65968126263
20
0.975887186197696
30
0
41
1
10
29.6744639825408
20
1.00463759693949
30
0
41
1
10
29.6911557421118
20
1.06526758011662
30
0
41
1
10
29.6931921530896
20
1.09783162358315
30
0
41
1
10
29.6898283513884
20
1.1294936923461
30
0
0
SPLINE
5
AE
100
AcDbEntity
8
1
62
256
6
ByLayer
370
18
48
1
60
0
100
AcDbSpline
70
4
71
3
72
23
73
19
40
0
40
0
40
0
40
0
40
0.109004758617824
40
0.109004758617824
40
0.257503965514853
40
0.257503965514853
40
0.406003172411883
40
0.406003172411883
40
0.480252775860397
40
0.480252775860397
40
0.554502379308912
40
0.628751982757427
40
0.628751982757427
40
0.703001586205941
40
0.703001586205941
40
0.851500793102971
40
0.851500793102971
40
1
40
1
40
1
40
1
41
1
10
8.03858573797106
20
-2.28725691702786
30
0
41
1
10
8.03858188809789
20
-2.28775211887282
30
0
41
1
10
8.0385750587181
20
-2.27982978767207
30
0
41
1
10
8.03855641388481
20
-2.24149194894665
30
0
41
1
10
8.03854359564494
20
-2.20326583150779
30
0
41
1
10
8.03852353186775
20
-2.09848072772854
30
0
41
1
10
8.03851615128127
20
-2.0319367609815
30
0
41
1
10
8.0385137707097
20
-1.91039426281509
30
0
41
1
10
8.03851443838641
20
-1.86625103309885
30
0
41
1
10
8.03851907799128
20
-1.77266263363529
30
0
41
1
10
8.03852700264096
20
-1.67332539017039
30
0
41
1
10
8.03854184438529
20
-1.56264935885079
30
0
41
1
10
8.03856018555251
20
-1.4462081912333
30
0
41
1
10
8.03857118569067
20
-1.38473099845285
30
0
41
1
10
8.03860852863957
20
-1.1949254231422
30
0
41
1
10
8.03863924658515
20
-1.06103777513093
30
0
41
1
10
8.03870740004061
20
-0.77881677466479
30
0
41
1
10
8.03874515763437
20
-0.629186010621339
30
0
41
1
10
8.03878087833704
20
-0.478574682887881
30
0
0
SPLINE
5
AF
100
AcDbEntity
8
1
62
256
6
ByLayer
370
18
48
1
60
0
100
AcDbSpline
70
4
71
3
72
30
73
26
40
0
40
0
40
0
40
0
40
0.0921614454129458
40
0.0921614454129458
40
0.184322890825892
40
0.184322890825892
40
0.276484336238837
40
0.276484336238837
40
0.368645781651783
40
0.368645781651783
40
0.460807227064729
40
0.460807227064729
40
0.552968672477675
40
0.552968672477675
40
0.645130117890621
40
0.645130117890621
40
0.737291563303566
40
0.737291563303566
40
0.829453008716512
40
0.829453008716512
40
0.875533731422986
40
0.875533731422986
40
0.92161445412946
40
0.92161445412946
40
1
40
1
40
1
40
1
41
1
10
11.4859474447026
20
0.388242736867682
30
0
41
1
10
11.6713830809171
20
0.26664887797449
30
0
41
1
10
11.8569946350267
20
0.145118311713617
30
0
41
1
10
12.2275322292406
20
-0.0993778091104218
30
0
41
1
10
12.4125821918939
20
-0.222736486689712
30
0
41
1
10
12.7843116723902
20
-0.464815391391937
30
0
41
1
10
12.9692590513404
20
-0.584487586605917
30
0
41
1
10
13.3394052299559
20
-0.817981578903272
30
0
41
1
10
13.5256554425077
20
-0.931168544336117
30
0
41
1
10
13.8964311543449
20
-1.15015256236788
30
0
41
1
10
14.0813494242342
20
-1.25479682603674
30
0
41
1
10
14.4521466052074
20
-1.45210851849274
30
0
41
1
10
14.6375825047463
20
-1.54603033595498
30
0
41
1
10
15.0085263762811
20
-1.71812119419724
30
0
41
1
10
15.1938240595285
20
-1.79677596117688
30
0
41
1
10
15.5638105191537
20
-1.93938424269376
30
0
41
1
10
15.7501471801503
20
-2.00230676079207
30
0
41
1
10
16.1207921970657
20
-2.11068794863291
30
0
41
1
10
16.3053387071914
20
-2.15619388512755
30
0
41
1
10
16.5836335940624
20
-2.21001788343577
30
0
41
1
10
16.6766103639771
20
-2.22564815933649
30
0
41
1
10
16.8622164126658
20
-2.2521665449577
30
0
41
1
10
16.9546503334786
20
-2.26304772771786
30
0
41
1
10
17.2046431757246
20
-2.28569251340392
30
0
41
1
10
17.3623222871062
20
-2.29286975309711
30
0
41
1
10
17.5199345370328
20
-2.29295243305913
30
0
0
SPLINE
5
B0
100
AcDbEntity
8
1
62
256
6
ByLayer
370
18
48
1
60
0
100
AcDbSpline
70
4
71
3
72
20
73
16
40
0
40
0
40
0
40
0
40
0.0233605677231262
40
0.0233605677231262
40
0.186133806435942
40
0.186133806435942
40
0.348907045148754
40
0.348907045148754
40
0.511680283861565
40
0.511680283861565
40
0.674453522574377
40
0.674453522574377
40
0.837226761287189
40
0.837226761287189
40
1
40
1
40
1
40
1
41
1
10
25.8600744139441
20
1.70508707700847
30
0
41
1
10
25.8866653014887
20
1.71689577059152
30
0
41
1
10
25.9132671824873
20
1.72855406315
30
0
41
1
10
26.1253331846183
20
1.82022909768566
30
0
41
1
10
26.3104934326836
20
1.89367809254418
30
0
41
1
10
26.6807735539896
20
2.02221814648411
30
0
41
1
10
26.8658038382096
20
2.07806682165017
30
0
41
1
10
27.236176937074
20
2.17224663885111
30
0
41
1
10
27.4219379456754
20
2.2099018550289
30
0
41
1
10
27.7919824350202
20
2.26622231522543
30
0
41
1
10
27.9764463073633
20
2.28489748692442
30
0
41
1
10
28.3478702822263
20
2.30238772634757
30
0
41
1
10
28.5328677212871
20
2.30129764597342
30
0
41
1
10
28.9029819365921
20
2.27937601861484
30
0
41
1
10
29.0891522190413
20
2.25869025048905
30
0
41
1
10
29.2742203072019
20
2.2282633926643
30
0
0
SPLINE
5
B1
100
AcDbEntity
8
1
62
256
6
ByLayer
370
18
48
1
60
0
100
AcDbSpline
70
4
71
3
72
38
73
34
40
0
40
0
40
0
40
0
40
0.054874101068899
40
0.054874101068899
40
0.120987098161708
40
0.120987098161708
40
0.154043596708113
40
0.154043596708113
40
0.187100095254517
40
0.187100095254517
40
0.319326089440135
40
0.319326089440135
40
0.385439086532945
40
0.385439086532945
40
0.451552083625754
40
0.451552083625754
40
0.58377807781137
40
0.58377807781137
40
0.616834576357775
40
0.616834576357775
40
0.64989107490418
40
0.64989107490418
40
0.71600407199699
40
0.71600407199699
40
0.782117069089801
40
0.782117069089801
40
0.815173567636206
40
0.815173567636206
40
0.848230066182611
40
0.848230066182611
40
0.980456060368234
40
0.980456060368234
40
1
40
1
40
1
40
1
41
1
10
8.96864591201418
20
1.91825976599375
30
0
41
1
10
9.15023613006343
20
1.85470832311995
30
0
41
1
10
9.33112709447613
20
1.78351376878365
30
0
41
1
10
9.729847330974
20
1.61120210089155
30
0
41
1
10
9.94782803195426
20
1.50723141690384
30
0
41
1
10
10.2763547456534
20
1.33762823281944
30
0
41
1
10
10.386113842922
20
1.27882283074607
30
0
41
1
10
10.6064321979824
20
1.15698435816179
30
0
41
1
10
10.7170800419474
20
1.0938845463358
30
0
41
1
10
11.2667256474244
20
0.772495664546142
30
0
41
1
10
11.7006130952892
20
0.494672106011706
30
0
41
1
10
12.3558905258639
20
0.0669956645233185
30
0
41
1
10
12.5753866363793
20
-0.0775635027865746
30
0
41
1
10
13.0170559444866
20
-0.365809826658847
30
0
41
1
10
13.2359668051617
20
-0.507383499478181
30
0
41
1
10
13.8907820212836
20
-0.919141634601829
30
0
41
1
10
14.3244848785075
20
-1.17699769823116
30
0
41
1
10
14.8749192229986
20
-1.46105982779696
30
0
41
1
10
14.9855986842551
20
-1.51602175023569
30
0
41
1
10
15.2057018194285
20
-1.62057433442752
30
0
41
1
10
15.3154011702768
20
-1.67031399581509
30
0
41
1
10
15.6438726417074
20
-1.81158956524604
30
0
41
1
10
15.8620252997981
20
-1.89520732865907
30
0
41
1
10
16.2987758851978
20
-2.03924907917073
30
0
41
1
10
16.517555376171
20
-2.09971704090089
30
0
41
1
10
16.8482115252652
20
-2.17120729910263
30
0
41
1
10
16.9588538951892
20
-2.19185715162899
30
0
41
1
10
17.1787960369956
20
-2.22625658070797
30
0
41
1
10
17.2883810292648
20
-2.24006543233199
30
0
41
1
10
17.8352160819368
20
-2.29227412776737
30
0
41
1
10
18.2700851790049
20
-2.28010724235509
30
0
41
1
10
18.7759437499177
20
-2.20331555194969
30
0
41
1
10
18.8411836993172
20
-2.19223570695252
30
0
41
1
10
18.9064676283137
20
-2.17999537614935
30
0
0
SPLINE
5
B2
100
AcDbEntity
8
1
62
256
6
ByLayer
370
18
48
1
60
0
100
AcDbSpline
70
4
71
3
72
40
73
36
40
0
40
0
40
0
40
0
40
0.116478731539764
40
0.116478731539764
40
0.174718097309645
40
0.174718097309645
40
0.232957463079526
40
0.232957463079526
40
0.291196828849407
40
0.291196828849407
40
0.349436194619288
40
0.349436194619288
40
0.465914926159052
40
0.465914926159052
40
0.495034609043992
40
0.495034609043992
40
0.524154291928932
40
0.524154291928932
40
0.582393657698812
40
0.582393657698812
40
0.640633023468693
40
0.640633023468693
40
0.669752706353632
40
0.669752706353632
40
0.698872389238572
40
0.698872389238572
40
0.815351120778328
40
0.815351120778328
40
0.873590486548206
40
0.873590486548206
40
0.902710169433144
40
0.902710169433144
40
0.931829852318083
40
0.931829852318083
40
1
40
1
40
1
40
1
41
1
10
29.2114468113864
20
-2.28256272757076
30
0
41
1
10
28.7712304881841
20
-2.31833879343551
30
0
41
1
10
28.335292078873
20
-2.29811515977556
30
0
41
1
10
27.675259804363
20
-2.18649452634566
30
0
41
1
10
27.4532284367882
20
-2.13526127267011
30
0
41
1
10
27.012820126404
20
-2.00854519727258
30
0
41
1
10
26.7937812468411
20
-1.93302243816373
30
0
41
1
10
26.3557995893331
20
-1.75972062022473
30
0
41
1
10
26.1368484514718
20
-1.66193186842079
30
0
41
1
10
25.6963365500255
20
-1.44646285336717
30
0
41
1
10
25.4742342895011
20
-1.3283519107419
30
0
41
1
10
24.8150716291561
20
-0.95600538669089
30
0
41
1
10
24.3805592004562
20
-0.681641529318625
30
0
41
1
10
23.8315817661856
20
-0.323302161356906
30
0
41
1
10
23.7215010511649
20
-0.250852485384257
30
0
41
1
10
23.5004536957644
20
-0.104832750541647
30
0
41
1
10
23.3895692905572
20
-0.0312729845983597
30
0
41
1
10
23.0592157505887
20
0.188079963123243
30
0
41
1
10
22.8403776696517
20
0.332825361930304
30
0
41
1
10
22.4031542074143
20
0.615957711720057
30
0
41
1
10
22.1847813688391
20
0.75437098352549
30
0
41
1
10
21.8563279526762
20
0.95535576661382
30
0
41
1
10
21.7465926293978
20
1.02109684359846
30
0
41
1
10
21.5263116999455
20
1.14961602533029
30
0
41
1
10
21.4154789460564
20
1.21255867767133
30
0
41
1
10
20.8622120967108
20
1.51680022606624
30
0
41
1
10
20.4272881521723
20
1.72561128745389
30
0
41
1
10
19.7710120039565
20
1.97187518542074
30
0
41
1
10
19.5515669679976
20
2.04278469357161
30
0
41
1
10
19.2196466780487
20
2.13062470074112
30
0
41
1
10
19.1087415695837
20
2.15676025928667
30
0
41
1
10
18.8883847769495
20
2.20213656675921
30
0
41
1
10
18.7785886755203
20
2.22144383595938
30
0
41
1
10
18.4125159999305
20
2.2746191316337
30
0
41
1
10
18.1570958620347
20
2.29333860647048
30
0
41
1
10
17.9010281625216
20
2.29323105874909
30
0
0
SPLINE
5
B3
100
AcDbEntity
8
1
62
256
6
ByLayer
370
18
48
1
60
0
100
AcDbSpline
70
4
71
3
72
16
73
12
40
0
40
0
40
0
40
0
40
0.285120241589407
40
0.285120241589407
40
0.429686537784244
40
0.429686537784244
40
0.57425283397908
40
0.57425283397908
40
0.863385426368759
40
0.863385426368759
40
1
40
1
40
1
40
1
41
1
10
18.0797420603631
20
-2.17631364025925
30
0
41
1
10
17.8647003632723
20
-2.17606818255831
30
0
41
1
10
17.6499814820581
20
-2.1632449418293
30
0
41
1
10
17.3254242593779
20
-2.12520667072621
30
0
41
1
10
17.2160342656845
20
-2.10922016864683
30
0
41
1
10
16.9965198855608
20
-2.07083312766631
30
0
41
1
10
16.8861461110255
20
-2.04837288073821
30
0
41
1
10
16.5564106697975
20
-1.97204727952322
30
0
41
1
10
16.3380359031425
20
-1.90919011099606
30
0
41
1
10
16.0170550090582
20
-1.80081995643619
30
0
41
1
10
15.9140995487549
20
-1.76363903624835
30
0
41
1
10
15.81108326503
20
-1.72416199197349
30
0
0
SPLINE
5
B4
100
AcDbEntity
8
1
62
256
6
ByLayer
370
13
48
1
60
0
100
AcDbSpline
70
4
71
3
72
26
73
22
40
0
40
0
40
0
40
0
40
0.0586830028720909
40
0.0586830028720909
40
0.114306492131385
40
0.114306492131385
40
0.169929981390679
40
0.169929981390679
40
0.392423938427855
40
0.392423938427855
40
0.503670916946443
40
0.503670916946443
40
0.614917895465032
40
0.614917895465032
40
0.837411852502212
40
0.837411852502212
40
0.893035341761507
40
0.893035341761507
40
0.948658831020802
40
0.948658831020802
40
1
40
1
40
1
40
1
41
1
10
15.8110832648897
20
-1.72416199191972
30
0
41
1
10
15.6960747480853
20
-1.68008938372665
30
0
41
1
10
15.5809904225728
20
-1.63315494704807
30
0
41
1
10
15.3563968139154
20
-1.53645884202552
30
0
41
1
10
15.2469048344039
20
-1.48696850009497
30
0
41
1
10
15.0272456749549
20
-1.38335166974332
30
0
41
1
10
14.9168500574183
20
-1.32909581592281
30
0
41
1
10
14.3678325672382
20
-1.0495553682868
30
0
41
1
10
13.9346613389986
20
-0.798466610028413
30
0
41
1
10
13.2809601303536
20
-0.400782136572019
30
0
41
1
10
13.0623927642857
20
-0.264659339877284
30
0
41
1
10
12.6216792202262
20
0.0113176996021309
30
0
41
1
10
12.4027379486893
20
0.149134348269996
30
0
41
1
10
11.7486779212948
20
0.55580848438106
30
0
41
1
10
11.3153169145304
20
0.818013373268229
30
0
41
1
10
10.7667724432328
20
1.11864118653324
30
0
41
1
10
10.656402032202
20
1.17751316464242
30
0
41
1
10
10.4366209157746
20
1.29091803439792
30
0
41
1
10
10.3271059334951
20
1.345523240007
30
0
41
1
10
10.1169544224913
20
1.44618768678202
30
0
41
1
10
10.0162835529137
20
1.49256887132637
30
0
41
1
10
9.915729599765
20
1.53696388749273
30
0
0
SPLINE
5
B5
100
AcDbEntity
8
1
62
256
6
ByLayer
370
13
48
1
60
0
100
AcDbSpline
70
4
71
3
72
24
73
20
40
0
40
0
40
0
40
0
40
0.076685590278008
40
0.076685590278008
40
0.230571325231673
40
0.230571325231673
40
0.307514192708506
40
0.307514192708506
40
0.384457060185339
40
0.384457060185339
40
0.538342795139004
40
0.538342795139004
40
0.69222853009267
40
0.69222853009267
40
0.769171397569502
40
0.769171397569502
40
0.846114265046335
40
0.846114265046335
40
1
40
1
40
1
40
1
41
1
10
8.25037099882209
20
-2.17068660654107
30
0
41
1
10
8.2503674180841
20
-2.17082675081596
30
0
41
1
10
8.25036276894943
20
-2.16734999803509
30
0
41
1
10
8.25034752607081
20
-2.14627297154092
30
0
41
1
10
8.25033567772923
20
-2.11804301892678
30
0
41
1
10
8.25032230603884
20
-2.05371438337801
30
0
41
1
10
8.25031862994126
20
-2.02883830099716
30
0
41
1
10
8.25031374010709
20
-1.9722802719933
30
0
41
1
10
8.25031253291067
20
-1.94044141249086
30
0
41
1
10
8.25031370444555
20
-1.83605036260232
30
0
41
1
10
8.25032088427946
20
-1.75467345996824
30
0
41
1
10
8.25035042232963
20
-1.56877330094628
30
0
41
1
10
8.25037311071054
20
-1.4632398011984
30
0
41
1
10
8.25041652964828
20
-1.29287683935618
30
0
41
1
10
8.25043255234442
20
-1.2339127545093
30
0
41
1
10
8.2504671526938
20
-1.11160107933051
30
0
41
1
10
8.25048582370795
20
-1.04794924368451
30
0
41
1
10
8.25054352114532
20
-0.853732782922918
30
0
41
1
10
8.2505844496057
20
-0.719320932855481
30
0
41
1
10
8.2506236538247
20
-0.580044840626869
30
0
0
SPLINE
5
B6
100
AcDbEntity
8
1
62
256
6
ByLayer
370
18
48
1
60
0
100
AcDbSpline
70
4
71
3
72
62
73
58
40
0
40
0
40
0
40
0
40
0.0298659428647905
40
0.0298659428647905
40
0.0712613932005643
40
0.0712613932005643
40
0.112656843536338
40
0.112656843536338
40
0.133354568704224
40
0.133354568704224
40
0.154052293872111
40
0.154052293872111
40
0.195447744207882
40
0.195447744207882
40
0.236843194543654
40
0.236843194543654
40
0.278238644879426
40
0.278238644879426
40
0.319634095215197
40
0.319634095215197
40
0.361029545550969
40
0.361029545550969
40
0.402424995886741
40
0.402424995886741
40
0.443820446222512
40
0.443820446222512
40
0.485215896558284
40
0.485215896558284
40
0.50591362172617
40
0.50591362172617
40
0.526611346894056
40
0.526611346894056
40
0.568006797229828
40
0.568006797229828
40
0.6094022475656
40
0.6094022475656
40
0.650797697901371
40
0.650797697901371
40
0.692193148237143
40
0.692193148237143
40
0.712890873405028
40
0.712890873405028
40
0.733588598572913
40
0.733588598572913
40
0.774984048908683
40
0.774984048908683
40
0.816379499244452
40
0.816379499244452
40
0.857774949580222
40
0.857774949580222
40
0.899170399915991
40
0.899170399915991
40
0.940565850251759
40
0.940565850251759
40
0.981961300587526
40
0.981961300587526
40
1
40
1
40
1
40
1
41
1
10
14.9779846325976
20
1.70225306963692
30
0
41
1
10
15.1117213976624
20
1.76136500523839
30
0
41
1
10
15.245348582345
20
1.81663567080594
30
0
41
1
10
15.5638105191564
20
1.93938424269476
30
0
41
1
10
15.750147180153
20
2.00230676079295
30
0
41
1
10
16.1207921970683
20
2.1106879486336
30
0
41
1
10
16.3053387071939
20
2.15619388512812
30
0
41
1
10
16.5836335940648
20
2.21001788343619
30
0
41
1
10
16.6766103639795
20
2.22564815933686
30
0
41
1
10
16.8622164126682
20
2.25216654495802
30
0
41
1
10
16.954650333481
20
2.26304772771812
30
0
41
1
10
17.2323123291486
20
2.2881988333599
30
0
41
1
10
17.4177524668532
20
2.29517369211774
30
0
41
1
10
17.7882986548799
20
2.28950348692726
30
0
41
1
10
17.9739981254135
20
2.2767212501046
30
0
41
1
10
18.3446294069063
20
2.23207574703562
30
0
41
1
10
18.5291153254911
20
2.19987747305211
30
0
41
1
10
18.9003989858312
20
2.11712944508176
30
0
41
1
10
19.0861122934114
20
2.06655883225213
30
0
41
1
10
19.4558999820687
20
1.94780089562309
30
0
41
1
10
19.6412322127633
20
1.88024152966568
30
0
41
1
10
20.0126761108199
20
1.72867843768697
30
0
41
1
10
20.1974025512354
20
1.64480255222267
30
0
41
1
10
20.5679311667726
20
1.46513657997917
30
0
41
1
10
20.7530435955952
20
1.3681317537293
30
0
41
1
10
21.1240097166306
20
1.16288637310822
30
0
41
1
10
21.3094974267508
20
1.055991960049
30
0
41
1
10
21.5868591010114
20
0.888116734241862
30
0
41
1
10
21.6792117135552
20
0.830945160688998
30
0
41
1
10
21.8645908328896
20
0.715415165256616
30
0
41
1
10
21.9576241747074
20
0.656851414210877
30
0
41
1
10
22.2360310791684
20
0.479342476997914
30
0
41
1
10
22.4204676682288
20
0.357825237699785
30
0
41
1
10
22.7908278317344
20
0.114144268294524
30
0
41
1
10
22.9768473970187
20
-0.0088478237067875
30
0
41
1
10
23.3469013901767
20
-0.254876739482398
30
0
41
1
10
23.5321844159555
20
-0.375982089076501
30
0
41
1
10
23.9024721924148
20
-0.61559898503387
30
0
41
1
10
24.0878935790823
20
-0.734295505400496
30
0
41
1
10
24.3659695042812
20
-0.905063717285572
30
0
41
1
10
24.4585877640302
20
-0.961012437085657
30
0
41
1
10
24.6435501770677
20
-1.07112346547569
30
0
41
1
10
24.7358217306573
20
-1.12537441136664
30
0
41
1
10
25.0134974495477
20
-1.2837157651278
30
0
41
1
10
25.1997534518126
20
-1.38386601773451
30
0
41
1
10
25.5696256911863
20
-1.57230732492374
30
0
41
1
10
25.7544315128721
20
-1.65989022570724
30
0
41
1
10
26.1253331846178
20
-1.82022909768543
30
0
41
1
10
26.310493432683
20
-1.89367809254395
30
0
41
1
10
26.6807735539889
20
-2.02221814648388
30
0
41
1
10
26.8658038382089
20
-2.07806682164994
30
0
41
1
10
27.2361769370731
20
-2.17224663885091
30
0
41
1
10
27.4219379456745
20
-2.20990185502873
30
0
41
1
10
27.7919824350192
20
-2.26622231522529
30
0
41
1
10
27.9764463073622
20
-2.28489748692434
30
0
41
1
10
28.2430851283321
20
-2.29745342605028
30
0
41
1
10
28.3238762753038
20
-2.29939662587805
30
0
41
1
10
28.4045958006618
20
-2.2994692658142
30
0
0
SPLINE
5
B7
100
AcDbEntity
8
1
62
256
6
ByLayer
370
18
48
1
60
0
100
AcDbSpline
70
4
71
3
72
19
73
15
40
0
40
0
40
0
40
0
40
0.125
40
0.125
40
0.25
40
0.25
40
0.5
40
0.5
40
0.625
40
0.625
40
0.75
40
0.875
40
0.875
40
1
40
1
40
1
40
1
41
1
10
29.205457491507
20
-2.18298760088234
30
0
41
1
10
29.1731158009633
20
-2.18297471487992
30
0
41
1
10
29.1423924640565
20
-2.17817497942104
30
0
41
1
10
29.0843297726725
20
-2.1585661915733
30
0
41
1
10
29.0568892001859
20
-2.14367947776279
30
0
41
1
10
28.9807581804756
20
-2.08318556586781
30
0
41
1
10
28.9394546143672
20
-2.02320104065859
30
0
41
1
10
28.8922886403916
20
-1.90246498032326
30
0
41
1
10
28.8789801297395
20
-1.8566153400979
30
0
41
1
10
28.85821511541
20
-1.75581211345883
30
0
41
1
10
28.843290814156
20
-1.64654195238697
30
0
41
1
10
28.8398543588177
20
-1.52061854420515
30
0
41
1
10
28.8423283811729
20
-1.38612706797224
30
0
41
1
10
28.8465776905769
20
-1.31450272330255
30
0
41
1
10
28.8536938871762
20
-1.24055435493878
30
0
0
SPLINE
5
B8
100
AcDbEntity
8
1
62
256
6
ByLayer
370
18
48
1
60
0
100
AcDbSpline
70
4
71
3
72
14
73
10
40
0
40
0
40
0
40
0
40
0.25
40
0.25
40
0.5
40
0.5
40
0.75
40
0.75
40
1
40
1
40
1
40
1
41
1
10
29.6898283513882
20
-1.12949369234627
30
0
41
1
10
29.6554078371075
20
-1.22131450150198
30
0
41
1
10
29.6208820159954
20
-1.3130287754592
30
0
41
1
10
29.5516966211228
20
-1.49632184202287
30
0
41
1
10
29.5171454184274
20
-1.58801955398019
30
0
41
1
10
29.4480045344627
20
-1.77136751929169
30
0
41
1
10
29.413346203114
20
-1.86292922169488
30
0
41
1
10
29.3439534574704
20
-2.0459428950351
30
0
41
1
10
29.309358476369
20
-2.13764827276907
30
0
41
1
10
29.2742203072132
20
-2.22826339266172
30
0
0
SPLINE
5
B9
100
AcDbEntity
8
1
62
256
6
ByLayer
370
18
48
1
60
0
100
AcDbSpline
70
4
71
3
72
66
73
62
40
0
40
0
40
0
40
0
40
0.018942450839781
40
0.018942450839781
40
0.0601218542123123
40
0.0601218542123123
40
0.101301257584844
40
0.101301257584844
40
0.142480660957375
40
0.142480660957375
40
0.163070362643641
40
0.163070362643641
40
0.183660064329906
40
0.183660064329906
40
0.224839467702439
40
0.224839467702439
40
0.266018871074971
40
0.266018871074971
40
0.286608572761238
40
0.286608572761238
40
0.307198274447504
40
0.307198274447504
40
0.348377677820036
40
0.348377677820036
40
0.389557081192568
40
0.389557081192568
40
0.430736484565101
40
0.430736484565101
40
0.471915887937633
40
0.471915887937633
40
0.513095291310166
40
0.513095291310166
40
0.533684992996432
40
0.533684992996432
40
0.554274694682698
40
0.554274694682698
40
0.595454098055232
40
0.595454098055232
40
0.636633501427765
40
0.636633501427765
40
0.677812904800299
40
0.677812904800299
40
0.698402606486566
40
0.698402606486566
40
0.718992308172833
40
0.718992308172833
40
0.760171711545366
40
0.760171711545366
40
0.8013511149179
40
0.8013511149179
40
0.842530518290433
40
0.842530518290433
40
0.863120219976701
40
0.863120219976701
40
0.883709921662968
40
0.883709921662968
40
0.924889325035503
40
0.924889325035503
40
0.966068728408037
40
0.966068728408037
40
1
40
1
40
1
40
1
41
1
10
25.86369557785
20
-1.70785479380851
30
0
41
1
10
25.780244477555
20
-1.74030329467544
30
0
41
1
10
25.6968252429571
20
-1.77128229145868
30
0
41
1
10
25.4320942343837
20
-1.86491137113526
30
0
41
1
10
25.2511399393667
20
-1.92223572862875
30
0
41
1
10
24.887718846603
20
-2.0201437717333
30
0
41
1
10
24.7060157518519
20
-2.05965377996662
30
0
41
1
10
24.3439102327484
20
-2.12381128267546
30
0
41
1
10
24.1626816069016
20
-2.14774022992646
30
0
41
1
10
23.8900026910697
20
-2.1696418578311
30
0
41
1
10
23.7992455645343
20
-2.17480883004066
30
0
41
1
10
23.6179734013225
20
-2.180109467558
30
0
41
1
10
23.5273890151723
20
-2.17994912920761
30
0
41
1
10
23.2554293016414
20
-2.17288035887032
30
0
41
1
10
23.0741109203335
20
-2.16118528817972
30
0
41
1
10
22.7109995844961
20
-2.11994035773128
30
0
41
1
10
22.5297177848697
20
-2.09107418744208
30
0
41
1
10
22.2581447686016
20
-2.0327825251295
30
0
41
1
10
22.1675952829275
20
-2.01043845827752
30
0
41
1
10
21.9862908733302
20
-1.96254436660848
30
0
41
1
10
21.8955253604186
20
-1.93704649168453
30
0
41
1
10
21.6228978634414
20
-1.85498174727744
30
0
41
1
10
21.441893467441
20
-1.7930677696402
30
0
41
1
10
21.0799481528999
20
-1.65496163943655
30
0
41
1
10
20.8984517708863
20
-1.57797146129286
30
0
41
1
10
20.5351678277631
20
-1.41082892542806
30
0
41
1
10
20.3540577246571
20
-1.32158018191936
30
0
41
1
10
19.9913429558029
20
-1.13315556176909
30
0
41
1
10
19.8100188237835
20
-1.03380343552394
30
0
41
1
10
19.4468359193745
20
-0.828062437283705
30
0
41
1
10
19.2657776834176
20
-0.721860040043168
30
0
41
1
10
18.9942023289756
20
-0.557586359267731
30
0
41
1
10
18.9035992607168
20
-0.502141105728242
30
0
41
1
10
18.722129860329
20
-0.390569235144511
30
0
41
1
10
18.6311830816368
20
-0.334360330391945
30
0
41
1
10
18.3587509323714
20
-0.16496726507458
30
0
41
1
10
18.1780403813886
20
-0.0505803278449548
30
0
41
1
10
17.8157181169647
20
0.176757297484102
30
0
41
1
10
17.6339808274414
20
0.290183935448425
30
0
41
1
10
17.2708459325436
20
0.514207188384404
30
0
41
1
10
17.0895241915334
20
0.624268572407914
30
0
41
1
10
16.8175491022423
20
0.785362856341806
30
0
41
1
10
16.7270075965049
20
0.838574286153914
30
0
41
1
10
16.5455148515412
20
0.94296806659915
30
0
41
1
10
16.4544642559404
20
0.993898243503537
30
0
41
1
10
16.1818222716285
20
1.14273909494099
30
0
41
1
10
16.0006867715031
20
1.23852816037302
30
0
41
1
10
15.6378718228606
20
1.41860056470998
30
0
41
1
10
15.455659161822
20
1.50364691401694
30
0
41
1
10
15.0927107884917
20
1.66048071534706
30
0
41
1
10
14.9116537232158
20
1.73219918469155
30
0
41
1
10
14.6394333681636
20
1.82839007856526
30
0
41
1
10
14.5486938286288
20
1.85858637670398
30
0
41
1
10
14.3667886181039
20
1.91414031980841
30
0
41
1
10
14.275843206287
20
1.94006180521609
30
0
41
1
10
14.0032669827672
20
2.01289607769789
30
0
41
1
10
13.8216634699507
20
2.05422277245509
30
0
41
1
10
13.4587836746789
20
2.11970615364601
30
0
41
1
10
13.2763792527299
20
2.14267368304229
30
0
41
1
10
12.9450348305104
20
2.16768675154918
30
0
41
1
10
12.7956322944935
20
2.17317961682051
30
0
41
1
10
12.6459386964108
20
2.17268211080457
30
0
0
SPLINE
5
BA
100
AcDbEntity
8
1
62
256
6
ByLayer
370
18
48
1
60
0
100
AcDbSpline
70
4
71
3
72
8
73
4
40
0
40
0
40
0
40
0
40
1
40
1
40
1
40
1
41
1
10
29.2114468113888
20
-2.28256272754419
30
0
41
1
10
29.2138721265326
20
-2.27624740414191
30
0
41
1
10
29.2162962039917
20
-2.26992970229733
30
0
41
1
10
29.2187190119213
20
-2.26360970597611
30
0
0
SPLINE
5
BB
100
AcDbEntity
8
1
62
256
6
ByLayer
370
18
48
1
60
0
100
AcDbSpline
70
4
71
3
72
28
73
24
40
0
40
0
40
0
40
0
40
0.132352936511807
40
0.132352936511807
40
0.193796674882521
40
0.193796674882521
40
0.255240413253234
40
0.255240413253234
40
0.37812788999466
40
0.37812788999466
40
0.501015366736087
40
0.501015366736087
40
0.5624591051068
40
0.5624591051068
40
0.623902843477513
40
0.623902843477513
40
0.869677796960366
40
0.869677796960366
40
0.931121535331077
40
0.931121535331077
40
0.992565273701788
40
0.992565273701788
40
1
40
1
40
1
40
1
41
1
10
20.6333488470919
20
1.60403595706657
30
0
41
1
10
20.8680446175562
20
1.49464398393781
30
0
41
1
10
21.1033427061759
20
1.37396025620623
30
0
41
1
10
21.4510148041434
20
1.18298075919642
30
0
41
1
10
21.5615250735707
20
1.1203352312611
30
0
41
1
10
21.7811165958062
20
0.992541960567621
30
0
41
1
10
21.8904962225312
20
0.927205315158687
30
0
41
1
10
22.2179233327692
20
0.727684004929159
30
0
41
1
10
22.4356137259151
20
0.590479666230721
30
0
41
1
10
22.8712927599317
20
0.310006267407744
30
0
41
1
10
23.0892951478958
20
0.166769673425364
30
0
41
1
10
23.4183183843988
20
-0.0499691513662412
30
0
41
1
10
23.5287110795115
20
-0.122552417433553
30
0
41
1
10
23.7491717867473
20
-0.266922910253243
30
0
41
1
10
23.8589401462437
20
-0.338512303186775
30
0
41
1
10
24.4062561608558
20
-0.692419712223142
30
0
41
1
10
24.8391339332408
20
-0.962792876414795
30
0
41
1
10
25.3857101053639
20
-1.26790463879888
30
0
41
1
10
25.495296624565
20
-1.32728534623718
30
0
41
1
10
25.715310066911
20
-1.44232358158601
30
0
41
1
10
25.8258932845541
20
-1.49804182205071
30
0
41
1
10
25.949049404515
20
-1.55748118057212
30
0
41
1
10
25.9623367196938
20
-1.56386019815614
30
0
41
1
10
25.97561819784
20
-1.57020214135611
30
0
0
SPLINE
5
BC
100
AcDbEntity
8
1
62
256
6
ByLayer
370
13
48
1
60
0
100
AcDbSpline
70
4
71
3
72
12
73
8
40
0
40
0
40
0
40
0
40
0.190201392101719
40
0.190201392101719
40
0.59510069605086
40
0.59510069605086
40
1
40
1
40
1
40
1
41
1
10
25.9756181978042
20
-1.57020214133902
30
0
41
1
10
26.1818642814546
20
-1.66868522683157
30
0
41
1
10
26.3867027927911
20
-1.75822800307094
30
0
41
1
10
27.0266199815745
20
-2.00783050110476
30
0
41
1
10
27.460392356519
20
-2.13346128071564
30
0
41
1
10
28.3431201212629
20
-2.28065115719542
30
0
41
1
10
28.7796758662598
20
-2.29978807980419
30
0
41
1
10
29.2187190119215
20
-2.26360970597642
30
0
0
SPLINE
5
BD
100
AcDbEntity
8
1
62
256
6
ByLayer
370
18
48
1
60
0
100
AcDbSpline
70
4
71
3
72
28
73
24
40
0
40
0
40
0
40
0
40
0.105763135994124
40
0.105763135994124
40
0.211526271988248
40
0.211526271988248
40
0.317289407982372
40
0.317289407982372
40
0.423052543976497
40
0.423052543976497
40
0.528815679970621
40
0.528815679970621
40
0.634578815964745
40
0.634578815964745
40
0.740341951958869
40
0.740341951958869
40
0.846105087952993
40
0.846105087952993
40
0.898986655950054
40
0.898986655950054
40
0.951868223947114
40
0.951868223947114
40
1
40
1
40
1
40
1
41
1
10
9.82651805579184
20
-1.48815926892607
30
0
41
1
10
10.0088547457032
20
-1.57157458347379
30
0
41
1
10
10.1908399789936
20
-1.64839280038001
30
0
41
1
10
10.5542128245428
20
-1.7876468386043
30
0
41
1
10
10.7363452208382
20
-1.85004622957072
30
0
41
1
10
11.1005573818714
20
-1.95984277482984
30
0
41
1
10
11.2821728764688
20
-2.00796341598249
30
0
41
1
10
11.6459603855745
20
-2.08543089624033
30
0
41
1
10
11.8285191484956
20
-2.11495437920442
30
0
41
1
10
12.1919562504644
20
-2.1563755085765
30
0
41
1
10
12.3737449105629
20
-2.16812344022887
30
0
41
1
10
12.7382795825388
20
-2.17520065147363
30
0
41
1
10
12.9195818585057
20
-2.16978356875066
30
0
41
1
10
13.2812489880879
20
-2.14212507691457
30
0
41
1
10
13.4616647276171
20
-2.11923930672964
30
0
41
1
10
13.8220526899188
20
-2.05409899932911
30
0
41
1
10
14.0028807655678
20
-2.01297939217315
30
0
41
1
10
14.2748888871745
20
-1.94032668590864
30
0
41
1
10
14.3656899855196
20
-1.91445950381305
30
0
41
1
10
14.5477185306564
20
-1.85890038694703
30
0
41
1
10
14.6384954069441
20
-1.82870875729685
30
0
41
1
10
14.8118575936609
20
-1.76747430586485
30
0
41
1
10
14.8943598878785
20
-1.73672984171063
30
0
41
1
10
14.9768376094928
20
-1.70450369119609
30
0
0
SPLINE
5
BE
100
AcDbEntity
8
1
62
256
6
ByLayer
370
18
48
1
60
0
100
AcDbSpline
70
4
71
3
72
22
73
18
40
0
40
0
40
0
40
0
40
0.045869853056005
40
0.045869853056005
40
0.119264479744003
40
0.119264479744003
40
0.266053733120002
40
0.266053733120002
40
0.412842986496002
40
0.412842986496002
40
0.559632239872002
40
0.559632239872002
40
0.706421493248001
40
0.706421493248001
40
0.853210746624001
40
0.853210746624001
40
1
40
1
40
1
40
1
41
1
10
23.5399103280415
20
2.17929350767093
30
0
41
1
10
23.5965187588696
20
2.17966849171836
30
0
41
1
10
23.653103345672
20
2.17909473332153
30
0
41
1
10
23.8002361915037
20
2.17475952916121
30
0
41
1
10
23.8908155245116
20
2.16958793494416
30
0
41
1
10
24.1631708188986
20
2.14767807530529
30
0
41
1
10
24.3447510932126
20
2.12368369298963
30
0
41
1
10
24.7067505175568
20
2.0595021084055
30
0
41
1
10
24.8881260632513
20
2.02004393713662
30
0
41
1
10
25.2513553392578
20
1.92216780927981
30
0
41
1
10
25.4325509647339
20
1.86476029271478
30
0
41
1
10
25.7951073146867
20
1.73651177336376
30
0
41
1
10
25.9761190153686
20
1.66553037705234
30
0
41
1
10
26.3395174289923
20
1.50945557876091
30
0
41
1
10
26.5207947642979
20
1.42448351701435
30
0
41
1
10
26.8828725582482
20
1.24351593305522
30
0
41
1
10
27.0640464920618
20
1.14791094781867
30
0
41
1
10
27.2457606397799
20
1.04824243479865
30
0
0
SPLINE
5
BF
100
AcDbEntity
8
1
62
256
6
ByLayer
370
18
48
1
60
0
100
AcDbSpline
70
4
71
3
72
12
73
8
40
0
40
0
40
0
40
0
40
0.25
40
0.25
40
0.5
40
0.5
40
1
40
1
40
1
40
1
41
1
10
29.2187190119213
20
-2.26360970597642
30
0
41
1
10
29.2238568041022
20
-2.25020755911811
30
0
41
1
10
29.228638162927
20
-2.23629706629009
30
0
41
1
10
29.2358260368056
20
-2.21150007757069
30
0
41
1
10
29.2381372418778
20
-2.20086756686857
30
0
41
1
10
29.2408828195056
20
-2.1783303779082
30
0
41
1
10
29.2378415691487
20
-2.17440202442239
30
0
41
1
10
29.23282443149
20
-2.17657418502205
30
0
0
SPLINE
5
C0
100
AcDbEntity
8
1
62
256
6
ByLayer
370
18
48
1
60
0
100
AcDbSpline
70
4
71
3
72
8
73
4
40
0
40
0
40
0
40
0
40
1
40
1
40
1
40
1
41
1
10
8.12331617437826
20
2.17125592922392
30
0
41
1
10
8.11860444756405
20
2.17222981155501
30
0
41
1
10
8.11393657543772
20
2.17321947389135
30
0
41
1
10
8.10934289681592
20
2.17423453664733
30
0
0
SPLINE
5
C1
100
AcDbEntity
8
1
62
256
6
ByLayer
370
18
48
1
60
0
100
AcDbSpline
70
4
71
3
72
12
73
8
40
0
40
0
40
0
40
0
40
0.264817753944101
40
0.264817753944101
40
0.545048049864596
40
0.545048049864596
40
1
40
1
40
1
40
1
41
1
10
29.1966752745998
20
-2.17820766371827
30
0
41
1
10
28.9896701588956
20
-2.18687547156489
30
0
41
1
10
28.7832106112972
20
-2.18373174052974
30
0
41
1
10
28.3576134445539
20
-2.15333684513655
30
0
41
1
10
28.1379958391393
20
-2.12459021836895
30
0
41
1
10
27.5610968542607
20
-2.01579428262645
30
0
41
1
10
27.2084979193978
20
-1.91640166942369
30
0
41
1
10
26.8558587665218
20
-1.78912005480382
30
0
0
SPLINE
5
C2
100
AcDbEntity
8
1
62
256
6
ByLayer
370
13
48
1
60
0
100
AcDbSpline
70
4
71
3
72
28
73
24
40
0
40
0
40
0
40
0
40
0.0395986689521969
40
0.0395986689521969
40
0.144772890537682
40
0.144772890537682
40
0.197360001330425
40
0.197360001330425
40
0.249947112123167
40
0.249947112123167
40
0.46029555529414
40
0.46029555529414
40
0.565469776879626
40
0.565469776879626
40
0.670643998465113
40
0.670643998465113
40
0.775818220050599
40
0.775818220050599
40
0.828405330843343
40
0.828405330843343
40
0.880992441636088
40
0.880992441636088
40
1
40
1
40
1
40
1
41
1
10
26.8558578259128
20
-1.78911971530022
30
0
41
1
10
26.77407702382
20
-1.75960173210402
30
0
41
1
10
26.6922940584861
20
-1.72858380651866
30
0
41
1
10
26.3930847020136
20
-1.6098888507141
30
0
41
1
10
26.1753000421419
20
-1.51345802226288
30
0
41
1
10
25.8461629193634
20
-1.35509970680894
30
0
41
1
10
25.7358512641006
20
-1.29989555501763
30
0
41
1
10
25.5165054907903
20
-1.18638100205706
30
0
41
1
10
25.4072149881347
20
-1.12795664067676
30
0
41
1
10
24.8619703793839
20
-0.828573966466735
30
0
41
1
10
24.4296096711749
20
-0.565945425273412
30
0
41
1
10
23.7738211274478
20
-0.157225448272555
30
0
41
1
10
23.5528714936948
20
-0.0179128335100245
30
0
41
1
10
23.1152549932741
20
0.25736733341904
30
0
41
1
10
22.8976881157695
20
0.393385230148681
30
0
41
1
10
22.4627988692987
20
0.658660322854587
30
0
41
1
10
22.2454411758304
20
0.787828735746757
30
0
41
1
10
21.9184285873652
20
0.974714237097231
30
0
41
1
10
21.8092018025678
20
1.03577780694781
30
0
41
1
10
21.589964850175
20
1.15490786468695
30
0
41
1
10
21.4796616940768
20
1.21314246536932
30
0
41
1
10
21.1210784351102
20
1.3960566074806
30
0
41
1
10
20.8745180145947
20
1.51213590033103
30
0
41
1
10
20.6284348296283
20
1.61580194714335
30
0
0
SPLINE
5
C3
100
AcDbEntity
8
1
62
256
6
ByLayer
370
18
48
1
60
0
100
AcDbSpline
70
4
71
3
72
8
73
4
40
0
40
0
40
0
40
0
40
1
40
1
40
1
40
1
41
1
10
29.2328244314883
20
-2.17657418502281
30
0
41
1
10
29.2229581659703
20
-2.18084576668727
30
0
41
1
10
29.213832114994
20
-2.18299429216188
30
0
41
1
10
29.2054574915068
20
-2.18298760088237
30
0
0
SPLINE
5
C4
100
AcDbEntity
8
1
62
256
6
ByLayer
370
18
48
1
60
0
100
AcDbSpline
70
4
71
3
72
68
73
64
40
0
40
0
40
0
40
0
40
0.0068256603814432
40
0.0068256603814432
40
0.0441518322402069
40
0.0441518322402069
40
0.118804175957734
40
0.118804175957734
40
0.156130347816498
40
0.156130347816498
40
0.193456519675262
40
0.193456519675262
40
0.268108863392789
40
0.268108863392789
40
0.342761207110316
40
0.342761207110316
40
0.417413550827844
40
0.417413550827844
40
0.454739722686607
40
0.454739722686607
40
0.464071265651298
40
0.468737037133644
40
0.471069922874816
40
0.471069922874816
40
0.47165314431011
40
0.47165314431011
40
0.472236365745403
40
0.472236365745403
40
0.473402808615989
40
0.473402808615989
40
0.482734351580681
40
0.482734351580681
40
0.492065894545372
40
0.492065894545372
40
0.566718238262905
40
0.566718238262905
40
0.641370581980438
40
0.641370581980438
40
0.716022925697971
40
0.716022925697971
40
0.753349097556737
40
0.753349097556737
40
0.762680640521429
40
0.762680640521429
40
0.767346412003774
40
0.767346412003774
40
0.768512854874361
40
0.768512854874361
40
0.769096076309654
40
0.769096076309654
40
0.769679297744947
40
0.77201218348612
40
0.790675269415504
40
0.790675269415504
40
0.86532761313304
40
0.86532761313304
40
0.902653784991807
40
0.902653784991807
40
0.939979956850575
40
0.939979956850575
40
0.977306128709343
40
0.977306128709343
40
1
40
1
40
1
40
1
41
1
10
11.4859367977518
20
0.388276220380845
30
0
41
1
10
11.4746172311462
20
0.394631166696627
30
0
41
1
10
11.4632919674701
20
0.400937387433515
30
0
41
1
10
11.3899927896238
20
0.441397447074479
30
0
41
1
10
11.327518828763
20
0.474221985293411
30
0
41
1
10
11.1413516458688
20
0.565189062575087
30
0
41
1
10
11.0199100953387
20
0.615441077362874
30
0
41
1
10
10.8392488862687
20
0.668997246499089
30
0
41
1
10
10.7790559467482
20
0.683244819458878
30
0
41
1
10
10.6591783027355
20
0.703411522135127
30
0
41
1
10
10.6003401190947
20
0.70921382406226
30
0
41
1
10
10.4255699281632
20
0.714236556315285
30
0
41
1
10
10.3113339740902
20
0.701097298105225
30
0
41
1
10
10.0798213325086
20
0.644838382471903
30
0
41
1
10
9.96553622960761
20
0.602525733284381
30
0
41
1
10
9.73518916254997
20
0.495854840969571
30
0
41
1
10
9.61817518871428
20
0.430865732384746
30
0
41
1
10
9.44184339980833
20
0.32174837328688
30
0
41
1
10
9.382841247388
20
0.283394646074527
30
0
41
1
10
9.3086280556976
20
0.233310829075066
30
0
41
1
10
9.28635074117773
20
0.21813896017008
30
0
41
1
10
9.2603291338547
20
0.200191167902631
30
0
41
1
10
9.24916944740474
20
0.19244723597609
30
0
41
1
10
9.24451886875787
20
0.189213717757383
30
0
41
1
10
9.24323693797106
20
0.188852200378108
30
0
41
1
10
9.24214754356899
20
0.186922580372055
30
0
41
1
10
9.24341791197537
20
0.185822147288093
30
0
41
1
10
9.24557264865564
20
0.18315046919767
30
0
41
1
10
9.24720543776817
20
0.181529357348666
30
0
41
1
10
9.2620389785227
20
0.167094484453855
30
0
41
1
10
9.2765975249622
20
0.155690723588947
30
0
41
1
10
9.30530973948117
20
0.132529088210049
30
0
41
1
10
9.31980386467387
20
0.121109237987099
30
0
41
1
10
9.45071974061307
20
0.0188713361639827
30
0
41
1
10
9.56944978563692
20
-0.069175571251975
30
0
41
1
10
9.80673517348939
20
-0.245554011797424
30
0
41
1
10
9.92546367126371
20
-0.333720163304946
30
0
41
1
10
10.1631030971551
20
-0.509974221508514
30
0
41
1
10
10.2819183825849
20
-0.598176587636601
30
0
41
1
10
10.4590753899169
20
-0.73207583864945
30
0
41
1
10
10.51807262293
20
-0.776797455968904
30
0
41
1
10
10.5907209458768
20
-0.834212439692351
30
0
41
1
10
10.6052044287551
20
-0.845759872625536
30
0
41
1
10
10.626531459529
20
-0.863583828299056
30
0
41
1
10
10.6336765753686
20
-0.869516361751579
30
0
41
1
10
10.6419302624432
20
-0.877649777961494
30
0
41
1
10
10.6437026440606
20
-0.879244194335371
30
0
41
1
10
10.645422032642
20
-0.882232455558153
30
0
41
1
10
10.6444758473426
20
-0.88309705438391
30
0
41
1
10
10.6430250806409
20
-0.884646244823045
30
0
41
1
10
10.6393989601172
20
-0.888517261608058
30
0
41
1
10
10.6125944327601
20
-0.917090683075969
30
0
41
1
10
10.5867273811754
20
-0.944367834793042
30
0
41
1
10
10.4726174858889
20
-1.06324871444218
30
0
41
1
10
10.3847730653171
20
-1.15034106276909
30
0
41
1
10
10.2559816349484
20
-1.26392285529991
30
0
41
1
10
10.2134284004325
20
-1.29901855306841
30
0
41
1
10
10.1278458744776
20
-1.36253846854916
30
0
41
1
10
10.0851684508676
20
-1.39067267373778
30
0
41
1
10
9.99931339721076
20
-1.43767635045509
30
0
41
1
10
9.95599286686999
20
-1.45667571690794
30
0
41
1
10
9.88354859096862
20
-1.47832683882274
30
0
41
1
10
9.85536697171031
20
-1.48442796664807
30
0
41
1
10
9.82650339540857
20
-1.48816116530298
30
0
0
SPLINE
5
C5
100
AcDbEntity
8
1
62
256
6
ByLayer
370
18
48
1
60
0
100
AcDbSpline
70
4
71
3
72
8
73
4
40
0
40
0
40
0
40
0
40
1
40
1
40
1
40
1
41
1
10
29.2114468113866
20
2.28256272757074
30
0
41
1
10
29.069141555597
20
2.2941277739711
30
0
41
1
10
28.9272209497691
20
2.29984581941122
30
0
41
1
10
28.7854015515133
20
2.29976285048036
30
0
0
SPLINE
5
C6
100
AcDbEntity
8
1
62
256
6
ByLayer
370
18
48
1
60
0
100
AcDbSpline
70
4
71
3
72
40
73
36
40
0
40
0
40
0
40
0
40
0.0290074633308298
40
0.0290074633308298
40
0.150381530414478
40
0.150381530414478
40
0.180725047185391
40
0.180725047185391
40
0.211068563956303
40
0.211068563956303
40
0.271755597498127
40
0.271755597498127
40
0.332442631039952
40
0.332442631039952
40
0.393129664581777
40
0.393129664581777
40
0.514503731665426
40
0.514503731665426
40
0.544847248436338
40
0.544847248436338
40
0.57519076520725
40
0.57519076520725
40
0.635877798749072
40
0.635877798749072
40
0.696564832290894
40
0.696564832290894
40
0.757251865832716
40
0.757251865832716
40
0.878625932916359
40
0.878625932916359
40
0.93931296645818
40
0.93931296645818
40
0.96965648322909
40
0.96965648322909
40
1
40
1
40
1
40
1
41
1
10
18.9842751060499
20
-2.18237608660584
30
0
41
1
10
18.8791383965459
20
-2.20374773471528
30
0
41
1
10
18.7743170144894
20
-2.22205155897069
30
0
41
1
10
18.2318071782188
20
-2.30092192939276
30
0
41
1
10
17.7965210160569
20
-2.31064373398155
30
0
41
1
10
17.2448046481423
20
-2.25302236667613
30
0
41
1
10
17.13377680273
20
-2.23795299696678
30
0
41
1
10
16.9129953250507
20
-2.20125205403264
30
0
41
1
10
16.8029803315586
20
-2.1796074758139
30
0
41
1
10
16.4736284845473
20
-2.10519529944293
30
0
41
1
10
16.2552874403213
20
-2.04277318169994
30
0
41
1
10
15.818251770174
20
-1.89428450965158
30
0
41
1
10
15.5994491206255
20
-1.8083324070563
30
0
41
1
10
15.1591364581678
20
-1.61456119235481
30
0
41
1
10
14.9367053942122
20
-1.50617913531207
30
0
41
1
10
14.2766179268682
20
-1.15897435587519
30
0
41
1
10
13.8417928767664
20
-0.8967641196069
30
0
41
1
10
13.2928620923437
20
-0.547214048572329
30
0
41
1
10
13.1828209186856
20
-0.476188777485135
30
0
41
1
10
12.9618827856032
20
-0.332379847779578
30
0
41
1
10
12.8508052738663
20
-0.25947796938064
30
0
41
1
10
12.5196571903334
20
-0.0413059034268315
30
0
41
1
10
12.3004984346452
20
0.104192704204905
30
0
41
1
10
11.8629415172665
20
0.391606478680018
30
0
41
1
10
11.6445153542071
20
0.533479853642206
30
0
41
1
10
11.2061146718702
20
0.810148415730225
30
0
41
1
10
10.9860051941339
20
0.945333018682021
30
0
41
1
10
10.321322749987
20
1.33338408919033
30
0
41
1
10
9.88519284850565
20
1.56039971918588
30
0
41
1
10
9.22866490886992
20
1.8403038244885
30
0
41
1
10
9.00933610915055
20
1.92335020005549
30
0
41
1
10
8.67775090686763
20
2.03043948285406
30
0
41
1
10
8.56667803716724
20
2.06320422655119
30
0
41
1
10
8.34500614632157
20
2.12211506387394
30
0
41
1
10
8.23420495792914
20
2.14833596139181
30
0
41
1
10
8.12331617438522
20
2.1712559292225
30
0
0
SPLINE
5
C7
100
AcDbEntity
8
1
62
256
6
ByLayer
370
18
48
1
60
0
100
AcDbSpline
70
4
71
3
72
12
73
8
40
0
40
0
40
0
40
0
40
0.250000000000014
40
0.250000000000014
40
0.500000000000028
40
0.500000000000028
40
1
40
1
40
1
40
1
41
1
10
8.25062365382473
20
-0.580044840471658
30
0
41
1
10
8.23094169342673
20
-0.566748328389991
30
0
41
1
10
8.21141333910037
20
-0.554442013704687
30
0
41
1
10
8.17271578760898
20
-0.531843559670506
30
0
41
1
10
8.15333353608386
20
-0.521448884892294
30
0
41
1
10
8.09755207159941
20
-0.494543350533917
30
0
41
1
10
8.06330040371591
20
-0.482342152525035
30
0
41
1
10
8.03878087833704
20
-0.478574682887881
30
0
0
SPLINE
5
C8
100
AcDbEntity
8
1
62
256
6
ByLayer
370
18
48
1
60
0
100
AcDbSpline
70
4
71
3
72
12
73
8
40
0
40
0
40
0
40
0
40
0.39484409950517
40
0.39484409950517
40
0.78968819901034
40
0.78968819901034
40
1
40
1
40
1
40
1
41
1
10
8.03856903423284
20
2.209342655727
30
0
41
1
10
8.03857729450397
20
2.22942835603143
30
0
41
1
10
8.0385826944559
20
2.24565122816273
30
0
41
1
10
8.03858887310929
20
2.27038217782931
30
0
41
1
10
8.03858963842549
20
2.27889627688657
30
0
41
1
10
8.03858813588192
20
2.28579635491568
30
0
41
1
10
8.03858713009345
20
2.28708102233915
30
0
41
1
10
8.03858573222138
20
2.28725765005694
30
0
0
SPLINE
5
C9
100
AcDbEntity
8
1
62
256
6
ByLayer
370
18
48
1
60
0
100
AcDbSpline
70
4
71
3
72
28
73
24
40
0
40
0
40
0
40
0
40
0.249999999999992
40
0.249999999999992
40
0.499999999999985
40
0.499999999999985
40
0.624999999999987
40
0.624999999999987
40
0.687499999999989
40
0.687499999999989
40
0.74999999999999
40
0.74999999999999
40
0.812499999999992
40
0.812499999999992
40
0.843749999999992
40
0.843749999999992
40
0.874999999999993
40
0.874999999999993
40
0.906249999999994
40
0.906249999999994
40
0.937499999999994
40
0.937499999999994
40
1
40
1
40
1
40
1
41
1
10
27.2457606397875
20
1.0482424347945
30
0
41
1
10
27.3910936945545
20
0.901917366829935
30
0
41
1
10
27.5445911598828
20
0.766924719891023
30
0
41
1
10
27.8597802106808
20
0.530576492163476
30
0
41
1
10
28.0229861547148
20
0.427957720421716
30
0
41
1
10
28.2661537041685
20
0.309468434511672
30
0
41
1
10
28.3472401374432
20
0.275759949408581
30
0
41
1
10
28.4689216444137
20
0.235011211560391
30
0
41
1
10
28.5094908120995
20
0.223068225751973
30
0
41
1
10
28.5906483032607
20
0.202807502436258
30
0
41
1
10
28.6313317575403
20
0.193794041850879
30
0
41
1
10
28.7103890174838
20
0.18399763307761
30
0
41
1
10
28.7493467454689
20
0.182806712179115
30
0
41
1
10
28.8043213845049
20
0.190371531803237
30
0
41
1
10
28.821872973358
20
0.194512013220788
30
0
41
1
10
28.855101234157
20
0.206718091647019
30
0
41
1
10
28.8709347357457
20
0.214873942075741
30
0
41
1
10
28.8993725374178
20
0.235332041779827
30
0
41
1
10
28.9120169653676
20
0.247591660627961
30
0
41
1
10
28.9338795804642
20
0.276529658665169
30
0
41
1
10
28.9430240545007
20
0.293235475825384
30
0
41
1
10
28.9637623372134
20
0.347762313227293
30
0
41
1
10
28.9689383626661
20
0.391615347103368
30
0
41
1
10
28.9660286601102
20
0.437969897153437
30
0
0
SPLINE
5
CA
100
AcDbEntity
8
1
62
256
6
ByLayer
370
18
48
1
60
0
100
AcDbSpline
70
4
71
3
72
14
73
10
40
0
40
0
40
0
40
0
40
0.25
40
0.25
40
0.5
40
0.5
40
0.75
40
0.75
40
1
40
1
40
1
40
1
41
1
10
29.6898283513882
20
1.12949369234624
30
0
41
1
10
29.6554078371075
20
1.22131450150198
30
0
41
1
10
29.6208820159954
20
1.3130287754592
30
0
41
1
10
29.5516966211228
20
1.49632184202284
30
0
41
1
10
29.5171454184274
20
1.58801955398016
30
0
41
1
10
29.4480045344627
20
1.77136751929166
30
0
41
1
10
29.413346203114
20
1.86292922169486
30
0
41
1
10
29.3439534574704
20
2.04594289503507
30
0
41
1
10
29.309358476369
20
2.13764827276901
30
0
41
1
10
29.2742203072132
20
2.22826339266172
30
0
0
SPLINE
5
CB
100
AcDbEntity
8
1
62
256
6
ByLayer
370
18
48
1
60
0
100
AcDbSpline
70
4
71
3
72
14
73
10
40
0
40
0
40
0
40
0
40
0.25
40
0.25
40
0.5
40
0.5
40
0.75
40
0.75
40
1
40
1
40
1
40
1
41
1
10
28.9660286601102
20
0.437969897153437
30
0
41
1
10
28.9643549599284
20
0.464633659980564
30
0
41
1
10
28.9661488765885
20
0.491940906297174
30
0
41
1
10
28.9778801991946
20
0.547848877563268
30
0
41
1
10
28.9881143623163
20
0.576041351080846
30
0
41
1
10
29.0164788958448
20
0.629531505876088
30
0
41
1
10
29.0373525152435
20
0.652674250812737
30
0
41
1
10
29.0873256436921
20
0.687563710707451
30
0
41
1
10
29.1159406361278
20
0.69930746851665
30
0
41
1
10
29.145540172175
20
0.706414990995967
30
0
0
SPLINE
5
CC
100
AcDbEntity
8
1
62
256
6
ByLayer
370
18
48
1
60
0
100
AcDbSpline
70
4
71
3
72
12
73
8
40
0
40
0
40
0
40
0
40
0.25
40
0.25
40
0.5
40
0.5
40
1
40
1
40
1
40
1
41
1
10
9.82645731675302
20
-1.48814655288442
30
0
41
1
10
9.69235873543846
20
-1.42697650695365
30
0
41
1
10
9.55929599133725
20
-1.36162493952583
30
0
41
1
10
9.2940684592927
20
-1.22271798145147
30
0
41
1
10
9.16206428709108
20
-1.14922214689273
30
0
41
1
10
8.7689498711016
20
-0.920025536301353
30
0
41
1
10
8.50964385309987
20
-0.755030722938784
30
0
41
1
10
8.2506236540876
20
-0.580044840649492
30
0
0
SPLINE
5
CD
100
AcDbEntity
8
1
62
256
6
ByLayer
370
18
48
1
60
0
100
AcDbSpline
70
4
71
3
72
8
73
4
40
0
40
0
40
0
40
0
40
1
40
1
40
1
40
1
41
1
10
8.03856903422576
20
-2.20934265573686
30
0
41
1
10
8.05708897128054
20
-2.17677330984753
30
0
41
1
10
8.08141336662015
20
-2.14839612152235
30
0
41
1
10
8.11214249219279
20
-2.12574340915674
30
0
0
SPLINE
5
CE
100
AcDbEntity
8
1
62
256
6
ByLayer
370
18
48
1
60
0
100
AcDbSpline
70
4
71
3
72
26
73
22
40
0
40
0
40
0
40
0
40
0.0624999999999999
40
0.0624999999999999
40
0.125
40
0.125
40
0.25
40
0.25
40
0.3125
40
0.3125
40
0.375
40
0.375
40
0.5
40
0.5
40
0.625
40
0.625
40
0.75
40
0.75
40
0.875
40
0.875
40
1
40
1
40
1
40
1
41
1
10
27.245760639784
20
1.04824243479337
30
0
41
1
10
27.2501102446787
20
0.994260248174186
30
0
41
1
10
27.2575871597876
20
0.939394294402206
30
0
41
1
10
27.2786149758494
20
0.827945899259021
30
0
41
1
10
27.2922701929264
20
0.771018808865676
30
0
41
1
10
27.3415294119757
20
0.600193907076147
30
0
41
1
10
27.3847245232448
20
0.487778128317785
30
0
41
1
10
27.462400723185
20
0.320980176322934
30
0
41
1
10
27.4906224026036
20
0.265412273452029
30
0
41
1
10
27.5502086140444
20
0.156584685177023
30
0
41
1
10
27.5815694022438
20
0.103275853393313
30
0
41
1
10
27.6797850488402
20
-0.0537373472903653
30
0
41
1
10
27.7507448256095
20
-0.154548413287642
30
0
41
1
10
27.9016185534671
20
-0.34985930198809
30
0
41
1
10
27.981675324761
20
-0.444403753511494
30
0
41
1
10
28.1453569232903
20
-0.623590591854139
30
0
41
1
10
28.2295071778671
20
-0.708923501240804
30
0
41
1
10
28.4017014347819
20
-0.872406089255236
30
0
41
1
10
28.4897501863785
20
-0.950547006395823
30
0
41
1
10
28.6693161184495
20
-1.10043024309712
30
0
41
1
10
28.7610486582017
20
-1.17230571086787
30
0
41
1
10
28.8536938871743
20
-1.24055435493713
30
0
0
SPLINE
5
CF
100
AcDbEntity
8
1
62
256
6
ByLayer
370
18
48
1
60
0
100
AcDbSpline
70
4
71
3
72
63
73
59
40
0
40
0
40
0
40
0
40
0.124999999999995
40
0.124999999999995
40
0.187499999999993
40
0.187499999999993
40
0.249999999999992
40
0.249999999999992
40
0.37499999999999
40
0.37499999999999
40
0.43749999999999
40
0.43749999999999
40
0.499999999999989
40
0.499999999999989
40
0.53124999999999
40
0.53124999999999
40
0.54687499999999
40
0.54687499999999
40
0.55468749999999
40
0.558593749999991
40
0.558593749999991
40
0.562499999999991
40
0.562499999999991
40
0.566406249999991
40
0.566406249999991
40
0.570312499999991
40
0.570312499999991
40
0.578124999999991
40
0.578124999999991
40
0.593749999999991
40
0.593749999999991
40
0.609374999999992
40
0.609374999999992
40
0.624999999999992
40
0.624999999999992
40
0.640624999999992
40
0.640624999999992
40
0.656249999999993
40
0.656249999999993
40
0.671874999999993
40
0.671874999999993
40
0.687499999999993
40
0.687499999999993
40
0.703124999999994
40
0.703124999999994
40
0.718749999999994
40
0.718749999999994
40
0.734374999999995
40
0.734374999999995
40
0.749999999999995
40
0.749999999999995
40
0.812499999999996
40
0.812499999999996
40
0.874999999999997
40
0.874999999999997
40
0.937499999999999
40
0.937499999999999
40
1
40
1
40
1
40
1
41
1
10
11.4859474447093
20
0.388242736863333
30
0
41
1
10
11.1576103472271
20
0.602535860728921
30
0
41
1
10
10.8276703607471
20
0.804107481534629
30
0
41
1
10
10.3217212726484
20
1.07709981031689
30
0
41
1
10
10.1511862018383
20
1.16314685559243
30
0
41
1
10
9.80464033295854
20
1.32354424670848
30
0
41
1
10
9.62942860615942
20
1.39746431053905
30
0
41
1
10
9.10001894610997
20
1.597786896352
30
0
41
1
10
8.74026640017829
20
1.70317584653549
30
0
41
1
10
8.18476854200844
20
1.82341095861216
30
0
41
1
10
7.99699595158015
20
1.85727827170604
30
0
41
1
10
7.61566858505657
20
1.9139655802027
30
0
41
1
10
7.42155984829057
20
1.93683960908325
30
0
41
1
10
7.12864119511374
20
1.96357731652756
30
0
41
1
10
7.03066292880504
20
1.97123991879991
30
0
41
1
10
6.88317150163113
20
1.98097156204835
30
0
41
1
10
6.83391517903027
20
1.98392155090571
30
0
41
1
10
6.75991407244797
20
1.98791379374376
30
0
41
1
10
6.72289250036016
20
1.98980126168624
30
0
41
1
10
6.68583915527205
20
1.99152731338799
30
0
41
1
10
6.66112983524323
20
1.99264227978685
30
0
41
1
10
6.64875313476608
20
1.99343196159171
30
0
41
1
10
6.62415812446483
20
1.99294987844081
30
0
41
1
10
6.61143688302164
20
1.99183635137345
30
0
41
1
10
6.58956095235328
20
1.98635727134871
30
0
41
1
10
6.578781947875
20
1.98345005935559
30
0
41
1
10
6.54643472596209
20
1.97467807976372
30
0
41
1
10
6.52505408789489
20
1.96855237246666
30
0
41
1
10
6.46172971604639
20
1.94928894219379
30
0
41
1
10
6.42071924344867
20
1.93531298863994
30
0
41
1
10
6.34162831227718
20
1.90444360467953
30
0
41
1
10
6.30354198227261
20
1.88755754731483
30
0
41
1
10
6.23109808884865
20
1.84987176947541
30
0
41
1
10
6.1964705583419
20
1.82887384110188
30
0
41
1
10
6.13386258064742
20
1.78253392424088
30
0
41
1
10
6.10584865385039
20
1.75725134880187
30
0
41
1
10
6.05807216975609
20
1.70109468130087
30
0
41
1
10
6.03859193770577
20
1.6702600824778
30
0
41
1
10
6.01125004952542
20
1.60518453523756
30
0
41
1
10
6.00304470954188
20
1.57032017388136
30
0
41
1
10
5.99830422898413
20
1.49718824250775
30
0
41
1
10
6.00172073613791
20
1.45995850550636
30
0
41
1
10
6.01822435254644
20
1.38416151398516
30
0
41
1
10
6.0313763285408
20
1.34572066086244
30
0
41
1
10
6.06430452473936
20
1.27040427061965
30
0
41
1
10
6.08417001279696
20
1.2331165147846
30
0
41
1
10
6.12912547893774
20
1.15898092490553
30
0
41
1
10
6.15427851306853
20
1.12210270134452
30
0
41
1
10
6.20755789270365
20
1.05012527837155
30
0
41
1
10
6.23582335437851
20
1.01479588226485
30
0
41
1
10
6.38338929390773
20
0.840509459980012
30
0
41
1
10
6.52141752557719
20
0.707260371724516
30
0
41
1
10
6.80621769539664
20
0.452525789375301
30
0
41
1
10
6.95452777349422
20
0.330189754156692
30
0
41
1
10
7.25768297453945
20
0.0902892739993888
30
0
41
1
10
7.41335995967873
20
-0.0276873754289397
30
0
41
1
10
7.7256217250185
20
-0.257612601302355
30
0
41
1
10
7.88208033151668
20
-0.369465903708914
30
0
41
1
10
8.03878087817685
20
-0.478574682776355
30
0
0
LINE
5
76
100
AcDbEntity
8
81
62
256
6
ByLayer
370
18
48
1
60
0
100
AcDbLine
10
30
20
0
30
0
11
35
21
0
31
0
39
0
210
0
220
0
230
1
0
LINE
5
77
100
AcDbEntity
8
1
62
256
6
ByLayer
370
18
48
1
60
0
100
AcDbLine
10
8.038562
20
2.287259
30
0
11
1.334607
21
2.283236
31
0
39
0
210
0
220
0
230
1
0
LINE
5
79
100
AcDbEntity
8
1
62
256
6
ByLayer
370
18
48
1
60
0
100
AcDbLine
10
17.900778
20
2.293176
30
0
11
17.520293
21
2.292948
31
0
39
0
210
0
220
0
230
1
0
LINE
5
7A
100
AcDbEntity
8
1
62
256
6
ByLayer
370
18
48
1
60
0
100
AcDbLine
10
28.785474
20
2.299707
30
0
11
28.405706
21
2.299479
31
0
39
0
210
0
220
0
230
1
0
LINE
5
7B
100
AcDbEntity
8
1
62
256
6
ByLayer
370
18
48
1
60
0
100
AcDbLine
10
28.405706
20
-2.299479
30
0
11
28.785456
21
-2.299707
31
0
39
0
210
0
220
0
230
1
0
LINE
5
7C
100
AcDbEntity
8
1
62
256
6
ByLayer
370
18
48
1
60
0
100
AcDbLine
10
17.520293
20
-2.292948
30
0
11
17.900621
21
-2.293176
31
0
39
0
210
0
220
0
230
1
0
LINE
5
7D
100
AcDbEntity
8
1
62
256
6
ByLayer
370
18
48
1
60
0
100
AcDbLine
10
1.334607
20
-2.283236
30
0
11
8.038562
21
-2.287259
31
0
39
0
210
0
220
0
230
1
0
LINE
5
7E
100
AcDbEntity
8
SK1
62
256
6
ByLayer
370
18
48
1
60
0
100
AcDbLine
10
-35.278312
20
3
30
0
11
-36
21
1.75
31
0
39
0
210
0
220
0
230
1
0
LINE
5
80
100
AcDbEntity
8
SK1
62
256
6
ByLayer
370
18
48
1
60
0
100
AcDbLine
10
-36
20
-1.75
30
0
11
-35.278312
21
-3
31
0
39
0
210
0
220
0
230
1
0
LINE
5
81
100
AcDbEntity
8
SK1
62
256
6
ByLayer
370
18
48
1
60
0
100
AcDbLine
10
0
20
3
30
0
11
-35.278312
21
3
31
0
39
0
210
0
220
0
230
1
0
LINE
5
82
100
AcDbEntity
8
SK1
62
256
6
ByLayer
370
18
48
1
60
0
100
AcDbLine
10
-35.278312
20
-3
30
0
11
0
21
-3
31
0
39
0
210
0
220
0
230
1
0
LINE
5
83
100
AcDbEntity
8
SK4
62
256
6
ByLayer
370
18
48
0.05
60
0
100
AcDbLine
10
35
20
0
30
0
11
-41
21
0
31
0
39
0
210
0
220
0
230
1
0
LINE
5
85
100
AcDbEntity
8
4
62
256
6
ByLayer
370
18
48
0.05
60
0
100
AcDbLine
10
30
20
0
30
0
11
0
21
0
31
0
39
0
210
0
220
0
230
1
0
LINE
5
87
100
AcDbEntity
8
80
62
256
6
ByLayer
370
18
48
1
60
0
100
AcDbLine
10
0
20
0
30
0
11
-5
21
0
31
0
39
0
210
0
220
0
230
1
0
LINE
5
88
100
AcDbEntity
8
1
62
256
6
ByLayer
370
18
48
1
60
0
100
AcDbLine
10
30
20
0
30
0
11
29.205457
21
-2.182988
31
0
39
0
210
0
220
0
230
1
0
LINE
5
89
100
AcDbEntity
8
1
62
256
6
ByLayer
370
18
48
1
60
0
100
AcDbLine
10
0
20
-3
30
0
11
0
21
3
31
0
39
0
210
0
220
0
230
1
0
LINE
5
8A
100
AcDbEntity
8
1
62
256
6
ByLayer
370
18
48
1
60
0
100
AcDbLine
10
29.933458
20
-0.261025
30
0
11
29.890204
21
-0.462761
31
0
39
0
210
0
220
0
230
1
0
LINE
5
8B
100
AcDbEntity
8
1
62
256
6
ByLayer
370
13
48
1
60
0
100
AcDbLine
10
29.890204
20
0.462761
30
0
11
29.593454
21
0.462761
31
0
39
0
210
0
220
0
230
1
0
LINE
5
8C
100
AcDbEntity
8
1
62
256
6
ByLayer
370
13
48
1
60
0
100
AcDbLine
10
29.593454
20
0.462761
30
0
11
29.933458
21
0.261025
31
0
39
0
210
0
220
0
230
1
0
LINE
5
8D
100
AcDbEntity
8
1
62
256
6
ByLayer
370
13
48
1
60
0
100
AcDbLine
10
0.667063
20
2.641618
30
0
11
0.667063
21
-2.641618
31
0
39
0
210
0
220
0
230
1
0
LINE
5
8E
100
AcDbEntity
8
1
62
256
6
ByLayer
370
18
48
1
60
0
100
AcDbLine
10
29.933458
20
0.261025
30
0
11
29.890204
21
0.462761
31
0
39
0
210
0
220
0
230
1
0
LINE
5
8F
100
AcDbEntity
8
1
62
256
6
ByLayer
370
18
48
1
60
0
100
AcDbLine
10
28.853694
20
-1.240554
30
0
11
29.895435
21
-0.164422
31
0
39
0
210
0
220
0
230
1
0
LINE
5
90
100
AcDbEntity
8
1
62
256
6
ByLayer
370
18
48
1
60
0
100
AcDbLine
10
29.99624
20
0.023327
30
0
11
30
21
0
31
0
39
0
210
0
220
0
230
1
0
LINE
5
91
100
AcDbEntity
8
1
62
256
6
ByLayer
370
18
48
1
60
0
100
AcDbLine
10
30
20
0
30
0
11
29.99624
21
-0.023327
31
0
39
0
210
0
220
0
230
1
0
LINE
5
92
100
AcDbEntity
8
1
62
256
6
ByLayer
370
13
48
1
60
0
100
AcDbLine
10
1.334607
20
2.283236
30
0
11
1.334607
21
-2.283236
31
0
39
0
210
0
220
0
230
1
0
LINE
5
93
100
AcDbEntity
8
1
62
256
6
ByLayer
370
13
48
1
60
0
100
AcDbLine
10
29.403547
20
0.127432
30
0
11
29.895435
21
-0.164422
31
0
39
0
210
0
220
0
230
1
0
LINE
5
94
100
AcDbEntity
8
SK1
62
256
6
ByLayer
370
18
48
1
60
0
100
AcDbLine
10
0
20
-3
30
0
11
0
21
3
31
0
39
0
210
0
220
0
230
1
0
LINE
5
95
100
AcDbEntity
8
SK1
62
256
6
ByLayer
370
18
48
1
60
0
100
AcDbLine
10
-36
20
1.75
30
0
11
-36
21
-1.75
31
0
39
0
210
0
220
0
230
1
0
LINE
5
96
100
AcDbEntity
8
SK1
62
256
6
ByLayer
370
18
48
1
60
0
100
AcDbLine
10
-35.278312
20
3
30
0
11
-35.278312
21
-3
31
0
39
0
210
0
220
0
230
1
0
MTEXT
5
D0
100
AcDbEntity
8
SK6
62
256
6
ByLayer
370
13
48
1
60
0
100
AcDbMText
10
-0.870831
20
34.682694
30
0
210
0
220
0
230
1
1
\W0.7725;R840-0460-30-A0A1220
40
3.5
41
0
44
1.084337
50
0
71
8
72
5
7
iso_b_vert
0
DIMENSION
5
DD
100
AcDbEntity
8
SK2
62
256
6
ByLayer
370
13
48
1
60
0
100
AcDbDimension
2
DimnDraft3D1
10
29.22
20
-12.513398
30
0
11
13.470059
21
-12.513398
31
0
70
32
71
5
72
1
41
1
210
0
220
0
230
1
3
Standard
100
AcDbAlignedDimension
13
0
23
-1.5875
33
0
14
29.22
24
-3.8875
34
0
50
0
100
AcDbRotatedDimension
1001
ACAD
1000
DSTYLE
1002
{
1070
   279
1070
     0
1070
   172
1070
     1
1070
   173
1070
     1
1070
   340
1005
D1
1070
   271
1070
     2
1070
   272
1070
     2
1070
    77
1070
     1
1070
    73
1070
     0
1070
   171
1070
     3
1070
   274
1070
     4
1070
   177
1070
    35
1070
   176
1070
    35
1070
   178
1070
    35
1070
    48
1040
-0.005
1070
    41
1041
3.5
1070
   147
1041
1.75
1070
    42
1041
1.5875
1070
    44
1041
2.0
1070
   140
1041
3.5
1070
   343
1005
0
1070
   344
1005
0
1002
}
0
DIMENSION
5
E7
100
AcDbEntity
8
SK2
62
256
6
ByLayer
370
13
48
1
60
0
100
AcDbDimension
2
DimnDraft3D2
10
30
20
-31.692985
30
0
11
-2.4387
21
-31.692985
31
0
70
32
71
5
72
1
41
1
210
0
220
0
230
1
3
Standard
100
AcDbAlignedDimension
13
-36
23
-4.5875
33
0
14
30
24
-1.5875
34
0
50
0
100
AcDbRotatedDimension
1001
ACAD
1000
DSTYLE
1002
{
1070
   279
1070
     0
1070
   172
1070
     1
1070
   173
1070
     1
1070
   340
1005
D1
1070
   271
1070
     2
1070
   272
1070
     2
1070
    77
1070
     1
1070
    73
1070
     0
1070
   171
1070
     3
1070
   274
1070
     4
1070
   177
1070
    35
1070
   176
1070
    35
1070
   178
1070
    35
1070
    48
1040
-0.005
1070
    41
1041
3.5
1070
   147
1041
1.75
1070
    42
1041
1.5875
1070
    44
1041
2.0
1070
   140
1041
3.5
1070
   343
1005
0
1070
   344
1005
0
1002
}
0
DIMENSION
5
F1
100
AcDbEntity
8
SK2
62
256
6
ByLayer
370
13
48
1
60
0
100
AcDbDimension
2
DimnDraft3D3
10
30
20
13.909119
30
0
11
22.71
21
13.909119
31
0
70
32
71
5
72
1
41
1
210
0
220
0
230
1
3
Standard
100
AcDbAlignedDimension
13
15.42
23
3.8875
33
0
14
30
24
1.5875
34
0
50
0
100
AcDbRotatedDimension
1001
ACAD
1000
DSTYLE
1002
{
1070
   279
1070
     0
1070
   172
1070
     1
1070
   173
1070
     1
1070
   340
1005
D1
1070
   271
1070
     2
1070
   272
1070
     2
1070
    77
1070
     1
1070
    73
1070
     0
1070
   171
1070
     3
1070
   274
1070
     4
1070
   177
1070
    35
1070
   176
1070
    35
1070
   178
1070
    35
1070
    48
1040
-0.005
1070
    41
1041
3.5
1070
   147
1041
1.75
1070
    42
1041
1.5875
1070
    44
1041
2.0
1070
   140
1041
3.5
1070
   343
1005
0
1070
   344
1005
0
1002
}
0
DIMENSION
5
FB
100
AcDbEntity
8
SK2
62
256
6
ByLayer
370
13
48
1
60
0
100
AcDbDimension
2
DimnDraft3D4
10
29.22
20
-15.102503
30
0
11
39.981425
21
-15.102503
31
0
70
32
71
5
72
1
41
1
210
0
220
0
230
1
3
Standard
100
AcDbAlignedDimension
13
30
23
-1.5875
33
0
14
29.22
24
-3.8875
34
0
50
0
100
AcDbRotatedDimension
1001
ACAD
1000
DSTYLE
1002
{
1070
   279
1070
     0
1070
   172
1070
     1
1070
   173
1070
     1
1070
   340
1005
D1
1070
   271
1070
     2
1070
   272
1070
     2
1070
    77
1070
     1
1070
    73
1070
     0
1070
   171
1070
     3
1070
   274
1070
     4
1070
   177
1070
    35
1070
   176
1070
    35
1070
   178
1070
    35
1070
    48
1040
-0.005
1070
    41
1041
3.5
1070
   147
1041
1.75
1070
    42
1041
1.5875
1070
    44
1041
2.0
1070
   140
1041
3.5
1070
   343
1005
0
1070
   344
1005
0
1002
}
0
DIMENSION
5
105
100
AcDbEntity
8
SK2
62
256
6
ByLayer
370
13
48
1
60
0
100
AcDbDimension
2
DimnDraft3D5
10
29.22
20
-21.343428
30
0
11
-5.519324
21
-21.343428
31
0
70
32
71
5
72
1
41
1
210
0
220
0
230
1
3
Standard
100
AcDbAlignedDimension
13
-36
23
-4.5875
33
0
14
29.22
24
-3.8875
34
0
50
0
100
AcDbRotatedDimension
1001
ACAD
1000
DSTYLE
1002
{
1070
   279
1070
     0
1070
   172
1070
     1
1070
   173
1070
     1
1070
   340
1005
D1
1070
   271
1070
     2
1070
   272
1070
     2
1070
    77
1070
     1
1070
    73
1070
     0
1070
   171
1070
     3
1070
   274
1070
     4
1070
   177
1070
    35
1070
   176
1070
    35
1070
   178
1070
    35
1070
    48
1040
-0.005
1070
    41
1041
3.5
1070
   147
1041
1.75
1070
    42
1041
1.5875
1070
    44
1041
2.0
1070
   140
1041
3.5
1070
   343
1005
0
1070
   344
1005
0
1002
}
0
DIMENSION
5
110
100
AcDbEntity
8
SK2
62
256
6
ByLayer
370
13
48
1
60
0
100
AcDbDimension
2
DimnDraft3D6
10
-46.625163
20
3
30
0
11
-47.250163
21
21.47418
31
0
70
33
71
5
72
1
41
1
210
0
220
0
230
1
3
Standard
100
AcDbAlignedDimension
13
-37.5875
23
-3
33
0
14
-37.5875
24
3
34
0
1001
ACAD
1000
DSTYLE
1002
{
1070
   279
1070
     0
1070
    74
1070
     0
1070
   173
1070
     1
1070
   340
1005
D1
1070
   271
1070
     3
1070
   272
1070
     2
1070
    77
1070
     1
1070
    73
1070
     0
1070
   171
1070
     3
1070
   274
1070
     4
1070
   177
1070
    35
1070
   176
1070
    35
1070
   178
1070
    35
1070
    48
1040
-0.005
1070
    41
1041
3.5
1070
   147
1041
1.75
1070
    42
1041
1.5875
1070
    44
1041
2.0
1070
   140
1041
3.5
1070
   343
1005
0
1070
   344
1005
0
1002
}
0
DIMENSION
5
11B
100
AcDbEntity
8
2
62
256
6
ByLayer
370
13
48
1
60
0
100
AcDbDimension
2
DimnDraft3D7
10
44.083343
20
2.3
30
0
11
39.458343
21
19.367266
31
0
70
33
71
5
72
1
41
1
210
0
220
0
230
1
3
Standard
100
AcDbAlignedDimension
13
30.8075
23
-2.3
33
0
14
30.8075
24
2.3
34
0
1001
ACAD
1000
DSTYLE
1002
{
1070
   279
1070
     0
1070
    74
1070
     0
1070
   173
1070
     1
1070
   340
1005
D1
1070
   271
1070
     3
1070
   272
1070
     2
1070
    77
1070
     1
1070
    73
1070
     0
1070
   171
1070
     3
1070
   274
1070
     4
1070
   177
1070
    35
1070
   176
1070
    35
1070
   178
1070
    35
1070
    48
1040
-0.005
1070
    41
1041
3.5
1070
   147
1041
1.75
1070
    42
1041
1.5875
1070
    44
1041
2.0
1070
   140
1041
3.5
1070
   343
1005
0
1070
   344
1005
0
1002
}
0
ENDSEC
0
SECTION
2
OBJECTS
0
DICTIONARY
5
186
330
0
100
AcDbDictionary
280
0
281
1
3
ACAD_GROUP
350
187
3
ACAD_MLINESTYLE
350
188
0
DICTIONARY
5
187
330
0
100
AcDbDictionary
280
0
281
1
0
DICTIONARY
5
188
330
0
100
AcDbDictionary
280
0
281
1
3
Standard
350
18
0
MLINESTYLE
5
18
330
188
100
AcDbMlineStyle
2
Standard
70
0
3

62
256
51
90
52
90
71
2
49
-0.5
62
256
6
ByLayer
49
0.5
62
256
6
ByLayer
0
RASTERVARIABLES
5
174
330

100
AcDbRasterVariables
90
0
70
1
71
1
72
1
0
ENDSEC
0
EOF
