0
SECTION
2
HEADER
9
$ACADVER
1
AC1015
9
$DWGCODEPAGE
3
ANSI_1252
9
$HANDSEED
5
192
9
$ANGBASE
50
0
9
$ANGDIR
70
0
9
$ATTMODE
70
1
9
$AUNITS
70
0
9
$AUPREC
70
0
9
$CECOLOR
62
256
9
$CELTSCALE
40
1
9
$CELTYPE
6
ByLayer
9
$CELWEIGHT
370
18
9
$CLAYER
8
0
9
$CMLJUST
70
0
9
$CMLSCALE
40
1
9
$CMLSTYLE
2
Standard
9
$DIMSTYLE
2
Standard
9
$TEXTSIZE
40
0.2
9
$TEXTSTYLE
7
Standard
9
$LUNITS
70
2
9
$LUPREC
70
4
9
$EXTNAMES
290
1
9
$INSUNITS
70
4
9
$LTSCALE
40
1
9
$LWDISPLAY
290
1
9
$PDMODE
70
0
9
$PDSIZE
40
0
9
$PLINEGEN
70
0
0
ENDSEC
0
SECTION
2
CLASSES
0
CLASS
1
RASTERVARIABLES
2
AcDbRasterVariables
3
ISM
90
0
280
0
281
0
0
ENDSEC
0
SECTION
2
TABLES
0
TABLE
2
VPORT
5
188
100
AcDbSymbolTable
0
VPORT
5
1
100
AcDbSymbolTableRecord
100
AcDbViewportTableRecord
2
*Active
70
0
10
0
20
0
11
1
21
1
12
-1
22
1
13
0
23
0
14
0.5
24
0.5
15
10
25
10
16
0
26
0
36
1
17
0
27
0
37
0
0
ENDTAB
0
TABLE
2
LTYPE
5
189
100
AcDbSymbolTable
0
LTYPE
5
14
100
AcDbSymbolTableRecord
100
AcDbLinetypeTableRecord
70
0
2
ByBlock
3

72
65
73
0
40
0
0
LTYPE
5
15
100
AcDbSymbolTableRecord
100
AcDbLinetypeTableRecord
70
0
2
ByLayer
3

72
65
73
0
40
0
0
LTYPE
5
16
100
AcDbSymbolTableRecord
100
AcDbLinetypeTableRecord
70
0
2
CONTINUOUS
3
Solid line
72
65
73
0
40
0
0
LTYPE
5
6A
100
AcDbSymbolTableRecord
100
AcDbLinetypeTableRecord
70
0
2
CENTER
3
____ _ ____ _ ____ _ ____
72
65
73
4
40
47.5
49
22
74
0
49
-8.5
74
0
49
8.5
74
0
49
-8.5
74
0
0
LTYPE
5
6B
100
AcDbSymbolTableRecord
100
AcDbLinetypeTableRecord
70
0
2
DASHED
3
__ __ __ __ __ __ __ __ __
72
65
73
2
40
25.72
49
12.86
74
0
49
-12.86
74
0
0
ENDTAB
0
TABLE
2
LAYER
5
18a
100
AcDbSymbolTable
0
LAYER
5
10
100
AcDbSymbolTableRecord
100
AcDbLayerTableRecord
2
0
70
0
62
7
6
CONTINUOUS
290
1
370
-3
390
0
0
LAYER
5
6D
100
AcDbSymbolTableRecord
100
AcDbLayerTableRecord
2
81
70
0
62
-3
6
CONTINUOUS
290
1
370
-3
390
0
0
LAYER
5
6F
100
AcDbSymbolTableRecord
100
AcDbLayerTableRecord
2
80
70
0
62
-6
6
CONTINUOUS
290
1
370
-3
390
0
0
LAYER
5
74
100
AcDbSymbolTableRecord
100
AcDbLayerTableRecord
2
2
70
0
62
7
6
CONTINUOUS
290
1
370
-3
390
0
0
LAYER
5
78
100
AcDbSymbolTableRecord
100
AcDbLayerTableRecord
2
1
70
0
62
4
6
CONTINUOUS
290
1
370
-3
390
0
0
LAYER
5
86
100
AcDbSymbolTableRecord
100
AcDbLayerTableRecord
2
4
70
0
62
-2
6
CENTER
290
1
370
-3
390
0
0
LAYER
5
174
100
AcDbSymbolTableRecord
100
AcDbLayerTableRecord
2
SK2
70
0
62
7
6
CONTINUOUS
290
1
370
-3
390
0
0
LAYER
5
175
100
AcDbSymbolTableRecord
100
AcDbLayerTableRecord
2
SK1
70
0
62
4
6
CONTINUOUS
290
1
370
-3
390
0
0
LAYER
5
176
100
AcDbSymbolTableRecord
100
AcDbLayerTableRecord
2
SK4
70
0
62
2
6
CENTER
290
1
370
-3
390
0
0
LAYER
5
177
100
AcDbSymbolTableRecord
100
AcDbLayerTableRecord
2
SK6
70
0
62
5
6
CONTINUOUS
290
1
370
-3
390
0
0
ENDTAB
0
TABLE
2
STYLE
5
18b
100
AcDbSymbolTable
0
STYLE
5
11
100
AcDbSymbolTableRecord
100
AcDbTextStyleTableRecord
2
Standard
3
txt
70
0
71
0
40
0
41
1
42
0
50
0
0
STYLE
5
D0
100
AcDbSymbolTableRecord
100
AcDbTextStyleTableRecord
2
iso_b_vert
3
simplex.shx
70
0
71
0
40
0
41
1
42
0
50
0
0
STYLE
5
D1
100
AcDbSymbolTableRecord
100
AcDbTextStyleTableRecord
2
DWGDirectTextStyle
3
simplex
70
0
71
0
40
0
41
1
42
0
50
0
0
ENDTAB
0
TABLE
2
DIMSTYLE
5
18c
100
AcDbSymbolTable
100
AcDbDimStyleTable
0
DIMSTYLE
105
27
100
AcDbSymbolTableRecord
100
AcDbDimStyleTableRecord
2
Standard
70
0
3
<>
41
0.18
42
0.0625
44
0.18
140
0.18
147
0.09
73
0
74
0
77
1
271
2
275
0
278
52
280
0
340
11
0
ENDTAB
0
TABLE
2
VIEW
5
18d
100
AcDbSymbolTable
0
ENDTAB
0
TABLE
2
UCS
5
18e
100
AcDbSymbolTable
0
ENDTAB
0
TABLE
2
APPID
5
18f
100
AcDbSymbolTable
0
APPID
5
12
100
AcDbSymbolTableRecord
100
AcDbRegAppTableRecord
2
ACAD
70
0
0
ENDTAB
0
TABLE
2
BLOCK_RECORD
5
190
100
AcDbSymbolTable
0
BLOCK_RECORD
5
1F
100
AcDbSymbolTableRecord
100
AcDbBlockTableRecord
2
*Model_Space
340
0
70
0
0
BLOCK_RECORD
5
1B
100
AcDbSymbolTableRecord
100
AcDbBlockTableRecord
2
*Paper_Space
340
0
70
0
0
BLOCK_RECORD
5
23
100
AcDbSymbolTableRecord
100
AcDbBlockTableRecord
2
*Paper_Space0
340
0
70
0
0
BLOCK_RECORD
5
D3
100
AcDbSymbolTableRecord
100
AcDbBlockTableRecord
2
DimnDraft3D1
340
0
70
0
0
BLOCK_RECORD
5
DD
100
AcDbSymbolTableRecord
100
AcDbBlockTableRecord
2
DimnDraft3D2
340
0
70
0
0
BLOCK_RECORD
5
E7
100
AcDbSymbolTableRecord
100
AcDbBlockTableRecord
2
DimnDraft3D3
340
0
70
0
0
BLOCK_RECORD
5
F1
100
AcDbSymbolTableRecord
100
AcDbBlockTableRecord
2
DimnDraft3D4
340
0
70
0
0
BLOCK_RECORD
5
FB
100
AcDbSymbolTableRecord
100
AcDbBlockTableRecord
2
DimnDraft3D5
340
0
70
0
0
BLOCK_RECORD
5
105
100
AcDbSymbolTableRecord
100
AcDbBlockTableRecord
2
DimnDraft3D6
340
0
70
0
0
BLOCK_RECORD
5
110
100
AcDbSymbolTableRecord
100
AcDbBlockTableRecord
2
DimnDraft3D7
340
0
70
0
0
ENDTAB
0
ENDSEC
0
SECTION
2
BLOCKS
0
BLOCK
5
20
100
AcDbEntity
8
0
100
AcDbBlockBegin
2
*Model_Space
70
0
10
0
20
0
30
0
3
*Model_Space
0
ENDBLK
5
21
100
AcDbEntity
8
0
100
AcDbBlockEnd
0
BLOCK
5
1C
100
AcDbEntity
8
0
100
AcDbBlockBegin
2
*Paper_Space
70
0
10
0
20
0
30
0
3
*Paper_Space
0
ENDBLK
5
1D
100
AcDbEntity
8
0
100
AcDbBlockEnd
0
BLOCK
5
24
100
AcDbEntity
8
0
100
AcDbBlockBegin
2
*Paper_Space0
70
0
10
0
20
0
30
0
3
*Paper_Space0
0
ENDBLK
5
25
100
AcDbEntity
8
0
100
AcDbBlockEnd
0
BLOCK
5
DA
100
AcDbEntity
8
0
100
AcDbBlockBegin
2
DimnDraft3D1
70
0
10
0
20
0
30
0
3
DimnDraft3D1
0
MTEXT
5
D4
100
AcDbEntity
8
SK2
62
256
6
ByLayer
370
13
48
1
60
0
100
AcDbMText
10
9.061375
20
-11.538398
30
0
210
0
220
0
230
1
1
\W0.7317;29,26
40
3.5
41
0
44
1.084337
50
0
71
7
72
5
7
iso_b_vert
0
LINE
5
D5
100
AcDbEntity
8
SK2
62
256
6
ByLayer
370
13
48
1
60
0
100
AcDbLine
10
0
20
-1.5875
30
0
11
0
21
-14.413398
31
0
39
0
210
0
220
0
230
1
0
LINE
5
D6
100
AcDbEntity
8
SK2
62
256
6
ByLayer
370
13
48
1
60
0
100
AcDbLine
10
29.26
20
-3.7875
30
0
11
29.26
21
-14.413398
31
0
39
0
210
0
220
0
230
1
0
LINE
5
D7
100
AcDbEntity
8
SK2
62
256
6
ByLayer
370
13
48
1
60
0
100
AcDbLine
10
0
20
-12.413398
30
0
11
29.26
21
-12.413398
31
0
39
0
210
0
220
0
230
1
0
SOLID
5
D8
100
AcDbEntity
8
SK2
62
256
6
ByLayer
370
13
48
1
60
0
100
AcDbTrace
10
0
20
-12.413398
30
0
11
3.499998
21
-11.952615
31
0
12
3.500002
22
-12.874182
32
0
13
0
23
-12.413398
33
0
39
0
210
0
220
0
230
1
0
SOLID
5
D9
100
AcDbEntity
8
SK2
62
256
6
ByLayer
370
13
48
1
60
0
100
AcDbTrace
10
29.26
20
-12.413398
30
0
11
25.760002
21
-12.874182
31
0
12
25.759998
22
-11.952615
32
0
13
29.26
23
-12.413398
33
0
39
0
210
0
220
0
230
1
0
ENDBLK
5
DB
100
AcDbEntity
8
0
100
AcDbBlockEnd
0
BLOCK
5
E4
100
AcDbEntity
8
0
100
AcDbBlockBegin
2
DimnDraft3D2
70
0
10
0
20
0
30
0
3
DimnDraft3D2
0
MTEXT
5
DE
100
AcDbEntity
8
SK2
62
256
6
ByLayer
370
13
48
1
60
0
100
AcDbMText
10
-6.847384
20
-30.817985
30
0
210
0
220
0
230
1
1
\W0.7317;66,00
40
3.5
41
0
44
1.084337
50
0
71
7
72
5
7
iso_b_vert
0
LINE
5
DF
100
AcDbEntity
8
SK2
62
256
6
ByLayer
370
13
48
1
60
0
100
AcDbLine
10
-36
20
-4.5875
30
0
11
-36
21
-33.692985
31
0
39
0
210
0
220
0
230
1
0
LINE
5
E0
100
AcDbEntity
8
SK2
62
256
6
ByLayer
370
13
48
1
60
0
100
AcDbLine
10
30
20
-1.5875
30
0
11
30
21
-33.692985
31
0
39
0
210
0
220
0
230
1
0
LINE
5
E1
100
AcDbEntity
8
SK2
62
256
6
ByLayer
370
13
48
1
60
0
100
AcDbLine
10
-36
20
-31.692985
30
0
11
30
21
-31.692985
31
0
39
0
210
0
220
0
230
1
0
SOLID
5
E2
100
AcDbEntity
8
SK2
62
256
6
ByLayer
370
13
48
1
60
0
100
AcDbTrace
10
-36
20
-31.692985
30
0
11
-32.500002
21
-31.232202
31
0
12
-32.499998
22
-32.153769
32
0
13
-36
23
-31.692985
33
0
39
0
210
0
220
0
230
1
0
SOLID
5
E3
100
AcDbEntity
8
SK2
62
256
6
ByLayer
370
13
48
1
60
0
100
AcDbTrace
10
30
20
-31.692985
30
0
11
26.500002
21
-32.153769
31
0
12
26.499998
22
-31.232202
32
0
13
30
23
-31.692985
33
0
39
0
210
0
220
0
230
1
0
ENDBLK
5
E5
100
AcDbEntity
8
0
100
AcDbBlockEnd
0
BLOCK
5
EE
100
AcDbEntity
8
0
100
AcDbBlockBegin
2
DimnDraft3D3
70
0
10
0
20
0
30
0
3
DimnDraft3D3
0
MTEXT
5
E8
100
AcDbEntity
8
SK2
62
256
6
ByLayer
370
13
48
1
60
0
100
AcDbMText
10
18.834605
20
14.684119
30
0
210
0
220
0
230
1
1
\W0.6898;13,94
40
3.5
41
0
44
1.084337
50
0
71
7
72
5
7
iso_b_vert
0
LINE
5
E9
100
AcDbEntity
8
SK2
62
256
6
ByLayer
370
13
48
1
60
0
100
AcDbLine
10
16.06
20
3.7875
30
0
11
16.06
21
15.809119
31
0
39
0
210
0
220
0
230
1
0
LINE
5
EA
100
AcDbEntity
8
SK2
62
256
6
ByLayer
370
13
48
1
60
0
100
AcDbLine
10
30
20
1.5875
30
0
11
30
21
15.809119
31
0
39
0
210
0
220
0
230
1
0
LINE
5
EB
100
AcDbEntity
8
SK2
62
256
6
ByLayer
370
13
48
1
60
0
100
AcDbLine
10
16.06
20
13.809119
30
0
11
30
21
13.809119
31
0
39
0
210
0
220
0
230
1
0
SOLID
5
EC
100
AcDbEntity
8
SK2
62
256
6
ByLayer
370
13
48
1
60
0
100
AcDbTrace
10
16.06
20
13.809119
30
0
11
19.559998
21
14.269903
31
0
12
19.560002
22
13.348335
32
0
13
16.06
23
13.809119
33
0
39
0
210
0
220
0
230
1
0
SOLID
5
ED
100
AcDbEntity
8
SK2
62
256
6
ByLayer
370
13
48
1
60
0
100
AcDbTrace
10
30
20
13.809119
30
0
11
26.500002
21
13.348335
31
0
12
26.499998
22
14.269903
32
0
13
30
23
13.809119
33
0
39
0
210
0
220
0
230
1
0
ENDBLK
5
EF
100
AcDbEntity
8
0
100
AcDbBlockEnd
0
BLOCK
5
F8
100
AcDbEntity
8
0
100
AcDbBlockBegin
2
DimnDraft3D4
70
0
10
0
20
0
30
0
3
DimnDraft3D4
0
MTEXT
5
F2
100
AcDbEntity
8
SK2
62
256
6
ByLayer
370
13
48
1
60
0
100
AcDbMText
10
36.656425
20
-14.127503
30
0
210
0
220
0
230
1
1
\W0.7383;0,74
40
3.5
41
0
44
1.084337
50
0
71
7
72
5
7
iso_b_vert
0
LINE
5
F3
100
AcDbEntity
8
SK2
62
256
6
ByLayer
370
13
48
1
60
0
100
AcDbLine
10
30
20
-1.5875
30
0
11
30
21
-17.002503
31
0
39
0
210
0
220
0
230
1
0
LINE
5
F4
100
AcDbEntity
8
SK2
62
256
6
ByLayer
370
13
48
1
60
0
100
AcDbLine
10
29.26
20
-3.7875
30
0
11
29.26
21
-17.002503
31
0
39
0
210
0
220
0
230
1
0
LINE
5
F5
100
AcDbEntity
8
SK2
62
256
6
ByLayer
370
13
48
1
60
0
100
AcDbLine
10
20.51
20
-15.002503
30
0
11
44.181425
21
-15.002503
31
0
39
0
210
0
220
0
230
1
0
SOLID
5
F6
100
AcDbEntity
8
SK2
62
256
6
ByLayer
370
13
48
1
60
0
100
AcDbTrace
10
30
20
-15.002503
30
0
11
33.499998
21
-14.541719
31
0
12
33.500002
22
-15.463287
32
0
13
30
23
-15.002503
33
0
39
0
210
0
220
0
230
1
0
SOLID
5
F7
100
AcDbEntity
8
SK2
62
256
6
ByLayer
370
13
48
1
60
0
100
AcDbTrace
10
29.26
20
-15.002503
30
0
11
25.760002
21
-15.463287
31
0
12
25.759998
22
-14.541719
32
0
13
29.26
23
-15.002503
33
0
39
0
210
0
220
0
230
1
0
ENDBLK
5
F9
100
AcDbEntity
8
0
100
AcDbBlockEnd
0
BLOCK
5
102
100
AcDbEntity
8
0
100
AcDbBlockBegin
2
DimnDraft3D5
70
0
10
0
20
0
30
0
3
DimnDraft3D5
0
MTEXT
5
FC
100
AcDbEntity
8
SK2
62
256
6
ByLayer
370
13
48
1
60
0
100
AcDbMText
10
-9.928008
20
-20.468428
30
0
210
0
220
0
230
1
1
\W0.7317;65,26
40
3.5
41
0
44
1.084337
50
0
71
7
72
5
7
iso_b_vert
0
LINE
5
FD
100
AcDbEntity
8
SK2
62
256
6
ByLayer
370
13
48
1
60
0
100
AcDbLine
10
-36
20
-4.5875
30
0
11
-36
21
-23.343428
31
0
39
0
210
0
220
0
230
1
0
LINE
5
FE
100
AcDbEntity
8
SK2
62
256
6
ByLayer
370
13
48
1
60
0
100
AcDbLine
10
29.26
20
-3.7875
30
0
11
29.26
21
-23.343428
31
0
39
0
210
0
220
0
230
1
0
LINE
5
FF
100
AcDbEntity
8
SK2
62
256
6
ByLayer
370
13
48
1
60
0
100
AcDbLine
10
-36
20
-21.343428
30
0
11
29.26
21
-21.343428
31
0
39
0
210
0
220
0
230
1
0
SOLID
5
100
100
AcDbEntity
8
SK2
62
256
6
ByLayer
370
13
48
1
60
0
100
AcDbTrace
10
-36
20
-21.343428
30
0
11
-32.500002
21
-20.882645
31
0
12
-32.499998
22
-21.804212
32
0
13
-36
23
-21.343428
33
0
39
0
210
0
220
0
230
1
0
SOLID
5
101
100
AcDbEntity
8
SK2
62
256
6
ByLayer
370
13
48
1
60
0
100
AcDbTrace
10
29.26
20
-21.343428
30
0
11
25.760002
21
-21.804212
31
0
12
25.759998
22
-20.882645
32
0
13
29.26
23
-21.343428
33
0
39
0
210
0
220
0
230
1
0
ENDBLK
5
103
100
AcDbEntity
8
0
100
AcDbBlockEnd
0
BLOCK
5
10D
100
AcDbEntity
8
0
100
AcDbBlockBegin
2
DimnDraft3D6
70
0
10
0
20
0
30
0
3
DimnDraft3D6
0
MTEXT
5
106
100
AcDbEntity
8
SK2
62
256
6
ByLayer
370
13
48
1
60
0
100
AcDbMText
10
-46.375163
20
22.34918
30
0
210
0
220
0
230
1
1
\W0.7317;6,000
40
3.5
41
0
44
1.084337
50
90
71
7
72
5
7
iso_b_vert
0
MTEXT
5
107
100
AcDbEntity
8
SK2
62
256
6
ByLayer
370
13
48
1
60
0
100
AcDbMText
10
-46.375163
20
17.126524
30
0
210
0
220
0
230
1
1
%%c
40
3.5
41
0
44
1.084337
50
90
71
7
72
5
7
iso_b_vert
0
LINE
5
108
100
AcDbEntity
8
SK2
62
256
6
ByLayer
370
13
48
1
60
0
100
AcDbLine
10
-37.5875
20
-3
30
0
11
-46.625163
21
-3
31
0
39
0
210
0
220
0
230
1
0
LINE
5
109
100
AcDbEntity
8
SK2
62
256
6
ByLayer
370
13
48
1
60
0
100
AcDbLine
10
-37.5875
20
3
30
0
11
-46.625163
21
3
31
0
39
0
210
0
220
0
230
1
0
LINE
5
10A
100
AcDbEntity
8
SK2
62
256
6
ByLayer
370
13
48
1
60
0
100
AcDbLine
10
-44.625163
20
32.121549
30
0
11
-44.625163
21
-11.75
31
0
39
0
210
0
220
0
230
1
0
SOLID
5
10B
100
AcDbEntity
8
SK2
62
256
6
ByLayer
370
13
48
1
60
0
100
AcDbTrace
10
-44.625163
20
-3
30
0
11
-44.164379
21
-6.499998
31
0
12
-45.085946
22
-6.500002
32
0
13
-44.625163
23
-3
33
0
39
0
210
0
220
0
230
1
0
SOLID
5
10C
100
AcDbEntity
8
SK2
62
256
6
ByLayer
370
13
48
1
60
0
100
AcDbTrace
10
-44.625163
20
3
30
0
11
-45.085946
21
6.499998
31
0
12
-44.164379
22
6.500002
32
0
13
-44.625163
23
3
33
0
39
0
210
0
220
0
230
1
0
ENDBLK
5
10E
100
AcDbEntity
8
0
100
AcDbBlockEnd
0
BLOCK
5
118
100
AcDbEntity
8
0
100
AcDbBlockBegin
2
DimnDraft3D7
70
0
10
0
20
0
30
0
3
DimnDraft3D7
0
MTEXT
5
111
100
AcDbEntity
8
2
62
256
6
ByLayer
370
13
48
1
60
0
100
AcDbMText
10
40.333343
20
20.142266
30
0
210
0
220
0
230
1
1
\W0.7845;4,400
40
3.5
41
0
44
1.084337
50
90
71
7
72
5
7
iso_b_vert
0
MTEXT
5
112
100
AcDbEntity
8
2
62
256
6
ByLayer
370
13
48
1
60
0
100
AcDbMText
10
40.333343
20
14.91961
30
0
210
0
220
0
230
1
1
%%c
40
3.5
41
0
44
1.084337
50
90
71
7
72
5
7
iso_b_vert
0
LINE
5
113
100
AcDbEntity
8
2
62
256
6
ByLayer
370
13
48
1
60
0
100
AcDbLine
10
30.8475
20
-2.2
30
0
11
44.083343
21
-2.2
31
0
39
0
210
0
220
0
230
1
0
LINE
5
114
100
AcDbEntity
8
2
62
256
6
ByLayer
370
13
48
1
60
0
100
AcDbLine
10
30.8475
20
2.2
30
0
11
44.083343
21
2.2
31
0
39
0
210
0
220
0
230
1
0
LINE
5
115
100
AcDbEntity
8
2
62
256
6
ByLayer
370
13
48
1
60
0
100
AcDbLine
10
42.083343
20
30.651477
30
0
11
42.083343
21
-10.95
31
0
39
0
210
0
220
0
230
1
0
SOLID
5
116
100
AcDbEntity
8
2
62
256
6
ByLayer
370
13
48
1
60
0
100
AcDbTrace
10
42.083343
20
-2.2
30
0
11
42.544126
21
-5.699998
31
0
12
41.622559
22
-5.700002
32
0
13
42.083343
23
-2.2
33
0
39
0
210
0
220
0
230
1
0
SOLID
5
117
100
AcDbEntity
8
2
62
256
6
ByLayer
370
13
48
1
60
0
100
AcDbTrace
10
42.083343
20
2.2
30
0
11
41.622559
21
5.699998
31
0
12
42.544126
22
5.700002
32
0
13
42.083343
23
2.2
33
0
39
0
210
0
220
0
230
1
0
ENDBLK
5
119
100
AcDbEntity
8
0
100
AcDbBlockEnd
0
ENDSEC
0
SECTION
2
ENTITIES
0
ARC
5
97
100
AcDbEntity
8
1
62
256
6
ByLayer
370
18
48
1
60
0
100
AcDbCircle
39
0
10
0
20
2.2
30
0
40
0.800000000000001
210
0
220
0
230
1
100
AcDbArc
50
29.309919
51
90
0
ARC
5
98
100
AcDbEntity
8
1
62
256
6
ByLayer
370
18
48
1
60
0
100
AcDbCircle
39
0
10
-1.395175
20
2.983253
30
0
40
0.799999999999996
210
0
220
0
230
-1
100
AcDbArc
50
269.965623
51
330.690081
0
ARC
5
99
100
AcDbEntity
8
1
62
256
6
ByLayer
370
18
48
1
60
0
100
AcDbCircle
39
0
10
0
20
-2.2
30
0
40
0.800000000000001
210
0
220
0
230
1
100
AcDbArc
50
270
51
330.690081
0
ARC
5
9A
100
AcDbEntity
8
1
62
256
6
ByLayer
370
18
48
1
60
0
100
AcDbCircle
39
0
10
-1.395175
20
-2.983253
30
0
40
0.799999999999996
210
0
220
0
230
-1
100
AcDbArc
50
29.309919
51
90.034377
0
ELLIPSE
5
9B
100
AcDbEntity
8
1
62
256
6
ByLayer
370
18
48
1
60
0
100
AcDbEllipse
10
8.25
20
2.324716
30
0
11
0.25
21
0
31
0
210
0
220
0
230
1
40
1
41
-2.48919697154489
42
-1.5620742876016
0
ELLIPSE
5
9C
100
AcDbEntity
8
1
62
256
6
ByLayer
370
18
48
1
60
0
100
AcDbEllipse
10
8.25
20
-2.324716
30
0
11
0.25
21
0
31
0
210
0
220
0
230
1
40
1
41
1.57621440139478
42
2.48579336230833
0
ELLIPSE
5
9D
100
AcDbEntity
8
1
62
256
6
ByLayer
370
18
48
1
60
0
100
AcDbEllipse
10
30.000204
20
0.000481
30
0
11
0.816009259552596
21
2.19778816374956
31
0
210
0
220
0
230
-1
40
0.131755
41
2.84156239692112
42
2.96991584839105
0
ELLIPSE
5
9E
100
AcDbEntity
8
1
62
256
6
ByLayer
370
13
48
1
60
0
100
AcDbEllipse
10
29.752656
20
0.983582
30
0
11
1.40497399373723
21
-0.967364547062337
31
0
210
0
220
0
230
-1
40
0.533762
41
1.44484622738072
42
1.74286393614303
0
ELLIPSE
5
9F
100
AcDbEntity
8
1
62
256
6
ByLayer
370
18
48
1
60
0
100
AcDbEllipse
10
29.860945
20
0.090488
30
0
11
0.0727819104903281
21
0.301917195727823
31
0
210
0
220
0
230
-1
40
0.478434
41
1.68222083933232
42
2.4597611997404
0
ELLIPSE
5
A0
100
AcDbEntity
8
1
62
256
6
ByLayer
370
18
48
1
60
0
100
AcDbEllipse
10
29.556684
20
1.10678
30
0
11
0.342659042804581
21
-0.922896382635734
31
0
210
0
220
0
230
-1
40
0.131755
41
-1.49773927830995
42
-0.73651812802251
0
ELLIPSE
5
A1
100
AcDbEntity
8
1
62
256
6
ByLayer
370
18
48
1
60
0
100
AcDbEllipse
10
30.058624
20
-0.026801
30
0
11
0.135544944374353
21
-0.427068209925252
31
0
210
0
220
0
230
-1
40
0.100282
41
1.71780982763576
42
2.33653286890184
0
ELLIPSE
5
A2
100
AcDbEntity
8
1
62
256
6
ByLayer
370
13
48
1
60
0
100
AcDbEllipse
10
29.942562
20
1.10678
30
0
11
1.46846182946344
21
-0.632687255059828
31
0
210
0
220
0
230
-1
40
0.458583
41
1.60196617796762
42
1.91194433728859
0
ELLIPSE
5
A3
100
AcDbEntity
8
1
62
256
6
ByLayer
370
18
48
1
60
0
100
AcDbEllipse
10
29.556684
20
-1.10678
30
0
11
0.342659042813986
21
0.922896382655856
31
0
210
0
220
0
230
-1
40
0.131755
41
0.736518128027007
42
1.4977392782979
0
ELLIPSE
5
A4
100
AcDbEntity
8
1
62
256
6
ByLayer
370
18
48
1
60
0
100
AcDbEllipse
10
30.058624
20
0.026801
30
0
11
0.135544944388974
21
0.427068209962587
31
0
210
0
220
0
230
-1
40
0.100282
41
-2.33653286890144
42
-1.71780982768538
0
ELLIPSE
5
A5
100
AcDbEntity
8
1
62
256
6
ByLayer
370
18
48
1
60
0
100
AcDbEllipse
10
30.000204
20
-0.000481
30
0
11
0.816009256964679
21
-2.19778815603937
31
0
210
0
220
0
230
-1
40
0.131755
41
-2.96991584808602
42
-2.84156239638706
0
ELLIPSE
5
A6
100
AcDbEntity
8
1
62
256
6
ByLayer
370
13
48
1
60
0
100
AcDbEllipse
10
29.6068
20
0.241281
30
0
11
0.153082081612418
21
0.258003636193774
31
0
210
0
220
0
230
1
40
0.454519
41
0.917105603404794
42
2.3133690050003
0
POINT
5
6C
100
AcDbEntity
8
81
62
256
6
ByLayer
370
18
48
1
60
0
100
AcDbPoint
10
30
20
0
30
0
39
0
210
0
220
0
230
1
50
360
0
POINT
5
6E
100
AcDbEntity
8
80
62
256
6
ByLayer
370
18
48
1
60
0
100
AcDbPoint
10
0
20
0
30
0
39
0
210
0
220
0
230
1
50
360
0
POINT
5
70
100
AcDbEntity
8
SK2
62
256
6
ByLayer
370
18
48
1
60
1
100
AcDbPoint
10
-36
20
-3
30
0
39
0
210
0
220
0
230
1
50
360
0
POINT
5
72
100
AcDbEntity
8
SK2
62
256
6
ByLayer
370
18
48
1
60
1
100
AcDbPoint
10
-36
20
3
30
0
39
0
210
0
220
0
230
1
50
360
0
POINT
5
73
100
AcDbEntity
8
2
62
256
6
ByLayer
370
18
48
1
60
1
100
AcDbPoint
10
29.26
20
-2.2
30
0
39
0
210
0
220
0
230
1
50
360
0
POINT
5
75
100
AcDbEntity
8
2
62
256
6
ByLayer
370
18
48
1
60
1
100
AcDbPoint
10
29.26
20
2.2
30
0
39
0
210
0
220
0
230
1
50
360
0
SPLINE
5
A7
100
AcDbEntity
8
1
62
256
6
ByLayer
370
18
48
1
60
0
100
AcDbSpline
70
4
71
3
72
17
73
13
40
0
40
0
40
0
40
0
40
0.113777092229726
40
0.215618465273893
40
0.302549564518695
40
0.392704675865302
40
0.484876667842878
40
0.577391903716117
40
0.661020437817168
40
0.745303675182318
40
0.866799801526831
40
1
40
1
40
1
40
1
41
1
10
8.25039517834099
20
-2.07459609519685
30
0
41
1
10
8.4163485513954
20
-2.07486859896082
30
0
41
1
10
8.7308432426444
20
-2.07522597808097
30
0
41
1
10
9.17211001340416
20
-2.07512832488049
30
0
41
1
10
9.57894481311573
20
-2.07499805417419
30
0
41
1
10
9.97168753114875
20
-2.07564766477492
30
0
41
1
10
10.3725714385096
20
-2.07590887039186
30
0
41
1
10
10.7639389566543
20
-2.07497181365565
30
0
41
1
10
11.1437954509209
20
-2.07614955914408
30
0
41
1
10
11.5659245009354
20
-2.07819200882767
30
0
41
1
10
12.0603460859821
20
-2.0764257659917
30
0
41
1
10
12.4318340898453
20
-2.07680185934703
30
0
41
1
10
12.6261122862992
20
-2.07697232255731
30
0
0
SPLINE
5
A8
100
AcDbEntity
8
1
62
256
6
ByLayer
370
18
48
1
60
0
100
AcDbSpline
70
4
71
3
72
18
73
14
40
0
40
0
40
0
40
0
40
0.124953114401271
40
0.210720369145726
40
0.265345470234908
40
0.315973853241834
40
0.411442915611449
40
0.497271664776226
40
0.673531416988672
40
0.719227705372418
40
0.782735997110203
40
0.883919014208823
40
1
40
1
40
1
40
1
41
1
10
18.0943474929638
20
-2.08051506097488
30
0
41
1
10
18.3199356237457
20
-2.08029060621325
30
0
41
1
10
18.7003963266793
20
-2.08009812484161
30
0
41
1
10
19.1795633634131
20
-2.08155629066638
30
0
41
1
10
19.5245247650948
20
-2.08125712813569
30
0
41
1
10
19.8870029070504
20
-2.08033961010864
30
0
41
1
10
20.3058353738358
20
-2.08096706653538
30
0
41
1
10
20.9515338952156
20
-2.08300141794743
30
0
41
1
10
21.5073517220575
20
-2.08113179718256
30
0
41
1
10
22.022870009391
20
-2.08061207624968
30
0
41
1
10
22.4027869801909
20
-2.08501584029693
30
0
41
1
10
22.9098103266477
20
-2.0810963870926
30
0
41
1
10
23.3021323883641
20
-2.08260921333957
30
0
41
1
10
23.5117415970467
20
-2.08339575180133
30
0
0
SPLINE
5
A9
100
AcDbEntity
8
1
62
256
6
ByLayer
370
18
48
1
60
0
100
AcDbSpline
70
4
71
3
72
18
73
14
40
0
40
0
40
0
40
0
40
0.1081117520832
40
0.211251310641076
40
0.281936218074215
40
0.347446468754729
40
0.416711923648979
40
0.487304437980688
40
0.571916984114413
40
0.65287895414863
40
0.732010790320559
40
0.852967207501742
40
1
40
1
40
1
40
1
41
1
10
12.6207662461945
20
2.07690188578579
30
0
41
1
10
12.4633535759293
20
2.07658323470335
30
0
41
1
10
12.155734255842
20
2.0762289082667
30
0
41
1
10
11.7448238826712
20
2.07751793284083
30
0
41
1
10
11.3963338793556
20
2.07758131662868
30
0
41
1
10
11.0970661902556
20
2.07588862784405
30
0
41
1
10
10.79784014983
20
2.07514982958537
30
0
41
1
10
10.4707961351378
20
2.07556193482432
30
0
41
1
10
10.1267035036194
20
2.07608476280865
30
0
41
1
10
9.77017548966856
20
2.07498849972148
30
0
41
1
10
9.36067511454121
20
2.07524226238269
30
0
41
1
10
8.85506459813618
20
2.07513002916545
30
0
41
1
10
8.4646076136994
20
2.07482060620157
30
0
41
1
10
8.2503753722047
20
2.07456343351385
30
0
0
SPLINE
5
AA
100
AcDbEntity
8
1
62
256
6
ByLayer
370
18
48
1
60
0
100
AcDbSpline
70
4
71
2
72
6
73
3
40
0
40
0
40
0
40
1
40
1
40
1
41
1
10
28.8572783355812
20
-2.08561497324391
30
0
41
1
10
29.0400332917352
20
-2.08567336778162
30
0
41
1
10
29.2230844870061
20
-2.08663462781371
30
0
0
SPLINE
5
AB
100
AcDbEntity
8
1
62
256
6
ByLayer
370
18
48
1
60
0
100
AcDbSpline
70
4
71
3
72
19
73
15
40
0
40
0
40
0
40
0
40
0.143234663449796
40
0.260491389293645
40
0.366479824267704
40
0.461510496909959
40
0.549684572503178
40
0.631111152307936
40
0.692045433937315
40
0.753982327561167
40
0.81684935762185
40
0.880326661032748
40
0.950901856014394
40
1
40
1
40
1
40
1
41
1
10
23.5128188604613
20
2.08340612599227
30
0
41
1
10
23.2995856204244
20
2.08260197434768
30
0
41
1
10
22.9117886488207
20
2.08128734562968
30
0
41
1
10
22.3662026330488
20
2.08488002289854
30
0
41
1
10
21.8923599091528
20
2.07990851488518
30
0
41
1
10
21.4618149107617
20
2.08144184515595
30
0
41
1
10
21.0678364195095
20
2.08349877412843
30
0
41
1
10
20.7246194714175
20
2.08179479033794
30
0
41
1
10
20.4204629464976
20
2.08141720914324
30
0
41
1
10
20.14393824549
20
2.08064035281831
30
0
41
1
10
19.8636250650478
20
2.08045443607534
30
0
41
1
10
19.5704521610189
20
2.08115662502271
30
0
41
1
10
19.2977844363
20
2.08151407990309
30
0
41
1
10
19.1196208170633
20
2.08122276102446
30
0
41
1
10
19.0465272272583
20
2.08107703500153
30
0
0
SPLINE
5
AC
100
AcDbEntity
8
1
62
256
6
ByLayer
370
18
48
1
60
0
100
AcDbSpline
70
4
71
3
72
14
73
10
40
0
40
0
40
0
40
0
40
0.499999999999993
40
0.499999999999993
40
0.749999999999997
40
0.749999999999997
40
0.874999999999998
40
0.874999999999998
40
1
40
1
40
1
40
1
41
1
10
29.7029680364886
20
-1.08444241354351
30
0
41
1
10
29.6374852791543
20
-1.25964958797653
30
0
41
1
10
29.5715184968996
20
-1.43441175034977
30
0
41
1
10
29.4725962241197
20
-1.69654575639842
30
0
41
1
10
29.4395068111008
20
-1.78377750908331
30
0
41
1
10
29.389703971088
20
-1.91435164761791
30
0
41
1
10
29.373111279242
20
-1.95789525328783
30
0
41
1
10
29.3398267032933
20
-2.04475544322429
30
0
41
1
10
29.323077008735
20
-2.08793971665167
30
0
41
1
10
29.3062305788334
20
-2.13090259181575
30
0
0
SPLINE
5
AD
100
AcDbEntity
8
1
62
256
6
ByLayer
370
13
48
1
60
0
100
AcDbSpline
70
4
71
3
72
8
73
4
40
0
40
0
40
0
40
0
40
1
40
1
40
1
40
1
41
1
10
8.13264302016185
20
-2.08131970115755
30
0
41
1
10
8.15330701278697
20
-2.06809100760432
30
0
41
1
10
8.17487598053856
20
-2.0593572972858
30
0
41
1
10
8.19713855634399
20
-2.05484494223802
30
0
0
SPLINE
5
AE
100
AcDbEntity
8
1
62
256
6
ByLayer
370
18
48
1
60
0
100
AcDbSpline
70
4
71
3
72
50
73
46
40
0
40
0
40
0
40
0
40
0.125000000000012
40
0.125000000000012
40
0.250000000000024
40
0.250000000000024
40
0.31250000000003
40
0.31250000000003
40
0.375000000000036
40
0.375000000000036
40
0.500000000000048
40
0.500000000000048
40
0.562500000000055
40
0.562500000000055
40
0.566406250000056
40
0.566406250000056
40
0.570312500000056
40
0.570312500000056
40
0.574218750000056
40
0.574218750000056
40
0.578125000000056
40
0.578125000000056
40
0.593750000000055
40
0.593750000000055
40
0.62500000000005
40
0.62500000000005
40
0.656250000000046
40
0.656250000000046
40
0.671875000000044
40
0.671875000000044
40
0.687500000000041
40
0.687500000000041
40
0.718750000000037
40
0.718750000000037
40
0.750000000000033
40
0.750000000000033
40
0.781250000000029
40
0.781250000000029
40
0.812500000000025
40
0.812500000000025
40
0.875000000000017
40
0.875000000000017
40
0.937500000000008
40
0.937500000000008
40
1
40
1
40
1
40
1
41
1
10
11.5840135761692
20
0.327632968722952
30
0
41
1
10
11.2491547796227
20
0.537360960257502
30
0
41
1
10
10.9088807249061
20
0.73624661414604
30
0
41
1
10
10.2247346424388
20
1.09027096349112
30
0
41
1
10
9.87918104988546
20
1.24601583017642
30
0
41
1
10
9.34719429690199
20
1.44135898531653
30
0
41
1
10
9.16759686285249
20
1.50015934987908
30
0
41
1
10
8.80273577181123
20
1.6050697597029
30
0
41
1
10
8.61708440371862
20
1.65126420089396
30
0
41
1
10
8.05306193695844
20
1.7712253911466
30
0
41
1
10
7.6705608744964
20
1.82600023554542
30
0
41
1
10
7.08502672243949
20
1.87982762509361
30
0
41
1
10
6.88787838157714
20
1.89302003792662
30
0
41
1
10
6.67773825326066
20
1.90240449437439
30
0
41
1
10
6.66537366564359
20
1.90293944842031
30
0
41
1
10
6.64063944058376
20
1.90397526524606
30
0
41
1
10
6.62830372322802
20
1.90405315965597
30
0
41
1
10
6.60381269612742
20
1.90167175767209
30
0
41
1
10
6.59300459696405
20
1.89875200779284
30
0
41
1
10
6.57131976415869
20
1.89313601809099
30
0
41
1
10
6.56051739875295
20
1.89026067357139
30
0
41
1
10
6.50679654129985
20
1.87554632440515
30
0
41
1
10
6.46478071436576
20
1.862715771892
30
0
41
1
10
6.34227717802008
20
1.82008832578509
30
0
41
1
10
6.26465669225144
20
1.78601076137866
30
0
41
1
10
6.131141330758
20
1.70114991803871
30
0
41
1
10
6.0740804436453
20
1.64898099468633
30
0
41
1
10
6.02164815483766
20
1.55501737163993
30
0
41
1
10
6.00964895488366
20
1.52078630556429
30
0
41
1
10
5.99833709136394
20
1.45013270257076
30
0
41
1
10
5.99880061099145
20
1.41278816283562
30
0
41
1
10
6.01669887206623
20
1.29958547783542
30
0
41
1
10
6.05013816213682
20
1.22266673638106
30
0
41
1
10
6.1374592183906
20
1.07547369192784
30
0
41
1
10
6.19216329515797
20
1.00338874839855
30
0
41
1
10
6.31111087982396
20
0.864632509265675
30
0
41
1
10
6.37538631572016
20
0.797875931220034
30
0
41
1
10
6.50989039636747
20
0.667268741234892
30
0
41
1
10
6.5801880280622
20
0.603448435809469
30
0
41
1
10
6.79746049584554
20
0.414783417760276
30
0
41
1
10
6.94742525753171
20
0.295348411192691
30
0
41
1
10
7.25255210173506
20
0.0627243941735856
30
0
41
1
10
7.4078341713892
20
-0.0503116841529732
30
0
41
1
10
7.72214897670997
20
-0.271987728812349
30
0
41
1
10
7.88189457324071
20
-0.381039731702884
30
0
41
1
10
8.04142189173382
20
-0.486709003164464
30
0
0
SPLINE
5
AF
100
AcDbEntity
8
1
62
256
6
ByLayer
370
18
48
1
60
0
100
AcDbSpline
70
4
71
3
72
17
73
13
40
0
40
0
40
0
40
0
40
0.25
40
0.25
40
0.5
40
0.5
40
0.625
40
0.625
40
0.75
40
0.875
40
0.875
40
1
40
1
40
1
40
1
41
1
10
29.240400856754
20
-2.08698149390591
30
0
41
1
10
29.1787107359291
20
-2.08694757206157
30
0
41
1
10
29.1230004411175
20
-2.06879727260303
30
0
41
1
10
29.0260516240067
20
-1.99201954052808
30
0
41
1
10
28.9866022485025
20
-1.93492790214617
30
0
41
1
10
28.9414992351217
20
-1.82013070178053
30
0
41
1
10
28.9287638457327
20
-1.77658375257508
30
0
41
1
10
28.9088107122209
20
-1.68062789044313
30
0
41
1
10
28.8944249054774
20
-1.57663034488536
30
0
41
1
10
28.8909683658187
20
-1.45684610139691
30
0
41
1
10
28.8931229358909
20
-1.32895693251061
30
0
41
1
10
28.8970637261169
20
-1.26076437171986
30
0
41
1
10
28.9037387584134
20
-1.19034176949083
30
0
0
SPLINE
5
B0
100
AcDbEntity
8
1
62
256
6
ByLayer
370
18
48
1
60
0
100
AcDbSpline
70
4
71
3
72
38
73
34
40
0
40
0
40
0
40
0
40
0.116614391608702
40
0.116614391608702
40
0.174921587413051
40
0.174921587413051
40
0.233228783217401
40
0.233228783217401
40
0.291535979021751
40
0.291535979021751
40
0.349843174826102
40
0.349843174826102
40
0.466457566434805
40
0.466457566434805
40
0.495611164336982
40
0.495611164336982
40
0.524764762239159
40
0.524764762239159
40
0.583071958043512
40
0.583071958043512
40
0.699686349652218
40
0.699686349652218
40
0.728839947554394
40
0.728839947554394
40
0.757993545456571
40
0.757993545456571
40
0.816300741260924
40
0.816300741260924
40
0.874607937065276
40
0.874607937065276
40
0.932915132869629
40
0.932915132869629
40
1
40
1
40
1
40
1
41
1
10
29.245659440048
20
-2.18336653400618
30
0
41
1
10
28.8046688562384
20
-2.21758740965643
30
0
41
1
10
28.3677824727303
20
-2.19803422630918
30
0
41
1
10
27.7067926498599
20
-2.09074288321045
30
0
41
1
10
27.4845460083238
20
-2.04152441452669
30
0
41
1
10
27.0433968333859
20
-1.91969473278741
30
0
41
1
10
26.823913320189
20
-1.84711889110903
30
0
41
1
10
26.3850221828594
20
-1.68075839796182
30
0
41
1
10
26.1656298432594
20
-1.58694903597851
30
0
41
1
10
25.7245960138942
20
-1.38026035181278
30
0
41
1
10
25.5021716154405
20
-1.26691838536337
30
0
41
1
10
24.8415537095456
20
-0.909664734324622
30
0
41
1
10
24.4063183183022
20
-0.646412141455471
30
0
41
1
10
23.857231408044
20
-0.303467621497219
30
0
41
1
10
23.7471741925135
20
-0.234164552139902
30
0
41
1
10
23.5262863950768
20
-0.0945694022193209
30
0
41
1
10
23.4151713528227
20
-0.0240552668306009
30
0
41
1
10
23.0836111208258
20
0.186481667154965
30
0
41
1
10
22.8641188560302
20
0.325284982515797
30
0
41
1
10
22.2069346412937
20
0.732033103193402
30
0
41
1
10
21.7712708702512
20
0.991434887915716
30
0
41
1
10
21.2174374148842
20
1.28207376327904
30
0
41
1
10
21.1063642273607
20
1.33846134878277
30
0
41
1
10
20.8856762750489
20
1.44645675027635
30
0
41
1
10
20.7757147549659
20
1.49817119880404
30
0
41
1
10
20.4465400746909
20
1.64604951917895
30
0
41
1
10
20.2280048576555
20
1.73490897814659
30
0
41
1
10
19.7903731275882
20
1.89094290307278
30
0
41
1
10
19.5712392104932
20
1.95809486627317
30
0
41
1
10
19.1302078122337
20
2.06865220215187
30
0
41
1
10
18.9075977821833
20
2.11213374390047
30
0
41
1
10
18.4341072379398
20
2.1765672836851
30
0
41
1
10
18.1822598785758
20
2.19360359785247
30
0
41
1
10
17.9304259636337
20
2.19323486189103
30
0
0
SPLINE
5
B1
100
AcDbEntity
8
1
62
256
6
ByLayer
370
18
48
1
60
0
100
AcDbSpline
70
4
71
3
72
8
73
4
40
0
40
0
40
0
40
0
40
1
40
1
40
1
40
1
41
1
10
29.245659440048
20
2.18336653400615
30
0
41
1
10
29.1034095066269
20
2.19440513088688
30
0
41
1
10
28.9615278489578
20
2.19985286948048
30
0
41
1
10
28.8197492174862
20
2.19975654070618
30
0
0
SPLINE
5
B2
100
AcDbEntity
8
1
62
256
6
ByLayer
370
18
48
1
60
0
100
AcDbSpline
70
4
71
3
72
36
73
32
40
0
40
0
40
0
40
0
40
0.0279169843870668
40
0.0279169843870668
40
0.14942736133868
40
0.14942736133868
40
0.179804955576583
40
0.179804955576583
40
0.210182549814486
40
0.210182549814486
40
0.270937738290294
40
0.270937738290294
40
0.392448115241911
40
0.392448115241911
40
0.513958492193528
40
0.513958492193528
40
0.574713680669337
40
0.574713680669337
40
0.605091274907242
40
0.605091274907242
40
0.635468869145147
40
0.635468869145147
40
0.756979246096765
40
0.756979246096765
40
0.787356840334669
40
0.787356840334669
40
0.817734434572574
40
0.817734434572574
40
0.878489623048382
40
0.878489623048382
40
1
40
1
40
1
40
1
41
1
10
18.9906908457995
20
-2.0926848133301
30
0
41
1
10
18.8890197916407
20
-2.11195365547061
30
0
41
1
10
18.787723999669
20
-2.12845978591071
30
0
41
1
10
18.2469098880945
20
-2.20198298147031
30
0
41
1
10
17.811012661628
20
-2.20929590746056
30
0
41
1
10
17.2614241851434
20
-2.15254235424158
30
0
41
1
10
17.1511972983698
20
-2.13789449394309
30
0
41
1
10
16.9298372953567
20
-2.10200502167726
30
0
41
1
10
16.8186300929917
20
-2.08072588245727
30
0
41
1
10
16.4870291877759
20
-2.00793563744264
30
0
41
1
10
16.2676807100087
20
-1.94712292094184
30
0
41
1
10
15.6107943962121
20
-1.73130655740758
30
0
41
1
10
15.1741614657534
20
-1.54332293158259
30
0
41
1
10
14.2862680308283
20
-1.09474384528477
30
0
41
1
10
13.8492734492235
20
-0.841510244231699
30
0
41
1
10
13.1921706010375
20
-0.440515812104025
30
0
41
1
10
12.9728298843869
20
-0.303172156147269
30
0
41
1
10
12.6415730066265
20
-0.0943487216721337
30
0
41
1
10
12.5304816349534
20
-0.0240721678766249
30
0
41
1
10
12.3088656717212
20
0.115971174394332
30
0
41
1
10
12.1984949499857
20
0.18563977493821
30
0
41
1
10
11.6480726679497
20
0.531075409463938
30
0
41
1
10
11.2122747546429
20
0.798102801139549
30
0
41
1
10
10.6624703835969
20
1.10377017621923
30
0
41
1
10
10.5522231065521
20
1.16344646791535
30
0
41
1
10
10.330852582954
20
1.2794228700607
30
0
41
1
10
10.2195789321443
20
1.33578362107483
30
0
41
1
10
9.88782490815277
20
1.49732373567795
30
0
41
1
10
9.66829681393622
20
1.59575344784292
30
0
41
1
10
9.01152783829821
20
1.86046454764789
30
0
41
1
10
8.57567406771034
20
1.99569813705114
30
0
41
1
10
8.13264302015153
20
2.08131970117489
30
0
0
SPLINE
5
B3
100
AcDbEntity
8
1
62
256
6
ByLayer
370
18
48
1
60
0
100
AcDbSpline
70
4
71
3
72
26
73
22
40
0
40
0
40
0
40
0
40
0.105063107879453
40
0.105063107879453
40
0.210126215758907
40
0.210126215758907
40
0.315189323638361
40
0.315189323638361
40
0.420252431517814
40
0.420252431517814
40
0.525315539397268
40
0.525315539397268
40
0.630378647276721
40
0.630378647276721
40
0.735441755156175
40
0.735441755156175
40
0.840504863035628
40
0.840504863035628
40
0.945567970915082
40
0.945567970915082
40
1
40
1
40
1
40
1
41
1
10
9.72117434801467
20
-1.38688975744537
30
0
41
1
10
9.90561873680863
20
-1.46915882570036
30
0
41
1
10
10.0897016198095
20
-1.54545018332655
30
0
41
1
10
10.4569622575842
20
-1.68388607827029
30
0
41
1
10
10.6406004054987
20
-1.7458478094218
30
0
41
1
10
11.0094525182145
20
-1.8555521577851
30
0
41
1
10
11.1932994632748
20
-1.9038078252091
30
0
41
1
10
11.5607570843536
20
-1.98282155377484
30
0
41
1
10
11.7446878596774
20
-2.01315217392718
30
0
41
1
10
12.1130554022739
20
-2.05685659261707
30
0
41
1
10
12.297145101638
20
-2.06962727700721
30
0
41
1
10
12.6649235679375
20
-2.07943137398686
30
0
41
1
10
12.8485298957241
20
-2.07581301888911
30
0
41
1
10
13.21736581052
20
-2.0513443356798
30
0
41
1
10
13.4012698825703
20
-2.03058315060733
30
0
41
1
10
13.7684071673009
20
-1.96937331598033
30
0
41
1
10
13.9523600160223
20
-1.93012782495592
30
0
41
1
10
14.3208557768788
20
-1.83681550243142
30
0
41
1
10
14.5047492246533
20
-1.78419278838706
30
0
41
1
10
14.7837673051082
20
-1.69064511359198
30
0
41
1
10
14.8788871871622
20
-1.65662187234352
30
0
41
1
10
14.9740821356904
20
-1.62072157162686
30
0
0
SPLINE
5
B4
100
AcDbEntity
8
1
62
256
6
ByLayer
370
18
48
1
60
0
100
AcDbSpline
70
4
71
3
72
20
73
16
40
0
40
0
40
0
40
0
40
0.142428323978542
40
0.142428323978542
40
0.285356936648785
40
0.285356936648785
40
0.428285549319028
40
0.428285549319028
40
0.571214161989271
40
0.571214161989271
40
0.714142774659514
40
0.714142774659514
40
0.857071387329757
40
0.857071387329757
40
1
40
1
40
1
40
1
41
1
10
23.5115311952397
20
2.08281205535155
30
0
41
1
10
23.6944463861771
20
2.08428985831336
30
0
41
1
10
23.8773494189337
20
2.07536403316777
30
0
41
1
10
24.2451565176891
20
2.04048049127408
30
0
41
1
10
24.4284788928868
20
2.01357287298728
30
0
41
1
10
24.7958838781612
20
1.94521703394884
30
0
41
1
10
24.979479923882
20
1.90323148280078
30
0
41
1
10
25.3477012272696
20
1.80135626940458
30
0
41
1
10
25.5315005927078
20
1.74273743492105
30
0
41
1
10
25.8987142415952
20
1.61186834749847
30
0
41
1
10
26.0822013178989
20
1.54016456368274
30
0
41
1
10
26.4508096468165
20
1.38237979267495
30
0
41
1
10
26.6342139083837
20
1.29664694896516
30
0
41
1
10
27.0013448026625
20
1.1161416872549
30
0
41
1
10
27.1852704799126
20
1.0216363726619
30
0
41
1
10
27.3693016462228
20
0.922570090909517
30
0
0
SPLINE
5
B5
100
AcDbEntity
8
1
62
256
6
ByLayer
370
18
48
1
60
0
100
AcDbSpline
70
4
71
3
72
60
73
56
40
0
40
0
40
0
40
0
40
0.0360665332737468
40
0.0360665332737468
40
0.0772151438656412
40
0.0772151438656412
40
0.118363754457536
40
0.118363754457536
40
0.138938059753482
40
0.138938059753482
40
0.159512365049429
40
0.159512365049429
40
0.200660975641322
40
0.200660975641322
40
0.241809586233215
40
0.241809586233215
40
0.282958196825109
40
0.282958196825109
40
0.324106807417002
40
0.324106807417002
40
0.365255418008895
40
0.365255418008895
40
0.406404028600789
40
0.406404028600789
40
0.447552639192682
40
0.447552639192682
40
0.488701249784575
40
0.488701249784575
40
0.529849860376469
40
0.529849860376469
40
0.570998470968362
40
0.570998470968362
40
0.612147081560255
40
0.612147081560255
40
0.653295692152148
40
0.653295692152148
40
0.694444302744041
40
0.694444302744041
40
0.715018608039989
40
0.715018608039989
40
0.735592913335936
40
0.735592913335936
40
0.77674152392783
40
0.77674152392783
40
0.817890134519725
40
0.817890134519725
40
0.859038745111619
40
0.859038745111619
40
0.900187355703515
40
0.900187355703515
40
0.94133596629541
40
0.94133596629541
40
0.982484576887306
40
0.982484576887306
40
1
40
1
40
1
40
1
41
1
10
14.9780510398294
20
1.61604261592726
30
0
41
1
10
15.1401204593581
20
1.68518394633009
30
0
41
1
10
15.3019335311523
20
1.74880689252791
30
0
41
1
10
15.647601837837
20
1.87333241823651
30
0
41
1
10
15.8329683118441
20
1.93158451259643
30
0
41
1
10
16.2027017900041
20
2.0317096329176
30
0
41
1
10
16.3866291337571
20
2.07339810915886
30
0
41
1
10
16.663627258787
20
2.1221166734839
30
0
41
1
10
16.7560168946371
20
2.13613574546633
30
0
41
1
10
16.9407832902507
20
2.15971708029204
30
0
41
1
10
17.0331554684315
20
2.16928360835485
30
0
41
1
10
17.3101722244574
20
2.19078083534708
30
0
41
1
10
17.4949368643875
20
2.19576653072698
30
0
41
1
10
17.8635971608654
20
2.18715260130648
30
0
41
1
10
18.048658813006
20
2.173420488266
30
0
41
1
10
18.4184132495456
20
2.12781185933946
30
0
41
1
10
18.6021978995029
20
2.0956361427115
30
0
41
1
10
18.971383717912
20
2.01420700918862
30
0
41
1
10
19.1567304779019
20
1.96466770216941
30
0
41
1
10
19.5256274470985
20
1.84889611020023
30
0
41
1
10
19.7101670636191
20
1.78341871487638
30
0
41
1
10
20.0792675113284
20
1.63732250653274
30
0
41
1
10
20.2640101293007
20
1.55614762112589
30
0
41
1
10
20.6335636605377
20
1.38309787217642
30
0
41
1
10
20.8176177166765
20
1.29007800186966
30
0
41
1
10
21.1864226662283
20
1.09361723879709
30
0
41
1
10
21.37208906162
20
0.990780973700566
30
0
41
1
10
21.7408471327492
20
0.776389913548059
30
0
41
1
10
21.9249939801107
20
0.665753386329072
30
0
41
1
10
22.2943797423414
20
0.440005609049223
30
0
41
1
10
22.4790773102796
20
0.323416137072542
30
0
41
1
10
22.8482119484919
20
0.0909399332708176
30
0
41
1
10
23.0326806716517
20
-0.0256861207444956
30
0
41
1
10
23.4012507752608
20
-0.259991015767184
30
0
41
1
10
23.586774960348
20
-0.375823270812617
30
0
41
1
10
23.9556837465287
20
-0.603760936452204
30
0
41
1
10
24.1394763817823
20
-0.716096900868621
30
0
41
1
10
24.4166345285032
20
-0.878445702614272
30
0
41
1
10
24.5092435813466
20
-0.931793814321082
30
0
41
1
10
24.6939912988217
20
-1.03665459775291
30
0
41
1
10
24.786017776972
20
-1.08824199232632
30
0
41
1
10
25.0624857342056
20
-1.23850412606552
30
0
41
1
10
25.2471194758912
20
-1.3330386696625
30
0
41
1
10
25.6160344583056
20
-1.51203345661796
30
0
41
1
10
25.8009882433932
20
-1.59544559144908
30
0
41
1
10
26.1700355717826
20
-1.74716092025122
30
0
41
1
10
26.3537195598735
20
-1.81647726601324
30
0
41
1
10
26.7232359312804
20
-1.93836067384504
30
0
41
1
10
26.9083104200894
20
-1.99134671456324
30
0
41
1
10
27.2765629224961
20
-2.08014288047804
30
0
41
1
10
27.4610456276049
20
-2.11558488731015
30
0
41
1
10
27.8305170546622
20
-2.1687180639731
30
0
41
1
10
28.0148676521936
20
-2.18622440898216
30
0
41
1
10
28.2778590480334
20
-2.19767690907582
30
0
41
1
10
28.3562931142106
20
-2.19941893322093
30
0
41
1
10
28.4347241801222
20
-2.19947119758268
30
0
0
SPLINE
5
B6
100
AcDbEntity
8
1
62
256
6
ByLayer
370
13
48
1
60
0
100
AcDbSpline
70
4
71
3
72
22
73
18
40
0
40
0
40
0
40
0
40
0.0006443673545323
40
0.0006443673545323
40
0.0775178775580298
40
0.0775178775580298
40
0.231264897965025
40
0.231264897965025
40
0.38501191837202
40
0.38501191837202
40
0.538758938779015
40
0.538758938779015
40
0.69250595918601
40
0.69250595918601
40
0.846252979593005
40
0.846252979593005
40
1
40
1
40
1
40
1
41
1
10
8.25041824690319
20
-2.07470072949568
30
0
41
1
10
8.25041827000715
20
-2.07469844926013
30
0
41
1
10
8.25041829302393
20
-2.07469592841198
30
0
41
1
10
8.25042105150123
20
-2.07436371776362
30
0
41
1
10
8.25042257499331
20
-2.07065636581859
30
0
41
1
10
8.25042508703086
20
-2.04964612737962
30
0
41
1
10
8.25042404258855
20
-2.02255252790039
30
0
41
1
10
8.25042380501722
20
-1.94116018620423
30
0
41
1
10
8.25042468945838
20
-1.88738144197663
30
0
41
1
10
8.25043392391197
20
-1.7562249296746
30
0
41
1
10
8.25044219113366
20
-1.67975294649992
30
0
41
1
10
8.25046854547065
20
-1.50556723149617
30
0
41
1
10
8.25048691452315
20
-1.40667038108347
30
0
41
1
10
8.25053204057471
20
-1.19423809180296
30
0
41
1
10
8.25055877345116
20
-1.08041399123144
30
0
41
1
10
8.25061722872042
20
-0.837292501452509
30
0
41
1
10
8.25064864996466
20
-0.709181331893092
30
0
41
1
10
8.25067859582225
20
-0.57704775968071
30
0
0
SPLINE
5
B7
100
AcDbEntity
8
1
62
256
6
ByLayer
370
18
48
1
60
0
100
AcDbSpline
70
4
71
3
72
30
73
26
40
0
40
0
40
0
40
0
40
0.0929105623147189
40
0.0929105623147189
40
0.185821124629438
40
0.185821124629438
40
0.278731686944157
40
0.278731686944157
40
0.371642249258876
40
0.371642249258876
40
0.464552811573594
40
0.464552811573594
40
0.557463373888313
40
0.557463373888313
40
0.650373936203032
40
0.650373936203032
40
0.743284498517751
40
0.743284498517751
40
0.83619506083247
40
0.83619506083247
40
0.882650341989829
40
0.882650341989829
40
0.929105623147189
40
0.929105623147189
40
1
40
1
40
1
40
1
41
1
10
11.5849209856769
20
0.327092408913728
30
0
41
1
10
11.7696766659461
20
0.210828340255432
30
0
41
1
10
11.9546177178788
20
0.0949034533843758
30
0
41
1
10
12.3237542712282
20
-0.138044434318175
30
0
41
1
10
12.5079660633911
20
-0.255321080892827
30
0
41
1
10
12.8784726297475
20
-0.485308944103394
30
0
41
1
10
13.0627802553735
20
-0.5988618152941
30
0
41
1
10
13.4315227556629
20
-0.819947604666424
30
0
41
1
10
13.6167871367132
20
-0.926751214571851
30
0
41
1
10
13.9864878119032
20
-1.13365311310608
30
0
41
1
10
14.1708028516726
20
-1.23227942151553
30
0
41
1
10
14.5401015784195
20
-1.41777752935099
30
0
41
1
10
14.7245386554354
20
-1.50582636086548
30
0
41
1
10
15.0945117829482
20
-1.66714555956392
30
0
41
1
10
15.2791826435279
20
-1.74061098278733
30
0
41
1
10
15.6476018378372
20
-1.8733324182366
30
0
41
1
10
15.8329683118443
20
-1.93158451259651
30
0
41
1
10
16.2027017900044
20
-2.03170963291765
30
0
41
1
10
16.3866291337574
20
-2.07339810915892
30
0
41
1
10
16.6636272587872
20
-2.12211667348396
30
0
41
1
10
16.7560168946374
20
-2.13613574546639
30
0
41
1
10
16.9407832902509
20
-2.15971708029207
30
0
41
1
10
17.0331554684318
20
-2.16928360835487
30
0
41
1
10
17.2664107681009
20
-2.18738483153018
30
0
41
1
10
17.4073776880237
20
-2.19287892823078
30
0
41
1
10
17.5481635551412
20
-2.19295524411905
30
0
0
SPLINE
5
B8
100
AcDbEntity
8
1
62
256
6
ByLayer
370
18
48
1
60
0
100
AcDbSpline
70
4
71
3
72
20
73
16
40
0
40
0
40
0
40
0
40
0.0357493948814044
40
0.0357493948814044
40
0.196457829067833
40
0.196457829067833
40
0.357166263254267
40
0.357166263254267
40
0.5178746974407
40
0.5178746974407
40
0.678583131627133
40
0.678583131627133
40
0.839291565813567
40
0.839291565813567
40
1
40
1
40
1
40
1
41
1
10
25.8623170624026
20
1.61957462990534
30
0
41
1
10
25.9033964963055
20
1.63718054494854
30
0
41
1
10
25.9444648438818
20
1.65442881106361
30
0
41
1
10
26.1700355717832
20
1.74716092025145
30
0
41
1
10
26.3537195598741
20
1.81647726601349
30
0
41
1
10
26.7232359312811
20
1.93836067384524
30
0
41
1
10
26.9083104200901
20
1.99134671456346
30
0
41
1
10
27.2765629224969
20
2.08014288047818
30
0
41
1
10
27.4610456276056
20
2.11558488731026
30
0
41
1
10
27.8305170546629
20
2.16871806397319
30
0
41
1
10
28.0148676521944
20
2.18622440898221
30
0
41
1
10
28.383806842122
20
2.20229062321596
30
0
41
1
10
28.567792219593
20
2.20106614648378
30
0
41
1
10
28.9369918607823
20
2.17978070493035
30
0
41
1
10
29.1221633220298
20
2.15993952969598
30
0
41
1
10
29.3062305788254
20
2.13090259180444
30
0
0
SPLINE
5
B9
100
AcDbEntity
8
1
62
256
6
ByLayer
370
18
48
1
60
0
100
AcDbSpline
70
4
71
3
72
30
73
26
40
0
40
0
40
0
40
0
40
0.249999999999994
40
0.249999999999994
40
0.374999999999998
40
0.374999999999998
40
0.500000000000002
40
0.500000000000002
40
0.625000000000005
40
0.625000000000005
40
0.687500000000007
40
0.687500000000007
40
0.750000000000009
40
0.750000000000009
40
0.812500000000011
40
0.812500000000011
40
0.875000000000013
40
0.875000000000013
40
0.90625000000001
40
0.90625000000001
40
0.937500000000007
40
0.937500000000007
40
0.968750000000003
40
0.968750000000003
40
1
40
1
40
1
40
1
41
1
10
27.3693016462237
20
0.922570090909062
30
0
41
1
10
27.5111606723913
20
0.78978545842935
30
0
41
1
10
27.6588386938769
20
0.668162476422708
30
0
41
1
10
27.8863645732195
20
0.508473950267359
30
0
41
1
10
27.9629130744776
20
0.459272533226056
30
0
41
1
10
28.117562997073
20
0.369723113483673
30
0
41
1
10
28.1956735167252
20
0.329386367710725
30
0
41
1
10
28.3515444311475
20
0.259588679735657
30
0
41
1
10
28.4298606052309
20
0.229906110775403
30
0
41
1
10
28.5459561492373
20
0.195015113781267
30
0
41
1
10
28.5844335176666
20
0.184983313905718
30
0
41
1
10
28.6609133799974
20
0.168352294994548
30
0
41
1
10
28.6992062878474
20
0.161113019497066
30
0
41
1
10
28.7736459920241
20
0.154588726558671
30
0
41
1
10
28.8098104514952
20
0.154948863509702
30
0
41
1
10
28.8777302907678
20
0.168675084511534
30
0
41
1
10
28.908460660869
20
0.181553298717432
30
0
41
1
10
28.9473673218499
20
0.213362906224489
30
0
41
1
10
28.9587515646156
20
0.225751710940557
30
0
41
1
10
28.9782292454938
20
0.25423745117601
30
0
41
1
10
28.9863632408511
20
0.270600855647729
30
0
41
1
10
28.9982845449171
20
0.306119324307161
30
0
41
1
10
29.0022228320572
20
0.325233922309394
30
0
41
1
10
29.0057869711023
20
0.366353258504518
30
0
41
1
10
29.0052629303777
20
0.38831419989279
30
0
41
1
10
29.0033792400049
20
0.410367282174405
30
0
0
SPLINE
5
BA
100
AcDbEntity
8
1
62
256
6
ByLayer
370
18
48
1
60
0
100
AcDbSpline
70
4
71
3
72
14
73
10
40
0
40
0
40
0
40
0
40
0.5
40
0.5
40
0.75
40
0.75
40
0.875
40
0.875
40
1
40
1
40
1
40
1
41
1
10
29.7029680364886
20
1.08444241354346
30
0
41
1
10
29.6374852791543
20
1.25964958797647
30
0
41
1
10
29.5715184968996
20
1.43441175034968
30
0
41
1
10
29.4725962241197
20
1.69654575639834
30
0
41
1
10
29.4395068111009
20
1.78377750908325
30
0
41
1
10
29.389703971088
20
1.91435164761782
30
0
41
1
10
29.3731112792421
20
1.95789525328777
30
0
41
1
10
29.3398267032933
20
2.0447554432242
30
0
41
1
10
29.323077008735
20
2.08793971665159
30
0
41
1
10
29.3062305788334
20
2.13090259181567
30
0
0
SPLINE
5
BB
100
AcDbEntity
8
1
62
256
6
ByLayer
370
18
48
1
60
0
100
AcDbSpline
70
4
71
3
72
12
73
8
40
0
40
0
40
0
40
0
40
0.124618637187145
40
0.124618637187145
40
0.418865331618579
40
0.418865331618579
40
1
40
1
40
1
40
1
41
1
10
28.8848383670014
20
-2.08559641921153
30
0
41
1
10
28.7916056031302
20
-2.08357414208271
30
0
41
1
10
28.6984920791812
20
-2.07928785948963
30
0
41
1
10
28.3865230549347
20
-2.05737194490436
30
0
41
1
10
28.1685973371058
20
-2.02960752297338
30
0
41
1
10
27.5213289248446
20
-1.91210351450934
30
0
41
1
10
27.0923165293921
20
-1.78843354673484
30
0
41
1
10
26.6570787305433
20
-1.62378272143423
30
0
0
SPLINE
5
BC
100
AcDbEntity
8
1
62
256
6
ByLayer
370
13
48
1
60
0
100
AcDbSpline
70
4
71
3
72
24
73
20
40
0
40
0
40
0
40
0
40
0.0027586552255566
40
0.0027586552255566
40
0.223362024257312
40
0.223362024257312
40
0.333663708773192
40
0.333663708773192
40
0.443965393289071
40
0.443965393289071
40
0.664568762320827
40
0.664568762320827
40
0.719719604578765
40
0.719719604578765
40
0.774870446836704
40
0.774870446836704
40
0.885172131352578
40
0.885172131352578
40
1
40
1
40
1
40
1
41
1
10
26.657079665852
20
-1.62378307526222
30
0
41
1
10
26.6515680786186
20
-1.62169803787782
30
0
41
1
10
26.6460554930708
20
-1.61960642874004
30
0
41
1
10
26.1996320415429
20
-1.44972227543832
30
0
41
1
10
25.7657230908246
20
-1.24546515112294
30
0
41
1
10
25.112685875342
20
-0.902394589835183
30
0
41
1
10
24.8946521052732
20
-0.781895786791836
30
0
41
1
10
24.4560009809256
20
-0.531328718416177
30
0
41
1
10
24.2349249024242
20
-0.401020854421176
30
0
41
1
10
23.5782084885505
20
-0.0095072537040153
30
0
41
1
10
23.1450702336392
20
0.255601368000015
30
0
41
1
10
22.5986745824523
20
0.573927836628172
30
0
41
1
10
22.489146759573
20
0.636937783382791
30
0
41
1
10
22.2693561368716
20
0.761241877816275
30
0
41
1
10
22.1588340455671
20
0.822658504401204
30
0
41
1
10
21.8290811737483
20
1.00233266428921
30
0
41
1
10
21.6106834544923
20
1.11589241251053
30
0
41
1
10
21.1656909035674
20
1.33209181885303
30
0
41
1
10
20.9392956417017
20
1.43433453183678
30
0
41
1
10
20.7122648930702
20
1.52700645601982
30
0
0
SPLINE
5
BD
100
AcDbEntity
8
1
62
256
6
ByLayer
370
18
48
1
60
0
100
AcDbSpline
70
4
71
3
72
16
73
12
40
0
40
0
40
0
40
0
40
0.25
40
0.25
40
0.5
40
0.5
40
0.75
40
0.75
40
0.875
40
0.875
40
1
40
1
40
1
40
1
41
1
10
29.1778412943231
20
0.683853989424193
30
0
41
1
10
29.2362394727562
20
0.697866830764923
30
0
41
1
10
29.2939705763178
20
0.713807413474456
30
0
41
1
10
29.407182603973
20
0.752411826785419
30
0
41
1
10
29.4629557607731
20
0.775058107120628
30
0
41
1
10
29.5670802649
20
0.832609215010109
30
0
41
1
10
29.6166324746952
20
0.867703036653211
30
0
41
1
10
29.6717947881612
20
0.939299974352338
30
0
41
1
10
29.6861845378965
20
0.96584284584074
30
0
41
1
10
29.7033982944856
20
1.02377229039857
30
0
41
1
10
29.7058247921046
20
1.0542792300914
30
0
41
1
10
29.7029680364885
20
1.08444241354337
30
0
0
SPLINE
5
BE
100
AcDbEntity
8
1
62
256
6
ByLayer
370
18
48
1
60
0
100
AcDbSpline
70
4
71
3
72
28
73
24
40
0
40
0
40
0
40
0
40
0.0301475951818712
40
0.0301475951818712
40
0.110968628916717
40
0.110968628916717
40
0.151379145784139
40
0.151379145784139
40
0.191789662651561
40
0.191789662651561
40
0.353431730121247
40
0.353431730121247
40
0.434252763856091
40
0.434252763856091
40
0.515073797590935
40
0.515073797590935
40
0.676715865060624
40
0.676715865060624
40
0.838357932530314
40
0.838357932530314
40
0.919178966265157
40
0.919178966265157
40
1
40
1
40
1
40
1
41
1
10
21.1195108018948
20
1.32248096847866
30
0
41
1
10
21.2008692336422
20
1.28181668878338
30
0
41
1
10
21.2822551257172
20
1.24006115777351
30
0
41
1
10
21.5821475195013
20
1.08263508933516
30
0
41
1
10
21.8009867210225
20
0.960419850917958
30
0
41
1
10
22.1315785438321
20
0.767787141581437
30
0
41
1
10
22.2423239112758
20
0.702117562832512
30
0
41
1
10
22.4624701798511
20
0.569717916777989
30
0
41
1
10
22.5721750154733
20
0.502800630407904
30
0
41
1
10
23.1193982896649
20
0.165509073989341
30
0
41
1
10
23.5529843818968
20
-0.113026078810776
30
0
41
1
10
24.211289148337
20
-0.520967830497057
30
0
41
1
10
24.433018957962
20
-0.656166757777498
30
0
41
1
10
24.8722582726798
20
-0.914509837045273
30
0
41
1
10
25.0905677397992
20
-1.03799959245743
30
0
41
1
10
25.7445025440224
20
-1.38768228265175
30
0
41
1
10
26.1794286218295
20
-1.59333384600512
30
0
41
1
10
27.0634045352949
20
-1.92408573141063
30
0
41
1
10
27.4977540759301
20
-2.04371974217426
30
0
41
1
10
28.151607232872
20
-2.14849528198158
30
0
41
1
10
28.3699968670273
20
-2.17094464412531
30
0
41
1
10
28.8094473854046
20
-2.18963703530264
30
0
41
1
10
29.0307980898482
20
-2.1857497067343
30
0
41
1
10
29.2513656098666
20
-2.16842686953987
30
0
0
SPLINE
5
BF
100
AcDbEntity
8
1
62
256
6
ByLayer
370
18
48
1
60
0
100
AcDbSpline
70
4
71
3
72
20
73
16
40
0
40
0
40
0
40
0
40
0.125
40
0.125
40
0.25
40
0.25
40
0.375
40
0.375
40
0.5
40
0.5
40
0.625
40
0.625
40
0.75
40
0.75
40
1
40
1
40
1
40
1
41
1
10
27.3693016462223
20
0.922570090908465
30
0
41
1
10
27.3832722845561
20
0.820516685986775
30
0
41
1
10
27.4081366531317
20
0.71635619254414
30
0
41
1
10
27.478166018228
20
0.50410861493225
30
0
41
1
10
27.5219644171915
20
0.400058330250772
30
0
41
1
10
27.6238372972239
20
0.195679644808166
30
0
41
1
10
27.6824834194918
20
0.0946599156818593
30
0
41
1
10
27.8080430642476
20
-0.0980647331269324
30
0
41
1
10
27.8752539199273
20
-0.190536523995121
30
0
41
1
10
28.0168034387622
20
-0.369221751949283
30
0
41
1
10
28.0914939985922
20
-0.455761643376434
30
0
41
1
10
28.2456135459778
20
-0.621728205820403
30
0
41
1
10
28.3244701416315
20
-0.700601898736664
30
0
41
1
10
28.5655430650102
20
-0.926923661716586
30
0
41
1
10
28.7321630610425
20
-1.06429991377635
30
0
41
1
10
28.9037387584134
20
-1.19034176949086
30
0
0
SPLINE
5
C0
100
AcDbEntity
8
1
62
256
6
ByLayer
370
18
48
1
60
0
100
AcDbSpline
70
4
71
3
72
12
73
8
40
0
40
0
40
0
40
0
40
0.499999999999971
40
0.499999999999971
40
0.749999999999985
40
0.749999999999985
40
1
40
1
40
1
40
1
41
1
10
8.25067859582225
20
-0.577047759676532
30
0
41
1
10
8.21196924385319
20
-0.552209292189048
30
0
41
1
10
8.17340056521243
20
-0.531131449995883
30
0
41
1
10
8.11824346879999
20
-0.507094478168227
30
0
41
1
10
8.10083895081101
20
-0.500589833507775
30
0
41
1
10
8.06841379223329
20
-0.490876955597997
30
0
41
1
10
8.05372142819516
20
-0.487803896161296
30
0
41
1
10
8.04142189181024
20
-0.486709003215054
30
0
0
SPLINE
5
C1
100
AcDbEntity
8
1
62
256
6
ByLayer
370
18
48
1
60
0
100
AcDbSpline
70
4
71
3
72
8
73
4
40
0
40
0
40
0
40
0
40
1
40
1
40
1
40
1
41
1
10
8.13264302017643
20
2.08131970116656
30
0
41
1
10
8.12589405045748
20
2.08262402813585
30
0
41
1
10
8.11921161883294
20
2.08395138546254
30
0
41
1
10
8.11267545005208
20
2.08532800505563
30
0
0
SPLINE
5
C2
100
AcDbEntity
8
1
62
256
6
ByLayer
370
18
48
1
60
0
100
AcDbSpline
70
4
71
3
72
10
73
6
40
0
40
0
40
0
40
0
40
0.5
40
0.5
40
1
40
1
40
1
40
1
41
1
10
9.72108422715652
20
-1.38686266854359
30
0
41
1
10
9.47142019489058
20
-1.27581590162396
30
0
41
1
10
9.22394913749773
20
-1.15019911556945
30
0
41
1
10
8.73489287626836
20
-0.878514345375692
30
0
41
1
10
8.49256541668663
20
-0.732258261267503
30
0
41
1
10
8.25067859613608
20
-0.577047759878099
30
0
0
SPLINE
5
C3
100
AcDbEntity
8
1
62
256
6
ByLayer
370
18
48
1
60
0
100
AcDbSpline
70
4
71
3
72
62
73
58
40
0
40
0
40
0
40
0
40
0.0113873060215035
40
0.0113873060215035
40
0.0530239164786457
40
0.0530239164786457
40
0.094660526935788
40
0.094660526935788
40
0.13629713739293
40
0.13629713739293
40
0.177933747850072
40
0.177933747850072
40
0.219570358307215
40
0.219570358307215
40
0.261206968764357
40
0.261206968764357
40
0.282025273992929
40
0.282025273992929
40
0.302843579221501
40
0.302843579221501
40
0.344480189678644
40
0.344480189678644
40
0.365298494907216
40
0.365298494907216
40
0.386116800135787
40
0.386116800135787
40
0.427753410592931
40
0.427753410592931
40
0.469390021050074
40
0.469390021050074
40
0.511026631507218
40
0.511026631507218
40
0.552663241964361
40
0.552663241964361
40
0.594299852421505
40
0.594299852421505
40
0.635936462878648
40
0.635936462878648
40
0.677573073335791
40
0.677573073335791
40
0.698391378564362
40
0.698391378564362
40
0.719209683792933
40
0.719209683792933
40
0.760846294250075
40
0.760846294250075
40
0.802482904707216
40
0.802482904707216
40
0.844119515164357
40
0.844119515164357
40
0.885756125621498
40
0.885756125621498
40
0.927392736078639
40
0.927392736078639
40
0.96902934653578
40
0.96902934653578
40
1
40
1
40
1
40
1
41
1
10
25.8666690376205
20
-1.62184147851977
30
0
41
1
10
25.8164496044856
20
-1.64070133704303
30
0
41
1
10
25.7662081261661
20
-1.65908568097248
30
0
41
1
10
25.5320830384671
20
-1.74255060521182
30
0
41
1
10
25.3478235969081
20
-1.80129933929999
30
0
41
1
10
24.9809338053065
20
-1.90285221505647
30
0
41
1
10
24.7975059047567
20
-1.94487885932128
30
0
41
1
10
24.4295944973499
20
-2.01340144052657
30
0
41
1
10
24.2458469102515
20
-2.04037095047744
30
0
41
1
10
23.8787628251774
20
-2.07527371690412
30
0
41
1
10
23.6954540635988
20
-2.08430850655503
30
0
41
1
10
23.3277219307441
20
-2.08131665807017
30
0
41
1
10
23.1434431778621
20
-2.07260133794108
30
0
41
1
10
22.7761636282319
20
-2.0386416435565
30
0
41
1
10
22.5930308465344
20
-2.01334305062633
30
0
41
1
10
22.3169214754462
20
-1.96102759678166
30
0
41
1
10
22.2246830264291
20
-1.94073134054395
30
0
41
1
10
22.0406990598449
20
-1.89638309884521
30
0
41
1
10
21.9488106579599
20
-1.87272667986463
30
0
41
1
10
21.6731251060938
20
-1.79639842602972
30
0
41
1
10
21.4891943209628
20
-1.73867545899765
30
0
41
1
10
21.2132595621417
20
-1.64062523057507
30
0
41
1
10
21.1211931332103
20
-1.60603393534936
30
0
41
1
10
20.9372761521001
20
-1.53322614006078
30
0
41
1
10
20.8453445133404
20
-1.49502824994391
30
0
41
1
10
20.5697413511115
20
-1.37612446452474
30
0
41
1
10
20.3863731617888
20
-1.29069169731633
30
0
41
1
10
20.0180015622825
20
-1.10949465253563
30
0
41
1
10
19.8337646649228
20
-1.01441825397131
30
0
41
1
10
19.4666080204447
20
-0.816340929941958
30
0
41
1
10
19.2828355031804
20
-0.714112021725555
30
0
41
1
10
18.9143513438622
20
-0.501879383171087
30
0
41
1
10
18.7302605831729
20
-0.393169215356096
30
0
41
1
10
18.362248284268
20
-0.174790607851662
30
0
41
1
10
18.1785698847221
20
-0.0640551763664803
30
0
41
1
10
17.8098914569122
20
0.157515116758418
30
0
41
1
10
17.6257005995167
20
0.267086269478085
30
0
41
1
10
17.2580810506599
20
0.48419730379814
30
0
41
1
10
17.0742474230067
20
0.591250650431562
30
0
41
1
10
16.7975743501576
20
0.747813965176391
30
0
41
1
10
16.7055067303716
20
0.799281858377668
30
0
41
1
10
16.5217953050268
20
0.900437809892992
30
0
41
1
10
16.4299442438201
20
0.949515570114528
30
0
41
1
10
16.1541598095265
20
1.09371587059107
30
0
41
1
10
15.9702880011565
20
1.18627872419711
30
0
41
1
10
15.6017454037261
20
1.36104200884478
30
0
41
1
10
15.4178344352525
20
1.44299845865845
30
0
41
1
10
15.0501942418684
20
1.59365638168171
30
0
41
1
10
14.8664978367591
20
1.6630870821852
30
0
41
1
10
14.4976990935602
20
1.78637073125094
30
0
41
1
10
14.3140604918709
20
1.83869827212138
30
0
41
1
10
13.9464614451615
20
1.93145376670734
30
0
41
1
10
13.7621682600787
20
1.97062235971032
30
0
41
1
10
13.3940698304659
20
2.03156691728375
30
0
41
1
10
13.2104474254815
20
2.05198622016121
30
0
41
1
10
12.8899589768184
20
2.07292299516658
30
0
41
1
10
12.7532057029603
20
2.07712281087089
30
0
41
1
10
12.6163000338729
20
2.07659179795678
30
0
0
SPLINE
5
C4
100
AcDbEntity
8
1
62
256
6
ByLayer
370
18
48
1
60
0
100
AcDbSpline
70
4
71
3
72
71
73
67
40
0
40
0
40
0
40
0
40
0.0539098894274997
40
0.0539098894274997
40
0.0924835424844223
40
0.0924835424844223
40
0.131057195541345
40
0.131057195541345
40
0.169630848598267
40
0.169630848598267
40
0.20820450165519
40
0.20820450165519
40
0.285351807769035
40
0.285351807769035
40
0.323925460825958
40
0.323925460825958
40
0.36249911388288
40
0.36249911388288
40
0.439646419996726
40
0.439646419996726
40
0.458933246525187
40
0.458933246525187
40
0.468576659789418
40
0.473398366421533
40
0.474001079750547
40
0.474302436415055
40
0.474302436415055
40
0.474603793079562
40
0.474603793079562
40
0.475809219737591
40
0.475809219737591
40
0.478220073053648
40
0.478220073053648
40
0.497506899582111
40
0.497506899582111
40
0.516793726110574
40
0.516793726110574
40
0.593941032224424
40
0.593941032224424
40
0.671088338338275
40
0.671088338338275
40
0.7096619913952
40
0.7096619913952
40
0.748235644452125
40
0.748235644452125
40
0.757879057716357
40
0.757879057716357
40
0.762700764348472
40
0.762700764348472
40
0.76511161766453
40
0.76511161766453
40
0.765714330993545
40
0.765714330993545
40
0.766317044322559
40
0.767522470980588
40
0.786809297509049
40
0.786809297509049
40
0.825382950565972
40
0.825382950565972
40
0.902530256679817
40
0.902530256679817
40
0.94110390973674
40
0.94110390973674
40
0.979677562793662
40
0.979677562793662
40
1
40
1
40
1
40
1
41
1
10
11.5840265674889
20
0.327655174925724
30
0
41
1
10
11.4921888050412
20
0.37652297286894
30
0
41
1
10
11.4001377956893
20
0.422480963913898
30
0
41
1
10
11.2411792868366
20
0.494049938817028
30
0
41
1
10
11.1748506867324
20
0.521521489115202
30
0
41
1
10
11.0439230686524
20
0.569771538652333
30
0
41
1
10
10.9790247243894
20
0.590685543390407
30
0
41
1
10
10.8498676304152
20
0.625161731961242
30
0
41
1
10
10.7856081222859
20
0.638722050910673
30
0
41
1
10
10.657033366748
20
0.657681252534644
30
0
41
1
10
10.5924509703487
20
0.663037131755004
30
0
41
1
10
10.4020505397373
20
0.666095613657319
30
0
41
1
10
10.2780989830566
20
0.651159026571548
30
0
41
1
10
10.0910419527982
20
0.606050109465968
30
0
41
1
10
10.0282087002893
20
0.587115417807667
30
0
41
1
10
9.902989000433
20
0.54267309293428
30
0
41
1
10
9.84072997379042
20
0.517256592405005
30
0
41
1
10
9.65390563473269
20
0.43263027029883
30
0
41
1
10
9.52927026488354
20
0.365109469724587
30
0
41
1
10
9.37048640460122
20
0.269574433678343
30
0
41
1
10
9.33869036024277
20
0.249970410674734
30
0
41
1
10
9.29093661191575
20
0.219901903992735
30
0
41
1
10
9.2670467036867
20
0.204703182031579
30
0
41
1
10
9.24214159775784
20
0.18863067668758
30
0
41
1
10
9.23267500759471
20
0.182490098268204
30
0
41
1
10
9.23118021085503
20
0.181519666445269
30
0
41
1
10
9.23018366466772
20
0.180872520314949
30
0
41
1
10
9.23030412921273
20
0.180196627953393
30
0
41
1
10
9.23180618777138
20
0.177618695634067
30
0
41
1
10
9.23368100372281
20
0.17599157761137
30
0
41
1
10
9.23893535342887
20
0.170989755616773
30
0
41
1
10
9.24262428057523
20
0.16785470490106
30
0
41
1
10
9.27606994129982
20
0.139901683588704
30
0
41
1
10
9.3074742716401
20
0.116984904606653
30
0
41
1
10
9.36984828694531
20
0.0707244870844477
30
0
41
1
10
9.40121582168683
20
0.0478246929744444
30
0
41
1
10
9.5584030489602
20
-0.0662413697514523
30
0
41
1
10
9.68527193481816
20
-0.156097661499359
30
0
41
1
10
9.93882412668245
20
-0.336222628939083
30
0
41
1
10
10.0658160837001
20
-0.426084943917203
30
0
41
1
10
10.2559215076132
20
-0.561549081675651
30
0
41
1
10
10.3192136769227
20
-0.606833198072991
30
0
41
1
10
10.4454528350707
20
-0.697925268196684
30
0
41
1
10
10.5085151275995
20
-0.743584743162188
30
0
41
1
10
10.586363412975
20
-0.802056139491583
30
0
41
1
10
10.6018855479732
20
-0.813816411144643
30
0
41
1
10
10.6248708161906
20
-0.831867920495995
30
0
41
1
10
10.6325071251036
20
-0.837926180413518
30
0
41
1
10
10.6435991944381
20
-0.847450263233014
30
0
41
1
10
10.647790958523
20
-0.850319319520821
30
0
41
1
10
10.6509784163993
20
-0.855499032291647
30
0
41
1
10
10.6498597090897
20
-0.856353627323188
30
0
41
1
10
10.6482562939047
20
-0.857903033246544
30
0
41
1
10
10.6458515217059
20
-0.860225708220469
30
0
41
1
10
10.6178077836726
20
-0.887273441207952
30
0
41
1
10
10.5907044097859
20
-0.912984992497258
30
0
41
1
10
10.5145593882483
20
-0.983841185268147
30
0
41
1
10
10.4641814216433
20
-1.0288703202547
30
0
41
1
10
10.3153261726165
20
-1.15422163964271
30
0
41
1
10
10.2187092845385
20
-1.22578607770396
30
0
41
1
10
10.0693071801011
20
-1.30809694615985
30
0
41
1
10
10.0184218186839
20
-1.33131923424426
30
0
41
1
10
9.91556832051739
20
-1.36618458102873
30
0
41
1
10
9.8633132257238
20
-1.37802157044405
30
0
41
1
10
9.78036015390904
20
-1.38646462399345
30
0
41
1
10
9.75099793166757
20
-1.38757478191457
30
0
41
1
10
9.72114485394133
20
-1.38688908057071
30
0
0
SPLINE
5
C5
100
AcDbEntity
8
1
62
256
6
ByLayer
370
18
48
1
60
0
100
AcDbSpline
70
4
71
3
72
8
73
4
40
0
40
0
40
0
40
0
40
1
40
1
40
1
40
1
41
1
10
29.2657689741045
20
-2.08119457304693
30
0
41
1
10
29.256640259209
20
-2.08505148631716
30
0
41
1
10
29.2481809928427
20
-2.08698970947719
30
0
41
1
10
29.2404008567539
20
-2.08698149390591
30
0
0
SPLINE
5
C6
100
AcDbEntity
8
1
62
256
6
ByLayer
370
18
48
1
60
0
100
AcDbSpline
70
4
71
3
72
12
73
8
40
0
40
0
40
0
40
0
40
0.400823520105297
40
0.400823520105297
40
0.801647040210593
40
0.801647040210593
40
1
40
1
40
1
40
1
41
1
10
8.04114164772594
20
2.11904286606975
30
0
41
1
10
8.04115402440652
20
2.13714353063543
30
0
41
1
10
8.04116378367718
20
2.15165187789583
30
0
41
1
10
8.04117900421434
20
2.17350730986911
30
0
41
1
10
8.04118447782281
20
2.18086486221569
30
0
41
1
10
8.04119007145366
20
2.18632101362874
30
0
41
1
10
8.04119150528459
20
2.18723273619264
30
0
41
1
10
8.0411925855098
20
2.18725584360263
30
0
0
SPLINE
5
C7
100
AcDbEntity
8
1
62
256
6
ByLayer
370
18
48
1
60
0
100
AcDbSpline
70
4
71
3
72
24
73
20
40
0
40
0
40
0
40
0
40
0.110669447031003
40
0.110669447031003
40
0.258891205859169
40
0.258891205859169
40
0.407112964687335
40
0.407112964687335
40
0.481223844101418
40
0.481223844101418
40
0.555334723515501
40
0.555334723515501
40
0.703556482343668
40
0.703556482343668
40
0.851778241171834
40
0.851778241171834
40
0.925889120585917
40
0.925889120585917
40
1
40
1
40
1
40
1
41
1
10
8.04119266244481
20
-2.1872559761247
30
0
41
1
10
8.04119587116992
20
-2.18719739271128
30
0
41
1
10
8.04119587402215
20
-2.17904849287768
30
0
41
1
10
8.04119251387564
20
-2.1414378029655
30
0
41
1
10
8.04118793948922
20
-2.10498566053047
30
0
41
1
10
8.04118136113641
20
-2.00563419484089
30
0
41
1
10
8.04117934922539
20
-1.94290703397684
30
0
41
1
10
8.04118247273001
20
-1.8290429726037
30
0
41
1
10
8.04118454938396
20
-1.78753764047363
30
0
41
1
10
8.04119112326231
20
-1.69950444169564
30
0
41
1
10
8.04119561389024
20
-1.65285693503139
30
0
41
1
10
8.04121299584932
20
-1.50518818380755
30
0
41
1
10
8.04122992552357
20
-1.39616625926144
30
0
41
1
10
8.04127413649957
20
-1.15815945403793
30
0
41
1
10
8.04130075439974
20
-1.03254113433292
30
0
41
1
10
8.04134455262897
20
-0.834540967717174
30
0
41
1
10
8.04135978371252
20
-0.766933406117801
30
0
41
1
10
8.04139082278687
20
-0.628415545069259
30
0
41
1
10
8.04140660409223
20
-0.557597856562239
30
0
41
1
10
8.04142189181022
20
-0.486709003215083
30
0
0
SPLINE
5
C8
100
AcDbEntity
8
1
62
256
6
ByLayer
370
18
48
1
60
0
100
AcDbSpline
70
4
71
3
72
12
73
8
40
0
40
0
40
0
40
0
40
0.250000000000005
40
0.250000000000005
40
0.50000000000001
40
0.50000000000001
40
1
40
1
40
1
40
1
41
1
10
29.2513656098819
20
-2.16842686953868
30
0
41
1
10
29.2564400916007
20
-2.15513178006736
30
0
41
1
10
29.2611572134271
20
-2.14137469244685
30
0
41
1
10
29.2683060997014
20
-2.11679448251044
30
0
41
1
10
29.2706684845374
20
-2.10613104385561
30
0
41
1
10
29.273615855151
20
-2.08331979564181
30
0
41
1
10
29.2707183129483
20
-2.07910346045304
30
0
41
1
10
29.2657689741036
20
-2.0811945730473
30
0
0
SPLINE
5
C9
100
AcDbEntity
8
1
62
256
6
ByLayer
370
18
48
1
60
0
100
AcDbSpline
70
4
71
3
72
36
73
32
40
0
40
0
40
0
40
0
40
0.0643299203294661
40
0.0643299203294661
40
0.134635755587621
40
0.134635755587621
40
0.275247426103931
40
0.275247426103931
40
0.310400343733008
40
0.310400343733008
40
0.345553261362085
40
0.345553261362085
40
0.415859096620239
40
0.415859096620239
40
0.556470767136547
40
0.556470767136547
40
0.591623684765624
40
0.591623684765624
40
0.6267766023947
40
0.6267766023947
40
0.697082437652855
40
0.697082437652855
40
0.767388272911009
40
0.767388272911009
40
0.802541190540087
40
0.802541190540087
40
0.837694108169164
40
0.837694108169164
40
0.978305778685475
40
0.978305778685475
40
1
40
1
40
1
40
1
41
1
10
9.56827873844566
20
1.62420892693993
30
0
41
1
10
9.76804567339764
20
1.54100466302515
30
0
41
1
10
9.96821095914331
20
1.44977001681565
30
0
41
1
10
10.3894239895935
20
1.2430357305681
30
0
41
1
10
10.6113785886024
20
1.12560220940637
30
0
41
1
10
11.2700369182313
20
0.758506403700864
30
0
41
1
10
11.704479482615
20
0.492832779968211
30
0
41
1
10
12.2520571562531
20
0.15086630749451
30
0
41
1
10
12.361803918241
20
0.0819878805362748
30
0
41
1
10
12.5820496542732
20
-0.0562959828090186
30
0
41
1
10
12.6928608454043
20
-0.125897521562081
30
0
41
1
10
13.0238564949578
20
-0.332932056630909
30
0
41
1
10
13.2428156174624
20
-0.468762344643693
30
0
41
1
10
13.8981875334358
20
-0.864358707500372
30
0
41
1
10
14.3327776210235
20
-1.11289924655063
30
0
41
1
10
14.8844612999076
20
-1.38705344696263
30
0
41
1
10
14.9952604614101
20
-1.44006608879681
30
0
41
1
10
15.2156036724567
20
-1.54100461134149
30
0
41
1
10
15.3254463163434
20
-1.58907691028256
30
0
41
1
10
15.6544213001315
20
-1.7257168098767
30
0
41
1
10
15.8729967075272
20
-1.80674113017432
30
0
41
1
10
16.3106403589461
20
-1.94659379528096
30
0
41
1
10
16.5298795628955
20
-2.00545890216088
30
0
41
1
10
16.8611440109237
20
-2.07530149310375
30
0
41
1
10
16.9719056631722
20
-2.09551854644283
30
0
41
1
10
17.1921592834503
20
-2.12935628854368
30
0
41
1
10
17.3019264805439
20
-2.14303319407978
30
0
41
1
10
17.849756492319
20
-2.19526746003439
30
0
41
1
10
18.2857438484287
20
-2.18520807474388
30
0
41
1
10
18.7951048844506
20
-2.11272572288044
30
0
41
1
10
18.8633272464922
20
-2.10179721518043
30
0
41
1
10
18.9315225583265
20
-2.08966947565494
30
0
0
SPLINE
5
CA
100
AcDbEntity
8
1
62
256
6
ByLayer
370
18
48
1
60
0
100
AcDbSpline
70
4
71
3
72
10
73
6
40
0
40
0
40
0
40
0
40
0.5
40
0.5
40
1
40
1
40
1
40
1
41
1
10
8.11267545005197
20
2.08532800505566
30
0
41
1
10
8.09238709512061
20
2.08960105060365
30
0
41
1
10
8.07497176544058
20
2.09481404234296
30
0
41
1
10
8.04926077154735
20
2.10648859807378
30
0
41
1
10
8.04113743090744
20
2.11287584784492
30
0
41
1
10
8.0411416477256
20
2.11904286606739
30
0
0
SPLINE
5
CB
100
AcDbEntity
8
1
62
256
6
ByLayer
370
18
48
1
60
0
100
AcDbSpline
70
4
71
3
72
14
73
10
40
0
40
0
40
0
40
0
40
0.25
40
0.25
40
0.5
40
0.5
40
0.75
40
0.75
40
1
40
1
40
1
40
1
41
1
10
29.0033792400048
20
0.410367282174377
30
0
41
1
10
29.0010668455835
20
0.437439366405698
30
0
41
1
10
29.0024329966444
20
0.465093085498751
30
0
41
1
10
29.0129220121377
20
0.521885753775479
30
0
41
1
10
29.0220553789085
20
0.550844055419901
30
0
41
1
10
29.0492464794891
20
0.605553087474135
30
0
41
1
10
29.0697516808857
20
0.629278805894927
30
0
41
1
10
29.1196851904121
20
0.664980231320385
30
0
41
1
10
29.1481117199584
20
0.676720277040062
30
0
41
1
10
29.1778412943231
20
0.683853989424222
30
0
0
SPLINE
5
CC
100
AcDbEntity
8
1
62
256
6
ByLayer
370
18
48
1
60
0
100
AcDbSpline
70
4
71
3
72
8
73
4
40
0
40
0
40
0
40
0
40
1
40
1
40
1
40
1
41
1
10
29.2456594400492
20
-2.1833665339924
30
0
41
1
10
29.2475623042974
20
-2.17838801050016
30
0
41
1
10
29.2494643660475
20
-2.17340810866523
30
0
41
1
10
29.2513656098792
20
-2.16842686954564
30
0
0
SPLINE
5
CD
100
AcDbEntity
8
1
62
256
6
ByLayer
370
18
48
1
60
0
100
AcDbSpline
70
4
71
3
72
16
73
12
40
0
40
0
40
0
40
0
40
0.291771543089514
40
0.291771543089514
40
0.434014737157811
40
0.434014737157811
40
0.576257931226108
40
0.576257931226108
40
0.860744319362694
40
0.860744319362694
40
1
40
1
40
1
40
1
41
1
10
18.1201274310623
20
-2.08040608577625
30
0
41
1
10
17.8959717811889
20
-2.08014541724583
30
0
41
1
10
17.6721814903799
20
-2.06680481434157
30
0
41
1
10
17.3383849002337
20
-2.02781162152917
30
0
41
1
10
17.2288071636551
20
-2.01198450934945
30
0
41
1
10
17.0089708985287
20
-1.97421528470238
30
0
41
1
10
16.8984608323385
20
-1.95221486447045
30
0
41
1
10
16.5680872591623
20
-1.87761563622658
30
0
41
1
10
16.3492390230562
20
-1.81640911730281
30
0
41
1
10
16.023864332793
20
-1.70998230308433
30
0
41
1
10
15.916985782903
20
-1.67254384383489
30
0
41
1
10
15.8100511912089
20
-1.63276489503207
30
0
0
SPLINE
5
CE
100
AcDbEntity
8
1
62
256
6
ByLayer
370
13
48
1
60
0
100
AcDbSpline
70
4
71
3
72
26
73
22
40
0
40
0
40
0
40
0
40
0.0559330582824229
40
0.0559330582824229
40
0.110715528182299
40
0.110715528182299
40
0.165497998082175
40
0.165497998082175
40
0.384627877681676
40
0.384627877681676
40
0.494192817481429
40
0.494192817481429
40
0.548975287381304
40
0.548975287381304
40
0.603757757281181
40
0.603757757281181
40
0.822887636880685
40
0.822887636880685
40
0.932452576680436
40
0.932452576680436
40
1
40
1
40
1
40
1
41
1
10
15.8100511912923
20
-1.63276489506313
30
0
41
1
10
15.6985283698126
20
-1.59127915564454
30
0
41
1
10
15.5869445941979
20
-1.54724777161744
30
0
41
1
10
15.365712870905
20
-1.45532710119551
30
0
41
1
10
15.2560692673672
20
-1.40753198270124
30
0
41
1
10
15.0361535069007
20
-1.30758241492592
30
0
41
1
10
14.9256142458897
20
-1.25529027324785
30
0
41
1
10
14.3753242057099
20
-0.985765873779314
30
0
41
1
10
13.9412212335367
20
-0.744092584815093
30
0
41
1
10
13.2868712300073
20
-0.362657547865041
30
0
41
1
10
13.0682219905081
20
-0.232301173381075
30
0
41
1
10
12.7378832591265
20
-0.0344740936080825
30
0
41
1
10
12.6273614765222
20
0.0318548126491862
30
0
41
1
10
12.4075964108889
20
0.163437953573009
30
0
41
1
10
12.298065310674
20
0.228876630300732
30
0
41
1
10
11.7514932907588
20
0.55323139088307
30
0
41
1
10
11.3175208035649
20
0.803240953201396
30
0
41
1
10
10.6600189316185
20
1.14550227775226
30
0
41
1
10
10.438650420004
20
1.25439199501057
30
0
41
1
10
10.0838513934707
20
1.41527888836509
30
0
41
1
10
9.94898558476928
20
1.47322406111766
30
0
41
1
10
9.8143811380439
20
1.52765512279981
30
0
0
LINE
5
76
100
AcDbEntity
8
81
62
256
6
ByLayer
370
18
48
1
60
0
100
AcDbLine
10
30
20
0
30
0
11
35
21
0
31
0
39
0
210
0
220
0
230
1
0
LINE
5
77
100
AcDbEntity
8
1
62
256
6
ByLayer
370
18
48
1
60
0
100
AcDbLine
10
8.041173
20
2.187241
30
0
11
1.395655
21
2.183254
31
0
39
0
210
0
220
0
230
1
0
LINE
5
79
100
AcDbEntity
8
1
62
256
6
ByLayer
370
18
48
1
60
0
100
AcDbLine
10
17.934905
20
2.193177
30
0
11
17.547933
21
2.192945
31
0
39
0
210
0
220
0
230
1
0
LINE
5
7A
100
AcDbEntity
8
1
62
256
6
ByLayer
370
18
48
1
60
0
100
AcDbLine
10
28.820265
20
2.199708
30
0
11
28.435288
21
2.199477
31
0
39
0
210
0
220
0
230
1
0
LINE
5
7B
100
AcDbEntity
8
1
62
256
6
ByLayer
370
18
48
1
60
0
100
AcDbLine
10
28.435288
20
-2.199477
30
0
11
28.82025
21
-2.199708
31
0
39
0
210
0
220
0
230
1
0
LINE
5
7C
100
AcDbEntity
8
1
62
256
6
ByLayer
370
18
48
1
60
0
100
AcDbLine
10
17.547933
20
-2.192945
30
0
11
17.935526
21
-2.193178
31
0
39
0
210
0
220
0
230
1
0
LINE
5
7D
100
AcDbEntity
8
1
62
256
6
ByLayer
370
18
48
1
60
0
100
AcDbLine
10
1.395655
20
-2.183254
30
0
11
8.041173
21
-2.187241
31
0
39
0
210
0
220
0
230
1
0
LINE
5
7E
100
AcDbEntity
8
SK1
62
256
6
ByLayer
370
18
48
1
60
0
100
AcDbLine
10
0
20
3
30
0
11
-35.278312
21
3
31
0
39
0
210
0
220
0
230
1
0
LINE
5
80
100
AcDbEntity
8
SK1
62
256
6
ByLayer
370
18
48
1
60
0
100
AcDbLine
10
-35.278312
20
-3
30
0
11
0
21
-3
31
0
39
0
210
0
220
0
230
1
0
LINE
5
81
100
AcDbEntity
8
SK1
62
256
6
ByLayer
370
18
48
1
60
0
100
AcDbLine
10
-35.278312
20
3
30
0
11
-36
21
1.75
31
0
39
0
210
0
220
0
230
1
0
LINE
5
82
100
AcDbEntity
8
SK1
62
256
6
ByLayer
370
18
48
1
60
0
100
AcDbLine
10
-36
20
-1.75
30
0
11
-35.278312
21
-3
31
0
39
0
210
0
220
0
230
1
0
LINE
5
83
100
AcDbEntity
8
SK4
62
256
6
ByLayer
370
18
48
0.05
60
0
100
AcDbLine
10
35
20
0
30
0
11
-41
21
0
31
0
39
0
210
0
220
0
230
1
0
LINE
5
85
100
AcDbEntity
8
4
62
256
6
ByLayer
370
18
48
0.05
60
0
100
AcDbLine
10
30
20
0
30
0
11
0
21
0
31
0
39
0
210
0
220
0
230
1
0
LINE
5
87
100
AcDbEntity
8
80
62
256
6
ByLayer
370
18
48
1
60
0
100
AcDbLine
10
0
20
0
30
0
11
-5
21
0
31
0
39
0
210
0
220
0
230
1
0
LINE
5
88
100
AcDbEntity
8
1
62
256
6
ByLayer
370
18
48
1
60
0
100
AcDbLine
10
0
20
-3
30
0
11
0
21
3
31
0
39
0
210
0
220
0
230
1
0
LINE
5
89
100
AcDbEntity
8
1
62
256
6
ByLayer
370
18
48
1
60
0
100
AcDbLine
10
29.996404
20
0.022311
30
0
11
30
21
0
31
0
39
0
210
0
220
0
230
1
0
LINE
5
8A
100
AcDbEntity
8
1
62
256
6
ByLayer
370
18
48
1
60
0
100
AcDbLine
10
30
20
0
30
0
11
29.996404
21
-0.022311
31
0
39
0
210
0
220
0
230
1
0
LINE
5
8B
100
AcDbEntity
8
1
62
256
6
ByLayer
370
13
48
1
60
0
100
AcDbLine
10
1.395655
20
2.183254
30
0
11
1.395655
21
-2.183254
31
0
39
0
210
0
220
0
230
1
0
LINE
5
8C
100
AcDbEntity
8
1
62
256
6
ByLayer
370
18
48
1
60
0
100
AcDbLine
10
28.903739
20
-1.190342
30
0
11
29.895469
21
-0.165871
31
0
39
0
210
0
220
0
230
1
0
LINE
5
8D
100
AcDbEntity
8
1
62
256
6
ByLayer
370
13
48
1
60
0
100
AcDbLine
10
0.697588
20
2.591627
30
0
11
0.697588
21
-2.591627
31
0
39
0
210
0
220
0
230
1
0
LINE
5
8E
100
AcDbEntity
8
1
62
256
6
ByLayer
370
13
48
1
60
0
100
AcDbLine
10
29.6068
20
0.453413
30
0
11
29.933809
21
0.259387
31
0
39
0
210
0
220
0
230
1
0
LINE
5
8F
100
AcDbEntity
8
1
62
256
6
ByLayer
370
18
48
1
60
0
100
AcDbLine
10
29.933809
20
-0.259387
30
0
11
29.892208
21
-0.453413
31
0
39
0
210
0
220
0
230
1
0
LINE
5
90
100
AcDbEntity
8
1
62
256
6
ByLayer
370
18
48
1
60
0
100
AcDbLine
10
30
20
0
30
0
11
29.240401
21
-2.086981
31
0
39
0
210
0
220
0
230
1
0
LINE
5
91
100
AcDbEntity
8
1
62
256
6
ByLayer
370
13
48
1
60
0
100
AcDbLine
10
29.416893
20
0.118084
30
0
11
29.895469
21
-0.165871
31
0
39
0
210
0
220
0
230
1
0
LINE
5
92
100
AcDbEntity
8
1
62
256
6
ByLayer
370
13
48
1
60
0
100
AcDbLine
10
29.892208
20
0.453413
30
0
11
29.6068
21
0.453413
31
0
39
0
210
0
220
0
230
1
0
LINE
5
93
100
AcDbEntity
8
1
62
256
6
ByLayer
370
18
48
1
60
0
100
AcDbLine
10
29.933809
20
0.259387
30
0
11
29.892208
21
0.453413
31
0
39
0
210
0
220
0
230
1
0
LINE
5
94
100
AcDbEntity
8
SK1
62
256
6
ByLayer
370
18
48
1
60
0
100
AcDbLine
10
-36
20
1.75
30
0
11
-36
21
-1.75
31
0
39
0
210
0
220
0
230
1
0
LINE
5
95
100
AcDbEntity
8
SK1
62
256
6
ByLayer
370
18
48
1
60
0
100
AcDbLine
10
0
20
-3
30
0
11
0
21
3
31
0
39
0
210
0
220
0
230
1
0
LINE
5
96
100
AcDbEntity
8
SK1
62
256
6
ByLayer
370
18
48
1
60
0
100
AcDbLine
10
-35.278312
20
3
30
0
11
-35.278312
21
-3
31
0
39
0
210
0
220
0
230
1
0
MTEXT
5
CF
100
AcDbEntity
8
SK6
62
256
6
ByLayer
370
13
48
1
60
0
100
AcDbMText
10
-0.870831
20
34.582694
30
0
210
0
220
0
230
1
1
\W0.7781;R840-0440-30-A0A1220
40
3.5
41
0
44
1.084337
50
0
71
8
72
5
7
iso_b_vert
0
DIMENSION
5
DC
100
AcDbEntity
8
SK2
62
256
6
ByLayer
370
13
48
1
60
0
100
AcDbDimension
2
DimnDraft3D1
10
29.26
20
-12.413398
30
0
11
13.510059
21
-12.413398
31
0
70
32
71
5
72
1
41
1
210
0
220
0
230
1
3
Standard
100
AcDbAlignedDimension
13
0
23
-1.5875
33
0
14
29.26
24
-3.7875
34
0
50
0
100
AcDbRotatedDimension
1001
ACAD
1000
DSTYLE
1002
{
1070
   279
1070
     0
1070
   172
1070
     1
1070
   173
1070
     1
1070
   340
1005
D0
1070
   271
1070
     2
1070
   272
1070
     2
1070
    77
1070
     1
1070
    73
1070
     0
1070
   171
1070
     3
1070
   274
1070
     4
1070
   177
1070
    35
1070
   176
1070
    35
1070
   178
1070
    35
1070
    48
1040
-0.005
1070
    41
1041
3.5
1070
   147
1041
1.75
1070
    42
1041
1.5875
1070
    44
1041
2.0
1070
   140
1041
3.5
1070
   343
1005
0
1070
   344
1005
0
1002
}
0
DIMENSION
5
E6
100
AcDbEntity
8
SK2
62
256
6
ByLayer
370
13
48
1
60
0
100
AcDbDimension
2
DimnDraft3D2
10
30
20
-31.692985
30
0
11
-2.3987
21
-31.692985
31
0
70
32
71
5
72
1
41
1
210
0
220
0
230
1
3
Standard
100
AcDbAlignedDimension
13
-36
23
-4.5875
33
0
14
30
24
-1.5875
34
0
50
0
100
AcDbRotatedDimension
1001
ACAD
1000
DSTYLE
1002
{
1070
   279
1070
     0
1070
   172
1070
     1
1070
   173
1070
     1
1070
   340
1005
D0
1070
   271
1070
     2
1070
   272
1070
     2
1070
    77
1070
     1
1070
    73
1070
     0
1070
   171
1070
     3
1070
   274
1070
     4
1070
   177
1070
    35
1070
   176
1070
    35
1070
   178
1070
    35
1070
    48
1040
-0.005
1070
    41
1041
3.5
1070
   147
1041
1.75
1070
    42
1041
1.5875
1070
    44
1041
2.0
1070
   140
1041
3.5
1070
   343
1005
0
1070
   344
1005
0
1002
}
0
DIMENSION
5
F0
100
AcDbEntity
8
SK2
62
256
6
ByLayer
370
13
48
1
60
0
100
AcDbDimension
2
DimnDraft3D3
10
30
20
13.809119
30
0
11
23.03
21
13.809119
31
0
70
32
71
5
72
1
41
1
210
0
220
0
230
1
3
Standard
100
AcDbAlignedDimension
13
16.06
23
3.7875
33
0
14
30
24
1.5875
34
0
50
0
100
AcDbRotatedDimension
1001
ACAD
1000
DSTYLE
1002
{
1070
   279
1070
     0
1070
   172
1070
     1
1070
   173
1070
     1
1070
   340
1005
D0
1070
   271
1070
     2
1070
   272
1070
     2
1070
    77
1070
     1
1070
    73
1070
     0
1070
   171
1070
     3
1070
   274
1070
     4
1070
   177
1070
    35
1070
   176
1070
    35
1070
   178
1070
    35
1070
    48
1040
-0.005
1070
    41
1041
3.5
1070
   147
1041
1.75
1070
    42
1041
1.5875
1070
    44
1041
2.0
1070
   140
1041
3.5
1070
   343
1005
0
1070
   344
1005
0
1002
}
0
DIMENSION
5
FA
100
AcDbEntity
8
SK2
62
256
6
ByLayer
370
13
48
1
60
0
100
AcDbDimension
2
DimnDraft3D4
10
29.26
20
-15.002503
30
0
11
39.981425
21
-15.002503
31
0
70
32
71
5
72
1
41
1
210
0
220
0
230
1
3
Standard
100
AcDbAlignedDimension
13
30
23
-1.5875
33
0
14
29.26
24
-3.7875
34
0
50
0
100
AcDbRotatedDimension
1001
ACAD
1000
DSTYLE
1002
{
1070
   279
1070
     0
1070
   172
1070
     1
1070
   173
1070
     1
1070
   340
1005
D0
1070
   271
1070
     2
1070
   272
1070
     2
1070
    77
1070
     1
1070
    73
1070
     0
1070
   171
1070
     3
1070
   274
1070
     4
1070
   177
1070
    35
1070
   176
1070
    35
1070
   178
1070
    35
1070
    48
1040
-0.005
1070
    41
1041
3.5
1070
   147
1041
1.75
1070
    42
1041
1.5875
1070
    44
1041
2.0
1070
   140
1041
3.5
1070
   343
1005
0
1070
   344
1005
0
1002
}
0
DIMENSION
5
104
100
AcDbEntity
8
SK2
62
256
6
ByLayer
370
13
48
1
60
0
100
AcDbDimension
2
DimnDraft3D5
10
29.26
20
-21.343428
30
0
11
-5.479324
21
-21.343428
31
0
70
32
71
5
72
1
41
1
210
0
220
0
230
1
3
Standard
100
AcDbAlignedDimension
13
-36
23
-4.5875
33
0
14
29.26
24
-3.7875
34
0
50
0
100
AcDbRotatedDimension
1001
ACAD
1000
DSTYLE
1002
{
1070
   279
1070
     0
1070
   172
1070
     1
1070
   173
1070
     1
1070
   340
1005
D0
1070
   271
1070
     2
1070
   272
1070
     2
1070
    77
1070
     1
1070
    73
1070
     0
1070
   171
1070
     3
1070
   274
1070
     4
1070
   177
1070
    35
1070
   176
1070
    35
1070
   178
1070
    35
1070
    48
1040
-0.005
1070
    41
1041
3.5
1070
   147
1041
1.75
1070
    42
1041
1.5875
1070
    44
1041
2.0
1070
   140
1041
3.5
1070
   343
1005
0
1070
   344
1005
0
1002
}
0
DIMENSION
5
10F
100
AcDbEntity
8
SK2
62
256
6
ByLayer
370
13
48
1
60
0
100
AcDbDimension
2
DimnDraft3D6
10
-46.625163
20
3
30
0
11
-47.250163
21
21.47418
31
0
70
33
71
5
72
1
41
1
210
0
220
0
230
1
3
Standard
100
AcDbAlignedDimension
13
-37.5875
23
-3
33
0
14
-37.5875
24
3
34
0
1001
ACAD
1000
DSTYLE
1002
{
1070
   279
1070
     0
1070
    74
1070
     0
1070
   173
1070
     1
1070
   340
1005
D0
1070
   271
1070
     3
1070
   272
1070
     2
1070
    77
1070
     1
1070
    73
1070
     0
1070
   171
1070
     3
1070
   274
1070
     4
1070
   177
1070
    35
1070
   176
1070
    35
1070
   178
1070
    35
1070
    48
1040
-0.005
1070
    41
1041
3.5
1070
   147
1041
1.75
1070
    42
1041
1.5875
1070
    44
1041
2.0
1070
   140
1041
3.5
1070
   343
1005
0
1070
   344
1005
0
1002
}
0
DIMENSION
5
11A
100
AcDbEntity
8
2
62
256
6
ByLayer
370
13
48
1
60
0
100
AcDbDimension
2
DimnDraft3D7
10
44.083343
20
2.2
30
0
11
39.458343
21
19.267266
31
0
70
33
71
5
72
1
41
1
210
0
220
0
230
1
3
Standard
100
AcDbAlignedDimension
13
30.8475
23
-2.2
33
0
14
30.8475
24
2.2
34
0
1001
ACAD
1000
DSTYLE
1002
{
1070
   279
1070
     0
1070
    74
1070
     0
1070
   173
1070
     1
1070
   340
1005
D0
1070
   271
1070
     3
1070
   272
1070
     2
1070
    77
1070
     1
1070
    73
1070
     0
1070
   171
1070
     3
1070
   274
1070
     4
1070
   177
1070
    35
1070
   176
1070
    35
1070
   178
1070
    35
1070
    48
1040
-0.005
1070
    41
1041
3.5
1070
   147
1041
1.75
1070
    42
1041
1.5875
1070
    44
1041
2.0
1070
   140
1041
3.5
1070
   343
1005
0
1070
   344
1005
0
1002
}
0
ENDSEC
0
SECTION
2
OBJECTS
0
DICTIONARY
5
185
330
0
100
AcDbDictionary
280
0
281
1
3
ACAD_GROUP
350
186
3
ACAD_MLINESTYLE
350
187
0
DICTIONARY
5
186
330
0
100
AcDbDictionary
280
0
281
1
0
DICTIONARY
5
187
330
0
100
AcDbDictionary
280
0
281
1
3
Standard
350
18
0
MLINESTYLE
5
18
330
187
100
AcDbMlineStyle
2
Standard
70
0
3

62
256
51
90
52
90
71
2
49
-0.5
62
256
6
ByLayer
49
0.5
62
256
6
ByLayer
0
RASTERVARIABLES
5
173
330

100
AcDbRasterVariables
90
0
70
1
71
1
72
1
0
ENDSEC
0
EOF
