0
SECTION
2
HEADER
9
$ACADVER
1
AC1015
9
$DWGCODEPAGE
3
ANSI_1252
9
$HANDSEED
5
1ad
9
$ANGBASE
50
0
9
$ANGDIR
70
0
9
$ATTMODE
70
1
9
$AUNITS
70
0
9
$AUPREC
70
0
9
$CECOLOR
62
256
9
$CELTSCALE
40
1
9
$CELTYPE
6
ByLayer
9
$CELWEIGHT
370
18
9
$CLAYER
8
0
9
$CMLJUST
70
0
9
$CMLSCALE
40
1
9
$CMLSTYLE
2
Standard
9
$DIMSTYLE
2
Standard
9
$TEXTSIZE
40
0.2
9
$TEXTSTYLE
7
Standard
9
$LUNITS
70
2
9
$LUPREC
70
4
9
$EXTNAMES
290
1
9
$INSUNITS
70
4
9
$LTSCALE
40
1
9
$LWDISPLAY
290
1
9
$PDMODE
70
0
9
$PDSIZE
40
0
9
$PLINEGEN
70
0
0
ENDSEC
0
SECTION
2
CLASSES
0
CLASS
1
RASTERVARIABLES
2
AcDbRasterVariables
3
ISM
90
0
280
0
281
0
0
ENDSEC
0
SECTION
2
TABLES
0
TABLE
2
VPORT
5
1a3
100
AcDbSymbolTable
0
VPORT
5
1
100
AcDbSymbolTableRecord
100
AcDbViewportTableRecord
2
*Active
70
0
10
0
20
0
11
1
21
1
12
-1
22
1
13
0
23
0
14
0.5
24
0.5
15
10
25
10
16
0
26
0
36
1
17
0
27
0
37
0
0
ENDTAB
0
TABLE
2
LTYPE
5
1a4
100
AcDbSymbolTable
0
LTYPE
5
14
100
AcDbSymbolTableRecord
100
AcDbLinetypeTableRecord
70
0
2
ByBlock
3

72
65
73
0
40
0
0
LTYPE
5
15
100
AcDbSymbolTableRecord
100
AcDbLinetypeTableRecord
70
0
2
ByLayer
3

72
65
73
0
40
0
0
LTYPE
5
16
100
AcDbSymbolTableRecord
100
AcDbLinetypeTableRecord
70
0
2
CONTINUOUS
3
Solid line
72
65
73
0
40
0
0
LTYPE
5
6A
100
AcDbSymbolTableRecord
100
AcDbLinetypeTableRecord
70
0
2
CENTER
3
____ _ ____ _ ____ _ ____
72
65
73
4
40
47.5
49
22
74
0
49
-8.5
74
0
49
8.5
74
0
49
-8.5
74
0
0
LTYPE
5
6B
100
AcDbSymbolTableRecord
100
AcDbLinetypeTableRecord
70
0
2
DASHED
3
__ __ __ __ __ __ __ __ __
72
65
73
2
40
25.72
49
12.86
74
0
49
-12.86
74
0
0
ENDTAB
0
TABLE
2
LAYER
5
1a5
100
AcDbSymbolTable
0
LAYER
5
10
100
AcDbSymbolTableRecord
100
AcDbLayerTableRecord
2
0
70
0
62
7
6
CONTINUOUS
290
1
370
-3
390
0
0
LAYER
5
6D
100
AcDbSymbolTableRecord
100
AcDbLayerTableRecord
2
81
70
0
62
-3
6
CONTINUOUS
290
1
370
-3
390
0
0
LAYER
5
6F
100
AcDbSymbolTableRecord
100
AcDbLayerTableRecord
2
80
70
0
62
-6
6
CONTINUOUS
290
1
370
-3
390
0
0
LAYER
5
74
100
AcDbSymbolTableRecord
100
AcDbLayerTableRecord
2
2
70
0
62
7
6
CONTINUOUS
290
1
370
-3
390
0
0
LAYER
5
78
100
AcDbSymbolTableRecord
100
AcDbLayerTableRecord
2
1
70
0
62
4
6
CONTINUOUS
290
1
370
-3
390
0
0
LAYER
5
88
100
AcDbSymbolTableRecord
100
AcDbLayerTableRecord
2
4
70
0
62
-2
6
CENTER
290
1
370
-3
390
0
0
LAYER
5
18f
100
AcDbSymbolTableRecord
100
AcDbLayerTableRecord
2
SK2
70
0
62
7
6
CONTINUOUS
290
1
370
-3
390
0
0
LAYER
5
190
100
AcDbSymbolTableRecord
100
AcDbLayerTableRecord
2
SK1
70
0
62
4
6
CONTINUOUS
290
1
370
-3
390
0
0
LAYER
5
191
100
AcDbSymbolTableRecord
100
AcDbLayerTableRecord
2
SK4
70
0
62
2
6
CENTER
290
1
370
-3
390
0
0
LAYER
5
192
100
AcDbSymbolTableRecord
100
AcDbLayerTableRecord
2
SK6
70
0
62
5
6
CONTINUOUS
290
1
370
-3
390
0
0
ENDTAB
0
TABLE
2
STYLE
5
1a6
100
AcDbSymbolTable
0
STYLE
5
11
100
AcDbSymbolTableRecord
100
AcDbTextStyleTableRecord
2
Standard
3
txt
70
0
71
0
40
0
41
1
42
0
50
0
0
STYLE
5
EB
100
AcDbSymbolTableRecord
100
AcDbTextStyleTableRecord
2
iso_b_vert
3
simplex.shx
70
0
71
0
40
0
41
1
42
0
50
0
0
STYLE
5
EC
100
AcDbSymbolTableRecord
100
AcDbTextStyleTableRecord
2
DWGDirectTextStyle
3
simplex
70
0
71
0
40
0
41
1
42
0
50
0
0
ENDTAB
0
TABLE
2
DIMSTYLE
5
1a7
100
AcDbSymbolTable
100
AcDbDimStyleTable
0
DIMSTYLE
105
27
100
AcDbSymbolTableRecord
100
AcDbDimStyleTableRecord
2
Standard
70
0
3
<>
41
0.18
42
0.0625
44
0.18
140
0.18
147
0.09
73
0
74
0
77
1
271
2
275
0
278
52
280
0
340
11
0
ENDTAB
0
TABLE
2
VIEW
5
1a8
100
AcDbSymbolTable
0
ENDTAB
0
TABLE
2
UCS
5
1a9
100
AcDbSymbolTable
0
ENDTAB
0
TABLE
2
APPID
5
1aa
100
AcDbSymbolTable
0
APPID
5
12
100
AcDbSymbolTableRecord
100
AcDbRegAppTableRecord
2
ACAD
70
0
0
ENDTAB
0
TABLE
2
BLOCK_RECORD
5
1ab
100
AcDbSymbolTable
0
BLOCK_RECORD
5
1F
100
AcDbSymbolTableRecord
100
AcDbBlockTableRecord
2
*Model_Space
340
0
70
0
0
BLOCK_RECORD
5
1B
100
AcDbSymbolTableRecord
100
AcDbBlockTableRecord
2
*Paper_Space
340
0
70
0
0
BLOCK_RECORD
5
23
100
AcDbSymbolTableRecord
100
AcDbBlockTableRecord
2
*Paper_Space0
340
0
70
0
0
BLOCK_RECORD
5
EE
100
AcDbSymbolTableRecord
100
AcDbBlockTableRecord
2
DimnDraft3D1
340
0
70
0
0
BLOCK_RECORD
5
F8
100
AcDbSymbolTableRecord
100
AcDbBlockTableRecord
2
DimnDraft3D2
340
0
70
0
0
BLOCK_RECORD
5
102
100
AcDbSymbolTableRecord
100
AcDbBlockTableRecord
2
DimnDraft3D3
340
0
70
0
0
BLOCK_RECORD
5
10C
100
AcDbSymbolTableRecord
100
AcDbBlockTableRecord
2
DimnDraft3D4
340
0
70
0
0
BLOCK_RECORD
5
116
100
AcDbSymbolTableRecord
100
AcDbBlockTableRecord
2
DimnDraft3D5
340
0
70
0
0
BLOCK_RECORD
5
120
100
AcDbSymbolTableRecord
100
AcDbBlockTableRecord
2
DimnDraft3D6
340
0
70
0
0
BLOCK_RECORD
5
12B
100
AcDbSymbolTableRecord
100
AcDbBlockTableRecord
2
DimnDraft3D7
340
0
70
0
0
ENDTAB
0
ENDSEC
0
SECTION
2
BLOCKS
0
BLOCK
5
20
100
AcDbEntity
8
0
100
AcDbBlockBegin
2
*Model_Space
70
0
10
0
20
0
30
0
3
*Model_Space
0
ENDBLK
5
21
100
AcDbEntity
8
0
100
AcDbBlockEnd
0
BLOCK
5
1C
100
AcDbEntity
8
0
100
AcDbBlockBegin
2
*Paper_Space
70
0
10
0
20
0
30
0
3
*Paper_Space
0
ENDBLK
5
1D
100
AcDbEntity
8
0
100
AcDbBlockEnd
0
BLOCK
5
24
100
AcDbEntity
8
0
100
AcDbBlockBegin
2
*Paper_Space0
70
0
10
0
20
0
30
0
3
*Paper_Space0
0
ENDBLK
5
25
100
AcDbEntity
8
0
100
AcDbBlockEnd
0
BLOCK
5
F5
100
AcDbEntity
8
0
100
AcDbBlockBegin
2
DimnDraft3D1
70
0
10
0
20
0
30
0
3
DimnDraft3D1
0
MTEXT
5
EF
100
AcDbEntity
8
SK2
62
256
6
ByLayer
370
13
48
1
60
0
100
AcDbMText
10
13.091375
20
-11.438398
30
0
210
0
220
0
230
1
1
\W0.7402;37,29
40
3.5
41
0
44
1.084337
50
0
71
7
72
5
7
iso_b_vert
0
LINE
5
F0
100
AcDbEntity
8
SK2
62
256
6
ByLayer
370
13
48
1
60
0
100
AcDbLine
10
0
20
-1.5875
30
0
11
0
21
-14.313398
31
0
39
0
210
0
220
0
230
1
0
LINE
5
F1
100
AcDbEntity
8
SK2
62
256
6
ByLayer
370
13
48
1
60
0
100
AcDbLine
10
37.29
20
-3.6875
30
0
11
37.29
21
-14.313398
31
0
39
0
210
0
220
0
230
1
0
LINE
5
F2
100
AcDbEntity
8
SK2
62
256
6
ByLayer
370
13
48
1
60
0
100
AcDbLine
10
0
20
-12.313398
30
0
11
37.29
21
-12.313398
31
0
39
0
210
0
220
0
230
1
0
SOLID
5
F3
100
AcDbEntity
8
SK2
62
256
6
ByLayer
370
13
48
1
60
0
100
AcDbTrace
10
0
20
-12.313398
30
0
11
3.499998
21
-11.852615
31
0
12
3.500002
22
-12.774182
32
0
13
0
23
-12.313398
33
0
39
0
210
0
220
0
230
1
0
SOLID
5
F4
100
AcDbEntity
8
SK2
62
256
6
ByLayer
370
13
48
1
60
0
100
AcDbTrace
10
37.29
20
-12.313398
30
0
11
33.790002
21
-12.774182
31
0
12
33.789998
22
-11.852615
32
0
13
37.29
23
-12.313398
33
0
39
0
210
0
220
0
230
1
0
ENDBLK
5
F6
100
AcDbEntity
8
0
100
AcDbBlockEnd
0
BLOCK
5
FF
100
AcDbEntity
8
0
100
AcDbBlockBegin
2
DimnDraft3D2
70
0
10
0
20
0
30
0
3
DimnDraft3D2
0
MTEXT
5
F9
100
AcDbEntity
8
SK2
62
256
6
ByLayer
370
13
48
1
60
0
100
AcDbMText
10
-3.001595
20
-30.817985
30
0
210
0
220
0
230
1
1
\W0.7581;74,00
40
3.5
41
0
44
1.084337
50
0
71
7
72
5
7
iso_b_vert
0
LINE
5
FA
100
AcDbEntity
8
SK2
62
256
6
ByLayer
370
13
48
1
60
0
100
AcDbLine
10
-36
20
-4.5875
30
0
11
-36
21
-33.692985
31
0
39
0
210
0
220
0
230
1
0
LINE
5
FB
100
AcDbEntity
8
SK2
62
256
6
ByLayer
370
13
48
1
60
0
100
AcDbLine
10
38
20
-1.5875
30
0
11
38
21
-33.692985
31
0
39
0
210
0
220
0
230
1
0
LINE
5
FC
100
AcDbEntity
8
SK2
62
256
6
ByLayer
370
13
48
1
60
0
100
AcDbLine
10
-36
20
-31.692985
30
0
11
38
21
-31.692985
31
0
39
0
210
0
220
0
230
1
0
SOLID
5
FD
100
AcDbEntity
8
SK2
62
256
6
ByLayer
370
13
48
1
60
0
100
AcDbTrace
10
-36
20
-31.692985
30
0
11
-32.500002
21
-31.232202
31
0
12
-32.499998
22
-32.153769
32
0
13
-36
23
-31.692985
33
0
39
0
210
0
220
0
230
1
0
SOLID
5
FE
100
AcDbEntity
8
SK2
62
256
6
ByLayer
370
13
48
1
60
0
100
AcDbTrace
10
38
20
-31.692985
30
0
11
34.500002
21
-32.153769
31
0
12
34.499998
22
-31.232202
32
0
13
38
23
-31.692985
33
0
39
0
210
0
220
0
230
1
0
ENDBLK
5
100
100
AcDbEntity
8
0
100
AcDbBlockEnd
0
BLOCK
5
109
100
AcDbEntity
8
0
100
AcDbBlockBegin
2
DimnDraft3D3
70
0
10
0
20
0
30
0
3
DimnDraft3D3
0
MTEXT
5
103
100
AcDbEntity
8
SK2
62
256
6
ByLayer
370
13
48
1
60
0
100
AcDbMText
10
23.571316
20
14.584119
30
0
210
0
220
0
230
1
1
\W0.6563;21,71
40
3.5
41
0
44
1.084337
50
0
71
7
72
5
7
iso_b_vert
0
LINE
5
104
100
AcDbEntity
8
SK2
62
256
6
ByLayer
370
13
48
1
60
0
100
AcDbLine
10
16.29
20
3.6875
30
0
11
16.29
21
15.709119
31
0
39
0
210
0
220
0
230
1
0
LINE
5
105
100
AcDbEntity
8
SK2
62
256
6
ByLayer
370
13
48
1
60
0
100
AcDbLine
10
38
20
1.5875
30
0
11
38
21
15.709119
31
0
39
0
210
0
220
0
230
1
0
LINE
5
106
100
AcDbEntity
8
SK2
62
256
6
ByLayer
370
13
48
1
60
0
100
AcDbLine
10
16.29
20
13.709119
30
0
11
38
21
13.709119
31
0
39
0
210
0
220
0
230
1
0
SOLID
5
107
100
AcDbEntity
8
SK2
62
256
6
ByLayer
370
13
48
1
60
0
100
AcDbTrace
10
16.29
20
13.709119
30
0
11
19.789998
21
14.169903
31
0
12
19.790002
22
13.248335
32
0
13
16.29
23
13.709119
33
0
39
0
210
0
220
0
230
1
0
SOLID
5
108
100
AcDbEntity
8
SK2
62
256
6
ByLayer
370
13
48
1
60
0
100
AcDbTrace
10
38
20
13.709119
30
0
11
34.500002
21
13.248335
31
0
12
34.499998
22
14.169903
32
0
13
38
23
13.709119
33
0
39
0
210
0
220
0
230
1
0
ENDBLK
5
10A
100
AcDbEntity
8
0
100
AcDbBlockEnd
0
BLOCK
5
113
100
AcDbEntity
8
0
100
AcDbBlockBegin
2
DimnDraft3D4
70
0
10
0
20
0
30
0
3
DimnDraft3D4
0
MTEXT
5
10D
100
AcDbEntity
8
SK2
62
256
6
ByLayer
370
13
48
1
60
0
100
AcDbMText
10
45.278136
20
-14.027503
30
0
210
0
220
0
230
1
1
\W0.6993;0,71
40
3.5
41
0
44
1.084337
50
0
71
7
72
5
7
iso_b_vert
0
LINE
5
10E
100
AcDbEntity
8
SK2
62
256
6
ByLayer
370
13
48
1
60
0
100
AcDbLine
10
38
20
-1.5875
30
0
11
38
21
-16.902503
31
0
39
0
210
0
220
0
230
1
0
LINE
5
10F
100
AcDbEntity
8
SK2
62
256
6
ByLayer
370
13
48
1
60
0
100
AcDbLine
10
37.29
20
-3.6875
30
0
11
37.29
21
-16.902503
31
0
39
0
210
0
220
0
230
1
0
LINE
5
110
100
AcDbEntity
8
SK2
62
256
6
ByLayer
370
13
48
1
60
0
100
AcDbLine
10
28.54
20
-14.902503
30
0
11
51.559715
21
-14.902503
31
0
39
0
210
0
220
0
230
1
0
SOLID
5
111
100
AcDbEntity
8
SK2
62
256
6
ByLayer
370
13
48
1
60
0
100
AcDbTrace
10
38
20
-14.902503
30
0
11
41.499998
21
-14.441719
31
0
12
41.500002
22
-15.363287
32
0
13
38
23
-14.902503
33
0
39
0
210
0
220
0
230
1
0
SOLID
5
112
100
AcDbEntity
8
SK2
62
256
6
ByLayer
370
13
48
1
60
0
100
AcDbTrace
10
37.29
20
-14.902503
30
0
11
33.790002
21
-15.363287
31
0
12
33.789998
22
-14.441719
32
0
13
37.29
23
-14.902503
33
0
39
0
210
0
220
0
230
1
0
ENDBLK
5
114
100
AcDbEntity
8
0
100
AcDbBlockEnd
0
BLOCK
5
11D
100
AcDbEntity
8
0
100
AcDbBlockBegin
2
DimnDraft3D5
70
0
10
0
20
0
30
0
3
DimnDraft3D5
0
MTEXT
5
117
100
AcDbEntity
8
SK2
62
256
6
ByLayer
370
13
48
1
60
0
100
AcDbMText
10
-5.898008
20
-20.468428
30
0
210
0
220
0
230
1
1
\W0.7402;73,29
40
3.5
41
0
44
1.084337
50
0
71
7
72
5
7
iso_b_vert
0
LINE
5
118
100
AcDbEntity
8
SK2
62
256
6
ByLayer
370
13
48
1
60
0
100
AcDbLine
10
-36
20
-4.5875
30
0
11
-36
21
-23.343428
31
0
39
0
210
0
220
0
230
1
0
LINE
5
119
100
AcDbEntity
8
SK2
62
256
6
ByLayer
370
13
48
1
60
0
100
AcDbLine
10
37.29
20
-3.6875
30
0
11
37.29
21
-23.343428
31
0
39
0
210
0
220
0
230
1
0
LINE
5
11A
100
AcDbEntity
8
SK2
62
256
6
ByLayer
370
13
48
1
60
0
100
AcDbLine
10
-36
20
-21.343428
30
0
11
37.29
21
-21.343428
31
0
39
0
210
0
220
0
230
1
0
SOLID
5
11B
100
AcDbEntity
8
SK2
62
256
6
ByLayer
370
13
48
1
60
0
100
AcDbTrace
10
-36
20
-21.343428
30
0
11
-32.500002
21
-20.882645
31
0
12
-32.499998
22
-21.804212
32
0
13
-36
23
-21.343428
33
0
39
0
210
0
220
0
230
1
0
SOLID
5
11C
100
AcDbEntity
8
SK2
62
256
6
ByLayer
370
13
48
1
60
0
100
AcDbTrace
10
37.29
20
-21.343428
30
0
11
33.790002
21
-21.804212
31
0
12
33.789998
22
-20.882645
32
0
13
37.29
23
-21.343428
33
0
39
0
210
0
220
0
230
1
0
ENDBLK
5
11E
100
AcDbEntity
8
0
100
AcDbBlockEnd
0
BLOCK
5
128
100
AcDbEntity
8
0
100
AcDbBlockBegin
2
DimnDraft3D6
70
0
10
0
20
0
30
0
3
DimnDraft3D6
0
MTEXT
5
121
100
AcDbEntity
8
SK2
62
256
6
ByLayer
370
13
48
1
60
0
100
AcDbMText
10
-46.375163
20
22.34918
30
0
210
0
220
0
230
1
1
\W0.7317;6,000
40
3.5
41
0
44
1.084337
50
90
71
7
72
5
7
iso_b_vert
0
MTEXT
5
122
100
AcDbEntity
8
SK2
62
256
6
ByLayer
370
13
48
1
60
0
100
AcDbMText
10
-46.375163
20
17.126524
30
0
210
0
220
0
230
1
1
%%c
40
3.5
41
0
44
1.084337
50
90
71
7
72
5
7
iso_b_vert
0
LINE
5
123
100
AcDbEntity
8
SK2
62
256
6
ByLayer
370
13
48
1
60
0
100
AcDbLine
10
-37.5875
20
-3
30
0
11
-46.625163
21
-3
31
0
39
0
210
0
220
0
230
1
0
LINE
5
124
100
AcDbEntity
8
SK2
62
256
6
ByLayer
370
13
48
1
60
0
100
AcDbLine
10
-37.5875
20
3
30
0
11
-46.625163
21
3
31
0
39
0
210
0
220
0
230
1
0
LINE
5
125
100
AcDbEntity
8
SK2
62
256
6
ByLayer
370
13
48
1
60
0
100
AcDbLine
10
-44.625163
20
32.121549
30
0
11
-44.625163
21
-11.75
31
0
39
0
210
0
220
0
230
1
0
SOLID
5
126
100
AcDbEntity
8
SK2
62
256
6
ByLayer
370
13
48
1
60
0
100
AcDbTrace
10
-44.625163
20
-3
30
0
11
-44.164379
21
-6.499998
31
0
12
-45.085946
22
-6.500002
32
0
13
-44.625163
23
-3
33
0
39
0
210
0
220
0
230
1
0
SOLID
5
127
100
AcDbEntity
8
SK2
62
256
6
ByLayer
370
13
48
1
60
0
100
AcDbTrace
10
-44.625163
20
3
30
0
11
-45.085946
21
6.499998
31
0
12
-44.164379
22
6.500002
32
0
13
-44.625163
23
3
33
0
39
0
210
0
220
0
230
1
0
ENDBLK
5
129
100
AcDbEntity
8
0
100
AcDbBlockEnd
0
BLOCK
5
133
100
AcDbEntity
8
0
100
AcDbBlockBegin
2
DimnDraft3D7
70
0
10
0
20
0
30
0
3
DimnDraft3D7
0
MTEXT
5
12C
100
AcDbEntity
8
2
62
256
6
ByLayer
370
13
48
1
60
0
100
AcDbMText
10
48.333343
20
20.042266
30
0
210
0
220
0
230
1
1
\W0.7581;4,200
40
3.5
41
0
44
1.084337
50
90
71
7
72
5
7
iso_b_vert
0
MTEXT
5
12D
100
AcDbEntity
8
2
62
256
6
ByLayer
370
13
48
1
60
0
100
AcDbMText
10
48.333343
20
14.81961
30
0
210
0
220
0
230
1
1
%%c
40
3.5
41
0
44
1.084337
50
90
71
7
72
5
7
iso_b_vert
0
LINE
5
12E
100
AcDbEntity
8
2
62
256
6
ByLayer
370
13
48
1
60
0
100
AcDbLine
10
38.8775
20
-2.1
30
0
11
52.083343
21
-2.1
31
0
39
0
210
0
220
0
230
1
0
LINE
5
12F
100
AcDbEntity
8
2
62
256
6
ByLayer
370
13
48
1
60
0
100
AcDbLine
10
38.8775
20
2.1
30
0
11
52.083343
21
2.1
31
0
39
0
210
0
220
0
230
1
0
LINE
5
130
100
AcDbEntity
8
2
62
256
6
ByLayer
370
13
48
1
60
0
100
AcDbLine
10
50.083343
20
30.183056
30
0
11
50.083343
21
-10.85
31
0
39
0
210
0
220
0
230
1
0
SOLID
5
131
100
AcDbEntity
8
2
62
256
6
ByLayer
370
13
48
1
60
0
100
AcDbTrace
10
50.083343
20
-2.1
30
0
11
50.544126
21
-5.599998
31
0
12
49.622559
22
-5.600002
32
0
13
50.083343
23
-2.1
33
0
39
0
210
0
220
0
230
1
0
SOLID
5
132
100
AcDbEntity
8
2
62
256
6
ByLayer
370
13
48
1
60
0
100
AcDbTrace
10
50.083343
20
2.1
30
0
11
49.622559
21
5.599998
31
0
12
50.544126
22
5.600002
32
0
13
50.083343
23
2.1
33
0
39
0
210
0
220
0
230
1
0
ENDBLK
5
134
100
AcDbEntity
8
0
100
AcDbBlockEnd
0
ENDSEC
0
SECTION
2
ENTITIES
0
ARC
5
9E
100
AcDbEntity
8
1
62
256
6
ByLayer
370
18
48
1
60
0
100
AcDbCircle
39
0
10
0
20
2.2
30
0
40
0.799999999999996
210
0
220
0
230
1
100
AcDbArc
50
25.090015
51
90
0
ARC
5
9F
100
AcDbEntity
8
1
62
256
6
ByLayer
370
18
48
1
60
0
100
AcDbCircle
39
0
10
0
20
-2.2
30
0
40
0.799999999999996
210
0
220
0
230
1
100
AcDbArc
50
270
51
334.909985
0
ARC
5
A0
100
AcDbEntity
8
1
62
256
6
ByLayer
370
18
48
1
60
0
100
AcDbCircle
39
0
10
-1.449028
20
-2.878467
30
0
40
0.800000000000001
210
0
220
0
230
-1
100
AcDbArc
50
25.090015
51
90.034377
0
ARC
5
A1
100
AcDbEntity
8
1
62
256
6
ByLayer
370
18
48
1
60
0
100
AcDbCircle
39
0
10
-1.449028
20
2.878467
30
0
40
0.800000000000001
210
0
220
0
230
-1
100
AcDbArc
50
269.965623
51
334.909985
0
ELLIPSE
5
A2
100
AcDbEntity
8
1
62
256
6
ByLayer
370
18
48
1
60
0
100
AcDbEllipse
10
38.000195
20
0.000459
30
0
11
0.778917829565214
21
2.09788843329652
31
0
210
0
220
0
230
-1
40
0.131755
41
2.84091578206536
42
2.97028584635599
0
ELLIPSE
5
A3
100
AcDbEntity
8
1
62
256
6
ByLayer
370
18
48
1
60
0
100
AcDbEllipse
10
38.058975
20
0.02844
30
0
11
0.135544944462014
21
0.427068210146279
31
0
210
0
220
0
230
-1
40
0.100282
41
-2.33653286894748
42
-1.71927930973148
0
ELLIPSE
5
A4
100
AcDbEntity
8
1
62
256
6
ByLayer
370
18
48
1
60
0
100
AcDbEllipse
10
37.860979
20
0.089038
30
0
11
0.0727819104916059
21
0.30191719572154
31
0
210
0
220
0
230
-1
40
0.478434
41
1.68075135754484
42
2.45976119973342
0
ELLIPSE
5
A5
100
AcDbEntity
8
1
62
256
6
ByLayer
370
18
48
1
60
0
100
AcDbEllipse
10
38.000195
20
-0.000459
30
0
11
0.778917831032091
21
-2.09788843775255
31
0
210
0
220
0
230
-1
40
0.131755
41
-2.97028584653844
42
-2.84091578238858
0
ELLIPSE
5
A6
100
AcDbEntity
8
1
62
256
6
ByLayer
370
13
48
1
60
0
100
AcDbEllipse
10
4.250203
20
-2.069552
30
0
11
0.00261503036820623
21
0.0999658022334306
31
0
210
0
220
0
230
1
40
0.512113
41
0.0484047657178728
42
1.58393258220284
0
ELLIPSE
5
A7
100
AcDbEntity
8
1
62
256
6
ByLayer
370
13
48
1
60
0
100
AcDbEllipse
10
37.944101
20
1.067902
30
0
11
1.41941232440553
21
-0.60081189909474
31
0
210
0
220
0
230
-1
40
0.454918
41
1.60680404444706
42
1.91343244325605
0
ELLIPSE
5
A8
100
AcDbEntity
8
1
62
256
6
ByLayer
370
13
48
1
60
0
100
AcDbEllipse
10
37.619859
20
0.232102
30
0
11
0.153082081612418
21
0.258003636193773
31
0
210
0
220
0
230
1
40
0.454519
41
0.917105603404794
42
2.31336900500025
0
ELLIPSE
5
A9
100
AcDbEntity
8
1
62
256
6
ByLayer
370
18
48
1
60
0
100
AcDbEllipse
10
38.058975
20
-0.02844
30
0
11
0.135544944407588
21
-0.427068210009682
31
0
210
0
220
0
230
-1
40
0.100282
41
1.7192793095219
42
2.33653286890884
0
ELLIPSE
5
AA
100
AcDbEntity
8
1
62
256
6
ByLayer
370
18
48
1
60
0
100
AcDbEllipse
10
37.573904
20
1.067902
30
0
11
0.327083631766065
21
-0.880946547057584
31
0
210
0
220
0
230
-1
40
0.131755
41
-1.48871878406865
42
-0.736518128025429
0
ELLIPSE
5
AB
100
AcDbEntity
8
1
62
256
6
ByLayer
370
13
48
1
60
0
100
AcDbEllipse
10
37.754194
20
0.944705
30
0
11
1.35676410213571
21
-0.934170665761998
31
0
210
0
220
0
230
-1
40
0.533762
41
1.44484622742853
42
1.73343600070777
0
ELLIPSE
5
AC
100
AcDbEntity
8
1
62
256
6
ByLayer
370
18
48
1
60
0
100
AcDbEllipse
10
37.573904
20
-1.067902
30
0
11
0.327083631758032
21
0.880946547041153
31
0
210
0
220
0
230
-1
40
0.131755
41
0.73651812802854
42
1.48871878408369
0
ELLIPSE
5
AD
100
AcDbEntity
8
1
62
256
6
ByLayer
370
13
48
1
60
0
100
AcDbEllipse
10
4.172549
20
-2.088662
30
0
11
0.0491895613919966
21
-0.0870654182213754
31
0
210
0
220
0
230
1
40
0.472497
41
-3.07984852008867
42
-1.93415844709961
0
POINT
5
6C
100
AcDbEntity
8
81
62
256
6
ByLayer
370
18
48
1
60
0
100
AcDbPoint
10
38
20
0
30
0
39
0
210
0
220
0
230
1
50
360
0
POINT
5
6E
100
AcDbEntity
8
80
62
256
6
ByLayer
370
18
48
1
60
0
100
AcDbPoint
10
0
20
0
30
0
39
0
210
0
220
0
230
1
50
360
0
POINT
5
70
100
AcDbEntity
8
SK2
62
256
6
ByLayer
370
18
48
1
60
1
100
AcDbPoint
10
-36
20
-3
30
0
39
0
210
0
220
0
230
1
50
360
0
POINT
5
72
100
AcDbEntity
8
SK2
62
256
6
ByLayer
370
18
48
1
60
1
100
AcDbPoint
10
-36
20
3
30
0
39
0
210
0
220
0
230
1
50
360
0
POINT
5
73
100
AcDbEntity
8
2
62
256
6
ByLayer
370
18
48
1
60
1
100
AcDbPoint
10
37.29
20
-2.1
30
0
39
0
210
0
220
0
230
1
50
360
0
POINT
5
75
100
AcDbEntity
8
2
62
256
6
ByLayer
370
18
48
1
60
1
100
AcDbPoint
10
37.29
20
2.1
30
0
39
0
210
0
220
0
230
1
50
360
0
SPLINE
5
AE
100
AcDbEntity
8
1
62
256
6
ByLayer
370
18
48
1
60
0
100
AcDbSpline
70
4
71
3
72
18
73
14
40
0
40
0
40
0
40
0
40
0.0932243074012084
40
0.163411517454156
40
0.211304080115397
40
0.365124804779092
40
0.511009156806958
40
0.581854454894041
40
0.64800004035174
40
0.710975797669372
40
0.775970650246121
40
0.876556580572547
40
1
40
1
40
1
40
1
41
1
10
4.46833422961305
20
-1.97073787129398
30
0
41
1
10
4.63128297653151
20
-1.97102988631428
30
0
41
1
10
4.9168279916197
20
-1.97144602553786
30
0
41
1
10
5.2853423068716
20
-1.97177846364207
30
0
41
1
10
5.76049193636061
20
-1.9719799782915
30
0
41
1
10
6.36829460514844
20
-1.97396972834915
30
0
41
1
10
7.01606038608031
20
-1.97172875534594
30
0
41
1
10
7.51061278797297
20
-1.97288601186398
30
0
41
1
10
7.86016141300706
20
-1.97457693575413
30
0
41
1
10
8.19951465910503
20
-1.97454029765666
30
0
41
1
10
8.59908603725711
20
-1.97293110406673
30
0
41
1
10
9.10437392621611
20
-1.9747675942676
30
0
41
1
10
9.49602057790599
20
-1.97473395036823
30
0
41
1
10
9.71182114701972
20
-1.9747920550154
30
0
0
SPLINE
5
AF
100
AcDbEntity
8
1
62
256
6
ByLayer
370
18
48
1
60
0
100
AcDbSpline
70
4
71
3
72
20
73
16
40
0
40
0
40
0
40
0
40
0.101905940588999
40
0.172050501948389
40
0.23069866222812
40
0.289582383941891
40
0.350898049954051
40
0.415495988641228
40
0.484692656462314
40
0.625713427321924
40
0.750930708155582
40
0.795432452579505
40
0.842065017995381
40
0.914713159088946
40
1
40
1
40
1
40
1
41
1
10
26.1377403272682
20
-1.98441073502022
30
0
41
1
10
26.3192562511405
20
-1.9845748502814
30
0
41
1
10
26.6257162849375
20
-1.98475192462118
30
0
41
1
10
27.0366456570222
20
-1.98525016198403
30
0
41
1
10
27.3709452211709
20
-1.98478988692588
30
0
41
1
10
27.6894901786033
20
-1.98516587054215
30
0
41
1
10
28.0186697095481
20
-1.9862100540814
30
0
41
1
10
28.3661767019409
20
-1.98546747199407
30
0
41
1
10
28.8557032434988
20
-1.98599042696213
30
0
41
1
10
29.4531848498487
20
-1.98446884082509
30
0
41
1
10
30.006692663705
20
-1.98784620047544
30
0
41
1
10
30.3920635409937
20
-1.98716726507843
30
0
41
1
10
30.6836904919398
20
-1.98665289993852
30
0
41
1
10
31.0481290851562
20
-1.98610909157435
30
0
41
1
10
31.3293829275422
20
-1.98676665146687
30
0
41
1
10
31.4812597181792
20
-1.98734620365781
30
0
0
SPLINE
5
B0
100
AcDbEntity
8
1
62
256
6
ByLayer
370
18
48
1
60
0
100
AcDbSpline
70
4
71
3
72
21
73
17
40
0
40
0
40
0
40
0
40
0.108674557299417
40
0.180656442463397
40
0.239755880754128
40
0.298468601022704
40
0.357279964005778
40
0.420357822051891
40
0.494639052968551
40
0.600111929037366
40
0.698254113592704
40
0.775873393329015
40
0.818105687039504
40
0.86077257261041
40
0.926016740400214
40
1
40
1
40
1
40
1
41
1
10
15.2515911920566
20
-1.97772465686458
30
0
41
1
10
15.445300297849
20
-1.97793553522914
30
0
41
1
10
15.7673249947447
20
-1.9781972356943
30
0
41
1
10
16.1947211988861
20
-1.97827044970853
30
0
41
1
10
16.5330622357932
20
-1.9783283469464
30
0
41
1
10
16.8479286938856
20
-1.97935305756448
30
0
41
1
10
17.1698881538355
20
-1.97890935796849
30
0
41
1
10
17.5196022644702
20
-1.97872765048575
30
0
41
1
10
17.9524969484705
20
-1.97983770616165
30
0
41
1
10
18.4478999877374
20
-1.98094449503941
30
0
41
1
10
18.9492580534715
20
-1.97836760976585
30
0
41
1
10
19.3378697636509
20
-1.9820601701075
30
0
41
1
10
19.6275919991255
20
-1.98099839380865
30
0
41
1
10
19.8952522512582
20
-1.98013337421534
30
0
41
1
10
20.2195123162845
20
-1.98090327645579
30
0
41
1
10
20.4677105602499
20
-1.98127101352966
30
0
41
1
10
20.5995989164844
20
-1.98158557375837
30
0
0
SPLINE
5
B1
100
AcDbEntity
8
1
62
256
6
ByLayer
370
18
48
1
60
0
100
AcDbSpline
70
4
71
3
72
20
73
16
40
0
40
0
40
0
40
0
40
0.0885366415536676
40
0.16596029814904
40
0.216826766008958
40
0.267664297388512
40
0.320579247913675
40
0.448924334417724
40
0.595793927893614
40
0.683435161810381
40
0.757858017271144
40
0.827247018456698
40
0.896519635340594
40
0.966248524209084
40
1
40
1
40
1
40
1
41
1
10
20.5975177046695
20
1.98157989172256
30
0
41
1
10
20.4637451826398
20
1.98124931454359
30
0
41
1
10
20.2129905936332
20
1.98086979671393
30
0
41
1
10
19.8853800368791
20
1.98014731356201
30
0
41
1
10
19.6147282985596
20
1.98104133591735
30
0
41
1
10
19.3811067616283
20
1.98188739119317
30
0
41
1
10
19.0304239030161
20
1.9794872632379
30
0
41
1
10
18.5346354539232
20
1.98026816611997
30
0
41
1
10
17.986382201174
20
1.98006348552806
30
0
41
1
10
17.5196022808452
20
1.97870354569957
30
0
41
1
10
17.1698881500661
20
1.97891491253191
30
0
41
1
10
16.8479286948692
20
1.97935161725675
30
0
41
1
10
16.5330622355372
20
1.9783287326533
30
0
41
1
10
16.2720455584116
20
1.97828367088371
30
0
41
1
10
16.1156971396238
20
1.97825686522091
30
0
41
1
10
16.0647024107144
20
1.97824607411059
30
0
0
SPLINE
5
B2
100
AcDbEntity
8
1
62
256
6
ByLayer
370
18
48
1
60
0
100
AcDbSpline
70
4
71
2
72
6
73
3
40
0
40
0
40
0
40
1
40
1
40
1
41
1
10
36.9871308948784
20
-1.99081035227306
30
0
41
1
10
37.1284292744919
20
-1.98940016715577
30
0
41
1
10
37.2697426253302
20
-1.99106628538453
30
0
0
SPLINE
5
B3
100
AcDbEntity
8
1
62
256
6
ByLayer
370
18
48
1
60
0
100
AcDbSpline
70
4
71
3
72
20
73
16
40
0
40
0
40
0
40
0
40
0.104646935055021
40
0.186100894128395
40
0.246362870721227
40
0.309426531981084
40
0.379931389271518
40
0.46266028880875
40
0.551489195152678
40
0.699239909089938
40
0.82111103182545
40
0.857898480408391
40
0.89323301453366
40
0.932426328738351
40
1
40
1
40
1
40
1
41
1
10
9.71287572072353
20
1.97485234859241
30
0
41
1
10
9.55893926616474
20
1.97510744799999
30
0
41
1
10
9.28518443603886
20
1.97522922179172
30
0
41
1
10
8.92278478374416
20
1.97342310605535
30
0
41
1
10
8.62155816921916
20
1.97314240767747
30
0
41
1
10
8.33643211274307
20
1.97416100767202
30
0
41
1
10
8.01826048005617
20
1.9746818134696
30
0
41
1
10
7.66218664218351
20
1.97384493156358
30
0
41
1
10
7.19249294953974
20
1.97144473041564
30
0
41
1
10
6.66518847600486
20
1.97349051648112
30
0
41
1
10
6.21451118456011
20
1.97291405232733
30
0
41
1
10
5.92914589453741
20
1.97224832240906
30
0
41
1
10
5.76539502271118
20
1.9721011324543
30
0
41
1
10
5.55646230701774
20
1.97196072770581
30
0
41
1
10
5.39982127309688
20
1.97179869185675
30
0
41
1
10
5.30066993556784
20
1.97168952489403
30
0
0
SPLINE
5
B4
100
AcDbEntity
8
1
62
256
6
ByLayer
370
18
48
1
60
0
100
AcDbSpline
70
4
71
3
72
20
73
16
40
0
40
0
40
0
40
0
40
0.103953047068158
40
0.191504070928784
40
0.247920021303426
40
0.302206027321437
40
0.358303259692437
40
0.484744867243828
40
0.617497705379493
40
0.700447381608391
40
0.777884319945724
40
0.85138662581769
40
0.921973632462685
40
0.99227825925741
40
1
40
1
40
1
40
1
41
1
10
31.4802446030013
20
1.98734752644319
30
0
41
1
10
31.3258184879511
20
1.98676075123393
30
0
41
1
10
31.0413258855422
20
1.9861035493843
30
0
41
1
10
30.6728862557574
20
1.98667022325893
30
0
41
1
10
30.3784101088291
20
1.98719596872436
30
0
41
1
10
30.1305594584362
20
1.98760478909833
30
0
41
1
10
29.7786575949032
20
1.98666963376124
30
0
41
1
10
29.3101587066427
20
1.98555161323821
30
0
41
1
10
28.8017691323216
20
1.98582721812551
30
0
41
1
10
28.3661766320899
20
1.98548838533409
30
0
41
1
10
28.0186697267066
20
1.98620491465058
30
0
41
1
10
27.6894901742958
20
1.98516715730079
30
0
41
1
10
27.370945222279
20
1.98478955175551
30
0
41
1
10
27.1501170750684
20
1.98509388868749
30
0
41
1
10
27.0341763713908
20
1.98510185549998
30
0
41
1
10
27.0227025108889
20
1.98510131864879
30
0
0
SPLINE
5
B5
100
AcDbEntity
8
1
62
256
6
ByLayer
370
18
48
1
60
0
100
AcDbSpline
70
4
71
3
72
24
73
20
40
0
40
0
40
0
40
0
40
0.12674255348781
40
0.12674255348781
40
0.217534089813085
40
0.217534089813085
40
0.308325626138361
40
0.308325626138361
40
0.489908698788911
40
0.489908698788911
40
0.580700235114186
40
0.580700235114186
40
0.671491771439461
40
0.671491771439461
40
0.853074844090012
40
0.853074844090012
40
0.943866380415287
40
0.943866380415287
40
1
40
1
40
1
40
1
41
1
10
6.58544182777021
20
1.59941861787183
30
0
41
1
10
6.82497355166691
20
1.50862078310976
30
0
41
1
10
7.06474816108187
20
1.40618379671491
30
0
41
1
10
7.47900545680261
20
1.21268864370805
30
0
41
1
10
7.65335221688068
20
1.12637821679473
30
0
41
1
10
7.99928635695213
20
0.94738776137396
30
0
41
1
10
8.17143399549755
20
0.854525549339854
30
0
41
1
10
8.68678790626399
20
0.568146037300068
30
0
41
1
10
9.02867805247718
20
0.366452997448022
30
0
41
1
10
9.54557148661956
20
0.0584581262748145
30
0
41
1
10
9.71870154364515
20
-0.0453054815957046
30
0
41
1
10
10.066348429829
20
-0.25273618645943
30
0
41
1
10
10.2390455375819
20
-0.355304115251698
30
0
41
1
10
10.7553401862522
20
-0.657003922056816
30
0
41
1
10
11.0974309881693
20
-0.849701819780165
30
0
41
1
10
11.6127136964745
20
-1.11780232604036
30
0
41
1
10
11.7848725910618
20
-1.20362467773575
30
0
41
1
10
12.0649926108306
20
-1.33534571533718
30
0
41
1
10
12.1724671468858
20
-1.38400350865655
30
0
41
1
10
12.2797535708892
20
-1.43053102420356
30
0
0
SPLINE
5
B6
100
AcDbEntity
8
1
62
256
6
ByLayer
370
13
48
1
60
0
100
AcDbSpline
70
4
71
3
72
16
73
12
40
0
40
0
40
0
40
0
40
0.0530339538833574
40
0.0530339538833574
40
0.330894518044992
40
0.330894518044992
40
0.46982480012581
40
0.46982480012581
40
0.608755082206627
40
0.608755082206627
40
1
40
1
40
1
40
1
41
1
10
12.2797535708325
20
-1.43053102417898
30
0
41
1
10
12.3459941585422
20
-1.45925795774195
30
0
41
1
10
12.41216303696
20
-1.48717281834453
30
0
41
1
10
12.8236212920165
20
-1.65559480548549
30
0
41
1
10
13.1657546537387
20
-1.7733925698254
30
0
41
1
10
13.6802616779719
20
-1.90902766595366
30
0
41
1
10
13.8519890514831
20
-1.94743126734008
30
0
41
1
10
14.1968056680202
20
-2.00985735605568
30
0
41
1
10
14.3704474687532
20
-2.03394789653609
30
0
41
1
10
15.0323911151083
20
-2.09609899599661
30
0
41
1
10
15.5128738130399
20
-2.08005415204272
30
0
41
1
10
15.9964276972961
20
-2.00497603863653
30
0
0
SPLINE
5
B7
100
AcDbEntity
8
1
62
256
6
ByLayer
370
18
48
1
60
0
100
AcDbSpline
70
4
71
3
72
32
73
28
40
0
40
0
40
0
40
0
40
0.104644587736388
40
0.104644587736388
40
0.160604301002862
40
0.160604301002862
40
0.216564014269336
40
0.216564014269336
40
0.328483440802285
40
0.328483440802285
40
0.440402867335234
40
0.440402867335234
40
0.49636258060171
40
0.49636258060171
40
0.552322293868185
40
0.552322293868185
40
0.664241720401141
40
0.664241720401141
40
0.720201433667617
40
0.720201433667617
40
0.776161146934093
40
0.776161146934093
40
0.888080573467045
40
0.888080573467045
40
0.944040286733522
40
0.944040286733522
40
1
40
1
40
1
40
1
41
1
10
28.0648106814952
20
1.71453144795919
30
0
41
1
10
28.3866421157003
20
1.60471931776525
30
0
41
1
10
28.7061172153509
20
1.47346054793746
30
0
41
1
10
29.1981254300794
20
1.24536189728815
30
0
41
1
10
29.3697477192863
20
1.16074410840503
30
0
41
1
10
29.7143935881091
20
0.982549902456299
30
0
41
1
10
29.8883938813272
20
0.888944796343111
30
0
41
1
10
30.407393500852
20
0.60074867549946
30
0
41
1
10
30.7493745621185
20
0.398382100799523
30
0
41
1
10
31.4339479401539
20
-0.0122166751033603
30
0
41
1
10
31.776654591067
20
-0.220283701471658
30
0
41
1
10
32.2968813532746
20
-0.527248556807962
30
0
41
1
10
32.4698369014794
20
-0.627528244535199
30
0
41
1
10
32.8137720634134
20
-0.821659772689941
30
0
41
1
10
32.9850677026386
20
-0.915698786574694
30
0
41
1
10
33.4983530760053
20
-1.18673039278693
30
0
41
1
10
33.8397720372127
20
-1.352554754343
30
0
41
1
10
34.3570269034379
20
-1.56977071409915
30
0
41
1
10
34.5310117576516
20
-1.63720569840331
30
0
41
1
10
34.8765557702196
20
-1.75847891228088
30
0
41
1
10
35.0483836831726
20
-1.81248314010034
30
0
41
1
10
35.5624851816145
20
-1.95373313247438
30
0
41
1
10
35.9033541039651
20
-2.02016344986475
30
0
41
1
10
36.4184091134231
20
-2.07474891382719
30
0
41
1
10
36.5906691536064
20
-2.08543922092906
30
0
41
1
10
36.9372265619316
20
-2.09114320626401
30
0
41
1
10
37.1107323421946
20
-2.08611545981242
30
0
41
1
10
37.2839639521537
20
-2.07325929902046
30
0
0
SPLINE
5
B8
100
AcDbEntity
8
1
62
256
6
ByLayer
370
18
48
1
60
0
100
AcDbSpline
70
4
71
3
72
22
73
18
40
0
40
0
40
0
40
0
40
0.12499999999999
40
0.12499999999999
40
0.187499999999987
40
0.187499999999987
40
0.249999999999985
40
0.249999999999985
40
0.374999999999987
40
0.374999999999987
40
0.49999999999999
40
0.49999999999999
40
0.624999999999992
40
0.624999999999992
40
0.749999999999995
40
0.749999999999995
40
1
40
1
40
1
40
1
41
1
10
35.4966030124873
20
0.798696886597469
30
0
41
1
10
35.515164797469
20
0.703202868617694
30
0
41
1
10
35.5430629755425
20
0.606827679524372
30
0
41
1
10
35.5974469196252
20
0.461081681176609
30
0
41
1
10
35.6176773757583
20
0.412370373431258
30
0
41
1
10
35.6611197860235
20
0.316723871272046
30
0
41
1
10
35.6844346855074
20
0.269501072199802
30
0
41
1
10
35.7587000073825
20
0.129460544847689
30
0
41
1
10
35.8143549402631
20
0.0376626441382086
30
0
41
1
10
35.9336562248823
20
-0.13919949212746
30
0
41
1
10
35.9968747535567
20
-0.22375778260411
30
0
41
1
10
36.1290280666809
20
-0.386669629050999
30
0
41
1
10
36.1979662833501
20
-0.465019459503736
30
0
41
1
10
36.3407395731598
20
-0.616403806414326
30
0
41
1
10
36.4147311211459
20
-0.689518744830792
30
0
41
1
10
36.6395322074971
20
-0.898212591899039
30
0
41
1
10
36.794321045619
20
-1.02471372960105
30
0
41
1
10
36.9531914454214
20
-1.14074186191795
30
0
0
SPLINE
5
B9
100
AcDbEntity
8
1
62
256
6
ByLayer
370
18
48
1
60
0
100
AcDbSpline
70
4
71
3
72
8
73
4
40
0
40
0
40
0
40
0
40
1
40
1
40
1
40
1
41
1
10
4.04380272078541
20
-2.07279454805476
30
0
41
1
10
4.0633610206894
20
-2.04566763718859
30
0
41
1
10
4.08922711000568
20
-2.02159328163549
30
0
41
1
10
4.12091457066452
20
-2.00319638207154
30
0
0
SPLINE
5
BA
100
AcDbEntity
8
1
62
256
6
ByLayer
370
18
48
1
60
0
100
AcDbSpline
70
4
71
3
72
8
73
4
40
0
40
0
40
0
40
0
40
1
40
1
40
1
40
1
41
1
10
37.279797791157
20
-2.08421737204913
30
0
41
1
10
37.2811869604958
20
-2.08056535946867
30
0
41
1
10
37.2825756827982
20
-2.07691266311488
30
0
41
1
10
37.2839639521658
20
-2.07325929902609
30
0
0
SPLINE
5
BB
100
AcDbEntity
8
1
62
256
6
ByLayer
370
18
48
1
60
0
100
AcDbSpline
70
4
71
3
72
10
73
6
40
0
40
0
40
0
40
0
40
0.5
40
0.5
40
1
40
1
40
1
40
1
41
1
10
4.25066892227005
20
0.056142547979988
30
0
41
1
10
4.47470007528523
20
-0.0856569536591678
30
0
41
1
10
4.70036437568422
20
-0.225184586601046
30
0
41
1
10
5.15495504411652
20
-0.494452015924935
30
0
41
1
10
5.38213570967491
20
-0.623212863828599
30
0
41
1
10
5.61108877433313
20
-0.743605719913461
30
0
0
SPLINE
5
BC
100
AcDbEntity
8
1
62
256
6
ByLayer
370
18
48
1
60
0
100
AcDbSpline
70
4
71
3
72
64
73
60
40
0
40
0
40
0
40
0
40
0.0190699576589607
40
0.0190699576589607
40
0.0541985291776332
40
0.0541985291776332
40
0.0893271006963056
40
0.0893271006963056
40
0.124455672214978
40
0.124455672214978
40
0.15958424373365
40
0.15958424373365
40
0.194712815252323
40
0.194712815252323
40
0.229841386770995
40
0.229841386770995
40
0.264969958289668
40
0.264969958289668
40
0.30009852980834
40
0.30009852980834
40
0.335227101327013
40
0.335227101327013
40
0.370355672845685
40
0.370355672845685
40
0.405484244364358
40
0.405484244364358
40
0.44061281588303
40
0.44061281588303
40
0.475741387401703
40
0.475741387401703
40
0.510869958920375
40
0.510869958920375
40
0.545998530439047
40
0.545998530439047
40
0.581127101957721
40
0.581127101957721
40
0.616255673476395
40
0.616255673476395
40
0.651384244995068
40
0.651384244995068
40
0.686512816513742
40
0.686512816513742
40
0.721641388032415
40
0.721641388032415
40
0.756769959551089
40
0.756769959551089
40
0.791898531069762
40
0.791898531069762
40
0.827027102588436
40
0.827027102588436
40
0.86215567410711
40
0.86215567410711
40
0.897284245625783
40
0.897284245625783
40
0.932412817144457
40
0.932412817144457
40
0.96754138866313
40
0.96754138866313
40
1
40
1
40
1
40
1
41
1
10
33.8807920066812
20
-1.53265794118377
30
0
41
1
10
33.7960124999511
20
-1.56334676657846
30
0
41
1
10
33.7112082264566
20
-1.59257163326919
30
0
41
1
10
33.4706466853011
20
-1.67170956866616
30
0
41
1
10
33.3152426332981
20
-1.71864121471282
30
0
41
1
10
33.0037791749763
20
-1.80205203117055
30
0
41
1
10
32.8475071365571
20
-1.83874522050499
30
0
41
1
10
32.5352907171065
20
-1.90032058821151
30
0
41
1
10
32.3798924541796
20
-1.92479353220801
30
0
41
1
10
32.0687091836333
20
-1.96169944291441
30
0
41
1
10
31.9129177094318
20
-1.97461307132164
30
0
41
1
10
31.6007578218917
20
-1.98851221424397
30
0
41
1
10
31.444797156032
20
-1.98917732731169
30
0
41
1
10
31.1334580802132
20
-1.97813185127455
30
0
41
1
10
30.9777246149235
20
-1.96708911253825
30
0
41
1
10
30.6659953805724
20
-1.93355748194639
30
0
41
1
10
30.5099413151268
20
-1.91086737182457
30
0
41
1
10
30.1983319695153
20
-1.8538203459004
30
0
41
1
10
30.0426694559976
20
-1.81954157075685
30
0
41
1
10
29.73118729431
20
-1.73902909668669
30
0
41
1
10
29.5755615763271
20
-1.69301883008882
30
0
41
1
10
29.2637680107337
20
-1.59288140229754
30
0
41
1
10
29.10778662885
20
-1.5383528421126
30
0
41
1
10
28.7963867156747
20
-1.4191826130126
30
0
41
1
10
28.6409331487327
20
-1.35451161896165
30
0
41
1
10
28.3297875897663
20
-1.21837983281489
30
0
41
1
10
28.1735453743534
20
-1.14665051385376
30
0
41
1
10
27.8618563057207
20
-0.996705387369474
30
0
41
1
10
27.706403989665
20
-0.91789139880359
30
0
41
1
10
27.3955575883374
20
-0.755596961911607
30
0
41
1
10
27.2399080705025
20
-0.672548565717932
30
0
41
1
10
26.9277058816557
20
-0.502333423717118
30
0
41
1
10
26.7721035566002
20
-0.41532744362766
30
0
41
1
10
26.4614170854006
20
-0.23902820891729
30
0
41
1
10
26.3059780598781
20
-0.150291102971124
30
0
41
1
10
25.9943425279685
20
0.0275115937627106
30
0
41
1
10
25.838194625685
20
0.116907581530285
30
0
41
1
10
25.5273400997598
20
0.294805980626194
30
0
41
1
10
25.3720372399795
20
0.382717414606361
30
0
41
1
10
25.0608739713795
20
0.554985911365378
30
0
41
1
10
24.9050175531483
20
0.63985164985732
30
0
41
1
10
24.5936111639172
20
0.806656052639056
30
0
41
1
10
24.4382048490542
20
0.887564856120008
30
0
41
1
10
24.1271795056261
20
1.04231747033697
30
0
41
1
10
23.9716076462348
20
1.11656932674097
30
0
41
1
10
23.6606113330078
20
1.26010461312245
30
0
41
1
10
23.5047107681711
20
1.32826172862755
30
0
41
1
10
23.1935719380055
20
1.45438654490761
30
0
41
1
10
23.0380506904484
20
1.51238083640283
30
0
41
1
10
22.7274363345641
20
1.62171117481171
30
0
41
1
10
22.5717477224517
20
1.67205810674199
30
0
41
1
10
22.2601868135932
20
1.76133012831315
30
0
41
1
10
22.1046453715789
20
1.80012786815766
30
0
41
1
10
21.7942005331895
20
1.86727385421494
30
0
41
1
10
21.6389800538597
20
1.89492777480311
30
0
41
1
10
21.3274761355403
20
1.93945238270558
30
0
41
1
10
21.1715236958901
20
1.95671316316285
30
0
41
1
10
20.8739764925445
20
1.97757858986935
30
0
41
1
10
20.7316997176093
20
1.98207592437899
30
0
41
1
10
20.5894524574144
20
1.9815058503107
30
0
0
SPLINE
5
BD
100
AcDbEntity
8
1
62
256
6
ByLayer
370
18
48
1
60
0
100
AcDbSpline
70
4
71
3
72
30
73
26
40
0
40
0
40
0
40
0
40
0.0663600518829955
40
0.0663600518829955
40
0.138178509430458
40
0.138178509430458
40
0.20999696697792
40
0.20999696697792
40
0.281815424525382
40
0.281815424525382
40
0.353633882072845
40
0.353633882072845
40
0.425452339620307
40
0.425452339620307
40
0.49727079716777
40
0.49727079716777
40
0.569089254715232
40
0.569089254715232
40
0.640907712262694
40
0.640907712262694
40
0.712726169810156
40
0.712726169810156
40
0.856363084905078
40
0.856363084905078
40
1
40
1
40
1
40
1
41
1
10
12.1199266360615
20
-1.51952613779724
30
0
41
1
10
11.9755661525094
20
-1.57199040699328
30
0
41
1
10
11.8313332037784
20
-1.62010580192361
30
0
41
1
10
11.5312106179507
20
-1.71173758751908
30
0
41
1
10
11.3755302692612
20
-1.75429152660533
30
0
41
1
10
11.0636384300969
20
-1.82968777157211
30
0
41
1
10
10.9070678665962
20
-1.86223736969134
30
0
41
1
10
10.5949208880073
20
-1.91447207367386
30
0
41
1
10
10.4392719281874
20
-1.93338554916042
30
0
41
1
10
10.1277828371678
20
-1.96212103341202
30
0
41
1
10
9.97167390184183
20
-1.97125395023232
30
0
41
1
10
9.65894377060636
20
-1.97674748386876
30
0
41
1
10
9.50317176839769
20
-1.97328182703413
30
0
41
1
10
9.19188137618835
20
-1.95434301822053
30
0
41
1
10
9.03606432607862
20
-1.93828207585105
30
0
41
1
10
8.72373164022201
20
-1.89502519356068
30
0
41
1
10
8.56736891741826
20
-1.86848867684648
30
0
41
1
10
8.25586126936281
20
-1.80388575460472
30
0
41
1
10
8.10016193476653
20
-1.76596996021172
30
0
41
1
10
7.78832676257258
20
-1.67909345225752
30
0
41
1
10
7.63200156596324
20
-1.62966385998018
30
0
41
1
10
7.16409398267382
20
-1.46705863147974
30
0
41
1
10
6.85363271734889
20
-1.34349990347428
30
0
41
1
10
6.23460185841935
20
-1.06354656725591
30
0
41
1
10
5.92409991722707
20
-0.909037174154577
30
0
41
1
10
5.61132455159964
20
-0.743732394644013
30
0
0
SPLINE
5
BE
100
AcDbEntity
8
1
62
256
6
ByLayer
370
18
48
1
60
0
100
AcDbSpline
70
4
71
3
72
17
73
13
40
0
40
0
40
0
40
0
40
0.25
40
0.25
40
0.5
40
0.5
40
0.625
40
0.625
40
0.75
40
0.875
40
0.875
40
1
40
1
40
1
40
1
41
1
10
37.2753405352945
20
-1.99098551607281
30
0
41
1
10
37.2166161072412
20
-1.99097054444593
30
0
41
1
10
37.1636621488583
20
-1.97384952112529
30
0
41
1
10
37.0711675490016
20
-1.9010998054016
30
0
41
1
10
37.0335128220989
20
-1.84698418332198
30
0
41
1
10
36.9903813598827
20
-1.73824620751535
30
0
41
1
10
36.9781921181683
20
-1.69705972122344
30
0
41
1
10
36.9589832227131
20
-1.60599552112637
30
0
41
1
10
36.9450751610713
20
-1.50730853468877
30
0
41
1
10
36.9415520353
20
-1.39368764350439
30
0
41
1
10
36.9433489298583
20
-1.27241637509115
30
0
41
1
10
36.9469650423291
20
-1.20766356682748
30
0
41
1
10
36.9531914454214
20
-1.14074186191797
30
0
0
SPLINE
5
BF
100
AcDbEntity
8
1
62
256
6
ByLayer
370
13
48
1
60
0
100
AcDbSpline
70
4
71
3
72
29
73
25
40
0
40
0
40
0
40
0
40
0.125
40
0.125
40
0.1875
40
0.1875
40
0.25
40
0.25
40
0.375
40
0.375
40
0.5
40
0.5
40
0.5625
40
0.5625
40
0.625
40
0.6875
40
0.6875
40
0.75
40
0.75
40
0.875
40
0.875
40
0.9375
40
0.9375
40
1
40
1
40
1
40
1
41
1
10
4.25033748661491
20
-1.96963816814429
30
0
41
1
10
4.25035976244564
20
-1.96427242960621
30
0
41
1
10
4.25037365116216
20
-1.94641393107045
30
0
41
1
10
4.25038732454192
20
-1.90129330145697
30
0
41
1
10
4.25039069019138
20
-1.88306091157929
30
0
41
1
10
4.25039578625143
20
-1.84083074312554
30
0
41
1
10
4.25039752393991
20
-1.81693374952715
30
0
41
1
10
4.25040163905206
20
-1.73719600195466
30
0
41
1
10
4.25040295251631
20
-1.67338127199565
30
0
41
1
10
4.25040856370171
20
-1.52418105893199
30
0
41
1
10
4.25041293930013
20
-1.43824878362702
30
0
41
1
10
4.25042479318253
20
-1.29698341678977
30
0
41
1
10
4.25042963434188
20
-1.24752251653985
30
0
41
1
10
4.25044121844263
20
-1.14546900836478
30
0
41
1
10
4.25045471471367
20
-1.04005424094123
30
0
41
1
10
4.25047223085789
20
-0.927993277959018
30
0
41
1
10
4.25049173913504
20
-0.812551622877237
30
0
41
1
10
4.25050248508578
20
-0.753216199879859
30
0
41
1
10
4.25053665919506
20
-0.574011172656725
30
0
41
1
10
4.25056227937895
20
-0.451713207243046
30
0
41
1
10
4.25060224178259
20
-0.264103421203032
30
0
41
1
10
4.25061580573381
20
-0.200868231970276
30
0
41
1
10
4.25064278115579
20
-0.0729538837602206
30
0
41
1
10
4.25065620665396
20
-0.008180369337822
30
0
41
1
10
4.25066892226991
20
0.056142547979988
30
0
0
SPLINE
5
C0
100
AcDbEntity
8
1
62
256
6
ByLayer
370
18
48
1
60
0
100
AcDbSpline
70
4
71
3
72
38
73
34
40
0
40
0
40
0
40
0
40
0.131570284173296
40
0.131570284173296
40
0.197355426259944
40
0.197355426259944
40
0.263140568346592
40
0.263140568346592
40
0.328925710433239
40
0.328925710433239
40
0.394710852519888
40
0.394710852519888
40
0.460495994606535
40
0.460495994606535
40
0.526281136693183
40
0.526281136693183
40
0.559173707736508
40
0.559173707736508
40
0.592066278779833
40
0.592066278779833
40
0.657851420866483
40
0.657851420866483
40
0.723636562953133
40
0.723636562953133
40
0.789421705039783
40
0.789421705039783
40
0.855206847126433
40
0.855206847126433
40
0.920991989213083
40
0.920991989213083
40
0.986777131299733
40
0.986777131299733
40
1
40
1
40
1
40
1
41
1
10
7.62959547189058
20
0.936300501168262
30
0
41
1
10
7.94002488417723
20
0.767644868533012
30
0
41
1
10
8.25000128133738
20
0.593759250070406
30
0
41
1
10
8.71091572740653
20
0.319923423119349
30
0
41
1
10
8.8648647951143
20
0.228075784586991
30
0
41
1
10
9.17374270532537
20
0.0439000437554284
30
0
41
1
10
9.32849453962643
20
-0.0487218743629967
30
0
41
1
10
9.63815724056667
20
-0.235942080399127
30
0
41
1
10
9.79398329669067
20
-0.329242712379539
30
0
41
1
10
10.1041136917149
20
-0.510901592958334
30
0
41
1
10
10.2587113723714
20
-0.600014333545971
30
0
41
1
10
10.5663177855537
20
-0.77581937836095
30
0
41
1
10
10.7199180945676
20
-0.861532720536644
30
0
41
1
10
11.0283652326805
20
-1.02614893273767
30
0
41
1
10
11.182881250281
20
-1.1055845537532
30
0
41
1
10
11.4146326913944
20
-1.22097302147165
30
0
41
1
10
11.4918478146142
20
-1.25884278505089
30
0
41
1
10
11.6469283061615
20
-1.33237492776433
30
0
41
1
10
11.7248917197396
20
-1.36805226949824
30
0
41
1
10
11.958390408877
20
-1.47158423581055
30
0
41
1
10
12.1138841305865
20
-1.53605756079591
30
0
41
1
10
12.4239193108949
20
-1.65651858103641
30
0
41
1
10
12.5785350205628
20
-1.71232486045039
30
0
41
1
10
12.8899175839933
20
-1.81223563849994
30
0
41
1
10
13.04583766008
20
-1.85674021244699
30
0
41
1
10
13.3560695562467
20
-1.93481937811436
30
0
41
1
10
13.5104922997753
20
-1.9684104434059
30
0
41
1
10
13.8212837934067
20
-2.02281818380473
30
0
41
1
10
13.9775783739416
20
-2.04403013982198
30
0
41
1
10
14.2875153594501
20
-2.07413003747053
30
0
41
1
10
14.4411103803675
20
-2.08300488089233
30
0
41
1
10
14.6260017724454
20
-2.08611378714556
30
0
41
1
10
14.6569421786658
20
-2.08638702618401
30
0
41
1
10
14.6878771693686
20
-2.08641328479527
30
0
0
SPLINE
5
C1
100
AcDbEntity
8
1
62
256
6
ByLayer
370
18
48
1
60
0
100
AcDbSpline
70
4
71
3
72
64
73
60
40
0
40
0
40
0
40
0
40
0.03421393520749
40
0.03421393520749
40
0.06856526192478
40
0.06856526192478
40
0.10291658864207
40
0.10291658864207
40
0.13726791535936
40
0.13726791535936
40
0.17161924207665
40
0.17161924207665
40
0.20597056879394
40
0.20597056879394
40
0.24032189551123
40
0.24032189551123
40
0.27467322222852
40
0.27467322222852
40
0.30902454894581
40
0.30902454894581
40
0.3433758756631
40
0.3433758756631
40
0.37772720238039
40
0.37772720238039
40
0.41207852909768
40
0.41207852909768
40
0.446429855814971
40
0.446429855814971
40
0.48078118253226
40
0.48078118253226
40
0.515132509249551
40
0.515132509249551
40
0.549483835966841
40
0.549483835966841
40
0.583835162684131
40
0.583835162684131
40
0.618186489401421
40
0.618186489401421
40
0.652537816118711
40
0.652537816118711
40
0.686889142836001
40
0.686889142836001
40
0.721240469553291
40
0.721240469553291
40
0.755591796270581
40
0.755591796270581
40
0.789943122987871
40
0.789943122987871
40
0.824294449705161
40
0.824294449705161
40
0.858645776422451
40
0.858645776422451
40
0.892997103139741
40
0.892997103139741
40
0.927348429857031
40
0.927348429857031
40
0.996051083291614
40
0.996051083291614
40
1
40
1
40
1
40
1
41
1
10
22.9509762231441
20
1.51899968465906
30
0
41
1
10
23.1055222462938
20
1.58372332129918
30
0
41
1
10
23.2600640013648
20
1.64330208136443
30
0
41
1
10
23.569971223168
20
1.75210586893627
30
0
41
1
10
23.7251920049706
20
1.80153838485376
30
0
41
1
10
24.0350099012044
20
1.8903677073267
30
0
41
1
10
24.1905929460417
20
1.92910262756902
30
0
41
1
10
24.5002718974432
20
1.99395807756744
30
0
41
1
10
24.6545427517852
20
2.02042949793733
30
0
41
1
10
24.9613011685566
20
2.06168063367318
30
0
41
1
10
25.1143324817455
20
2.07616684489608
30
0
41
1
10
25.4214793655458
20
2.09276334895088
30
0
41
1
10
25.5752474576388
20
2.09501370321462
30
0
41
1
10
25.8825779414952
20
2.0870887482198
30
0
41
1
10
26.0363560561051
20
2.07680779803684
30
0
41
1
10
26.3467065306089
20
2.04403621478045
30
0
41
1
10
26.5027607965689
20
2.02149593341227
30
0
41
1
10
26.8126695675883
20
1.96416577767883
30
0
41
1
10
26.9669500704561
20
1.92920205920342
30
0
41
1
10
27.2773148333237
20
1.84876747061358
30
0
41
1
10
27.4332025843247
20
1.80297141103529
30
0
41
1
10
27.7436668873087
20
1.70023983016975
30
0
41
1
10
27.8979515138249
20
1.64307489060533
30
0
41
1
10
28.2080735914828
20
1.5207412254158
30
0
41
1
10
28.3634354016731
20
1.45516744562505
30
0
41
1
10
28.6742113875321
20
1.31442731616551
30
0
41
1
10
28.8288079367625
20
1.23898497655932
30
0
41
1
10
29.1389010658263
20
1.08336491897785
30
0
41
1
10
29.2941496223444
20
1.00260050738754
30
0
41
1
10
29.6044859576068
20
0.834326238042308
30
0
41
1
10
29.759413999466
20
0.746012473153684
30
0
41
1
10
30.0696907388544
20
0.568067037547735
30
0
41
1
10
30.2249347434658
20
0.477859625467744
30
0
41
1
10
30.5350383805803
20
0.294035909411804
30
0
41
1
10
30.6897006148238
20
0.199532763652741
30
0
41
1
10
31.0001583936068
20
0.0118793264251735
30
0
41
1
10
31.154951024607
20
-0.0810282182743549
30
0
41
1
10
31.4630721201303
20
-0.266145136765175
30
0
41
1
10
31.615987387366
20
-0.359023738241973
30
0
41
1
10
31.9223945882541
20
-0.540613667899919
30
0
41
1
10
32.0759816874685
20
-0.629203102572404
30
0
41
1
10
32.3831808063347
20
-0.803211505861157
30
0
41
1
10
32.5364638803521
20
-0.889125468862858
30
0
41
1
10
32.8445425273003
20
-1.05530529937067
30
0
41
1
10
33.0001824832293
20
-1.13511667381559
30
0
41
1
10
33.3110218255019
20
-1.28803421262984
30
0
41
1
10
33.4656301299024
20
-1.36129002037521
30
0
41
1
10
33.7747533238169
20
-1.49925453155433
30
0
41
1
10
33.9299650756576
20
-1.56317642820758
30
0
41
1
10
34.240863177451
20
-1.68200478845873
30
0
41
1
10
34.3960458305988
20
-1.73693651118569
30
0
41
1
10
34.7051715260707
20
-1.83607410923668
30
0
41
1
10
34.8602124070049
20
-1.87968335750765
30
0
41
1
10
35.1706341216923
20
-1.95577209039249
30
0
41
1
10
35.3261381467546
20
-1.98836616859722
30
0
41
1
10
35.7902622078553
20
-2.06802649530852
30
0
41
1
10
36.100834779831
20
-2.09605616680221
30
0
41
1
10
36.4285782093129
20
-2.09936941983787
30
0
41
1
10
36.4463912324712
20
-2.09946675547383
30
0
41
1
10
36.4642027917083
20
-2.0994813871711
30
0
0
SPLINE
5
C2
100
AcDbEntity
8
1
62
256
6
ByLayer
370
18
48
1
60
0
100
AcDbSpline
70
4
71
3
72
28
73
24
40
0
40
0
40
0
40
0
40
0.249999999999997
40
0.249999999999997
40
0.499999999999994
40
0.499999999999994
40
0.624999999999985
40
0.624999999999985
40
0.687499999999987
40
0.687499999999987
40
0.74999999999999
40
0.74999999999999
40
0.812499999999993
40
0.812499999999993
40
0.874999999999995
40
0.874999999999995
40
0.906249999999996
40
0.906249999999996
40
0.937499999999998
40
0.937499999999998
40
0.968749999999999
40
0.968749999999999
40
1
40
1
40
1
40
1
41
1
10
35.4966030124882
20
0.798696886597696
30
0
41
1
10
35.634240272568
20
0.67977631410767
30
0
41
1
10
35.7772714869357
20
0.570589204150991
30
0
41
1
10
36.0653465767574
20
0.383367993396433
30
0
41
1
10
36.2109575146011
20
0.304384005555562
30
0
41
1
10
36.4323226186698
20
0.213319782663859
30
0
41
1
10
36.5068913374093
20
0.187553771144678
30
0
41
1
10
36.6172861952401
20
0.157907443142761
30
0
41
1
10
36.6539427271103
20
0.149489423462995
30
0
41
1
10
36.7266234158271
20
0.135860252321891
30
0
41
1
10
36.7628452147201
20
0.130101284430538
30
0
41
1
10
36.8331983071898
20
0.126397154977298
30
0
41
1
10
36.8671446927715
20
0.128083613020863
30
0
41
1
10
36.9299181280053
20
0.143533965612619
30
0
41
1
10
36.9589251335034
20
0.157702734786767
30
0
41
1
10
36.9939111422106
20
0.189839140724843
30
0
41
1
10
37.0043720973659
20
0.202564847145823
30
0
41
1
10
37.0216373332877
20
0.231009600753111
30
0
41
1
10
37.0285554821724
20
0.246742773484272
30
0
41
1
10
37.0388624353479
20
0.281319189295772
30
0
41
1
10
37.0421829258119
20
0.300280094348125
30
0
41
1
10
37.044997881697
20
0.33953840965566
30
0
41
1
10
37.0445694636288
20
0.360038598965076
30
0
41
1
10
37.0424576374708
20
0.381337472800595
30
0
0
SPLINE
5
C3
100
AcDbEntity
8
1
62
256
6
ByLayer
370
18
48
1
60
0
100
AcDbSpline
70
4
71
3
72
24
73
20
40
0
40
0
40
0
40
0
40
0.0625000000000002
40
0.0625000000000002
40
0.125
40
0.125
40
0.25
40
0.25
40
0.375
40
0.375
40
0.5
40
0.5
40
0.625
40
0.625
40
0.75
40
0.75
40
0.875
40
0.875
40
1
40
1
40
1
40
1
41
1
10
37.6720656460844
20
-0.398134902912574
30
0
41
1
10
37.6641673272896
20
-0.416726321387927
30
0
41
1
10
37.6570069989554
20
-0.436362826403496
30
0
41
1
10
37.6454907366455
20
-0.474788621893708
30
0
41
1
10
37.6409544148656
20
-0.494248337170205
30
0
41
1
10
37.632630737607
20
-0.547583463506101
30
0
41
1
10
37.6341682980639
20
-0.57741071707315
30
0
41
1
10
37.6489844268018
20
-0.613325540083935
30
0
41
1
10
37.6620001713417
20
-0.620396212537855
30
0
41
1
10
37.6930534448665
20
-0.615296174940937
30
0
41
1
10
37.7112349246176
20
-0.603472173210804
30
0
41
1
10
37.7493271371374
20
-0.56434150021974
30
0
41
1
10
37.7690617833646
20
-0.537139387106663
30
0
41
1
10
37.8053996851713
20
-0.472241938308997
30
0
41
1
10
37.8221794186257
20
-0.434103833065478
30
0
41
1
10
37.846110381347
20
-0.356142682783343
30
0
41
1
10
37.8524052222165
20
-0.318528117464666
30
0
41
1
10
37.8506703265807
20
-0.260582731184314
30
0
41
1
10
37.8429125792836
20
-0.242025070366879
30
0
41
1
10
37.8308701430552
20
-0.234087668413508
30
0
0
SPLINE
5
C4
100
AcDbEntity
8
1
62
256
6
ByLayer
370
18
48
1
60
0
100
AcDbSpline
70
4
71
3
72
14
73
10
40
0
40
0
40
0
40
0
40
0.104421218711182
40
0.104421218711182
40
0.351274923683562
40
0.351274923683562
40
0.598128628655942
40
0.598128628655942
40
1
40
1
40
1
40
1
41
1
10
26.1777212798079
20
-1.98441840286389
30
0
41
1
10
26.1052543312011
20
-1.984523930482
30
0
41
1
10
26.0327387790155
20
-1.9833329416044
30
0
41
1
10
25.7885198003257
20
-1.97496173965553
30
0
41
1
10
25.6164091184404
20
-1.96183954583796
30
0
41
1
10
25.2701912205645
20
-1.92073123098521
30
0
41
1
10
25.0969678934539
20
-1.89272298221243
30
0
41
1
10
24.6449000456434
20
-1.8017979618574
30
0
41
1
10
24.36643665419
20
-1.72770951433978
30
0
41
1
10
24.0877248190964
20
-1.63757067675488
30
0
0
SPLINE
5
C5
100
AcDbEntity
8
1
62
256
6
ByLayer
370
13
48
1
60
0
100
AcDbSpline
70
4
71
3
72
26
73
22
40
0
40
0
40
0
40
0
40
0.0312810007081507
40
0.0312810007081507
40
0.115363797003561
40
0.115363797003561
40
0.199446593298972
40
0.199446593298972
40
0.283529389594382
40
0.283529389594382
40
0.367612185889793
40
0.367612185889793
40
0.535777778480617
40
0.535777778480617
40
0.70394337107144
40
0.70394337107144
40
0.788026167366853
40
0.788026167366853
40
0.872108963662266
40
0.872108963662266
40
1
40
1
40
1
40
1
41
1
10
24.0877248189433
20
-1.63757067670534
30
0
41
1
10
24.0240333180036
20
-1.61697206144672
30
0
41
1
10
23.9603288428805
20
-1.59553526533318
30
0
41
1
10
23.7252593713776
20
-1.51346087561521
30
0
41
1
10
23.553670980522
20
-1.44780498872953
30
0
41
1
10
23.2088674242275
20
-1.30573562164264
30
0
41
1
10
23.035184086045
20
-1.22900598129507
30
0
41
1
10
22.6890308043636
20
-1.0672202722069
30
0
41
1
10
22.516263034582
20
-0.982230299618521
30
0
41
1
10
22.1703342872952
20
-0.805572387430658
30
0
41
1
10
21.996887223667
20
-0.71371212915912
30
0
41
1
10
21.476979258204
20
-0.431190971898189
30
0
41
1
10
21.1322009061762
20
-0.2344526503515
30
0
41
1
10
20.4383822251708
20
0.162124167128724
30
0
41
1
10
20.0945048159438
20
0.359061958112363
30
0
41
1
10
19.5791832907367
20
0.642250993004183
30
0
41
1
10
19.4073841192467
20
0.734607811079542
30
0
41
1
10
19.0626824221665
20
0.913405270885022
30
0
41
1
10
18.88956972775
20
1.00020639608863
30
0
41
1
10
18.4527023444461
20
1.20929372509059
30
0
41
1
10
18.1909687449543
20
1.3248611146509
30
0
41
1
10
17.9295493622224
20
1.42810311682842
30
0
0
SPLINE
5
C6
100
AcDbEntity
8
1
62
256
6
ByLayer
370
13
48
1
60
0
100
AcDbSpline
70
4
71
3
72
8
73
4
40
0
40
0
40
0
40
0
40
1
40
1
40
1
40
1
41
1
10
4.4950150539552
20
-1.97078835707282
30
0
41
1
10
4.41350995544656
20
-1.97205540121419
30
0
41
1
10
4.33196671028568
20
-1.97167573292239
30
0
41
1
10
4.25033748661454
20
-1.96963816814426
30
0
0
SPLINE
5
C7
100
AcDbEntity
8
1
62
256
6
ByLayer
370
18
48
1
60
0
100
AcDbSpline
70
4
71
3
72
18
73
14
40
0
40
0
40
0
40
0
40
0.125
40
0.125
40
0.25
40
0.25
40
0.375
40
0.375
40
0.5
40
0.5
40
0.75
40
0.75
40
1
40
1
40
1
40
1
41
1
10
37.6720656460836
20
-0.398134902912204
30
0
41
1
10
37.6626523133108
20
-0.383101310265118
30
0
41
1
10
37.6543888553053
20
-0.366881183460066
30
0
41
1
10
37.6433597465458
20
-0.334193079891435
30
0
41
1
10
37.640708238871
20
-0.317791411624654
30
0
41
1
10
37.6429513913138
20
-0.288180315455804
30
0
41
1
10
37.6477722202614
20
-0.275601352127609
30
0
41
1
10
37.6618951823115
20
-0.255702018783324
30
0
41
1
10
37.6712369328904
20
-0.248128382156125
30
0
41
1
10
37.7020030844647
20
-0.231176979130026
30
0
41
1
10
37.7266207011647
20
-0.226811740101084
30
0
41
1
10
37.7772035373831
20
-0.225401412131305
30
0
41
1
10
37.8038699946998
20
-0.228458476980762
30
0
41
1
10
37.8308701430551
20
-0.234087668413508
30
0
0
SPLINE
5
C8
100
AcDbEntity
8
1
62
256
6
ByLayer
370
18
48
1
60
0
100
AcDbSpline
70
4
71
3
72
8
73
4
40
0
40
0
40
0
40
0
40
1
40
1
40
1
40
1
41
1
10
37.2797977911561
20
2.08421737206382
30
0
41
1
10
37.1379401510981
20
2.09467759744527
30
0
41
1
10
36.9963558591799
20
2.0998358082916
30
0
41
1
10
36.854792807922
20
2.09972603118465
30
0
0
SPLINE
5
C9
100
AcDbEntity
8
1
62
256
6
ByLayer
370
18
48
1
60
0
100
AcDbSpline
70
4
71
3
72
40
73
36
40
0
40
0
40
0
40
0
40
0.0115458002573062
40
0.0115458002573062
40
0.184314735397953
40
0.184314735397953
40
0.227506969183115
40
0.227506969183115
40
0.270699202968276
40
0.270699202968276
40
0.357083670538598
40
0.357083670538598
40
0.400275904323759
40
0.400275904323759
40
0.443468138108921
40
0.443468138108921
40
0.529852605679244
40
0.529852605679244
40
0.573044839464404
40
0.573044839464404
40
0.616237073249565
40
0.616237073249565
40
0.702621540819887
40
0.702621540819887
40
0.745813774605048
40
0.745813774605048
40
0.789006008390209
40
0.789006008390209
40
0.875390475960529
40
0.875390475960529
40
0.918582709745689
40
0.918582709745689
40
0.96177494353085
40
0.96177494353085
40
1
40
1
40
1
40
1
41
1
10
27.0651646416275
20
-1.99018844055681
30
0
41
1
10
27.0187157345503
20
-1.99888424814233
30
0
41
1
10
26.9722564442283
20
-2.0070446772751
30
0
41
1
10
26.2309491012852
20
-2.12851023078193
30
0
41
1
10
25.5523517365326
20
-2.1184479278464
30
0
41
1
10
24.683801055428
20
-1.95225943668569
30
0
41
1
10
24.5097736829859
20
-1.91142747808411
30
0
41
1
10
24.1643306038541
20
-1.81656590952016
30
0
41
1
10
23.9922930986013
20
-1.76241937652236
30
0
41
1
10
23.476952908175
20
-1.58122116245013
30
0
41
1
10
23.1340751554387
20
-1.43577950048177
30
0
41
1
10
22.6152030396725
20
-1.18641056953064
30
0
41
1
10
22.4406533876096
20
-1.0978102032465
30
0
41
1
10
22.0938244457581
20
-0.91433413788198
30
0
41
1
10
21.9213145941486
20
-0.819342406014187
30
0
41
1
10
21.4050733019256
20
-0.526961688965997
30
0
41
1
10
21.0625713815084
20
-0.322255581811106
30
0
41
1
10
20.5451249410463
20
-0.0106807344203048
30
0
41
1
10
20.3720234289669
20
0.0939218138829574
30
0
41
1
10
20.0236652714377
20
0.303133691711963
30
0
41
1
10
19.8504960324568
20
0.406342502780603
30
0
41
1
10
19.3330136033685
20
0.709105554795741
30
0
41
1
10
18.9903112237201
20
0.901671510002359
30
0
41
1
10
18.4741691583703
20
1.1681360555481
30
0
41
1
10
18.3016745874867
20
1.25307759754617
30
0
41
1
10
17.9548690532331
20
1.41377937958387
30
0
41
1
10
17.7801942647817
20
1.48962557952265
30
0
41
1
10
17.2608440675161
20
1.69769510561136
30
0
41
1
10
16.9178781700286
20
1.81165709504677
30
0
41
1
10
16.4022207265995
20
1.94078269268078
30
0
41
1
10
16.2301721393237
20
1.97687932169978
30
0
41
1
10
15.8846662833382
20
2.03432386475475
30
0
41
1
10
15.7106803894378
20
2.05572705239294
30
0
41
1
10
15.3828672338401
20
2.08119284701337
30
0
41
1
10
15.229740934232
20
2.08696124793508
30
0
41
1
10
15.0770692822056
20
2.08665030401218
30
0
0
SPLINE
5
CA
100
AcDbEntity
8
1
62
256
6
ByLayer
370
18
48
1
60
0
100
AcDbSpline
70
4
71
3
72
10
73
6
40
0
40
0
40
0
40
0
40
0.123960991232281
40
0.123960991232281
40
1
40
1
40
1
40
1
41
1
10
5.3233236962252
20
-1.97255504252459
30
0
41
1
10
5.27478422221247
20
-1.98181875669115
30
0
41
1
10
5.22624881313362
20
-1.99049725731731
30
0
41
1
10
4.83463991671911
20
-2.05573005260638
30
0
41
1
10
4.49110368694994
20
-2.08342608247557
30
0
41
1
10
4.14338629845801
20
-2.07980433223744
30
0
0
SPLINE
5
CB
100
AcDbEntity
8
1
62
256
6
ByLayer
370
13
48
1
60
0
100
AcDbSpline
70
4
71
3
72
10
73
6
40
0
40
0
40
0
40
0
40
0.96616419867211
40
0.96616419867211
40
1
40
1
40
1
40
1
41
1
10
4.19897888775063
20
-2.06952574407328
30
0
41
1
10
4.54630371102547
20
-2.06992919279301
30
0
41
1
10
4.89189770202049
20
-2.03897638246551
30
0
41
1
10
5.251803638659
20
-1.97560953485373
30
0
41
1
10
5.26397671130053
20
-1.97342943700116
30
0
41
1
10
5.27614528230171
20
-1.97121351044822
30
0
0
SPLINE
5
CC
100
AcDbEntity
8
1
62
256
6
ByLayer
370
18
48
1
60
0
100
AcDbSpline
70
4
71
3
72
26
73
22
40
0
40
0
40
0
40
0
40
0.0471754384888241
40
0.0471754384888241
40
0.22587136086946
40
0.22587136086946
40
0.315219322059778
40
0.315219322059778
40
0.404567283250096
40
0.404567283250096
40
0.493915244440414
40
0.493915244440414
40
0.583263205630732
40
0.583263205630732
40
0.761959128011364
40
0.761959128011364
40
0.85130708920168
40
0.85130708920168
40
0.940655050391995
40
0.940655050391995
40
1
40
1
40
1
40
1
41
1
10
17.3727719971547
20
1.64062093608982
30
0
41
1
10
17.4637101388462
20
1.60723662097252
30
0
41
1
10
17.554549836494
20
1.5721925197189
30
0
41
1
10
17.9893231194809
20
1.39680871608468
30
0
41
1
10
18.3330919911283
20
1.23558780353781
30
0
41
1
10
18.8539586586849
20
0.966440794269346
30
0
41
1
10
19.0271787519196
20
0.873021877045346
30
0
41
1
10
19.3721782361342
20
0.68135578245591
30
0
41
1
10
19.5441384143314
20
0.582825624716634
30
0
41
1
10
19.8880185123815
20
0.382124256748654
30
0
41
1
10
20.0599597491911
20
0.279983523133723
30
0
41
1
10
20.4048401327655
20
0.0737379555397979
30
0
41
1
10
20.5780836075578
20
-0.0304166967799233
30
0
41
1
10
21.0991871785784
20
-0.342429489371853
30
0
41
1
10
21.4443885490214
20
-0.547280648624223
30
0
41
1
10
21.9652181142517
20
-0.839436979555444
30
0
41
1
10
22.138876124832
20
-0.933978426927951
30
0
41
1
10
22.4852891983018
20
-1.11501150225496
30
0
41
1
10
22.6583143609679
20
-1.20169098719677
30
0
41
1
10
22.9468297895836
20
-1.33832239364654
30
0
41
1
10
23.0622135764266
20
-1.39077553235325
30
0
41
1
10
23.1772783024605
20
-1.44069075336057
30
0
0
SPLINE
5
CD
100
AcDbEntity
8
1
62
256
6
ByLayer
370
13
48
1
60
0
100
AcDbSpline
70
4
71
3
72
18
73
14
40
0
40
0
40
0
40
0
40
0.0466663176815326
40
0.0466663176815326
40
0.185636314401153
40
0.185636314401153
40
0.463576307840396
40
0.463576307840396
40
0.602546304560021
40
0.602546304560021
40
0.741516301279645
40
0.741516301279645
40
1
40
1
40
1
40
1
41
1
10
23.1772773849778
20
-1.44069035535543
30
0
41
1
10
23.235450936913
20
-1.46592612085658
30
0
41
1
10
23.2935429361761
20
-1.49051318611546
30
0
41
1
10
23.5240212523612
20
-1.58550236681674
30
0
41
1
10
23.6957213422772
20
-1.6507050646384
30
0
41
1
10
24.2100408268002
20
-1.82726144578589
30
0
41
1
10
24.5519064411886
20
-1.91931467724311
30
0
41
1
10
25.0686672382896
20
-2.01443704929858
30
0
41
1
10
25.242323798553
20
-2.03898921322568
30
0
41
1
10
25.5889050146929
20
-2.07230876133943
30
0
41
1
10
25.7611598310525
20
-2.0811619248733
30
0
41
1
10
26.2523209655151
20
-2.08467211094109
30
0
41
1
10
26.570078072315
20
-2.06046543351232
30
0
41
1
10
26.8893081838585
20
-2.01032314848504
30
0
0
SPLINE
5
CE
100
AcDbEntity
8
1
62
256
6
ByLayer
370
18
48
1
60
0
100
AcDbSpline
70
4
71
3
72
36
73
32
40
0
40
0
40
0
40
0
40
0.0914661906471071
40
0.0914661906471071
40
0.137199285970661
40
0.137199285970661
40
0.182932381294214
40
0.182932381294214
40
0.274398571941324
40
0.274398571941324
40
0.320131667264879
40
0.320131667264879
40
0.365864762588434
40
0.365864762588434
40
0.457330953235546
40
0.457330953235546
40
0.503064048559102
40
0.503064048559102
40
0.548797143882659
40
0.548797143882659
40
0.640263334529771
40
0.640263334529771
40
0.685996429853328
40
0.685996429853328
40
0.731729525176884
40
0.731729525176884
40
0.914661906471109
40
0.914661906471109
40
0.960395001794665
40
0.960395001794665
40
1
40
1
40
1
40
1
41
1
10
37.2797977911557
20
-2.08421737206385
30
0
41
1
10
36.9338888715771
20
-2.10972382528527
30
0
41
1
10
36.5902805007401
20
-2.10365656097207
30
0
41
1
10
36.0728527484355
20
-2.04847941213538
30
0
41
1
10
35.9000669699362
20
-2.02238278071576
30
0
41
1
10
35.5529259184265
20
-1.95477181026717
30
0
41
1
10
35.3790887465254
20
-1.9133735611893
30
0
41
1
10
34.8607395674495
20
-1.76913960125569
30
0
41
1
10
34.5172206310922
20
-1.64589077036811
30
0
41
1
10
33.999105728304
20
-1.42634114549537
30
0
41
1
10
33.8256409637253
20
-1.3472623811341
30
0
41
1
10
33.4779631168192
20
-1.17896689639292
30
0
41
1
10
33.3052179803495
20
-1.09057887003715
30
0
41
1
10
32.7885611045791
20
-0.815413909338133
30
0
41
1
10
32.4461877569214
20
-0.61872756450893
30
0
41
1
10
31.9303384125555
20
-0.312399066013967
30
0
41
1
10
31.7579356920654
20
-0.208517504075843
30
0
41
1
10
31.4111211055199
20
0.0010196885050107
30
0
41
1
10
31.2367899848742
20
0.106635090125565
30
0
41
1
10
30.7186345861423
20
0.418794187506336
30
0
41
1
10
30.3762378224452
20
0.621772867084985
30
0
41
1
10
29.8607884227791
20
0.908432735253882
30
0
41
1
10
29.6887954705775
20
1.00122858603564
30
0
41
1
10
29.3435634435338
20
1.17981830272984
30
0
41
1
10
29.1693614731123
20
1.26560777190355
30
0
41
1
10
28.3015807344939
20
1.66684059613644
30
0
41
1
10
27.6234823017022
20
1.90008124986497
30
0
41
1
10
26.7541600240439
20
2.04284445787459
30
0
41
1
10
26.5804467801756
20
2.06372387753049
30
0
41
1
10
26.258495627029
20
2.08804716259516
30
0
41
1
10
26.1095827658762
20
2.09350192913533
30
0
41
1
10
25.9608512177634
20
2.09316571032886
30
0
0
SPLINE
5
CF
100
AcDbEntity
8
1
62
256
6
ByLayer
370
18
48
1
60
0
100
AcDbSpline
70
4
71
3
72
40
73
36
40
0
40
0
40
0
40
0
40
0.0430580069449587
40
0.0430580069449587
40
0.0867719574797516
40
0.0867719574797516
40
0.130485908014544
40
0.130485908014544
40
0.217913809084132
40
0.217913809084132
40
0.261627759618925
40
0.261627759618925
40
0.305341710153718
40
0.305341710153718
40
0.392769611223303
40
0.392769611223303
40
0.436483561758096
40
0.436483561758096
40
0.480197512292889
40
0.480197512292889
40
0.567625413362476
40
0.567625413362476
40
0.61133936389727
40
0.61133936389727
40
0.655053314432064
40
0.655053314432064
40
0.742481215501652
40
0.742481215501652
40
0.786195166036446
40
0.786195166036446
40
0.829909116571241
40
0.829909116571241
40
0.91733701764083
40
0.91733701764083
40
1
40
1
40
1
40
1
41
1
10
16.0517382892405
20
-2.00654688276097
30
0
41
1
10
15.8819979785226
20
-2.03461246467518
30
0
41
1
10
15.7117491928451
20
-2.05553267470162
30
0
41
1
10
15.3666353783331
20
-2.08256443280803
30
0
41
1
10
15.1925846853358
20
-2.08830676563807
30
0
41
1
10
14.8469932594039
20
-2.08416375487198
30
0
41
1
10
14.6749364252306
20
-2.07432530547763
30
0
41
1
10
14.1593833053916
20
-2.0220480122756
30
0
41
1
10
13.81621624637
20
-1.95700759919552
30
0
41
1
10
13.2967949374638
20
-1.81617947218979
30
0
41
1
10
13.1221587406669
20
-1.76172441650172
30
0
41
1
10
12.7752998853547
20
-1.64074778205961
30
0
41
1
10
12.6027331515728
20
-1.57423603181329
30
0
41
1
10
12.0861740252545
20
-1.35861012090177
30
0
41
1
10
11.7434908469269
20
-1.1931908210469
30
0
41
1
10
11.2258075942599
20
-0.920603758816952
30
0
41
1
10
11.0525975373174
20
-0.825727530336593
30
0
41
1
10
10.7038996076811
20
-0.629224166384148
30
0
41
1
10
10.5307183863871
20
-0.528761884780181
30
0
41
1
10
10.0130404754429
20
-0.223696157886337
30
0
41
1
10
9.67020151620733
20
-0.0156844335265021
30
0
41
1
10
9.15353910267902
20
0.293421131462139
30
0
41
1
10
8.9809987794354
20
0.396109154868242
30
0
41
1
10
8.6340429750303
20
0.598697895954558
30
0
41
1
10
8.45927374301027
20
0.698729558016254
30
0
41
1
10
7.93947682551365
20
0.987105547769573
30
0
41
1
10
7.59632373191059
20
1.16574371824382
30
0
41
1
10
7.08056779231316
20
1.40487161215765
30
0
41
1
10
6.90844616882882
20
1.47973201020466
30
0
41
1
10
6.56270261385797
20
1.61829884396883
30
0
41
1
10
6.38852331717376
20
1.68219484750631
30
0
41
1
10
5.86627119723354
20
1.85398590030962
30
0
41
1
10
5.52260279594614
20
1.94106679249108
30
0
41
1
10
4.85379567796446
20
2.05260030097963
30
0
41
1
10
4.52863721968578
20
2.08031901321905
30
0
41
1
10
4.20021320665359
20
2.08011772349775
30
0
0
SPLINE
5
D0
100
AcDbEntity
8
1
62
256
6
ByLayer
370
18
48
1
60
0
100
AcDbSpline
70
4
71
3
72
66
73
62
40
0
40
0
40
0
40
0
40
0.0135352228831904
40
0.0135352228831904
40
0.047975231075116
40
0.047975231075116
40
0.0824152392670416
40
0.0824152392670416
40
0.116855247458967
40
0.116855247458967
40
0.151295255650893
40
0.151295255650893
40
0.185735263842818
40
0.185735263842818
40
0.220175272034744
40
0.220175272034744
40
0.25461528022667
40
0.25461528022667
40
0.289055288418595
40
0.289055288418595
40
0.323495296610521
40
0.323495296610521
40
0.357935304802447
40
0.357935304802447
40
0.392375312994372
40
0.392375312994372
40
0.426815321186298
40
0.426815321186298
40
0.461255329378223
40
0.461255329378223
40
0.495695337570149
40
0.495695337570149
40
0.530135345762074
40
0.530135345762074
40
0.564575353954
40
0.564575353954
40
0.599015362145926
40
0.599015362145926
40
0.633455370337851
40
0.633455370337851
40
0.667895378529777
40
0.667895378529777
40
0.702335386721703
40
0.702335386721703
40
0.736775394913628
40
0.736775394913628
40
0.771215403105554
40
0.771215403105554
40
0.805655411297479
40
0.805655411297479
40
0.840095419489405
40
0.840095419489405
40
0.874535427681331
40
0.874535427681331
40
0.908975435873256
40
0.908975435873256
40
0.943415444065182
40
0.943415444065182
40
0.977855452257107
40
0.977855452257107
40
1
40
1
40
1
40
1
41
1
10
12.0859297688418
20
1.52329022005034
30
0
41
1
10
12.1469816559544
20
1.5482905142963
30
0
41
1
10
12.2079784589976
20
1.57261695637152
30
0
41
1
10
12.4239193108961
20
1.65651858103686
30
0
41
1
10
12.5785350205641
20
1.71232486045085
30
0
41
1
10
12.8899175839948
20
1.8122356385004
30
0
41
1
10
13.0458376600814
20
1.85674021244736
30
0
41
1
10
13.356069556248
20
1.93481937811464
30
0
41
1
10
13.5104922997766
20
1.96841044340616
30
0
41
1
10
13.8212837934081
20
2.02281818380493
30
0
41
1
10
13.9775783739431
20
2.04403013982216
30
0
41
1
10
14.2875153594512
20
2.07413003747061
30
0
41
1
10
14.4411103803685
20
2.08300488089239
30
0
41
1
10
14.7490059058294
20
2.08818207337106
30
0
41
1
10
14.9028738908324
20
2.08465525378438
30
0
41
1
10
15.2099103543933
20
2.06539308354797
30
0
41
1
10
15.3627050737306
20
2.04944022350873
30
0
41
1
10
15.6703564017912
20
2.0058169853381
30
0
41
1
10
15.8248759640197
20
1.97816457994563
30
0
41
1
10
16.1347487678538
20
1.91067990843402
30
0
41
1
10
16.2900217497176
20
1.87031454841073
30
0
41
1
10
16.6005449206223
20
1.77962580547347
30
0
41
1
10
16.7559715429388
20
1.72924598195334
30
0
41
1
10
17.066497532481
20
1.6179365823138
30
0
41
1
10
17.2213711222689
20
1.55637567472493
30
0
41
1
10
17.5321414026589
20
1.42510582745393
30
0
41
1
10
17.6871426737463
20
1.35594687312601
30
0
41
1
10
17.9957120898121
20
1.20995298399319
30
0
41
1
10
18.1489162079922
20
1.13256877377077
30
0
41
1
10
18.455535619702
20
0.972326633505816
30
0
41
1
10
18.6092867491079
20
0.890015396597988
30
0
41
1
10
18.9168355348779
20
0.719851900930564
30
0
41
1
10
19.0703706963503
20
0.631546700783105
30
0
41
1
10
19.3786014524034
20
0.450897880458712
30
0
41
1
10
19.5342820015238
20
0.359441785653843
30
0
41
1
10
19.845593204419
20
0.174299254123269
30
0
41
1
10
20.0005138633733
20
0.0805591960168499
30
0
41
1
10
20.3099404559875
20
-0.107495940995221
30
0
41
1
10
20.4652701378259
20
-0.200438413808627
30
0
41
1
10
20.7764940269571
20
-0.385269057428502
30
0
41
1
10
20.932026226594
20
-0.477323922661611
30
0
41
1
10
21.2415192831211
20
-0.658589125590822
30
0
41
1
10
21.3966758055834
20
-0.746495156891825
30
0
41
1
10
21.7074394311843
20
-0.917559152343813
30
0
41
1
10
21.8631892832618
20
-1.0011058038456
30
0
41
1
10
22.1730383896382
20
-1.16257661826816
30
0
41
1
10
22.3281255307372
20
-1.2391867324684
30
0
41
1
10
22.638663225993
20
-1.38438457527306
30
0
41
1
10
22.7939477469072
20
-1.45319468303478
30
0
41
1
10
23.1042810738337
20
-1.58324474004911
30
0
41
1
10
23.2594430072957
20
-1.64308405964047
30
0
41
1
10
23.5699712231694
20
-1.75210586893675
30
0
41
1
10
23.7251920049721
20
-1.80153838485421
30
0
41
1
10
24.035009901206
20
-1.89036770732713
30
0
41
1
10
24.1905929460431
20
-1.92910262756936
30
0
41
1
10
24.5002718974443
20
-1.99395807756767
30
0
41
1
10
24.6545427517862
20
-2.0204294979375
30
0
41
1
10
24.9613011685574
20
-2.06168063367326
30
0
41
1
10
25.1143324817463
20
-2.07616684489614
30
0
41
1
10
25.3666519633467
20
-2.08980078201336
30
0
41
1
10
25.4654784782307
20
-2.09263605507641
30
0
41
1
10
25.5643063825553
20
-2.09292707103018
30
0
0
SPLINE
5
D1
100
AcDbEntity
8
1
62
256
6
ByLayer
370
18
48
1
60
0
100
AcDbSpline
70
4
71
3
72
18
73
14
40
0
40
0
40
0
40
0
40
0.0665421745151551
40
0.0665421745151551
40
0.199893292441559
40
0.199893292441559
40
0.333244410367963
40
0.333244410367963
40
0.466595528294367
40
0.466595528294367
40
0.733297764147183
40
0.733297764147183
40
1
40
1
40
1
40
1
41
1
10
33.8529355747304
20
1.53021168429538
30
0
41
1
10
33.9303351391101
20
1.5621728614698
30
0
41
1
10
34.0078450890111
20
1.592942947301
30
0
41
1
10
34.2408631774521
20
1.68200478845912
30
0
41
1
10
34.3960458305996
20
1.736936511186
30
0
41
1
10
34.7051715260715
20
1.8360741092369
30
0
41
1
10
34.8602124070056
20
1.87968335750784
30
0
41
1
10
35.1706341216931
20
1.95577209039268
30
0
41
1
10
35.3261381467555
20
1.9883661685974
30
0
41
1
10
35.7902622078559
20
2.0680264953086
30
0
41
1
10
36.1008347798322
20
2.09605616680227
30
0
41
1
10
36.7206931863832
20
2.10232249455262
30
0
41
1
10
37.0302582450319
20
2.08040739778335
30
0
41
1
10
37.3380853807605
20
2.03370516274566
30
0
0
SPLINE
5
D2
100
AcDbEntity
8
1
62
256
6
ByLayer
370
18
48
1
60
0
100
AcDbSpline
70
4
71
3
72
12
73
8
40
0
40
0
40
0
40
0
40
0.249999999999995
40
0.249999999999995
40
0.499999999999991
40
0.499999999999991
40
1
40
1
40
1
40
1
41
1
10
37.2839639521511
20
-2.07325929902066
30
0
41
1
10
37.2889756792255
20
-2.06007045819194
30
0
41
1
10
37.293628959467
20
-2.0464655694872
30
0
41
1
10
37.3007380074669
20
-2.02209611231857
30
0
41
1
10
37.3031453469977
20
-2.01142042328291
30
0
41
1
10
37.306293692141
20
-1.9883253243114
30
0
41
1
10
37.3035447486664
20
-1.98381764596309
30
0
41
1
10
37.2986650124163
20
-1.98582064110514
30
0
0
SPLINE
5
D3
100
AcDbEntity
8
1
62
256
6
ByLayer
370
18
48
1
60
0
100
AcDbSpline
70
4
71
3
72
60
73
56
40
0
40
0
40
0
40
0
40
0.0625000000000117
40
0.0625000000000117
40
0.125000000000024
40
0.125000000000024
40
0.250000000000047
40
0.250000000000047
40
0.37500000000007
40
0.37500000000007
40
0.500000000000094
40
0.500000000000094
40
0.562500000000104
40
0.562500000000104
40
0.570312500000105
40
0.570312500000105
40
0.574218750000107
40
0.574218750000107
40
0.578125000000109
40
0.578125000000109
40
0.580078125000109
40
0.580078125000109
40
0.58203125000011
40
0.58203125000011
40
0.58593750000011
40
0.58593750000011
40
0.593750000000109
40
0.593750000000109
40
0.6250000000001
40
0.6250000000001
40
0.640625000000096
40
0.640625000000096
40
0.656250000000092
40
0.656250000000092
40
0.671875000000088
40
0.671875000000088
40
0.687500000000083
40
0.687500000000083
40
0.703125000000079
40
0.703125000000079
40
0.718750000000075
40
0.718750000000075
40
0.750000000000066
40
0.750000000000066
40
0.781250000000057
40
0.781250000000057
40
0.812500000000048
40
0.812500000000048
40
0.84375000000004
40
0.84375000000004
40
0.875000000000031
40
0.875000000000031
40
0.937500000000016
40
0.937500000000016
40
1
40
1
40
1
40
1
41
1
10
7.62872277317382
20
0.936753451027272
30
0
41
1
10
7.46038937484548
20
1.0273119372072
30
0
41
1
10
7.29074429115855
20
1.112902367663
30
0
41
1
10
6.94908026923753
20
1.27296947552188
30
0
41
1
10
6.77804158017165
20
1.34697590759143
30
0
41
1
10
6.26255713604218
20
1.55042930737278
30
0
41
1
10
5.91569578894297
20
1.66097490297955
30
0
41
1
10
5.20587307044633
20
1.83345990837859
30
0
41
1
10
4.84279946201883
20
1.89539669637043
30
0
41
1
10
4.09362095414104
20
1.98249539856852
30
0
41
1
10
3.71360422883114
20
2.0074753793906
30
0
41
1
10
3.13368826442701
20
2.03054618549859
30
0
41
1
10
2.93846070179995
20
2.03580696689463
30
0
41
1
10
2.71801197009844
20
2.03976367095376
30
0
41
1
10
2.69350373568258
20
2.04017567377514
30
0
41
1
10
2.65672459222858
20
2.04075359691328
30
0
41
1
10
2.64447891949587
20
2.04104121910092
30
0
41
1
10
2.61990308726988
20
2.04103853473774
30
0
41
1
10
2.60723285841033
20
2.04073187189744
30
0
41
1
10
2.59039003581873
20
2.03941110898364
30
0
41
1
10
2.58508180668679
20
2.03882711941688
30
0
41
1
10
2.57426331323754
20
2.03773971010978
30
0
41
1
10
2.56886403422436
20
2.03718608167426
30
0
41
1
10
2.55269692009065
20
2.03549420564224
30
0
41
1
10
2.54196583290292
20
2.03432558700513
30
0
41
1
10
2.50995471936872
20
2.03069171397769
30
0
41
1
10
2.48884321342794
20
2.02809746228408
30
0
41
1
10
2.38456024139933
20
2.01412232274234
30
0
41
1
10
2.30452040865981
20
1.99973868788828
30
0
41
1
10
2.19881290129587
20
1.9699543435697
30
0
41
1
10
2.16586106780363
20
1.95862826438639
30
0
41
1
10
2.10613492302306
20
1.93187887893072
30
0
41
1
10
2.07919751339242
20
1.91622814654707
30
0
41
1
10
2.03651207115641
20
1.88075219601018
30
0
41
1
10
2.02027148443335
20
1.86049132050005
30
0
41
1
10
2.00107314141729
20
1.81592183112966
30
0
41
1
10
1.99804035776651
20
1.7919470278498
30
0
41
1
10
2.00428726509037
20
1.74044903724672
30
0
41
1
10
2.01348236375662
20
1.71375614302869
30
0
41
1
10
2.04083512910785
20
1.65950032697512
30
0
41
1
10
2.05924063729245
20
1.63154833218206
30
0
41
1
10
2.12310003444583
20
1.54844204899174
30
0
41
1
10
2.17692858370714
20
1.49347137446486
30
0
41
1
10
2.29710564484424
20
1.38300453384346
30
0
41
1
10
2.36216114063268
20
1.3288684494903
30
0
41
1
10
2.49792212861962
20
1.22145640438043
30
0
41
1
10
2.5687449261452
20
1.16817311725808
30
0
41
1
10
2.71442612912955
20
1.06173110234079
30
0
41
1
10
2.7895266238819
20
1.00843157256239
30
0
41
1
10
2.94104876498966
20
0.902788641337168
30
0
41
1
10
3.01763319435057
20
0.850329572247063
30
0
41
1
10
3.24919558928505
20
0.693463003624515
30
0
41
1
10
3.40593795504699
20
0.589523833433589
30
0
41
1
10
3.72261251738388
20
0.381631922731685
30
0
41
1
10
3.88257220695499
20
0.277699524876823
30
0
41
1
10
4.04404396765514
20
0.173789746453565
30
0
0
SPLINE
5
D4
100
AcDbEntity
8
1
62
256
6
ByLayer
370
13
48
1
60
0
100
AcDbSpline
70
4
71
3
72
8
73
4
40
0
40
0
40
0
40
0
40
1
40
1
40
1
40
1
41
1
10
4.14338629845804
20
-2.07980433223744
30
0
41
1
10
4.16131189514905
20
-2.07292471282437
30
0
41
1
10
4.17986790851532
20
-2.06950354496863
30
0
41
1
10
4.19897888775063
20
-2.06952574407328
30
0
0
SPLINE
5
D5
100
AcDbEntity
8
1
62
256
6
ByLayer
370
18
48
1
60
0
100
AcDbSpline
70
4
71
3
72
29
73
25
40
0
40
0
40
0
40
0
40
0.125
40
0.125
40
0.25
40
0.25
40
0.3125
40
0.3125
40
0.375
40
0.375
40
0.5
40
0.5
40
0.5625
40
0.5625
40
0.625
40
0.625
40
0.75
40
0.75
40
0.8125
40
0.8125
40
0.875
40
0.9375
40
0.9375
40
1
40
1
40
1
40
1
41
1
10
4.04380272079493
20
-2.07279454804075
30
0
41
1
10
4.04382288640335
20
-2.06140960611029
30
0
41
1
10
4.04383518124851
20
-2.03671553238053
30
0
41
1
10
4.04384971351126
20
-1.96076392025674
30
0
41
1
10
4.04385185174814
20
-1.91047488476437
30
0
41
1
10
4.04385226102164
20
-1.81723758352172
30
0
41
1
10
4.04385191910399
20
-1.78316939681798
30
0
41
1
10
4.04385099905326
20
-1.70890322723761
30
0
41
1
10
4.04385042293927
20
-1.66863907594492
30
0
41
1
10
4.04384938989824
20
-1.54127645295412
30
0
41
1
10
4.04384966001754
20
-1.44688133922318
30
0
41
1
10
4.04385455753552
20
-1.29111699325085
30
0
41
1
10
4.04385694462354
20
-1.23653965708723
30
0
41
1
10
4.04386350452063
20
-1.12378783973702
30
0
41
1
10
4.04386765280623
20
-1.06591269491216
30
0
41
1
10
4.04388288280964
20
-0.887919130512756
30
0
41
1
10
4.04389679923665
20
-0.763474301477203
30
0
41
1
10
4.0439231227503
20
-0.567883237780507
30
0
41
1
10
4.04393276512869
20
-0.501443697979198
30
0
41
1
10
4.04395313137456
20
-0.368437613706817
30
0
41
1
10
4.04397466538313
20
-0.234644605861831
30
0
41
1
10
4.04399766908185
20
-0.0992978744542086
30
0
41
1
10
4.0440208695382
20
0.0368381704828948
30
0
41
1
10
4.04403263243967
20
0.105685610132383
30
0
41
1
10
4.04404396766591
20
0.173789746442026
30
0
0
SPLINE
5
D6
100
AcDbEntity
8
1
62
256
6
ByLayer
370
18
48
1
60
0
100
AcDbSpline
70
4
71
3
72
66
73
62
40
0
40
0
40
0
40
0
40
0.0079245527972201
40
0.0079245527972201
40
0.0431382390351877
40
0.0431382390351877
40
0.0783519252731554
40
0.0783519252731554
40
0.113565611511123
40
0.113565611511123
40
0.148779297749091
40
0.148779297749091
40
0.183992983987058
40
0.183992983987058
40
0.219206670225026
40
0.219206670225026
40
0.254420356462994
40
0.254420356462994
40
0.289634042700961
40
0.289634042700961
40
0.324847728938929
40
0.324847728938929
40
0.360061415176897
40
0.360061415176897
40
0.395275101414865
40
0.395275101414865
40
0.430488787652832
40
0.430488787652832
40
0.4657024738908
40
0.4657024738908
40
0.500916160128768
40
0.500916160128768
40
0.536129846366736
40
0.536129846366736
40
0.571343532604703
40
0.571343532604703
40
0.606557218842671
40
0.606557218842671
40
0.641770905080639
40
0.641770905080639
40
0.676984591318606
40
0.676984591318606
40
0.712198277556574
40
0.712198277556574
40
0.747411963794542
40
0.747411963794542
40
0.782625650032509
40
0.782625650032509
40
0.817839336270477
40
0.817839336270477
40
0.853053022508445
40
0.853053022508445
40
0.888266708746412
40
0.888266708746412
40
0.92348039498438
40
0.92348039498438
40
0.958694081222348
40
0.958694081222348
40
0.993907767460316
40
0.993907767460316
40
1
40
1
40
1
40
1
41
1
10
9.70134185668732
20
1.97490531414934
30
0
41
1
10
9.73640692128907
20
1.97496415750132
30
0
41
1
10
9.77147784739876
20
1.97471212818675
30
0
41
1
10
9.96245323998662
20
1.97164072135268
30
0
41
1
10
10.1183964759343
20
1.96277902154716
30
0
41
1
10
10.4306181877357
20
1.93438013139882
30
0
41
1
10
10.5866747638614
20
1.91560749925833
30
0
41
1
10
10.8984162913576
20
1.86391671823526
30
0
41
1
10
11.0541492618917
20
1.83175246164231
30
0
41
1
10
11.3657082747681
20
1.75688131332669
30
0
41
1
10
11.5219199330436
20
1.71435539910115
30
0
41
1
10
11.8340566486701
20
1.61948053756055
30
0
41
1
10
11.9898588092998
20
1.56727213342845
30
0
41
1
10
12.3011160070731
20
1.45310953178557
30
0
41
1
10
12.4566707949519
20
1.39030025551486
30
0
41
1
10
12.7692488374492
20
1.25772963082162
30
0
41
1
10
12.9253924987138
20
1.18791646545603
30
0
41
1
10
13.2369122394606
20
1.04176009798454
30
0
41
1
10
13.3923655706883
20
0.964605946616189
30
0
41
1
10
13.7044130501407
20
0.806130655956906
30
0
41
1
10
13.8609502807088
20
0.723717827104878
30
0
41
1
10
14.1727613345534
20
0.554825868136618
30
0
41
1
10
14.3282566298312
20
0.468328368746341
30
0
41
1
10
14.6400953227523
20
0.294377990923124
30
0
41
1
10
14.7962439003144
20
0.206274240277281
30
0
41
1
10
15.1086955620862
20
0.0279834531737322
30
0
41
1
10
15.2642799681282
20
-0.0616755031110472
30
0
41
1
10
15.5761173812476
20
-0.238819406655665
30
0
41
1
10
15.7320675170243
20
-0.32690688617339
30
0
41
1
10
16.0441593337602
20
-0.501242032864099
30
0
41
1
10
16.2003334017048
20
-0.587661673098438
30
0
41
1
10
16.5124671398909
20
-0.755074532225279
30
0
41
1
10
16.6684787791977
20
-0.83677695911507
30
0
41
1
10
16.9803197461993
20
-0.99500906020188
30
0
41
1
10
17.136322240899
20
-1.07148140297642
30
0
41
1
10
17.4489629921229
20
-1.21675549158798
30
0
41
1
10
17.6051482377399
20
-1.28603246819606
30
0
41
1
10
17.9170576391619
20
-1.41666135075749
30
0
41
1
10
18.0726850810323
20
-1.47819063943229
30
0
41
1
10
18.3852325762444
20
-1.59134184291034
30
0
41
1
10
18.5418325665409
20
-1.64260707558842
30
0
41
1
10
18.8538847783026
20
-1.73496698072211
30
0
41
1
10
19.0095079072785
20
-1.77666027107853
30
0
41
1
10
19.3215701328192
20
-1.8502246314481
30
0
41
1
10
19.4782632985741
20
-1.88042729519049
30
0
41
1
10
19.7907716435122
20
-1.928718782967
30
0
41
1
10
19.946466563637
20
-1.94718994028508
30
0
41
1
10
20.2583901444565
20
-1.9733019821756
30
0
41
1
10
20.4146207438777
20
-1.98028150221108
30
0
41
1
10
20.7274683680382
20
-1.98252796470757
30
0
41
1
10
20.8834676697662
20
-1.97746849594802
30
0
41
1
10
21.1952190686051
20
-1.95440959346163
30
0
41
1
10
21.3512791207884
20
-1.93653281893418
30
0
41
1
10
21.6635449938237
20
-1.89085320513138
30
0
41
1
10
21.8198824168852
20
-1.86226145780435
30
0
41
1
10
22.1318660551717
20
-1.7935969531467
30
0
41
1
10
22.2878779031281
20
-1.75399584437182
30
0
41
1
10
22.5997330820401
20
-1.66332156710942
30
0
41
1
10
22.755568318937
20
-1.61225160936377
30
0
41
1
10
22.938850025273
20
-1.54716717718293
30
0
41
1
10
22.9658715064356
20
-1.53747287575047
30
0
41
1
10
22.9928799499394
20
-1.52767504579697
30
0
0
SPLINE
5
D7
100
AcDbEntity
8
1
62
256
6
ByLayer
370
18
48
1
60
0
100
AcDbSpline
70
4
71
3
72
24
73
20
40
0
40
0
40
0
40
0
40
0.0708559015804405
40
0.0708559015804405
40
0.186998913882885
40
0.186998913882885
40
0.30314192618533
40
0.30314192618533
40
0.419284938487775
40
0.419284938487775
40
0.53542795079022
40
0.53542795079022
40
0.651570963092666
40
0.651570963092666
40
0.767713975395111
40
0.767713975395111
40
0.883856987697556
40
0.883856987697556
40
1
40
1
40
1
40
1
41
1
10
31.4922108758362
20
1.9873568631981
30
0
41
1
10
31.5865198658378
20
1.98742878623702
30
0
41
1
10
31.6806446787891
20
1.98520714284453
30
0
41
1
10
31.928985830269
20
1.97341467292381
30
0
41
1
10
32.0829550846103
20
1.96029845818271
30
0
41
1
10
32.3905257271441
20
1.92321959391211
30
0
41
1
10
32.5441605264056
20
1.89874458237151
30
0
41
1
10
32.8528126709478
20
1.83751741338986
30
0
41
1
10
33.0075904528971
20
1.80110599992247
30
0
41
1
10
33.3181520588413
20
1.71778578913975
30
0
41
1
10
33.4741090932952
20
1.67063223230511
30
0
41
1
10
33.7854627112073
20
1.5680810230842
30
0
41
1
10
33.9409645714041
20
1.51239256622267
30
0
41
1
10
34.2517442685187
20
1.39031992123117
30
0
41
1
10
34.4071333092638
20
1.32400976899729
30
0
41
1
10
34.7190936080435
20
1.18498112093957
30
0
41
1
10
34.8748053553666
20
1.11217487088865
30
0
41
1
10
35.1857320458754
20
0.959917699936
30
0
41
1
10
35.3408598135618
20
0.880301885791908
30
0
41
1
10
35.4966030124884
20
0.798696886598009
30
0
0
SPLINE
5
D8
100
AcDbEntity
8
1
62
256
6
ByLayer
370
18
48
1
60
0
100
AcDbSpline
70
4
71
3
72
10
73
6
40
0
40
0
40
0
40
0
40
0.5
40
0.5
40
1
40
1
40
1
40
1
41
1
10
4.25033748661491
20
-1.96963816814429
30
0
41
1
10
4.22767033914374
20
-1.96928647832786
30
0
41
1
10
4.20545250908259
20
-1.9719266789719
30
0
41
1
10
4.16196390958541
20
-1.98309596376296
30
0
41
1
10
4.14064204171206
20
-1.99174313539405
30
0
41
1
10
4.12091457066452
20
-2.00319638207154
30
0
0
SPLINE
5
D9
100
AcDbEntity
8
1
62
256
6
ByLayer
370
18
48
1
60
0
100
AcDbSpline
70
4
71
3
72
14
73
10
40
0
40
0
40
0
40
0
40
0.25
40
0.25
40
0.5
40
0.5
40
0.75
40
0.75
40
1
40
1
40
1
40
1
41
1
10
37.7163983653385
20
-1.03862753581058
30
0
41
1
10
37.6852069185242
20
-1.12208769141552
30
0
41
1
10
37.653846372097
20
-1.20538204740294
30
0
41
1
10
37.5912476353353
20
-1.37209072767951
30
0
41
1
10
37.5599295333813
20
-1.45546759255672
30
0
41
1
10
37.4970475394706
20
-1.62174538714766
30
0
41
1
10
37.4653817324256
20
-1.70440647135501
30
0
41
1
10
37.4020799708297
20
-1.86979208849172
30
0
41
1
10
37.3704330718936
20
-1.95249336014095
30
0
41
1
10
37.3380853807805
20
-2.03370516272702
30
0
0
SPLINE
5
DA
100
AcDbEntity
8
1
62
256
6
ByLayer
370
18
48
1
60
0
100
AcDbSpline
70
4
71
3
72
10
73
6
40
0
40
0
40
0
40
0
40
0.5
40
0.5
40
1
40
1
40
1
40
1
41
1
10
4.11661381077238
20
-2.07944144759733
30
0
41
1
10
4.09608004770072
20
-2.07908614102465
30
0
41
1
10
4.07838113217628
20
-2.07851018912711
30
0
41
1
10
4.05215939137474
20
-2.07641453682209
30
0
41
1
10
4.04379903514024
20
-2.07487536516314
30
0
41
1
10
4.04380272079436
20
-2.07279454804097
30
0
0
SPLINE
5
DB
100
AcDbEntity
8
1
62
256
6
ByLayer
370
13
48
1
60
0
100
AcDbSpline
70
4
71
3
72
32
73
28
40
0
40
0
40
0
40
0
40
0.0274050723718568
40
0.0274050723718568
40
0.0885437626843658
40
0.0885437626843658
40
0.210821143309387
40
0.210821143309387
40
0.271959833621896
40
0.271959833621896
40
0.333098523934405
40
0.333098523934405
40
0.455375904559423
40
0.455375904559423
40
0.516514594871931
40
0.516514594871931
40
0.577653285184438
40
0.577653285184438
40
0.699930665809452
40
0.699930665809452
40
0.822208046434466
40
0.822208046434466
40
0.883346736746971
40
0.883346736746971
40
0.944485427059477
40
0.944485427059477
40
1
40
1
40
1
40
1
41
1
10
37.0121544175058
20
-1.99079866484732
30
0
41
1
10
36.9345526775552
20
-1.99029673065101
30
0
41
1
10
36.8569704061539
20
-1.98829370483878
30
0
41
1
10
36.6066200308711
20
-1.9769865180717
30
0
41
1
10
36.4346851211077
20
-1.96178351251279
30
0
41
1
10
35.920393803606
20
-1.89499350533444
30
0
41
1
10
35.5796858063697
20
-1.82226254231131
30
0
41
1
10
35.0658530123546
20
-1.67456012543852
30
0
41
1
10
34.8941251074482
20
-1.61890764832108
30
0
41
1
10
34.5488657055919
20
-1.49539217503792
30
0
41
1
10
34.375332838273
20
-1.42747128733026
30
0
41
1
10
33.8590700442043
20
-1.21031731572327
30
0
41
1
10
33.5178785160449
20
-1.04664132674819
30
0
41
1
10
33.0049303528143
20
-0.781761070814184
30
0
41
1
10
32.83374714107
20
-0.690241794840631
30
0
41
1
10
32.4900694028004
20
-0.50212529310582
30
0
41
1
10
32.3170939106392
20
-0.405291039615321
30
0
41
1
10
31.798078249895
20
-0.110834562198931
30
0
41
1
10
31.4557734402944
20
0.0874727962037412
30
0
41
1
10
30.7717394240137
20
0.476127916329602
30
0
41
1
10
30.4299355286243
20
0.666387527705496
30
0
41
1
10
29.9114258854026
20
0.934816572534913
30
0
41
1
10
29.7378418826855
20
1.02140718913333
30
0
41
1
10
29.3937131956188
20
1.18572840091821
30
0
41
1
10
29.2223032648755
20
1.26343898527904
30
0
41
1
10
28.8955365266585
20
1.40182504807359
30
0
41
1
10
28.7402427724152
20
1.46357217039508
30
0
41
1
10
28.5848017385775
20
1.52078251070805
30
0
0
SPLINE
5
DC
100
AcDbEntity
8
1
62
256
6
ByLayer
370
18
48
1
60
0
100
AcDbSpline
70
4
71
3
72
14
73
10
40
0
40
0
40
0
40
0
40
0.337197271077426
40
0.337197271077426
40
0.588258410021902
40
0.588258410021902
40
0.839319548966381
40
0.839319548966381
40
1
40
1
40
1
40
1
41
1
10
15.2783455303257
20
-1.97772094074475
30
0
41
1
10
15.0479683244587
20
-1.97755566226311
30
0
41
1
10
14.816987890433
20
-1.9642658396269
30
0
41
1
10
14.4110112139737
20
-1.91776924140567
30
0
41
1
10
14.237719988654
20
-1.89062579752101
30
0
41
1
10
13.8933414778438
20
-1.82297976011523
30
0
41
1
10
13.7217764494071
20
-1.7824150278658
30
0
41
1
10
13.4407042163358
20
-1.70552228188561
30
0
41
1
10
13.3310945373088
20
-1.67291372558793
30
0
41
1
10
13.2214356876403
20
-1.63782690671675
30
0
0
SPLINE
5
DD
100
AcDbEntity
8
1
62
256
6
ByLayer
370
13
48
1
60
0
100
AcDbSpline
70
4
71
3
72
26
73
22
40
0
40
0
40
0
40
0
40
0.110103535750727
40
0.110103535750727
40
0.191062331525966
40
0.191062331525966
40
0.272021127301204
40
0.272021127301204
40
0.433938718851679
40
0.433938718851679
40
0.514897514626917
40
0.514897514626917
40
0.595856310402154
40
0.595856310402154
40
0.757773901952629
40
0.757773901952629
40
0.838732697727867
40
0.838732697727867
40
0.919691493503106
40
0.919691493503106
40
1
40
1
40
1
40
1
41
1
10
13.2214356865754
20
-1.63782690637595
30
0
41
1
10
12.9884134510523
20
-1.56326831854477
30
0
41
1
10
12.7551691847237
20
-1.47751909714043
30
0
41
1
10
12.3479250563465
20
-1.31135133650355
30
0
41
1
10
12.1739395433747
20
-1.23517574265179
30
0
41
1
10
11.828227195349
20
-1.07513344524995
30
0
41
1
10
11.6562443784697
20
-0.991133021155434
30
0
41
1
10
11.1413550003684
20
-0.729885483014471
30
0
41
1
10
10.7994757488326
20
-0.543342244340636
30
0
41
1
10
10.2835297036115
20
-0.253738294985652
30
0
41
1
10
10.1110202931219
20
-0.155579074320002
30
0
41
1
10
9.76390125091808
20
0.0422135691541143
30
0
41
1
10
9.59107098673189
20
0.140799769141779
30
0
41
1
10
9.07474914698844
20
0.432650575608591
30
0
41
1
10
8.7329600411137
20
0.622532203280969
30
0
41
1
10
8.21803518147374
20
0.890376645779781
30
0
41
1
10
8.0460448559885
20
0.976870345417382
30
0
41
1
10
7.70051249944496
20
1.14279359188836
30
0
41
1
10
7.52645474980383
20
1.22233208788413
30
0
41
1
10
7.18245732263875
20
1.3700022249852
30
0
41
1
10
7.01191247398384
20
1.43844836770086
30
0
41
1
10
6.84166361505126
20
1.50130885980954
30
0
0
SPLINE
5
DE
100
AcDbEntity
8
1
62
256
6
ByLayer
370
18
48
1
60
0
100
AcDbSpline
70
4
71
3
72
14
73
10
40
0
40
0
40
0
40
0
40
0.25
40
0.25
40
0.5
40
0.5
40
0.75
40
0.75
40
1
40
1
40
1
40
1
41
1
10
37.7163983653385
20
1.03862753581052
30
0
41
1
10
37.6852069185241
20
1.12208769141546
30
0
41
1
10
37.653846372097
20
1.20538204740288
30
0
41
1
10
37.5912476353353
20
1.37209072767945
30
0
41
1
10
37.5599295333813
20
1.45546759255669
30
0
41
1
10
37.4970475394707
20
1.62174538714766
30
0
41
1
10
37.4653817324256
20
1.70440647135501
30
0
41
1
10
37.4020799708297
20
1.86979208849169
30
0
41
1
10
37.3704330718936
20
1.95249336014092
30
0
41
1
10
37.3380853807805
20
2.03370516272699
30
0
0
SPLINE
5
DF
100
AcDbEntity
8
1
62
256
6
ByLayer
370
18
48
1
60
0
100
AcDbSpline
70
4
71
3
72
69
73
65
40
0
40
0
40
0
40
0
40
0.0602338648763839
40
0.0602338648763839
40
0.100719591954941
40
0.100719591954941
40
0.141205319033499
40
0.141205319033499
40
0.222176773190614
40
0.222176773190614
40
0.262662500269171
40
0.262662500269171
40
0.303148227347729
40
0.303148227347729
40
0.384119681504844
40
0.384119681504844
40
0.465091135661958
40
0.465091135661958
40
0.470151851546778
40
0.470151851546778
40
0.470468146289579
40
0.470468146289579
40
0.470784441032381
40
0.470784441032381
40
0.471417030517983
40
0.471417030517983
40
0.472682209489188
40
0.472682209489188
40
0.475212567431598
40
0.475212567431598
40
0.485333999201237
40
0.485333999201237
40
0.505576862740516
40
0.505576862740516
40
0.546062589819073
40
0.546062589819073
40
0.708005498133302
40
0.708005498133302
40
0.748491225211859
40
0.748491225211859
40
0.758612656981498
40
0.758612656981498
40
0.759245246467101
40
0.759245246467101
40
0.759877835952703
40
0.759877835952703
40
0.760194130695505
40
0.760194130695505
40
0.760510425438306
40
0.761143014923908
40
0.763673372866318
40
0.768734088751138
40
0.768734088751138
40
0.788976952290416
40
0.788976952290416
40
0.86994840644753
40
0.86994840644753
40
0.910434133526087
40
0.910434133526087
40
0.950919860604644
40
0.950919860604644
40
0.991405587683201
40
0.991405587683201
40
1
40
1
40
1
40
1
41
1
10
7.62915203896401
20
0.936619457146236
30
0
41
1
10
7.52458640449652
20
0.973950645251819
30
0
41
1
10
7.41992936825034
20
1.00634350622585
30
0
41
1
10
7.24405147482346
20
1.0491179666013
30
0
41
1
10
7.17310247152543
20
1.06320621785523
30
0
41
1
10
7.03017563093033
20
1.08373238520332
30
0
41
1
10
6.95846157187424
20
1.09005417750154
30
0
41
1
10
6.74669142546745
20
1.09566437819089
30
0
41
1
10
6.60825879460268
20
1.08175380919394
30
0
41
1
10
6.40011278656334
20
1.03417695509705
30
0
41
1
10
6.33025286481325
20
1.01374688964296
30
0
41
1
10
6.1922239674773
20
0.965450641213067
30
0
41
1
10
6.12385405312705
20
0.937594826679685
30
0
41
1
10
5.91925236075707
20
0.844540979518769
30
0
41
1
10
5.7831984363834
20
0.769742023033587
30
0
41
1
10
5.50723284338881
20
0.602904561008671
30
0
41
1
10
5.36945677172468
20
0.512184642698116
30
0
41
1
10
5.22193488027568
20
0.412688242719582
30
0
41
1
10
5.21325551251397
20
0.406825485716894
30
0
41
1
10
5.20403215053321
20
0.400587020715079
30
0
41
1
10
5.2037114890432
20
0.399991302925685
30
0
41
1
10
5.20430129392435
20
0.39885249483487
30
0
41
1
10
5.20471169308618
20
0.398348842298503
30
0
41
1
10
5.20595440660296
20
0.396891844254299
30
0
41
1
10
5.20686213702709
20
0.395994980325071
30
0
41
1
10
5.20963690053978
20
0.393352854636163
30
0
41
1
10
5.21156536604889
20
0.391684068224038
30
0
41
1
10
5.21741036175317
20
0.386754352101264
30
0
41
1
10
5.22140464049551
20
0.383585235031859
30
0
41
1
10
5.24151197533891
20
0.367919275701467
30
0
41
1
10
5.2580080002837
20
0.355952844241131
30
0
41
1
10
5.30761807603534
20
0.320225672627458
30
0
41
1
10
5.34102629887667
20
0.296887397194638
30
0
41
1
10
5.44146851293527
20
0.227235059979108
30
0
41
1
10
5.50881339024835
20
0.181386933291321
30
0
41
1
10
5.84609968464295
20
-0.0468963324415483
30
0
41
1
10
6.11789437797108
20
-0.226174000566658
30
0
41
1
10
6.45440222357956
20
-0.453721865266431
30
0
41
1
10
6.52175381285716
20
-0.499164182323909
30
0
41
1
10
6.60437459209152
20
-0.557692520702631
30
0
41
1
10
6.62123078109619
20
-0.569129420367261
30
0
41
1
10
6.63749130522382
20
-0.582813929561439
30
0
41
1
10
6.63843568471816
20
-0.583629636915134
30
0
41
1
10
6.64024593598811
20
-0.585320614622418
30
0
41
1
10
6.64139007492159
20
-0.586169639207156
30
0
41
1
10
6.6418169967512
20
-0.587722152679731
30
0
41
1
10
6.64104955515313
20
-0.587903411027298
30
0
41
1
10
6.64016271352648
20
-0.588461290737911
30
0
41
1
10
6.63883250358845
20
-0.589297474127989
30
0
41
1
10
6.63395565993108
20
-0.592356462835113
30
0
41
1
10
6.62243347011525
20
-0.599531225240185
30
0
41
1
10
6.61180705503173
20
-0.606030483030111
30
0
41
1
10
6.57640928118099
20
-0.627412391177245
30
0
41
1
10
6.54818285504803
20
-0.643606282516942
30
0
41
1
10
6.4072024062074
20
-0.719791457128935
30
0
41
1
10
6.29693633060438
20
-0.764670907329275
30
0
41
1
10
6.12780278140042
20
-0.802657884701688
30
0
41
1
10
6.07036406264044
20
-0.81035811792691
30
0
41
1
10
5.95495347686492
20
-0.814477314556285
30
0
41
1
10
5.89672646617458
20
-0.811002422159447
30
0
41
1
10
5.77719100878937
20
-0.792717535131686
30
0
41
1
10
5.71581461221757
20
-0.777877826215445
30
0
41
1
10
5.63842146647741
20
-0.75305722730846
30
0
41
1
10
5.62484133515983
20
-0.748485369752643
30
0
41
1
10
5.61122882729728
20
-0.743698737998926
30
0
0
SPLINE
5
E0
100
AcDbEntity
8
1
62
256
6
ByLayer
370
18
48
1
60
0
100
AcDbSpline
70
4
71
3
72
8
73
4
40
0
40
0
40
0
40
0
40
1
40
1
40
1
40
1
41
1
10
37.2986650124164
20
-1.98582064110511
30
0
41
1
10
37.2902912575746
20
-1.98925783307553
30
0
41
1
10
37.2825136273648
20
-1.99098749125508
30
0
41
1
10
37.2753405352945
20
-1.99098551607284
30
0
0
SPLINE
5
E1
100
AcDbEntity
8
1
62
256
6
ByLayer
370
18
48
1
60
0
100
AcDbSpline
70
4
71
3
72
16
73
12
40
0
40
0
40
0
40
0
40
0.249999999999977
40
0.249999999999977
40
0.374999999999965
40
0.374999999999965
40
0.499999999999953
40
0.499999999999953
40
0.749999999999977
40
0.749999999999977
40
1
40
1
40
1
40
1
41
1
10
37.0424576374708
20
0.381337472800595
30
0
41
1
10
37.0397382743216
20
0.408763675666819
30
0
41
1
10
37.0402695266803
20
0.436963103816566
30
0
41
1
10
37.0463557169469
20
0.480500128495777
30
0
41
1
10
37.049291137586
20
0.495253193394774
30
0
41
1
10
37.0571614778792
20
0.524488579722146
30
0
41
1
10
37.0619543654685
20
0.53921380093783
30
0
41
1
10
37.0812197837785
20
0.580695603317821
30
0
41
1
10
37.1013849906242
20
0.605311283447094
30
0
41
1
10
37.1510029581776
20
0.642063699320119
30
0
41
1
10
37.1797962173418
20
0.654271699962464
30
0
41
1
10
37.2097865688055
20
0.661575884057129
30
0
0
SPLINE
5
E2
100
AcDbEntity
8
1
62
256
6
ByLayer
370
18
48
1
60
0
100
AcDbSpline
70
4
71
3
72
18
73
14
40
0
40
0
40
0
40
0
40
0.25
40
0.25
40
0.5
40
0.5
40
0.625
40
0.625
40
0.75
40
0.75
40
0.875
40
0.875
40
1
40
1
40
1
40
1
41
1
10
37.2097865688055
20
0.661575884057129
30
0
41
1
10
37.2646189558823
20
0.674930374085108
30
0
41
1
10
37.318896994306
20
0.69001183521857
30
0
41
1
10
37.4255930515352
20
0.726151657354478
30
0
41
1
10
37.4780816257841
20
0.746999354847958
30
0
41
1
10
37.5539262048795
20
0.787760252736689
30
0
41
1
10
37.5782576448846
20
0.802746537177228
30
0
41
1
10
37.6239729281548
20
0.837134352025316
30
0
41
1
10
37.6452168582853
20
0.856488788478401
30
0
41
1
10
37.6811181832692
20
0.900485068717188
30
0
41
1
10
37.6960143382456
20
0.925819578715021
30
0
41
1
10
37.7144523016808
20
0.980217710505798
30
0
41
1
10
37.7180525797878
20
1.00962701267281
30
0
41
1
10
37.7163983653385
20
1.03862753581052
30
0
0
SPLINE
5
E3
100
AcDbEntity
8
1
62
256
6
ByLayer
370
18
48
1
60
0
100
AcDbSpline
70
4
71
3
72
10
73
6
40
0
40
0
40
0
40
0
40
0.5
40
0.5
40
1
40
1
40
1
40
1
41
1
10
4.04404396767325
20
0.173789746441941
30
0
41
1
10
4.06899310421363
20
0.161318948308462
30
0
41
1
10
4.10220352289014
20
0.143823189710332
30
0
41
1
10
4.1741897933336
20
0.103166335840939
30
0
41
1
10
4.21271976148108
20
0.0801622970869005
30
0
41
1
10
4.25066892228074
20
0.0561425479732236
30
0
0
SPLINE
5
E4
100
AcDbEntity
8
1
62
256
6
ByLayer
370
18
48
1
60
0
100
AcDbSpline
70
4
71
3
72
8
73
4
40
0
40
0
40
0
40
0
40
1
40
1
40
1
40
1
41
1
10
4.14338629845804
20
-2.07980433223744
30
0
41
1
10
4.1343257878946
20
-2.07970995988976
30
0
41
1
10
4.12534528881426
20
-2.07959253298427
30
0
41
1
10
4.11661381077204
20
-2.07944144759739
30
0
0
SPLINE
5
E5
100
AcDbEntity
8
SK1
62
256
6
ByLayer
370
18
48
1
60
0
100
AcDbSpline
70
4
71
3
72
8
73
4
40
0
40
0
40
0
40
0
40
1
40
1
40
1
40
1
41
1
10
-35.751305648915
20
-2.18119628846742
30
0
41
1
10
-35.835352914004
20
-2.03558032178967
30
0
41
1
10
-35.9184262453428
20
-1.88948103523057
30
0
41
1
10
-35.9999999999999
20
-1.74264783677651
30
0
0
SPLINE
5
E6
100
AcDbEntity
8
SK1
62
256
6
ByLayer
370
18
48
1
60
0
100
AcDbSpline
70
4
71
3
72
14
73
10
40
0
40
0
40
0
40
0
40
0.125000000000001
40
0.125000000000001
40
0.250000000000001
40
0.250000000000001
40
0.500000000000002
40
0.500000000000002
40
1
40
1
40
1
40
1
41
1
10
-35.3
20
2.93743819167705
30
0
41
1
10
-35.3
20
2.9388681919086
30
0
41
1
10
-35.3017593723636
20
2.93719038490579
30
0
41
1
10
-35.3069353411979
20
2.93061700719699
30
0
41
1
10
-35.3102739075534
20
2.92586218167301
30
0
41
1
10
-35.3215583577555
20
2.90911588994618
30
0
41
1
10
-35.3303095934911
20
2.89535208879866
30
0
41
1
10
-35.358391202053
20
2.85026731613988
30
0
41
1
10
-35.378655954467
20
2.81657690409222
30
0
41
1
10
-35.4
20
2.78053735706445
30
0
0
SPLINE
5
E7
100
AcDbEntity
8
SK1
62
256
6
ByLayer
370
18
48
1
60
0
100
AcDbSpline
70
4
71
3
72
8
73
4
40
0
40
0
40
0
40
0
40
1
40
1
40
1
40
1
41
1
10
-36
20
1.22659101811141
30
0
41
1
10
-35.8061130838788
20
1.57558851310409
30
0
41
1
10
-35.6037814549821
20
1.92039434729537
30
0
41
1
10
-35.4
20
2.26448053839948
30
0
0
SPLINE
5
E8
100
AcDbEntity
8
SK1
62
256
6
ByLayer
370
18
48
1
60
0
100
AcDbSpline
70
4
71
3
72
14
73
10
40
0
40
0
40
0
40
0
40
0.5
40
0.5
40
0.749999999999999
40
0.749999999999999
40
0.875
40
0.875
40
1
40
1
40
1
40
1
41
1
10
-35.3999999999999
20
2.26448053839931
30
0
41
1
10
-35.3787677796885
20
2.30033126787956
30
0
41
1
10
-35.3584290958895
20
2.33832787024076
30
0
41
1
10
-35.3303626450498
20
2.39798225469406
30
0
41
1
10
-35.3215171954455
20
2.41810954884591
30
0
41
1
10
-35.3102812516991
20
2.44779680560714
30
0
41
1
10
-35.3068890218584
20
2.45760983638272
30
0
41
1
10
-35.3017585680987
20
2.47573052502685
30
0
41
1
10
-35.3
20
2.48418848388249
30
0
41
1
10
-35.3
20
2.49018894883409
30
0
0
SPLINE
5
E9
100
AcDbEntity
8
SK1
62
256
6
ByLayer
370
18
48
1
60
0
100
AcDbSpline
70
4
71
3
72
8
73
4
40
0
40
0
40
0
40
0
40
1
40
1
40
1
40
1
41
1
10
-35.4
20
2.78053735706445
30
0
41
1
10
-35.6037661369848
20
2.43647703048933
30
0
41
1
10
-35.8061186201423
20
2.09163536646483
30
0
41
1
10
-35.9999999999999
20
1.74264783677651
30
0
0
LINE
5
76
100
AcDbEntity
8
81
62
256
6
ByLayer
370
18
48
1
60
0
100
AcDbLine
10
38
20
0
30
0
11
43
21
0
31
0
39
0
210
0
220
0
230
1
0
LINE
5
77
100
AcDbEntity
8
1
62
256
6
ByLayer
370
18
48
1
60
0
100
AcDbLine
10
4.199732
20
2.080117
30
0
11
1.449508
21
2.078467
31
0
39
0
210
0
220
0
230
1
0
LINE
5
79
100
AcDbEntity
8
1
62
256
6
ByLayer
370
18
48
1
60
0
100
AcDbLine
10
15.08541
20
2.086648
30
0
11
14.691147
21
2.086412
31
0
39
0
210
0
220
0
230
1
0
LINE
5
7A
100
AcDbEntity
8
1
62
256
6
ByLayer
370
18
48
1
60
0
100
AcDbLine
10
25.969425
20
2.093179
30
0
11
25.57566
21
2.092942
31
0
39
0
210
0
220
0
230
1
0
LINE
5
7B
100
AcDbEntity
8
1
62
256
6
ByLayer
370
18
48
1
60
0
100
AcDbLine
10
36.855429
20
2.09971
30
0
11
36.464459
21
2.099476
31
0
39
0
210
0
220
0
230
1
0
LINE
5
7C
100
AcDbEntity
8
1
62
256
6
ByLayer
370
18
48
1
60
0
100
AcDbLine
10
36.464459
20
-2.099476
30
0
11
36.855406
21
-2.09971
31
0
39
0
210
0
220
0
230
1
0
LINE
5
7D
100
AcDbEntity
8
1
62
256
6
ByLayer
370
18
48
1
60
0
100
AcDbLine
10
25.57566
20
-2.092942
30
0
11
25.969923
21
-2.093179
31
0
39
0
210
0
220
0
230
1
0
LINE
5
7E
100
AcDbEntity
8
1
62
256
6
ByLayer
370
18
48
1
60
0
100
AcDbLine
10
14.691147
20
-2.086412
30
0
11
15.086146
21
-2.086649
31
0
39
0
210
0
220
0
230
1
0
LINE
5
7F
100
AcDbEntity
8
1
62
256
6
ByLayer
370
18
48
1
60
0
100
AcDbLine
10
1.449508
20
-2.078467
30
0
11
4.199647
21
-2.080117
31
0
39
0
210
0
220
0
230
1
0
LINE
5
80
100
AcDbEntity
8
SK1
62
256
6
ByLayer
370
18
48
1
60
0
100
AcDbLine
10
-35.278312
20
3
30
0
11
-35.751033
21
2.181223
31
0
39
0
210
0
220
0
230
1
0
LINE
5
82
100
AcDbEntity
8
SK1
62
256
6
ByLayer
370
18
48
1
60
0
100
AcDbLine
10
-35.751033
20
-2.181223
30
0
11
-35.278312
21
-3
31
0
39
0
210
0
220
0
230
1
0
LINE
5
83
100
AcDbEntity
8
SK1
62
256
6
ByLayer
370
18
48
1
60
0
100
AcDbLine
10
0
20
3
30
0
11
-35.278312
21
3
31
0
39
0
210
0
220
0
230
1
0
LINE
5
84
100
AcDbEntity
8
SK1
62
256
6
ByLayer
370
18
48
1
60
0
100
AcDbLine
10
-35.278312
20
-3
30
0
11
0
21
-3
31
0
39
0
210
0
220
0
230
1
0
LINE
5
85
100
AcDbEntity
8
SK4
62
256
6
ByLayer
370
18
48
0.05
60
0
100
AcDbLine
10
43
20
0
30
0
11
-41
21
0
31
0
39
0
210
0
220
0
230
1
0
LINE
5
87
100
AcDbEntity
8
4
62
256
6
ByLayer
370
18
48
0.05
60
0
100
AcDbLine
10
38
20
0
30
0
11
0
21
0
31
0
39
0
210
0
220
0
230
1
0
LINE
5
89
100
AcDbEntity
8
80
62
256
6
ByLayer
370
18
48
1
60
0
100
AcDbLine
10
0
20
0
30
0
11
-5
21
0
31
0
39
0
210
0
220
0
230
1
0
LINE
5
8A
100
AcDbEntity
8
1
62
256
6
ByLayer
370
18
48
1
60
0
100
AcDbLine
10
31.829974
20
-0.484378
30
0
11
31.832306
21
-0.487129
31
0
39
0
210
0
220
0
230
1
0
LINE
5
8B
100
AcDbEntity
8
1
62
256
6
ByLayer
370
18
48
1
60
0
100
AcDbLine
10
38
20
0
30
0
11
37.275341
21
-1.990986
31
0
39
0
210
0
220
0
230
1
0
LINE
5
8C
100
AcDbEntity
8
1
62
256
6
ByLayer
370
13
48
1
60
0
100
AcDbLine
10
0.724514
20
2.539233
30
0
11
0.724514
21
-2.539233
31
0
39
0
210
0
220
0
230
1
0
LINE
5
8D
100
AcDbEntity
8
1
62
256
6
ByLayer
370
18
48
1
60
0
100
AcDbLine
10
37.83087
20
-0.234088
30
0
11
37.895503
21
-0.167322
31
0
39
0
210
0
220
0
230
1
0
LINE
5
8E
100
AcDbEntity
8
1
62
256
6
ByLayer
370
13
48
1
60
0
100
AcDbLine
10
37.429952
20
0.108905
30
0
11
37.895503
21
-0.167322
31
0
39
0
210
0
220
0
230
1
0
LINE
5
8F
100
AcDbEntity
8
1
62
256
6
ByLayer
370
18
48
1
60
0
100
AcDbLine
10
37.934161
20
-0.257749
30
0
11
37.894176
21
-0.444234
31
0
39
0
210
0
220
0
230
1
0
LINE
5
90
100
AcDbEntity
8
1
62
256
6
ByLayer
370
13
48
1
60
0
100
AcDbLine
10
1.449508
20
2.078467
30
0
11
1.449508
21
-2.078467
31
0
39
0
210
0
220
0
230
1
0
LINE
5
91
100
AcDbEntity
8
1
62
256
6
ByLayer
370
13
48
1
60
0
100
AcDbLine
10
37.619859
20
0.444234
30
0
11
37.934161
21
0.257749
31
0
39
0
210
0
220
0
230
1
0
LINE
5
92
100
AcDbEntity
8
1
62
256
6
ByLayer
370
18
48
1
60
0
100
AcDbLine
10
37.996567
20
0.021296
30
0
11
38
21
0
31
0
39
0
210
0
220
0
230
1
0
LINE
5
93
100
AcDbEntity
8
1
62
256
6
ByLayer
370
18
48
1
60
0
100
AcDbLine
10
0
20
-3
30
0
11
0
21
3
31
0
39
0
210
0
220
0
230
1
0
LINE
5
94
100
AcDbEntity
8
1
62
256
6
ByLayer
370
18
48
1
60
0
100
AcDbLine
10
38
20
0
30
0
11
37.996567
21
-0.021296
31
0
39
0
210
0
220
0
230
1
0
LINE
5
95
100
AcDbEntity
8
1
62
256
6
ByLayer
370
18
48
1
60
0
100
AcDbLine
10
36.953191
20
-1.140742
30
0
11
37.672066
21
-0.398135
31
0
39
0
210
0
220
0
230
1
0
LINE
5
96
100
AcDbEntity
8
1
62
256
6
ByLayer
370
13
48
1
60
0
100
AcDbLine
10
37.894176
20
0.444234
30
0
11
37.619859
21
0.444234
31
0
39
0
210
0
220
0
230
1
0
LINE
5
97
100
AcDbEntity
8
1
62
256
6
ByLayer
370
18
48
1
60
0
100
AcDbLine
10
37.934161
20
0.257749
30
0
11
37.894176
21
0.444234
31
0
39
0
210
0
220
0
230
1
0
LINE
5
98
100
AcDbEntity
8
SK1
62
256
6
ByLayer
370
18
48
1
60
0
100
AcDbLine
10
-36
20
1.742648
30
0
11
-36
21
1.226557
31
0
39
0
210
0
220
0
230
1
0
LINE
5
99
100
AcDbEntity
8
SK1
62
256
6
ByLayer
370
18
48
1
60
0
100
AcDbLine
10
-36
20
1.226591
30
0
11
-36
21
-1.742648
31
0
39
0
210
0
220
0
230
1
0
LINE
5
9A
100
AcDbEntity
8
SK1
62
256
6
ByLayer
370
18
48
1
60
0
100
AcDbLine
10
-35.278312
20
3
30
0
11
-35.278312
21
-3
31
0
39
0
210
0
220
0
230
1
0
LINE
5
9B
100
AcDbEntity
8
SK1
62
256
6
ByLayer
370
18
48
1
60
0
100
AcDbLine
10
-35.3
20
2.490189
30
0
11
-35.3
21
2.937438
31
0
39
0
210
0
220
0
230
1
0
LINE
5
9C
100
AcDbEntity
8
SK1
62
256
6
ByLayer
370
13
48
1
60
0
100
AcDbLine
10
-35.4
20
2.780537
30
0
11
-35.4
21
2.264448
31
0
39
0
210
0
220
0
230
1
0
LINE
5
9D
100
AcDbEntity
8
SK1
62
256
6
ByLayer
370
18
48
1
60
0
100
AcDbLine
10
0
20
-3
30
0
11
0
21
3
31
0
39
0
210
0
220
0
230
1
0
MTEXT
5
EA
100
AcDbEntity
8
SK6
62
256
6
ByLayer
370
13
48
1
60
0
100
AcDbMText
10
3.129169
20
34.482694
30
0
210
0
220
0
230
1
1
\W0.7598;R840-0420-50-A1A1220
40
3.5
41
0
44
1.084337
50
0
71
8
72
5
7
iso_b_vert
0
DIMENSION
5
F7
100
AcDbEntity
8
SK2
62
256
6
ByLayer
370
13
48
1
60
0
100
AcDbDimension
2
DimnDraft3D1
10
37.29
20
-12.313398
30
0
11
17.540059
21
-12.313398
31
0
70
32
71
5
72
1
41
1
210
0
220
0
230
1
3
Standard
100
AcDbAlignedDimension
13
0
23
-1.5875
33
0
14
37.29
24
-3.6875
34
0
50
0
100
AcDbRotatedDimension
1001
ACAD
1000
DSTYLE
1002
{
1070
   279
1070
     0
1070
   172
1070
     1
1070
   173
1070
     1
1070
   340
1005
EB
1070
   271
1070
     2
1070
   272
1070
     2
1070
    77
1070
     1
1070
    73
1070
     0
1070
   171
1070
     3
1070
   274
1070
     4
1070
   177
1070
    35
1070
   176
1070
    35
1070
   178
1070
    35
1070
    48
1040
-0.005
1070
    41
1041
3.5
1070
   147
1041
1.75
1070
    42
1041
1.5875
1070
    44
1041
2.0
1070
   140
1041
3.5
1070
   343
1005
0
1070
   344
1005
0
1002
}
0
DIMENSION
5
101
100
AcDbEntity
8
SK2
62
256
6
ByLayer
370
13
48
1
60
0
100
AcDbDimension
2
DimnDraft3D2
10
38
20
-31.692985
30
0
11
1.6313
21
-31.692985
31
0
70
32
71
5
72
1
41
1
210
0
220
0
230
1
3
Standard
100
AcDbAlignedDimension
13
-36
23
-4.5875
33
0
14
38
24
-1.5875
34
0
50
0
100
AcDbRotatedDimension
1001
ACAD
1000
DSTYLE
1002
{
1070
   279
1070
     0
1070
   172
1070
     1
1070
   173
1070
     1
1070
   340
1005
EB
1070
   271
1070
     2
1070
   272
1070
     2
1070
    77
1070
     1
1070
    73
1070
     0
1070
   171
1070
     3
1070
   274
1070
     4
1070
   177
1070
    35
1070
   176
1070
    35
1070
   178
1070
    35
1070
    48
1040
-0.005
1070
    41
1041
3.5
1070
   147
1041
1.75
1070
    42
1041
1.5875
1070
    44
1041
2.0
1070
   140
1041
3.5
1070
   343
1005
0
1070
   344
1005
0
1002
}
0
DIMENSION
5
10B
100
AcDbEntity
8
SK2
62
256
6
ByLayer
370
13
48
1
60
0
100
AcDbDimension
2
DimnDraft3D3
10
38
20
13.709119
30
0
11
27.145
21
13.709119
31
0
70
32
71
5
72
1
41
1
210
0
220
0
230
1
3
Standard
100
AcDbAlignedDimension
13
16.29
23
3.6875
33
0
14
38
24
1.5875
34
0
50
0
100
AcDbRotatedDimension
1001
ACAD
1000
DSTYLE
1002
{
1070
   279
1070
     0
1070
   172
1070
     1
1070
   173
1070
     1
1070
   340
1005
EB
1070
   271
1070
     2
1070
   272
1070
     2
1070
    77
1070
     1
1070
    73
1070
     0
1070
   171
1070
     3
1070
   274
1070
     4
1070
   177
1070
    35
1070
   176
1070
    35
1070
   178
1070
    35
1070
    48
1040
-0.005
1070
    41
1041
3.5
1070
   147
1041
1.75
1070
    42
1041
1.5875
1070
    44
1041
2.0
1070
   140
1041
3.5
1070
   343
1005
0
1070
   344
1005
0
1002
}
0
DIMENSION
5
115
100
AcDbEntity
8
SK2
62
256
6
ByLayer
370
13
48
1
60
0
100
AcDbDimension
2
DimnDraft3D4
10
37.29
20
-14.902503
30
0
11
47.981425
21
-14.902503
31
0
70
32
71
5
72
1
41
1
210
0
220
0
230
1
3
Standard
100
AcDbAlignedDimension
13
38
23
-1.5875
33
0
14
37.29
24
-3.6875
34
0
50
0
100
AcDbRotatedDimension
1001
ACAD
1000
DSTYLE
1002
{
1070
   279
1070
     0
1070
   172
1070
     1
1070
   173
1070
     1
1070
   340
1005
EB
1070
   271
1070
     2
1070
   272
1070
     2
1070
    77
1070
     1
1070
    73
1070
     0
1070
   171
1070
     3
1070
   274
1070
     4
1070
   177
1070
    35
1070
   176
1070
    35
1070
   178
1070
    35
1070
    48
1040
-0.005
1070
    41
1041
3.5
1070
   147
1041
1.75
1070
    42
1041
1.5875
1070
    44
1041
2.0
1070
   140
1041
3.5
1070
   343
1005
0
1070
   344
1005
0
1002
}
0
DIMENSION
5
11F
100
AcDbEntity
8
SK2
62
256
6
ByLayer
370
13
48
1
60
0
100
AcDbDimension
2
DimnDraft3D5
10
37.29
20
-21.343428
30
0
11
-1.449324
21
-21.343428
31
0
70
32
71
5
72
1
41
1
210
0
220
0
230
1
3
Standard
100
AcDbAlignedDimension
13
-36
23
-4.5875
33
0
14
37.29
24
-3.6875
34
0
50
0
100
AcDbRotatedDimension
1001
ACAD
1000
DSTYLE
1002
{
1070
   279
1070
     0
1070
   172
1070
     1
1070
   173
1070
     1
1070
   340
1005
EB
1070
   271
1070
     2
1070
   272
1070
     2
1070
    77
1070
     1
1070
    73
1070
     0
1070
   171
1070
     3
1070
   274
1070
     4
1070
   177
1070
    35
1070
   176
1070
    35
1070
   178
1070
    35
1070
    48
1040
-0.005
1070
    41
1041
3.5
1070
   147
1041
1.75
1070
    42
1041
1.5875
1070
    44
1041
2.0
1070
   140
1041
3.5
1070
   343
1005
0
1070
   344
1005
0
1002
}
0
DIMENSION
5
12A
100
AcDbEntity
8
SK2
62
256
6
ByLayer
370
13
48
1
60
0
100
AcDbDimension
2
DimnDraft3D6
10
-46.625163
20
3
30
0
11
-47.250163
21
21.47418
31
0
70
33
71
5
72
1
41
1
210
0
220
0
230
1
3
Standard
100
AcDbAlignedDimension
13
-37.5875
23
-3
33
0
14
-37.5875
24
3
34
0
1001
ACAD
1000
DSTYLE
1002
{
1070
   279
1070
     0
1070
    74
1070
     0
1070
   173
1070
     1
1070
   340
1005
EB
1070
   271
1070
     3
1070
   272
1070
     2
1070
    77
1070
     1
1070
    73
1070
     0
1070
   171
1070
     3
1070
   274
1070
     4
1070
   177
1070
    35
1070
   176
1070
    35
1070
   178
1070
    35
1070
    48
1040
-0.005
1070
    41
1041
3.5
1070
   147
1041
1.75
1070
    42
1041
1.5875
1070
    44
1041
2.0
1070
   140
1041
3.5
1070
   343
1005
0
1070
   344
1005
0
1002
}
0
DIMENSION
5
135
100
AcDbEntity
8
2
62
256
6
ByLayer
370
13
48
1
60
0
100
AcDbDimension
2
DimnDraft3D7
10
52.083343
20
2.1
30
0
11
47.458343
21
19.167266
31
0
70
33
71
5
72
1
41
1
210
0
220
0
230
1
3
Standard
100
AcDbAlignedDimension
13
38.8775
23
-2.1
33
0
14
38.8775
24
2.1
34
0
1001
ACAD
1000
DSTYLE
1002
{
1070
   279
1070
     0
1070
    74
1070
     0
1070
   173
1070
     1
1070
   340
1005
EB
1070
   271
1070
     3
1070
   272
1070
     2
1070
    77
1070
     1
1070
    73
1070
     0
1070
   171
1070
     3
1070
   274
1070
     4
1070
   177
1070
    35
1070
   176
1070
    35
1070
   178
1070
    35
1070
    48
1040
-0.005
1070
    41
1041
3.5
1070
   147
1041
1.75
1070
    42
1041
1.5875
1070
    44
1041
2.0
1070
   140
1041
3.5
1070
   343
1005
0
1070
   344
1005
0
1002
}
0
ENDSEC
0
SECTION
2
OBJECTS
0
DICTIONARY
5
1a0
330
0
100
AcDbDictionary
280
0
281
1
3
ACAD_GROUP
350
1a1
3
ACAD_MLINESTYLE
350
1a2
0
DICTIONARY
5
1a1
330
0
100
AcDbDictionary
280
0
281
1
0
DICTIONARY
5
1a2
330
0
100
AcDbDictionary
280
0
281
1
3
Standard
350
18
0
MLINESTYLE
5
18
330
1a2
100
AcDbMlineStyle
2
Standard
70
0
3

62
256
51
90
52
90
71
2
49
-0.5
62
256
6
ByLayer
49
0.5
62
256
6
ByLayer
0
RASTERVARIABLES
5
18e
330

100
AcDbRasterVariables
90
0
70
1
71
1
72
1
0
ENDSEC
0
EOF
