0
SECTION
2
HEADER
9
$ACADVER
1
AC1015
9
$DWGCODEPAGE
3
ANSI_1252
9
$HANDSEED
5
1b1
9
$ANGBASE
50
0
9
$ANGDIR
70
0
9
$ATTMODE
70
1
9
$AUNITS
70
0
9
$AUPREC
70
0
9
$CECOLOR
62
256
9
$CELTSCALE
40
1
9
$CELTYPE
6
ByLayer
9
$CELWEIGHT
370
18
9
$CLAYER
8
0
9
$CMLJUST
70
0
9
$CMLSCALE
40
1
9
$CMLSTYLE
2
Standard
9
$DIMSTYLE
2
Standard
9
$TEXTSIZE
40
0.2
9
$TEXTSTYLE
7
Standard
9
$LUNITS
70
2
9
$LUPREC
70
4
9
$EXTNAMES
290
1
9
$INSUNITS
70
4
9
$LTSCALE
40
1
9
$LWDISPLAY
290
1
9
$PDMODE
70
0
9
$PDSIZE
40
0
9
$PLINEGEN
70
0
0
ENDSEC
0
SECTION
2
CLASSES
0
CLASS
1
RASTERVARIABLES
2
AcDbRasterVariables
3
ISM
90
0
280
0
281
0
0
ENDSEC
0
SECTION
2
TABLES
0
TABLE
2
VPORT
5
1a7
100
AcDbSymbolTable
0
VPORT
5
1
100
AcDbSymbolTableRecord
100
AcDbViewportTableRecord
2
*Active
70
0
10
0
20
0
11
1
21
1
12
-1
22
1
13
0
23
0
14
0.5
24
0.5
15
10
25
10
16
0
26
0
36
1
17
0
27
0
37
0
0
ENDTAB
0
TABLE
2
LTYPE
5
1a8
100
AcDbSymbolTable
0
LTYPE
5
14
100
AcDbSymbolTableRecord
100
AcDbLinetypeTableRecord
70
0
2
ByBlock
3

72
65
73
0
40
0
0
LTYPE
5
15
100
AcDbSymbolTableRecord
100
AcDbLinetypeTableRecord
70
0
2
ByLayer
3

72
65
73
0
40
0
0
LTYPE
5
16
100
AcDbSymbolTableRecord
100
AcDbLinetypeTableRecord
70
0
2
CONTINUOUS
3
Solid line
72
65
73
0
40
0
0
LTYPE
5
6A
100
AcDbSymbolTableRecord
100
AcDbLinetypeTableRecord
70
0
2
CENTER
3
____ _ ____ _ ____ _ ____
72
65
73
4
40
47.5
49
22
74
0
49
-8.5
74
0
49
8.5
74
0
49
-8.5
74
0
0
LTYPE
5
6B
100
AcDbSymbolTableRecord
100
AcDbLinetypeTableRecord
70
0
2
DASHED
3
__ __ __ __ __ __ __ __ __
72
65
73
2
40
25.72
49
12.86
74
0
49
-12.86
74
0
0
ENDTAB
0
TABLE
2
LAYER
5
1a9
100
AcDbSymbolTable
0
LAYER
5
10
100
AcDbSymbolTableRecord
100
AcDbLayerTableRecord
2
0
70
0
62
7
6
CONTINUOUS
290
1
370
-3
390
0
0
LAYER
5
6D
100
AcDbSymbolTableRecord
100
AcDbLayerTableRecord
2
81
70
0
62
-3
6
CONTINUOUS
290
1
370
-3
390
0
0
LAYER
5
6F
100
AcDbSymbolTableRecord
100
AcDbLayerTableRecord
2
80
70
0
62
-6
6
CONTINUOUS
290
1
370
-3
390
0
0
LAYER
5
74
100
AcDbSymbolTableRecord
100
AcDbLayerTableRecord
2
2
70
0
62
7
6
CONTINUOUS
290
1
370
-3
390
0
0
LAYER
5
78
100
AcDbSymbolTableRecord
100
AcDbLayerTableRecord
2
1
70
0
62
4
6
CONTINUOUS
290
1
370
-3
390
0
0
LAYER
5
88
100
AcDbSymbolTableRecord
100
AcDbLayerTableRecord
2
4
70
0
62
-2
6
CENTER
290
1
370
-3
390
0
0
LAYER
5
193
100
AcDbSymbolTableRecord
100
AcDbLayerTableRecord
2
SK2
70
0
62
7
6
CONTINUOUS
290
1
370
-3
390
0
0
LAYER
5
194
100
AcDbSymbolTableRecord
100
AcDbLayerTableRecord
2
SK1
70
0
62
4
6
CONTINUOUS
290
1
370
-3
390
0
0
LAYER
5
195
100
AcDbSymbolTableRecord
100
AcDbLayerTableRecord
2
SK4
70
0
62
2
6
CENTER
290
1
370
-3
390
0
0
LAYER
5
196
100
AcDbSymbolTableRecord
100
AcDbLayerTableRecord
2
SK6
70
0
62
5
6
CONTINUOUS
290
1
370
-3
390
0
0
ENDTAB
0
TABLE
2
STYLE
5
1aa
100
AcDbSymbolTable
0
STYLE
5
11
100
AcDbSymbolTableRecord
100
AcDbTextStyleTableRecord
2
Standard
3
txt
70
0
71
0
40
0
41
1
42
0
50
0
0
STYLE
5
EF
100
AcDbSymbolTableRecord
100
AcDbTextStyleTableRecord
2
iso_b_vert
3
simplex.shx
70
0
71
0
40
0
41
1
42
0
50
0
0
STYLE
5
F0
100
AcDbSymbolTableRecord
100
AcDbTextStyleTableRecord
2
DWGDirectTextStyle
3
simplex
70
0
71
0
40
0
41
1
42
0
50
0
0
ENDTAB
0
TABLE
2
DIMSTYLE
5
1ab
100
AcDbSymbolTable
100
AcDbDimStyleTable
0
DIMSTYLE
105
27
100
AcDbSymbolTableRecord
100
AcDbDimStyleTableRecord
2
Standard
70
0
3
<>
41
0.18
42
0.0625
44
0.18
140
0.18
147
0.09
73
0
74
0
77
1
271
2
275
0
278
52
280
0
340
11
0
ENDTAB
0
TABLE
2
VIEW
5
1ac
100
AcDbSymbolTable
0
ENDTAB
0
TABLE
2
UCS
5
1ad
100
AcDbSymbolTable
0
ENDTAB
0
TABLE
2
APPID
5
1ae
100
AcDbSymbolTable
0
APPID
5
12
100
AcDbSymbolTableRecord
100
AcDbRegAppTableRecord
2
ACAD
70
0
0
ENDTAB
0
TABLE
2
BLOCK_RECORD
5
1af
100
AcDbSymbolTable
0
BLOCK_RECORD
5
1F
100
AcDbSymbolTableRecord
100
AcDbBlockTableRecord
2
*Model_Space
340
0
70
0
0
BLOCK_RECORD
5
1B
100
AcDbSymbolTableRecord
100
AcDbBlockTableRecord
2
*Paper_Space
340
0
70
0
0
BLOCK_RECORD
5
23
100
AcDbSymbolTableRecord
100
AcDbBlockTableRecord
2
*Paper_Space0
340
0
70
0
0
BLOCK_RECORD
5
F2
100
AcDbSymbolTableRecord
100
AcDbBlockTableRecord
2
DimnDraft3D1
340
0
70
0
0
BLOCK_RECORD
5
FC
100
AcDbSymbolTableRecord
100
AcDbBlockTableRecord
2
DimnDraft3D2
340
0
70
0
0
BLOCK_RECORD
5
106
100
AcDbSymbolTableRecord
100
AcDbBlockTableRecord
2
DimnDraft3D3
340
0
70
0
0
BLOCK_RECORD
5
110
100
AcDbSymbolTableRecord
100
AcDbBlockTableRecord
2
DimnDraft3D4
340
0
70
0
0
BLOCK_RECORD
5
11A
100
AcDbSymbolTableRecord
100
AcDbBlockTableRecord
2
DimnDraft3D5
340
0
70
0
0
BLOCK_RECORD
5
124
100
AcDbSymbolTableRecord
100
AcDbBlockTableRecord
2
DimnDraft3D6
340
0
70
0
0
BLOCK_RECORD
5
12F
100
AcDbSymbolTableRecord
100
AcDbBlockTableRecord
2
DimnDraft3D7
340
0
70
0
0
ENDTAB
0
ENDSEC
0
SECTION
2
BLOCKS
0
BLOCK
5
20
100
AcDbEntity
8
0
100
AcDbBlockBegin
2
*Model_Space
70
0
10
0
20
0
30
0
3
*Model_Space
0
ENDBLK
5
21
100
AcDbEntity
8
0
100
AcDbBlockEnd
0
BLOCK
5
1C
100
AcDbEntity
8
0
100
AcDbBlockBegin
2
*Paper_Space
70
0
10
0
20
0
30
0
3
*Paper_Space
0
ENDBLK
5
1D
100
AcDbEntity
8
0
100
AcDbBlockEnd
0
BLOCK
5
24
100
AcDbEntity
8
0
100
AcDbBlockBegin
2
*Paper_Space0
70
0
10
0
20
0
30
0
3
*Paper_Space0
0
ENDBLK
5
25
100
AcDbEntity
8
0
100
AcDbBlockEnd
0
BLOCK
5
F9
100
AcDbEntity
8
0
100
AcDbBlockBegin
2
DimnDraft3D1
70
0
10
0
20
0
30
0
3
DimnDraft3D1
0
MTEXT
5
F3
100
AcDbEntity
8
SK2
62
256
6
ByLayer
370
13
48
1
60
0
100
AcDbMText
10
13.548875
20
-11.388398
30
0
210
0
220
0
230
1
1
\W0.7211;37,31
40
3.5
41
0
44
1.084337
50
0
71
7
72
5
7
iso_b_vert
0
LINE
5
F4
100
AcDbEntity
8
SK2
62
256
6
ByLayer
370
13
48
1
60
0
100
AcDbLine
10
0
20
-1.5875
30
0
11
0
21
-14.263398
31
0
39
0
210
0
220
0
230
1
0
LINE
5
F5
100
AcDbEntity
8
SK2
62
256
6
ByLayer
370
13
48
1
60
0
100
AcDbLine
10
37.31
20
-3.6375
30
0
11
37.31
21
-14.263398
31
0
39
0
210
0
220
0
230
1
0
LINE
5
F6
100
AcDbEntity
8
SK2
62
256
6
ByLayer
370
13
48
1
60
0
100
AcDbLine
10
0
20
-12.263398
30
0
11
37.31
21
-12.263398
31
0
39
0
210
0
220
0
230
1
0
SOLID
5
F7
100
AcDbEntity
8
SK2
62
256
6
ByLayer
370
13
48
1
60
0
100
AcDbTrace
10
0
20
-12.263398
30
0
11
3.499998
21
-11.802615
31
0
12
3.500002
22
-12.724182
32
0
13
0
23
-12.263398
33
0
39
0
210
0
220
0
230
1
0
SOLID
5
F8
100
AcDbEntity
8
SK2
62
256
6
ByLayer
370
13
48
1
60
0
100
AcDbTrace
10
37.31
20
-12.263398
30
0
11
33.810002
21
-12.724182
31
0
12
33.809998
22
-11.802615
32
0
13
37.31
23
-12.263398
33
0
39
0
210
0
220
0
230
1
0
ENDBLK
5
FA
100
AcDbEntity
8
0
100
AcDbBlockEnd
0
BLOCK
5
103
100
AcDbEntity
8
0
100
AcDbBlockBegin
2
DimnDraft3D2
70
0
10
0
20
0
30
0
3
DimnDraft3D2
0
MTEXT
5
FD
100
AcDbEntity
8
SK2
62
256
6
ByLayer
370
13
48
1
60
0
100
AcDbMText
10
-2.981595
20
-30.817985
30
0
210
0
220
0
230
1
1
\W0.7581;74,00
40
3.5
41
0
44
1.084337
50
0
71
7
72
5
7
iso_b_vert
0
LINE
5
FE
100
AcDbEntity
8
SK2
62
256
6
ByLayer
370
13
48
1
60
0
100
AcDbLine
10
-36
20
-4.5875
30
0
11
-36
21
-33.692985
31
0
39
0
210
0
220
0
230
1
0
LINE
5
FF
100
AcDbEntity
8
SK2
62
256
6
ByLayer
370
13
48
1
60
0
100
AcDbLine
10
38
20
-1.5875
30
0
11
38
21
-33.692985
31
0
39
0
210
0
220
0
230
1
0
LINE
5
100
100
AcDbEntity
8
SK2
62
256
6
ByLayer
370
13
48
1
60
0
100
AcDbLine
10
-36
20
-31.692985
30
0
11
38
21
-31.692985
31
0
39
0
210
0
220
0
230
1
0
SOLID
5
101
100
AcDbEntity
8
SK2
62
256
6
ByLayer
370
13
48
1
60
0
100
AcDbTrace
10
-36
20
-31.692985
30
0
11
-32.500002
21
-31.232202
31
0
12
-32.499998
22
-32.153769
32
0
13
-36
23
-31.692985
33
0
39
0
210
0
220
0
230
1
0
SOLID
5
102
100
AcDbEntity
8
SK2
62
256
6
ByLayer
370
13
48
1
60
0
100
AcDbTrace
10
38
20
-31.692985
30
0
11
34.500002
21
-32.153769
31
0
12
34.499998
22
-31.232202
32
0
13
38
23
-31.692985
33
0
39
0
210
0
220
0
230
1
0
ENDBLK
5
104
100
AcDbEntity
8
0
100
AcDbBlockEnd
0
BLOCK
5
10D
100
AcDbEntity
8
0
100
AcDbBlockBegin
2
DimnDraft3D3
70
0
10
0
20
0
30
0
3
DimnDraft3D3
0
MTEXT
5
107
100
AcDbEntity
8
SK2
62
256
6
ByLayer
370
13
48
1
60
0
100
AcDbMText
10
23.831316
20
14.534119
30
0
210
0
220
0
230
1
1
\W0.6181;21,19
40
3.5
41
0
44
1.084337
50
0
71
7
72
5
7
iso_b_vert
0
LINE
5
108
100
AcDbEntity
8
SK2
62
256
6
ByLayer
370
13
48
1
60
0
100
AcDbLine
10
16.81
20
3.6375
30
0
11
16.81
21
15.659119
31
0
39
0
210
0
220
0
230
1
0
LINE
5
109
100
AcDbEntity
8
SK2
62
256
6
ByLayer
370
13
48
1
60
0
100
AcDbLine
10
38
20
1.5875
30
0
11
38
21
15.659119
31
0
39
0
210
0
220
0
230
1
0
LINE
5
10A
100
AcDbEntity
8
SK2
62
256
6
ByLayer
370
13
48
1
60
0
100
AcDbLine
10
16.81
20
13.659119
30
0
11
38
21
13.659119
31
0
39
0
210
0
220
0
230
1
0
SOLID
5
10B
100
AcDbEntity
8
SK2
62
256
6
ByLayer
370
13
48
1
60
0
100
AcDbTrace
10
16.81
20
13.659119
30
0
11
20.309998
21
14.119903
31
0
12
20.310002
22
13.198335
32
0
13
16.81
23
13.659119
33
0
39
0
210
0
220
0
230
1
0
SOLID
5
10C
100
AcDbEntity
8
SK2
62
256
6
ByLayer
370
13
48
1
60
0
100
AcDbTrace
10
38
20
13.659119
30
0
11
34.500002
21
13.198335
31
0
12
34.499998
22
14.119903
32
0
13
38
23
13.659119
33
0
39
0
210
0
220
0
230
1
0
ENDBLK
5
10E
100
AcDbEntity
8
0
100
AcDbBlockEnd
0
BLOCK
5
117
100
AcDbEntity
8
0
100
AcDbBlockBegin
2
DimnDraft3D4
70
0
10
0
20
0
30
0
3
DimnDraft3D4
0
MTEXT
5
111
100
AcDbEntity
8
SK2
62
256
6
ByLayer
370
13
48
1
60
0
100
AcDbMText
10
44.840636
20
-13.977503
30
0
210
0
220
0
230
1
1
\W0.7259;0,69
40
3.5
41
0
44
1.084337
50
0
71
7
72
5
7
iso_b_vert
0
LINE
5
112
100
AcDbEntity
8
SK2
62
256
6
ByLayer
370
13
48
1
60
0
100
AcDbLine
10
38
20
-1.5875
30
0
11
38
21
-16.852503
31
0
39
0
210
0
220
0
230
1
0
LINE
5
113
100
AcDbEntity
8
SK2
62
256
6
ByLayer
370
13
48
1
60
0
100
AcDbLine
10
37.31
20
-3.6375
30
0
11
37.31
21
-16.852503
31
0
39
0
210
0
220
0
230
1
0
LINE
5
114
100
AcDbEntity
8
SK2
62
256
6
ByLayer
370
13
48
1
60
0
100
AcDbLine
10
28.56
20
-14.852503
30
0
11
51.997215
21
-14.852503
31
0
39
0
210
0
220
0
230
1
0
SOLID
5
115
100
AcDbEntity
8
SK2
62
256
6
ByLayer
370
13
48
1
60
0
100
AcDbTrace
10
38
20
-14.852503
30
0
11
41.499998
21
-14.391719
31
0
12
41.500002
22
-15.313287
32
0
13
38
23
-14.852503
33
0
39
0
210
0
220
0
230
1
0
SOLID
5
116
100
AcDbEntity
8
SK2
62
256
6
ByLayer
370
13
48
1
60
0
100
AcDbTrace
10
37.31
20
-14.852503
30
0
11
33.810002
21
-15.313287
31
0
12
33.809998
22
-14.391719
32
0
13
37.31
23
-14.852503
33
0
39
0
210
0
220
0
230
1
0
ENDBLK
5
118
100
AcDbEntity
8
0
100
AcDbBlockEnd
0
BLOCK
5
121
100
AcDbEntity
8
0
100
AcDbBlockBegin
2
DimnDraft3D5
70
0
10
0
20
0
30
0
3
DimnDraft3D5
0
MTEXT
5
11B
100
AcDbEntity
8
SK2
62
256
6
ByLayer
370
13
48
1
60
0
100
AcDbMText
10
-5.440508
20
-20.468428
30
0
210
0
220
0
230
1
1
\W0.7211;73,31
40
3.5
41
0
44
1.084337
50
0
71
7
72
5
7
iso_b_vert
0
LINE
5
11C
100
AcDbEntity
8
SK2
62
256
6
ByLayer
370
13
48
1
60
0
100
AcDbLine
10
-36
20
-4.5875
30
0
11
-36
21
-23.343428
31
0
39
0
210
0
220
0
230
1
0
LINE
5
11D
100
AcDbEntity
8
SK2
62
256
6
ByLayer
370
13
48
1
60
0
100
AcDbLine
10
37.31
20
-3.6375
30
0
11
37.31
21
-23.343428
31
0
39
0
210
0
220
0
230
1
0
LINE
5
11E
100
AcDbEntity
8
SK2
62
256
6
ByLayer
370
13
48
1
60
0
100
AcDbLine
10
-36
20
-21.343428
30
0
11
37.31
21
-21.343428
31
0
39
0
210
0
220
0
230
1
0
SOLID
5
11F
100
AcDbEntity
8
SK2
62
256
6
ByLayer
370
13
48
1
60
0
100
AcDbTrace
10
-36
20
-21.343428
30
0
11
-32.500002
21
-20.882645
31
0
12
-32.499998
22
-21.804212
32
0
13
-36
23
-21.343428
33
0
39
0
210
0
220
0
230
1
0
SOLID
5
120
100
AcDbEntity
8
SK2
62
256
6
ByLayer
370
13
48
1
60
0
100
AcDbTrace
10
37.31
20
-21.343428
30
0
11
33.810002
21
-21.804212
31
0
12
33.809998
22
-20.882645
32
0
13
37.31
23
-21.343428
33
0
39
0
210
0
220
0
230
1
0
ENDBLK
5
122
100
AcDbEntity
8
0
100
AcDbBlockEnd
0
BLOCK
5
12C
100
AcDbEntity
8
0
100
AcDbBlockBegin
2
DimnDraft3D6
70
0
10
0
20
0
30
0
3
DimnDraft3D6
0
MTEXT
5
125
100
AcDbEntity
8
SK2
62
256
6
ByLayer
370
13
48
1
60
0
100
AcDbMText
10
-46.375163
20
22.34918
30
0
210
0
220
0
230
1
1
\W0.7317;6,000
40
3.5
41
0
44
1.084337
50
90
71
7
72
5
7
iso_b_vert
0
MTEXT
5
126
100
AcDbEntity
8
SK2
62
256
6
ByLayer
370
13
48
1
60
0
100
AcDbMText
10
-46.375163
20
17.126524
30
0
210
0
220
0
230
1
1
%%c
40
3.5
41
0
44
1.084337
50
90
71
7
72
5
7
iso_b_vert
0
LINE
5
127
100
AcDbEntity
8
SK2
62
256
6
ByLayer
370
13
48
1
60
0
100
AcDbLine
10
-37.5875
20
-3
30
0
11
-46.625163
21
-3
31
0
39
0
210
0
220
0
230
1
0
LINE
5
128
100
AcDbEntity
8
SK2
62
256
6
ByLayer
370
13
48
1
60
0
100
AcDbLine
10
-37.5875
20
3
30
0
11
-46.625163
21
3
31
0
39
0
210
0
220
0
230
1
0
LINE
5
129
100
AcDbEntity
8
SK2
62
256
6
ByLayer
370
13
48
1
60
0
100
AcDbLine
10
-44.625163
20
32.121549
30
0
11
-44.625163
21
-11.75
31
0
39
0
210
0
220
0
230
1
0
SOLID
5
12A
100
AcDbEntity
8
SK2
62
256
6
ByLayer
370
13
48
1
60
0
100
AcDbTrace
10
-44.625163
20
-3
30
0
11
-44.164379
21
-6.499998
31
0
12
-45.085946
22
-6.500002
32
0
13
-44.625163
23
-3
33
0
39
0
210
0
220
0
230
1
0
SOLID
5
12B
100
AcDbEntity
8
SK2
62
256
6
ByLayer
370
13
48
1
60
0
100
AcDbTrace
10
-44.625163
20
3
30
0
11
-45.085946
21
6.499998
31
0
12
-44.164379
22
6.500002
32
0
13
-44.625163
23
3
33
0
39
0
210
0
220
0
230
1
0
ENDBLK
5
12D
100
AcDbEntity
8
0
100
AcDbBlockEnd
0
BLOCK
5
137
100
AcDbEntity
8
0
100
AcDbBlockBegin
2
DimnDraft3D7
70
0
10
0
20
0
30
0
3
DimnDraft3D7
0
MTEXT
5
130
100
AcDbEntity
8
2
62
256
6
ByLayer
370
13
48
1
60
0
100
AcDbMText
10
48.333343
20
19.992266
30
0
210
0
220
0
230
1
1
\W0.6977;4,100
40
3.5
41
0
44
1.084337
50
90
71
7
72
5
7
iso_b_vert
0
MTEXT
5
131
100
AcDbEntity
8
2
62
256
6
ByLayer
370
13
48
1
60
0
100
AcDbMText
10
48.333343
20
14.76961
30
0
210
0
220
0
230
1
1
%%c
40
3.5
41
0
44
1.084337
50
90
71
7
72
5
7
iso_b_vert
0
LINE
5
132
100
AcDbEntity
8
2
62
256
6
ByLayer
370
13
48
1
60
0
100
AcDbLine
10
38.8975
20
-2.05
30
0
11
52.083343
21
-2.05
31
0
39
0
210
0
220
0
230
1
0
LINE
5
133
100
AcDbEntity
8
2
62
256
6
ByLayer
370
13
48
1
60
0
100
AcDbLine
10
38.8975
20
2.05
30
0
11
52.083343
21
2.05
31
0
39
0
210
0
220
0
230
1
0
LINE
5
134
100
AcDbEntity
8
2
62
256
6
ByLayer
370
13
48
1
60
0
100
AcDbLine
10
50.083343
20
29.258056
30
0
11
50.083343
21
-10.8
31
0
39
0
210
0
220
0
230
1
0
SOLID
5
135
100
AcDbEntity
8
2
62
256
6
ByLayer
370
13
48
1
60
0
100
AcDbTrace
10
50.083343
20
-2.05
30
0
11
50.544126
21
-5.549998
31
0
12
49.622559
22
-5.550002
32
0
13
50.083343
23
-2.05
33
0
39
0
210
0
220
0
230
1
0
SOLID
5
136
100
AcDbEntity
8
2
62
256
6
ByLayer
370
13
48
1
60
0
100
AcDbTrace
10
50.083343
20
2.05
30
0
11
49.622559
21
5.549998
31
0
12
50.544126
22
5.550002
32
0
13
50.083343
23
2.05
33
0
39
0
210
0
220
0
230
1
0
ENDBLK
5
138
100
AcDbEntity
8
0
100
AcDbBlockEnd
0
ENDSEC
0
SECTION
2
ENTITIES
0
ARC
5
9E
100
AcDbEntity
8
1
62
256
6
ByLayer
370
18
48
1
60
0
100
AcDbCircle
39
0
10
0
20
2.2
30
0
40
0.800000000000002
210
0
220
0
230
1
100
AcDbArc
50
23.128463
51
90
0
ARC
5
9F
100
AcDbEntity
8
1
62
256
6
ByLayer
370
18
48
1
60
0
100
AcDbCircle
39
0
10
-1.471402
20
2.82847
30
0
40
0.800000000000001
210
0
220
0
230
-1
100
AcDbArc
50
269.965623
51
336.871537
0
ARC
5
A0
100
AcDbEntity
8
1
62
256
6
ByLayer
370
18
48
1
60
0
100
AcDbCircle
39
0
10
-1.471402
20
-2.82847
30
0
40
0.800000000000001
210
0
220
0
230
-1
100
AcDbArc
50
23.128463
51
90.034377
0
ARC
5
A1
100
AcDbEntity
8
1
62
256
6
ByLayer
370
18
48
1
60
0
100
AcDbCircle
39
0
10
0
20
-2.2
30
0
40
0.800000000000002
210
0
220
0
230
1
100
AcDbArc
50
270
51
336.871537
0
ELLIPSE
5
A2
100
AcDbEntity
8
1
62
256
6
ByLayer
370
18
48
1
60
0
100
AcDbEllipse
10
38.059151
20
0.02926
30
0
11
0.135544944464272
21
0.427068210152008
31
0
210
0
220
0
230
-1
40
0.100282
41
-2.33653286894876
42
-1.72001514567798
0
ELLIPSE
5
A3
100
AcDbEntity
8
1
62
256
6
ByLayer
370
13
48
1
60
0
100
AcDbEllipse
10
37.626895
20
0.227212
30
0
11
0.15308208161242
21
0.258003636193772
31
0
210
0
220
0
230
1
40
0.454519
41
0.917105603404795
42
2.31398362113614
0
ELLIPSE
5
A4
100
AcDbEntity
8
1
62
256
6
ByLayer
370
13
48
1
60
0
100
AcDbEllipse
10
37.945376
20
1.048163
30
0
11
1.39486775806616
21
-0.584913390519292
31
0
210
0
220
0
230
-1
40
0.452961
41
1.60932901660812
42
1.91474183347863
0
ELLIPSE
5
A5
100
AcDbEntity
8
1
62
256
6
ByLayer
370
18
48
1
60
0
100
AcDbEllipse
10
37.582578
20
-1.048163
30
0
11
0.319295926263375
21
0.859971629302358
31
0
210
0
220
0
230
-1
40
0.131755
41
0.736518128020744
42
1.48671891042717
0
ELLIPSE
5
A6
100
AcDbEntity
8
1
62
256
6
ByLayer
370
13
48
1
60
0
100
AcDbEllipse
10
4.250206
20
-2.021023
30
0
11
0.00291692812853857
21
0.0999574485983558
31
0
210
0
220
0
230
1
40
0.503163
41
0.0552148738428355
42
1.58947317584607
0
ELLIPSE
5
A7
100
AcDbEntity
8
1
62
256
6
ByLayer
370
18
48
1
60
0
100
AcDbEllipse
10
38.059151
20
-0.02926
30
0
11
0.135544944404656
21
-0.427068210001959
31
0
210
0
220
0
230
-1
40
0.100282
41
1.72001514545199
42
2.336532868912
0
ELLIPSE
5
A8
100
AcDbEntity
8
1
62
256
6
ByLayer
370
18
48
1
60
0
100
AcDbEllipse
10
37.860996
20
0.088312
30
0
11
0.0727819104895416
21
0.301917195731915
31
0
210
0
220
0
230
-1
40
0.478434
41
1.68001552163569
42
2.4597611997421
0
ELLIPSE
5
A9
100
AcDbEntity
8
1
62
256
6
ByLayer
370
18
48
1
60
0
100
AcDbEllipse
10
38.00019
20
0.000448
30
0
11
0.760372111054163
21
2.0479385559718
31
0
210
0
220
0
230
-1
40
0.131755
41
2.84037802293231
42
2.97057843310538
0
ELLIPSE
5
AA
100
AcDbEntity
8
1
62
256
6
ByLayer
370
18
48
1
60
0
100
AcDbEllipse
10
38.00019
20
-0.000448
30
0
11
0.760372113161532
21
-2.0479385622221
31
0
210
0
220
0
230
-1
40
0.131755
41
-2.97057843337054
42
-2.84037802339916
0
ELLIPSE
5
AB
100
AcDbEntity
8
1
62
256
6
ByLayer
370
13
48
1
60
0
100
AcDbEllipse
10
37.75547
20
0.924965
30
0
11
1.33265915610655
21
-0.917573724983396
31
0
210
0
220
0
230
-1
40
0.533762
41
1.44484590367443
42
1.72930742318009
0
ELLIPSE
5
AC
100
AcDbEntity
8
1
62
256
6
ByLayer
370
18
48
1
60
0
100
AcDbEllipse
10
37.582578
20
1.048163
30
0
11
0.319295926215172
21
-0.85997162920292
31
0
210
0
220
0
230
-1
40
0.131755
41
-1.48671891051192
42
-0.736518128028486
0
ELLIPSE
5
AD
100
AcDbEntity
8
1
62
256
6
ByLayer
370
13
48
1
60
0
100
AcDbEllipse
10
4.173885
20
-2.039168
30
0
11
0.0480832339685717
21
-0.0876812557569952
31
0
210
0
220
0
230
1
40
0.46795
41
-3.07403143371317
42
-1.93247029387801
0
POINT
5
6C
100
AcDbEntity
8
81
62
256
6
ByLayer
370
18
48
1
60
0
100
AcDbPoint
10
38
20
0
30
0
39
0
210
0
220
0
230
1
50
360
0
POINT
5
6E
100
AcDbEntity
8
80
62
256
6
ByLayer
370
18
48
1
60
0
100
AcDbPoint
10
0
20
0
30
0
39
0
210
0
220
0
230
1
50
360
0
POINT
5
70
100
AcDbEntity
8
SK2
62
256
6
ByLayer
370
18
48
1
60
1
100
AcDbPoint
10
-36
20
-3
30
0
39
0
210
0
220
0
230
1
50
360
0
POINT
5
72
100
AcDbEntity
8
SK2
62
256
6
ByLayer
370
18
48
1
60
1
100
AcDbPoint
10
-36
20
3
30
0
39
0
210
0
220
0
230
1
50
360
0
POINT
5
73
100
AcDbEntity
8
2
62
256
6
ByLayer
370
18
48
1
60
1
100
AcDbPoint
10
37.31
20
-2.05
30
0
39
0
210
0
220
0
230
1
50
360
0
POINT
5
75
100
AcDbEntity
8
2
62
256
6
ByLayer
370
18
48
1
60
1
100
AcDbPoint
10
37.31
20
2.05
30
0
39
0
210
0
220
0
230
1
50
360
0
SPLINE
5
AE
100
AcDbEntity
8
1
62
256
6
ByLayer
370
18
48
1
60
0
100
AcDbSpline
70
4
71
3
72
21
73
17
40
0
40
0
40
0
40
0
40
0.0973135890511632
40
0.175890299731577
40
0.232282458736042
40
0.291455185355735
40
0.356154471240213
40
0.431671762621645
40
0.51530127197336
40
0.598472168636149
40
0.686281039297014
40
0.761061424452989
40
0.83097604619324
40
0.90089885088059
40
0.971294011262861
40
1
40
1
40
1
40
1
41
1
10
20.5836936748826
20
1.93349828992859
30
0
41
1
10
20.437985241068
20
1.93306034473585
30
0
41
1
10
20.1746248278288
20
1.93262204836739
30
0
41
1
10
19.8268207074353
20
1.93224688985552
30
0
41
1
10
19.5361451004223
20
1.93339234340075
30
0
41
1
10
19.2662288272155
20
1.93364112015919
30
0
41
1
10
18.9676889264942
20
1.93087205724623
30
0
41
1
10
18.6325199470431
20
1.9320146766068
30
0
41
1
10
18.2696957875476
20
1.93245486674616
30
0
41
1
10
17.8884683583239
20
1.93166967523428
30
0
41
1
10
17.5204904424636
20
1.93072540410077
30
0
41
1
10
17.1723589109499
20
1.93091651205461
30
0
41
1
10
16.8510085654712
20
1.93133337610209
30
0
41
1
10
16.5362264936048
20
1.9303230344799
30
0
41
1
10
16.2831449958015
20
1.93028301483065
30
0
41
1
10
16.1347618834502
20
1.93025578369944
30
0
41
1
10
16.0917809079558
20
1.93024645790962
30
0
0
SPLINE
5
AF
100
AcDbEntity
8
1
62
256
6
ByLayer
370
18
48
1
60
0
100
AcDbSpline
70
4
71
3
72
18
73
14
40
0
40
0
40
0
40
0
40
0.0942161459631997
40
0.164891790947518
40
0.212790348498785
40
0.365306485460401
40
0.511435909362565
40
0.582690763206653
40
0.649177652340111
40
0.712056446326987
40
0.776400983375114
40
0.87642175591738
40
1
40
1
40
1
40
1
41
1
10
4.47873338027159
20
-1.92292511981398
30
0
41
1
10
4.6425409905587
20
-1.92316505260939
30
0
41
1
10
4.92914760330768
20
-1.92351264775954
30
0
41
1
10
5.29840823879806
20
-1.923806950189
30
0
41
1
10
5.76956923109054
20
-1.92401284339877
30
0
41
1
10
6.37217192210943
20
-1.926016370003
30
0
41
1
10
7.01524870286102
20
-1.92382225254883
30
0
41
1
10
7.50881111617531
20
-1.92492336357495
30
0
41
1
10
7.85756775224894
20
-1.92660242329109
30
0
41
1
10
8.19434814914638
20
-1.92657964427207
30
0
41
1
10
8.58943556956311
20
-1.92508210258526
30
0
41
1
10
9.09006510102347
20
-1.92665820102246
30
0
41
1
10
9.47880756756652
20
-1.92671971952524
30
0
41
1
10
9.69365472061133
20
-1.92685482623665
30
0
0
SPLINE
5
B0
100
AcDbEntity
8
1
62
256
6
ByLayer
370
18
48
1
60
0
100
AcDbSpline
70
4
71
3
72
21
73
17
40
0
40
0
40
0
40
0
40
0.101426258350841
40
0.171797721839085
40
0.230885033301618
40
0.290055276495541
40
0.35101493818796
40
0.416433742573633
40
0.491104506518267
40
0.596522955892959
40
0.694214442196061
40
0.768287036407428
40
0.809113213215379
40
0.851463689897761
40
0.91926732064361
40
1
40
1
40
1
40
1
41
1
10
26.1594348655101
20
-1.93641287165272
30
0
41
1
10
26.3388276218515
20
-1.9365732295152
30
0
41
1
10
26.6426880777614
20
-1.93674792566708
30
0
41
1
10
27.0510591978836
20
-1.9372267319647
30
0
41
1
10
27.3846954775802
20
-1.93678372120027
30
0
41
1
10
27.701649559847
20
-1.93714014073762
30
0
41
1
10
28.0298472409335
20
-1.93815949057549
30
0
41
1
10
28.3854070650179
20
-1.93750687248661
30
0
41
1
10
28.8196589752546
20
-1.93755399580348
30
0
41
1
10
29.310967553352
20
-1.93772801449526
30
0
41
1
10
29.8012291627052
20
-1.93842237881341
30
0
41
1
10
30.1772468070953
20
-1.93963302298971
30
0
41
1
10
30.4553682294288
20
-1.93902652641532
30
0
41
1
10
30.7223806537138
20
-1.93857568739125
30
0
41
1
10
31.0600218835942
20
-1.93806636605223
30
0
41
1
10
31.3227135920704
20
-1.93868455909271
30
0
41
1
10
31.4654892674683
20
-1.93923222831398
30
0
0
SPLINE
5
B1
100
AcDbEntity
8
1
62
256
6
ByLayer
370
18
48
1
60
0
100
AcDbSpline
70
4
71
3
72
20
73
16
40
0
40
0
40
0
40
0
40
0.106604229454527
40
0.178406099633701
40
0.237939065553789
40
0.297072561746972
40
0.356199137647257
40
0.419440674377581
40
0.493700360357928
40
0.599060190696928
40
0.697837153617977
40
0.777665409118073
40
0.834769942867124
40
0.903481545685069
40
1
40
1
40
1
40
1
41
1
10
15.2731620148204
20
-1.92972120677771
30
0
41
1
10
15.4618892076128
20
-1.92992755368863
30
0
41
1
10
15.7777382485442
20
-1.93018631980942
30
0
41
1
10
16.1990011531265
20
-1.93026973977604
30
0
41
1
10
16.5362264933444
20
-1.93032294144439
30
0
41
1
10
16.8510085664637
20
-1.93133372306119
30
0
41
1
10
17.172358907153
20
-1.93091517832534
30
0
41
1
10
17.520490458882
20
-1.93073116678644
30
0
41
1
10
17.9504754938501
20
-1.93179852489536
30
0
41
1
10
18.4433760745259
20
-1.93294458238455
30
0
41
1
10
18.9461380622384
20
-1.93035261412283
30
0
41
1
10
19.3634606433639
20
-1.93424039114245
30
0
41
1
10
19.7275483459055
20
-1.9324780533494
30
0
41
1
10
20.1211958224135
20
-1.93233255953737
30
0
41
1
10
20.4137349824941
20
-1.93286260076854
30
0
41
1
10
20.5846206346747
20
-1.9334981628096
30
0
0
SPLINE
5
B2
100
AcDbEntity
8
1
62
256
6
ByLayer
370
18
48
1
60
0
100
AcDbSpline
70
4
71
2
72
6
73
3
40
0
40
0
40
0
40
1
40
1
40
1
41
1
10
37.0073217712242
20
-1.9427960840558
30
0
41
1
10
37.1472164873308
20
-1.94142453018785
30
0
41
1
10
37.2871282820826
20
-1.94305127858834
30
0
0
SPLINE
5
B3
100
AcDbEntity
8
1
62
256
6
ByLayer
370
18
48
1
60
0
100
AcDbSpline
70
4
71
3
72
20
73
16
40
0
40
0
40
0
40
0
40
0.097578424273024
40
0.178634046197726
40
0.229475180157688
40
0.278955991754911
40
0.329479331328704
40
0.457081542582581
40
0.605229379806461
40
0.694079583200906
40
0.77192094665277
40
0.844456408379284
40
0.914862653942638
40
0.985170219637165
40
1
40
1
40
1
40
1
41
1
10
31.4641430517996
20
1.93923270996402
30
0
41
1
10
31.3191147265536
20
1.93867895364207
30
0
41
1
10
31.0536104676149
20
1.93806436381507
30
0
41
1
10
30.7124915293949
20
1.93858496088194
30
0
41
1
10
30.4429119307526
20
1.93906657029555
30
0
41
1
10
30.2186936579632
20
1.93947260227208
30
0
41
1
10
29.8803644220039
20
1.93923087220153
30
0
41
1
10
29.3953725000815
20
1.93689467036015
30
0
41
1
10
28.8534188390833
20
1.93769907123888
30
0
41
1
10
28.3854071677628
20
1.93748137278399
30
0
41
1
10
28.0298472169105
20
1.93816545410897
30
0
41
1
10
27.7016495658931
20
1.93713864205574
30
0
41
1
10
27.3846954760041
20
1.93678411457947
30
0
41
1
10
27.1534841767824
20
1.93709076213091
30
0
41
1
10
27.0269307273579
20
1.93708386435367
30
0
41
1
10
27.0048868427512
20
1.93707846904516
30
0
0
SPLINE
5
B4
100
AcDbEntity
8
1
62
256
6
ByLayer
370
18
48
1
60
0
100
AcDbSpline
70
4
71
3
72
20
73
16
40
0
40
0
40
0
40
0
40
0.102554508670873
40
0.182914046868432
40
0.243272431553157
40
0.306804816985761
40
0.377554306914767
40
0.459772819418467
40
0.547767473250225
40
0.694514825631954
40
0.816952169552337
40
0.853890979563155
40
0.889280602660458
40
0.92827149614755
40
1
40
1
40
1
40
1
41
1
10
9.69731106113667
20
1.92691734742033
30
0
41
1
10
9.54630291518612
20
1.92713111129234
30
0
41
1
10
9.27696919855862
20
1.92721442123477
30
0
41
1
10
8.91874867341329
20
1.92547557827032
30
0
41
1
10
8.61801146084241
20
1.92523938255246
30
0
41
1
10
8.33140199584963
20
1.92623131771478
30
0
41
1
10
8.01261159791142
20
1.92671427258131
30
0
41
1
10
7.65779844510331
20
1.92585494860703
30
0
41
1
10
7.19108711232207
20
1.92353255897459
30
0
41
1
10
6.66512946753491
20
1.925566344331
30
0
41
1
10
6.21440316305251
20
1.92495589081381
30
0
41
1
10
5.92761309126988
20
1.92426502549861
30
0
41
1
10
5.76369228246622
20
1.92412120014026
30
0
41
1
10
5.54862469969751
20
1.92397750509548
30
0
41
1
10
5.38594889208562
20
1.92381954422689
30
0
41
1
10
5.28053890721492
20
1.92371383278112
30
0
0
SPLINE
5
B5
100
AcDbEntity
8
1
62
256
6
ByLayer
370
18
48
1
60
0
100
AcDbSpline
70
4
71
3
72
10
73
6
40
0
40
0
40
0
40
0
40
0.0647077826094807
40
0.490708354327615
40
1
40
1
40
1
40
1
41
1
10
20.9247250031806
20
-0.454116184578254
30
0
41
1
10
20.924765274424
20
-0.454200391946131
30
0
41
1
10
20.9267251803661
20
-0.455696426720095
30
0
41
1
10
20.9463527815146
20
-0.467391942623891
30
0
41
1
10
20.9803933372411
20
-0.485964743746052
30
0
41
1
10
21.0047102657669
20
-0.499063634300626
30
0
0
SPLINE
5
B6
100
AcDbEntity
8
1
62
256
6
ByLayer
370
18
48
1
60
0
100
AcDbSpline
70
4
71
3
72
9
73
5
40
0
40
0
40
0
40
0
40
0.0149731146798826
40
1
40
1
40
1
40
1
41
1
10
31.84598838486
20
-0.472081215118578
30
0
41
1
10
31.845887106887
20
-0.472051610318687
30
0
41
1
10
31.8395122064514
20
-0.470287350440515
30
0
41
1
10
31.859419405775
20
-0.482995318227182
30
0
41
1
10
31.9016711080807
20
-0.507134762140879
30
0
0
SPLINE
5
B7
100
AcDbEntity
8
1
62
256
6
ByLayer
370
13
48
1
60
0
100
AcDbSpline
70
4
71
3
72
8
73
4
40
0
40
0
40
0
40
0
40
1
40
1
40
1
40
1
41
1
10
4.14944983972063
20
-2.0296780011889
30
0
41
1
10
4.16575851112864
20
-2.0241211244188
30
0
41
1
10
4.18257860322339
20
-2.02135241350646
30
0
41
1
10
4.19986491628424
20
-2.02142199526153
30
0
0
SPLINE
5
B8
100
AcDbEntity
8
1
62
256
6
ByLayer
370
18
48
1
60
0
100
AcDbSpline
70
4
71
3
72
16
73
12
40
0
40
0
40
0
40
0
40
0.250000000000003
40
0.250000000000003
40
0.500000000000007
40
0.500000000000007
40
0.625000000000009
40
0.625000000000009
40
0.75000000000001
40
0.75000000000001
40
1
40
1
40
1
40
1
41
1
10
37.7222972583878
20
-1.01786407837091
30
0
41
1
10
37.6920079640956
20
-1.09903814556228
30
0
41
1
10
37.661521625739
20
-1.18005058112823
30
0
41
1
10
37.6006391201527
20
-1.34218797227083
30
0
41
1
10
37.5701947103078
20
-1.42325064693986
30
0
41
1
10
37.5243250831305
20
-1.5444574882373
30
0
41
1
10
37.509000683347
20
-1.5847939268626
30
0
41
1
10
37.4782215188175
20
-1.66521818140947
30
0
41
1
10
37.4627844038206
20
-1.70533965766634
30
0
41
1
10
37.4165243652292
20
-1.82580193431991
30
0
41
1
10
37.3856939532299
20
-1.90612845336844
30
0
41
1
10
37.3541050798472
20
-1.98500848927262
30
0
0
SPLINE
5
B9
100
AcDbEntity
8
1
62
256
6
ByLayer
370
18
48
1
60
0
100
AcDbSpline
70
4
71
3
72
66
73
62
40
0
40
0
40
0
40
0
40
0.0160876791761381
40
0.0160876791761381
40
0.0504623385802913
40
0.0504623385802913
40
0.0848369979844445
40
0.0848369979844445
40
0.119211657388598
40
0.119211657388598
40
0.153586316792751
40
0.153586316792751
40
0.187960976196904
40
0.187960976196904
40
0.222335635601057
40
0.222335635601057
40
0.25671029500521
40
0.25671029500521
40
0.291084954409364
40
0.291084954409364
40
0.325459613813517
40
0.325459613813517
40
0.35983427321767
40
0.35983427321767
40
0.394208932621823
40
0.394208932621823
40
0.428583592025977
40
0.428583592025977
40
0.46295825143013
40
0.46295825143013
40
0.497332910834283
40
0.497332910834283
40
0.531707570238436
40
0.531707570238436
40
0.566082229642589
40
0.566082229642589
40
0.600456889046743
40
0.600456889046743
40
0.634831548450896
40
0.634831548450896
40
0.669206207855049
40
0.669206207855049
40
0.703580867259202
40
0.703580867259202
40
0.737955526663356
40
0.737955526663356
40
0.772330186067509
40
0.772330186067509
40
0.806704845471662
40
0.806704845471662
40
0.841079504875815
40
0.841079504875815
40
0.875454164279968
40
0.875454164279968
40
0.909828823684121
40
0.909828823684121
40
0.944203483088274
40
0.944203483088274
40
0.978578142492427
40
0.978578142492427
40
1
40
1
40
1
40
1
41
1
10
12.0850338034597
20
1.48097594757934
30
0
41
1
10
12.1576680753205
20
1.51011123391572
30
0
41
1
10
12.2302372782137
20
1.53831057812258
30
0
41
1
10
12.4575593432623
20
1.62393077198769
30
0
41
1
10
12.6120537309149
20
1.67793199511416
30
0
41
1
10
12.9231802168524
20
1.77448606170503
30
0
41
1
10
13.0788304538499
20
1.81738992759048
30
0
41
1
10
13.3886949771963
20
1.89260043587566
30
0
41
1
10
13.5429700848408
20
1.92489025615399
30
0
41
1
10
13.8534346246811
20
1.97700139414062
30
0
41
1
10
14.0095478994591
20
1.99720804705035
30
0
41
1
10
14.319129688937
20
2.02562025079658
30
0
41
1
10
14.4725811650137
20
2.03380688235089
30
0
41
1
10
14.7801603678373
20
2.0379417547349
30
0
41
1
10
14.9338654823189
20
2.03405712104279
30
0
41
1
10
15.2405647930984
20
2.01439864724301
30
0
41
1
10
15.3931934194367
20
1.99840337065873
30
0
41
1
10
15.700441606826
20
1.95505151735011
30
0
41
1
10
15.8547217947048
20
1.92770581032286
30
0
41
1
10
16.1640489609327
20
1.86119041450948
30
0
41
1
10
16.3190963274842
20
1.82146681628964
30
0
41
1
10
16.6293930425865
20
1.73232876922094
30
0
41
1
10
16.7846618924187
20
1.68288208104931
30
0
41
1
10
17.0948056337813
20
1.57376517696306
30
0
41
1
10
17.249246761675
20
1.5135349666524
30
0
41
1
10
17.5599267185396
20
1.38493691770606
30
0
41
1
10
17.715440599377
20
1.31698589947763
30
0
41
1
10
18.0256642634903
20
1.17324124453646
30
0
41
1
10
18.1800546118123
20
1.09681220014443
30
0
41
1
10
18.4899526979161
20
0.938324886520348
30
0
41
1
10
18.6459248235956
20
0.856587015190456
30
0
41
1
10
18.9564894541524
20
0.688363939178686
30
0
41
1
10
19.1109825021924
20
0.601221944634545
30
0
41
1
10
19.4203758984086
20
0.424024328431131
30
0
41
1
10
19.5759090276703
20
0.334766059667771
30
0
41
1
10
19.8870108111809
20
0.153977429112814
30
0
41
1
10
20.0413021081632
20
0.0626196984908063
30
0
41
1
10
20.3487079773855
20
-0.119617415203578
30
0
41
1
10
20.5025107196628
20
-0.209301069165321
30
0
41
1
10
20.8095966000004
20
-0.387151262631335
30
0
41
1
10
20.9627097122412
20
-0.475598211854532
30
0
41
1
10
21.2687437497398
20
-0.650326444299139
30
0
41
1
10
21.4225107645636
20
-0.735205219366122
30
0
41
1
10
21.7311005492956
20
-0.900767454493632
30
0
41
1
10
21.8858909954507
20
-0.981732959819709
30
0
41
1
10
22.1959735255794
20
-1.13923727760746
30
0
41
1
10
22.3510636246859
20
-1.21384502824765
30
0
41
1
10
22.6613210665843
20
-1.35513761904542
30
0
41
1
10
22.8163303950132
20
-1.42203699469087
30
0
41
1
10
23.1258540654541
20
-1.54836478807232
30
0
41
1
10
23.2814005688987
20
-1.60673916047779
30
0
41
1
10
23.5919144257343
20
-1.71279973264734
30
0
41
1
10
23.7469766711074
20
-1.7608235020179
30
0
41
1
10
24.0561758916267
20
-1.84703288136103
30
0
41
1
10
24.2113004718844
20
-1.88456574222607
30
0
41
1
10
24.5223327443455
20
-1.94777831773186
30
0
41
1
10
24.6775570687399
20
-1.97357889772283
30
0
41
1
10
24.9867349383612
20
-2.01365781282837
30
0
41
1
10
25.1413247923043
20
-2.02761722065972
30
0
41
1
10
25.3935073024729
20
-2.04029157932564
30
0
41
1
10
25.4904879770575
20
-2.04280094500567
30
0
41
1
10
25.5871394142968
20
-2.04293920019944
30
0
0
SPLINE
5
BA
100
AcDbEntity
8
1
62
256
6
ByLayer
370
18
48
1
60
0
100
AcDbSpline
70
4
71
3
72
20
73
16
40
0
40
0
40
0
40
0
40
0.0680330016549387
40
0.0680330016549387
40
0.201171144275662
40
0.201171144275662
40
0.334309286896386
40
0.334309286896386
40
0.467447429517108
40
0.467447429517108
40
0.600585572137832
40
0.600585572137832
40
0.733723714758555
40
0.733723714758555
40
1
40
1
40
1
40
1
41
1
10
33.8621048819587
20
1.49170377116406
30
0
41
1
10
33.9413190010841
20
1.52367670593736
30
0
41
1
10
34.0205587330616
20
1.55439732830851
30
0
41
1
10
34.2547785177946
20
1.64178392250636
30
0
41
1
10
34.4094515410624
20
1.69532642584892
30
0
41
1
10
34.7192873587201
20
1.79231674258131
30
0
41
1
10
34.8747243047925
20
1.83494837856858
30
0
41
1
10
35.1848413161557
20
1.90914913058333
30
0
41
1
10
35.3395174147065
20
1.94084936690527
30
0
41
1
10
35.648718672354
20
1.99269968985294
30
0
41
1
10
35.8043884175477
20
2.01247309258059
30
0
41
1
10
36.1148594402212
20
2.0399095254856
30
0
41
1
10
36.2696669078955
20
2.04763850938468
30
0
41
1
10
36.7330175784584
20
2.05228218466544
30
0
41
1
10
37.0452710783275
20
2.03086247200488
30
0
41
1
10
37.3541050798286
20
1.98500848929055
30
0
0
SPLINE
5
BB
100
AcDbEntity
8
1
62
256
6
ByLayer
370
18
48
1
60
0
100
AcDbSpline
70
4
71
3
72
17
73
13
40
0
40
0
40
0
40
0
40
0.25
40
0.25
40
0.5
40
0.5
40
0.625
40
0.625
40
0.75
40
0.875
40
0.875
40
1
40
1
40
1
40
1
41
1
10
37.2928122147524
20
-1.94298247128248
30
0
41
1
10
37.2356041459344
20
-1.94296306952177
30
0
41
1
10
37.1839631293462
20
-1.92627982188364
30
0
41
1
10
37.0938357271498
20
-1.85551321205963
30
0
41
1
10
37.0571115942276
20
-1.80287443720226
30
0
41
1
10
37.0150001610233
20
-1.69707007819099
30
0
41
1
10
37.0030872766034
20
-1.65698058852624
30
0
41
1
10
36.9843006068294
20
-1.5683918026206
30
0
41
1
10
36.9706661412352
20
-1.47237691128302
30
0
41
1
10
36.9671310682513
20
-1.36180530758438
30
0
41
1
10
36.968771814531
20
-1.24377356096301
30
0
41
1
10
36.9722358750332
20
-1.1807485967262
30
0
41
1
10
36.9782405667494
20
-1.11560882969255
30
0
0
SPLINE
5
BC
100
AcDbEntity
8
1
62
256
6
ByLayer
370
18
48
1
60
0
100
AcDbSpline
70
4
71
3
72
30
73
26
40
0
40
0
40
0
40
0
40
0.189451214698158
40
0.189451214698158
40
0.243985487914483
40
0.243985487914483
40
0.298519761130809
40
0.298519761130809
40
0.407588307563458
40
0.407588307563458
40
0.462122580779782
40
0.462122580779782
40
0.516656853996105
40
0.516656853996105
40
0.625725400428753
40
0.625725400428753
40
0.680259673645077
40
0.680259673645077
40
0.7347939468614
40
0.7347939468614
40
0.843862493294048
40
0.843862493294048
40
0.952931039726695
40
0.952931039726695
40
1
40
1
40
1
40
1
41
1
10
6.54256768533327
20
1.58459364791628
30
0
41
1
10
7.14366623476775
20
1.36682853846364
30
0
41
1
10
7.73437405601427
20
1.08074566757048
30
0
41
1
10
8.50864662184372
20
0.661715519095509
30
0
41
1
10
8.68309431008413
20
0.564397850662715
30
0
41
1
10
9.02912824602299
20
0.367599816965168
30
0
41
1
10
9.20129654580285
20
0.267947129798586
30
0
41
1
10
9.7168443175579
20
-0.0319948564534798
30
0
41
1
10
10.05902803808
20
-0.233691174218137
30
0
41
1
10
10.5756403820348
20
-0.529058690199832
30
0
41
1
10
10.7484611412153
20
-0.626213753873031
30
0
41
1
10
11.0963383446621
20
-0.816173058632955
30
0
41
1
10
11.2694118145432
20
-0.907987482424943
30
0
41
1
10
11.7862763899563
20
-1.17142340141643
30
0
41
1
10
12.1284194643461
20
-1.3309848317559
30
0
41
1
10
12.6437604240009
20
-1.5385661357987
30
0
41
1
10
12.8158589159352
20
-1.60252925364586
30
0
41
1
10
13.1616146176156
20
-1.71869188622858
30
0
41
1
10
13.3359477611184
20
-1.77099479057881
30
0
41
1
10
13.8550907538635
20
-1.90608909354319
30
0
41
1
10
14.1979052604466
20
-1.96811277854343
30
0
41
1
10
14.8839112223804
20
-2.03345488621932
30
0
41
1
10
15.2274955484385
20
-2.03674145509902
30
0
41
1
10
15.7252734639118
20
-1.99740243377974
30
0
41
1
10
15.8749642020074
20
-1.9799264346718
30
0
41
1
10
16.0245802844195
20
-1.95699535735054
30
0
0
SPLINE
5
BD
100
AcDbEntity
8
1
62
256
6
ByLayer
370
18
48
1
60
0
100
AcDbSpline
70
4
71
3
72
22
73
18
40
0
40
0
40
0
40
0
40
0.135729390436775
40
0.135729390436775
40
0.320521303166658
40
0.320521303166658
40
0.412917259531599
40
0.412917259531599
40
0.505313215896541
40
0.505313215896541
40
0.690105128626424
40
0.690105128626424
40
0.782501084991365
40
0.782501084991365
40
0.874897041356307
40
0.874897041356307
40
1
40
1
40
1
40
1
41
1
10
28.2855285866313
20
1.60458146644393
30
0
41
1
10
28.5388557486681
20
1.51311576730021
30
0
41
1
10
28.7905794000094
20
1.40935996025885
30
0
41
1
10
29.3849969802455
20
1.14021807468569
30
0
41
1
10
29.7271923566428
20
0.965564861712465
30
0
41
1
10
30.2467996835409
20
0.68387374133377
30
0
41
1
10
30.4208111920859
20
0.586504844298872
30
0
41
1
10
30.7657224613504
20
0.389567707626952
30
0
41
1
10
30.9373692085633
20
0.289619975987137
30
0
41
1
10
31.4515984223102
20
-0.0116891334578497
30
0
41
1
10
31.7934995528768
20
-0.214466742596784
30
0
41
1
10
32.3102174492214
20
-0.512406526347235
30
0
41
1
10
32.4838138237096
20
-0.610804174509411
30
0
41
1
10
32.8305583100574
20
-0.802067321051851
30
0
41
1
10
33.0028959528275
20
-0.89449990234337
30
0
41
1
10
33.4072483931402
20
-1.10307702841266
30
0
41
1
10
33.6388069040827
20
-1.2159857474997
30
0
41
1
10
33.870596247872
20
-1.32008791931469
30
0
0
SPLINE
5
BE
100
AcDbEntity
8
1
62
256
6
ByLayer
370
13
48
1
60
0
100
AcDbSpline
70
4
71
3
72
16
73
12
40
0
40
0
40
0
40
0
40
0.0972027975854294
40
0.0972027975854294
40
0.247668997987858
40
0.247668997987858
40
0.398135198390287
40
0.398135198390287
40
0.699067599195144
40
0.699067599195144
40
1
40
1
40
1
40
1
41
1
10
33.870597159689
20
-1.32008832883363
30
0
41
1
10
33.9811878736223
20
-1.36975726844315
30
0
41
1
10
34.0918311349376
20
-1.41742147674543
30
0
41
1
10
34.3742261037117
20
-1.53327743522894
30
0
41
1
10
34.5462136034457
20
-1.59846555827261
30
0
41
1
10
34.8919919300667
20
-1.71716173267194
30
0
41
1
10
35.0661030314982
20
-1.77069250406006
30
0
41
1
10
35.5837239900077
20
-1.90958066024194
30
0
41
1
10
35.9253529346819
20
-1.97424634620916
30
0
41
1
10
36.6102270371975
20
-2.04481879927508
30
0
41
1
10
36.9531980926514
20
-2.05074975092799
30
0
41
1
10
37.3002335707065
20
-2.02569397555797
30
0
0
SPLINE
5
BF
100
AcDbEntity
8
1
62
256
6
ByLayer
370
18
48
1
60
0
100
AcDbSpline
70
4
71
3
72
8
73
4
40
0
40
0
40
0
40
0
40
1
40
1
40
1
40
1
41
1
10
37.2968298193714
20
-2.03466619606038
30
0
41
1
10
37.2979647094819
20
-2.0316758944804
30
0
41
1
10
37.2990992943354
20
-2.02868515138431
30
0
41
1
10
37.300233570714
20
-2.02569397556101
30
0
0
SPLINE
5
C0
100
AcDbEntity
8
1
62
256
6
ByLayer
370
18
48
1
60
0
100
AcDbSpline
70
4
71
3
72
12
73
8
40
0
40
0
40
0
40
0
40
0.352182058708423
40
0.352182058708423
40
0.835614255826738
40
0.835614255826738
40
1
40
1
40
1
40
1
41
1
10
37.0338187022607
20
-1.94280143168726
30
0
41
1
10
36.7828508444493
20
-1.94121608196809
30
0
41
1
10
36.5333527240084
20
-1.92428051908442
30
0
41
1
10
35.9419070168896
20
-1.84926973080263
30
0
41
1
10
35.6003231385059
20
-1.77824595855245
30
0
41
1
10
35.1381503742256
20
-1.64838771310943
30
0
41
1
10
35.0202327777934
20
-1.61234688343055
30
0
41
1
10
34.9025148264552
20
-1.57366800608977
30
0
0
SPLINE
5
C1
100
AcDbEntity
8
1
62
256
6
ByLayer
370
13
48
1
60
0
100
AcDbSpline
70
4
71
3
72
26
73
22
40
0
40
0
40
0
40
0
40
0.026931884994457
40
0.026931884994457
40
0.11111448339537
40
0.11111448339537
40
0.279479680197201
40
0.279479680197201
40
0.363662278598117
40
0.363662278598117
40
0.447844876999033
40
0.447844876999033
40
0.616210073800864
40
0.616210073800864
40
0.70039267220178
40
0.70039267220178
40
0.784575270602696
40
0.784575270602696
40
0.952940467404532
40
0.952940467404532
40
1
40
1
40
1
40
1
41
1
10
34.9025148264613
20
-1.57366800609174
30
0
41
1
10
34.8471379387593
20
-1.55547268564496
30
0
41
1
10
34.7918052315281
20
-1.53669357831262
30
0
41
1
10
34.5640586321085
20
-1.45700057628554
30
0
41
1
10
34.3923247284749
20
-1.3912862082623
30
0
41
1
10
33.8782021479548
20
-1.18004525488311
30
0
41
1
10
33.5369439321945
20
-1.02029129127905
30
0
41
1
10
33.0218891485367
20
-0.760608480189859
30
0
41
1
10
32.8496678059095
20
-0.670710736012609
30
0
41
1
10
32.503243378615
20
-0.485553123907693
30
0
41
1
10
32.3301628210827
20
-0.39092514825839
30
0
41
1
10
31.8141872006986
20
-0.105163626199499
30
0
41
1
10
31.4724925005805
20
0.0880014703901111
30
0
41
1
10
30.9585246853073
20
0.372906640700762
30
0
41
1
10
30.7869657171467
20
0.467073463388743
30
0
41
1
10
30.4422980595535
20
0.651844990743683
30
0
41
1
10
30.2685007975312
20
0.742778252295693
30
0
41
1
10
29.7499482977353
20
1.00438696283948
30
0
41
1
10
29.4079776734486
20
1.16521666299369
30
0
41
1
10
28.969787704725
20
1.34604155505474
30
0
41
1
10
28.8740533968386
20
1.38404772413469
30
0
41
1
10
28.7782275950141
20
1.42045567236184
30
0
0
SPLINE
5
C2
100
AcDbEntity
8
1
62
256
6
ByLayer
370
18
48
1
60
0
100
AcDbSpline
70
4
71
3
72
12
73
8
40
0
40
0
40
0
40
0
40
0.333649450165826
40
0.333649450165826
40
0.818950746274554
40
0.818950746274554
40
1
40
1
40
1
40
1
41
1
10
15.2893249255442
20
-1.92974164400564
30
0
41
1
10
15.0521286737636
20
-1.92915743248523
30
0
41
1
10
14.81625644568
20
-1.91499183834045
30
0
41
1
10
14.2377405563071
20
-1.84803976311724
30
0
41
1
10
13.8951623482027
20
-1.78074776170052
30
0
41
1
10
13.4204484599809
20
-1.65252874622567
30
0
41
1
10
13.290831434921
20
-1.61393245458871
30
0
41
1
10
13.1616122898388
20
-1.57220421810905
30
0
0
SPLINE
5
C3
100
AcDbEntity
8
1
62
256
6
ByLayer
370
13
48
1
60
0
100
AcDbSpline
70
4
71
3
72
24
73
20
40
0
40
0
40
0
40
0
40
0.0217690639275148
40
0.0217690639275148
40
0.107518380483583
40
0.107518380483583
40
0.279017013595721
40
0.279017013595721
40
0.364766330151791
40
0.364766330151791
40
0.45051564670786
40
0.45051564670786
40
0.622014279819996
40
0.622014279819996
40
0.707763596376066
40
0.707763596376066
40
0.793512912932135
40
0.793512912932135
40
1
40
1
40
1
40
1
41
1
10
13.1616122900121
20
-1.57220421816504
30
0
41
1
10
13.1176459142456
20
-1.55800632725774
30
0
41
1
10
13.0737256001504
20
-1.54344585813013
30
0
41
1
10
12.8572298377515
20
-1.46986221969812
30
0
41
1
10
12.6853043718358
20
-1.40576930150317
30
0
41
1
10
12.1704084119143
20
-1.19915359056847
30
0
41
1
10
11.8283685100743
20
-1.04218069216384
30
0
41
1
10
11.3119064538337
20
-0.785671441811076
30
0
41
1
10
11.1389887796068
20
-0.696608320220605
30
0
41
1
10
10.7917569134912
20
-0.513215302453744
30
0
41
1
10
10.6191463821841
20
-0.419763314771871
30
0
41
1
10
10.1029649425265
20
-0.136640573882744
30
0
41
1
10
9.76097646177135
20
0.0556700455418024
30
0
41
1
10
9.24578455075007
20
0.339562924511341
30
0
41
1
10
9.07373233800598
20
0.433516946439568
30
0
41
1
10
8.72805655799527
20
0.6183733832477
30
0
41
1
10
8.55394535505872
20
0.709451270681399
30
0
41
1
10
7.96498836604806
20
1.00718852239695
30
0
41
1
10
7.55346384089745
20
1.19808602981087
30
0
41
1
10
7.14014212732158
20
1.36048667327668
30
0
0
SPLINE
5
C4
100
AcDbEntity
8
1
62
256
6
ByLayer
370
18
48
1
60
0
100
AcDbSpline
70
4
71
3
72
10
73
6
40
0
40
0
40
0
40
0
40
0.5
40
0.5
40
1
40
1
40
1
40
1
41
1
10
4.04548781522095
20
0.154473416520801
30
0
41
1
10
4.07042580613606
20
0.142976929527151
30
0
41
1
10
4.10342099170143
20
0.126551140746301
30
0
41
1
10
4.17487584298448
20
0.0879035440729012
30
0
41
1
10
4.21309357020368
20
0.0658341053436686
30
0
41
1
10
4.2507143633571
20
0.0426370808326624
30
0
0
SPLINE
5
C5
100
AcDbEntity
8
1
62
256
6
ByLayer
370
18
48
1
60
0
100
AcDbSpline
70
4
71
3
72
8
73
4
40
0
40
0
40
0
40
0
40
1
40
1
40
1
40
1
41
1
10
37.3150853555525
20
-1.9381432650535
30
0
41
1
10
37.3070998059141
20
-1.94136470384748
30
0
41
1
10
37.2996727772136
20
-1.94298536327781
30
0
41
1
10
37.2928122147522
20
-1.94298247128248
30
0
0
SPLINE
5
C6
100
AcDbEntity
8
1
62
256
6
ByLayer
370
18
48
1
60
0
100
AcDbSpline
70
4
71
3
72
8
73
4
40
0
40
0
40
0
40
0
40
1
40
1
40
1
40
1
41
1
10
37.2968298193699
20
2.03466619608261
30
0
41
1
10
37.1552697675713
20
2.04482935300837
30
0
41
1
10
37.013977161991
20
2.04983761041223
30
0
41
1
10
36.8727100493103
20
2.04972537043594
30
0
0
SPLINE
5
C7
100
AcDbEntity
8
1
62
256
6
ByLayer
370
18
48
1
60
0
100
AcDbSpline
70
4
71
3
72
40
73
36
40
0
40
0
40
0
40
0
40
0.0084557465952881
40
0.0084557465952881
40
0.0518189344831491
40
0.0518189344831491
40
0.0951821223710113
40
0.0951821223710113
40
0.181908498146735
40
0.181908498146735
40
0.225271686034598
40
0.225271686034598
40
0.268634873922461
40
0.268634873922461
40
0.355361249698188
40
0.355361249698188
40
0.398724437586053
40
0.398724437586053
40
0.442087625473917
40
0.442087625473917
40
0.528814001249645
40
0.528814001249645
40
0.572177189137509
40
0.572177189137509
40
0.615540377025373
40
0.615540377025373
40
0.702266752801102
40
0.702266752801102
40
0.78899312857683
40
0.78899312857683
40
0.875719504352558
40
0.875719504352558
40
0.962445880128287
40
0.962445880128287
40
1
40
1
40
1
40
1
41
1
10
27.0445476959476
20
-1.94961298775047
30
0
41
1
10
27.0106939158074
20
-1.95558402159594
30
0
41
1
10
26.9768024145046
20
-1.96128201572438
30
0
41
1
10
26.7688528469875
20
-1.9945053100509
30
0
41
1
10
26.5953847183285
20
-2.01475636892852
30
0
41
1
10
26.2503601096074
20
-2.04001482614353
30
0
41
1
10
26.0784879445156
20
-2.04505492253023
30
0
41
1
10
25.5633485855475
20
-2.03758177757572
30
0
41
1
10
25.2203715730926
20
-2.00253327977578
30
0
41
1
10
24.7011757371662
20
-1.90544812486129
30
0
41
1
10
24.5265985624915
20
-1.86547186141394
30
0
41
1
10
24.1799641042311
20
-1.77245561180845
30
0
41
1
10
24.0075063603777
20
-1.71939532462011
30
0
41
1
10
23.4914527494336
20
-1.54206229674403
30
0
41
1
10
23.1488438672118
20
-1.3999961226553
30
0
41
1
10
22.6317237210833
20
-1.15729649322918
30
0
41
1
10
22.4587220309633
20
-1.07158384870348
30
0
41
1
10
22.1104704574594
20
-0.891731762667774
30
0
41
1
10
21.9370622626616
20
-0.798503509413393
30
0
41
1
10
21.4193697780738
20
-0.512225241528114
30
0
41
1
10
21.0767760166049
20
-0.312297456461806
30
0
41
1
10
20.5607281883411
20
-0.008980968555619
30
0
41
1
10
20.3883480892482
20
0.0926856997064931
30
0
41
1
10
20.0420107168356
20
0.295701321801062
30
0
41
1
10
19.8673659732958
20
0.397303447734913
30
0
41
1
10
19.3474615654762
20
0.69415879271827
30
0
41
1
10
19.0041774337623
20
0.882294460166349
30
0
41
1
10
18.3171015608284
20
1.22830408214907
30
0
41
1
10
17.9729596709209
20
1.3856593840319
30
0
41
1
10
17.2762195530343
20
1.65806549841108
30
0
41
1
10
16.9317896875078
20
1.76950109441887
30
0
41
1
10
16.2443473026103
20
1.93707128532682
30
0
41
1
10
15.9012137872556
20
1.9934050657811
30
0
41
1
10
15.4046808768325
20
2.03104093419523
30
0
41
1
10
15.253533221132
20
2.03673001103004
30
0
41
1
10
15.1031108817004
20
2.03664538140717
30
0
0
SPLINE
5
C8
100
AcDbEntity
8
1
62
256
6
ByLayer
370
18
48
1
60
0
100
AcDbSpline
70
4
71
3
72
10
73
6
40
0
40
0
40
0
40
0
40
0.0977644427037801
40
0.0977644427037801
40
1
40
1
40
1
40
1
41
1
10
5.28518758499743
20
-1.93536007436342
30
0
41
1
10
5.252702989135
20
-1.94111395670748
30
0
41
1
10
5.22022734487592
20
-1.94660969795402
30
0
41
1
10
4.88810003085803
20
-2.00017023525933
30
0
41
1
10
4.58884348916698
20
-2.02642068284652
30
0
41
1
10
4.28762369833578
20
-2.02975634218512
30
0
0
SPLINE
5
C9
100
AcDbEntity
8
1
62
256
6
ByLayer
370
18
48
1
60
0
100
AcDbSpline
70
4
71
3
72
8
73
4
40
0
40
0
40
0
40
0
40
1
40
1
40
1
40
1
41
1
10
4.21883404077306
20
-2.03011939676571
30
0
41
1
10
4.19571892279055
20
-2.03010742785406
30
0
41
1
10
4.17259121072777
20
-2.02996042228528
30
0
41
1
10
4.14944983972066
20
-2.02967800118898
30
0
0
SPLINE
5
CA
100
AcDbEntity
8
1
62
256
6
ByLayer
370
18
48
1
60
0
100
AcDbSpline
70
4
71
3
72
10
73
6
40
0
40
0
40
0
40
0
40
0.5
40
0.5
40
1
40
1
40
1
40
1
41
1
10
4.11849522380408
20
-2.02918773125057
30
0
41
1
10
4.0978771321121
20
-2.02876906476402
30
0
41
1
10
4.08007195025277
20
-2.02811131359732
30
0
41
1
10
4.05364764037171
20
-2.02580228936108
30
0
41
1
10
4.04518657212202
20
-2.02413108079892
30
0
41
1
10
4.04519129422945
20
-2.02189864288255
30
0
0
SPLINE
5
CB
100
AcDbEntity
8
1
62
256
6
ByLayer
370
18
48
1
60
0
100
AcDbSpline
70
4
71
3
72
10
73
6
40
0
40
0
40
0
40
0
40
0.5
40
0.5
40
1
40
1
40
1
40
1
41
1
10
4.25071436335088
20
0.0426370808365277
30
0
41
1
10
4.46576572773324
20
-0.0899638388283392
30
0
41
1
10
4.68220896342186
20
-0.220164401280556
30
0
41
1
10
5.11866386470464
20
-0.471914471066498
30
0
41
1
10
5.33674649032511
20
-0.592405866531209
30
0
41
1
10
5.55622141370793
20
-0.705510113643783
30
0
0
SPLINE
5
CC
100
AcDbEntity
8
1
62
256
6
ByLayer
370
18
48
1
60
0
100
AcDbSpline
70
4
71
3
72
16
73
12
40
0
40
0
40
0
40
0
40
0.249999999999979
40
0.249999999999979
40
0.374999999999968
40
0.374999999999968
40
0.499999999999956
40
0.499999999999956
40
0.749999999999978
40
0.749999999999978
40
1
40
1
40
1
40
1
41
1
10
37.0614862509735
20
0.367397863539424
30
0
41
1
10
37.0583590140604
20
0.394988062691794
30
0
41
1
10
37.0585402425331
20
0.423351701278932
30
0
41
1
10
37.0639382410894
20
0.467227895982205
30
0
41
1
10
37.0666301593652
20
0.482098659643128
30
0
41
1
10
37.073989242593
20
0.511603522637358
30
0
41
1
10
37.0784336754791
20
0.526433049382575
30
0
41
1
10
37.0972465688557
20
0.568835476478256
30
0
41
1
10
37.1171438789058
20
0.593686993872126
30
0
41
1
10
37.1664569019646
20
0.630841091620425
30
0
41
1
10
37.1955124409698
20
0.643265841974255
30
0
41
1
10
37.2255955395437
20
0.650582087299597
30
0
0
SPLINE
5
CD
100
AcDbEntity
8
1
62
256
6
ByLayer
370
18
48
1
60
0
100
AcDbSpline
70
4
71
3
72
60
73
56
40
0
40
0
40
0
40
0
40
0.015216345545206
40
0.015216345545206
40
0.0856460698142297
40
0.0856460698142297
40
0.156075794083253
40
0.156075794083253
40
0.191290656217766
40
0.191290656217766
40
0.226505518352279
40
0.226505518352279
40
0.261720380486793
40
0.261720380486793
40
0.296935242621306
40
0.296935242621306
40
0.332150104755819
40
0.332150104755819
40
0.367364966890332
40
0.367364966890332
40
0.402579829024845
40
0.402579829024845
40
0.437794691159358
40
0.437794691159358
40
0.473009553293871
40
0.473009553293871
40
0.508224415428384
40
0.508224415428384
40
0.543439277562897
40
0.543439277562897
40
0.57865413969741
40
0.57865413969741
40
0.613869001831923
40
0.613869001831923
40
0.649083863966436
40
0.649083863966436
40
0.68429872610095
40
0.68429872610095
40
0.719513588235463
40
0.719513588235463
40
0.754728450369976
40
0.754728450369976
40
0.789943312504489
40
0.789943312504489
40
0.825158174639002
40
0.825158174639002
40
0.860373036773515
40
0.860373036773515
40
0.895587898908028
40
0.895587898908028
40
0.930802761042541
40
0.930802761042541
40
0.966017623177054
40
0.966017623177054
40
1
40
1
40
1
40
1
41
1
10
33.8888632252441
20
-1.48675632441066
30
0
41
1
10
33.821165104471
20
-1.51090651588706
30
0
41
1
10
33.7534350363936
20
-1.53414708718529
30
0
41
1
10
33.3725032353399
20
-1.65995104842926
30
0
41
1
10
33.0609784354069
20
-1.74620997012764
30
0
41
1
10
32.4338189456582
20
-1.87390473475463
30
0
41
1
10
32.1221396001556
20
-1.91320505759754
30
0
41
1
10
31.6526768721528
20
-1.93878047505751
30
0
41
1
10
31.4957205403491
20
-1.9412766841225
30
0
41
1
10
31.1830707310912
20
-1.93377373090695
30
0
41
1
10
31.0268246355192
20
-1.92446727043347
30
0
41
1
10
30.7140488767089
20
-1.89482223275297
30
0
41
1
10
30.5576075124326
20
-1.87439484047508
30
0
41
1
10
30.2444656182344
20
-1.82152840041076
30
0
41
1
10
30.0884764390735
20
-1.78939387133508
30
0
41
1
10
29.7775350926078
20
-1.71386047396982
30
0
41
1
10
29.6225024775515
20
-1.6705337162787
30
0
41
1
10
29.3132964308896
20
-1.57615948350866
30
0
41
1
10
29.15882832199
20
-1.52471070244547
30
0
41
1
10
28.8492819627107
20
-1.41171780377175
30
0
41
1
10
28.6941799187898
20
-1.35015487333445
30
0
41
1
10
28.3838662829097
20
-1.22005931135624
30
0
41
1
10
28.2282617279731
20
-1.15114365582431
30
0
41
1
10
27.9150037925322
20
-1.00599969953089
30
0
41
1
10
27.7582886036334
20
-0.929804715595196
30
0
41
1
10
27.446065950042
20
-0.772152271331038
30
0
41
1
10
27.2900811208104
20
-0.691154058132184
30
0
41
1
10
26.977340828916
20
-0.525703647986745
30
0
41
1
10
26.8203181389853
20
-0.440863570605188
30
0
41
1
10
26.507564518857
20
-0.268396760909269
30
0
41
1
10
26.3515338864141
20
-0.181199572112917
30
0
41
1
10
26.0388779605957
20
-0.0070501642466354
30
0
41
1
10
25.8823927488172
20
0.080045202608602
30
0
41
1
10
25.5693192402478
20
0.254821572277848
30
0
41
1
10
25.4129613407765
20
0.341904963682964
30
0
41
1
10
25.1003645438637
20
0.511671479428344
30
0
41
1
10
24.9440082117654
20
0.594896251326418
30
0
41
1
10
24.6314973473274
20
0.758797836677729
30
0
41
1
10
24.4749388226108
20
0.839338886493891
30
0
41
1
10
24.1619573000396
20
0.992813535406384
30
0
41
1
10
24.0055794502965
20
1.06612350472142
30
0
41
1
10
23.693267169719
20
1.20782558650564
30
0
41
1
10
23.5373233593341
20
1.27554422115549
30
0
41
1
10
23.2239805525886
20
1.40140200943762
30
0
41
1
10
23.0671958858927
20
1.4592432691164
30
0
41
1
10
22.7545971688411
20
1.56795406783516
30
0
41
1
10
22.5986988181664
20
1.61831405451483
30
0
41
1
10
22.2858808271492
20
1.7077662985279
30
0
41
1
10
22.1288018714903
20
1.74696636587129
30
0
41
1
10
21.8157385006287
20
1.81463941731724
30
0
41
1
10
21.6597664678431
20
1.84281151419245
30
0
41
1
10
21.3470791062278
20
1.88815822490545
30
0
41
1
10
21.1905641199275
20
1.905980577457
30
0
41
1
10
20.8825523771614
20
1.92867214786915
30
0
41
1
10
20.7317819887296
20
1.93385847727941
30
0
41
1
10
20.5809476805498
20
1.93345088995963
30
0
0
SPLINE
5
CE
100
AcDbEntity
8
1
62
256
6
ByLayer
370
18
48
1
60
0
100
AcDbSpline
70
4
71
3
72
32
73
28
40
0
40
0
40
0
40
0
40
0.0672315904432954
40
0.0672315904432954
40
0.138983006563042
40
0.138983006563042
40
0.210734422682789
40
0.210734422682789
40
0.282485838802535
40
0.282485838802535
40
0.354237254922281
40
0.354237254922281
40
0.425988671042028
40
0.425988671042028
40
0.497740087161774
40
0.497740087161774
40
0.569491503281521
40
0.569491503281521
40
0.641242919401268
40
0.641242919401268
40
0.712994335521014
40
0.712994335521014
40
0.856497167760507
40
0.856497167760507
40
0.928248583880253
40
0.928248583880253
40
1
40
1
40
1
40
1
41
1
10
12.0928130018732
20
-1.48635939861617
30
0
41
1
10
11.9465620827241
20
-1.5380084647872
30
0
41
1
10
11.799913508492
20
-1.58565015898225
30
0
41
1
10
11.4964492107537
20
-1.67521185251451
30
0
41
1
10
11.3403478693461
20
-1.7164957327337
30
0
41
1
10
11.0283115941069
20
-1.7893489858248
30
0
41
1
10
10.8721702656066
20
-1.82060538514628
30
0
41
1
10
10.5592275085326
20
-1.87049445522504
30
0
41
1
10
10.4024247170027
20
-1.88863453769594
30
0
41
1
10
10.0898645882283
20
-1.91597748393397
30
0
41
1
10
9.93359112853469
20
-1.92433021711631
30
0
41
1
10
9.6207808071282
20
-1.92852865338597
30
0
41
1
10
9.46420303802074
20
-1.92458786058111
30
0
41
1
10
9.1511281724901
20
-1.90473631090109
30
0
41
1
10
8.99476360411879
20
-1.88818648214419
30
0
41
1
10
8.681956741639
20
-1.84501006100299
30
0
41
1
10
8.5257066152295
20
-1.81862930890247
30
0
41
1
10
8.21296572509667
20
-1.75407063101363
30
0
41
1
10
8.05608980593831
20
-1.71612277913326
30
0
41
1
10
7.74321489643515
20
-1.62968670589453
30
0
41
1
10
7.58702498771521
20
-1.58081831818018
30
0
41
1
10
7.11850636015774
20
-1.42032383275819
30
0
41
1
10
6.80426569984556
20
-1.29745351375601
30
0
41
1
10
6.33701211163296
20
-1.08952833108276
30
0
41
1
10
6.18128389235355
20
-1.01658528909118
30
0
41
1
10
5.86915396558126
20
-0.865070153402968
30
0
41
1
10
5.71278922967437
20
-0.786744470931865
30
0
41
1
10
5.55615286892032
20
-0.705540393442448
30
0
0
SPLINE
5
CF
100
AcDbEntity
8
1
62
256
6
ByLayer
370
18
48
1
60
0
100
AcDbSpline
70
4
71
3
72
10
73
6
40
0
40
0
40
0
40
0
40
0.5
40
0.5
40
1
40
1
40
1
40
1
41
1
10
4.25034241753838
20
-1.92113653389183
30
0
41
1
10
4.22809642242748
20
-1.92075322801611
30
0
41
1
10
4.20628500827618
20
-1.92325502622592
30
0
41
1
10
4.16357397503788
20
-1.93392503663225
30
0
41
1
10
4.14260211152109
20
-1.94221038350514
30
0
41
1
10
4.12314151743291
20
-1.95320580262418
30
0
0
SPLINE
5
D0
100
AcDbEntity
8
1
62
256
6
ByLayer
370
18
48
1
60
0
100
AcDbSpline
70
4
71
3
72
24
73
20
40
0
40
0
40
0
40
0
40
0.0625
40
0.0625
40
0.125
40
0.125
40
0.25
40
0.25
40
0.375
40
0.375
40
0.5
40
0.5
40
0.625
40
0.625
40
0.75
40
0.75
40
0.875
40
0.875
40
1
40
1
40
1
40
1
41
1
10
37.6715065151232
20
-0.399455548313142
30
0
41
1
10
37.663666856814
20
-0.418036521080808
30
0
41
1
10
37.6565824005601
20
-0.437614060475369
30
0
41
1
10
37.6452048515824
20
-0.475918639245379
30
0
41
1
10
37.6407424269623
20
-0.495290368907803
30
0
41
1
10
37.6326181845987
20
-0.548322430106367
30
0
41
1
10
37.6342561267709
20
-0.577900501168102
30
0
41
1
10
37.6491574208402
20
-0.613463087841211
30
0
41
1
10
37.6621643845529
20
-0.620419667872682
30
0
41
1
10
37.6931549753864
20
-0.61522864064753
30
0
41
1
10
37.711284264249
20
-0.603419561761115
30
0
41
1
10
37.7492617935513
20
-0.564410551108153
30
0
41
1
10
37.7689354852071
20
-0.537314538962534
30
0
41
1
10
37.8051845394963
20
-0.472676113153369
30
0
41
1
10
37.8219230972927
20
-0.434735754936952
30
0
41
1
10
37.8459258322783
20
-0.35694330036938
30
0
41
1
10
37.8522985470605
20
-0.319373149669531
30
0
41
1
10
37.8508209773987
20
-0.261325763742747
30
0
41
1
10
37.8432223623115
20
-0.242555132576257
30
0
41
1
10
37.8313058253496
20
-0.234380658007325
30
0
0
SPLINE
5
D1
100
AcDbEntity
8
1
62
256
6
ByLayer
370
13
48
1
60
0
100
AcDbSpline
70
4
71
3
72
26
73
22
40
0
40
0
40
0
40
0
40
0.125
40
0.125
40
0.25
40
0.25
40
0.375
40
0.375
40
0.4375
40
0.4375
40
0.5
40
0.5
40
0.625
40
0.625
40
0.75
40
0.75
40
0.875
40
0.875
40
0.9375
40
0.9375
40
1
40
1
40
1
40
1
41
1
10
4.25034241753835
20
-1.92113653389183
30
0
41
1
10
4.25036925293782
20
-1.91517632903856
30
0
41
1
10
4.25038807949062
20
-1.89724298528302
30
0
41
1
10
4.25041637534247
20
-1.83822440153483
30
0
41
1
10
4.25042586462331
20
-1.79649425587124
30
0
41
1
10
4.25044090511494
20
-1.69226517959024
30
0
41
1
10
4.25044658422917
20
-1.62987369091732
30
0
41
1
10
4.25045641831383
20
-1.52081686381834
30
0
41
1
10
4.2504599283329
20
-1.48163205452198
30
0
41
1
10
4.25046781496729
20
-1.39920942960379
30
0
41
1
10
4.25047218618647
20
-1.3560211934373
30
0
41
1
10
4.25048716880201
20
-1.22067806466708
30
0
41
1
10
4.25049969601781
20
-1.12279868403911
30
0
41
1
10
4.25053166352347
20
-0.911241124710273
30
0
41
1
10
4.25055109123576
20
-0.798094561823859
30
0
41
1
10
4.25059427942679
20
-0.566792002855976
30
0
41
1
10
4.25061800759815
20
-0.448467125451202
30
0
41
1
10
4.25065446638098
20
-0.267062853500988
30
0
41
1
10
4.25066675186676
20
-0.205937458674356
30
0
41
1
10
4.25069102453753
20
-0.0823322360853354
30
0
41
1
10
4.25070304526741
20
-0.0196510808742403
30
0
41
1
10
4.25071436335065
20
0.0426370808364993
30
0
0
SPLINE
5
D2
100
AcDbEntity
8
1
62
256
6
ByLayer
370
18
48
1
60
0
100
AcDbSpline
70
4
71
3
72
66
73
62
40
0
40
0
40
0
40
0
40
0.0062147754787744
40
0.0062147754787744
40
0.0415217461573758
40
0.0415217461573758
40
0.0768287168359773
40
0.0768287168359773
40
0.112135687514579
40
0.112135687514579
40
0.14744265819318
40
0.14744265819318
40
0.182749628871782
40
0.182749628871782
40
0.218056599550383
40
0.218056599550383
40
0.253363570228985
40
0.253363570228985
40
0.288670540907586
40
0.288670540907586
40
0.323977511586187
40
0.323977511586187
40
0.359284482264789
40
0.359284482264789
40
0.39459145294339
40
0.39459145294339
40
0.429898423621992
40
0.429898423621992
40
0.465205394300593
40
0.465205394300593
40
0.500512364979195
40
0.500512364979195
40
0.535819335657796
40
0.535819335657796
40
0.571126306336398
40
0.571126306336398
40
0.606433277014999
40
0.606433277014999
40
0.641740247693601
40
0.641740247693601
40
0.677047218372202
40
0.677047218372202
40
0.712354189050804
40
0.712354189050804
40
0.747661159729405
40
0.747661159729405
40
0.782968130408007
40
0.782968130408007
40
0.818275101086608
40
0.818275101086608
40
0.85358207176521
40
0.85358207176521
40
0.888889042443811
40
0.888889042443811
40
0.924196013122412
40
0.924196013122412
40
0.959502983801014
40
0.959502983801014
40
0.994809954479615
40
0.994809954479615
40
1
40
1
40
1
40
1
41
1
10
9.69505690292067
20
1.92697780512754
30
0
41
1
10
9.72254744574269
20
1.92697964285088
30
0
41
1
10
9.75004133298944
20
1.92679536251839
30
0
41
1
10
9.93376724082472
20
1.92431868854686
30
0
41
1
10
10.0900351645678
20
1.91596953397106
30
0
41
1
10
10.4028803096338
20
1.88858769605744
30
0
41
1
10
10.5593503563201
20
1.87047147225761
30
0
41
1
10
10.8718059064993
20
1.82066686701836
30
0
41
1
10
11.0278757463259
20
1.78944244876846
30
0
41
1
10
11.3400551073193
20
1.71657236398352
30
0
41
1
10
11.4966547004406
20
1.67515089020219
30
0
41
1
10
11.8095488461522
20
1.5828067889625
30
0
41
1
10
11.9656951216738
20
1.53177635067416
30
0
41
1
10
12.2775798570317
20
1.42047615932026
30
0
41
1
10
12.4335188049602
20
1.35932871973321
30
0
41
1
10
12.7466718932669
20
1.22995789031469
30
0
41
1
10
12.9032820886135
20
1.16163171979704
30
0
41
1
10
13.2154724258059
20
1.01872575031786
30
0
41
1
10
13.3713231510777
20
0.943463608266654
30
0
41
1
10
13.6839622613474
20
0.788665038504746
30
0
41
1
10
13.8407962946312
20
0.70818602716983
30
0
41
1
10
14.1534082672781
20
0.542878698632194
30
0
41
1
10
14.3093459064133
20
0.45835625395955
30
0
41
1
10
14.6218776768286
20
0.288294327207183
30
0
41
1
10
14.778183635905
20
0.202232443107249
30
0
41
1
10
15.091234769324
20
0.0278050359165434
30
0
41
1
10
15.2474980782557
20
-0.0599565137551963
30
0
41
1
10
15.5601698688584
20
-0.23317643409257
30
0
41
1
10
15.7164496330815
20
-0.319358679749143
30
0
41
1
10
16.0290001204024
20
-0.48987261816049
30
0
41
1
10
16.1855930251049
20
-0.574318244056855
30
0
41
1
10
16.4986966768484
20
-0.738012504672099
30
0
41
1
10
16.6550821017221
20
-0.817914700288298
30
0
41
1
10
16.9674766829879
20
-0.972712033152561
30
0
41
1
10
17.1235010436138
20
-1.04725265432182
30
0
41
1
10
17.4370567270416
20
-1.1891413138388
30
0
41
1
10
17.5937763728148
20
-1.25688556354629
30
0
41
1
10
17.9063579609099
20
-1.38460804317231
30
0
41
1
10
18.0622691072206
20
-1.44460348352928
30
0
41
1
10
18.3752252456584
20
-1.55481624789542
30
0
41
1
10
18.5323010369359
20
-1.60494586128573
30
0
41
1
10
18.8452974280069
20
-1.6950779101129
30
0
41
1
10
19.0013119525919
20
-1.73556714107201
30
0
41
1
10
19.3140874907796
20
-1.80705254689357
30
0
41
1
10
19.4706169885258
20
-1.83643015472831
30
0
41
1
10
19.7842669068625
20
-1.8833124370729
30
0
41
1
10
19.9405200441228
20
-1.9011007423089
30
0
41
1
10
20.2534408182419
20
-1.92602947621359
30
0
41
1
10
20.409939985019
20
-1.93259892180853
30
0
41
1
10
20.7230562752991
20
-1.93419059805839
30
0
41
1
10
20.8797707933757
20
-1.92894198239907
30
0
41
1
10
21.1928726969896
20
-1.90574454206845
30
0
41
1
10
21.3493368990476
20
-1.88787970109672
30
0
41
1
10
21.6621516123655
20
-1.84241597646536
30
0
41
1
10
21.8183327725347
20
-1.81414157084933
30
0
41
1
10
22.1320458609474
20
-1.74620100747495
30
0
41
1
10
22.2886453833491
20
-1.70703800269732
30
0
41
1
10
22.6013313928847
20
-1.61749792343429
30
0
41
1
10
22.7573082622463
20
-1.56705601900961
30
0
41
1
10
22.936823892354
20
-1.50457498069952
30
0
41
1
10
22.9598436317804
20
-1.49649052273367
30
0
41
1
10
22.9828724344705
20
-1.48832498379528
30
0
0
SPLINE
5
D3
100
AcDbEntity
8
1
62
256
6
ByLayer
370
18
48
1
60
0
100
AcDbSpline
70
4
71
3
72
24
73
20
40
0
40
0
40
0
40
0
40
0.0857188313122075
40
0.0857188313122075
40
0.200003977398181
40
0.200003977398181
40
0.314289123484156
40
0.314289123484156
40
0.42857426957013
40
0.42857426957013
40
0.542859415656104
40
0.542859415656104
40
0.657144561742078
40
0.657144561742078
40
0.771429707828052
40
0.771429707828052
40
0.885714853914026
40
0.885714853914026
40
1
40
1
40
1
40
1
41
1
10
31.4684306031543
20
1.93921806800904
30
0
41
1
10
31.5854957927982
20
1.93947241050654
30
0
41
1
10
31.7024929801245
20
1.93625130145949
30
0
41
1
10
31.9754460149817
20
1.92093049172689
30
0
41
1
10
32.131306704791
20
1.90644527590291
30
0
41
1
10
32.4432520074989
20
1.86638072011252
30
0
41
1
10
32.5997255451943
20
1.84032390206741
30
0
41
1
10
32.9117377867207
20
1.77638654802018
30
0
41
1
10
33.0675048977729
20
1.7388098174514
30
0
41
1
10
33.3789758864796
20
1.65367557556817
30
0
41
1
10
33.5352423132396
20
1.60631622851744
30
0
41
1
10
33.8477927533523
20
1.50287071679068
30
0
41
1
10
34.0036324027938
20
1.4466453901768
30
0
41
1
10
34.3147810306973
20
1.32393164425656
30
0
41
1
10
34.4704813468538
20
1.25816937677107
30
0
41
1
10
34.7827872868786
20
1.12005293778182
30
0
41
1
10
34.9391927944265
20
1.04740533997349
30
0
41
1
10
35.2506677468598
20
0.895997957751263
30
0
41
1
10
35.4063081835159
20
0.817597616984301
30
0
41
1
10
35.5622451104251
20
0.737174821815699
30
0
0
SPLINE
5
D4
100
AcDbEntity
8
1
62
256
6
ByLayer
370
18
48
1
60
0
100
AcDbSpline
70
4
71
3
72
22
73
18
40
0
40
0
40
0
40
0
40
0.124999999999994
40
0.124999999999994
40
0.187499999999991
40
0.187499999999991
40
0.249999999999988
40
0.249999999999988
40
0.37499999999999
40
0.37499999999999
40
0.499999999999992
40
0.499999999999992
40
0.624999999999994
40
0.624999999999994
40
0.749999999999996
40
0.749999999999996
40
1
40
1
40
1
40
1
41
1
10
35.5622451104244
20
0.737174821815302
30
0
41
1
10
35.5827786977289
20
0.64513268672772
30
0
41
1
10
35.6118575753781
20
0.552722538104035
30
0
41
1
10
35.6667864285976
20
0.413620212862924
30
0
41
1
10
35.6870775249326
20
0.367029228842569
30
0
41
1
10
35.7303670481208
20
0.275584366148848
30
0
41
1
10
35.7534452293063
20
0.230499638149041
30
0
41
1
10
35.8265565955497
20
0.0969701848690363
30
0
41
1
10
35.880599884713
20
0.0100117791681953
30
0
41
1
10
35.996952466419
20
-0.158969432856452
30
0
41
1
10
36.0582809534989
20
-0.239649850692729
30
0
41
1
10
36.1859594794332
20
-0.394940931876818
30
0
41
1
10
36.2523124826889
20
-0.469548012031993
30
0
41
1
10
36.3893227487023
20
-0.613559438286131
30
0
41
1
10
36.4602458675759
20
-0.683185792644224
30
0
41
1
10
36.6768718763801
20
-0.883174517434583
30
0
41
1
10
36.8257215177302
20
-1.00440033717874
30
0
41
1
10
36.9782405667494
20
-1.11560882969255
30
0
0
SPLINE
5
D5
100
AcDbEntity
8
1
62
256
6
ByLayer
370
18
48
1
60
0
100
AcDbSpline
70
4
71
3
72
36
73
32
40
0
40
0
40
0
40
0
40
0.131908709953233
40
0.131908709953233
40
0.197863064929848
40
0.197863064929848
40
0.263817419906463
40
0.263817419906463
40
0.329771774883079
40
0.329771774883079
40
0.395726129859694
40
0.395726129859694
40
0.461680484836309
40
0.461680484836309
40
0.527634839812924
40
0.527634839812924
40
0.59358919478954
40
0.59358919478954
40
0.659543549766155
40
0.659543549766155
40
0.72549790474277
40
0.72549790474277
40
0.791452259719385
40
0.791452259719385
40
0.857406614696001
40
0.857406614696001
40
0.923360969672616
40
0.923360969672616
40
0.989315324649231
40
0.989315324649231
40
1
40
1
40
1
40
1
41
1
10
7.66662974218872
20
0.901490239563884
30
0
41
1
10
7.97669759960453
20
0.736414724687393
30
0
41
1
10
8.28647846757076
20
0.56656224956123
30
0
41
1
10
8.74719003202472
20
0.299034342450881
30
0
41
1
10
8.90107159790412
20
0.209348669253046
30
0
41
1
10
9.20980810306111
20
0.0296182211932035
30
0
41
1
10
9.36449362213759
20
-0.0607145335025052
30
0
41
1
10
9.6740023323201
20
-0.243292826086275
30
0
41
1
10
9.82957873179768
20
-0.334129154601669
30
0
41
1
10
10.1393268066775
20
-0.510966095992671
30
0
41
1
10
10.2937870047816
20
-0.59768722672942
30
0
41
1
10
10.6011938657612
20
-0.768814568098804
30
0
41
1
10
10.7547328349669
20
-0.852220588758883
30
0
41
1
10
11.063071949575
20
-1.0123228270057
30
0
41
1
10
11.2175591131581
20
-1.08953526835211
30
0
41
1
10
11.5265227334586
20
-1.239072781782
30
0
41
1
10
11.6817134038497
20
-1.31105432064552
30
0
41
1
10
11.9925620458785
20
-1.44483548821793
30
0
41
1
10
12.1478583353106
20
-1.50728278915616
30
0
41
1
10
12.4575593432678
20
-1.62393077198965
30
0
41
1
10
12.6120537309204
20
-1.67793199511604
30
0
41
1
10
12.9231802168582
20
-1.77448606170668
30
0
41
1
10
13.0788304538553
20
-1.81738992759193
30
0
41
1
10
13.3886949772015
20
-1.89260043587683
30
0
41
1
10
13.5429700848461
20
-1.92489025615501
30
0
41
1
10
13.8534346246865
20
-1.97700139414138
30
0
41
1
10
14.0095478994645
20
-1.99720804705097
30
0
41
1
10
14.3191296889418
20
-2.02562025079689
30
0
41
1
10
14.4725811650183
20
-2.03380688235109
30
0
41
1
10
14.6512848447193
20
-2.03620924539544
30
0
41
1
10
14.6761967057046
20
-2.03638796408364
30
0
41
1
10
14.7011051973176
20
-2.03641050635298
30
0
0
SPLINE
5
D6
100
AcDbEntity
8
1
62
256
6
ByLayer
370
18
48
1
60
0
100
AcDbSpline
70
4
71
3
72
68
73
64
40
0
40
0
40
0
40
0
40
0.0008237787556698
40
0.0008237787556698
40
0.0351479922813656
40
0.0351479922813656
40
0.0694722058070613
40
0.0694722058070613
40
0.103796419332757
40
0.103796419332757
40
0.138120632858453
40
0.138120632858453
40
0.172444846384149
40
0.172444846384149
40
0.206769059909844
40
0.206769059909844
40
0.24109327343554
40
0.24109327343554
40
0.275417486961236
40
0.275417486961236
40
0.309741700486932
40
0.309741700486932
40
0.344065914012627
40
0.344065914012627
40
0.378390127538323
40
0.378390127538323
40
0.412714341064019
40
0.412714341064019
40
0.447038554589714
40
0.447038554589714
40
0.48136276811541
40
0.48136276811541
40
0.515686981641106
40
0.515686981641106
40
0.550011195166802
40
0.550011195166802
40
0.584335408692497
40
0.584335408692497
40
0.618659622218193
40
0.618659622218193
40
0.652983835743889
40
0.652983835743889
40
0.687308049269585
40
0.687308049269585
40
0.72163226279528
40
0.72163226279528
40
0.755956476320976
40
0.755956476320976
40
0.790280689846672
40
0.790280689846672
40
0.824604903372368
40
0.824604903372368
40
0.858929116898063
40
0.858929116898063
40
0.893253330423759
40
0.893253330423759
40
0.927577543949455
40
0.927577543949455
40
0.961901757475151
40
0.961901757475151
40
0.996225971000846
40
0.996225971000846
40
1
40
1
40
1
40
1
41
1
10
22.9599489842504
20
1.48064664887099
30
0
41
1
10
22.9636635409543
20
1.48216688143736
30
0
41
1
10
22.9673779568737
20
1.48368496222207
30
0
41
1
10
23.1258540654583
20
1.54836478807397
30
0
41
1
10
23.2814005689028
20
1.60673916047929
30
0
41
1
10
23.5919144257381
20
1.71279973264859
30
0
41
1
10
23.7469766711112
20
1.76082350201907
30
0
41
1
10
24.0561758916306
20
1.847032881362
30
0
41
1
10
24.2113004718885
20
1.88456574222704
30
0
41
1
10
24.5223327443494
20
1.94777831773254
30
0
41
1
10
24.6775570687437
20
1.9735788977234
30
0
41
1
10
24.9867349383649
20
2.01365781282877
30
0
41
1
10
25.1413247923081
20
2.02761722066001
30
0
41
1
10
25.4520498473666
20
2.04323385002746
30
0
41
1
10
25.6078261426696
20
2.04497392318109
30
0
41
1
10
25.9161576468028
20
2.0361983233845
30
0
41
1
10
26.0695191011735
20
2.02564015796335
30
0
41
1
10
26.3767813034938
20
1.99308807394161
30
0
41
1
10
26.5303026339767
20
1.97107413194055
30
0
41
1
10
26.83652310613
20
1.91516115307056
30
0
41
1
10
26.9892947681431
20
1.88117525542489
30
0
41
1
10
27.2969809152804
20
1.80303508716207
30
0
41
1
10
27.4514426022013
20
1.75866465330049
30
0
41
1
10
27.7610803639487
20
1.65846408844428
30
0
41
1
10
27.9160750361054
20
1.6023435329449
30
0
41
1
10
28.2262233638234
20
1.48278964515725
30
0
41
1
10
28.3813623575936
20
1.41880536326747
30
0
41
1
10
28.6912049698794
20
1.28169253914879
30
0
41
1
10
28.845889799501
20
1.20796355194594
30
0
41
1
10
29.1564591625065
20
1.05577468657094
30
0
41
1
10
29.3116885525153
20
0.976912102250111
30
0
41
1
10
29.6214739223042
20
0.812843682451529
30
0
41
1
10
29.7756554766573
20
0.726996320761174
30
0
41
1
10
30.0861260214997
20
0.55321462680979
30
0
41
1
10
30.2418347140292
20
0.464891787149128
30
0
41
1
10
30.5518131550348
20
0.285471835997072
30
0
41
1
10
30.7059135932501
20
0.193491319732317
30
0
41
1
10
31.0157547232717
20
0.0107594480026592
30
0
41
1
10
31.1717111515256
20
-0.0806036574210225
30
0
41
1
10
31.4815868724335
20
-0.262348339748314
30
0
41
1
10
31.6350927456818
20
-0.353450069462241
30
0
41
1
10
31.9422370822641
20
-0.530924391909764
30
0
41
1
10
32.0958637303055
20
-0.617369439641323
30
0
41
1
10
32.4025579403339
20
-0.78688177095782
30
0
41
1
10
32.5552572418307
20
-0.870503934696899
30
0
41
1
10
32.8617235782729
20
-1.0316420414
30
0
41
1
10
33.0158021732485
20
-1.10872325080552
30
0
41
1
10
33.3248470416459
20
-1.25712406725736
30
0
41
1
10
33.4799856865266
20
-1.32898649477394
30
0
41
1
10
33.7896321979666
20
-1.46381017884258
30
0
41
1
10
33.9447580402913
20
-1.52611635116313
30
0
41
1
10
34.2547785177973
20
-1.6417839225073
30
0
41
1
10
34.409451541065
20
-1.69532642584986
30
0
41
1
10
34.719287358723
20
-1.79231674258213
30
0
41
1
10
34.8747243047951
20
-1.83494837856927
30
0
41
1
10
35.1848413161581
20
-1.90914913058384
30
0
41
1
10
35.3395174147089
20
-1.94084936690575
30
0
41
1
10
35.6487186723566
20
-1.99269968985328
30
0
41
1
10
35.8043884175503
20
-2.01247309258088
30
0
41
1
10
36.1148594402233
20
-2.03990952548574
30
0
41
1
10
36.2696669078976
20
-2.04763850938477
30
0
41
1
10
36.4410993012228
20
-2.04935659552933
30
0
41
1
10
36.458091605232
20
-2.04945269473123
30
0
41
1
10
36.4750929181256
20
-2.04947471224708
30
0
0
SPLINE
5
D7
100
AcDbEntity
8
1
62
256
6
ByLayer
370
18
48
1
60
0
100
AcDbSpline
70
4
71
3
72
84
73
80
40
0
40
0
40
0
40
0
40
0.0232937760579663
40
0.0232937760579663
40
0.0641736721718423
40
0.0641736721718423
40
0.145933464399594
40
0.145933464399594
40
0.18681336051347
40
0.18681336051347
40
0.227693256627346
40
0.227693256627346
40
0.309453048855098
40
0.309453048855098
40
0.350332944968974
40
0.350332944968974
40
0.391212841082849
40
0.391212841082849
40
0.432092737196725
40
0.432092737196725
40
0.452532685253664
40
0.462752659282132
40
0.462752659282132
40
0.467862646296367
40
0.467862646296367
40
0.470417639803484
40
0.471695136557043
40
0.472333884933822
40
0.472653259122212
40
0.472653259122212
40
0.472972633310602
40
0.472972633310602
40
0.475527626817718
40
0.475527626817718
40
0.478082620324836
40
0.478082620324836
40
0.483192607339069
40
0.483192607339069
40
0.493412581367538
40
0.493412581367538
40
0.513852529424474
40
0.513852529424474
40
0.554732425538347
40
0.554732425538347
40
0.636492217766093
40
0.636492217766093
40
0.718252009993839
40
0.718252009993839
40
0.738691958050775
40
0.738691958050775
40
0.748911932079243
40
0.748911932079243
40
0.754021919093477
40
0.754021919093477
40
0.756576912600595
40
0.756576912600595
40
0.757854409354153
40
0.757854409354153
40
0.759131906107711
40
0.759131906107711
40
0.759770654484491
40
0.759770654484491
40
0.76040940286127
40
0.761686899614829
40
0.764241893121946
40
0.76935188013618
40
0.779571854164648
40
0.779571854164648
40
0.800011802221585
40
0.800011802221585
40
0.840891698335457
40
0.840891698335457
40
0.881771594449331
40
0.881771594449331
40
0.922651490563203
40
0.922651490563203
40
0.963531386677077
40
0.963531386677077
40
1
40
1
40
1
40
1
41
1
10
7.66661947929828
20
0.901567950905388
30
0
41
1
10
7.62519350655151
20
0.915823247557256
30
0
41
1
10
7.58368799151822
20
0.929372174460951
30
0
41
1
10
7.46904864235617
20
0.964477071827645
30
0
41
1
10
7.39560077660164
20
0.984348161798948
30
0
41
1
10
7.17719812681912
20
1.0338492586562
30
0
41
1
10
7.03322639329255
20
1.05365967904186
30
0
41
1
10
6.81725980290162
20
1.05797848129933
30
0
41
1
10
6.7450563841563
20
1.0551771517157
30
0
41
1
10
6.60072116727554
20
1.04054359234573
30
0
41
1
10
6.52951200884465
20
1.02883099742775
30
0
41
1
10
6.31748989428752
20
0.981337155652596
30
0
41
1
10
6.17826556490118
20
0.933187492066821
30
0
41
1
10
5.96747911012412
20
0.840614483793217
30
0
41
1
10
5.89664668285064
20
0.806220197103102
30
0
41
1
10
5.75633589559354
20
0.732968678657073
30
0
41
1
10
5.68654983240884
20
0.693997561619909
30
0
41
1
10
5.54697489175555
20
0.612421682422138
30
0
41
1
10
5.47718791459539
20
0.569814826668562
30
0
41
1
10
5.37202137524787
20
0.503855263547734
30
0
41
1
10
5.31931740298589
20
0.470361677796205
30
0
41
1
10
5.26634578025914
20
0.436214513686764
30
0
41
1
10
5.23980822256547
20
0.419041432899974
30
0
41
1
10
5.23095165444184
20
0.413299136676812
30
0
41
1
10
5.21766029920687
20
0.404666768397021
30
0
41
1
10
5.21101426552866
20
0.400346679861883
30
0
41
1
10
5.20325974262477
20
0.395300019431119
30
0
41
1
10
5.19938228170707
20
0.392775102991152
30
0
41
1
10
5.19772047580122
20
0.391692665172229
30
0
41
1
10
5.19661259627438
20
0.390970966584945
30
0
41
1
10
5.19693243391512
20
0.390181409209845
30
0
41
1
10
5.20025075061099
20
0.385352624810395
30
0
41
1
10
5.20473080229078
20
0.382387268668396
30
0
41
1
10
5.21282533384107
20
0.375878025758226
30
0
41
1
10
5.21694672405562
20
0.372720515018102
30
0
41
1
10
5.22938749615417
20
0.363348497596519
30
0
41
1
10
5.2377910889617
20
0.357245657202952
30
0
41
1
10
5.26309862884892
20
0.339092956758719
30
0
41
1
10
5.28012081373487
20
0.327210304011373
30
0
41
1
10
5.33133685319959
20
0.291782916123879
30
0
41
1
10
5.36569881406325
20
0.268486380510467
30
0
41
1
10
5.46898690120156
20
0.198942160389663
30
0
41
1
10
5.53815244624698
20
0.153073236301992
30
0
41
1
10
5.74596543172277
20
0.0160255047187547
30
0
41
1
10
5.8848261638432
20
-0.0747296360474934
30
0
41
1
10
6.16254481957429
20
-0.255834652181619
30
0
41
1
10
6.30135185401204
20
-0.346316260166077
30
0
41
1
10
6.47371019051772
20
-0.460694810882671
30
0
41
1
10
6.50812342983056
20
-0.483634932827982
30
0
41
1
10
6.55947947076581
20
-0.518358172932778
30
0
41
1
10
6.57655808656932
20
-0.529979964074357
30
0
41
1
10
6.60199301963451
20
-0.547634709683166
30
0
41
1
10
6.61044573296562
20
-0.553555046357758
30
0
41
1
10
6.62298366984331
20
-0.562580406487058
30
0
41
1
10
6.62714154880197
20
-0.565611208716064
30
0
41
1
10
6.63328307713627
20
-0.570257198517481
30
0
41
1
10
6.63531539139569
20
-0.571821417276794
30
0
41
1
10
6.63928777887398
20
-0.575031105625186
30
0
41
1
10
6.64142815329066
20
-0.57658582321784
30
0
41
1
10
6.64361653228701
20
-0.579488103520418
30
0
41
1
10
6.64221356075592
20
-0.580048687419378
30
0
41
1
10
6.64034848487535
20
-0.581150682546735
30
0
41
1
10
6.63755101921618
20
-0.582800945094931
30
0
41
1
10
6.63102455250237
20
-0.58663244180164
30
0
41
1
10
6.61797591202983
20
-0.594218267043033
30
0
41
1
10
6.59189304541241
20
-0.609079271721811
30
0
41
1
10
6.56956891705525
20
-0.621268747863468
30
0
41
1
10
6.52493771950333
20
-0.64489838581548
30
0
41
1
10
6.49519930725756
20
-0.659653266240298
30
0
41
1
10
6.40632344080953
20
-0.700537743056287
30
0
41
1
10
6.34737481408996
20
-0.723391364959042
30
0
41
1
10
6.22865945377046
20
-0.759442884535673
30
0
41
1
10
6.16857199824148
20
-0.772671910851244
30
0
41
1
10
6.0473829783615
20
-0.788006339761523
30
0
41
1
10
5.9864689953481
20
-0.790140856161003
30
0
41
1
10
5.86203669023414
20
-0.782907689820121
30
0
41
1
10
5.79804679283393
20
-0.773412267198097
30
0
41
1
10
5.67457043750491
20
-0.744781939166245
30
0
41
1
10
5.61579813648461
20
-0.72698261221052
30
0
41
1
10
5.55616872862458
20
-0.705546095016814
30
0
0
SPLINE
5
D8
100
AcDbEntity
8
1
62
256
6
ByLayer
370
18
48
1
60
0
100
AcDbSpline
70
4
71
3
72
8
73
4
40
0
40
0
40
0
40
0
40
1
40
1
40
1
40
1
41
1
10
4.04519129421953
20
-2.02189864289773
30
0
41
1
10
4.06504325994072
20
-1.99503662780685
30
0
41
1
10
4.09121533196858
20
-1.97124439838663
30
0
41
1
10
4.12314151743291
20
-1.95320580262415
30
0
0
SPLINE
5
D9
100
AcDbEntity
8
1
62
256
6
ByLayer
370
18
48
1
60
0
100
AcDbSpline
70
4
71
3
72
28
73
24
40
0
40
0
40
0
40
0
40
0.25
40
0.25
40
0.375
40
0.375
40
0.5
40
0.5
40
0.625
40
0.625
40
0.6875
40
0.6875
40
0.75
40
0.75
40
0.8125
40
0.8125
40
0.875
40
0.875
40
0.9375
40
0.9375
40
0.96875
40
0.96875
40
1
40
1
40
1
40
1
41
1
10
35.5622451104252
20
0.737174821815699
30
0
41
1
10
35.6976185589786
20
0.625113378767253
30
0
41
1
10
35.8373341936774
20
0.522775828244875
30
0
41
1
10
36.0485269650568
20
0.391123858910618
30
0
41
1
10
36.1193515536568
20
0.350732902207568
30
0
41
1
10
36.2619498723157
20
0.277715384467484
30
0
41
1
10
36.333977021741
20
0.244944423644739
30
0
41
1
10
36.4779167979256
20
0.188870247615597
30
0
41
1
10
36.5494150077474
20
0.165677196788579
30
0
41
1
10
36.6558625942453
20
0.139100662259182
30
0
41
1
10
36.6912836905832
20
0.131605076849013
30
0
41
1
10
36.7613227460478
20
0.119676558692788
30
0
41
1
10
36.7960965126721
20
0.114711769845684
30
0
41
1
10
36.8637486513165
20
0.112490452009865
30
0
41
1
10
36.8968870029415
20
0.115031906156901
30
0
41
1
10
36.9569471886545
20
0.132253009113441
30
0
41
1
10
36.9845735977018
20
0.146991977802315
30
0
41
1
10
37.0286657586543
20
0.190014739384708
30
0
41
1
10
37.0456213443843
20
0.218682559133555
30
0
41
1
10
37.0597172389773
20
0.269445199766864
30
0
41
1
10
37.0626470568325
20
0.288026661047667
30
0
41
1
10
37.064698114499
20
0.326656706135793
30
0
41
1
10
37.0638286581315
20
0.34673186291883
30
0
41
1
10
37.0614862509734
20
0.367397863539424
30
0
0
SPLINE
5
DA
100
AcDbEntity
8
1
62
256
6
ByLayer
370
18
48
1
60
0
100
AcDbSpline
70
4
71
3
72
8
73
4
40
0
40
0
40
0
40
0
40
1
40
1
40
1
40
1
41
1
10
4.14944983971807
20
-2.02967800118989
30
0
41
1
10
4.13896947716441
20
-2.02955009712227
30
0
41
1
10
4.12857014327469
20
-2.02939231037467
30
0
41
1
10
4.11849522380345
20
-2.02918773125066
30
0
0
SPLINE
5
DB
100
AcDbEntity
8
1
62
256
6
ByLayer
370
18
48
1
60
0
100
AcDbSpline
70
4
71
3
72
12
73
8
40
0
40
0
40
0
40
0
40
0.250000000000001
40
0.250000000000001
40
0.500000000000002
40
0.500000000000002
40
1
40
1
40
1
40
1
41
1
10
37.3002335706905
20
-2.02569397555914
30
0
41
1
10
37.3052150170128
20
-2.01255751068541
30
0
41
1
10
37.3098377851393
20
-1.99902653217688
30
0
41
1
10
37.3169283520486
20
-1.97475656952841
30
0
41
1
10
37.3193559250015
20
-1.96408085063766
30
0
41
1
10
37.3226034417237
20
-1.94084119725932
30
0
41
1
10
37.3199291780132
20
-1.93618922578142
30
0
41
1
10
37.3150853555492
20
-1.93814326505486
30
0
0
SPLINE
5
DC
100
AcDbEntity
8
1
62
256
6
ByLayer
370
18
48
1
60
0
100
AcDbSpline
70
4
71
3
72
18
73
14
40
0
40
0
40
0
40
0
40
0.125000000000014
40
0.125000000000014
40
0.250000000000028
40
0.250000000000028
40
0.375000000000042
40
0.375000000000042
40
0.500000000000056
40
0.500000000000056
40
0.750000000000028
40
0.750000000000028
40
1
40
1
40
1
40
1
41
1
10
37.6715065151224
20
-0.399455548312886
30
0
41
1
10
37.6619162326441
20
-0.384329217921703
30
0
41
1
10
37.6534637050829
20
-0.367989052034517
30
0
41
1
10
37.6420902637601
20
-0.335002121766735
30
0
41
1
10
37.6392819464718
20
-0.318408700596876
30
0
41
1
10
37.64137128228
20
-0.288404707291363
30
0
41
1
10
37.6461991980099
20
-0.275664824229466
30
0
41
1
10
37.6604391525892
20
-0.255547738076274
30
0
41
1
10
37.6698865494242
20
-0.247914220908712
30
0
41
1
10
37.7009997865289
20
-0.230881768725339
30
0
41
1
10
37.7259026910725
20
-0.226574315534975
30
0
41
1
10
37.7770503967282
20
-0.225362798111519
30
0
41
1
10
37.8040355385738
20
-0.228572985871438
30
0
41
1
10
37.8313058253496
20
-0.234380658007325
30
0
0
SPLINE
5
DD
100
AcDbEntity
8
1
62
256
6
ByLayer
370
18
48
1
60
0
100
AcDbSpline
70
4
71
3
72
16
73
12
40
0
40
0
40
0
40
0
40
0.25000000000001
40
0.25000000000001
40
0.500000000000019
40
0.500000000000019
40
0.750000000000029
40
0.750000000000029
40
0.875000000000014
40
0.875000000000014
40
1
40
1
40
1
40
1
41
1
10
37.2255955395437
20
0.650582087299597
30
0
41
1
10
37.2794590579616
20
0.663681758992823
30
0
41
1
10
37.3328580727454
20
0.678484538754248
30
0
41
1
10
37.4380755910097
20
0.714079097322156
30
0
41
1
10
37.4901717469402
20
0.734850051818825
30
0
41
1
10
37.588191334989
20
0.787525366198224
30
0
41
1
10
37.6347012601035
20
0.819318851231685
30
0
41
1
10
37.6878128593023
20
0.883976202105146
30
0
41
1
10
37.7022722129265
20
0.908406780732008
30
0
41
1
10
37.720360837015
20
0.961265953369917
30
0
41
1
10
37.7238731305072
20
0.989712726815043
30
0
41
1
10
37.7222972583878
20
1.01786407837091
30
0
0
SPLINE
5
DE
100
AcDbEntity
8
1
62
256
6
ByLayer
370
18
48
1
60
0
100
AcDbSpline
70
4
71
3
72
60
73
56
40
0
40
0
40
0
40
0
40
0.062499999999992
40
0.062499999999992
40
0.124999999999984
40
0.124999999999984
40
0.249999999999968
40
0.249999999999968
40
0.374999999999952
40
0.374999999999952
40
0.437499999999943
40
0.437499999999943
40
0.499999999999934
40
0.499999999999934
40
0.562499999999925
40
0.562499999999925
40
0.570312499999923
40
0.570312499999923
40
0.578124999999922
40
0.578124999999922
40
0.582031249999922
40
0.582031249999922
40
0.585937499999923
40
0.585937499999923
40
0.593749999999923
40
0.593749999999923
40
0.62499999999993
40
0.62499999999993
40
0.640624999999933
40
0.640624999999933
40
0.656249999999936
40
0.656249999999936
40
0.671874999999938
40
0.671874999999938
40
0.687499999999941
40
0.687499999999941
40
0.703124999999944
40
0.703124999999944
40
0.718749999999946
40
0.718749999999946
40
0.734374999999949
40
0.734374999999949
40
0.749999999999952
40
0.749999999999952
40
0.781249999999957
40
0.781249999999957
40
0.812499999999963
40
0.812499999999963
40
0.874999999999975
40
0.874999999999975
40
0.906249999999981
40
0.906249999999981
40
0.937499999999987
40
0.937499999999987
40
1
40
1
40
1
40
1
41
1
10
7.66662974218667
20
0.901490239564993
30
0
41
1
10
7.49785956873896
20
0.99042921007333
30
0
41
1
10
7.32776248279114
20
1.07443030954428
30
0
41
1
10
6.98523974807495
20
1.23151258458105
30
0
41
1
10
6.81377310017294
20
1.30414338758382
30
0
41
1
10
6.29714150358438
20
1.50392266908068
30
0
41
1
10
5.94970299921866
20
1.61264472943424
30
0
41
1
10
5.23979696926079
20
1.78278400489083
30
0
41
1
10
4.87722689440454
20
1.84418727207478
30
0
41
1
10
4.31723524084603
20
1.90928159807933
30
0
41
1
10
4.12878774083418
20
1.92645047514984
30
0
41
1
10
3.74964864328587
20
1.95383291496628
30
0
41
1
10
3.55870112933258
20
1.96408934361679
30
0
41
1
10
3.17382771385439
20
1.97974885246535
30
0
41
1
10
2.97964609255143
20
1.98516616111371
30
0
41
1
10
2.76013721559639
20
1.98931948384796
30
0
41
1
10
2.73573604502357
20
1.98975351676873
30
0
41
1
10
2.68691094078144
20
1.9905686702626
30
0
41
1
10
2.66253089373666
20
1.99103740690498
30
0
41
1
10
2.62580781817078
20
1.99143102715809
30
0
41
1
10
2.61357188291674
20
1.99129029296745
30
0
41
1
10
2.58987867996478
20
1.99000901441164
30
0
41
1
10
2.57934436398995
20
1.98875227249638
30
0
41
1
10
2.54680007563439
20
1.98541378623588
30
0
41
1
10
2.52529218960382
20
1.98302749715759
30
0
41
1
10
2.41880255521627
20
1.97015336270098
30
0
41
1
10
2.33770542736602
20
1.9571222935042
30
0
41
1
10
2.22682619919425
20
1.92946456641582
30
0
41
1
10
2.19139322380158
20
1.91874988328229
30
0
41
1
10
2.12715776668944
20
1.89365406710414
30
0
41
1
10
2.09841728787689
20
1.87935434883215
30
0
41
1
10
2.04995129034964
20
1.84568950447249
30
0
41
1
10
2.03086174928981
20
1.82658498069824
30
0
41
1
10
2.00568598112503
20
1.7841172878091
30
0
41
1
10
1.99947475029057
20
1.76011732355224
30
0
41
1
10
2.00059989005985
20
1.7097671343621
30
0
41
1
10
2.00771734535559
20
1.68306285055277
30
0
41
1
10
2.03219792398704
20
1.62847280076059
30
0
41
1
10
2.04923181217711
20
1.60098996636097
30
0
41
1
10
2.09019365372976
20
1.54552736122264
30
0
41
1
10
2.11431824039738
20
1.51739114156723
30
0
41
1
10
2.16654484639923
20
1.46192682720874
30
0
41
1
10
2.19474119405913
20
1.43444861344409
30
0
41
1
10
2.28390766650827
20
1.35238658752905
30
0
41
1
10
2.34970890149424
20
1.29789897952955
30
0
41
1
10
2.48725544738497
20
1.19008108840561
30
0
41
1
10
2.55865901878235
20
1.13704170049706
30
0
41
1
10
2.77797666916561
20
0.979004641216051
30
0
41
1
10
2.93088660954564
20
0.875028893975951
30
0
41
1
10
3.16592991550928
20
0.718714765398744
30
0
41
1
10
3.24527455773361
20
0.666585277716507
30
0
41
1
10
3.40408987611735
20
0.563103236439673
30
0
41
1
10
3.48376881492408
20
0.511614152832237
30
0
41
1
10
3.72345369883496
20
0.357687860155579
30
0
41
1
10
3.88408485810288
20
0.255758112410433
30
0
41
1
10
4.04548781515692
20
0.154473416561814
30
0
0
SPLINE
5
DF
100
AcDbEntity
8
1
62
256
6
ByLayer
370
13
48
1
60
0
100
AcDbSpline
70
4
71
3
72
10
73
6
40
0
40
0
40
0
40
0
40
0.959692970916061
40
0.959692970916061
40
1
40
1
40
1
40
1
41
1
10
4.19986491628424
20
-2.02142199526153
30
0
41
1
10
4.54663161068058
20
-2.02281781836777
30
0
41
1
10
4.88991330156492
20
-1.99366233193311
30
0
41
1
10
5.24779747732143
20
-1.93352436345566
30
0
41
1
10
5.26222325218848
20
-1.93104969748652
30
0
41
1
10
5.27664985691524
20
-1.92852450418624
30
0
0
SPLINE
5
E0
100
AcDbEntity
8
1
62
256
6
ByLayer
370
18
48
1
60
0
100
AcDbSpline
70
4
71
3
72
24
73
20
40
0
40
0
40
0
40
0
40
0.0272838852471483
40
0.0272838852471483
40
0.205030219365898
40
0.205030219365898
40
0.382776553484648
40
0.382776553484648
40
0.471649720544023
40
0.471649720544023
40
0.560522887603398
40
0.560522887603398
40
0.73826922172215
40
0.73826922172215
40
0.827142388781526
40
0.827142388781526
40
0.916015555840902
40
0.916015555840902
40
1
40
1
40
1
40
1
41
1
10
17.4947250814778
20
1.56467963596532
30
0
41
1
10
17.5475901548263
20
1.54499569522551
30
0
41
1
10
17.6004331457441
20
1.52477100910889
30
0
41
1
10
17.9974597885487
20
1.36883076016704
30
0
41
1
10
18.3415104375007
20
1.21157115851139
30
0
41
1
10
19.0364421108676
20
0.861357226805495
30
0
41
1
10
19.3811208408155
20
0.672453311004176
30
0
41
1
10
19.8972965656037
20
0.378344669454151
30
0
41
1
10
20.0693624285793
20
0.278535200729664
30
0
41
1
10
20.4144720546132
20
0.076970507078272
30
0
41
1
10
20.5878313502155
20
-0.0248423732509764
30
0
41
1
10
21.1091023928266
20
-0.329788583566994
30
0
41
1
10
21.4542827666938
20
-0.529986511274132
30
0
41
1
10
21.9746530095252
20
-0.815406684435004
30
0
41
1
10
22.1486828902566
20
-0.908072273897488
30
0
41
1
10
22.4953076471654
20
-1.08526878739161
30
0
41
1
10
22.6682862515935
20
-1.17004893915205
30
0
41
1
10
23.0050571677539
20
-1.32613864232539
30
0
41
1
10
23.1693735982134
20
-1.39800835398501
30
0
41
1
10
23.3332763868816
20
-1.46473621423428
30
0
0
SPLINE
5
E1
100
AcDbEntity
8
1
62
256
6
ByLayer
370
13
48
1
60
0
100
AcDbSpline
70
4
71
3
72
20
73
16
40
0
40
0
40
0
40
0
40
0.0077958884338863
40
0.0077958884338863
40
0.149519056038342
40
0.149519056038342
40
0.432965391247249
40
0.432965391247249
40
0.574688558851701
40
0.574688558851701
40
0.716411726456153
40
0.716411726456153
40
0.999858061665051
40
0.999858061665051
40
1
40
1
40
1
40
1
41
1
10
23.3332763868737
20
-1.46473621423104
30
0
41
1
10
23.3428171455776
20
-1.46862043376532
30
0
41
1
10
23.3523565027026
20
-1.47248723071186
30
0
41
1
10
23.5352828593103
20
-1.5463107858271
30
0
41
1
10
23.7076268097371
20
-1.61038674007111
30
0
41
1
10
24.2232376322046
20
-1.78371036660042
30
0
41
1
10
24.565101112141
20
-1.87380442317021
30
0
41
1
10
25.0803866879474
20
-1.96695572223885
30
0
41
1
10
25.2526472752683
20
-1.99096231386514
30
0
41
1
10
25.5990693549769
20
-2.02395479768748
30
0
41
1
10
25.7730398625623
20
-2.03292346561602
30
0
41
1
10
26.290469237957
20
-2.037019550064
30
0
41
1
10
26.6325038044457
20
-2.00955400566551
30
0
41
1
10
26.9755894827044
20
-1.9530854978556
30
0
41
1
10
26.9757612001812
20
-1.95305722765852
30
0
41
1
10
26.9759329178447
20
-1.95302895023144
30
0
0
SPLINE
5
E2
100
AcDbEntity
8
1
62
256
6
ByLayer
370
18
48
1
60
0
100
AcDbSpline
70
4
71
3
72
14
73
10
40
0
40
0
40
0
40
0
40
0.114038258037566
40
0.114038258037566
40
0.372039362889169
40
0.372039362889169
40
0.63004046774077
40
0.63004046774077
40
1
40
1
40
1
40
1
41
1
10
26.1995554174823
20
-1.93641923097047
30
0
41
1
10
26.1236043701745
20
-1.9365309578991
30
0
41
1
10
26.0475564303841
20
-1.93525278932904
30
0
41
1
10
25.7990213008022
20
-1.92652861774707
30
0
41
1
10
25.625267212603
20
-1.91324616253809
30
0
41
1
10
25.2795101565536
20
-1.87250769420984
30
0
41
1
10
25.1074693601868
20
-1.84504851439601
30
0
41
1
10
24.6898196856135
20
-1.76241284737162
30
0
41
1
10
24.444520672718
20
-1.70026575129876
30
0
41
1
10
24.1987718459165
20
-1.62568055462415
30
0
0
SPLINE
5
E3
100
AcDbEntity
8
1
62
256
6
ByLayer
370
13
48
1
60
0
100
AcDbSpline
70
4
71
3
72
26
73
22
40
0
40
0
40
0
40
0
40
0.0453349317229129
40
0.0453349317229129
40
0.125424277392582
40
0.125424277392582
40
0.205513623062251
40
0.205513623062251
40
0.28560296873192
40
0.28560296873192
40
0.365692314401589
40
0.365692314401589
40
0.525871005740928
40
0.525871005740928
40
0.686049697080266
40
0.686049697080266
40
0.766139042749935
40
0.766139042749935
40
0.846228388419604
40
0.846228388419604
40
1
40
1
40
1
40
1
41
1
10
24.1987718458306
20
-1.62568055459812
30
0
41
1
10
24.1017617311971
20
-1.59623781595388
30
0
41
1
10
24.0046815220531
20
-1.56485684783186
30
0
41
1
10
23.7356987075256
20
-1.47284985580046
30
0
41
1
10
23.5634857189147
20
-1.40832072462521
30
0
41
1
10
23.2170565382752
20
-1.26855358171269
30
0
41
1
10
23.0434969190732
20
-1.19347887744209
30
0
41
1
10
22.6977071098621
20
-1.03535905759941
30
0
41
1
10
22.5249613863129
20
-0.952258789818416
30
0
41
1
10
22.1787954990912
20
-0.779436024594332
30
0
41
1
10
22.0050394125747
20
-0.689496522148829
30
0
41
1
10
21.4855190585119
20
-0.413680221908237
30
0
41
1
10
21.1407323306951
20
-0.221588140598158
30
0
41
1
10
20.4466615261716
20
0.165544772798143
30
0
41
1
10
20.1024926095596
20
0.357770812958108
30
0
41
1
10
19.5868058862426
20
0.633974020694893
30
0
41
1
10
19.4148926478861
20
0.724021058964354
30
0
41
1
10
19.0700083229576
20
0.898248713721785
30
0
41
1
10
18.8968766408344
20
0.982755726322949
30
0
41
1
10
18.390546702179
20
1.21857052138833
30
0
41
1
10
18.0604947799179
20
1.35709216027587
30
0
41
1
10
17.730349678625
20
1.47561384300647
30
0
0
SPLINE
5
E4
100
AcDbEntity
8
1
62
256
6
ByLayer
370
18
48
1
60
0
100
AcDbSpline
70
4
71
3
72
8
73
4
40
0
40
0
40
0
40
0
40
1
40
1
40
1
40
1
41
1
10
4.50462483890161
20
-1.92298148464306
30
0
41
1
10
4.42002148393513
20
-1.92410501153788
30
0
41
1
10
4.33527777319694
20
-1.92349824117031
30
0
41
1
10
4.25034241753801
20
-1.92113653389183
30
0
0
SPLINE
5
E5
100
AcDbEntity
8
1
62
256
6
ByLayer
370
18
48
1
60
0
100
AcDbSpline
70
4
71
3
72
26
73
22
40
0
40
0
40
0
40
0
40
0.125
40
0.125
40
0.25
40
0.25
40
0.3125
40
0.3125
40
0.375
40
0.375
40
0.5
40
0.5
40
0.625
40
0.625
40
0.75
40
0.75
40
0.8125
40
0.8125
40
0.875
40
0.875
40
1
40
1
40
1
40
1
41
1
10
4.04519129423016
20
-2.02189864288232
30
0
41
1
10
4.04521628040885
20
-2.01008609674915
30
0
41
1
10
4.04523367905097
20
-1.98560473020404
30
0
41
1
10
4.04525866522314
20
-1.91091859705361
30
0
41
1
10
4.04526594513209
20
-1.86178373138873
30
0
41
1
10
4.0452736601527
20
-1.7711162777002
30
0
41
1
10
4.04527568567397
20
-1.73804558939588
30
0
41
1
10
4.04527931507246
20
-1.66608216116106
30
0
41
1
10
4.04528092497293
20
-1.62701778997055
30
0
41
1
10
4.0452859701611
20
-1.50346720571443
30
0
41
1
10
4.04528970339442
20
-1.41207555117117
30
0
41
1
10
4.04530178076357
20
-1.21144508268887
30
0
41
1
10
4.0453102578054
20
-1.10123001968193
30
0
41
1
10
4.04533320170464
20
-0.871684908934213
30
0
41
1
10
4.0453476832069
20
-0.751491405121016
30
0
41
1
10
4.04537379413358
20
-0.562913710733596
30
0
41
1
10
4.04538324371066
20
-0.498522135188466
30
0
41
1
10
4.04540293150515
20
-0.369729509434848
30
0
41
1
10
4.0454132134879
20
-0.304993636604593
30
0
41
1
10
4.04544479181604
20
-0.109785434375539
30
0
41
1
10
4.04546696851421
20
0.0222081162235952
30
0
41
1
10
4.04548781522598
20
0.154473416519096
30
0
0
SPLINE
5
E6
100
AcDbEntity
8
1
62
256
6
ByLayer
370
18
48
1
60
0
100
AcDbSpline
70
4
71
3
72
16
73
12
40
0
40
0
40
0
40
0
40
0.250000000000004
40
0.250000000000004
40
0.500000000000007
40
0.500000000000007
40
0.625000000000009
40
0.625000000000009
40
0.750000000000011
40
0.750000000000011
40
1
40
1
40
1
40
1
41
1
10
37.7222972583878
20
1.01786407837091
30
0
41
1
10
37.6920079640956
20
1.09903814556225
30
0
41
1
10
37.661521625739
20
1.18005058112823
30
0
41
1
10
37.6006391201527
20
1.34218797227083
30
0
41
1
10
37.5701947103079
20
1.42325064693986
30
0
41
1
10
37.5243250831306
20
1.5444574882373
30
0
41
1
10
37.509000683347
20
1.5847939268626
30
0
41
1
10
37.4782215188175
20
1.66521818140947
30
0
41
1
10
37.4627844038206
20
1.70533965766634
30
0
41
1
10
37.4165243652292
20
1.82580193431991
30
0
41
1
10
37.3856939532299
20
1.90612845336841
30
0
41
1
10
37.3541050798472
20
1.98500848927262
30
0
0
SPLINE
5
E7
100
AcDbEntity
8
1
62
256
6
ByLayer
370
18
48
1
60
0
100
AcDbSpline
70
4
71
3
72
36
73
32
40
0
40
0
40
0
40
0
40
0.0915080475623106
40
0.0915080475623106
40
0.137262071343466
40
0.137262071343466
40
0.183016095124621
40
0.183016095124621
40
0.274524142686932
40
0.274524142686932
40
0.320278166468086
40
0.320278166468086
40
0.36603219024924
40
0.36603219024924
40
0.457540237811547
40
0.457540237811547
40
0.5032942615927
40
0.5032942615927
40
0.549048285373852
40
0.549048285373852
40
0.640556332936157
40
0.640556332936157
40
0.686310356717309
40
0.686310356717309
40
0.73206438049846
40
0.73206438049846
40
0.915080475623064
40
0.915080475623064
40
0.960834499404216
40
0.960834499404216
40
1
40
1
40
1
40
1
41
1
10
37.2968298193694
20
-2.03466619608267
30
0
41
1
10
36.9508112289969
20
-2.05950824147965
30
0
41
1
10
36.607035960976
20
-2.05350618855661
30
0
41
1
10
36.0894526257144
20
-1.99949827874673
30
0
41
1
10
35.9166307849923
20
-1.97397145432447
30
0
41
1
10
35.5694783388135
20
-1.90788122040465
30
0
41
1
10
35.395566244631
20
-1.86741005515265
30
0
41
1
10
34.8769981345269
20
-1.72641580069785
30
0
41
1
10
34.5333103531519
20
-1.60594388939424
30
0
41
1
10
34.0151046860664
20
-1.39146080387883
30
0
41
1
10
33.8417524048554
20
-1.31427476987156
30
0
41
1
10
33.493898844569
20
-1.14982463552639
30
0
41
1
10
33.3210592073634
20
-1.06346241140244
30
0
41
1
10
32.8041663921716
20
-0.79464370869573
30
0
41
1
10
32.4617053843128
20
-0.602534775057933
30
0
41
1
10
31.9460060566533
20
-0.303551061143736
30
0
41
1
10
31.7737010827679
20
-0.202200060258264
30
0
41
1
10
31.4272304611206
20
0.0021435857025836
30
0
41
1
10
31.2527143931623
20
0.105354664300393
30
0
41
1
10
30.7339199887103
20
0.410418983301923
30
0
41
1
10
30.3912818622989
20
0.608631341971147
30
0
41
1
10
29.8759785816932
20
0.888278555672599
30
0
41
1
10
29.7041167144442
20
0.978760989129569
30
0
41
1
10
29.3593248149444
20
1.15277531880278
30
0
41
1
10
29.1858251446182
20
1.23612657724078
30
0
41
1
10
28.3160644845135
20
1.62862914516938
30
0
41
1
10
27.6374905428595
20
1.85558989457206
30
0
41
1
10
26.770713849207
20
1.99424197399799
30
0
41
1
10
26.5961808487267
20
2.01468831000335
30
0
41
1
10
26.275140491643
20
2.03820906222941
30
0
41
1
10
26.1276634988148
20
2.04345780045992
30
0
41
1
10
25.9804705423799
20
2.04317039285968
30
0
0
SPLINE
5
E8
100
AcDbEntity
8
1
62
256
6
ByLayer
370
18
48
1
60
0
100
AcDbSpline
70
4
71
3
72
38
73
34
40
0
40
0
40
0
40
0
40
0.0521049018183492
40
0.0521049018183492
40
0.0954531076575362
40
0.0954531076575362
40
0.138801313496724
40
0.138801313496724
40
0.225497725175098
40
0.225497725175098
40
0.268845931014285
40
0.268845931014285
40
0.312194136853472
40
0.312194136853472
40
0.398890548531847
40
0.398890548531847
40
0.442238754371034
40
0.442238754371034
40
0.485586960210221
40
0.485586960210221
40
0.658979783566967
40
0.658979783566967
40
0.702327989406154
40
0.702327989406154
40
0.745676195245341
40
0.745676195245341
40
0.832372606923716
40
0.832372606923716
40
0.875720812762903
40
0.875720812762903
40
0.91906901860209
40
0.91906901860209
40
1
40
1
40
1
40
1
41
1
10
16.1766772314379
20
-1.94029633551318
30
0
41
1
10
15.9701530197765
20
-1.97720861446237
30
0
41
1
10
15.7635045867937
20
-2.00380227803808
30
0
41
1
10
15.3831497221302
20
-2.03270665422045
30
0
41
1
10
15.2092025703078
20
-2.03833029974052
30
0
41
1
10
14.8612004794367
20
-2.034097582648
30
0
41
1
10
14.6882654621825
20
-2.02429989201187
30
0
41
1
10
14.1711314048281
20
-1.97265692616853
30
0
41
1
10
13.8282708509304
20
-1.90872799962494
30
0
41
1
10
13.3115903462979
20
-1.77166948352195
30
0
41
1
10
13.138962179028
20
-1.71910544261164
30
0
41
1
10
12.7918164116336
20
-1.60085395394407
30
0
41
1
10
12.6171944859531
20
-1.5351191272149
30
0
41
1
10
12.0978348100652
20
-1.32322952575845
30
0
41
1
10
11.7547783540972
20
-1.16126693054753
30
0
41
1
10
11.2390057196978
20
-0.895953458532347
30
0
41
1
10
11.0668452794267
20
-0.80384905673688
30
0
41
1
10
10.7211396369068
20
-0.613658247926253
30
0
41
1
10
10.5471249610264
20
-0.515166742852102
30
0
41
1
10
9.67723119374725
20
-0.0147358399899815
30
0
41
1
10
8.99742669296276
20
0.400395220722032
30
0
41
1
10
8.12886133483147
20
0.8706236808151
30
0
41
1
10
7.95417699776854
20
0.962242634235622
30
0
41
1
10
7.60790459132352
20
1.13610312608279
30
0
41
1
10
7.43558447742794
20
1.21876394111811
30
0
41
1
10
6.91947891597221
20
1.45191196425
30
0
41
1
10
6.57638761625384
20
1.58737023021351
30
0
41
1
10
6.05755600468086
20
1.75378499187479
30
0
41
1
10
5.8835083030182
20
1.80330608234897
30
0
41
1
10
5.53533050599589
20
1.88838177635836
30
0
41
1
10
5.3620190005642
20
1.92370998796005
30
0
41
1
10
4.86581331339269
20
2.00382683186271
30
0
41
1
10
4.5434351796919
20
2.03028635182412
30
0
41
1
10
4.21885304191511
20
2.03011939824984
30
0
0
SPLINE
5
E9
100
AcDbEntity
8
SK1
62
256
6
ByLayer
370
18
48
1
60
0
100
AcDbSpline
70
4
71
3
72
14
73
10
40
0
40
0
40
0
40
0
40
0.5
40
0.5
40
0.75
40
0.75
40
0.875
40
0.875
40
1
40
1
40
1
40
1
41
1
10
-35.4
20
2.26448053839928
30
0
41
1
10
-35.3787677796885
20
2.30033126787956
30
0
41
1
10
-35.3584290958895
20
2.33832787024073
30
0
41
1
10
-35.3303626450498
20
2.39798225469403
30
0
41
1
10
-35.3215171954455
20
2.41810954884588
30
0
41
1
10
-35.3102812516991
20
2.44779680560711
30
0
41
1
10
-35.3068890218585
20
2.45760983638269
30
0
41
1
10
-35.3017585680987
20
2.47573052502682
30
0
41
1
10
-35.3
20
2.48418848388246
30
0
41
1
10
-35.3
20
2.49018894883409
30
0
0
SPLINE
5
EA
100
AcDbEntity
8
SK1
62
256
6
ByLayer
370
18
48
1
60
0
100
AcDbSpline
70
4
71
3
72
8
73
4
40
0
40
0
40
0
40
0
40
1
40
1
40
1
40
1
41
1
10
-35.7513056489149
20
-2.18119628846742
30
0
41
1
10
-35.8353529140039
20
-2.03558032178967
30
0
41
1
10
-35.9184262453428
20
-1.88948103523057
30
0
41
1
10
-35.9999999999999
20
-1.74264783677651
30
0
0
SPLINE
5
EB
100
AcDbEntity
8
SK1
62
256
6
ByLayer
370
18
48
1
60
0
100
AcDbSpline
70
4
71
3
72
14
73
10
40
0
40
0
40
0
40
0
40
0.125
40
0.125
40
0.25
40
0.25
40
0.500000000000001
40
0.500000000000001
40
1
40
1
40
1
40
1
41
1
10
-35.3
20
2.93743819167702
30
0
41
1
10
-35.3
20
2.93886819190857
30
0
41
1
10
-35.3017593723636
20
2.93719038490576
30
0
41
1
10
-35.306935341198
20
2.93061700719696
30
0
41
1
10
-35.3102739075535
20
2.92586218167298
30
0
41
1
10
-35.3215583577555
20
2.90911588994615
30
0
41
1
10
-35.3303095934912
20
2.89535208879866
30
0
41
1
10
-35.358391202053
20
2.85026731613985
30
0
41
1
10
-35.378655954467
20
2.81657690409219
30
0
41
1
10
-35.4
20
2.78053735706442
30
0
0
SPLINE
5
EC
100
AcDbEntity
8
SK1
62
256
6
ByLayer
370
18
48
1
60
0
100
AcDbSpline
70
4
71
3
72
8
73
4
40
0
40
0
40
0
40
0
40
1
40
1
40
1
40
1
41
1
10
-36
20
1.22659101811141
30
0
41
1
10
-35.8061130838788
20
1.57558851310409
30
0
41
1
10
-35.6037814549822
20
1.92039434729534
30
0
41
1
10
-35.4
20
2.26448053839945
30
0
0
SPLINE
5
ED
100
AcDbEntity
8
SK1
62
256
6
ByLayer
370
18
48
1
60
0
100
AcDbSpline
70
4
71
3
72
8
73
4
40
0
40
0
40
0
40
0
40
1
40
1
40
1
40
1
41
1
10
-35.4
20
2.78053735706442
30
0
41
1
10
-35.6037661369848
20
2.4364770304893
30
0
41
1
10
-35.8061186201423
20
2.09163536646483
30
0
41
1
10
-35.9999999999999
20
1.74264783677651
30
0
0
LINE
5
76
100
AcDbEntity
8
81
62
256
6
ByLayer
370
18
48
1
60
0
100
AcDbLine
10
38
20
0
30
0
11
43
21
0
31
0
39
0
210
0
220
0
230
1
0
LINE
5
77
100
AcDbEntity
8
1
62
256
6
ByLayer
370
18
48
1
60
0
100
AcDbLine
10
4.217966
20
2.030118
30
0
11
1.471882
21
2.028471
31
0
39
0
210
0
220
0
230
1
0
LINE
5
79
100
AcDbEntity
8
1
62
256
6
ByLayer
370
18
48
1
60
0
100
AcDbLine
10
15.104396
20
2.03665
30
0
11
14.704789
21
2.03641
31
0
39
0
210
0
220
0
230
1
0
LINE
5
7A
100
AcDbEntity
8
1
62
256
6
ByLayer
370
18
48
1
60
0
100
AcDbLine
10
25.98762
20
2.04318
30
0
11
25.590592
21
2.042942
31
0
39
0
210
0
220
0
230
1
0
LINE
5
7B
100
AcDbEntity
8
1
62
256
6
ByLayer
370
18
48
1
60
0
100
AcDbLine
10
36.873471
20
2.049712
30
0
11
36.479038
21
2.049475
31
0
39
0
210
0
220
0
230
1
0
LINE
5
7C
100
AcDbEntity
8
1
62
256
6
ByLayer
370
18
48
1
60
0
100
AcDbLine
10
36.479038
20
-2.049475
30
0
11
36.873453
21
-2.049711
31
0
39
0
210
0
220
0
230
1
0
LINE
5
7D
100
AcDbEntity
8
1
62
256
6
ByLayer
370
18
48
1
60
0
100
AcDbLine
10
25.590592
20
-2.042942
30
0
11
25.987423
21
-2.04318
31
0
39
0
210
0
220
0
230
1
0
LINE
5
7E
100
AcDbEntity
8
1
62
256
6
ByLayer
370
18
48
1
60
0
100
AcDbLine
10
14.704789
20
-2.03641
30
0
11
15.10352
21
-2.03665
31
0
39
0
210
0
220
0
230
1
0
LINE
5
7F
100
AcDbEntity
8
1
62
256
6
ByLayer
370
18
48
1
60
0
100
AcDbLine
10
1.471882
20
-2.028471
30
0
11
4.21789
21
-2.030118
31
0
39
0
210
0
220
0
230
1
0
LINE
5
80
100
AcDbEntity
8
SK1
62
256
6
ByLayer
370
18
48
1
60
0
100
AcDbLine
10
-35.278312
20
3
30
0
11
-35.751033
21
2.181223
31
0
39
0
210
0
220
0
230
1
0
LINE
5
82
100
AcDbEntity
8
SK1
62
256
6
ByLayer
370
18
48
1
60
0
100
AcDbLine
10
-35.751033
20
-2.181223
30
0
11
-35.278312
21
-3
31
0
39
0
210
0
220
0
230
1
0
LINE
5
83
100
AcDbEntity
8
SK1
62
256
6
ByLayer
370
18
48
1
60
0
100
AcDbLine
10
0
20
3
30
0
11
-35.278312
21
3
31
0
39
0
210
0
220
0
230
1
0
LINE
5
84
100
AcDbEntity
8
SK1
62
256
6
ByLayer
370
18
48
1
60
0
100
AcDbLine
10
-35.278312
20
-3
30
0
11
0
21
-3
31
0
39
0
210
0
220
0
230
1
0
LINE
5
85
100
AcDbEntity
8
SK4
62
256
6
ByLayer
370
18
48
0.05
60
0
100
AcDbLine
10
43
20
0
30
0
11
-41
21
0
31
0
39
0
210
0
220
0
230
1
0
LINE
5
87
100
AcDbEntity
8
4
62
256
6
ByLayer
370
18
48
0.05
60
0
100
AcDbLine
10
38
20
0
30
0
11
0
21
0
31
0
39
0
210
0
220
0
230
1
0
LINE
5
89
100
AcDbEntity
8
80
62
256
6
ByLayer
370
18
48
1
60
0
100
AcDbLine
10
0
20
0
30
0
11
-5
21
0
31
0
39
0
210
0
220
0
230
1
0
LINE
5
8A
100
AcDbEntity
8
1
62
256
6
ByLayer
370
18
48
1
60
0
100
AcDbLine
10
10.114309
20
-0.493865
30
0
11
10.119943
21
-0.499855
31
0
39
0
210
0
220
0
230
1
0
LINE
5
8B
100
AcDbEntity
8
1
62
256
6
ByLayer
370
18
48
1
60
0
100
AcDbLine
10
36.978241
20
-1.115609
30
0
11
37.671507
21
-0.399456
31
0
39
0
210
0
220
0
230
1
0
LINE
5
8C
100
AcDbEntity
8
1
62
256
6
ByLayer
370
18
48
1
60
0
100
AcDbLine
10
37.831306
20
-0.234381
30
0
11
37.895519
21
-0.168047
31
0
39
0
210
0
220
0
230
1
0
LINE
5
8D
100
AcDbEntity
8
1
62
256
6
ByLayer
370
18
48
1
60
0
100
AcDbLine
10
38
20
0
30
0
11
37.292812
21
-1.942982
31
0
39
0
210
0
220
0
230
1
0
LINE
5
8E
100
AcDbEntity
8
1
62
256
6
ByLayer
370
13
48
1
60
0
100
AcDbLine
10
1.471882
20
2.028471
30
0
11
1.471882
21
-2.028471
31
0
39
0
210
0
220
0
230
1
0
LINE
5
8F
100
AcDbEntity
8
1
62
256
6
ByLayer
370
18
48
1
60
0
100
AcDbLine
10
37.996649
20
0.020789
30
0
11
38
21
0
31
0
39
0
210
0
220
0
230
1
0
LINE
5
90
100
AcDbEntity
8
1
62
256
6
ByLayer
370
18
48
1
60
0
100
AcDbLine
10
0
20
-3
30
0
11
0
21
3
31
0
39
0
210
0
220
0
230
1
0
LINE
5
91
100
AcDbEntity
8
1
62
256
6
ByLayer
370
13
48
1
60
0
100
AcDbLine
10
37.626895
20
0.439344
30
0
11
37.934336
21
0.256929
31
0
39
0
210
0
220
0
230
1
0
LINE
5
92
100
AcDbEntity
8
1
62
256
6
ByLayer
370
13
48
1
60
0
100
AcDbLine
10
37.436989
20
0.104014
30
0
11
37.895519
21
-0.168047
31
0
39
0
210
0
220
0
230
1
0
LINE
5
93
100
AcDbEntity
8
1
62
256
6
ByLayer
370
18
48
1
60
0
100
AcDbLine
10
37.934336
20
-0.256929
30
0
11
37.895225
21
-0.439344
31
0
39
0
210
0
220
0
230
1
0
LINE
5
94
100
AcDbEntity
8
1
62
256
6
ByLayer
370
18
48
1
60
0
100
AcDbLine
10
37.934336
20
0.256929
30
0
11
37.895225
21
0.439344
31
0
39
0
210
0
220
0
230
1
0
LINE
5
95
100
AcDbEntity
8
1
62
256
6
ByLayer
370
13
48
1
60
0
100
AcDbLine
10
37.895225
20
0.439344
30
0
11
37.626895
21
0.439344
31
0
39
0
210
0
220
0
230
1
0
LINE
5
96
100
AcDbEntity
8
1
62
256
6
ByLayer
370
13
48
1
60
0
100
AcDbLine
10
0.735701
20
2.514235
30
0
11
0.735701
21
-2.514235
31
0
39
0
210
0
220
0
230
1
0
LINE
5
97
100
AcDbEntity
8
1
62
256
6
ByLayer
370
18
48
1
60
0
100
AcDbLine
10
38
20
0
30
0
11
37.996649
21
-0.020789
31
0
39
0
210
0
220
0
230
1
0
LINE
5
98
100
AcDbEntity
8
SK1
62
256
6
ByLayer
370
18
48
1
60
0
100
AcDbLine
10
0
20
-3
30
0
11
0
21
3
31
0
39
0
210
0
220
0
230
1
0
LINE
5
99
100
AcDbEntity
8
SK1
62
256
6
ByLayer
370
18
48
1
60
0
100
AcDbLine
10
-36
20
1.742648
30
0
11
-36
21
1.226557
31
0
39
0
210
0
220
0
230
1
0
LINE
5
9A
100
AcDbEntity
8
SK1
62
256
6
ByLayer
370
18
48
1
60
0
100
AcDbLine
10
-35.278312
20
3
30
0
11
-35.278312
21
-3
31
0
39
0
210
0
220
0
230
1
0
LINE
5
9B
100
AcDbEntity
8
SK1
62
256
6
ByLayer
370
13
48
1
60
0
100
AcDbLine
10
-35.4
20
2.780537
30
0
11
-35.4
21
2.264448
31
0
39
0
210
0
220
0
230
1
0
LINE
5
9C
100
AcDbEntity
8
SK1
62
256
6
ByLayer
370
18
48
1
60
0
100
AcDbLine
10
-36
20
1.226591
30
0
11
-36
21
-1.742648
31
0
39
0
210
0
220
0
230
1
0
LINE
5
9D
100
AcDbEntity
8
SK1
62
256
6
ByLayer
370
18
48
1
60
0
100
AcDbLine
10
-35.3
20
2.490189
30
0
11
-35.3
21
2.937438
31
0
39
0
210
0
220
0
230
1
0
MTEXT
5
EE
100
AcDbEntity
8
SK6
62
256
6
ByLayer
370
13
48
1
60
0
100
AcDbMText
10
3.129169
20
34.432694
30
0
210
0
220
0
230
1
1
\W0.7470;R840-0410-50-A1A1220
40
3.5
41
0
44
1.084337
50
0
71
8
72
5
7
iso_b_vert
0
DIMENSION
5
FB
100
AcDbEntity
8
SK2
62
256
6
ByLayer
370
13
48
1
60
0
100
AcDbDimension
2
DimnDraft3D1
10
37.31
20
-12.263398
30
0
11
17.560059
21
-12.263398
31
0
70
32
71
5
72
1
41
1
210
0
220
0
230
1
3
Standard
100
AcDbAlignedDimension
13
0
23
-1.5875
33
0
14
37.31
24
-3.6375
34
0
50
0
100
AcDbRotatedDimension
1001
ACAD
1000
DSTYLE
1002
{
1070
   279
1070
     0
1070
   172
1070
     1
1070
   173
1070
     1
1070
   340
1005
EF
1070
   271
1070
     2
1070
   272
1070
     2
1070
    77
1070
     1
1070
    73
1070
     0
1070
   171
1070
     3
1070
   274
1070
     4
1070
   177
1070
    35
1070
   176
1070
    35
1070
   178
1070
    35
1070
    48
1040
-0.005
1070
    41
1041
3.5
1070
   147
1041
1.75
1070
    42
1041
1.5875
1070
    44
1041
2.0
1070
   140
1041
3.5
1070
   343
1005
0
1070
   344
1005
0
1002
}
0
DIMENSION
5
105
100
AcDbEntity
8
SK2
62
256
6
ByLayer
370
13
48
1
60
0
100
AcDbDimension
2
DimnDraft3D2
10
38
20
-31.692985
30
0
11
1.6513
21
-31.692985
31
0
70
32
71
5
72
1
41
1
210
0
220
0
230
1
3
Standard
100
AcDbAlignedDimension
13
-36
23
-4.5875
33
0
14
38
24
-1.5875
34
0
50
0
100
AcDbRotatedDimension
1001
ACAD
1000
DSTYLE
1002
{
1070
   279
1070
     0
1070
   172
1070
     1
1070
   173
1070
     1
1070
   340
1005
EF
1070
   271
1070
     2
1070
   272
1070
     2
1070
    77
1070
     1
1070
    73
1070
     0
1070
   171
1070
     3
1070
   274
1070
     4
1070
   177
1070
    35
1070
   176
1070
    35
1070
   178
1070
    35
1070
    48
1040
-0.005
1070
    41
1041
3.5
1070
   147
1041
1.75
1070
    42
1041
1.5875
1070
    44
1041
2.0
1070
   140
1041
3.5
1070
   343
1005
0
1070
   344
1005
0
1002
}
0
DIMENSION
5
10F
100
AcDbEntity
8
SK2
62
256
6
ByLayer
370
13
48
1
60
0
100
AcDbDimension
2
DimnDraft3D3
10
38
20
13.659119
30
0
11
27.405
21
13.659119
31
0
70
32
71
5
72
1
41
1
210
0
220
0
230
1
3
Standard
100
AcDbAlignedDimension
13
16.81
23
3.6375
33
0
14
38
24
1.5875
34
0
50
0
100
AcDbRotatedDimension
1001
ACAD
1000
DSTYLE
1002
{
1070
   279
1070
     0
1070
   172
1070
     1
1070
   173
1070
     1
1070
   340
1005
EF
1070
   271
1070
     2
1070
   272
1070
     2
1070
    77
1070
     1
1070
    73
1070
     0
1070
   171
1070
     3
1070
   274
1070
     4
1070
   177
1070
    35
1070
   176
1070
    35
1070
   178
1070
    35
1070
    48
1040
-0.005
1070
    41
1041
3.5
1070
   147
1041
1.75
1070
    42
1041
1.5875
1070
    44
1041
2.0
1070
   140
1041
3.5
1070
   343
1005
0
1070
   344
1005
0
1002
}
0
DIMENSION
5
119
100
AcDbEntity
8
SK2
62
256
6
ByLayer
370
13
48
1
60
0
100
AcDbDimension
2
DimnDraft3D4
10
37.31
20
-14.852503
30
0
11
47.981425
21
-14.852503
31
0
70
32
71
5
72
1
41
1
210
0
220
0
230
1
3
Standard
100
AcDbAlignedDimension
13
38
23
-1.5875
33
0
14
37.31
24
-3.6375
34
0
50
0
100
AcDbRotatedDimension
1001
ACAD
1000
DSTYLE
1002
{
1070
   279
1070
     0
1070
   172
1070
     1
1070
   173
1070
     1
1070
   340
1005
EF
1070
   271
1070
     2
1070
   272
1070
     2
1070
    77
1070
     1
1070
    73
1070
     0
1070
   171
1070
     3
1070
   274
1070
     4
1070
   177
1070
    35
1070
   176
1070
    35
1070
   178
1070
    35
1070
    48
1040
-0.005
1070
    41
1041
3.5
1070
   147
1041
1.75
1070
    42
1041
1.5875
1070
    44
1041
2.0
1070
   140
1041
3.5
1070
   343
1005
0
1070
   344
1005
0
1002
}
0
DIMENSION
5
123
100
AcDbEntity
8
SK2
62
256
6
ByLayer
370
13
48
1
60
0
100
AcDbDimension
2
DimnDraft3D5
10
37.31
20
-21.343428
30
0
11
-1.429324
21
-21.343428
31
0
70
32
71
5
72
1
41
1
210
0
220
0
230
1
3
Standard
100
AcDbAlignedDimension
13
-36
23
-4.5875
33
0
14
37.31
24
-3.6375
34
0
50
0
100
AcDbRotatedDimension
1001
ACAD
1000
DSTYLE
1002
{
1070
   279
1070
     0
1070
   172
1070
     1
1070
   173
1070
     1
1070
   340
1005
EF
1070
   271
1070
     2
1070
   272
1070
     2
1070
    77
1070
     1
1070
    73
1070
     0
1070
   171
1070
     3
1070
   274
1070
     4
1070
   177
1070
    35
1070
   176
1070
    35
1070
   178
1070
    35
1070
    48
1040
-0.005
1070
    41
1041
3.5
1070
   147
1041
1.75
1070
    42
1041
1.5875
1070
    44
1041
2.0
1070
   140
1041
3.5
1070
   343
1005
0
1070
   344
1005
0
1002
}
0
DIMENSION
5
12E
100
AcDbEntity
8
SK2
62
256
6
ByLayer
370
13
48
1
60
0
100
AcDbDimension
2
DimnDraft3D6
10
-46.625163
20
3
30
0
11
-47.250163
21
21.47418
31
0
70
33
71
5
72
1
41
1
210
0
220
0
230
1
3
Standard
100
AcDbAlignedDimension
13
-37.5875
23
-3
33
0
14
-37.5875
24
3
34
0
1001
ACAD
1000
DSTYLE
1002
{
1070
   279
1070
     0
1070
    74
1070
     0
1070
   173
1070
     1
1070
   340
1005
EF
1070
   271
1070
     3
1070
   272
1070
     2
1070
    77
1070
     1
1070
    73
1070
     0
1070
   171
1070
     3
1070
   274
1070
     4
1070
   177
1070
    35
1070
   176
1070
    35
1070
   178
1070
    35
1070
    48
1040
-0.005
1070
    41
1041
3.5
1070
   147
1041
1.75
1070
    42
1041
1.5875
1070
    44
1041
2.0
1070
   140
1041
3.5
1070
   343
1005
0
1070
   344
1005
0
1002
}
0
DIMENSION
5
139
100
AcDbEntity
8
2
62
256
6
ByLayer
370
13
48
1
60
0
100
AcDbDimension
2
DimnDraft3D7
10
52.083343
20
2.05
30
0
11
47.458343
21
19.117266
31
0
70
33
71
5
72
1
41
1
210
0
220
0
230
1
3
Standard
100
AcDbAlignedDimension
13
38.8975
23
-2.05
33
0
14
38.8975
24
2.05
34
0
1001
ACAD
1000
DSTYLE
1002
{
1070
   279
1070
     0
1070
    74
1070
     0
1070
   173
1070
     1
1070
   340
1005
EF
1070
   271
1070
     3
1070
   272
1070
     2
1070
    77
1070
     1
1070
    73
1070
     0
1070
   171
1070
     3
1070
   274
1070
     4
1070
   177
1070
    35
1070
   176
1070
    35
1070
   178
1070
    35
1070
    48
1040
-0.005
1070
    41
1041
3.5
1070
   147
1041
1.75
1070
    42
1041
1.5875
1070
    44
1041
2.0
1070
   140
1041
3.5
1070
   343
1005
0
1070
   344
1005
0
1002
}
0
ENDSEC
0
SECTION
2
OBJECTS
0
DICTIONARY
5
1a4
330
0
100
AcDbDictionary
280
0
281
1
3
ACAD_GROUP
350
1a5
3
ACAD_MLINESTYLE
350
1a6
0
DICTIONARY
5
1a5
330
0
100
AcDbDictionary
280
0
281
1
0
DICTIONARY
5
1a6
330
0
100
AcDbDictionary
280
0
281
1
3
Standard
350
18
0
MLINESTYLE
5
18
330
1a6
100
AcDbMlineStyle
2
Standard
70
0
3

62
256
51
90
52
90
71
2
49
-0.5
62
256
6
ByLayer
49
0.5
62
256
6
ByLayer
0
RASTERVARIABLES
5
192
330

100
AcDbRasterVariables
90
0
70
1
71
1
72
1
0
ENDSEC
0
EOF
