0
SECTION
2
HEADER
9
$ACADVER
1
AC1015
9
$DWGCODEPAGE
3
ANSI_1252
9
$HANDSEED
5
1a2
9
$ANGBASE
50
0
9
$ANGDIR
70
0
9
$ATTMODE
70
1
9
$AUNITS
70
0
9
$AUPREC
70
0
9
$CECOLOR
62
256
9
$CELTSCALE
40
1
9
$CELTYPE
6
ByLayer
9
$CELWEIGHT
370
18
9
$CLAYER
8
0
9
$CMLJUST
70
0
9
$CMLSCALE
40
1
9
$CMLSTYLE
2
Standard
9
$DIMSTYLE
2
Standard
9
$TEXTSIZE
40
0.2
9
$TEXTSTYLE
7
Standard
9
$LUNITS
70
2
9
$LUPREC
70
4
9
$EXTNAMES
290
1
9
$INSUNITS
70
4
9
$LTSCALE
40
1
9
$LWDISPLAY
290
1
9
$PDMODE
70
0
9
$PDSIZE
40
0
9
$PLINEGEN
70
0
0
ENDSEC
0
SECTION
2
CLASSES
0
CLASS
1
RASTERVARIABLES
2
AcDbRasterVariables
3
ISM
90
0
280
0
281
0
0
ENDSEC
0
SECTION
2
TABLES
0
TABLE
2
VPORT
5
198
100
AcDbSymbolTable
0
VPORT
5
1
100
AcDbSymbolTableRecord
100
AcDbViewportTableRecord
2
*Active
70
0
10
0
20
0
11
1
21
1
12
-1
22
1
13
0
23
0
14
0.5
24
0.5
15
10
25
10
16
0
26
0
36
1
17
0
27
0
37
0
0
ENDTAB
0
TABLE
2
LTYPE
5
199
100
AcDbSymbolTable
0
LTYPE
5
14
100
AcDbSymbolTableRecord
100
AcDbLinetypeTableRecord
70
0
2
ByBlock
3

72
65
73
0
40
0
0
LTYPE
5
15
100
AcDbSymbolTableRecord
100
AcDbLinetypeTableRecord
70
0
2
ByLayer
3

72
65
73
0
40
0
0
LTYPE
5
16
100
AcDbSymbolTableRecord
100
AcDbLinetypeTableRecord
70
0
2
CONTINUOUS
3
Solid line
72
65
73
0
40
0
0
LTYPE
5
6A
100
AcDbSymbolTableRecord
100
AcDbLinetypeTableRecord
70
0
2
CENTER
3
____ _ ____ _ ____ _ ____
72
65
73
4
40
47.5
49
22
74
0
49
-8.5
74
0
49
8.5
74
0
49
-8.5
74
0
0
LTYPE
5
6B
100
AcDbSymbolTableRecord
100
AcDbLinetypeTableRecord
70
0
2
DASHED
3
__ __ __ __ __ __ __ __ __
72
65
73
2
40
25.72
49
12.86
74
0
49
-12.86
74
0
0
ENDTAB
0
TABLE
2
LAYER
5
19a
100
AcDbSymbolTable
0
LAYER
5
10
100
AcDbSymbolTableRecord
100
AcDbLayerTableRecord
2
0
70
0
62
7
6
CONTINUOUS
290
1
370
-3
390
0
0
LAYER
5
6D
100
AcDbSymbolTableRecord
100
AcDbLayerTableRecord
2
81
70
0
62
-3
6
CONTINUOUS
290
1
370
-3
390
0
0
LAYER
5
6F
100
AcDbSymbolTableRecord
100
AcDbLayerTableRecord
2
80
70
0
62
-6
6
CONTINUOUS
290
1
370
-3
390
0
0
LAYER
5
74
100
AcDbSymbolTableRecord
100
AcDbLayerTableRecord
2
2
70
0
62
7
6
CONTINUOUS
290
1
370
-3
390
0
0
LAYER
5
78
100
AcDbSymbolTableRecord
100
AcDbLayerTableRecord
2
1
70
0
62
4
6
CONTINUOUS
290
1
370
-3
390
0
0
LAYER
5
86
100
AcDbSymbolTableRecord
100
AcDbLayerTableRecord
2
4
70
0
62
-2
6
CENTER
290
1
370
-3
390
0
0
LAYER
5
184
100
AcDbSymbolTableRecord
100
AcDbLayerTableRecord
2
SK2
70
0
62
7
6
CONTINUOUS
290
1
370
-3
390
0
0
LAYER
5
185
100
AcDbSymbolTableRecord
100
AcDbLayerTableRecord
2
SK1
70
0
62
4
6
CONTINUOUS
290
1
370
-3
390
0
0
LAYER
5
186
100
AcDbSymbolTableRecord
100
AcDbLayerTableRecord
2
SK4
70
0
62
2
6
CENTER
290
1
370
-3
390
0
0
LAYER
5
187
100
AcDbSymbolTableRecord
100
AcDbLayerTableRecord
2
SK6
70
0
62
5
6
CONTINUOUS
290
1
370
-3
390
0
0
ENDTAB
0
TABLE
2
STYLE
5
19b
100
AcDbSymbolTable
0
STYLE
5
11
100
AcDbSymbolTableRecord
100
AcDbTextStyleTableRecord
2
Standard
3
txt
70
0
71
0
40
0
41
1
42
0
50
0
0
STYLE
5
E0
100
AcDbSymbolTableRecord
100
AcDbTextStyleTableRecord
2
iso_b_vert
3
simplex.shx
70
0
71
0
40
0
41
1
42
0
50
0
0
STYLE
5
E1
100
AcDbSymbolTableRecord
100
AcDbTextStyleTableRecord
2
DWGDirectTextStyle
3
simplex
70
0
71
0
40
0
41
1
42
0
50
0
0
ENDTAB
0
TABLE
2
DIMSTYLE
5
19c
100
AcDbSymbolTable
100
AcDbDimStyleTable
0
DIMSTYLE
105
27
100
AcDbSymbolTableRecord
100
AcDbDimStyleTableRecord
2
Standard
70
0
3
<>
41
0.18
42
0.0625
44
0.18
140
0.18
147
0.09
73
0
74
0
77
1
271
2
275
0
278
52
280
0
340
11
0
ENDTAB
0
TABLE
2
VIEW
5
19d
100
AcDbSymbolTable
0
ENDTAB
0
TABLE
2
UCS
5
19e
100
AcDbSymbolTable
0
ENDTAB
0
TABLE
2
APPID
5
19f
100
AcDbSymbolTable
0
APPID
5
12
100
AcDbSymbolTableRecord
100
AcDbRegAppTableRecord
2
ACAD
70
0
0
ENDTAB
0
TABLE
2
BLOCK_RECORD
5
1a0
100
AcDbSymbolTable
0
BLOCK_RECORD
5
1F
100
AcDbSymbolTableRecord
100
AcDbBlockTableRecord
2
*Model_Space
340
0
70
0
0
BLOCK_RECORD
5
1B
100
AcDbSymbolTableRecord
100
AcDbBlockTableRecord
2
*Paper_Space
340
0
70
0
0
BLOCK_RECORD
5
23
100
AcDbSymbolTableRecord
100
AcDbBlockTableRecord
2
*Paper_Space0
340
0
70
0
0
BLOCK_RECORD
5
E3
100
AcDbSymbolTableRecord
100
AcDbBlockTableRecord
2
DimnDraft3D1
340
0
70
0
0
BLOCK_RECORD
5
ED
100
AcDbSymbolTableRecord
100
AcDbBlockTableRecord
2
DimnDraft3D2
340
0
70
0
0
BLOCK_RECORD
5
F7
100
AcDbSymbolTableRecord
100
AcDbBlockTableRecord
2
DimnDraft3D3
340
0
70
0
0
BLOCK_RECORD
5
101
100
AcDbSymbolTableRecord
100
AcDbBlockTableRecord
2
DimnDraft3D4
340
0
70
0
0
BLOCK_RECORD
5
10B
100
AcDbSymbolTableRecord
100
AcDbBlockTableRecord
2
DimnDraft3D5
340
0
70
0
0
BLOCK_RECORD
5
115
100
AcDbSymbolTableRecord
100
AcDbBlockTableRecord
2
DimnDraft3D6
340
0
70
0
0
BLOCK_RECORD
5
120
100
AcDbSymbolTableRecord
100
AcDbBlockTableRecord
2
DimnDraft3D7
340
0
70
0
0
ENDTAB
0
ENDSEC
0
SECTION
2
BLOCKS
0
BLOCK
5
20
100
AcDbEntity
8
0
100
AcDbBlockBegin
2
*Model_Space
70
0
10
0
20
0
30
0
3
*Model_Space
0
ENDBLK
5
21
100
AcDbEntity
8
0
100
AcDbBlockEnd
0
BLOCK
5
1C
100
AcDbEntity
8
0
100
AcDbBlockBegin
2
*Paper_Space
70
0
10
0
20
0
30
0
3
*Paper_Space
0
ENDBLK
5
1D
100
AcDbEntity
8
0
100
AcDbBlockEnd
0
BLOCK
5
24
100
AcDbEntity
8
0
100
AcDbBlockBegin
2
*Paper_Space0
70
0
10
0
20
0
30
0
3
*Paper_Space0
0
ENDBLK
5
25
100
AcDbEntity
8
0
100
AcDbBlockEnd
0
BLOCK
5
EA
100
AcDbEntity
8
0
100
AcDbBlockBegin
2
DimnDraft3D1
70
0
10
0
20
0
30
0
3
DimnDraft3D1
0
MTEXT
5
E4
100
AcDbEntity
8
SK2
62
256
6
ByLayer
370
13
48
1
60
0
100
AcDbMText
10
9.121375
20
-11.338398
30
0
210
0
220
0
230
1
1
\W0.7317;29,32
40
3.5
41
0
44
1.084337
50
0
71
7
72
5
7
iso_b_vert
0
LINE
5
E5
100
AcDbEntity
8
SK2
62
256
6
ByLayer
370
13
48
1
60
0
100
AcDbLine
10
0
20
-1.5875
30
0
11
0
21
-14.213398
31
0
39
0
210
0
220
0
230
1
0
LINE
5
E6
100
AcDbEntity
8
SK2
62
256
6
ByLayer
370
13
48
1
60
0
100
AcDbLine
10
29.32
20
-3.5875
30
0
11
29.32
21
-14.213398
31
0
39
0
210
0
220
0
230
1
0
LINE
5
E7
100
AcDbEntity
8
SK2
62
256
6
ByLayer
370
13
48
1
60
0
100
AcDbLine
10
0
20
-12.213398
30
0
11
29.32
21
-12.213398
31
0
39
0
210
0
220
0
230
1
0
SOLID
5
E8
100
AcDbEntity
8
SK2
62
256
6
ByLayer
370
13
48
1
60
0
100
AcDbTrace
10
0
20
-12.213398
30
0
11
3.499998
21
-11.752615
31
0
12
3.500002
22
-12.674182
32
0
13
0
23
-12.213398
33
0
39
0
210
0
220
0
230
1
0
SOLID
5
E9
100
AcDbEntity
8
SK2
62
256
6
ByLayer
370
13
48
1
60
0
100
AcDbTrace
10
29.32
20
-12.213398
30
0
11
25.820002
21
-12.674182
31
0
12
25.819998
22
-11.752615
32
0
13
29.32
23
-12.213398
33
0
39
0
210
0
220
0
230
1
0
ENDBLK
5
EB
100
AcDbEntity
8
0
100
AcDbBlockEnd
0
BLOCK
5
F4
100
AcDbEntity
8
0
100
AcDbBlockBegin
2
DimnDraft3D2
70
0
10
0
20
0
30
0
3
DimnDraft3D2
0
MTEXT
5
EE
100
AcDbEntity
8
SK2
62
256
6
ByLayer
370
13
48
1
60
0
100
AcDbMText
10
-6.787384
20
-30.817985
30
0
210
0
220
0
230
1
1
\W0.7317;66,00
40
3.5
41
0
44
1.084337
50
0
71
7
72
5
7
iso_b_vert
0
LINE
5
EF
100
AcDbEntity
8
SK2
62
256
6
ByLayer
370
13
48
1
60
0
100
AcDbLine
10
-36
20
-4.5875
30
0
11
-36
21
-33.692985
31
0
39
0
210
0
220
0
230
1
0
LINE
5
F0
100
AcDbEntity
8
SK2
62
256
6
ByLayer
370
13
48
1
60
0
100
AcDbLine
10
30
20
-1.5875
30
0
11
30
21
-33.692985
31
0
39
0
210
0
220
0
230
1
0
LINE
5
F1
100
AcDbEntity
8
SK2
62
256
6
ByLayer
370
13
48
1
60
0
100
AcDbLine
10
-36
20
-31.692985
30
0
11
30
21
-31.692985
31
0
39
0
210
0
220
0
230
1
0
SOLID
5
F2
100
AcDbEntity
8
SK2
62
256
6
ByLayer
370
13
48
1
60
0
100
AcDbTrace
10
-36
20
-31.692985
30
0
11
-32.500002
21
-31.232202
31
0
12
-32.499998
22
-32.153769
32
0
13
-36
23
-31.692985
33
0
39
0
210
0
220
0
230
1
0
SOLID
5
F3
100
AcDbEntity
8
SK2
62
256
6
ByLayer
370
13
48
1
60
0
100
AcDbTrace
10
30
20
-31.692985
30
0
11
26.500002
21
-32.153769
31
0
12
26.499998
22
-31.232202
32
0
13
30
23
-31.692985
33
0
39
0
210
0
220
0
230
1
0
ENDBLK
5
F5
100
AcDbEntity
8
0
100
AcDbBlockEnd
0
BLOCK
5
FE
100
AcDbEntity
8
0
100
AcDbBlockBegin
2
DimnDraft3D3
70
0
10
0
20
0
30
0
3
DimnDraft3D3
0
MTEXT
5
F8
100
AcDbEntity
8
SK2
62
256
6
ByLayer
370
13
48
1
60
0
100
AcDbMText
10
19.648816
20
14.484119
30
0
210
0
220
0
230
1
1
\W0.6713;12,68
40
3.5
41
0
44
1.084337
50
0
71
7
72
5
7
iso_b_vert
0
LINE
5
F9
100
AcDbEntity
8
SK2
62
256
6
ByLayer
370
13
48
1
60
0
100
AcDbLine
10
17.32
20
3.5875
30
0
11
17.32
21
15.609119
31
0
39
0
210
0
220
0
230
1
0
LINE
5
FA
100
AcDbEntity
8
SK2
62
256
6
ByLayer
370
13
48
1
60
0
100
AcDbLine
10
30
20
1.5875
30
0
11
30
21
15.609119
31
0
39
0
210
0
220
0
230
1
0
LINE
5
FB
100
AcDbEntity
8
SK2
62
256
6
ByLayer
370
13
48
1
60
0
100
AcDbLine
10
17.32
20
13.609119
30
0
11
30
21
13.609119
31
0
39
0
210
0
220
0
230
1
0
SOLID
5
FC
100
AcDbEntity
8
SK2
62
256
6
ByLayer
370
13
48
1
60
0
100
AcDbTrace
10
17.32
20
13.609119
30
0
11
20.819998
21
14.069903
31
0
12
20.820002
22
13.148335
32
0
13
17.32
23
13.609119
33
0
39
0
210
0
220
0
230
1
0
SOLID
5
FD
100
AcDbEntity
8
SK2
62
256
6
ByLayer
370
13
48
1
60
0
100
AcDbTrace
10
30
20
13.609119
30
0
11
26.500002
21
13.148335
31
0
12
26.499998
22
14.069903
32
0
13
30
23
13.609119
33
0
39
0
210
0
220
0
230
1
0
ENDBLK
5
FF
100
AcDbEntity
8
0
100
AcDbBlockEnd
0
BLOCK
5
108
100
AcDbEntity
8
0
100
AcDbBlockBegin
2
DimnDraft3D4
70
0
10
0
20
0
30
0
3
DimnDraft3D4
0
MTEXT
5
102
100
AcDbEntity
8
SK2
62
256
6
ByLayer
370
13
48
1
60
0
100
AcDbMText
10
36.840636
20
-13.927503
30
0
210
0
220
0
230
1
1
\W0.7150;0,68
40
3.5
41
0
44
1.084337
50
0
71
7
72
5
7
iso_b_vert
0
LINE
5
103
100
AcDbEntity
8
SK2
62
256
6
ByLayer
370
13
48
1
60
0
100
AcDbLine
10
30
20
-1.5875
30
0
11
30
21
-16.802503
31
0
39
0
210
0
220
0
230
1
0
LINE
5
104
100
AcDbEntity
8
SK2
62
256
6
ByLayer
370
13
48
1
60
0
100
AcDbLine
10
29.32
20
-3.5875
30
0
11
29.32
21
-16.802503
31
0
39
0
210
0
220
0
230
1
0
LINE
5
105
100
AcDbEntity
8
SK2
62
256
6
ByLayer
370
13
48
1
60
0
100
AcDbLine
10
20.57
20
-14.802503
30
0
11
43.997215
21
-14.802503
31
0
39
0
210
0
220
0
230
1
0
SOLID
5
106
100
AcDbEntity
8
SK2
62
256
6
ByLayer
370
13
48
1
60
0
100
AcDbTrace
10
30
20
-14.802503
30
0
11
33.499998
21
-14.341719
31
0
12
33.500002
22
-15.263287
32
0
13
30
23
-14.802503
33
0
39
0
210
0
220
0
230
1
0
SOLID
5
107
100
AcDbEntity
8
SK2
62
256
6
ByLayer
370
13
48
1
60
0
100
AcDbTrace
10
29.32
20
-14.802503
30
0
11
25.820002
21
-15.263287
31
0
12
25.819998
22
-14.341719
32
0
13
29.32
23
-14.802503
33
0
39
0
210
0
220
0
230
1
0
ENDBLK
5
109
100
AcDbEntity
8
0
100
AcDbBlockEnd
0
BLOCK
5
112
100
AcDbEntity
8
0
100
AcDbBlockBegin
2
DimnDraft3D5
70
0
10
0
20
0
30
0
3
DimnDraft3D5
0
MTEXT
5
10C
100
AcDbEntity
8
SK2
62
256
6
ByLayer
370
13
48
1
60
0
100
AcDbMText
10
-9.868008
20
-20.468428
30
0
210
0
220
0
230
1
1
\W0.7317;65,32
40
3.5
41
0
44
1.084337
50
0
71
7
72
5
7
iso_b_vert
0
LINE
5
10D
100
AcDbEntity
8
SK2
62
256
6
ByLayer
370
13
48
1
60
0
100
AcDbLine
10
-36
20
-4.5875
30
0
11
-36
21
-23.343428
31
0
39
0
210
0
220
0
230
1
0
LINE
5
10E
100
AcDbEntity
8
SK2
62
256
6
ByLayer
370
13
48
1
60
0
100
AcDbLine
10
29.32
20
-3.5875
30
0
11
29.32
21
-23.343428
31
0
39
0
210
0
220
0
230
1
0
LINE
5
10F
100
AcDbEntity
8
SK2
62
256
6
ByLayer
370
13
48
1
60
0
100
AcDbLine
10
-36
20
-21.343428
30
0
11
29.32
21
-21.343428
31
0
39
0
210
0
220
0
230
1
0
SOLID
5
110
100
AcDbEntity
8
SK2
62
256
6
ByLayer
370
13
48
1
60
0
100
AcDbTrace
10
-36
20
-21.343428
30
0
11
-32.500002
21
-20.882645
31
0
12
-32.499998
22
-21.804212
32
0
13
-36
23
-21.343428
33
0
39
0
210
0
220
0
230
1
0
SOLID
5
111
100
AcDbEntity
8
SK2
62
256
6
ByLayer
370
13
48
1
60
0
100
AcDbTrace
10
29.32
20
-21.343428
30
0
11
25.820002
21
-21.804212
31
0
12
25.819998
22
-20.882645
32
0
13
29.32
23
-21.343428
33
0
39
0
210
0
220
0
230
1
0
ENDBLK
5
113
100
AcDbEntity
8
0
100
AcDbBlockEnd
0
BLOCK
5
11D
100
AcDbEntity
8
0
100
AcDbBlockBegin
2
DimnDraft3D6
70
0
10
0
20
0
30
0
3
DimnDraft3D6
0
MTEXT
5
116
100
AcDbEntity
8
SK2
62
256
6
ByLayer
370
13
48
1
60
0
100
AcDbMText
10
-46.375163
20
22.34918
30
0
210
0
220
0
230
1
1
\W0.7317;6,000
40
3.5
41
0
44
1.084337
50
90
71
7
72
5
7
iso_b_vert
0
MTEXT
5
117
100
AcDbEntity
8
SK2
62
256
6
ByLayer
370
13
48
1
60
0
100
AcDbMText
10
-46.375163
20
17.126524
30
0
210
0
220
0
230
1
1
%%c
40
3.5
41
0
44
1.084337
50
90
71
7
72
5
7
iso_b_vert
0
LINE
5
118
100
AcDbEntity
8
SK2
62
256
6
ByLayer
370
13
48
1
60
0
100
AcDbLine
10
-37.5875
20
-3
30
0
11
-46.625163
21
-3
31
0
39
0
210
0
220
0
230
1
0
LINE
5
119
100
AcDbEntity
8
SK2
62
256
6
ByLayer
370
13
48
1
60
0
100
AcDbLine
10
-37.5875
20
3
30
0
11
-46.625163
21
3
31
0
39
0
210
0
220
0
230
1
0
LINE
5
11A
100
AcDbEntity
8
SK2
62
256
6
ByLayer
370
13
48
1
60
0
100
AcDbLine
10
-44.625163
20
32.121549
30
0
11
-44.625163
21
-11.75
31
0
39
0
210
0
220
0
230
1
0
SOLID
5
11B
100
AcDbEntity
8
SK2
62
256
6
ByLayer
370
13
48
1
60
0
100
AcDbTrace
10
-44.625163
20
-3
30
0
11
-44.164379
21
-6.499998
31
0
12
-45.085946
22
-6.500002
32
0
13
-44.625163
23
-3
33
0
39
0
210
0
220
0
230
1
0
SOLID
5
11C
100
AcDbEntity
8
SK2
62
256
6
ByLayer
370
13
48
1
60
0
100
AcDbTrace
10
-44.625163
20
3
30
0
11
-45.085946
21
6.499998
31
0
12
-44.164379
22
6.500002
32
0
13
-44.625163
23
3
33
0
39
0
210
0
220
0
230
1
0
ENDBLK
5
11E
100
AcDbEntity
8
0
100
AcDbBlockEnd
0
BLOCK
5
128
100
AcDbEntity
8
0
100
AcDbBlockBegin
2
DimnDraft3D7
70
0
10
0
20
0
30
0
3
DimnDraft3D7
0
MTEXT
5
121
100
AcDbEntity
8
2
62
256
6
ByLayer
370
13
48
1
60
0
100
AcDbMText
10
40.333343
20
19.942266
30
0
210
0
220
0
230
1
1
\W0.7581;4,000
40
3.5
41
0
44
1.084337
50
90
71
7
72
5
7
iso_b_vert
0
MTEXT
5
122
100
AcDbEntity
8
2
62
256
6
ByLayer
370
13
48
1
60
0
100
AcDbMText
10
40.333343
20
14.71961
30
0
210
0
220
0
230
1
1
%%c
40
3.5
41
0
44
1.084337
50
90
71
7
72
5
7
iso_b_vert
0
LINE
5
123
100
AcDbEntity
8
2
62
256
6
ByLayer
370
13
48
1
60
0
100
AcDbLine
10
30.9075
20
-2
30
0
11
44.083343
21
-2
31
0
39
0
210
0
220
0
230
1
0
LINE
5
124
100
AcDbEntity
8
2
62
256
6
ByLayer
370
13
48
1
60
0
100
AcDbLine
10
30.9075
20
2
30
0
11
44.083343
21
2
31
0
39
0
210
0
220
0
230
1
0
LINE
5
125
100
AcDbEntity
8
2
62
256
6
ByLayer
370
13
48
1
60
0
100
AcDbLine
10
42.083343
20
30.083056
30
0
11
42.083343
21
-10.75
31
0
39
0
210
0
220
0
230
1
0
SOLID
5
126
100
AcDbEntity
8
2
62
256
6
ByLayer
370
13
48
1
60
0
100
AcDbTrace
10
42.083343
20
-2
30
0
11
42.544126
21
-5.499998
31
0
12
41.622559
22
-5.500002
32
0
13
42.083343
23
-2
33
0
39
0
210
0
220
0
230
1
0
SOLID
5
127
100
AcDbEntity
8
2
62
256
6
ByLayer
370
13
48
1
60
0
100
AcDbTrace
10
42.083343
20
2
30
0
11
41.622559
21
5.499998
31
0
12
42.544126
22
5.500002
32
0
13
42.083343
23
2
33
0
39
0
210
0
220
0
230
1
0
ENDBLK
5
129
100
AcDbEntity
8
0
100
AcDbBlockEnd
0
ENDSEC
0
SECTION
2
ENTITIES
0
ARC
5
9C
100
AcDbEntity
8
1
62
256
6
ByLayer
370
18
48
1
60
0
100
AcDbCircle
39
0
10
0
20
2.2
30
0
40
0.8
210
0
220
0
230
1
100
AcDbArc
50
21.379582
51
90
0
ARC
5
9D
100
AcDbEntity
8
1
62
256
6
ByLayer
370
18
48
1
60
0
100
AcDbCircle
39
0
10
0
20
-2.2
30
0
40
0.8
210
0
220
0
230
1
100
AcDbArc
50
270
51
338.620418
0
ARC
5
9E
100
AcDbEntity
8
1
62
256
6
ByLayer
370
18
48
1
60
0
100
AcDbCircle
39
0
10
-1.489897
20
2.783272
30
0
40
0.8
210
0
220
0
230
-1
100
AcDbArc
50
269.965623
51
338.620418
0
ARC
5
9F
100
AcDbEntity
8
1
62
256
6
ByLayer
370
18
48
1
60
0
100
AcDbCircle
39
0
10
-1.489897
20
-2.783272
30
0
40
0.8
210
0
220
0
230
-1
100
AcDbArc
50
21.379582
51
90.034377
0
ELLIPSE
5
A0
100
AcDbEntity
8
1
62
256
6
ByLayer
370
18
48
1
60
0
100
AcDbEllipse
10
8.25
20
2.132544
30
0
11
0.25
21
0
31
0
210
0
220
0
230
1
40
1
41
-2.49521153983164
42
-1.96512751546425
0
ELLIPSE
5
A1
100
AcDbEntity
8
1
62
256
6
ByLayer
370
18
48
1
60
0
100
AcDbEllipse
10
8.25
20
-2.132544
30
0
11
0.25
21
0
31
0
210
0
220
0
230
1
40
1
41
1.57388942338372
42
2.49371719586017
0
ELLIPSE
5
A2
100
AcDbEntity
8
1
62
256
6
ByLayer
370
13
48
1
60
0
100
AcDbEllipse
10
29.633713
20
0.222451
30
0
11
0.15308208161242
21
0.258003636193772
31
0
210
0
220
0
230
1
40
0.454519
41
0.917105603404807
42
2.3133690050003
0
ELLIPSE
5
A3
100
AcDbEntity
8
1
62
256
6
ByLayer
370
18
48
1
60
0
100
AcDbEllipse
10
29.861013
20
0.087587
30
0
11
0.0727819104925063
21
0.301917195716975
31
0
210
0
220
0
230
-1
40
0.478434
41
1.67927895220755
42
2.45976119973025
0
ELLIPSE
5
A4
100
AcDbEntity
8
1
62
256
6
ByLayer
370
18
48
1
60
0
100
AcDbEllipse
10
30.059327
20
0.03008
30
0
11
0.135544944410841
21
0.427068210018759
31
0
210
0
220
0
230
-1
40
0.100282
41
-2.33653286889233
42
-1.72075171484689
0
ELLIPSE
5
A5
100
AcDbEntity
8
1
62
256
6
ByLayer
370
18
48
1
60
0
100
AcDbEllipse
10
30.000186
20
0.000437
30
0
11
0.741826405956665
21
1.9979887171665
31
0
210
0
220
0
230
-1
40
0.131755
41
2.83979248871909
42
2.9709638964497
0
ELLIPSE
5
A6
100
AcDbEntity
8
1
62
256
6
ByLayer
370
18
48
1
60
0
100
AcDbEllipse
10
30.000186
20
-0.000437
30
0
11
0.741826411184175
21
-1.99798873272721
31
0
210
0
220
0
230
-1
40
0.131755
41
-2.97096389712348
42
-2.83979248991209
0
ELLIPSE
5
A7
100
AcDbEntity
8
1
62
256
6
ByLayer
370
18
48
1
60
0
100
AcDbEllipse
10
30.059327
20
-0.03008
30
0
11
0.135544944307769
21
-0.427068209757382
31
0
210
0
220
0
230
-1
40
0.100282
41
1.72075171448057
42
2.33653286886348
0
ELLIPSE
5
A8
100
AcDbEntity
8
1
62
256
6
ByLayer
370
18
48
1
60
0
100
AcDbEllipse
10
29.591224
20
1.028553
30
0
11
0.311508220736847
21
-0.838996711498606
31
0
210
0
220
0
230
-1
40
0.131755
41
-1.47616234919683
42
-0.73651812802581
0
ELLIPSE
5
A9
100
AcDbEntity
8
1
62
256
6
ByLayer
370
18
48
1
60
0
100
AcDbEllipse
10
29.591224
20
-1.028553
30
0
11
0.311508220720281
21
0.83899671146423
31
0
210
0
220
0
230
-1
40
0.131755
41
0.736518128026243
42
1.47616234922488
0
ELLIPSE
5
AA
100
AcDbEntity
8
1
62
256
6
ByLayer
370
13
48
1
60
0
100
AcDbEllipse
10
29.946434
20
1.028553
30
0
11
1.37030922153802
21
-0.569042935208193
31
0
210
0
220
0
230
-1
40
0.450914
41
1.61192850069813
42
1.91514687393273
0
ELLIPSE
5
AB
100
AcDbEntity
8
1
62
256
6
ByLayer
370
13
48
1
60
0
100
AcDbEllipse
10
29.756527
20
0.905355
30
0
11
1.30855421011155
21
-0.900976784211658
31
0
210
0
220
0
230
-1
40
0.533762
41
1.44484622740096
42
1.72548998120443
0
POINT
5
6C
100
AcDbEntity
8
81
62
256
6
ByLayer
370
18
48
1
60
0
100
AcDbPoint
10
30
20
0
30
0
39
0
210
0
220
0
230
1
50
360
0
POINT
5
6E
100
AcDbEntity
8
80
62
256
6
ByLayer
370
18
48
1
60
0
100
AcDbPoint
10
0
20
0
30
0
39
0
210
0
220
0
230
1
50
360
0
POINT
5
70
100
AcDbEntity
8
SK2
62
256
6
ByLayer
370
18
48
1
60
1
100
AcDbPoint
10
-36
20
-3
30
0
39
0
210
0
220
0
230
1
50
360
0
POINT
5
72
100
AcDbEntity
8
SK2
62
256
6
ByLayer
370
18
48
1
60
1
100
AcDbPoint
10
-36
20
3
30
0
39
0
210
0
220
0
230
1
50
360
0
POINT
5
73
100
AcDbEntity
8
2
62
256
6
ByLayer
370
18
48
1
60
1
100
AcDbPoint
10
29.32
20
-2
30
0
39
0
210
0
220
0
230
1
50
360
0
POINT
5
75
100
AcDbEntity
8
2
62
256
6
ByLayer
370
18
48
1
60
1
100
AcDbPoint
10
29.32
20
2
30
0
39
0
210
0
220
0
230
1
50
360
0
SPLINE
5
AC
100
AcDbEntity
8
1
62
256
6
ByLayer
370
18
48
1
60
0
100
AcDbSpline
70
4
71
3
72
17
73
13
40
0
40
0
40
0
40
0
40
0.0981150937973085
40
0.193646102735422
40
0.265837903152299
40
0.33868327812233
40
0.413197233261675
40
0.488579445777889
40
0.600171686719398
40
0.698737222475484
40
0.830352326631844
40
1
40
1
40
1
40
1
41
1
10
8.2502215940124
20
-1.882377304796
30
0
41
1
10
8.39128644741561
20
-1.88248469473524
30
0
41
1
10
8.66969365745106
20
-1.88271268481816
30
0
41
1
10
9.05179089005361
20
-1.88252844334562
30
0
41
1
10
9.39768105813258
20
-1.88325481191052
30
0
41
1
10
9.71332914590943
20
-1.8832169810577
30
0
41
1
10
10.0335705745252
20
-1.88285690224012
30
0
41
1
10
10.4095128202844
20
-1.8826517993254
30
0
41
1
10
10.8200376005204
20
-1.88427154024123
30
0
41
1
10
11.3114090409812
20
-1.88344815082465
30
0
41
1
10
11.8862361820637
20
-1.88425386759158
30
0
41
1
10
12.3193644825888
20
-1.88418174665191
30
0
41
1
10
12.5632690621189
20
-1.88415943315408
30
0
0
SPLINE
5
AD
100
AcDbEntity
8
1
62
256
6
ByLayer
370
18
48
1
60
0
100
AcDbSpline
70
4
71
3
72
8
73
4
40
0
40
0
40
0
40
0
40
1
40
1
40
1
40
1
41
1
10
13.0531969745856
20
-0.503020199232168
30
0
41
1
10
13.0539656500163
20
-0.505120754650818
30
0
41
1
10
13.0622929929344
20
-0.51117536397237
30
0
41
1
10
13.0792917357318
20
-0.521128626823185
30
0
0
SPLINE
5
AE
100
AcDbEntity
8
1
62
256
6
ByLayer
370
18
48
1
60
0
100
AcDbSpline
70
4
71
3
72
8
73
4
40
0
40
0
40
0
40
0
40
1
40
1
40
1
40
1
41
1
10
23.9469828331019
20
-0.508027115719216
30
0
41
1
10
23.9470342459996
20
-0.509669625538436
30
0
41
1
10
23.9515028220506
20
-0.513375141856329
30
0
41
1
10
23.9610129586752
20
-0.519279243913701
30
0
0
SPLINE
5
AF
100
AcDbEntity
8
1
62
256
6
ByLayer
370
18
48
1
60
0
100
AcDbSpline
70
4
71
2
72
6
73
3
40
0
40
0
40
0
40
1
40
1
40
1
41
1
10
28.9345087350407
20
-1.8935138200417
30
0
41
1
10
29.1141004757417
20
-1.89363755579214
30
0
41
1
10
29.2939612318621
20
-1.89461568643105
30
0
0
SPLINE
5
B0
100
AcDbEntity
8
1
62
256
6
ByLayer
370
18
48
1
60
0
100
AcDbSpline
70
4
71
3
72
18
73
14
40
0
40
0
40
0
40
0
40
0.124277926308239
40
0.209484332352225
40
0.26426451999142
40
0.317957469587987
40
0.426265279411012
40
0.525812092578689
40
0.698689261253926
40
0.740611142256604
40
0.798658489686009
40
0.891514076256229
40
1
40
1
40
1
40
1
41
1
10
18.1807313885138
20
-1.88846477543436
30
0
41
1
10
18.3989106279138
20
-1.88824749796862
30
0
41
1
10
18.7666986881648
20
-1.88805470331181
30
0
41
1
10
19.2307236648403
20
-1.88934007475993
30
0
41
1
10
19.5708164231287
20
-1.88906630708848
30
0
41
1
10
19.9514725112157
20
-1.88821822288759
30
0
41
1
10
20.4107365664898
20
-1.88882199513796
30
0
41
1
10
21.0792832951935
20
-1.89064242327623
30
0
41
1
10
21.6312502383548
20
-1.88861636547588
30
0
41
1
10
22.1103584193927
20
-1.88857674251838
30
0
41
1
10
22.4489371470198
20
-1.89224838589382
30
0
41
1
10
22.9044055165746
20
-1.88932902062197
30
0
41
1
10
23.2579371563081
20
-1.89007624607788
30
0
41
1
10
23.4484245586052
20
-1.89033179852257
30
0
0
SPLINE
5
B1
100
AcDbEntity
8
1
62
256
6
ByLayer
370
18
48
1
60
0
100
AcDbSpline
70
4
71
3
72
17
73
13
40
0
40
0
40
0
40
0
40
0.124821531072007
40
0.231648459085674
40
0.310591125818902
40
0.39360919560155
40
0.479489864320154
40
0.565372157241866
40
0.6477766373819
40
0.72808703812809
40
0.850629516043872
40
1
40
1
40
1
40
1
41
1
10
12.561230005827
20
1.8842197735743
30
0
41
1
10
12.3818992728278
20
1.88452242749796
30
0
41
1
10
12.0490829514279
20
1.88485790249399
30
0
41
1
10
11.6026299928735
20
1.88334992311701
30
0
41
1
10
11.2165517859472
20
1.88375353911459
30
0
41
1
10
10.8603500137562
20
1.88414897154271
30
0
41
1
10
10.4942009389245
20
1.88295077253556
30
0
41
1
10
10.1289238910431
20
1.88270744243442
30
0
41
1
10
9.77166300871488
20
1.88319271119593
30
0
41
1
10
9.36168261406166
20
1.88325940830163
30
0
41
1
10
8.85569767502776
20
1.88235546699852
30
0
41
1
10
8.46489591877881
20
1.88232093389212
30
0
41
1
10
8.25020062873486
20
1.88234426137183
30
0
0
SPLINE
5
B2
100
AcDbEntity
8
1
62
256
6
ByLayer
370
18
48
1
60
0
100
AcDbSpline
70
4
71
3
72
19
73
15
40
0
40
0
40
0
40
0
40
0.143431835101502
40
0.252443586068493
40
0.343536201650285
40
0.425926788813774
40
0.505529283760541
40
0.586821782077876
40
0.650736703300568
40
0.718971896818239
40
0.79024848908449
40
0.858215718839446
40
0.928912852953226
40
1
40
1
40
1
40
1
41
1
10
23.4510524131584
20
1.89036237711062
30
0
41
1
10
23.2375358712946
20
1.89029247897076
30
0
41
1
10
22.8617403702996
20
1.88986660573326
30
0
41
1
10
22.3503421652769
20
1.89155655304404
30
0
41
1
10
21.9298051474008
20
1.88795279678101
30
0
41
1
10
21.5530476358293
20
1.88902831989063
30
0
41
1
10
21.1908766823741
20
1.88999953535591
30
0
41
1
10
20.8562112099043
20
1.88977349030111
30
0
41
1
10
20.5384686984647
20
1.88904832947998
30
0
41
1
10
20.2356364514726
20
1.88869904521249
30
0
41
1
10
19.9267695269291
20
1.88827902602321
30
0
41
1
10
19.6142369010437
20
1.88899761872256
30
0
41
1
10
19.3019932551767
20
1.88933353377266
30
0
41
1
10
19.0909267420197
20
1.88890626597566
30
0
41
1
10
18.9851063399925
20
1.88870496349656
30
0
0
SPLINE
5
B3
100
AcDbEntity
8
1
62
256
6
ByLayer
370
18
48
1
60
0
100
AcDbSpline
70
4
71
1
72
4
73
2
40
0
40
0
40
1
40
1
41
1
10
18.0806351455457
20
-0.0414294263058252
30
0
41
1
10
18.1337458084831
20
-0.0684847984865371
30
0
0
SPLINE
5
B4
100
AcDbEntity
8
1
62
256
6
ByLayer
370
18
48
1
60
0
100
AcDbSpline
70
4
71
3
72
28
73
24
40
0
40
0
40
0
40
0
40
0.103809988014438
40
0.103809988014438
40
0.207619976028876
40
0.207619976028876
40
0.311429964043313
40
0.311429964043313
40
0.415239952057751
40
0.415239952057751
40
0.519049940072189
40
0.519049940072189
40
0.622859928086627
40
0.622859928086627
40
0.726669916101064
40
0.726669916101064
40
0.830479904115502
40
0.830479904115502
40
0.882384898122723
40
0.882384898122723
40
0.934289892129943
40
0.934289892129943
40
1
40
1
40
1
40
1
41
1
10
9.4974147734122
20
-1.19208501968578
30
0
41
1
10
9.68704857219433
20
-1.27214294171594
30
0
41
1
10
9.87635569261067
20
-1.34576869522718
30
0
41
1
10
10.2544438718871
20
-1.48128551162878
30
0
41
1
10
10.4434018926974
20
-1.54312051156734
30
0
41
1
10
10.8226515369584
20
-1.65313682002466
30
0
41
1
10
11.0118141999093
20
-1.70059485678411
30
0
41
1
10
11.3897893048404
20
-1.77903871998214
30
0
41
1
10
11.5788893795989
20
-1.81041627047168
30
0
41
1
10
11.9573444412835
20
-1.85825443089453
30
0
41
1
10
12.147040797953
20
-1.8739454704492
30
0
41
1
10
12.5249450647085
20
-1.88705585252256
30
0
41
1
10
12.7136008471835
20
-1.88494628402066
30
0
41
1
10
13.0921745186267
20
-1.8657400428271
30
0
41
1
10
13.2815915524259
20
-1.84881260441847
30
0
41
1
10
13.6593260949022
20
-1.79581067738684
30
0
41
1
10
13.8480813792855
20
-1.76034476182031
30
0
41
1
10
14.1314527013876
20
-1.69617483531999
30
0
41
1
10
14.2260134858382
20
-1.67292206160118
30
0
41
1
10
14.4154223727026
20
-1.6235494765285
30
0
41
1
10
14.5100579552866
20
-1.59763094683811
30
0
41
1
10
14.7240766555401
20
-1.5333901125741
30
0
41
1
10
14.843428049645
20
-1.49431560849666
30
0
41
1
10
14.9628474604821
20
-1.45269769635115
30
0
0
SPLINE
5
B5
100
AcDbEntity
8
1
62
256
6
ByLayer
370
18
48
1
60
0
100
AcDbSpline
70
4
71
3
72
22
73
18
40
0
40
0
40
0
40
0
40
0.0512981797303251
40
0.0512981797303251
40
0.186827011197423
40
0.186827011197423
40
0.32235584266452
40
0.32235584266452
40
0.457884674131618
40
0.457884674131618
40
0.593413505598715
40
0.593413505598715
40
0.728942337065813
40
0.728942337065813
40
0.864471168532906
40
0.864471168532906
40
1
40
1
40
1
40
1
41
1
10
23.4542677793647
20
1.88982181473438
30
0
41
1
10
23.5257136601902
20
1.89014527073931
30
0
41
1
10
23.5972243170306
20
1.88948044792474
30
0
41
1
10
23.8579618316345
20
1.88174389588602
30
0
41
1
10
24.046439945987
20
1.8662111557216
30
0
41
1
10
24.4234850752567
20
1.81970780578399
30
0
41
1
10
24.6120652423442
20
1.78801583693593
30
0
41
1
10
24.9897383088822
20
1.71057444939999
30
0
41
1
10
25.1786369217012
20
1.66377648115306
30
0
41
1
10
25.5555087225379
20
1.55534938415909
30
0
41
1
10
25.7436962954536
20
1.49375844211602
30
0
41
1
10
26.121439192564
20
1.35940816292609
30
0
41
1
10
26.3101520955203
20
1.28591416818858
30
0
41
1
10
26.6866922799458
20
1.12678210632859
30
0
41
1
10
26.8751274004726
20
1.04230405512197
30
0
41
1
10
27.252143492552
20
0.86411534201423
30
0
41
1
10
27.441178113351
20
0.771558830300933
30
0
41
1
10
27.6294705410093
20
0.675680165666137
30
0
0
SPLINE
5
B6
100
AcDbEntity
8
1
62
256
6
ByLayer
370
18
48
1
60
0
100
AcDbSpline
70
4
71
3
72
22
73
18
40
0
40
0
40
0
40
0
40
0.0307868001069143
40
0.0307868001069143
40
0.143722388725946
40
0.143722388725946
40
0.36959356596401
40
0.36959356596401
40
0.48252915458304
40
0.48252915458304
40
0.595464743202071
40
0.595464743202071
40
0.821335920440134
40
0.821335920440134
40
0.934271509059165
40
0.934271509059165
40
1
40
1
40
1
40
1
41
1
10
10.0013983262543
20
1.33583015117245
30
0
41
1
10
10.0617799170879
20
1.31033013575558
30
0
41
1
10
10.1222230990758
20
1.28419268990012
30
0
41
1
10
10.4041734502776
20
1.15957502986836
30
0
41
1
10
10.6241412096622
20
1.05480225987898
30
0
41
1
10
11.2820029596651
20
0.724258188088328
30
0
41
1
10
11.7176911664068
20
0.48220709005372
30
0
41
1
10
12.3789820582794
20
0.106622843893064
30
0
41
1
10
12.6015189089548
20
-0.0212762090500576
30
0
41
1
10
13.0422285696738
20
-0.273081323689553
30
0
41
1
10
13.261315735415
20
-0.397394916765961
30
0
41
1
10
13.9178968734153
20
-0.76025262205971
30
0
41
1
10
14.3543578931719
20
-0.989493212451464
30
0
41
1
10
15.0191264073522
20
-1.29390221532572
30
0
41
1
10
15.2402069923776
20
-1.38780800320328
30
0
41
1
10
15.5882263019329
20
-1.52160667237126
30
0
41
1
10
15.7160595371315
20
-1.56776161705483
30
0
41
1
10
15.8438754038848
20
-1.6106419477303
30
0
0
SPLINE
5
B7
100
AcDbEntity
8
1
62
256
6
ByLayer
370
13
48
1
60
0
100
AcDbSpline
70
4
71
3
72
16
73
12
40
0
40
0
40
0
40
0
40
0.0860293520124949
40
0.0860293520124949
40
0.291841104607617
40
0.291841104607617
40
0.49765285720274
40
0.49765285720274
40
0.90927636239298
40
0.90927636239298
40
1
40
1
40
1
40
1
41
1
10
15.8438754038858
20
-1.61064194773059
30
0
41
1
10
15.9356745007501
20
-1.64143918542294
30
0
41
1
10
16.0274646384353
20
-1.67054727632009
30
0
41
1
10
16.3390463442011
20
-1.76330216917654
30
0
41
1
10
16.5591472594622
20
-1.81856532952287
30
0
41
1
10
17.0023086449853
20
-1.90665784195622
30
0
41
1
10
17.2234864916355
20
-1.93920583204772
30
0
41
1
10
17.8831763722333
20
-2.00092747609688
30
0
41
1
10
18.3209927699839
20
-1.99446425480497
30
0
41
1
10
18.8611969492843
20
-1.9275064642992
30
0
41
1
10
18.9587934160008
20
-1.91311549235934
30
0
41
1
10
19.0563415417458
20
-1.89649679683799
30
0
0
SPLINE
5
B8
100
AcDbEntity
8
1
62
256
6
ByLayer
370
18
48
1
60
0
100
AcDbSpline
70
4
71
3
72
30
73
26
40
0
40
0
40
0
40
0
40
0.0940419479882503
40
0.0940419479882503
40
0.188083895976501
40
0.188083895976501
40
0.282125843964751
40
0.282125843964751
40
0.376167791953001
40
0.376167791953001
40
0.423188765947128
40
0.423188765947128
40
0.470209739941254
40
0.470209739941254
40
0.564251687929507
40
0.564251687929507
40
0.65829363591776
40
0.65829363591776
40
0.752335583906013
40
0.752335583906013
40
0.846377531894266
40
0.846377531894266
40
0.940419479882519
40
0.940419479882519
40
1
40
1
40
1
40
1
41
1
10
11.7436869300776
20
0.23880117854776
30
0
41
1
10
11.9286847579273
20
0.132434817233531
30
0
41
1
10
12.1133191697201
20
0.0271783319958843
30
0
41
1
10
12.4807744260497
20
-0.183276222833825
30
0
41
1
10
12.663442176967
20
-0.288706317882827
30
0
41
1
10
13.0299173675224
20
-0.494265557357806
30
0
41
1
10
13.2128325270076
20
-0.595958457857591
30
0
41
1
10
13.579822581778
20
-0.794007710485005
30
0
41
1
10
13.7644161927481
20
-0.889519757825127
30
0
41
1
10
14.0421697552911
20
-1.02874135557428
30
0
41
1
10
14.1344743145751
20
-1.07422932067809
30
0
41
1
10
14.3188966935888
20
-1.16191968356463
30
0
41
1
10
14.4110013009548
20
-1.20430758166958
30
0
41
1
10
14.6867236470946
20
-1.32758465270118
30
0
41
1
10
14.8693721872514
20
-1.40501661599629
30
0
41
1
10
15.235592822525
20
-1.54623842178478
30
0
41
1
10
15.4188721644093
20
-1.61050227388458
30
0
41
1
10
15.7854318704023
20
-1.72638536660557
30
0
41
1
10
15.9698660306937
20
-1.77689486314588
30
0
41
1
10
16.3402325597376
20
-1.86357217005482
30
0
41
1
10
16.5244405697209
20
-1.899127842843
30
0
41
1
10
16.8918848018637
20
-1.95315332570837
30
0
41
1
10
17.0745466962049
20
-1.9721379940863
30
0
41
1
10
17.3729294904778
20
-1.98948812240189
30
0
41
1
10
17.4888066862508
20
-1.99289228153569
30
0
41
1
10
17.6047036251086
20
-1.99295706583641
30
0
0
SPLINE
5
B9
100
AcDbEntity
8
1
62
256
6
ByLayer
370
18
48
1
60
0
100
AcDbSpline
70
4
71
3
72
20
73
16
40
0
40
0
40
0
40
0
40
0.0571966518076496
40
0.0571966518076496
40
0.214330543173044
40
0.214330543173044
40
0.371464434538442
40
0.371464434538442
40
0.528598325903831
40
0.528598325903831
40
0.685732217269221
40
0.685732217269221
40
0.84286610863461
40
0.84286610863461
40
1
40
1
40
1
40
1
41
1
10
25.8665252833539
20
1.45140560360909
30
0
41
1
10
25.933663606541
20
1.47795853191667
30
0
41
1
10
26.0007063759194
20
1.50360104048372
30
0
41
1
10
26.2514261688241
20
1.59652029049499
30
0
41
1
10
26.43386200546
20
1.65854295797027
30
0
41
1
10
26.7994351271878
20
1.76702769517394
30
0
41
1
10
26.9820033506909
20
1.81412990769371
30
0
41
1
10
27.3472358421992
20
1.89337905862487
30
0
41
1
10
27.5306884752232
20
1.9250444787024
30
0
41
1
10
27.8988242153946
20
1.97252883211337
30
0
41
1
10
28.0840679542371
20
1.98820083199217
30
0
41
1
10
28.4530794221737
20
2.00212147367029
30
0
41
1
10
28.6364195468593
20
2.00063240880343
30
0
41
1
10
29.0030619982346
20
1.98086097435259
30
0
41
1
10
29.1867213143907
20
1.9627979880282
30
0
41
1
10
29.3701348277643
20
1.93630076839068
30
0
0
SPLINE
5
BA
100
AcDbEntity
8
1
62
256
6
ByLayer
370
18
48
1
60
0
100
AcDbSpline
70
4
71
3
72
67
73
63
40
0
40
0
40
0
40
0
40
0.0721290757008295
40
0.0721290757008295
40
0.153761257322648
40
0.153761257322648
40
0.194577348133557
40
0.194577348133557
40
0.235393438944466
40
0.235393438944466
40
0.317025620566285
40
0.317025620566285
40
0.398657802188103
40
0.398657802188103
40
0.439473892999012
40
0.439473892999012
40
0.459881938404467
40
0.459881938404467
40
0.470085961107194
40
0.470085961107194
40
0.471361463945035
40
0.471680339654496
40
0.471680339654496
40
0.471999215363956
40
0.471999215363956
40
0.472636966782876
40
0.472636966782876
40
0.475187972458558
40
0.475187972458558
40
0.480289983809923
40
0.480289983809923
40
0.521106074620836
40
0.521106074620836
40
0.561922165431749
40
0.561922165431749
40
0.643554347053575
40
0.643554347053575
40
0.725186528675401
40
0.725186528675401
40
0.745594574080858
40
0.745594574080858
40
0.750696585432222
40
0.750696585432222
40
0.751972088270063
40
0.751972088270063
40
0.752609839688983
40
0.752609839688983
40
0.753247591107904
40
0.755798596783586
40
0.766002619486314
40
0.766002619486314
40
0.806818710297228
40
0.806818710297228
40
0.847634801108142
40
0.847634801108142
40
0.888450891919056
40
0.888450891919056
40
0.92926698272997
40
0.92926698272997
40
0.970083073540883
40
0.970083073540883
40
1
40
1
40
1
40
1
41
1
10
11.7436577880457
20
0.238944041937458
30
0
41
1
10
11.6118066537051
20
0.300504125566789
30
0
41
1
10
11.4790370327169
20
0.357436294376129
30
0
41
1
10
11.1990257196488
20
0.460668920576182
30
0
41
1
10
11.0518034932135
20
0.504789207123508
30
0
41
1
10
10.8307740236877
20
0.548795798597183
30
0
41
1
10
10.7570435197399
20
0.559766894373183
30
0
41
1
10
10.6088235673532
20
0.573358789878654
30
0
41
1
10
10.535123985138
20
0.575868311681006
30
0
41
1
10
10.316716941014
20
0.570529660816106
30
0
41
1
10
10.17357703429
20
0.549895867153992
30
0
41
1
10
9.8856570545793
20
0.477502732014102
30
0
41
1
10
9.74011845063961
20
0.425294618485708
30
0
41
1
10
9.52269853595186
20
0.329730233251638
30
0
41
1
10
9.45000093447175
20
0.294889408769848
30
0
41
1
10
9.34093295454792
20
0.239140171406944
30
0
41
1
10
9.30456906076984
20
0.219975576805837
30
0
41
1
10
9.24995527991916
20
0.190434931848586
30
0
41
1
10
9.23174875224638
20
0.18046077110921
30
0
41
1
10
9.2112612891172
20
0.16910537563237
30
0
41
1
10
9.20841573945995
20
0.167525913900448
30
0
41
1
10
9.20557011568962
20
0.16594358238379
30
0
41
1
10
9.20443185925876
20
0.165310420203497
30
0
41
1
10
9.20368445647665
20
0.164932902902478
30
0
41
1
10
9.20443769045355
20
0.163149510911012
30
0
41
1
10
9.20550796249577
20
0.162261332856275
30
0
41
1
10
9.21025032182666
20
0.157720723281699
30
0
41
1
10
9.21447832255251
20
0.154527489651429
30
0
41
1
10
9.2270590151937
20
0.144922662612459
30
0
41
1
10
9.23565204879029
20
0.138768784640263
30
0
41
1
10
9.31327555332422
20
0.083821053450265
30
0
41
1
10
9.3842626845402
20
0.0376632830096639
30
0
41
1
10
9.52578996509371
20
-0.0552262206178966
30
0
41
1
10
9.59678989084699
20
-0.101351087277607
30
0
41
1
10
9.81007641030931
20
-0.239374312571584
30
0
41
1
10
9.95250154256297
20
-0.331153656689025
30
0
41
1
10
10.2372063907956
20
-0.515127671836439
30
0
41
1
10
10.3795281392165
20
-0.607231033569633
30
0
41
1
10
10.5557305088507
20
-0.725227223604975
30
0
41
1
10
10.5909712969749
20
-0.748839145056877
30
0
41
1
10
10.6341477341389
20
-0.779673443334985
30
0
41
1
10
10.6427928140321
20
-0.785851436174028
30
0
41
1
10
10.6531242364306
20
-0.794187120297551
30
0
41
1
10
10.6551937326543
20
-0.7958666731287
30
0
41
1
10
10.657993956979
20
-0.798691658273611
30
0
41
1
10
10.6590769478527
20
-0.800009897156372
30
0
41
1
10
10.6571574191817
20
-0.801503967890568
30
0
41
1
10
10.6523587135902
20
-0.805235839572987
30
0
41
1
10
10.6322067675869
20
-0.820839792024856
30
0
41
1
10
10.6130220076787
20
-0.835430713232427
30
0
41
1
10
10.5363223093615
20
-0.892847131886953
30
0
41
1
10
10.4749959720783
20
-0.935815017389046
30
0
41
1
10
10.3527264367218
20
-1.01370418888408
30
0
41
1
10
10.2916140907773
20
-1.04876681958453
30
0
41
1
10
10.1678999478472
20
-1.10983579527013
30
0
41
1
10
10.1049088452038
20
-1.13593507671789
30
0
41
1
10
9.97813747819049
20
-1.17662313858867
30
0
41
1
10
9.91424263382109
20
-1.1913241758775
30
0
41
1
10
9.78371671219838
20
-1.20882670184707
30
0
41
1
10
9.71664689495722
20
-1.21158822937792
30
0
41
1
10
9.59840343808173
20
-1.20595608721652
30
0
41
1
10
9.54810452751806
20
-1.20040872678257
30
0
41
1
10
9.49741027793709
20
-1.19208428149602
30
0
0
SPLINE
5
BB
100
AcDbEntity
8
1
62
256
6
ByLayer
370
18
48
1
60
0
100
AcDbSpline
70
4
71
3
72
52
73
48
40
0
40
0
40
0
40
0
40
0.124999999999999
40
0.124999999999999
40
0.249999999999999
40
0.249999999999999
40
0.374999999999998
40
0.374999999999998
40
0.437499999999998
40
0.437499999999998
40
0.499999999999998
40
0.499999999999998
40
0.562499999999997
40
0.562499999999997
40
0.578124999999998
40
0.578124999999998
40
0.582031249999998
40
0.582031249999998
40
0.585937499999998
40
0.585937499999998
40
0.593749999999997
40
0.593749999999997
40
0.624999999999997
40
0.624999999999997
40
0.656249999999997
40
0.656249999999997
40
0.671874999999997
40
0.671874999999997
40
0.687499999999997
40
0.687499999999997
40
0.703124999999996
40
0.703124999999996
40
0.718749999999996
40
0.718749999999996
40
0.734374999999996
40
0.734374999999996
40
0.749999999999996
40
0.749999999999996
40
0.781249999999997
40
0.781249999999997
40
0.812499999999999
40
0.812499999999999
40
0.874999999999999
40
0.874999999999999
40
0.9375
40
0.9375
40
1
40
1
40
1
40
1
41
1
10
11.7436869300764
20
0.238801178548414
30
0
41
1
10
11.4015696377986
20
0.434421491665574
30
0
41
1
10
11.0537267902169
20
0.618760741623589
30
0
41
1
10
10.3556323267909
20
0.947323413446156
30
0
41
1
10
10.0037585660202
20
1.09206311015691
30
0
41
1
10
9.28569556067407
20
1.33532117406995
30
0
41
1
10
8.91940312941711
20
1.43372273035391
30
0
41
1
10
8.35451274086643
20
1.54793957298926
30
0
41
1
10
8.16410584815122
20
1.58042240734022
30
0
41
1
10
7.78143390792971
20
1.63508027890327
30
0
41
1
10
7.58878065004981
20
1.65735198588712
30
0
41
1
10
7.20062281015532
20
1.6931575810996
30
0
41
1
10
7.00488122293325
20
1.70671588078079
30
0
41
1
10
6.75905537052503
20
1.71874690777369
30
0
41
1
10
6.70984588761374
20
1.72090555045659
30
0
41
1
10
6.64827778094113
20
1.72329987615811
30
0
41
1
10
6.63592773293743
20
1.72400015686287
30
0
41
1
10
6.61150808765927
20
1.72336416567481
30
0
41
1
10
6.59919319303901
20
1.72200078383537
30
0
41
1
10
6.56648655780526
20
1.71398238395736
30
0
41
1
10
6.54485709309816
20
1.7083876008063
30
0
41
1
10
6.43768395792563
20
1.67898687875152
30
0
41
1
10
6.35558298319057
20
1.65128642571952
30
0
41
1
10
6.20512716515907
20
1.5811532025435
30
0
41
1
10
6.13568095284137
20
1.53807197949075
30
0
41
1
10
6.05859394937997
20
1.45570186908776
30
0
41
1
10
6.03757590045913
20
1.42512559554706
30
0
41
1
10
6.00892304395106
20
1.35963076857391
30
0
41
1
10
6.00096010242984
20
1.32362984931169
30
0
41
1
10
5.9992113078373
20
1.2496890774772
30
0
41
1
10
6.00517855637275
20
1.21158115276717
30
0
41
1
10
6.02810853118172
20
1.13504909725702
30
0
41
1
10
6.0446736645836
20
1.09746677629607
30
0
41
1
10
6.08506054534104
20
1.02311087068421
30
0
41
1
10
6.10908439766774
20
0.986148996654237
30
0
41
1
10
6.16125888386406
20
0.91458529321082
30
0
41
1
10
6.1895205690665
20
0.879747432294209
30
0
41
1
10
6.27904888131675
20
0.777176929120742
30
0
41
1
10
6.34542534412637
20
0.710943799561903
30
0
41
1
10
6.48349513522069
20
0.583422319979746
30
0
41
1
10
6.55511548464995
20
0.522203901253761
30
0
41
1
10
6.7749388204511
20
0.343217599398656
30
0
41
1
10
6.92799751190117
20
0.230006331289474
30
0
41
1
10
7.2413849934529
20
0.0097196277188232
30
0
41
1
10
7.40218138101369
20
-0.0973764264652175
30
0
41
1
10
7.7234789730571
20
-0.303377550886751
30
0
41
1
10
7.88479355195278
20
-0.402801857018744
30
0
41
1
10
8.04671850502248
20
-0.499026755466332
30
0
0
SPLINE
5
BC
100
AcDbEntity
8
1
62
256
6
ByLayer
370
18
48
1
60
0
100
AcDbSpline
70
4
71
3
72
10
73
6
40
0
40
0
40
0
40
0
40
0.5
40
0.5
40
1
40
1
40
1
40
1
41
1
10
8.12013772700178
20
1.90565122073272
30
0
41
1
10
8.09949449074634
20
1.90954212304064
30
0
41
1
10
8.08164005946668
20
1.9143304352742
30
0
41
1
10
8.05509967388284
20
1.92505104746274
30
0
41
1
10
8.04656886322334
20
1.93091569293591
30
0
41
1
10
8.0465714147393
20
1.93651563905729
30
0
0
SPLINE
5
BD
100
AcDbEntity
8
1
62
256
6
ByLayer
370
18
48
1
60
0
100
AcDbSpline
70
4
71
3
72
12
73
8
40
0
40
0
40
0
40
0
40
0.250000000000016
40
0.250000000000016
40
0.500000000000032
40
0.500000000000032
40
1
40
1
40
1
40
1
41
1
10
8.250288324721
20
-0.568020239014288
30
0
41
1
10
8.23160233567339
20
-0.55730785813455
30
0
41
1
10
8.21300836460819
20
-0.54764127534375
30
0
41
1
10
8.17604554691479
20
-0.530470023106233
30
0
41
1
10
8.15745090603423
20
-0.522893626717661
30
0
41
1
10
8.10422887627078
20
-0.504628886224481
30
0
41
1
10
8.07133172556777
20
-0.49823440755199
30
0
41
1
10
8.04671850521521
20
-0.499026755580871
30
0
0
SPLINE
5
BE
100
AcDbEntity
8
1
62
256
6
ByLayer
370
18
48
1
60
0
100
AcDbSpline
70
4
71
3
72
62
73
58
40
0
40
0
40
0
40
0
40
0.0057441898614505
40
0.0057441898614505
40
0.0464837937603681
40
0.0464837937603681
40
0.0872233976592857
40
0.0872233976592857
40
0.127963001558203
40
0.127963001558203
40
0.168702605457121
40
0.168702605457121
40
0.209442209356039
40
0.209442209356039
40
0.250181813254956
40
0.250181813254956
40
0.290921417153874
40
0.290921417153874
40
0.331661021052791
40
0.331661021052791
40
0.372400624951709
40
0.372400624951709
40
0.413140228850627
40
0.413140228850627
40
0.433510030800086
40
0.433510030800086
40
0.453879832749545
40
0.453879832749545
40
0.494619436648465
40
0.494619436648465
40
0.535359040547385
40
0.535359040547385
40
0.576098644446305
40
0.576098644446305
40
0.616838248345225
40
0.616838248345225
40
0.657577852244145
40
0.657577852244145
40
0.698317456143065
40
0.698317456143065
40
0.739057060041985
40
0.739057060041985
40
0.779796663940905
40
0.779796663940905
40
0.800166465890364
40
0.800166465890364
40
0.820536267839824
40
0.820536267839824
40
0.861275871738744
40
0.861275871738744
40
0.902015475637664
40
0.902015475637664
40
0.942755079536582
40
0.942755079536582
40
0.983494683435499
40
0.983494683435499
40
1
40
1
40
1
40
1
41
1
10
14.9750510890001
20
1.44535857972832
30
0
41
1
10
15.0008554231972
20
1.45557996606996
30
0
41
1
10
15.0266643738943
20
1.46567154500522
30
0
41
1
10
15.2355928225248
20
1.54623842178469
30
0
41
1
10
15.4188721644091
20
1.61050227388449
30
0
41
1
10
15.785431870402
20
1.72638536660546
30
0
41
1
10
15.9698660306932
20
1.77689486314577
30
0
41
1
10
16.3402325597369
20
1.86357217005468
30
0
41
1
10
16.5244405697205
20
1.89912784284294
30
0
41
1
10
16.8918848018634
20
1.95315332570834
30
0
41
1
10
17.0745466962047
20
1.9721379940863
30
0
41
1
10
17.4398643423226
20
1.99338019758378
30
0
41
1
10
17.6229049013062
20
1.99571789259556
30
0
41
1
10
17.9886996998239
20
1.98371237284516
30
0
41
1
10
18.1721709089325
20
1.96933881215259
30
0
41
1
10
18.5414424161348
20
1.92399184504131
30
0
41
1
10
18.726653094461
20
1.89250182838586
30
0
41
1
10
19.0947995759619
20
1.81493485608385
30
0
41
1
10
19.2780567978151
20
1.76857766802954
30
0
41
1
10
19.6433402975119
20
1.66108644799598
30
0
41
1
10
19.8261707419096
20
1.60071136440516
30
0
41
1
10
20.1918427454885
20
1.46647428061692
30
0
41
1
10
20.37453488583
20
1.39231092135339
30
0
41
1
10
20.6506521663711
20
1.27325469310034
30
0
41
1
10
20.7429025340077
20
1.2321068202898
30
0
41
1
10
20.9276999441402
20
1.14659752376767
30
0
41
1
10
21.0202816681303
20
1.10229521334065
30
0
41
1
10
21.2969138396361
20
0.967098044952508
30
0
41
1
10
21.4808323785151
20
0.873821177998195
30
0
41
1
10
21.8465442394474
20
0.679271813843201
30
0
41
1
10
22.0290951564752
20
0.579216064054037
30
0
41
1
10
22.3946929695105
20
0.37549450693237
30
0
41
1
10
22.5770277310905
20
0.270575779523767
30
0
41
1
10
22.9440797740747
20
0.0603742977979209
30
0
41
1
10
23.1286159111479
20
-0.0456979063161498
30
0
41
1
10
23.4983882966313
20
-0.259264624413419
30
0
41
1
10
23.6827220700996
20
-0.363503646335033
30
0
41
1
10
24.0492840686338
20
-0.568983471099443
30
0
41
1
10
24.2316552491329
20
-0.669902778994782
30
0
41
1
10
24.5972474429734
20
-0.86372713532586
30
0
41
1
10
24.7795697376684
20
-0.958106714458211
30
0
41
1
10
25.145587836916
20
-1.1380086863405
30
0
41
1
10
25.3295598047644
20
-1.22317264429932
30
0
41
1
10
25.6063012454563
20
-1.34454283614525
30
0
41
1
10
25.6989193960564
20
-1.38383744346888
30
0
41
1
10
25.88354656473
20
-1.45867890619212
30
0
41
1
10
25.9757078126001
20
-1.494336324172
30
0
41
1
10
26.2514261688237
20
-1.59652029049485
30
0
41
1
10
26.4338620054597
20
-1.65854295797018
30
0
41
1
10
26.7994351271875
20
-1.76702769517385
30
0
41
1
10
26.9820033506907
20
-1.81412990769366
30
0
41
1
10
27.3472358421988
20
-1.89337905862479
30
0
41
1
10
27.5306884752227
20
-1.92504447870232
30
0
41
1
10
27.898824215394
20
-1.97252883211331
30
0
41
1
10
28.0840679542365
20
-1.98820083199212
30
0
41
1
10
28.3433246738715
20
-1.99798106976326
30
0
41
1
10
28.4178843365701
20
-1.99941410553703
30
0
41
1
10
28.4923289324507
20
-1.99946376691628
30
0
0
SPLINE
5
BF
100
AcDbEntity
8
1
62
256
6
ByLayer
370
13
48
1
60
0
100
AcDbSpline
70
4
71
3
72
26
73
22
40
0
40
0
40
0
40
0
40
0.158503712350559
40
0.158503712350559
40
0.237755568525837
40
0.237755568525837
40
0.317007424701115
40
0.317007424701115
40
0.475511137051671
40
0.475511137051671
40
0.515137065139309
40
0.515137065139309
40
0.554762993226948
40
0.554762993226948
40
0.634014849402223
40
0.634014849402223
40
0.792518561752772
40
0.792518561752772
40
0.951022274103322
40
0.951022274103322
40
1
40
1
40
1
40
1
41
1
10
29.3314816400001
20
-1.89047634090881
30
0
41
1
10
28.8913432959067
20
-1.90707728564595
30
0
41
1
10
28.4546693676471
20
-1.87720509855802
30
0
41
1
10
27.7950074089667
20
-1.76652705919949
30
0
41
1
10
27.573419223194
20
-1.71828103720947
30
0
41
1
10
27.1333759013474
20
-1.60228354574636
30
0
41
1
10
26.9145855867285
20
-1.53464103726648
30
0
41
1
10
26.2595317246744
20
-1.30597692109873
30
0
41
1
10
25.8244904353694
20
-1.11930369998205
30
0
41
1
10
25.2736594560417
20
-0.855246428787581
30
0
41
1
10
25.162867698566
20
-0.800779085115437
30
0
41
1
10
24.9422510726263
20
-0.690011782370306
30
0
41
1
10
24.8323183534027
20
-0.633668230822309
30
0
41
1
10
24.5032912125918
20
-0.462426518531146
30
0
41
1
10
24.2849679831522
20
-0.34531956145301
30
0
41
1
10
23.6301935851114
20
0.0095053026251435
30
0
41
1
10
23.1941326184991
20
0.251680637751434
30
0
41
1
10
22.3092695479377
20
0.718228407906537
30
0
41
1
10
21.8733950744366
20
0.936120832888633
30
0
41
1
10
21.3016039153497
20
1.18637884091851
30
0
41
1
10
21.1665439763817
20
1.24288922371628
30
0
41
1
10
21.031203054231
20
1.29653954335734
30
0
0
SPLINE
5
C0
100
AcDbEntity
8
1
62
256
6
ByLayer
370
13
48
1
60
0
100
AcDbSpline
70
4
71
3
72
8
73
4
40
0
40
0
40
0
40
0
40
1
40
1
40
1
40
1
41
1
10
20.6271063336884
20
1.4475514404545
30
0
41
1
10
20.5612178793316
20
1.47061641829282
30
0
41
1
10
20.4952196623251
20
1.49293310526903
30
0
41
1
10
20.4291892033451
20
1.51444108015343
30
0
0
SPLINE
5
C1
100
AcDbEntity
8
1
62
256
6
ByLayer
370
18
48
1
60
0
100
AcDbSpline
70
4
71
3
72
16
73
12
40
0
40
0
40
0
40
0
40
0.25000000000001
40
0.25000000000001
40
0.50000000000002
40
0.50000000000002
40
0.750000000000031
40
0.750000000000031
40
0.875000000000015
40
0.875000000000015
40
1
40
1
40
1
40
1
41
1
10
29.2423107513695
20
0.639034880810129
30
0
41
1
10
29.2948242465557
20
0.651774900948396
30
0
41
1
10
29.3469322733032
20
0.666234931927249
30
0
41
1
10
29.449040069656
20
0.700714878050576
30
0
41
1
10
29.4988780013175
20
0.720514230298676
30
0
41
1
10
29.5937105924722
20
0.770658718802167
30
0
41
1
10
29.6395536356594
20
0.801433484460006
30
0
41
1
10
29.6922408665265
20
0.862155025482735
30
0
41
1
10
29.7068839474138
20
0.884710624544482
30
0
41
1
10
29.7268429637653
20
0.935513989391751
30
0
41
1
10
29.73149818974
20
0.962824321515114
30
0
41
1
10
29.7307069857794
20
0.990132670834328
30
0
0
SPLINE
5
C2
100
AcDbEntity
8
1
62
256
6
ByLayer
370
18
48
1
60
0
100
AcDbSpline
70
4
71
3
72
62
73
58
40
0
40
0
40
0
40
0
40
0.0381423645835721
40
0.0381423645835721
40
0.0807124685302265
40
0.0807124685302265
40
0.123282572476881
40
0.123282572476881
40
0.165852676423535
40
0.165852676423535
40
0.187137728396863
40
0.187137728396863
40
0.208422780370191
40
0.208422780370191
40
0.250992884316846
40
0.250992884316846
40
0.293562988263502
40
0.293562988263502
40
0.336133092210158
40
0.336133092210158
40
0.378703196156813
40
0.378703196156813
40
0.421273300103469
40
0.421273300103469
40
0.463843404050124
40
0.463843404050124
40
0.50641350799678
40
0.50641350799678
40
0.527698559970108
40
0.527698559970108
40
0.548983611943435
40
0.548983611943435
40
0.591553715890092
40
0.591553715890092
40
0.634123819836749
40
0.634123819836749
40
0.676693923783406
40
0.676693923783406
40
0.697978975756735
40
0.697978975756735
40
0.719264027730064
40
0.719264027730064
40
0.761834131676721
40
0.761834131676721
40
0.804404235623377
40
0.804404235623377
40
0.846974339570034
40
0.846974339570034
40
0.868259391543362
40
0.868259391543362
40
0.88954444351669
40
0.88954444351669
40
0.932114547463344
40
0.932114547463344
40
0.974684651409998
40
0.974684651409998
40
1
40
1
40
1
40
1
41
1
10
25.8716803218919
20
-1.44804956985371
30
0
41
1
10
25.7023374973726
20
-1.50722092433156
30
0
41
1
10
25.5329271298777
20
-1.56192063908435
30
0
41
1
10
25.1752114857511
20
-1.66467737690735
30
0
41
1
10
24.9866929245862
20
-1.71127677226073
30
0
41
1
10
24.6092627702342
20
-1.7885113934245
30
0
41
1
10
24.4197788236615
20
-1.82027877265867
30
0
41
1
10
24.0423451497004
20
-1.86659996315353
30
0
41
1
10
23.8542081575087
20
-1.88197771684781
30
0
41
1
10
23.5710237499735
20
-1.89019497728006
30
0
41
1
10
23.4765253691047
20
-1.89042272819645
30
0
41
1
10
23.2874455296895
20
-1.88792734514195
30
0
41
1
10
23.1929503557595
20
-1.88487653995745
30
0
41
1
10
22.9097395290195
20
-1.86980222084009
30
0
41
1
10
22.7210938885491
20
-1.8520135769609
30
0
41
1
10
22.3440190548696
20
-1.79823280493102
30
0
41
1
10
22.1544776624924
20
-1.76076859798258
30
0
41
1
10
21.7762775842135
20
-1.6747216715433
30
0
41
1
10
21.5877421415144
20
-1.62462774512318
30
0
41
1
10
21.2098793817079
20
-1.51060758559339
30
0
41
1
10
21.0205156065379
20
-1.4460028048789
30
0
41
1
10
20.6423280015629
20
-1.30347509409506
30
0
41
1
10
20.4533961759497
20
-1.22690504992372
30
0
41
1
10
20.0757496823439
20
-1.06221423551867
30
0
41
1
10
19.8863022566785
20
-0.975071821038398
30
0
41
1
10
19.5078215417966
20
-0.793674268917187
30
0
41
1
10
19.3194232589049
20
-0.698821539545236
30
0
41
1
10
19.0361484985821
20
-0.552286064785591
30
0
41
1
10
18.9416277674337
20
-0.502740908109956
30
0
41
1
10
18.7525574092324
20
-0.402518107735773
30
0
41
1
10
18.657894242748
20
-0.351809072436055
30
0
41
1
10
18.3741204852272
20
-0.199065089897658
30
0
41
1
10
18.1851892422408
20
-0.0966538247413666
30
0
41
1
10
17.8078083662102
20
0.109326966257726
30
0
41
1
10
17.6187505583358
20
0.212162148456798
30
0
41
1
10
17.2399164980687
20
0.41515126609923
30
0
41
1
10
17.0512977591389
20
0.5156520904373
30
0
41
1
10
16.768028973048
20
0.66172846429987
30
0
41
1
10
16.6735772572496
20
0.709746144964782
30
0
41
1
10
16.4845527523232
20
0.803921962028028
30
0
41
1
10
16.3899792061314
20
0.849984322350025
30
0
41
1
10
16.1058827970889
20
0.985947230879418
30
0
41
1
10
15.9166794972254
20
1.07199510613143
30
0
41
1
10
15.5389076772522
20
1.23495171605191
30
0
41
1
10
15.3500651363262
20
1.31155871078843
30
0
41
1
10
14.9709206916209
20
1.45172732253363
30
0
41
1
10
14.7820152195022
20
1.5163476126759
30
0
41
1
10
14.4985659271414
20
1.6008898397078
30
0
41
1
10
14.4040132242425
20
1.6266286897974
30
0
41
1
10
14.2149100177518
20
1.67569783072673
30
0
41
1
10
14.1203865353712
20
1.6988178807494
30
0
41
1
10
13.8364171642972
20
1.76268596097845
30
0
41
1
10
13.6470528251417
20
1.79791679189106
30
0
41
1
10
13.2693550605187
20
1.85011985548672
30
0
41
1
10
13.0806950487618
20
1.86662549258134
30
0
41
1
10
12.7786826078235
20
1.88144901661968
30
0
41
1
10
12.6661249296174
20
1.88431742983454
30
0
41
1
10
12.5536565294845
20
1.8842780293096
30
0
0
SPLINE
5
C3
100
AcDbEntity
8
1
62
256
6
ByLayer
370
18
48
1
60
0
100
AcDbSpline
70
4
71
3
72
16
73
12
40
0
40
0
40
0
40
0
40
0.316595830205453
40
0.316595830205453
40
0.459388225625538
40
0.459388225625538
40
0.602180621045623
40
0.602180621045623
40
0.887765411885793
40
0.887765411885793
40
1
40
1
40
1
40
1
41
1
10
18.2064814866118
20
-1.88835035182549
30
0
41
1
10
17.9631748188019
20
-1.88813836879373
30
0
41
1
10
17.7203515911807
20
-1.87394300849843
30
0
41
1
10
17.3671289520023
20
-1.83340836758558
30
0
41
1
10
17.2571849738534
20
-1.81803344237656
30
0
41
1
10
17.0367251811307
20
-1.7817464247421
30
0
41
1
10
16.9259919664621
20
-1.76078938029514
30
0
41
1
10
16.5944551473075
20
-1.69004357158985
30
0
41
1
10
16.3747263854626
20
-1.6324704333542
30
0
41
1
10
16.0691211252522
20
-1.53930862954627
30
0
41
1
10
15.9829468313225
20
-1.5115930892384
30
0
41
1
10
15.896766695333
20
-1.48250806745685
30
0
0
SPLINE
5
C4
100
AcDbEntity
8
1
62
256
6
ByLayer
370
13
48
1
60
0
100
AcDbSpline
70
4
71
3
72
22
73
18
40
0
40
0
40
0
40
0
40
0.0640360061358313
40
0.0640360061358313
40
0.169532005127766
40
0.169532005127766
40
0.380524003111636
40
0.380524003111636
40
0.486020002103573
40
0.486020002103573
40
0.591516001095509
40
0.591516001095509
40
0.802507999079384
40
0.802507999079384
40
0.908003998071322
40
0.908003998071322
40
1
40
1
40
1
40
1
41
1
10
15.8967657478089
20
-1.4825077476759
30
0
41
1
10
15.7636578632002
20
-1.43758501678309
30
0
41
1
10
15.6305360414761
20
-1.38939528463723
30
0
41
1
10
15.2775756003389
20
-1.2537791710343
30
0
41
1
10
15.0568245385099
20
-1.16090597576451
30
0
41
1
10
14.3936761653581
20
-0.862253903901831
30
0
41
1
10
13.9576368522491
20
-0.640008822015488
30
0
41
1
10
13.3018637532242
20
-0.291455274597752
30
0
41
1
10
13.0829931172952
20
-0.172676886506849
30
0
41
1
10
12.6429636950485
20
0.0668278124712174
30
0
41
1
10
12.4209947390951
20
0.187890180932356
30
0
41
1
10
11.7609866360494
20
0.541985190675717
30
0
41
1
10
11.3256663054323
20
0.768255786430871
30
0
41
1
10
10.6686977018226
20
1.07399442001068
30
0
41
1
10
10.4490326015877
20
1.17021365399771
30
0
41
1
10
10.0351352960791
20
1.33751677081122
30
0
41
1
10
9.84268421378252
20
1.40942804681211
30
0
41
1
10
9.65101336223455
20
1.47420815347013
30
0
0
SPLINE
5
C5
100
AcDbEntity
8
1
62
256
6
ByLayer
370
18
48
1
60
0
100
AcDbSpline
70
4
71
3
72
8
73
4
40
0
40
0
40
0
40
0
40
1
40
1
40
1
40
1
41
1
10
29.313831749752
20
-1.98513386400794
30
0
41
1
10
29.3147133261669
20
-1.98280618287262
30
0
41
1
10
29.3155947134671
20
-1.98047824209854
30
0
41
1
10
29.3164759101129
20
-1.97815004585701
30
0
0
SPLINE
5
C6
100
AcDbEntity
8
1
62
256
6
ByLayer
370
18
48
1
60
0
100
AcDbSpline
70
4
71
3
72
40
73
36
40
0
40
0
40
0
40
0
40
0.116904337677775
40
0.116904337677775
40
0.175356506516663
40
0.175356506516663
40
0.233808675355551
40
0.233808675355551
40
0.292260844194437
40
0.292260844194437
40
0.350713013033324
40
0.350713013033324
40
0.467617350711096
40
0.467617350711096
40
0.526069519549983
40
0.526069519549983
40
0.555295603969427
40
0.555295603969427
40
0.584521688388871
40
0.584521688388871
40
0.701426026066645
40
0.701426026066645
40
0.730652110486089
40
0.730652110486089
40
0.759878194905533
40
0.759878194905533
40
0.818330363744422
40
0.818330363744422
40
0.935234701422199
40
0.935234701422199
40
0.964460785841642
40
0.964460785841642
40
0.993686870261086
40
0.993686870261086
40
1
40
1
40
1
40
1
41
1
10
29.3138317497506
20
-1.98513386403261
30
0
41
1
10
28.8717773440068
20
-2.0160258618975
30
0
41
1
10
28.4335324575155
20
-1.99771641952455
30
0
41
1
10
27.7711252600135
20
-1.89925512827804
30
0
41
1
10
27.5486027260217
20
-1.85422141358705
30
0
41
1
10
27.1063346152329
20
-1.74253104051726
30
0
41
1
10
26.8861601513555
20
-1.67606821263783
30
0
41
1
10
26.4460523276919
20
-1.5238192585459
30
0
41
1
10
26.2261284222473
20
-1.4380031097254
30
0
41
1
10
25.7844213753641
20
-1.24926565085181
30
0
41
1
10
25.561675464243
20
-1.14581396740263
30
0
41
1
10
24.8990159186231
20
-0.819295011296305
30
0
41
1
10
24.4625816762248
20
-0.578895838143012
30
0
41
1
10
23.8038740762834
20
-0.204656554540833
30
0
41
1
10
23.5836448235932
20
-0.0776189635088826
30
0
41
1
10
23.2510518562623
20
0.114289567939778
30
0
41
1
10
23.1399264714353
20
0.17828033598812
30
0
41
1
10
22.918881718941
20
0.304714705715782
30
0
41
1
10
22.8086870885007
20
0.367323719605167
30
0
41
1
10
22.2587473584358
20
0.676354523493302
30
0
41
1
10
21.8226246319077
20
0.911596406500422
30
0
41
1
10
21.2718346173394
20
1.17361378673797
30
0
41
1
10
21.1613970780739
20
1.2244227014528
30
0
41
1
10
20.9397618131152
20
1.32251520374996
30
0
41
1
10
20.8284532374834
20
1.36983815902443
30
0
41
1
10
20.4964792437777
20
1.50446120674761
30
0
41
1
10
20.2766662313229
20
1.58497779719596
30
0
41
1
10
19.6185978133244
20
1.79607242868107
30
0
41
1
10
19.1813683977977
20
1.89605362291121
30
0
41
1
10
18.6280986253319
20
1.9626027353506
30
0
41
1
10
18.5167788552504
20
1.97296315754946
30
0
41
1
10
18.2951755575064
20
1.98747870407286
30
0
41
1
10
18.1847391360458
20
1.99166893352174
30
0
41
1
10
18.0507469687854
20
1.9930943886263
30
0
41
1
10
18.0269576065158
20
1.99320684965002
30
0
41
1
10
18.003179858508
20
1.99317885003211
30
0
0
SPLINE
5
C7
100
AcDbEntity
8
1
62
256
6
ByLayer
370
18
48
1
60
0
100
AcDbSpline
70
4
71
3
72
8
73
4
40
0
40
0
40
0
40
0
40
1
40
1
40
1
40
1
41
1
10
8.29992172442854
20
-1.87357362979682
30
0
41
1
10
8.25196322052278
20
-1.88270935310206
30
0
41
1
10
8.20398506160069
20
-1.89130940011552
30
0
41
1
10
8.15597745792232
20
-1.89936758608218
30
0
0
SPLINE
5
C8
100
AcDbEntity
8
1
62
256
6
ByLayer
370
18
48
1
60
0
100
AcDbSpline
70
4
71
3
72
8
73
4
40
0
40
0
40
0
40
0
40
1
40
1
40
1
40
1
41
1
10
29.3314816400001
20
-1.89047634090878
30
0
41
1
10
29.323892058862
20
-1.89347666092922
30
0
41
1
10
29.3168247578372
20
-1.89498176250188
30
0
41
1
10
29.3102866447527
20
-1.89497186943828
30
0
0
SPLINE
5
C9
100
AcDbEntity
8
1
62
256
6
ByLayer
370
18
48
1
60
0
100
AcDbSpline
70
4
71
3
72
12
73
8
40
0
40
0
40
0
40
0
40
0.25
40
0.25
40
0.5
40
0.5
40
1
40
1
40
1
40
1
41
1
10
29.3164759101129
20
-1.97815004585738
30
0
41
1
10
29.3214284266042
20
-1.96506507743732
30
0
41
1
10
29.326022469754
20
-1.95160533130189
30
0
41
1
10
29.3330967243044
20
-1.92742856370924
30
0
41
1
10
29.3355433257289
20
-1.91675566044901
30
0
41
1
10
29.3388886338741
20
-1.89337029970261
30
0
41
1
10
29.336288494567
20
-1.88857609085019
30
0
41
1
10
29.3314816399986
20
-1.8904763409094
30
0
0
SPLINE
5
CA
100
AcDbEntity
8
1
62
256
6
ByLayer
370
18
48
1
60
0
100
AcDbSpline
70
4
71
3
72
24
73
20
40
0
40
0
40
0
40
0
40
0.0624999999999998
40
0.0624999999999998
40
0.125
40
0.125
40
0.25
40
0.25
40
0.375
40
0.375
40
0.5
40
0.5
40
0.625
40
0.625
40
0.75
40
0.75
40
0.875
40
0.875
40
1
40
1
40
1
40
1
41
1
10
29.6709335246349
20
-0.400790748723409
30
0
41
1
10
29.6631517622383
20
-0.419362288468022
30
0
41
1
10
29.6561430726885
20
-0.438880168955222
30
0
41
1
10
29.6449032331399
20
-0.477066675872436
30
0
41
1
10
29.6405150521086
20
-0.496349413068714
30
0
41
1
10
29.6325905960182
20
-0.549082278484661
30
0
41
1
10
29.6343309173873
20
-0.578409146663716
30
0
41
1
10
29.6493220538282
20
-0.61361596742239
30
0
41
1
10
29.6623224858715
20
-0.620455203301134
30
0
41
1
10
29.6932542872989
20
-0.615168833844308
30
0
41
1
10
29.7113330830529
20
-0.603373135030012
30
0
41
1
10
29.7491982659297
20
-0.564484966831571
30
0
41
1
10
29.7688129558279
20
-0.537494396289986
30
0
41
1
10
29.8049770817721
20
-0.473109750650138
30
0
41
1
10
29.8216744815995
20
-0.435366981383851
30
0
41
1
10
29.8457486320119
20
-0.357732851586974
30
0
41
1
10
29.8521945722863
20
-0.320209163211103
30
0
41
1
10
29.8509633480907
20
-0.262068900508211
30
0
41
1
10
29.8435204589588
20
-0.24309607417598
30
0
41
1
10
29.8317265980894
20
-0.234689287303866
30
0
0
SPLINE
5
CB
100
AcDbEntity
8
1
62
256
6
ByLayer
370
18
48
1
60
0
100
AcDbSpline
70
4
71
3
72
16
73
12
40
0
40
0
40
0
40
0
40
0.250000000000001
40
0.250000000000001
40
0.375000000000001
40
0.375000000000001
40
0.500000000000001
40
0.500000000000001
40
0.750000000000001
40
0.750000000000001
40
1
40
1
40
1
40
1
41
1
10
29.0797439657825
20
0.354059688309093
30
0
41
1
10
29.07657096055
20
0.381717089148253
30
0
41
1
10
29.0769861415031
20
0.4100403054168
30
0
41
1
10
29.0822624758798
20
0.453928746711256
30
0
41
1
10
29.0848077653635
20
0.468869573623522
30
0
41
1
10
29.0916344986717
20
0.498403163641171
30
0
41
1
10
29.0956727086058
20
0.513166121018685
30
0
41
1
10
29.1138494421144
20
0.555985744564083
30
0
41
1
10
29.1335594022429
20
0.581416618266417
30
0
41
1
10
29.1828551315984
20
0.619164128581048
30
0
41
1
10
29.2120619322296
20
0.631696375467612
30
0
41
1
10
29.2423107513695
20
0.639034880810584
30
0
0
SPLINE
5
CC
100
AcDbEntity
8
1
62
256
6
ByLayer
370
18
48
1
60
0
100
AcDbSpline
70
4
71
3
72
26
73
22
40
0
40
0
40
0
40
0
40
0.250000000000017
40
0.250000000000017
40
0.500000000000035
40
0.500000000000035
40
0.625000000000037
40
0.625000000000037
40
0.68750000000003
40
0.68750000000003
40
0.750000000000023
40
0.750000000000023
40
0.812500000000017
40
0.812500000000017
40
0.87500000000001
40
0.87500000000001
40
0.937500000000003
40
0.937500000000003
40
0.968750000000002
40
0.968750000000002
40
1
40
1
40
1
40
1
41
1
10
27.6294705410091
20
0.675680165665824
30
0
41
1
10
27.761405478168
20
0.571558027417666
30
0
41
1
10
27.8956459370648
20
0.477115848145644
30
0
41
1
10
28.170048083399
20
0.313092347962055
30
0
41
1
10
28.3111231215539
20
0.243095161705867
30
0
41
1
10
28.5209159735407
20
0.165732468458515
30
0
41
1
10
28.5907813524635
20
0.144467178682248
30
0
41
1
10
28.694083489768
20
0.120628852840156
30
0
41
1
10
28.7283302204367
20
0.114005812895982
30
0
41
1
10
28.7963600856724
20
0.103631017824995
30
0
41
1
10
28.8302501122553
20
0.0993231721760424
30
0
41
1
10
28.8955561970773
20
0.0992699743222545
30
0
41
1
10
28.9265752411019
20
0.103139214896402
30
0
41
1
10
28.9835867691494
20
0.121499275879671
30
0
41
1
10
29.009972595518
20
0.136533908459484
30
0
41
1
10
29.0523952998645
20
0.179064944536293
30
0
41
1
10
29.0687321168558
20
0.20704761390104
30
0
41
1
10
29.0800151661763
20
0.258200552504718
30
0
41
1
10
29.0820463441925
20
0.276729688628109
30
0
41
1
10
29.0830399955808
20
0.314563226113705
30
0
41
1
10
29.0820383346804
20
0.334060893594
30
0
41
1
10
29.0797439657827
20
0.354059688309093
30
0
0
SPLINE
5
CD
100
AcDbEntity
8
1
62
256
6
ByLayer
370
18
48
1
60
0
100
AcDbSpline
70
4
71
3
72
22
73
18
40
0
40
0
40
0
40
0
40
0.0461620992292679
40
0.0461620992292679
40
0.158009833957133
40
0.158009833957133
40
0.381705303412863
40
0.381705303412863
40
0.605400772868593
40
0.605400772868593
40
0.717248507596459
40
0.717248507596459
40
0.77317237496039
40
0.77317237496039
40
0.829096242324322
40
0.829096242324322
40
1
40
1
40
1
40
1
41
1
10
20.4791816763966
20
1.50295804968658
30
0
41
1
10
20.5704533828177
20
1.46872124315595
30
0
41
1
10
20.6615868393943
20
1.43297733206194
30
0
41
1
10
20.9723246867272
20
1.30611009896833
30
0
41
1
10
21.1911994091139
20
1.2084044719158
30
0
41
1
10
21.8472216613399
20
0.895628981000499
30
0
41
1
10
22.2838596572094
20
0.660482560565214
30
0
41
1
10
23.1707436724569
20
0.162809834956534
30
0
41
1
10
23.6068091183604
20
-0.0926243513766565
30
0
41
1
10
24.2623780892562
20
-0.463451046146417
30
0
41
1
10
24.4810172537809
20
-0.585243111069389
30
0
41
1
10
24.8106740061421
20
-0.762529506252889
30
0
41
1
10
24.9208514678707
20
-0.820708069669877
30
0
41
1
10
25.1420615862817
20
-0.934753749761484
30
0
41
1
10
25.2530591114687
20
-0.99060702617686
30
0
41
1
10
25.7005014458396
20
-1.20947350679381
30
0
41
1
10
26.0341323815217
20
-1.35801262266352
30
0
41
1
10
26.3678622647601
20
-1.4859055619005
30
0
0
SPLINE
5
CE
100
AcDbEntity
8
1
62
256
6
ByLayer
370
13
48
1
60
0
100
AcDbSpline
70
4
71
3
72
16
73
12
40
0
40
0
40
0
40
0
40
0.105544582889212
40
0.105544582889212
40
0.329158437166909
40
0.329158437166909
40
0.440965364305758
40
0.440965364305758
40
0.552772291444606
40
0.552772291444606
40
1
40
1
40
1
40
1
41
1
10
26.36786319835
20
-1.48590591967348
30
0
41
1
10
26.4709511519034
20
-1.52541157399284
30
0
41
1
10
26.5740485470531
20
-1.56294723221566
30
0
41
1
10
26.895934859752
20
-1.67347129501997
30
0
41
1
10
27.1151139885812
20
-1.73917852974731
30
0
41
1
10
27.445906825294
20
-1.822001601469
30
0
41
1
10
27.5567953280529
20
-1.84702954778058
30
0
41
1
10
27.7779996887919
20
-1.89115923252953
30
0
41
1
10
27.8882949961335
20
-1.91028768621933
30
0
41
1
10
28.4387275779808
20
-1.99128288541533
30
0
41
1
10
28.8757171395366
20
-2.00922264510032
30
0
41
1
10
29.3164759101132
20
-1.97815004585738
30
0
0
SPLINE
5
CF
100
AcDbEntity
8
1
62
256
6
ByLayer
370
18
48
1
60
0
100
AcDbSpline
70
4
71
3
72
8
73
4
40
0
40
0
40
0
40
0
40
1
40
1
40
1
40
1
41
1
10
8.15597745792198
20
1.89936758608223
30
0
41
1
10
8.14383955166758
20
1.90140496138011
30
0
41
1
10
8.13177600720852
20
1.90345760095559
30
0
41
1
10
8.12013772700064
20
1.90565122073309
30
0
0
SPLINE
5
D0
100
AcDbEntity
8
1
62
256
6
ByLayer
370
18
48
1
60
0
100
AcDbSpline
70
4
71
3
72
24
73
20
40
0
40
0
40
0
40
0
40
0.123135186000444
40
0.123135186000444
40
0.196207253833741
40
0.196207253833741
40
0.269279321667037
40
0.269279321667037
40
0.415423457333629
40
0.415423457333629
40
0.561567593000222
40
0.561567593000222
40
0.707711728666814
40
0.707711728666814
40
0.780783796500111
40
0.780783796500111
40
0.853855864333407
40
0.853855864333407
40
1
40
1
40
1
40
1
41
1
10
8.0465870743455
20
-1.98720409736836
30
0
41
1
10
8.04658484693121
20
-1.98746552255386
30
0
41
1
10
8.04657918321351
20
-1.97890556010938
30
0
41
1
10
8.04656816156924
20
-1.95172073536082
30
0
41
1
10
8.04656360214534
20
-1.93858351791434
30
0
41
1
10
8.04655438407724
20
-1.90616844966433
30
0
41
1
10
8.04654970476901
20
-1.88675981735696
30
0
41
1
10
8.04653693498008
20
-1.82027857717986
30
0
41
1
10
8.04653010225869
20
-1.76497473234335
30
0
41
1
10
8.04652447395384
20
-1.6327910931478
30
0
41
1
10
8.04652579989462
20
-1.55495935550061
30
0
41
1
10
8.04653918012264
20
-1.3832074792877
30
0
41
1
10
8.04655112112118
20
-1.28898694094522
30
0
41
1
10
8.04657697882755
20
-1.1350129629127
30
0
41
1
10
8.04658697469665
20
-1.08127649686327
30
0
41
1
10
8.04660900297449
20
-0.971535457802418
30
0
41
1
10
8.04662104620814
20
-0.915405719383131
30
0
41
1
10
8.04665959606191
20
-0.743324088750569
30
0
41
1
10
8.04668858178843
20
-0.623714629136202
30
0
41
1
10
8.04671850521521
20
-0.499026755580843
30
0
0
SPLINE
5
D1
100
AcDbEntity
8
1
62
256
6
ByLayer
370
18
48
1
60
0
100
AcDbSpline
70
4
71
3
72
8
73
4
40
0
40
0
40
0
40
0
40
1
40
1
40
1
40
1
41
1
10
29.3138317497507
20
1.98513386403261
30
0
41
1
10
29.1727697787531
20
1.99499166897755
30
0
41
1
10
29.0320453068601
20
1.99984270932472
30
0
41
1
10
28.8914247809589
20
1.99973729003528
30
0
0
SPLINE
5
D2
100
AcDbEntity
8
1
62
256
6
ByLayer
370
18
48
1
60
0
100
AcDbSpline
70
4
71
3
72
42
73
38
40
0
40
0
40
0
40
0
40
0.0239125524908377
40
0.0239125524908377
40
0.0544152852254989
40
0.0544152852254989
40
0.0849180179601601
40
0.0849180179601601
40
0.145923483429482
40
0.145923483429482
40
0.206928948898805
40
0.206928948898805
40
0.237431681633466
40
0.237431681633466
40
0.267934414368127
40
0.267934414368127
40
0.389945345306775
40
0.389945345306775
40
0.450950810776099
40
0.450950810776099
40
0.48145354351076
40
0.48145354351076
40
0.511956276245421
40
0.511956276245421
40
0.633967207184067
40
0.633967207184067
40
0.664469939918729
40
0.664469939918729
40
0.69497267265339
40
0.69497267265339
40
0.755978138122712
40
0.755978138122712
40
0.877989069061357
40
0.877989069061357
40
0.938994534530678
40
0.938994534530678
40
1
40
1
40
1
40
1
41
1
10
18.9986465597648
20
-1.91261394038881
30
0
41
1
10
18.9121472069986
20
-1.92661507202527
30
0
41
1
10
18.8254733515462
20
-1.93886439662211
30
0
41
1
10
18.6277234486031
20
-1.96264461160095
30
0
41
1
10
18.5164805222458
20
-1.97298474881134
30
0
41
1
10
18.2952495711975
20
-1.98747180418363
30
0
41
1
10
18.1849671595197
20
-1.99166010094544
30
0
41
1
10
17.8547659320127
20
-1.99519208577738
30
0
41
1
10
17.6356043108405
20
-1.98550861887591
30
0
41
1
10
17.1973608948585
20
-1.94245085987711
30
0
41
1
10
16.9780737346657
20
-1.90914144408367
30
0
41
1
10
16.6475376579041
20
-1.84200127062417
30
0
41
1
10
16.5371022847794
20
-1.8167530772985
30
0
41
1
10
16.3155737250848
20
-1.76048941784629
30
0
41
1
10
16.2042272804385
20
-1.72944103907588
30
0
41
1
10
15.6505313378909
20
-1.56208929773155
30
0
41
1
10
15.2134209359095
20
-1.38865010789635
30
0
41
1
10
14.5549843249779
20
-1.08455656573014
30
0
41
1
10
14.3351347115175
20
-0.975725365366372
30
0
41
1
10
14.0030910688307
20
-0.803602404989988
30
0
41
1
10
13.891743395958
20
-0.744579773170557
30
0
41
1
10
13.6699316568533
20
-0.624907471311417
30
0
41
1
10
13.5594208609173
20
-0.564242564572112
30
0
41
1
10
13.0082624636332
20
-0.257802731375307
30
0
41
1
10
12.5718089087842
20
-0.0026642822216445
30
0
41
1
10
12.0216002765043
20
0.310588278084594
30
0
41
1
10
11.9113338333737
20
0.372968069500786
30
0
41
1
10
11.6901574829225
20
0.496843067002629
30
0
41
1
10
11.5790117282237
20
0.558485359916091
30
0
41
1
10
11.2459089618482
20
0.740310804699078
30
0
41
1
10
11.0254661734316
20
0.856681991582178
30
0
41
1
10
10.3660469606272
20
1.18708384321545
30
0
41
1
10
9.92932402268326
20
1.38287099460584
30
0
41
1
10
9.26627147426566
20
1.62240594394314
30
0
41
1
10
9.04335072634706
20
1.69342858983066
30
0
41
1
10
8.59973520389366
20
1.81316551922876
30
0
41
1
10
8.37820321648434
20
1.86206648475925
30
0
41
1
10
8.15597745792235
20
1.89936758608218
30
0
0
SPLINE
5
D3
100
AcDbEntity
8
1
62
256
6
ByLayer
370
18
48
1
60
0
100
AcDbSpline
70
4
71
3
72
18
73
14
40
0
40
0
40
0
40
0
40
0.125000000000014
40
0.125000000000014
40
0.250000000000027
40
0.250000000000027
40
0.375000000000041
40
0.375000000000041
40
0.500000000000055
40
0.500000000000055
40
0.750000000000028
40
0.750000000000028
40
1
40
1
40
1
40
1
41
1
10
29.6709335246338
20
-0.400790748723267
30
0
41
1
10
29.6611651928499
20
-0.385573241673313
30
0
41
1
10
29.6525226579562
20
-0.36911463908487
30
0
41
1
10
29.6408024369048
20
-0.33583016638687
30
0
41
1
10
29.6378357284171
20
-0.319046123429274
30
0
41
1
10
29.6397692995089
20
-0.288646311508103
30
0
41
1
10
29.6446045855956
20
-0.275745219575327
30
0
41
1
10
29.658963046499
20
-0.255410109935298
30
0
41
1
10
29.6685167829705
20
-0.247717292514409
30
0
41
1
10
29.6999801827283
20
-0.230604255830769
30
0
41
1
10
29.7251683536099
20
-0.226355004431639
30
0
41
1
10
29.7768843743691
20
-0.225341620517781
30
0
41
1
10
29.8041848043494
20
-0.228703905712791
30
0
41
1
10
29.8317265980893
20
-0.234689287303866
30
0
0
SPLINE
5
D4
100
AcDbEntity
8
1
62
256
6
ByLayer
370
18
48
1
60
0
100
AcDbSpline
70
4
71
3
72
17
73
13
40
0
40
0
40
0
40
0
40
0.249999999999998
40
0.249999999999998
40
0.499999999999996
40
0.499999999999996
40
0.624999999999997
40
0.624999999999997
40
0.749999999999998
40
0.874999999999999
40
0.874999999999999
40
1
40
1
40
1
40
1
41
1
10
29.3102866447528
20
-1.89497186943828
30
0
41
1
10
29.2545897169137
20
-1.89492572041863
30
0
41
1
10
29.2044294097958
20
-1.87869299187554
30
0
41
1
10
29.1166378070836
20
-1.80970839786207
30
0
41
1
10
29.0808946663553
20
-1.75842019773796
30
0
41
1
10
29.0399076202386
20
-1.65547270481716
30
0
41
1
10
29.0283190398431
20
-1.61652155313254
30
0
41
1
10
29.0099948868977
20
-1.53028060753005
30
0
41
1
10
28.9966863876786
20
-1.43683786736523
30
0
41
1
10
28.9931897282605
20
-1.32930666369774
30
0
41
1
10
28.994710406387
20
-1.21457124773437
30
0
41
1
10
28.9980340687182
20
-1.15328477021137
30
0
41
1
10
29.0038265382629
20
-1.08992146175214
30
0
0
SPLINE
5
D5
100
AcDbEntity
8
1
62
256
6
ByLayer
370
18
48
1
60
0
100
AcDbSpline
70
4
71
3
72
20
73
16
40
0
40
0
40
0
40
0
40
0.124999999999997
40
0.124999999999997
40
0.187499999999999
40
0.187499999999999
40
0.250000000000001
40
0.250000000000001
40
0.375000000000004
40
0.375000000000004
40
0.500000000000008
40
0.500000000000008
40
0.750000000000004
40
0.750000000000004
40
1
40
1
40
1
40
1
41
1
10
27.6294705410092
20
0.675680165665909
30
0
41
1
10
27.6517940105554
20
0.587241164395238
30
0
41
1
10
27.6819102483438
20
0.498896402595108
30
0
41
1
10
27.7373320688793
20
0.366503184478972
30
0
41
1
10
27.7576401256743
20
0.322174509851863
30
0
41
1
10
27.800818308327
20
0.234994560382717
30
0
41
1
10
27.8236953380664
20
0.192078099656328
30
0
41
1
10
27.8957797596254
20
0.0651346017393735
30
0
41
1
10
27.9484184726927
20
-0.0170980616630914
30
0
41
1
10
28.0614107069911
20
-0.17752900971243
30
0
41
1
10
28.1210217750489
20
-0.254629207442918
30
0
41
1
10
28.3058590893362
20
-0.476305566731043
30
0
41
1
10
28.4377253505623
20
-0.612420577873365
30
0
41
1
10
28.7146356988611
20
-0.866855413531823
30
0
41
1
10
28.8577697168894
20
-0.983314850801975
30
0
41
1
10
29.003826538263
20
-1.08992146175214
30
0
0
SPLINE
5
D6
100
AcDbEntity
8
1
62
256
6
ByLayer
370
18
48
1
60
0
100
AcDbSpline
70
4
71
3
72
16
73
12
40
0
40
0
40
0
40
0
40
0.25
40
0.25
40
0.5
40
0.5
40
0.75
40
0.75
40
0.875
40
0.875
40
1
40
1
40
1
40
1
41
1
10
29.7307069857794
20
-0.990132670834328
30
0
41
1
10
29.7011110762845
20
-1.06964040183988
30
0
41
1
10
29.671492095583
20
-1.14913967305583
30
0
41
1
10
29.6118629283715
20
-1.30773028588828
30
0
41
1
10
29.5819400729827
20
-1.38688899208142
30
0
41
1
10
29.522027430792
20
-1.54512196098986
30
0
41
1
10
29.4919224844243
20
-1.62404305737328
30
0
41
1
10
29.4464458337625
20
-1.74178750765819
30
0
41
1
10
29.4312759387494
20
-1.78103199744825
30
0
41
1
10
29.4008190044671
20
-1.85916747286143
30
0
41
1
10
29.3855148926699
20
-1.89790160401776
30
0
41
1
10
29.3701348277825
20
-1.93630076837394
30
0
0
SPLINE
5
D7
100
AcDbEntity
8
1
62
256
6
ByLayer
370
18
48
1
60
0
100
AcDbSpline
70
4
71
3
72
16
73
12
40
0
40
0
40
0
40
0
40
0.25
40
0.25
40
0.5
40
0.5
40
0.75
40
0.75
40
0.875
40
0.875
40
1
40
1
40
1
40
1
41
1
10
29.7307069857795
20
0.990132670834299
30
0
41
1
10
29.7011110762845
20
1.06964040183988
30
0
41
1
10
29.6714920955829
20
1.1491396730558
30
0
41
1
10
29.6118629283715
20
1.30773028588825
30
0
41
1
10
29.5819400729827
20
1.3868889920814
30
0
41
1
10
29.522027430792
20
1.54512196098983
30
0
41
1
10
29.4919224844243
20
1.62404305737323
30
0
41
1
10
29.4464458337625
20
1.74178750765816
30
0
41
1
10
29.4312759387495
20
1.7810319974482
30
0
41
1
10
29.4008190044672
20
1.85916747286137
30
0
41
1
10
29.38551489267
20
1.89790160401773
30
0
41
1
10
29.3701348277826
20
1.93630076837388
30
0
0
SPLINE
5
D8
100
AcDbEntity
8
1
62
256
6
ByLayer
370
18
48
1
60
0
100
AcDbSpline
70
4
71
3
72
10
73
6
40
0
40
0
40
0
40
0
40
0.5
40
0.5
40
1
40
1
40
1
40
1
41
1
10
9.49743619391359
20
-1.19203665196042
30
0
41
1
10
9.28640577961718
20
-1.10340018208666
30
0
41
1
10
9.07778532599815
20
-1.00589133732726
30
0
41
1
10
8.66274310677494
20
-0.797432159933464
30
0
41
1
10
8.45634892843054
20
-0.686151511887431
30
0
41
1
10
8.2502883247351
20
-0.568020239015141
30
0
0
SPLINE
5
D9
100
AcDbEntity
8
1
62
256
6
ByLayer
370
13
48
1
60
0
100
AcDbSpline
70
4
71
3
72
28
73
24
40
0
40
0
40
0
40
0
40
0.0107009579279673
40
0.0107009579279673
40
0.0868008842412007
40
0.0868008842412007
40
0.239000736867667
40
0.239000736867667
40
0.315100663180901
40
0.315100663180901
40
0.391200589494134
40
0.391200589494134
40
0.543400442120601
40
0.543400442120601
40
0.619500368433834
40
0.619500368433834
40
0.695600294747067
40
0.695600294747067
40
0.847800147373534
40
0.847800147373534
40
0.923900073686767
40
0.923900073686767
40
1
40
1
40
1
40
1
41
1
10
8.25023174696247
20
-1.88249113763806
30
0
41
1
10
8.25023059726675
20
-1.88242927493795
30
0
41
1
10
8.25022943369711
20
-1.88230981469226
30
0
41
1
10
8.25021989677953
20
-1.88087297812419
30
0
41
1
10
8.25021091932302
20
-1.87673580692888
30
0
41
1
10
8.25018347726913
20
-1.85592982855354
30
0
41
1
10
8.25016452012829
20
-1.83094241076185
30
0
41
1
10
8.25013982039948
20
-1.77634071238674
30
0
41
1
10
8.25013219771535
20
-1.75517236316568
30
0
41
1
10
8.25011919099899
20
-1.70796328464314
30
0
41
1
10
8.25011375753368
20
-1.68184157811774
30
0
41
1
10
8.25010136898544
20
-1.59606645092597
30
0
41
1
10
8.2500983595927
20
-1.52898186717525
30
0
41
1
10
8.25010383812031
20
-1.41324552439031
30
0
41
1
10
8.25010729975725
20
-1.37254283277895
30
0
41
1
10
8.2501175145153
20
-1.28691446297123
30
0
41
1
10
8.25012430254213
20
-1.24184320676935
30
0
41
1
10
8.25014902353325
20
-1.10257874973058
30
0
41
1
10
8.25017138631654
20
-1.00378136855423
30
0
41
1
10
8.25021133132725
20
-0.846905116966042
30
0
41
1
10
8.2502257051616
20
-0.793156473881936
30
0
41
1
10
8.25025604190535
20
-0.682667527371251
30
0
41
1
10
8.25027207789299
20
-0.625673745187839
30
0
41
1
10
8.2502883247179
20
-0.56802023901497
30
0
0
SPLINE
5
DA
100
AcDbEntity
8
1
62
256
6
ByLayer
370
18
48
1
60
0
100
AcDbSpline
70
4
71
3
72
10
73
6
40
0
40
0
40
0
40
0
40
0.863534089608785
40
0.863534089608785
40
1
40
1
40
1
40
1
41
1
10
8.04657141474016
20
1.9365156390565
30
0
41
1
10
8.04658453017873
20
1.96530078943633
30
0
41
1
10
8.04658897777244
20
1.98189511656344
30
0
41
1
10
8.04658778617923
20
1.98680089385542
30
0
41
1
10
8.04658748832972
20
1.98715792587998
30
0
41
1
10
8.04658706964725
20
1.98720463513735
30
0
0
SPLINE
5
DB
100
AcDbEntity
8
SK1
62
256
6
ByLayer
370
18
48
1
60
0
100
AcDbSpline
70
4
71
3
72
8
73
4
40
0
40
0
40
0
40
0
40
1
40
1
40
1
40
1
41
1
10
-35.4
20
-2.03380684335201
30
0
41
1
10
-35.6037679034388
20
-1.70903014938369
30
0
41
1
10
-35.8060922365892
20
-1.38356637555148
30
0
41
1
10
-36
20
-1.05409666197565
30
0
0
SPLINE
5
DC
100
AcDbEntity
8
SK1
62
256
6
ByLayer
370
18
48
1
60
0
100
AcDbSpline
70
4
71
3
72
14
73
10
40
0
40
0
40
0
40
0
40
0.499999999999999
40
0.499999999999999
40
0.75
40
0.75
40
0.875
40
0.875
40
1
40
1
40
1
40
1
41
1
10
-35.4
20
-2.72841042620908
30
0
41
1
10
-35.3787677796885
20
-2.76225152778588
30
0
41
1
10
-35.3584290958895
20
-2.79333177521772
30
0
41
1
10
-35.3303626450498
20
-2.83293647248229
30
0
41
1
10
-35.3215171954455
20
-2.84481651012496
30
0
41
1
10
-35.3102812516991
20
-2.85793914153965
30
0
41
1
10
-35.3068890218585
20
-2.86149458036189
30
0
41
1
10
-35.3017585680987
20
-2.86530457388537
30
0
41
1
10
-35.3
20
-2.86553490164701
30
0
41
1
10
-35.3
20
-2.86268448115041
30
0
0
SPLINE
5
DD
100
AcDbEntity
8
SK1
62
256
6
ByLayer
370
18
48
1
60
0
100
AcDbSpline
70
4
71
3
72
14
73
10
40
0
40
0
40
0
40
0
40
0.124999999999999
40
0.124999999999999
40
0.249999999999998
40
0.249999999999998
40
0.5
40
0.5
40
1
40
1
40
1
40
1
41
1
10
-35.3
20
-2.26069470934132
30
0
41
1
10
-35.3
20
-2.25356582829912
30
0
41
1
10
-35.3017593723636
20
-2.24417131157256
30
0
41
1
10
-35.306935341198
20
-2.22459241438793
30
0
41
1
10
-35.3102739075535
20
-2.2145048832601
30
0
41
1
10
-35.3215583577555
20
-2.18373837782579
30
0
41
1
10
-35.3303095934912
20
-2.16371632960875
30
0
41
1
10
-35.358391202053
20
-2.10442312528227
30
0
41
1
10
-35.378655954467
20
-2.06782617822833
30
0
41
1
10
-35.4
20
-2.03380684335201
30
0
0
SPLINE
5
DE
100
AcDbEntity
8
SK1
62
256
6
ByLayer
370
18
48
1
60
0
100
AcDbSpline
70
4
71
3
72
8
73
4
40
0
40
0
40
0
40
0
40
1
40
1
40
1
40
1
41
1
10
-36
20
-1.74870024483229
30
0
41
1
10
-35.8061088095982
20
-2.07814179912026
30
0
41
1
10
-35.6037786761503
20
-2.40361656208953
30
0
41
1
10
-35.4
20
-2.72841042620863
30
0
0
LINE
5
76
100
AcDbEntity
8
81
62
256
6
ByLayer
370
18
48
1
60
0
100
AcDbLine
10
30
20
0
30
0
11
35
21
0
31
0
39
0
210
0
220
0
230
1
0
LINE
5
77
100
AcDbEntity
8
1
62
256
6
ByLayer
370
18
48
1
60
0
100
AcDbLine
10
8.04658
20
1.987206
30
0
11
1.490377
21
1.983272
31
0
39
0
210
0
220
0
230
1
0
LINE
5
79
100
AcDbEntity
8
1
62
256
6
ByLayer
370
18
48
1
60
0
100
AcDbLine
10
18.00695
20
1.993182
30
0
11
17.6031
21
1.99294
31
0
39
0
210
0
220
0
230
1
0
LINE
5
7A
100
AcDbEntity
8
1
62
256
6
ByLayer
370
18
48
1
60
0
100
AcDbLine
10
28.892099
20
1.999713
30
0
11
28.492664
21
1.999473
31
0
39
0
210
0
220
0
230
1
0
LINE
5
7B
100
AcDbEntity
8
1
62
256
6
ByLayer
370
18
48
1
60
0
100
AcDbLine
10
28.492664
20
-1.999473
30
0
11
28.892095
21
-1.999713
31
0
39
0
210
0
220
0
230
1
0
LINE
5
7C
100
AcDbEntity
8
1
62
256
6
ByLayer
370
18
48
1
60
0
100
AcDbLine
10
17.6031
20
-1.99294
30
0
11
18.006441
21
-1.993182
31
0
39
0
210
0
220
0
230
1
0
LINE
5
7D
100
AcDbEntity
8
1
62
256
6
ByLayer
370
18
48
1
60
0
100
AcDbLine
10
1.490377
20
-1.983272
30
0
11
8.04658
21
-1.987206
31
0
39
0
210
0
220
0
230
1
0
LINE
5
7E
100
AcDbEntity
8
SK1
62
256
6
ByLayer
370
18
48
1
60
0
100
AcDbLine
10
-35.278312
20
3
30
0
11
-36
21
1.75
31
0
39
0
210
0
220
0
230
1
0
LINE
5
80
100
AcDbEntity
8
SK1
62
256
6
ByLayer
370
18
48
1
60
0
100
AcDbLine
10
-36
20
-1.75
30
0
11
-35.278312
21
-3
31
0
39
0
210
0
220
0
230
1
0
LINE
5
81
100
AcDbEntity
8
SK1
62
256
6
ByLayer
370
18
48
1
60
0
100
AcDbLine
10
0
20
3
30
0
11
-35.278312
21
3
31
0
39
0
210
0
220
0
230
1
0
LINE
5
82
100
AcDbEntity
8
SK1
62
256
6
ByLayer
370
18
48
1
60
0
100
AcDbLine
10
-35.278312
20
-3
30
0
11
0
21
-3
31
0
39
0
210
0
220
0
230
1
0
LINE
5
83
100
AcDbEntity
8
SK4
62
256
6
ByLayer
370
18
48
0.05
60
0
100
AcDbLine
10
35
20
0
30
0
11
-41
21
0
31
0
39
0
210
0
220
0
230
1
0
LINE
5
85
100
AcDbEntity
8
4
62
256
6
ByLayer
370
18
48
0.05
60
0
100
AcDbLine
10
30
20
0
30
0
11
0
21
0
31
0
39
0
210
0
220
0
230
1
0
LINE
5
87
100
AcDbEntity
8
80
62
256
6
ByLayer
370
18
48
1
60
0
100
AcDbLine
10
0
20
0
30
0
11
-5
21
0
31
0
39
0
210
0
220
0
230
1
0
LINE
5
88
100
AcDbEntity
8
1
62
256
6
ByLayer
370
18
48
1
60
0
100
AcDbLine
10
29.934512
20
0.256109
30
0
11
29.896246
21
0.434583
31
0
39
0
210
0
220
0
230
1
0
LINE
5
89
100
AcDbEntity
8
1
62
256
6
ByLayer
370
13
48
1
60
0
100
AcDbLine
10
29.443807
20
0.099253
30
0
11
29.895536
21
-0.168773
31
0
39
0
210
0
220
0
230
1
0
LINE
5
8A
100
AcDbEntity
8
1
62
256
6
ByLayer
370
18
48
1
60
0
100
AcDbLine
10
0
20
-3
30
0
11
0
21
3
31
0
39
0
210
0
220
0
230
1
0
LINE
5
8B
100
AcDbEntity
8
1
62
256
6
ByLayer
370
13
48
1
60
0
100
AcDbLine
10
1.490377
20
1.983272
30
0
11
1.490377
21
-1.983272
31
0
39
0
210
0
220
0
230
1
0
LINE
5
8C
100
AcDbEntity
8
1
62
256
6
ByLayer
370
13
48
1
60
0
100
AcDbLine
10
0.744949
20
2.491636
30
0
11
0.744949
21
-2.491636
31
0
39
0
210
0
220
0
230
1
0
LINE
5
8D
100
AcDbEntity
8
1
62
256
6
ByLayer
370
18
48
1
60
0
100
AcDbLine
10
30
20
0
30
0
11
29.310287
21
-1.894972
31
0
39
0
210
0
220
0
230
1
0
LINE
5
8E
100
AcDbEntity
8
1
62
256
6
ByLayer
370
13
48
1
60
0
100
AcDbLine
10
29.633713
20
0.434583
30
0
11
29.934512
21
0.256109
31
0
39
0
210
0
220
0
230
1
0
LINE
5
8F
100
AcDbEntity
8
1
62
256
6
ByLayer
370
18
48
1
60
0
100
AcDbLine
10
29.831727
20
-0.234689
30
0
11
29.895536
21
-0.168773
31
0
39
0
210
0
220
0
230
1
0
LINE
5
90
100
AcDbEntity
8
1
62
256
6
ByLayer
370
18
48
1
60
0
100
AcDbLine
10
29.996731
20
0.020281
30
0
11
30
21
0
31
0
39
0
210
0
220
0
230
1
0
LINE
5
91
100
AcDbEntity
8
1
62
256
6
ByLayer
370
13
48
1
60
0
100
AcDbLine
10
29.896246
20
0.434583
30
0
11
29.633713
21
0.434583
31
0
39
0
210
0
220
0
230
1
0
LINE
5
92
100
AcDbEntity
8
1
62
256
6
ByLayer
370
18
48
1
60
0
100
AcDbLine
10
29.934512
20
-0.256109
30
0
11
29.896246
21
-0.434583
31
0
39
0
210
0
220
0
230
1
0
LINE
5
93
100
AcDbEntity
8
1
62
256
6
ByLayer
370
18
48
1
60
0
100
AcDbLine
10
30
20
0
30
0
11
29.996731
21
-0.020281
31
0
39
0
210
0
220
0
230
1
0
LINE
5
94
100
AcDbEntity
8
1
62
256
6
ByLayer
370
18
48
1
60
0
100
AcDbLine
10
29.003827
20
-1.089921
30
0
11
29.670934
21
-0.400791
31
0
39
0
210
0
220
0
230
1
0
LINE
5
95
100
AcDbEntity
8
SK1
62
256
6
ByLayer
370
18
48
1
60
0
100
AcDbLine
10
0
20
-3
30
0
11
0
21
3
31
0
39
0
210
0
220
0
230
1
0
LINE
5
96
100
AcDbEntity
8
SK1
62
256
6
ByLayer
370
13
48
1
60
0
100
AcDbLine
10
-35.4
20
-2.033796
30
0
11
-35.4
21
-2.72841
31
0
39
0
210
0
220
0
230
1
0
LINE
5
97
100
AcDbEntity
8
SK1
62
256
6
ByLayer
370
18
48
1
60
0
100
AcDbLine
10
-36
20
1.75
30
0
11
-36
21
-1.054097
31
0
39
0
210
0
220
0
230
1
0
LINE
5
98
100
AcDbEntity
8
SK1
62
256
6
ByLayer
370
18
48
1
60
0
100
AcDbLine
10
-36
20
-1.054088
30
0
11
-36
21
-1.7487
31
0
39
0
210
0
220
0
230
1
0
LINE
5
99
100
AcDbEntity
8
SK1
62
256
6
ByLayer
370
18
48
1
60
0
100
AcDbLine
10
-36
20
-1.75
30
0
11
-36
21
-1.7487
31
0
39
0
210
0
220
0
230
1
0
LINE
5
9A
100
AcDbEntity
8
SK1
62
256
6
ByLayer
370
18
48
1
60
0
100
AcDbLine
10
-35.3
20
-2.862684
30
0
11
-35.3
21
-2.260695
31
0
39
0
210
0
220
0
230
1
0
LINE
5
9B
100
AcDbEntity
8
SK1
62
256
6
ByLayer
370
18
48
1
60
0
100
AcDbLine
10
-35.278312
20
3
30
0
11
-35.278312
21
-3
31
0
39
0
210
0
220
0
230
1
0
MTEXT
5
DF
100
AcDbEntity
8
SK6
62
256
6
ByLayer
370
13
48
1
60
0
100
AcDbMText
10
-0.870831
20
34.382694
30
0
210
0
220
0
230
1
1
\W0.7598;R840-0400-30-A1A1220
40
3.5
41
0
44
1.084337
50
0
71
8
72
5
7
iso_b_vert
0
DIMENSION
5
EC
100
AcDbEntity
8
SK2
62
256
6
ByLayer
370
13
48
1
60
0
100
AcDbDimension
2
DimnDraft3D1
10
29.32
20
-12.213398
30
0
11
13.570059
21
-12.213398
31
0
70
32
71
5
72
1
41
1
210
0
220
0
230
1
3
Standard
100
AcDbAlignedDimension
13
0
23
-1.5875
33
0
14
29.32
24
-3.5875
34
0
50
0
100
AcDbRotatedDimension
1001
ACAD
1000
DSTYLE
1002
{
1070
   279
1070
     0
1070
   172
1070
     1
1070
   173
1070
     1
1070
   340
1005
E0
1070
   271
1070
     2
1070
   272
1070
     2
1070
    77
1070
     1
1070
    73
1070
     0
1070
   171
1070
     3
1070
   274
1070
     4
1070
   177
1070
    35
1070
   176
1070
    35
1070
   178
1070
    35
1070
    48
1040
-0.005
1070
    41
1041
3.5
1070
   147
1041
1.75
1070
    42
1041
1.5875
1070
    44
1041
2.0
1070
   140
1041
3.5
1070
   343
1005
0
1070
   344
1005
0
1002
}
0
DIMENSION
5
F6
100
AcDbEntity
8
SK2
62
256
6
ByLayer
370
13
48
1
60
0
100
AcDbDimension
2
DimnDraft3D2
10
30
20
-31.692985
30
0
11
-2.3387
21
-31.692985
31
0
70
32
71
5
72
1
41
1
210
0
220
0
230
1
3
Standard
100
AcDbAlignedDimension
13
-36
23
-4.5875
33
0
14
30
24
-1.5875
34
0
50
0
100
AcDbRotatedDimension
1001
ACAD
1000
DSTYLE
1002
{
1070
   279
1070
     0
1070
   172
1070
     1
1070
   173
1070
     1
1070
   340
1005
E0
1070
   271
1070
     2
1070
   272
1070
     2
1070
    77
1070
     1
1070
    73
1070
     0
1070
   171
1070
     3
1070
   274
1070
     4
1070
   177
1070
    35
1070
   176
1070
    35
1070
   178
1070
    35
1070
    48
1040
-0.005
1070
    41
1041
3.5
1070
   147
1041
1.75
1070
    42
1041
1.5875
1070
    44
1041
2.0
1070
   140
1041
3.5
1070
   343
1005
0
1070
   344
1005
0
1002
}
0
DIMENSION
5
100
100
AcDbEntity
8
SK2
62
256
6
ByLayer
370
13
48
1
60
0
100
AcDbDimension
2
DimnDraft3D3
10
30
20
13.609119
30
0
11
23.66
21
13.609119
31
0
70
32
71
5
72
1
41
1
210
0
220
0
230
1
3
Standard
100
AcDbAlignedDimension
13
17.32
23
3.5875
33
0
14
30
24
1.5875
34
0
50
0
100
AcDbRotatedDimension
1001
ACAD
1000
DSTYLE
1002
{
1070
   279
1070
     0
1070
   172
1070
     1
1070
   173
1070
     1
1070
   340
1005
E0
1070
   271
1070
     2
1070
   272
1070
     2
1070
    77
1070
     1
1070
    73
1070
     0
1070
   171
1070
     3
1070
   274
1070
     4
1070
   177
1070
    35
1070
   176
1070
    35
1070
   178
1070
    35
1070
    48
1040
-0.005
1070
    41
1041
3.5
1070
   147
1041
1.75
1070
    42
1041
1.5875
1070
    44
1041
2.0
1070
   140
1041
3.5
1070
   343
1005
0
1070
   344
1005
0
1002
}
0
DIMENSION
5
10A
100
AcDbEntity
8
SK2
62
256
6
ByLayer
370
13
48
1
60
0
100
AcDbDimension
2
DimnDraft3D4
10
29.32
20
-14.802503
30
0
11
39.981425
21
-14.802503
31
0
70
32
71
5
72
1
41
1
210
0
220
0
230
1
3
Standard
100
AcDbAlignedDimension
13
30
23
-1.5875
33
0
14
29.32
24
-3.5875
34
0
50
0
100
AcDbRotatedDimension
1001
ACAD
1000
DSTYLE
1002
{
1070
   279
1070
     0
1070
   172
1070
     1
1070
   173
1070
     1
1070
   340
1005
E0
1070
   271
1070
     2
1070
   272
1070
     2
1070
    77
1070
     1
1070
    73
1070
     0
1070
   171
1070
     3
1070
   274
1070
     4
1070
   177
1070
    35
1070
   176
1070
    35
1070
   178
1070
    35
1070
    48
1040
-0.005
1070
    41
1041
3.5
1070
   147
1041
1.75
1070
    42
1041
1.5875
1070
    44
1041
2.0
1070
   140
1041
3.5
1070
   343
1005
0
1070
   344
1005
0
1002
}
0
DIMENSION
5
114
100
AcDbEntity
8
SK2
62
256
6
ByLayer
370
13
48
1
60
0
100
AcDbDimension
2
DimnDraft3D5
10
29.32
20
-21.343428
30
0
11
-5.419324
21
-21.343428
31
0
70
32
71
5
72
1
41
1
210
0
220
0
230
1
3
Standard
100
AcDbAlignedDimension
13
-36
23
-4.5875
33
0
14
29.32
24
-3.5875
34
0
50
0
100
AcDbRotatedDimension
1001
ACAD
1000
DSTYLE
1002
{
1070
   279
1070
     0
1070
   172
1070
     1
1070
   173
1070
     1
1070
   340
1005
E0
1070
   271
1070
     2
1070
   272
1070
     2
1070
    77
1070
     1
1070
    73
1070
     0
1070
   171
1070
     3
1070
   274
1070
     4
1070
   177
1070
    35
1070
   176
1070
    35
1070
   178
1070
    35
1070
    48
1040
-0.005
1070
    41
1041
3.5
1070
   147
1041
1.75
1070
    42
1041
1.5875
1070
    44
1041
2.0
1070
   140
1041
3.5
1070
   343
1005
0
1070
   344
1005
0
1002
}
0
DIMENSION
5
11F
100
AcDbEntity
8
SK2
62
256
6
ByLayer
370
13
48
1
60
0
100
AcDbDimension
2
DimnDraft3D6
10
-46.625163
20
3
30
0
11
-47.250163
21
21.47418
31
0
70
33
71
5
72
1
41
1
210
0
220
0
230
1
3
Standard
100
AcDbAlignedDimension
13
-37.5875
23
-3
33
0
14
-37.5875
24
3
34
0
1001
ACAD
1000
DSTYLE
1002
{
1070
   279
1070
     0
1070
    74
1070
     0
1070
   173
1070
     1
1070
   340
1005
E0
1070
   271
1070
     3
1070
   272
1070
     2
1070
    77
1070
     1
1070
    73
1070
     0
1070
   171
1070
     3
1070
   274
1070
     4
1070
   177
1070
    35
1070
   176
1070
    35
1070
   178
1070
    35
1070
    48
1040
-0.005
1070
    41
1041
3.5
1070
   147
1041
1.75
1070
    42
1041
1.5875
1070
    44
1041
2.0
1070
   140
1041
3.5
1070
   343
1005
0
1070
   344
1005
0
1002
}
0
DIMENSION
5
12A
100
AcDbEntity
8
2
62
256
6
ByLayer
370
13
48
1
60
0
100
AcDbDimension
2
DimnDraft3D7
10
44.083343
20
2
30
0
11
39.458343
21
19.067266
31
0
70
33
71
5
72
1
41
1
210
0
220
0
230
1
3
Standard
100
AcDbAlignedDimension
13
30.9075
23
-2
33
0
14
30.9075
24
2
34
0
1001
ACAD
1000
DSTYLE
1002
{
1070
   279
1070
     0
1070
    74
1070
     0
1070
   173
1070
     1
1070
   340
1005
E0
1070
   271
1070
     3
1070
   272
1070
     2
1070
    77
1070
     1
1070
    73
1070
     0
1070
   171
1070
     3
1070
   274
1070
     4
1070
   177
1070
    35
1070
   176
1070
    35
1070
   178
1070
    35
1070
    48
1040
-0.005
1070
    41
1041
3.5
1070
   147
1041
1.75
1070
    42
1041
1.5875
1070
    44
1041
2.0
1070
   140
1041
3.5
1070
   343
1005
0
1070
   344
1005
0
1002
}
0
ENDSEC
0
SECTION
2
OBJECTS
0
DICTIONARY
5
195
330
0
100
AcDbDictionary
280
0
281
1
3
ACAD_GROUP
350
196
3
ACAD_MLINESTYLE
350
197
0
DICTIONARY
5
196
330
0
100
AcDbDictionary
280
0
281
1
0
DICTIONARY
5
197
330
0
100
AcDbDictionary
280
0
281
1
3
Standard
350
18
0
MLINESTYLE
5
18
330
197
100
AcDbMlineStyle
2
Standard
70
0
3

62
256
51
90
52
90
71
2
49
-0.5
62
256
6
ByLayer
49
0.5
62
256
6
ByLayer
0
RASTERVARIABLES
5
183
330

100
AcDbRasterVariables
90
0
70
1
71
1
72
1
0
ENDSEC
0
EOF
