0
SECTION
2
HEADER
9
$ACADVER
1
AC1015
9
$DWGCODEPAGE
3
ANSI_1252
9
$HANDSEED
5
19c
9
$ANGBASE
50
0
9
$ANGDIR
70
0
9
$ATTMODE
70
1
9
$AUNITS
70
0
9
$AUPREC
70
0
9
$CECOLOR
62
256
9
$CELTSCALE
40
1
9
$CELTYPE
6
ByLayer
9
$CELWEIGHT
370
18
9
$CLAYER
8
0
9
$CMLJUST
70
0
9
$CMLSCALE
40
1
9
$CMLSTYLE
2
Standard
9
$DIMSTYLE
2
Standard
9
$TEXTSIZE
40
0.2
9
$TEXTSTYLE
7
Standard
9
$LUNITS
70
2
9
$LUPREC
70
4
9
$EXTNAMES
290
1
9
$INSUNITS
70
4
9
$LTSCALE
40
1
9
$LWDISPLAY
290
1
9
$PDMODE
70
0
9
$PDSIZE
40
0
9
$PLINEGEN
70
0
0
ENDSEC
0
SECTION
2
CLASSES
0
CLASS
1
RASTERVARIABLES
2
AcDbRasterVariables
3
ISM
90
0
280
0
281
0
0
ENDSEC
0
SECTION
2
TABLES
0
TABLE
2
VPORT
5
192
100
AcDbSymbolTable
0
VPORT
5
1
100
AcDbSymbolTableRecord
100
AcDbViewportTableRecord
2
*Active
70
0
10
0
20
0
11
1
21
1
12
-1
22
1
13
0
23
0
14
0.5
24
0.5
15
10
25
10
16
0
26
0
36
1
17
0
27
0
37
0
0
ENDTAB
0
TABLE
2
LTYPE
5
193
100
AcDbSymbolTable
0
LTYPE
5
14
100
AcDbSymbolTableRecord
100
AcDbLinetypeTableRecord
70
0
2
ByBlock
3

72
65
73
0
40
0
0
LTYPE
5
15
100
AcDbSymbolTableRecord
100
AcDbLinetypeTableRecord
70
0
2
ByLayer
3

72
65
73
0
40
0
0
LTYPE
5
16
100
AcDbSymbolTableRecord
100
AcDbLinetypeTableRecord
70
0
2
CONTINUOUS
3
Solid line
72
65
73
0
40
0
0
LTYPE
5
6A
100
AcDbSymbolTableRecord
100
AcDbLinetypeTableRecord
70
0
2
CENTER
3
____ _ ____ _ ____ _ ____
72
65
73
4
40
47.5
49
22
74
0
49
-8.5
74
0
49
8.5
74
0
49
-8.5
74
0
0
LTYPE
5
6B
100
AcDbSymbolTableRecord
100
AcDbLinetypeTableRecord
70
0
2
DASHED
3
__ __ __ __ __ __ __ __ __
72
65
73
2
40
25.72
49
12.86
74
0
49
-12.86
74
0
0
ENDTAB
0
TABLE
2
LAYER
5
194
100
AcDbSymbolTable
0
LAYER
5
10
100
AcDbSymbolTableRecord
100
AcDbLayerTableRecord
2
0
70
0
62
7
6
CONTINUOUS
290
1
370
-3
390
0
0
LAYER
5
6D
100
AcDbSymbolTableRecord
100
AcDbLayerTableRecord
2
81
70
0
62
-3
6
CONTINUOUS
290
1
370
-3
390
0
0
LAYER
5
6F
100
AcDbSymbolTableRecord
100
AcDbLayerTableRecord
2
80
70
0
62
-6
6
CONTINUOUS
290
1
370
-3
390
0
0
LAYER
5
74
100
AcDbSymbolTableRecord
100
AcDbLayerTableRecord
2
2
70
0
62
7
6
CONTINUOUS
290
1
370
-3
390
0
0
LAYER
5
78
100
AcDbSymbolTableRecord
100
AcDbLayerTableRecord
2
1
70
0
62
4
6
CONTINUOUS
290
1
370
-3
390
0
0
LAYER
5
88
100
AcDbSymbolTableRecord
100
AcDbLayerTableRecord
2
4
70
0
62
-2
6
CENTER
290
1
370
-3
390
0
0
LAYER
5
17e
100
AcDbSymbolTableRecord
100
AcDbLayerTableRecord
2
SK2
70
0
62
7
6
CONTINUOUS
290
1
370
-3
390
0
0
LAYER
5
17f
100
AcDbSymbolTableRecord
100
AcDbLayerTableRecord
2
SK1
70
0
62
4
6
CONTINUOUS
290
1
370
-3
390
0
0
LAYER
5
180
100
AcDbSymbolTableRecord
100
AcDbLayerTableRecord
2
SK4
70
0
62
2
6
CENTER
290
1
370
-3
390
0
0
LAYER
5
181
100
AcDbSymbolTableRecord
100
AcDbLayerTableRecord
2
SK6
70
0
62
5
6
CONTINUOUS
290
1
370
-3
390
0
0
ENDTAB
0
TABLE
2
STYLE
5
195
100
AcDbSymbolTable
0
STYLE
5
11
100
AcDbSymbolTableRecord
100
AcDbTextStyleTableRecord
2
Standard
3
txt
70
0
71
0
40
0
41
1
42
0
50
0
0
STYLE
5
DA
100
AcDbSymbolTableRecord
100
AcDbTextStyleTableRecord
2
iso_b_vert
3
simplex.shx
70
0
71
0
40
0
41
1
42
0
50
0
0
STYLE
5
DB
100
AcDbSymbolTableRecord
100
AcDbTextStyleTableRecord
2
DWGDirectTextStyle
3
simplex
70
0
71
0
40
0
41
1
42
0
50
0
0
ENDTAB
0
TABLE
2
DIMSTYLE
5
196
100
AcDbSymbolTable
100
AcDbDimStyleTable
0
DIMSTYLE
105
27
100
AcDbSymbolTableRecord
100
AcDbDimStyleTableRecord
2
Standard
70
0
3
<>
41
0.18
42
0.0625
44
0.18
140
0.18
147
0.09
73
0
74
0
77
1
271
2
275
0
278
52
280
0
340
11
0
ENDTAB
0
TABLE
2
VIEW
5
197
100
AcDbSymbolTable
0
ENDTAB
0
TABLE
2
UCS
5
198
100
AcDbSymbolTable
0
ENDTAB
0
TABLE
2
APPID
5
199
100
AcDbSymbolTable
0
APPID
5
12
100
AcDbSymbolTableRecord
100
AcDbRegAppTableRecord
2
ACAD
70
0
0
ENDTAB
0
TABLE
2
BLOCK_RECORD
5
19a
100
AcDbSymbolTable
0
BLOCK_RECORD
5
1F
100
AcDbSymbolTableRecord
100
AcDbBlockTableRecord
2
*Model_Space
340
0
70
0
0
BLOCK_RECORD
5
1B
100
AcDbSymbolTableRecord
100
AcDbBlockTableRecord
2
*Paper_Space
340
0
70
0
0
BLOCK_RECORD
5
23
100
AcDbSymbolTableRecord
100
AcDbBlockTableRecord
2
*Paper_Space0
340
0
70
0
0
BLOCK_RECORD
5
DD
100
AcDbSymbolTableRecord
100
AcDbBlockTableRecord
2
DimnDraft3D1
340
0
70
0
0
BLOCK_RECORD
5
E7
100
AcDbSymbolTableRecord
100
AcDbBlockTableRecord
2
DimnDraft3D2
340
0
70
0
0
BLOCK_RECORD
5
F1
100
AcDbSymbolTableRecord
100
AcDbBlockTableRecord
2
DimnDraft3D3
340
0
70
0
0
BLOCK_RECORD
5
FB
100
AcDbSymbolTableRecord
100
AcDbBlockTableRecord
2
DimnDraft3D4
340
0
70
0
0
BLOCK_RECORD
5
105
100
AcDbSymbolTableRecord
100
AcDbBlockTableRecord
2
DimnDraft3D5
340
0
70
0
0
BLOCK_RECORD
5
10F
100
AcDbSymbolTableRecord
100
AcDbBlockTableRecord
2
DimnDraft3D6
340
0
70
0
0
BLOCK_RECORD
5
11A
100
AcDbSymbolTableRecord
100
AcDbBlockTableRecord
2
DimnDraft3D7
340
0
70
0
0
ENDTAB
0
ENDSEC
0
SECTION
2
BLOCKS
0
BLOCK
5
20
100
AcDbEntity
8
0
100
AcDbBlockBegin
2
*Model_Space
70
0
10
0
20
0
30
0
3
*Model_Space
0
ENDBLK
5
21
100
AcDbEntity
8
0
100
AcDbBlockEnd
0
BLOCK
5
1C
100
AcDbEntity
8
0
100
AcDbBlockBegin
2
*Paper_Space
70
0
10
0
20
0
30
0
3
*Paper_Space
0
ENDBLK
5
1D
100
AcDbEntity
8
0
100
AcDbBlockEnd
0
BLOCK
5
24
100
AcDbEntity
8
0
100
AcDbBlockBegin
2
*Paper_Space0
70
0
10
0
20
0
30
0
3
*Paper_Space0
0
ENDBLK
5
25
100
AcDbEntity
8
0
100
AcDbBlockEnd
0
BLOCK
5
E4
100
AcDbEntity
8
0
100
AcDbBlockBegin
2
DimnDraft3D1
70
0
10
0
20
0
30
0
3
DimnDraft3D1
0
MTEXT
5
DE
100
AcDbEntity
8
SK2
62
256
6
ByLayer
370
13
48
1
60
0
100
AcDbMText
10
8.957164
20
-11.288398
30
0
210
0
220
0
230
1
1
\W0.7495;29,34
40
3.5
41
0
44
1.084337
50
0
71
7
72
5
7
iso_b_vert
0
LINE
5
DF
100
AcDbEntity
8
SK2
62
256
6
ByLayer
370
13
48
1
60
0
100
AcDbLine
10
0
20
-1.5875
30
0
11
0
21
-14.163398
31
0
39
0
210
0
220
0
230
1
0
LINE
5
E0
100
AcDbEntity
8
SK2
62
256
6
ByLayer
370
13
48
1
60
0
100
AcDbLine
10
29.34
20
-3.5375
30
0
11
29.34
21
-14.163398
31
0
39
0
210
0
220
0
230
1
0
LINE
5
E1
100
AcDbEntity
8
SK2
62
256
6
ByLayer
370
13
48
1
60
0
100
AcDbLine
10
0
20
-12.163398
30
0
11
29.34
21
-12.163398
31
0
39
0
210
0
220
0
230
1
0
SOLID
5
E2
100
AcDbEntity
8
SK2
62
256
6
ByLayer
370
13
48
1
60
0
100
AcDbTrace
10
0
20
-12.163398
30
0
11
3.499998
21
-11.702615
31
0
12
3.500002
22
-12.624182
32
0
13
0
23
-12.163398
33
0
39
0
210
0
220
0
230
1
0
SOLID
5
E3
100
AcDbEntity
8
SK2
62
256
6
ByLayer
370
13
48
1
60
0
100
AcDbTrace
10
29.34
20
-12.163398
30
0
11
25.840002
21
-12.624182
31
0
12
25.839998
22
-11.702615
32
0
13
29.34
23
-12.163398
33
0
39
0
210
0
220
0
230
1
0
ENDBLK
5
E5
100
AcDbEntity
8
0
100
AcDbBlockEnd
0
BLOCK
5
EE
100
AcDbEntity
8
0
100
AcDbBlockBegin
2
DimnDraft3D2
70
0
10
0
20
0
30
0
3
DimnDraft3D2
0
MTEXT
5
E8
100
AcDbEntity
8
SK2
62
256
6
ByLayer
370
13
48
1
60
0
100
AcDbMText
10
-6.767384
20
-30.817985
30
0
210
0
220
0
230
1
1
\W0.7317;66,00
40
3.5
41
0
44
1.084337
50
0
71
7
72
5
7
iso_b_vert
0
LINE
5
E9
100
AcDbEntity
8
SK2
62
256
6
ByLayer
370
13
48
1
60
0
100
AcDbLine
10
-36
20
-4.5875
30
0
11
-36
21
-33.692985
31
0
39
0
210
0
220
0
230
1
0
LINE
5
EA
100
AcDbEntity
8
SK2
62
256
6
ByLayer
370
13
48
1
60
0
100
AcDbLine
10
30
20
-1.5875
30
0
11
30
21
-33.692985
31
0
39
0
210
0
220
0
230
1
0
LINE
5
EB
100
AcDbEntity
8
SK2
62
256
6
ByLayer
370
13
48
1
60
0
100
AcDbLine
10
-36
20
-31.692985
30
0
11
30
21
-31.692985
31
0
39
0
210
0
220
0
230
1
0
SOLID
5
EC
100
AcDbEntity
8
SK2
62
256
6
ByLayer
370
13
48
1
60
0
100
AcDbTrace
10
-36
20
-31.692985
30
0
11
-32.500002
21
-31.232202
31
0
12
-32.499998
22
-32.153769
32
0
13
-36
23
-31.692985
33
0
39
0
210
0
220
0
230
1
0
SOLID
5
ED
100
AcDbEntity
8
SK2
62
256
6
ByLayer
370
13
48
1
60
0
100
AcDbTrace
10
30
20
-31.692985
30
0
11
26.500002
21
-32.153769
31
0
12
26.499998
22
-31.232202
32
0
13
30
23
-31.692985
33
0
39
0
210
0
220
0
230
1
0
ENDBLK
5
EF
100
AcDbEntity
8
0
100
AcDbBlockEnd
0
BLOCK
5
F8
100
AcDbEntity
8
0
100
AcDbBlockBegin
2
DimnDraft3D3
70
0
10
0
20
0
30
0
3
DimnDraft3D3
0
MTEXT
5
F2
100
AcDbEntity
8
SK2
62
256
6
ByLayer
370
13
48
1
60
0
100
AcDbMText
10
15.908816
20
14.434119
30
0
210
0
220
0
230
1
1
\W0.6713;20,16
40
3.5
41
0
44
1.084337
50
0
71
7
72
5
7
iso_b_vert
0
LINE
5
F3
100
AcDbEntity
8
SK2
62
256
6
ByLayer
370
13
48
1
60
0
100
AcDbLine
10
9.84
20
3.5375
30
0
11
9.84
21
15.559119
31
0
39
0
210
0
220
0
230
1
0
LINE
5
F4
100
AcDbEntity
8
SK2
62
256
6
ByLayer
370
13
48
1
60
0
100
AcDbLine
10
30
20
1.5875
30
0
11
30
21
15.559119
31
0
39
0
210
0
220
0
230
1
0
LINE
5
F5
100
AcDbEntity
8
SK2
62
256
6
ByLayer
370
13
48
1
60
0
100
AcDbLine
10
9.84
20
13.559119
30
0
11
30
21
13.559119
31
0
39
0
210
0
220
0
230
1
0
SOLID
5
F6
100
AcDbEntity
8
SK2
62
256
6
ByLayer
370
13
48
1
60
0
100
AcDbTrace
10
9.84
20
13.559119
30
0
11
13.339998
21
14.019903
31
0
12
13.340002
22
13.098335
32
0
13
9.84
23
13.559119
33
0
39
0
210
0
220
0
230
1
0
SOLID
5
F7
100
AcDbEntity
8
SK2
62
256
6
ByLayer
370
13
48
1
60
0
100
AcDbTrace
10
30
20
13.559119
30
0
11
26.500002
21
13.098335
31
0
12
26.499998
22
14.019903
32
0
13
30
23
13.559119
33
0
39
0
210
0
220
0
230
1
0
ENDBLK
5
F9
100
AcDbEntity
8
0
100
AcDbBlockEnd
0
BLOCK
5
102
100
AcDbEntity
8
0
100
AcDbBlockBegin
2
DimnDraft3D4
70
0
10
0
20
0
30
0
3
DimnDraft3D4
0
MTEXT
5
FC
100
AcDbEntity
8
SK2
62
256
6
ByLayer
370
13
48
1
60
0
100
AcDbMText
10
36.840636
20
-13.877503
30
0
210
0
220
0
230
1
1
\W0.7150;0,66
40
3.5
41
0
44
1.084337
50
0
71
7
72
5
7
iso_b_vert
0
LINE
5
FD
100
AcDbEntity
8
SK2
62
256
6
ByLayer
370
13
48
1
60
0
100
AcDbLine
10
30
20
-1.5875
30
0
11
30
21
-16.752503
31
0
39
0
210
0
220
0
230
1
0
LINE
5
FE
100
AcDbEntity
8
SK2
62
256
6
ByLayer
370
13
48
1
60
0
100
AcDbLine
10
29.34
20
-3.5375
30
0
11
29.34
21
-16.752503
31
0
39
0
210
0
220
0
230
1
0
LINE
5
FF
100
AcDbEntity
8
SK2
62
256
6
ByLayer
370
13
48
1
60
0
100
AcDbLine
10
20.59
20
-14.752503
30
0
11
43.997215
21
-14.752503
31
0
39
0
210
0
220
0
230
1
0
SOLID
5
100
100
AcDbEntity
8
SK2
62
256
6
ByLayer
370
13
48
1
60
0
100
AcDbTrace
10
30
20
-14.752503
30
0
11
33.499998
21
-14.291719
31
0
12
33.500002
22
-15.213287
32
0
13
30
23
-14.752503
33
0
39
0
210
0
220
0
230
1
0
SOLID
5
101
100
AcDbEntity
8
SK2
62
256
6
ByLayer
370
13
48
1
60
0
100
AcDbTrace
10
29.34
20
-14.752503
30
0
11
25.840002
21
-15.213287
31
0
12
25.839998
22
-14.291719
32
0
13
29.34
23
-14.752503
33
0
39
0
210
0
220
0
230
1
0
ENDBLK
5
103
100
AcDbEntity
8
0
100
AcDbBlockEnd
0
BLOCK
5
10C
100
AcDbEntity
8
0
100
AcDbBlockBegin
2
DimnDraft3D5
70
0
10
0
20
0
30
0
3
DimnDraft3D5
0
MTEXT
5
106
100
AcDbEntity
8
SK2
62
256
6
ByLayer
370
13
48
1
60
0
100
AcDbMText
10
-10.032218
20
-20.468428
30
0
210
0
220
0
230
1
1
\W0.7495;65,34
40
3.5
41
0
44
1.084337
50
0
71
7
72
5
7
iso_b_vert
0
LINE
5
107
100
AcDbEntity
8
SK2
62
256
6
ByLayer
370
13
48
1
60
0
100
AcDbLine
10
-36
20
-4.5875
30
0
11
-36
21
-23.343428
31
0
39
0
210
0
220
0
230
1
0
LINE
5
108
100
AcDbEntity
8
SK2
62
256
6
ByLayer
370
13
48
1
60
0
100
AcDbLine
10
29.34
20
-3.5375
30
0
11
29.34
21
-23.343428
31
0
39
0
210
0
220
0
230
1
0
LINE
5
109
100
AcDbEntity
8
SK2
62
256
6
ByLayer
370
13
48
1
60
0
100
AcDbLine
10
-36
20
-21.343428
30
0
11
29.34
21
-21.343428
31
0
39
0
210
0
220
0
230
1
0
SOLID
5
10A
100
AcDbEntity
8
SK2
62
256
6
ByLayer
370
13
48
1
60
0
100
AcDbTrace
10
-36
20
-21.343428
30
0
11
-32.500002
21
-20.882645
31
0
12
-32.499998
22
-21.804212
32
0
13
-36
23
-21.343428
33
0
39
0
210
0
220
0
230
1
0
SOLID
5
10B
100
AcDbEntity
8
SK2
62
256
6
ByLayer
370
13
48
1
60
0
100
AcDbTrace
10
29.34
20
-21.343428
30
0
11
25.840002
21
-21.804212
31
0
12
25.839998
22
-20.882645
32
0
13
29.34
23
-21.343428
33
0
39
0
210
0
220
0
230
1
0
ENDBLK
5
10D
100
AcDbEntity
8
0
100
AcDbBlockEnd
0
BLOCK
5
117
100
AcDbEntity
8
0
100
AcDbBlockBegin
2
DimnDraft3D6
70
0
10
0
20
0
30
0
3
DimnDraft3D6
0
MTEXT
5
110
100
AcDbEntity
8
SK2
62
256
6
ByLayer
370
13
48
1
60
0
100
AcDbMText
10
-46.375163
20
22.34918
30
0
210
0
220
0
230
1
1
\W0.7317;6,000
40
3.5
41
0
44
1.084337
50
90
71
7
72
5
7
iso_b_vert
0
MTEXT
5
111
100
AcDbEntity
8
SK2
62
256
6
ByLayer
370
13
48
1
60
0
100
AcDbMText
10
-46.375163
20
17.126524
30
0
210
0
220
0
230
1
1
%%c
40
3.5
41
0
44
1.084337
50
90
71
7
72
5
7
iso_b_vert
0
LINE
5
112
100
AcDbEntity
8
SK2
62
256
6
ByLayer
370
13
48
1
60
0
100
AcDbLine
10
-37.5875
20
-3
30
0
11
-46.625163
21
-3
31
0
39
0
210
0
220
0
230
1
0
LINE
5
113
100
AcDbEntity
8
SK2
62
256
6
ByLayer
370
13
48
1
60
0
100
AcDbLine
10
-37.5875
20
3
30
0
11
-46.625163
21
3
31
0
39
0
210
0
220
0
230
1
0
LINE
5
114
100
AcDbEntity
8
SK2
62
256
6
ByLayer
370
13
48
1
60
0
100
AcDbLine
10
-44.625163
20
32.121549
30
0
11
-44.625163
21
-11.75
31
0
39
0
210
0
220
0
230
1
0
SOLID
5
115
100
AcDbEntity
8
SK2
62
256
6
ByLayer
370
13
48
1
60
0
100
AcDbTrace
10
-44.625163
20
-3
30
0
11
-44.164379
21
-6.499998
31
0
12
-45.085946
22
-6.500002
32
0
13
-44.625163
23
-3
33
0
39
0
210
0
220
0
230
1
0
SOLID
5
116
100
AcDbEntity
8
SK2
62
256
6
ByLayer
370
13
48
1
60
0
100
AcDbTrace
10
-44.625163
20
3
30
0
11
-45.085946
21
6.499998
31
0
12
-44.164379
22
6.500002
32
0
13
-44.625163
23
3
33
0
39
0
210
0
220
0
230
1
0
ENDBLK
5
118
100
AcDbEntity
8
0
100
AcDbBlockEnd
0
BLOCK
5
122
100
AcDbEntity
8
0
100
AcDbBlockBegin
2
DimnDraft3D7
70
0
10
0
20
0
30
0
3
DimnDraft3D7
0
MTEXT
5
11B
100
AcDbEntity
8
2
62
256
6
ByLayer
370
13
48
1
60
0
100
AcDbMText
10
40.333343
20
19.892266
30
0
210
0
220
0
230
1
1
\W0.7317;3,900
40
3.5
41
0
44
1.084337
50
90
71
7
72
5
7
iso_b_vert
0
MTEXT
5
11C
100
AcDbEntity
8
2
62
256
6
ByLayer
370
13
48
1
60
0
100
AcDbMText
10
40.333343
20
14.66961
30
0
210
0
220
0
230
1
1
%%c
40
3.5
41
0
44
1.084337
50
90
71
7
72
5
7
iso_b_vert
0
LINE
5
11D
100
AcDbEntity
8
2
62
256
6
ByLayer
370
13
48
1
60
0
100
AcDbLine
10
30.9275
20
-1.95
30
0
11
44.083343
21
-1.95
31
0
39
0
210
0
220
0
230
1
0
LINE
5
11E
100
AcDbEntity
8
2
62
256
6
ByLayer
370
13
48
1
60
0
100
AcDbLine
10
30.9275
20
1.95
30
0
11
44.083343
21
1.95
31
0
39
0
210
0
220
0
230
1
0
LINE
5
11F
100
AcDbEntity
8
2
62
256
6
ByLayer
370
13
48
1
60
0
100
AcDbLine
10
42.083343
20
29.664635
30
0
11
42.083343
21
-10.7
31
0
39
0
210
0
220
0
230
1
0
SOLID
5
120
100
AcDbEntity
8
2
62
256
6
ByLayer
370
13
48
1
60
0
100
AcDbTrace
10
42.083343
20
-1.95
30
0
11
42.544126
21
-5.449998
31
0
12
41.622559
22
-5.450002
32
0
13
42.083343
23
-1.95
33
0
39
0
210
0
220
0
230
1
0
SOLID
5
121
100
AcDbEntity
8
2
62
256
6
ByLayer
370
13
48
1
60
0
100
AcDbTrace
10
42.083343
20
1.95
30
0
11
41.622559
21
5.449998
31
0
12
42.544126
22
5.450002
32
0
13
42.083343
23
1.95
33
0
39
0
210
0
220
0
230
1
0
ENDBLK
5
123
100
AcDbEntity
8
0
100
AcDbBlockEnd
0
ENDSEC
0
SECTION
2
ENTITIES
0
ARC
5
99
100
AcDbEntity
8
1
62
256
6
ByLayer
370
18
48
1
60
0
100
AcDbCircle
39
0
10
0
20
2.2
30
0
40
0.799999999999999
210
0
220
0
230
1
100
AcDbArc
50
19.468738
51
90
0
ARC
5
9A
100
AcDbEntity
8
1
62
256
6
ByLayer
370
18
48
1
60
0
100
AcDbCircle
39
0
10
-1.508518
20
2.733268
30
0
40
0.800000000000006
210
0
220
0
230
-1
100
AcDbArc
50
269.965623
51
340.531262
0
ARC
5
9B
100
AcDbEntity
8
1
62
256
6
ByLayer
370
18
48
1
60
0
100
AcDbCircle
39
0
10
-1.508518
20
-2.733268
30
0
40
0.800000000000006
210
0
220
0
230
-1
100
AcDbArc
50
19.468738
51
90.034377
0
ARC
5
9C
100
AcDbEntity
8
1
62
256
6
ByLayer
370
18
48
1
60
0
100
AcDbCircle
39
0
10
0
20
-2.2
30
0
40
0.799999999999999
210
0
220
0
230
1
100
AcDbArc
50
270
51
340.531262
0
ELLIPSE
5
9D
100
AcDbEntity
8
1
62
256
6
ByLayer
370
18
48
1
60
0
100
AcDbEllipse
10
29.861044
20
0.086226
30
0
11
0.0727819104900563
21
0.301917195728514
31
0
210
0
220
0
230
-1
40
0.478434
41
1.67523102295869
42
2.45976119974203
0
ELLIPSE
5
9E
100
AcDbEntity
8
1
62
256
6
ByLayer
370
13
48
1
60
0
100
AcDbEllipse
10
4.176541
20
-1.187099
30
0
11
0.00839599260545468
21
0.0996469131893665
31
0
210
0
220
0
230
1
40
0.60997
41
1.06146195127323
42
2.19330435341112
0
ELLIPSE
5
9F
100
AcDbEntity
8
1
62
256
6
ByLayer
370
18
48
1
60
0
100
AcDbEllipse
10
30.000188
20
0.000426
30
0
11
0.726969325913218
21
1.94737736231728
31
0
210
0
220
0
230
-1
40
0.148387
41
2.83264937389776
42
2.96654119482826
0
ELLIPSE
5
A0
100
AcDbEntity
8
1
62
256
6
ByLayer
370
13
48
1
60
0
100
AcDbEllipse
10
29.638817
20
0.21808
30
0
11
0.153082081612416
21
0.258003636193775
31
0
210
0
220
0
230
1
40
0.454519
41
0.917105603404779
42
2.31336900500025
0
ELLIPSE
5
A1
100
AcDbEntity
8
1
62
256
6
ByLayer
370
18
48
1
60
0
100
AcDbEllipse
10
30.066572
20
-0.035721
30
0
11
0.133321008208826
21
-0.425213611848974
31
0
210
0
220
0
230
-1
40
0.112798
41
1.73777071095259
42
2.34950393582266
0
ELLIPSE
5
A2
100
AcDbEntity
8
1
62
256
6
ByLayer
370
13
48
1
60
0
100
AcDbEllipse
10
29.945777
20
1.009333
30
0
11
1.34573610626023
21
-0.553202115583939
31
0
210
0
220
0
230
-1
40
0.448771
41
1.61460552799046
42
1.91295074570358
0
ELLIPSE
5
A3
100
AcDbEntity
8
1
62
256
6
ByLayer
370
18
48
1
60
0
100
AcDbEllipse
10
29.595616
20
1.009333
30
0
11
0.305270312521907
21
-0.81774633378586
31
0
210
0
220
0
230
-1
40
0.148387
41
-1.46911635481027
42
-0.730060677417196
0
ELLIPSE
5
A4
100
AcDbEntity
8
1
62
256
6
ByLayer
370
18
48
1
60
0
100
AcDbEllipse
10
30.000188
20
-0.000426
30
0
11
0.726969322456061
21
-1.94737735196277
31
0
210
0
220
0
230
-1
40
0.148387
41
-2.96654119435063
42
-2.83264937305909
0
ELLIPSE
5
A5
100
AcDbEntity
8
1
62
256
6
ByLayer
370
13
48
1
60
0
100
AcDbEllipse
10
29.75587
20
0.886135
30
0
11
1.2844492642601
21
-0.884379843537902
31
0
210
0
220
0
230
-1
40
0.533762
41
1.44484622741085
42
1.72009300877092
0
ELLIPSE
5
A6
100
AcDbEntity
8
1
62
256
6
ByLayer
370
13
48
1
60
0
100
AcDbEllipse
10
4.250196
20
-1.206993
30
0
11
0.0399222439704736
21
0.0916854101608429
31
0
210
0
220
0
230
1
40
0.303079
41
0.960037614144791
42
2.49141486445518
0
ELLIPSE
5
A7
100
AcDbEntity
8
1
62
256
6
ByLayer
370
18
48
1
60
0
100
AcDbEllipse
10
30.066572
20
0.035721
30
0
11
0.133321008276614
21
0.42521361201754
31
0
210
0
220
0
230
-1
40
0.112798
41
-2.34950393584955
42
-1.73777071119443
0
POINT
5
6C
100
AcDbEntity
8
81
62
256
6
ByLayer
370
18
48
1
60
0
100
AcDbPoint
10
30
20
0
30
0
39
0
210
0
220
0
230
1
50
360
0
POINT
5
6E
100
AcDbEntity
8
80
62
256
6
ByLayer
370
18
48
1
60
0
100
AcDbPoint
10
0
20
0
30
0
39
0
210
0
220
0
230
1
50
360
0
POINT
5
70
100
AcDbEntity
8
SK2
62
256
6
ByLayer
370
18
48
1
60
1
100
AcDbPoint
10
-36
20
-3
30
0
39
0
210
0
220
0
230
1
50
360
0
POINT
5
72
100
AcDbEntity
8
SK2
62
256
6
ByLayer
370
18
48
1
60
1
100
AcDbPoint
10
-36
20
3
30
0
39
0
210
0
220
0
230
1
50
360
0
POINT
5
73
100
AcDbEntity
8
2
62
256
6
ByLayer
370
18
48
1
60
1
100
AcDbPoint
10
29.34
20
-1.95
30
0
39
0
210
0
220
0
230
1
50
360
0
POINT
5
75
100
AcDbEntity
8
2
62
256
6
ByLayer
370
18
48
1
60
1
100
AcDbPoint
10
29.34
20
1.95
30
0
39
0
210
0
220
0
230
1
50
360
0
SPLINE
5
A8
100
AcDbEntity
8
1
62
256
6
ByLayer
370
18
48
1
60
0
100
AcDbSpline
70
4
71
3
72
15
73
11
40
0
40
0
40
0
40
0
40
0.201551763466929
40
0.383067726505448
40
0.555442559853164
40
0.680222037001951
40
0.789424349364319
40
0.845203532974964
40
0.931167666321724
40
1
40
1
40
1
40
1
41
1
10
23.4535114487446
20
1.84300313991818
30
0
41
1
10
23.1611508844181
20
1.84214894374713
30
0
41
1
10
22.6050708307673
20
1.84104049127694
30
0
41
1
10
21.7970090120861
20
1.84220568638722
30
0
41
1
10
21.1007043368345
20
1.84206636895874
30
0
41
1
10
20.5089461451364
20
1.84177579573037
30
0
41
1
10
20.0871109742826
20
1.84119342669632
30
0
41
1
10
19.7218216564674
20
1.84116509748509
30
0
41
1
10
19.4152888052262
20
1.84096425891076
30
0
41
1
10
19.1898847519828
20
1.8408389394732
30
0
41
1
10
19.0896646511318
20
1.84078691227177
30
0
0
SPLINE
5
A9
100
AcDbEntity
8
1
62
256
6
ByLayer
370
18
48
1
60
0
100
AcDbSpline
70
4
71
3
72
18
73
14
40
0
40
0
40
0
40
0
40
0.116633213688271
40
0.2087381434956
40
0.287588004425729
40
0.340203783862851
40
0.396872783151079
40
0.460523106249818
40
0.529619925886163
40
0.639481626996271
40
0.741337974565408
40
0.861626115864994
40
1
40
1
40
1
40
1
41
1
10
7.32425939234
20
-1.83390908534426
30
0
41
1
10
7.52796066426865
20
-1.83400903186782
30
0
41
1
10
7.89259311309272
20
-1.83426750359303
30
0
41
1
10
8.39531289845394
20
-1.83386578730398
30
0
41
1
10
8.78597588759288
20
-1.83505513286329
30
0
41
1
10
9.11480321602573
20
-1.83510517718116
30
0
41
1
10
9.41704712083884
20
-1.83506288702523
30
0
41
1
10
9.74810599035425
20
-1.83503185265812
30
0
41
1
10
10.172083896575
20
-1.83581396895576
30
0
41
1
10
10.6631172670849
20
-1.83575614683608
30
0
41
1
10
11.2419153794947
20
-1.83530990020907
30
0
41
1
10
11.8727384894015
20
-1.83669213315318
30
0
41
1
10
12.3239098259973
20
-1.83723275626358
30
0
41
1
10
12.5651657591502
20
-1.8375755236363
30
0
0
SPLINE
5
AA
100
AcDbEntity
8
1
62
256
6
ByLayer
370
18
48
1
60
0
100
AcDbSpline
70
4
71
3
72
8
73
4
40
0
40
0
40
0
40
0
40
1
40
1
40
1
40
1
41
1
10
13.1281916240916
20
-0.520754429337842
30
0
41
1
10
13.1360144134374
20
-0.525847958953733
30
0
41
1
10
13.1481721394759
20
-0.532991917535696
30
0
41
1
10
13.1651082888532
20
-0.542260325093167
30
0
0
SPLINE
5
AB
100
AcDbEntity
8
1
62
256
6
ByLayer
370
18
48
1
60
0
100
AcDbSpline
70
4
71
1
72
4
73
2
40
0
40
0
40
1
40
1
41
1
10
29.0923836190944
20
-1.84694950236914
30
0
41
1
10
29.2986624111969
20
-1.84498157495861
30
0
0
SPLINE
5
AC
100
AcDbEntity
8
1
62
256
6
ByLayer
370
18
48
1
60
0
100
AcDbSpline
70
4
71
3
72
17
73
13
40
0
40
0
40
0
40
0
40
0.125967574831814
40
0.224707228394259
40
0.30734851054269
40
0.359841351829792
40
0.414402799514511
40
0.473907579992538
40
0.537600940242728
40
0.681149768104921
40
0.832311067155386
40
1
40
1
40
1
40
1
41
1
10
18.212191252374
20
-1.84041732628791
30
0
41
1
10
18.4321922846498
20
-1.84048819713581
30
0
41
1
10
18.8247548925042
20
-1.84063613491634
30
0
41
1
10
19.3622186665239
20
-1.84094988386923
30
0
41
1
10
19.7710182017744
20
-1.84113852620379
30
0
41
1
10
20.1026070647734
20
-1.84127801343115
30
0
41
1
10
20.3937890385712
20
-1.84198225747116
30
0
41
1
10
20.7045519009178
20
-1.84116687860015
30
0
41
1
10
21.1709812259772
20
-1.84255723801772
30
0
41
1
10
21.7970005844513
20
-1.84202886155518
30
0
41
1
10
22.6047984141216
20
-1.8410983325422
30
0
41
1
10
23.1606009864019
20
-1.84214850432187
30
0
41
1
10
23.4526871405144
20
-1.84300173958945
30
0
0
SPLINE
5
AD
100
AcDbEntity
8
1
62
256
6
ByLayer
370
18
48
1
60
0
100
AcDbSpline
70
4
71
3
72
16
73
12
40
0
40
0
40
0
40
0
40
0.162756073478215
40
0.304461083574028
40
0.424452585684455
40
0.553874765599754
40
0.686178770672918
40
0.797443794023088
40
0.85167468022497
40
0.931887951595385
40
1
40
1
40
1
40
1
41
1
10
12.5640335744232
20
1.83757388207488
30
0
41
1
10
12.3231545677235
20
1.83723164511403
30
0
41
1
10
11.872360030283
20
1.83669426909316
30
0
41
1
10
11.2419162956287
20
1.83530175199976
30
0
41
1
10
10.663114138799
20
1.83578218941861
30
0
41
1
10
10.0965377583457
20
1.83571552446492
30
0
41
1
10
9.54324143031383
20
1.83492201506107
30
0
41
1
10
9.10141134356394
20
1.83523179763861
30
0
41
1
10
8.73687091312632
20
1.83486751233812
30
0
41
1
10
8.43641906850434
20
1.83405320982968
30
0
41
1
10
8.21634202834056
20
1.83405875761613
30
0
41
1
10
8.11528822056943
20
1.83408277082799
30
0
0
SPLINE
5
AE
100
AcDbEntity
8
1
62
256
6
ByLayer
370
18
48
1
60
0
100
AcDbSpline
70
4
71
3
72
9
73
5
40
0
40
0
40
0
40
0
40
0.133317069508653
40
1
40
1
40
1
40
1
41
1
10
24.0104420175715
20
-0.515306298606362
30
0
41
1
10
24.0109077979862
20
-0.51584925918732
30
0
41
1
10
24.0166799692825
20
-0.521055972166124
30
0
41
1
10
24.0379832191081
20
-0.534709958773476
30
0
41
1
10
24.0704566039752
20
-0.552977213133659
30
0
0
SPLINE
5
AF
100
AcDbEntity
8
1
62
256
6
ByLayer
370
18
48
1
60
0
100
AcDbSpline
70
4
71
3
72
14
73
10
40
0
40
0
40
0
40
0
40
0.285914852349883
40
0.285914852349883
40
0.457944309851314
40
0.457944309851314
40
0.629973767352745
40
0.629973767352745
40
1
40
1
40
1
40
1
41
1
10
18.2487857175327
20
-1.84042654309874
30
0
41
1
10
18.0312443796784
20
-1.84063805181154
30
0
41
1
10
17.8141722034854
20
-1.82995011492082
30
0
41
1
10
17.4658447757702
20
-1.7956288313826
30
0
41
1
10
17.3348683712036
20
-1.77883338294836
30
0
41
1
10
17.0723137985016
20
-1.73760296185827
30
0
41
1
10
16.9404303214228
20
-1.71310069764556
30
0
41
1
10
16.5263529914012
20
-1.62466273550973
30
0
41
1
10
16.245515133799
20
-1.54785650137583
30
0
41
1
10
15.9646926905611
20
-1.45674143033776
30
0
0
SPLINE
5
B0
100
AcDbEntity
8
1
62
256
6
ByLayer
370
13
48
1
60
0
100
AcDbSpline
70
4
71
3
72
24
73
20
40
0
40
0
40
0
40
0
40
0.122510563098205
40
0.122510563098205
40
0.188766402231399
40
0.188766402231399
40
0.255022241364594
40
0.255022241364594
40
0.387533919630983
40
0.387533919630983
40
0.453789758764179
40
0.453789758764179
40
0.520045597897375
40
0.520045597897375
40
0.652557276163767
40
0.652557276163767
40
0.917580632696554
40
0.917580632696554
40
1
40
1
40
1
40
1
41
1
10
15.9646926906909
20
-1.45674143037985
30
0
41
1
10
15.7232847804447
20
-1.37841471746987
30
0
41
1
10
15.4818882612809
20
-1.28951389758666
30
0
41
1
10
15.108185739073
20
-1.138322740098
30
0
41
1
10
14.9763920917101
20
-1.0824118168932
30
0
41
1
10
14.7133482931875
20
-0.966415167344309
30
0
41
1
10
14.5822382973548
20
-0.906408418586068
30
0
41
1
10
14.1895917111514
20
-0.721332101188892
30
0
41
1
10
13.9287434906555
20
-0.591199105117425
30
0
41
1
10
13.5367322856463
20
-0.389731704172874
30
0
41
1
10
13.4059484277201
20
-0.321509677160066
30
0
41
1
10
13.143729617183
20
-0.183726474895366
30
0
41
1
10
13.0120493649802
20
-0.114021812676157
30
0
41
1
10
12.6171997816007
20
0.0952479412394212
30
0
41
1
10
12.3561050027419
20
0.234038099149217
30
0
41
1
10
11.5746618438966
20
0.639634885769794
30
0
41
1
10
11.0564276934872
20
0.896303050435847
30
0
41
1
10
10.3651858082273
20
1.18640345137339
30
0
41
1
10
10.2020814416253
20
1.25109993441762
30
0
41
1
10
10.0394950314638
20
1.31129120499881
30
0
0
SPLINE
5
B1
100
AcDbEntity
8
1
62
256
6
ByLayer
370
18
48
1
60
0
100
AcDbSpline
70
4
71
3
72
12
73
8
40
0
40
0
40
0
40
0
40
0.25
40
0.25
40
0.499999999999999
40
0.499999999999999
40
1
40
1
40
1
40
1
41
1
10
4.25051474981359
20
1.3693709347059
30
0
41
1
10
4.23201167930969
20
1.37653209459947
30
0
41
1
10
4.21359372273105
20
1.38481896457429
30
0
41
1
10
4.17696688640137
20
1.40381078005419
30
0
41
1
10
4.15853474930566
20
1.41467144088691
30
0
41
1
10
4.10575618009489
20
1.45037802194761
30
0
41
1
10
4.0731152549813
20
1.47898118190324
30
0
41
1
10
4.04835071838335
20
1.51007747456038
30
0
0
SPLINE
5
B2
100
AcDbEntity
8
1
62
256
6
ByLayer
370
18
48
1
60
0
100
AcDbSpline
70
4
71
3
72
8
73
4
40
0
40
0
40
0
40
0
40
1
40
1
40
1
40
1
41
1
10
29.3494377210705
20
-1.84307852690031
30
0
41
1
10
29.3417582086989
20
-1.84568124896353
30
0
41
1
10
29.3345279307056
20
-1.84698876896653
30
0
41
1
10
29.3277530721534
20
-1.84698325455648
30
0
0
SPLINE
5
B3
100
AcDbEntity
8
1
62
256
6
ByLayer
370
18
48
1
60
0
100
AcDbSpline
70
4
71
3
72
20
73
16
40
0
40
0
40
0
40
0
40
0.124999999999997
40
0.124999999999997
40
0.249999999999994
40
0.249999999999994
40
0.499999999999989
40
0.499999999999989
40
0.624999999999992
40
0.624999999999992
40
0.749999999999994
40
0.749999999999994
40
0.874999999999997
40
0.874999999999997
40
1
40
1
40
1
40
1
41
1
10
29.8549787880558
20
-0.681108790385053
30
0
41
1
10
29.8362571775507
20
-0.731869750543297
30
0
41
1
10
29.8173894130246
20
-0.782544636169092
30
0
41
1
10
29.7797970235714
20
-0.883995506280996
30
0
41
1
10
29.7609838237645
20
-0.934706224400571
30
0
41
1
10
29.7043780355476
20
-1.08669455174334
30
0
41
1
10
29.6663908889686
20
-1.1878037818604
30
0
41
1
10
29.6089844410699
20
-1.33909918347402
30
0
41
1
10
29.5898107628324
20
-1.38951137053036
30
0
41
1
10
29.551435054334
20
-1.49023332621127
30
0
41
1
10
29.5322059747028
20
-1.5405000040607
30
0
41
1
10
29.4934670050358
20
-1.64039102687204
30
0
41
1
10
29.4739969316672
20
-1.69010644949509
30
0
41
1
10
29.4349867945726
20
-1.78937719701111
30
0
41
1
10
29.4153880431016
20
-1.83879827805802
30
0
41
1
10
29.3954978318114
20
-1.88755266647505
30
0
0
SPLINE
5
B4
100
AcDbEntity
8
1
62
256
6
ByLayer
370
13
48
1
60
0
100
AcDbSpline
70
4
71
3
72
20
73
16
40
0
40
0
40
0
40
0
40
0.1967535409181
40
0.1967535409181
40
0.295130311377148
40
0.295130311377148
40
0.393507081836196
40
0.393507081836196
40
0.787014163672376
40
0.787014163672376
40
0.885390934131423
40
0.885390934131423
40
0.98376770459047
40
0.98376770459047
40
1
40
1
40
1
40
1
41
1
10
4.20159851009794
20
-1.27264782221891
30
0
41
1
10
4.46526105662275
20
-1.38301921058539
30
0
41
1
10
4.72760351367282
20
-1.48180460085879
30
0
41
1
10
5.12141865481641
20
-1.6102230187567
30
0
41
1
10
5.25274927640208
20
-1.6497206090547
30
0
41
1
10
5.51607839680131
20
-1.72151933343582
30
0
41
1
10
5.64846750277869
20
-1.75384100499801
30
0
41
1
10
6.30728606618851
20
-1.89524687617691
30
0
41
1
10
6.82519676720719
20
-1.94516006437198
30
0
41
1
10
7.47813649443196
20
-1.92461278642486
30
0
41
1
10
7.60897967086078
20
-1.91637022246124
30
0
41
1
10
7.87152739355861
20
-1.89163929934858
30
0
41
1
10
8.0035647205047
20
-1.8751008231998
30
0
41
1
10
8.15721307140566
20
-1.85116791028409
30
0
41
1
10
8.17895870635655
20
-1.84767093907445
30
0
41
1
10
8.2006894003236
20
-1.84406750828768
30
0
0
SPLINE
5
B5
100
AcDbEntity
8
1
62
256
6
ByLayer
370
18
48
1
60
0
100
AcDbSpline
70
4
71
3
72
28
73
24
40
0
40
0
40
0
40
0
40
0.0717555462861923
40
0.0717555462861923
40
0.137406896395625
40
0.137406896395625
40
0.203058246505058
40
0.203058246505058
40
0.465663646942783
40
0.465663646942783
40
0.531314997052214
40
0.531314997052214
40
0.596966347161644
40
0.596966347161644
40
0.728269047380501
40
0.728269047380501
40
0.859571747599358
40
0.859571747599358
40
0.925223097708787
40
0.925223097708787
40
0.990874447818216
40
0.990874447818216
40
1
40
1
40
1
40
1
41
1
10
20.2799162827498
20
1.54639227341636
30
0
41
1
10
20.4222897579019
20
1.49836103636542
30
0
41
1
10
20.5648631433745
20
1.44634694049324
30
0
41
1
10
20.838707811908
20
1.33951002191327
30
0
41
1
10
20.9699627617825
20
1.28538377033138
30
0
41
1
10
21.2336240345303
20
1.17120809035686
30
0
41
1
10
21.3653458094905
20
1.11145381664755
30
0
41
1
10
22.0205360523445
20
0.802946463060294
30
0
41
1
10
22.5379329386727
20
0.523550681813617
30
0
41
1
10
23.1914513046705
20
0.159887167178454
30
0
41
1
10
23.3225368170866
20
0.0865193998672567
30
0
41
1
10
23.585795999561
20
-0.0609591122204733
30
0
41
1
10
23.717821130577
20
-0.135000631763859
30
0
41
1
10
24.111151259529
20
-0.354370719660153
30
0
41
1
10
24.3715740635372
20
-0.497417576335124
30
0
41
1
10
24.8915062620297
20
-0.772640590684489
30
0
41
1
10
25.1510004573427
20
-0.904859452670536
30
0
41
1
10
25.5418537191476
20
-1.09110218210751
30
0
41
1
10
25.6724194228034
20
-1.15114854206576
30
0
41
1
10
25.9345894042003
20
-1.26639029474936
30
0
41
1
10
26.0665917663918
20
-1.32176587607316
30
0
41
1
10
26.2164780508106
20
-1.38126956419976
30
0
41
1
10
26.2347586016541
20
-1.38846927013938
30
0
41
1
10
26.2530285423855
20
-1.39560659370608
30
0
0
SPLINE
5
B6
100
AcDbEntity
8
1
62
256
6
ByLayer
370
13
48
1
60
0
100
AcDbSpline
70
4
71
3
72
14
73
10
40
0
40
0
40
0
40
0
40
0.491158871372127
40
0.491158871372127
40
0.745579435686058
40
0.745579435686058
40
0.87278971784303
40
0.87278971784303
40
1
40
1
40
1
40
1
41
1
10
26.2530285420993
20
-1.39560659359427
30
0
41
1
10
26.7605114552311
20
-1.59385954959132
30
0
41
1
10
27.2598080516436
20
-1.74398088749001
30
0
41
1
10
28.0221744563082
20
-1.8846802556692
30
0
41
1
10
28.2831971050337
20
-1.91735258942472
30
0
41
1
10
28.6783353775625
20
-1.94144037480362
30
0
41
1
10
28.8102999183595
20
-1.94528073300279
30
0
41
1
10
29.0735198340326
20
-1.94446848257078
30
0
41
1
10
29.2050122057276
20
-1.93983224735899
30
0
41
1
10
29.336561676321
20
-1.93096013663097
30
0
0
SPLINE
5
B7
100
AcDbEntity
8
1
62
256
6
ByLayer
370
18
48
1
60
0
100
AcDbSpline
70
4
71
3
72
56
73
52
40
0
40
0
40
0
40
0
40
0.0685612461138715
40
0.0685612461138715
40
0.102841869170807
40
0.102841869170807
40
0.137122492227743
40
0.137122492227743
40
0.205683738341616
40
0.205683738341616
40
0.239964361398553
40
0.239964361398553
40
0.274244984455489
40
0.274244984455489
40
0.308525607512426
40
0.308525607512426
40
0.342806230569362
40
0.342806230569362
40
0.411367476683237
40
0.411367476683237
40
0.445648099740175
40
0.445648099740175
40
0.479928722797113
40
0.479928722797113
40
0.514209345854052
40
0.514209345854052
40
0.54848996891099
40
0.54848996891099
40
0.582770591967928
40
0.582770591967928
40
0.617051215024866
40
0.617051215024866
40
0.651331838081804
40
0.651331838081804
40
0.685612461138742
40
0.685612461138742
40
0.754173707252619
40
0.754173707252619
40
0.788454330309557
40
0.788454330309557
40
0.822734953366495
40
0.822734953366495
40
0.857015576423433
40
0.857015576423433
40
0.891296199480372
40
0.891296199480372
40
0.959857445594248
40
0.959857445594248
40
0.994138068651186
40
0.994138068651186
40
1
40
1
40
1
40
1
41
1
10
7.76276527640186
20
1.85322590373576
30
0
41
1
10
7.98811691934523
20
1.81630845639424
30
0
41
1
10
8.21398080537384
20
1.76842958530423
30
0
41
1
10
8.55196123924551
20
1.67959657639489
30
0
41
1
10
8.66436411501087
20
1.64695829553526
30
0
41
1
10
8.89020324154129
20
1.57703406902803
30
0
41
1
10
9.00327888838481
20
1.53971607488995
30
0
41
1
10
9.34166941351745
20
1.42048520546351
30
0
41
1
10
9.56613856147129
20
1.33062305703339
30
0
41
1
10
9.90508153012397
20
1.18522410934807
30
0
41
1
10
10.0181801685788
20
1.13479802401733
30
0
41
1
10
10.2435111191102
20
1.03010094277855
30
0
41
1
10
10.3558209173616
20
0.975682681763317
30
0
41
1
10
10.5811719545052
20
0.864955378355148
30
0
41
1
10
10.6940364877705
20
0.80839274796395
30
0
41
1
10
10.9197892996356
20
0.692287517983573
30
0
41
1
10
11.0326184678041
20
0.632545896716096
30
0
41
1
10
11.3705026444722
20
0.451211475841404
30
0
41
1
10
11.5961342799324
20
0.328434503775497
30
0
41
1
10
11.9341465745561
20
0.139686942201422
30
0
41
1
10
12.0468840903392
20
0.0759970856097425
30
0
41
1
10
12.2725441188097
20
-0.0499943368136258
30
0
41
1
10
12.3853792973145
20
-0.112683560465598
30
0
41
1
10
12.6106957544922
20
-0.238103720882975
30
0
41
1
10
12.7231071883811
20
-0.300955808189286
30
0
41
1
10
12.9483547714367
20
-0.425302477881218
30
0
41
1
10
13.061422985524
20
-0.486691943071236
30
0
41
1
10
13.2872659161065
20
-0.6074679610077
30
0
41
1
10
13.4000127845184
20
-0.666957390071218
30
0
41
1
10
13.6249800469613
20
-0.784398367214095
30
0
41
1
10
13.7373668095456
20
-0.842059965427808
30
0
41
1
10
13.9629103542734
20
-0.953733189952118
30
0
41
1
10
14.0760215434249
20
-1.00808246848368
30
0
41
1
10
14.301697306233
20
-1.11394679066387
30
0
41
1
10
14.4141429581291
20
-1.16543834811006
30
0
41
1
10
14.7517421793266
20
-1.31348355933625
30
0
41
1
10
14.9776424240368
20
-1.40339839138028
30
0
41
1
10
15.3157552817653
20
-1.52626943150403
30
0
41
1
10
15.4283077708304
20
-1.5647231704987
30
0
41
1
10
15.6537467957741
20
-1.63608177037361
30
0
41
1
10
15.7665003854317
20
-1.66914615021025
30
0
41
1
10
15.9916995886605
20
-1.73033969869189
30
0
41
1
10
16.104176147141
20
-1.75840916457045
30
0
41
1
10
16.3298390619737
20
-1.80868361504176
30
0
41
1
10
16.4427300912338
20
-1.83079116950566
30
0
41
1
10
16.7809511238829
20
-1.88847208796236
30
0
41
1
10
17.0052890113503
20
-1.9155009791788
30
0
41
1
10
17.344127136968
20
-1.93727780707212
30
0
41
1
10
17.4571292600503
20
-1.94148759304977
30
0
41
1
10
17.5889658893615
20
-1.9428206916603
30
0
41
1
10
17.6082103698157
20
-1.94292459970501
30
0
41
1
10
17.6274498576566
20
-1.94293793459809
30
0
0
SPLINE
5
B8
100
AcDbEntity
8
1
62
256
6
ByLayer
370
18
48
1
60
0
100
AcDbSpline
70
4
71
3
72
24
73
20
40
0
40
0
40
0
40
0
40
0.0419528836135004
40
0.0419528836135004
40
0.233562306890801
40
0.233562306890801
40
0.32936701852945
40
0.32936701852945
40
0.4251717301681
40
0.4251717301681
40
0.6167811534454
40
0.6167811534454
40
0.71258586508405
40
0.71258586508405
40
0.8083905767227
40
0.8083905767227
40
0.90419528836135
40
0.90419528836135
40
1
40
1
40
1
40
1
41
1
10
25.870007144917
20
1.4070690341018
30
0
41
1
10
25.9193546103399
20
1.42625577012765
30
0
41
1
10
25.9686630327738
20
1.44503918007015
30
0
41
1
10
26.2427928777734
20
1.54734487471356
30
0
41
1
10
26.4679661420224
20
1.62112093307746
30
0
41
1
10
26.806078225942
20
1.71673848539922
30
0
41
1
10
26.9185970021713
20
1.74623377002715
30
0
41
1
10
27.1437254636654
20
1.79897501319854
30
0
41
1
10
27.2563925095842
20
1.82236731439414
30
0
41
1
10
27.5941945327755
20
1.88406311314844
30
0
41
1
10
27.8191535172213
20
1.91395285800073
30
0
41
1
10
28.1573392932892
20
1.93982477229596
30
0
41
1
10
28.2699870947431
20
1.94540276902967
30
0
41
1
10
28.49490372841
20
1.95044832229476
30
0
41
1
10
28.6070574163185
20
1.94987338635283
30
0
41
1
10
28.8322777603915
20
1.94254893261629
30
0
41
1
10
28.9453310272367
20
1.93582426041132
30
0
41
1
10
29.1707943092964
20
1.9162912201123
30
0
41
1
10
29.2831594289942
20
1.90342862504926
30
0
41
1
10
29.3954978318008
20
1.88755266647559
30
0
0
SPLINE
5
B9
100
AcDbEntity
8
1
62
256
6
ByLayer
370
18
48
1
60
0
100
AcDbSpline
70
4
71
3
72
8
73
4
40
0
40
0
40
0
40
0
40
1
40
1
40
1
40
1
41
1
10
5.44261158918266
20
0.850180091633632
30
0
41
1
10
5.03988937499605
20
1.03783778765324
30
0
41
1
10
4.64466901856434
20
1.21682318643934
30
0
41
1
10
4.25051475001308
20
1.36937093463268
30
0
0
SPLINE
5
BA
100
AcDbEntity
8
1
62
256
6
ByLayer
370
18
48
1
60
0
100
AcDbSpline
70
4
71
3
72
54
73
50
40
0
40
0
40
0
40
0
40
0.143840570447154
40
0.143840570447154
40
0.296214077939207
40
0.296214077939207
40
0.372400831685234
40
0.372400831685234
40
0.448587585431261
40
0.448587585431261
40
0.524774339177288
40
0.524774339177288
40
0.543821027613793
40
0.543821027613793
40
0.553344371832044
40
0.55810604394117
40
0.55810604394117
40
0.562867716050296
40
0.562867716050296
40
0.567629388159421
40
0.567629388159421
40
0.572391060268547
40
0.5819144044868
40
0.5819144044868
40
0.600961092923306
40
0.600961092923306
40
0.639054469796314
40
0.639054469796314
40
0.658101158232817
40
0.658101158232817
40
0.67714784666932
40
0.67714784666932
40
0.696194535105823
40
0.696194535105823
40
0.715241223542326
40
0.715241223542326
40
0.73428791197883
40
0.73428791197883
40
0.753334600415333
40
0.753334600415333
40
0.791427977288339
40
0.791427977288339
40
0.829521354161346
40
0.829521354161346
40
0.905708107907358
40
0.905708107907358
40
0.981894861653371
40
0.981894861653371
40
1
40
1
40
1
40
1
41
1
10
6.68000581815588
20
-1.93636822101939
30
0
41
1
10
6.35480683796894
20
-1.93618001246091
30
0
41
1
10
6.02712761081295
20
-1.91579468764044
30
0
41
1
10
5.34062812901254
20
-1.84898655913201
30
0
41
1
10
4.9810231126259
20
-1.80124667248447
30
0
41
1
10
4.4278260391587
20
-1.72835925198029
30
0
41
1
10
4.24099609777943
20
-1.70386687924116
30
0
41
1
10
3.86587294497019
20
-1.65799013160412
30
0
41
1
10
3.67717237147429
20
-1.63655441079104
30
0
41
1
10
3.29729877798138
20
-1.59914331122951
30
0
41
1
10
3.10612840456088
20
-1.58316548423224
30
0
41
1
10
2.86552192032161
20
-1.56778567897234
30
0
41
1
10
2.81732258952451
20
-1.56493860799398
30
0
41
1
10
2.74500701382183
20
-1.5610343989905
30
0
41
1
10
2.70883842881412
20
-1.55917342879113
30
0
41
1
10
2.67265353687776
20
-1.55745204201793
30
0
41
1
10
2.64852663872273
20
-1.55633577730728
30
0
41
1
10
2.63649609002914
20
-1.55548334925749
30
0
41
1
10
2.6122052763387
20
-1.55582818255908
30
0
41
1
10
2.5992763449421
20
-1.55694655935324
30
0
41
1
10
2.5770517605192
20
-1.56325848181027
30
0
41
1
10
2.54386229390346
20
-1.5728277607607
30
0
41
1
10
2.51113722504761
20
-1.58270859171276
30
0
41
1
10
2.44637974675135
20
-1.60291024873851
30
0
41
1
10
2.40412216383859
20
-1.61696152411531
30
0
41
1
10
2.28094183816501
20
-1.66115121324458
30
0
41
1
10
2.2051669331579
20
-1.69262913525483
30
0
41
1
10
2.10989533869892
20
-1.74317342485028
30
0
41
1
10
2.08109163400778
20
-1.76079166493156
30
0
41
1
10
2.03563083182567
20
-1.79519443850595
30
0
41
1
10
2.01846933348958
20
-1.81243929321977
30
0
41
1
10
1.99961006688409
20
-1.84394578519695
30
0
41
1
10
1.99766732627592
20
-1.85843283403295
30
0
41
1
10
2.00784478747011
20
-1.88339442718123
30
0
41
1
10
2.01970943074207
20
-1.89375475518776
30
0
41
1
10
2.0532750563178
20
-1.91058732100413
30
0
41
1
10
2.07452817875091
20
-1.91691517056714
30
0
41
1
10
2.12314163151498
20
-1.92644168906037
30
0
41
1
10
2.15069870522964
20
-1.92963579017444
30
0
41
1
10
2.23904198341899
20
-1.93530348025863
30
0
41
1
10
2.30480438578127
20
-1.93402037622636
30
0
41
1
10
2.44386675141809
20
-1.92479297990698
30
0
41
1
10
2.51767475282838
20
-1.91671440733575
30
0
41
1
10
2.7438792971912
20
-1.88489110349383
30
0
41
1
10
2.9006625174423
20
-1.85388362948925
30
0
41
1
10
3.22012446972343
20
-1.77791477388354
30
0
41
1
10
3.38297630847279
20
-1.73278912249304
30
0
41
1
10
3.58725557677334
20
-1.66931588222121
30
0
41
1
10
3.62663943041019
20
-1.65676384698594
30
0
41
1
10
3.66613833605985
20
-1.64387140613542
30
0
0
SPLINE
5
BB
100
AcDbEntity
8
1
62
256
6
ByLayer
370
18
48
1
60
0
100
AcDbSpline
70
4
71
3
72
52
73
48
40
0
40
0
40
0
40
0
40
0.0364605590241172
40
0.0364605590241172
40
0.0729211180482344
40
0.0729211180482344
40
0.109381677072352
40
0.109381677072352
40
0.145842236096469
40
0.145842236096469
40
0.218763354144703
40
0.218763354144703
40
0.291684472192938
40
0.291684472192938
40
0.328145031217054
40
0.328145031217054
40
0.364605590241171
40
0.364605590241171
40
0.401066149265287
40
0.401066149265287
40
0.437526708289403
40
0.437526708289403
40
0.473987267313519
40
0.473987267313519
40
0.510447826337636
40
0.510447826337636
40
0.583368944385867
40
0.583368944385867
40
0.619829503409982
40
0.619829503409982
40
0.656290062434098
40
0.656290062434098
40
0.729211180482327
40
0.729211180482327
40
0.765671739506443
40
0.765671739506443
40
0.802132298530558
40
0.802132298530558
40
0.838592857554674
40
0.838592857554674
40
0.87505341657879
40
0.87505341657879
40
0.911513975602905
40
0.911513975602905
40
0.947974534627021
40
0.947974534627021
40
1
40
1
40
1
40
1
41
1
10
5.44261072652318
20
0.850126375855012
30
0
41
1
10
5.55869915967733
20
0.795696991925183
30
0
41
1
10
5.6747124774088
20
0.74032928774875
30
0
41
1
10
5.90643129705575
20
0.626899730246265
30
0
41
1
10
6.0221552560503
20
0.568933016277242
30
0
41
1
10
6.25348553806566
20
0.450891855616447
30
0
41
1
10
6.36913617126766
20
0.390893603308456
30
0
41
1
10
6.60104876505369
20
0.270315234821368
30
0
41
1
10
6.71733967359313
20
0.209488381251646
30
0
41
1
10
7.06535647347215
20
0.0261652111014428
30
0
41
1
10
7.2964206063499
20
-0.0972842048144287
30
0
41
1
10
7.7597774321186
20
-0.340368009222942
30
0
41
1
10
7.99196028073601
20
-0.461442603685668
30
0
41
1
10
8.33978219201359
20
-0.635661146348582
30
0
41
1
10
8.4556486715889
20
-0.692760759834101
30
0
41
1
10
8.68719978253822
20
-0.805131421172831
30
0
41
1
10
8.80289368586796
20
-0.860321170746005
30
0
41
1
10
9.03477218908785
20
-0.967040364607072
30
0
41
1
10
9.15113492715821
20
-1.01861553981578
30
0
41
1
10
9.38326687033194
20
-1.11837996997599
30
0
41
1
10
9.49904742124744
20
-1.16667498115018
30
0
41
1
10
9.73055807535837
20
-1.25896284757212
30
0
41
1
10
9.84641577776893
20
-1.30274995145487
30
0
41
1
10
10.0782621366911
20
-1.38640093896464
30
0
41
1
10
10.19419966756
20
-1.42645095241173
30
0
41
1
10
10.5425249955094
20
-1.53813336478956
30
0
41
1
10
10.7743409314876
20
-1.60192911519644
30
0
41
1
10
11.1218024897729
20
-1.68199576611866
30
0
41
1
10
11.2374807366132
20
-1.70596083657574
30
0
41
1
10
11.4694386029995
20
-1.74774647126861
30
0
41
1
10
11.5857982588749
20
-1.76589332640239
30
0
41
1
10
11.933996197085
20
-1.8119802662905
30
0
41
1
10
12.1650300041143
20
-1.82868438259379
30
0
41
1
10
12.5127456023563
20
-1.83837844278321
30
0
41
1
10
12.6287262581336
20
-1.83843013589563
30
0
41
1
10
12.860997164567
20
-1.83114499564195
30
0
41
1
10
12.9768969552574
20
-1.82442798627224
30
0
41
1
10
13.2087972791608
20
-1.80588755787534
30
0
41
1
10
13.3247071193696
20
-1.79431412688632
30
0
41
1
10
13.5564016332834
20
-1.76313926569301
30
0
41
1
10
13.6722006608366
20
-1.74414918030425
30
0
41
1
10
13.9041498665436
20
-1.70128301552106
30
0
41
1
10
14.0204800443365
20
-1.6773223132553
30
0
41
1
10
14.2525952509532
20
-1.62355920134141
30
0
41
1
10
14.3684410274022
20
-1.59362477133575
30
0
41
1
10
14.6492549937744
20
-1.51456698897815
30
0
41
1
10
14.8145421191564
20
-1.46328681655876
30
0
41
1
10
14.980071020723
20
-1.40691799805646
30
0
0
SPLINE
5
BC
100
AcDbEntity
8
1
62
256
6
ByLayer
370
18
48
1
60
0
100
AcDbSpline
70
4
71
3
72
26
73
22
40
0
40
0
40
0
40
0
40
0.0168762567811107
40
0.0168762567811107
40
0.0988032353826833
40
0.0988032353826833
40
0.180730213984256
40
0.180730213984256
40
0.262657192585829
40
0.262657192585829
40
0.344584171187401
40
0.344584171187401
40
0.508438128390551
40
0.508438128390551
40
0.590365106992126
40
0.590365106992126
40
0.672292085593701
40
0.672292085593701
40
0.83614604279685
40
0.83614604279685
40
1
40
1
40
1
40
1
41
1
10
23.451410309884
20
1.84313702015604
30
0
41
1
10
23.4752849123186
20
1.84311499852453
30
0
41
1
10
23.4991638462183
20
1.84295033403279
30
0
41
1
10
23.6389946834427
20
1.84111765058881
30
0
41
1
10
23.7550057313823
20
1.83632164732987
30
0
41
1
10
23.9867507249121
20
1.8213725664115
30
0
41
1
10
24.1026007166019
20
1.81146557608636
30
0
41
1
10
24.3340622769276
20
1.78449094915257
30
0
41
1
10
24.4496335844062
20
1.76751319876223
30
0
41
1
10
24.6812727306474
20
1.72770571209628
30
0
41
1
10
24.7974978227687
20
1.70486167963185
30
0
41
1
10
25.1457114562155
20
1.62814323252837
30
0
41
1
10
25.3767977029015
20
1.56629170644788
30
0
41
1
10
25.7243333929842
20
1.45928060211668
30
0
41
1
10
25.8402693304386
20
1.42091877693656
30
0
41
1
10
26.0723482377141
20
1.33890905199922
30
0
41
1
10
26.1882974984117
20
1.29534316432483
30
0
41
1
10
26.5359350213756
20
1.15934676747213
30
0
41
1
10
26.767341465669
20
1.06041064432892
30
0
41
1
10
27.2307149167191
20
0.84917227735599
30
0
41
1
10
27.4633271789415
20
0.737472118805471
30
0
41
1
10
27.6946877035294
20
0.621210064780485
30
0
0
SPLINE
5
BD
100
AcDbEntity
8
1
62
256
6
ByLayer
370
13
48
1
60
0
100
AcDbSpline
70
4
71
3
72
26
73
22
40
0
40
0
40
0
40
0
40
0.125
40
0.125
40
0.25
40
0.25
40
0.375
40
0.375
40
0.4375
40
0.4375
40
0.5
40
0.5
40
0.625
40
0.625
40
0.6875
40
0.6875
40
0.75
40
0.75
40
0.875
40
0.875
40
1
40
1
40
1
40
1
41
1
10
4.25032721968199
20
-1.14449990669152
30
0
41
1
10
4.25033849585702
20
-1.0531171494313
30
0
41
1
10
4.25033916574989
20
-0.955477437615286
30
0
41
1
10
4.25032857713046
20
-0.751249331619817
30
0
41
1
10
4.25031729684869
20
-0.643945583091124
30
0
41
1
10
4.25029150257978
20
-0.420216624752157
30
0
41
1
10
4.25027743126128
20
-0.306855031635536
30
0
41
1
10
4.25026043552703
20
-0.134651318325609
30
0
41
1
10
4.2502554391537
20
-0.0768873639811432
30
0
41
1
10
4.25024762313387
20
0.039381727748264
30
0
41
1
10
4.25024481150206
20
0.0981144440576429
30
0
41
1
10
4.25024083082019
20
0.271563978833768
30
0
41
1
10
4.25024405731642
20
0.384685431644869
30
0
41
1
10
4.25025957703411
20
0.550706762395777
30
0
41
1
10
4.25026651571309
20
0.605432965780494
30
0
41
1
10
4.2502840718056
20
0.713624665815928
30
0
41
1
10
4.25029475023541
20
0.767308645724086
30
0
41
1
10
4.25033174537509
20
0.92397258167648
30
0
41
1
10
4.25036340185355
20
1.02375724553409
30
0
41
1
10
4.25043477982439
20
1.20786987873535
30
0
41
1
10
4.25047439700305
20
1.29237592977958
30
0
41
1
10
4.25051474981066
20
1.36937093463212
30
0
0
SPLINE
5
BE
100
AcDbEntity
8
1
62
256
6
ByLayer
370
13
48
1
60
0
100
AcDbSpline
70
4
71
3
72
10
73
6
40
0
40
0
40
0
40
0
40
0.5
40
0.5
40
1
40
1
40
1
40
1
41
1
10
4.25032721968199
20
-1.14449990669149
30
0
41
1
10
4.22891703112967
20
-1.13918869235871
30
0
41
1
10
4.20791247921957
20
-1.1357017174366
30
0
41
1
10
4.16674723633147
20
-1.13218185066017
30
0
41
1
10
4.14648463854587
20
-1.13219372023929
30
0
41
1
10
4.12756853717636
20
-1.13404014165656
30
0
0
SPLINE
5
BF
100
AcDbEntity
8
1
62
256
6
ByLayer
370
18
48
1
60
0
100
AcDbSpline
70
4
71
3
72
16
73
12
40
0
40
0
40
0
40
0
40
0.25000000000001
40
0.25000000000001
40
0.500000000000021
40
0.500000000000021
40
0.750000000000031
40
0.750000000000031
40
0.875000000000015
40
0.875000000000015
40
1
40
1
40
1
40
1
41
1
10
29.2603886902482
20
0.626021404737315
30
0
41
1
10
29.3122773726023
20
0.638266694450977
30
0
41
1
10
29.363728953757
20
0.652110961279476
30
0
41
1
10
29.4651713015781
20
0.685327520419207
30
0
41
1
10
29.5155981356388
20
0.704725899601073
30
0
41
1
10
29.6108938836221
20
0.753840115408138
30
0
41
1
10
29.6562279070855
20
0.78328308281553
30
0
41
1
10
29.709733722456
20
0.843832841714061
30
0
41
1
10
29.7245617150979
20
0.86654323493039
30
0
41
1
10
29.7441550031127
20
0.917109606711051
30
0
41
1
10
29.7484287666098
20
0.944179986782615
30
0
41
1
10
29.7473193057826
20
0.971391792604152
30
0
0
SPLINE
5
C0
100
AcDbEntity
8
1
62
256
6
ByLayer
370
13
48
1
60
0
100
AcDbSpline
70
4
71
3
72
32
73
28
40
0
40
0
40
0
40
0
40
0.041856233488791
40
0.041856233488791
40
0.08780155920636
40
0.08780155920636
40
0.179692210641494
40
0.179692210641494
40
0.363473513511759
40
0.363473513511759
40
0.409418839229326
40
0.409418839229326
40
0.455364164946893
40
0.455364164946893
40
0.547254816382027
40
0.547254816382027
40
0.639145467817161
40
0.639145467817161
40
0.685090793534728
40
0.685090793534728
40
0.731036119252295
40
0.731036119252295
40
0.914817422122569
40
0.914817422122569
40
0.960762747840138
40
0.960762747840138
40
1
40
1
40
1
40
1
41
1
10
29.3143708288673
20
-1.84420026137008
30
0
41
1
10
29.1947247584526
20
-1.84770135643058
30
0
41
1
10
29.0751052811776
20
-1.8478630562
30
0
41
1
10
28.8239830121687
20
-1.84123086290967
30
0
41
1
10
28.6921993931875
20
-1.83372991536368
30
0
41
1
10
28.2980942580501
20
-1.79948177447326
30
0
41
1
10
28.0375332355092
20
-1.76111487398518
30
0
41
1
10
27.2579388644209
20
-1.60336594243967
30
0
41
1
10
26.7408950708899
20
-1.44086203044301
30
0
41
1
10
26.0836632316503
20
-1.18009979544831
30
0
41
1
10
25.9520806378025
20
-1.12523328737078
30
0
41
1
10
25.690450623838
20
-1.01150599210865
30
0
41
1
10
25.5600897009409
20
-0.952513635988339
30
0
41
1
10
25.1697255546735
20
-0.770302911366656
30
0
41
1
10
24.9104450045822
20
-0.641848028453353
30
0
41
1
10
24.3909276626927
20
-0.376192649661078
30
0
41
1
10
24.1306794316503
20
-0.238984262402624
30
0
41
1
10
23.7377232619654
20
-0.0300295677371309
30
0
41
1
10
23.6058846951922
20
0.0402695424386934
30
0
41
1
10
23.3432605314941
20
0.179731339825509
30
0
41
1
10
23.2124313272615
20
0.24891390564099
30
0
41
1
10
22.5599827999848
20
0.590972790331563
30
0
41
1
10
22.0428026224381
20
0.850713777978143
30
0
41
1
10
21.3883201987789
20
1.1330421757616
30
0
41
1
10
21.2567102971076
20
1.18750930479155
30
0
41
1
10
21.0129057617885
20
1.28332975075648
30
0
41
1
10
20.900975050914
20
1.32531557049529
30
0
41
1
10
20.7893345015146
20
1.36511375488669
30
0
0
SPLINE
5
C1
100
AcDbEntity
8
1
62
256
6
ByLayer
370
18
48
1
60
0
100
AcDbSpline
70
4
71
3
72
12
73
8
40
0
40
0
40
0
40
0
40
0.687192157936767
40
0.687192157936767
40
0.863124688960283
40
0.863124688960283
40
1
40
1
40
1
40
1
41
1
10
7.35440976970807
20
-1.83394305675429
30
0
41
1
10
6.84517455101806
20
-1.83361883410961
30
0
41
1
10
6.33947596292353
20
-1.77360692380026
30
0
41
1
10
5.69425663865403
20
-1.6276434161116
30
0
41
1
10
5.56216001514528
20
-1.59412623238512
30
0
41
1
10
5.3284926638103
20
-1.52875131597426
30
0
41
1
10
5.22644366919158
20
-1.49815489995183
30
0
41
1
10
5.1244696948084
20
-1.46569664178827
30
0
0
SPLINE
5
C2
100
AcDbEntity
8
1
62
256
6
ByLayer
370
13
48
1
60
0
100
AcDbSpline
70
4
71
3
72
10
73
6
40
0
40
0
40
0
40
0
40
0.0999104470739478
40
0.0999104470739478
40
1
40
1
40
1
40
1
41
1
10
5.12446969477134
20
-1.46569664177647
30
0
41
1
10
5.09537153296142
20
-1.456434713389
30
0
41
1
10
5.06627947959893
20
-1.44702118637275
30
0
41
1
10
4.77513100012524
20
-1.35131407163334
30
0
41
1
10
4.51332004318658
20
-1.25310988255507
30
0
41
1
10
4.25032721968188
20
-1.14449990669146
30
0
0
SPLINE
5
C3
100
AcDbEntity
8
1
62
256
6
ByLayer
370
18
48
1
60
0
100
AcDbSpline
70
4
71
3
72
70
73
66
40
0
40
0
40
0
40
0
40
0.0196979315912583
40
0.0196979315912583
40
0.0719432993361575
40
0.0719432993361575
40
0.098065983208607
40
0.098065983208607
40
0.124188667081057
40
0.124188667081057
40
0.150311350953506
40
0.150311350953506
40
0.176434034825956
40
0.176434034825956
40
0.202556718698405
40
0.202556718698405
40
0.228679402570855
40
0.228679402570855
40
0.280924770315754
40
0.280924770315754
40
0.307047454188204
40
0.307047454188204
40
0.333170138060653
40
0.333170138060653
40
0.359292821933103
40
0.359292821933103
40
0.385415505805552
40
0.385415505805552
40
0.411538189678002
40
0.411538189678002
40
0.437660873550452
40
0.437660873550452
40
0.463783557422901
40
0.463783557422901
40
0.489906241295351
40
0.489906241295351
40
0.54215160904025
40
0.54215160904025
40
0.594396976785149
40
0.594396976785149
40
0.620519660657599
40
0.620519660657599
40
0.646642344530049
40
0.646642344530049
40
0.672765028402499
40
0.672765028402499
40
0.69888771227495
40
0.69888771227495
40
0.7250103961474
40
0.7250103961474
40
0.75113308001985
40
0.75113308001985
40
0.803378447764749
40
0.803378447764749
40
0.855623815509648
40
0.855623815509648
40
0.907869183254548
40
0.907869183254548
40
0.933991867126997
40
0.933991867126997
40
0.960114550999447
40
0.960114550999447
40
0.986237234871896
40
0.986237234871896
40
1
40
1
40
1
40
1
41
1
10
25.8731173354953
20
-1.40886276827098
30
0
41
1
10
25.7856951193148
20
-1.43881270555002
30
0
41
1
10
25.6981243879663
20
-1.46732644383465
30
0
41
1
10
25.3786855508307
20
-1.56577371594889
30
0
41
1
10
25.1477460345488
20
-1.62761253884756
30
0
41
1
10
24.8003757565523
20
-1.70426814127683
30
0
41
1
10
24.6844909815174
20
-1.72710110597256
30
0
41
1
10
24.4525807560736
20
-1.76705691657693
30
0
41
1
10
24.3367060206198
20
-1.78413076545152
30
0
41
1
10
24.1051464760033
20
-1.81121981853886
30
0
41
1
10
23.9893850956971
20
-1.82115878306408
30
0
41
1
10
23.7580001242742
20
-1.83617128416083
30
0
41
1
10
23.6424186663705
20
-1.84100446255073
30
0
41
1
10
23.4108825660465
20
-1.8441736047136
30
0
41
1
10
23.294732282568
20
-1.84227270218992
30
0
41
1
10
23.0627345640284
20
-1.83271994241187
30
0
41
1
10
22.9469037922449
20
-1.8252722867567
30
0
41
1
10
22.600019082831
20
-1.7932415164851
30
0
41
1
10
22.3684880723557
20
-1.75851751846983
30
0
41
1
10
22.0204949056067
20
-1.69074243100536
30
0
41
1
10
21.9046299270818
20
-1.66518940674305
30
0
41
1
10
21.6731292489959
20
-1.60812704587238
30
0
41
1
10
21.5573772554381
20
-1.57695790496229
30
0
41
1
10
21.3259044315672
20
-1.51019630672167
30
0
41
1
10
21.2102626060724
20
-1.47417621389823
30
0
41
1
10
20.97872269844
20
-1.39657676348207
30
0
41
1
10
20.8625229494088
20
-1.35502032013989
30
0
41
1
10
20.6304820993983
20
-1.26868355758921
30
0
41
1
10
20.5146445525855
20
-1.2235724373096
30
0
41
1
10
20.2832620317973
20
-1.12882703905177
30
0
41
1
10
20.1676312696784
20
-1.07916700020556
30
0
41
1
10
19.9359691962041
20
-0.976844060942767
30
0
41
1
10
19.8199925577147
20
-0.924300188528832
30
0
41
1
10
19.587743483138
20
-0.815695552564051
30
0
41
1
10
19.471962212043
20
-0.759676555498118
30
0
41
1
10
19.1246704623291
20
-0.588702242279339
30
0
41
1
10
18.8932188081651
20
-0.471054979777563
30
0
41
1
10
18.4297323802556
20
-0.22858034851933
30
0
41
1
10
18.1972903577723
20
-0.105592236188443
30
0
41
1
10
17.8500461407345
20
0.0789486341634529
30
0
41
1
10
17.734455215923
20
0.140655609176292
30
0
41
1
10
17.5027551439494
20
0.262897622187552
30
0
41
1
10
17.3866882600468
20
0.323621713585567
30
0
41
1
10
17.1543908898758
20
0.444114295411424
30
0
41
1
10
17.0385968933742
20
0.503711514350215
30
0
41
1
10
16.8070612005817
20
0.620891088063416
30
0
41
1
10
16.6912983912497
20
0.678489072134539
30
0
41
1
10
16.4596514725135
20
0.791048743328389
30
0
41
1
10
16.3437708957721
20
0.845936744771933
30
0
41
1
10
16.1119360656461
20
0.953332749336511
30
0
41
1
10
15.9957970054956
20
1.00578562355975
30
0
41
1
10
15.6478976633279
20
1.15664568318769
30
0
41
1
10
15.4166620156443
20
1.24983948780644
30
0
41
1
10
14.9533354936124
20
1.41927848664559
30
0
41
1
10
14.7205678728846
20
1.49433645369771
30
0
41
1
10
14.2575919628512
20
1.62498271662432
30
0
41
1
10
14.0258742992809
20
1.67861756550147
30
0
41
1
10
13.677893436936
20
1.74317888661437
30
0
41
1
10
13.5617725856955
20
1.76230532925914
30
0
41
1
10
13.3299314627557
20
1.79371747222547
30
0
41
1
10
13.21408750436
20
1.80538267039105
30
0
41
1
10
12.9824719420317
20
1.82406044305273
30
0
41
1
10
12.8668312115871
20
1.83084846115779
30
0
41
1
10
12.6899824330849
20
1.83656418357347
30
0
41
1
10
12.628856109477
20
1.83753067420608
30
0
41
1
10
12.5676862652768
20
1.83754394695973
30
0
0
SPLINE
5
C4
100
AcDbEntity
8
1
62
256
6
ByLayer
370
18
48
1
60
0
100
AcDbSpline
70
4
71
3
72
12
73
8
40
0
40
0
40
0
40
0
40
0.25
40
0.25
40
0.500000000000001
40
0.500000000000001
40
1
40
1
40
1
40
1
41
1
10
29.3365616763214
20
-1.93096013663094
30
0
41
1
10
29.3415378361934
20
-1.91786238038119
30
0
41
1
10
29.3460938286709
20
-1.90437490478482
30
0
41
1
10
29.352938293979
20
-1.88015853760746
30
0
41
1
10
29.3551876199117
20
-1.86948488572753
30
0
41
1
10
29.3578495551187
20
-1.84612274554217
30
0
41
1
10
29.3547188767593
20
-1.84128865017698
30
0
41
1
10
29.349437721069
20
-1.84307852690082
30
0
0
SPLINE
5
C5
100
AcDbEntity
8
1
62
256
6
ByLayer
370
18
48
1
60
0
100
AcDbSpline
70
4
71
3
72
16
73
12
40
0
40
0
40
0
40
0
40
0.250000000000003
40
0.250000000000003
40
0.500000000000007
40
0.500000000000007
40
0.625000000000009
40
0.625000000000009
40
0.750000000000011
40
0.750000000000011
40
1
40
1
40
1
40
1
41
1
10
29.7473193057826
20
0.971391792604152
30
0
41
1
10
29.7185953638875
20
1.04856165013339
30
0
41
1
10
29.6897519624965
20
1.12562812221665
30
0
41
1
10
29.6316917191243
20
1.27943787464622
30
0
41
1
10
29.602487028405
20
1.35621425577912
30
0
41
1
10
29.5586604681596
20
1.47128085942575
30
0
41
1
10
29.5440289005901
20
1.50958443703976
30
0
41
1
10
29.5146407600317
20
1.58590565167739
30
0
41
1
10
29.4998476578239
20
1.62383973083465
30
0
41
1
10
29.4554212287716
20
1.73753417926048
30
0
41
1
10
29.4257904038682
20
1.81330027153271
30
0
41
1
10
29.3954978318114
20
1.88755266647505
30
0
0
SPLINE
5
C6
100
AcDbEntity
8
1
62
256
6
ByLayer
370
18
48
1
60
0
100
AcDbSpline
70
4
71
3
72
18
73
14
40
0
40
0
40
0
40
0
40
0.125000000000003
40
0.125000000000003
40
0.250000000000006
40
0.250000000000006
40
0.375000000000009
40
0.375000000000009
40
0.500000000000012
40
0.500000000000012
40
0.750000000000006
40
0.750000000000006
40
1
40
1
40
1
40
1
41
1
10
27.6946877035293
20
0.6212100647802
30
0
41
1
10
27.7184084092601
20
0.535950543442283
30
0
41
1
10
27.7492547635741
20
0.451142058423329
30
0
41
1
10
27.823202592372
20
0.282300807847406
30
0
41
1
10
27.8665872015323
20
0.198020070526127
30
0
41
1
10
27.9605793994044
20
0.0364610572860897
30
0
41
1
10
28.0115501409488
20
-0.041724181970892
30
0
41
1
10
28.1201964272994
20
-0.193718404808266
30
0
41
1
10
28.1782778662501
20
-0.267941630200511
30
0
41
1
10
28.3581852424853
20
-0.481001845237927
30
0
41
1
10
28.4852943375157
20
-0.610573618626034
30
0
41
1
10
28.749795974625
20
-0.851836729198141
30
0
41
1
10
28.8879218158196
20
-0.963727087285093
30
0
41
1
10
29.0284658942367
20
-1.06586255210632
30
0
0
SPLINE
5
C7
100
AcDbEntity
8
1
62
256
6
ByLayer
370
18
48
1
60
0
100
AcDbSpline
70
4
71
3
72
28
73
24
40
0
40
0
40
0
40
0
40
0.125
40
0.125
40
0.25
40
0.25
40
0.3125
40
0.3125
40
0.375
40
0.375
40
0.5
40
0.5
40
0.5625
40
0.5625
40
0.625
40
0.625
40
0.75
40
0.75
40
0.8125
40
0.8125
40
0.875
40
0.875
40
1
40
1
40
1
40
1
41
1
10
4.04806197890326
20
-1.14555446508399
30
0
41
1
10
4.04808499616374
20
-1.04585167212497
30
0
41
1
10
4.04809760133637
20
-0.93991702493858
30
0
41
1
10
4.04810967257148
20
-0.71544728113102
30
0
41
1
10
4.04810903095239
20
-0.599101443731342
30
0
41
1
10
4.04810451425564
20
-0.420882280035187
30
0
41
1
10
4.04810240658063
20
-0.360735380507208
30
0
41
1
10
4.04809794995793
20
-0.238937417327577
30
0
41
1
10
4.04809558993489
20
-0.176948174507061
30
0
41
1
10
4.04808962186465
20
0.0085019141956195
30
0
41
1
10
4.0480871952463
20
0.131184570947056
30
0
41
1
10
4.04809003337004
20
0.313818185038571
30
0
41
1
10
4.04809204364
20
0.374462748690064
30
0
41
1
10
4.048098735465
20
0.495271778537898
30
0
41
1
10
4.04810342113396
20
0.555187186917266
30
0
41
1
10
4.04812161762078
20
0.730448139498066
30
0
41
1
10
4.04813938219837
20
0.842540812031928
30
0
41
1
10
4.04817446527721
20
1.00355545054609
30
0
41
1
10
4.04818762606885
20
1.0562865688664
30
0
41
1
10
4.04821616144
20
1.15794616887658
30
0
41
1
10
4.04823147055257
20
1.20671877035662
30
0
41
1
10
4.04827972112494
20
1.34703619926961
30
0
41
1
10
4.04831505744656
20
1.43263487808892
30
0
41
1
10
4.0483507183813
20
1.51007747456035
30
0
0
SPLINE
5
C8
100
AcDbEntity
8
1
62
256
6
ByLayer
370
18
48
1
60
0
100
AcDbSpline
70
4
71
3
72
30
73
26
40
0
40
0
40
0
40
0
40
0.0859109911357849
40
0.0859109911357849
40
0.254188657688863
40
0.254188657688863
40
0.338327490965402
40
0.338327490965402
40
0.422466324241942
40
0.422466324241942
40
0.506605157518481
40
0.506605157518481
40
0.54867457415675
40
0.54867457415675
40
0.59074399079502
40
0.59074399079502
40
0.7590216573481
40
0.7590216573481
40
0.80109107398637
40
0.80109107398637
40
0.843160490624641
40
0.843160490624641
40
0.927299323901183
40
0.927299323901183
40
1
40
1
40
1
40
1
41
1
10
9.68671354547357
20
1.43746489052657
30
0
41
1
10
9.95310313170145
20
1.33816340426961
30
0
41
1
10
10.2203435176987
20
1.22583742943047
30
0
41
1
10
11.018367560044
20
0.860501939008373
30
0
41
1
10
11.536811879402
20
0.584298477292464
30
0
41
1
10
12.3192120499367
20
0.152863785685184
30
0
41
1
10
12.5806631970938
20
0.0059364358588425
30
0
41
1
10
13.1083564449833
20
-0.287886665883519
30
0
41
1
10
13.3710041224963
20
-0.433131979574
30
0
41
1
10
13.8943945739976
20
-0.712483836186493
30
0
41
1
10
14.1555485105863
20
-0.847021641812034
30
0
41
1
10
14.5488628427668
20
-1.03702583697049
30
0
41
1
10
14.6802176667547
20
-1.09841960528121
30
0
41
1
10
14.9438292031579
20
-1.21666181821783
30
0
41
1
10
15.0758431568268
20
-1.27334530499164
30
0
41
1
10
15.7326555153417
20
-1.54099036125339
30
0
41
1
10
16.2524121098698
20
-1.70710587830891
30
0
41
1
10
16.9109289805223
20
-1.83799097555783
30
0
41
1
10
17.0430467681981
20
-1.86030780854887
30
0
41
1
10
17.3059950197593
20
-1.8966110493763
30
0
41
1
10
17.4371666165277
20
-1.91065992016632
30
0
41
1
10
17.8302725993312
20
-1.94037923136048
30
0
41
1
10
18.0917413738173
20
-1.94367290988231
30
0
41
1
10
18.5811166237687
20
-1.91868221892
30
0
41
1
10
18.8095566848126
20
-1.89445954791938
30
0
41
1
10
19.0364301032911
20
-1.85845319409881
30
0
0
SPLINE
5
C9
100
AcDbEntity
8
1
62
256
6
ByLayer
370
18
48
1
60
0
100
AcDbSpline
70
4
71
3
72
16
73
12
40
0
40
0
40
0
40
0
40
0.25
40
0.25
40
0.375
40
0.375
40
0.5
40
0.5
40
0.75
40
0.75
40
1
40
1
40
1
40
1
41
1
10
29.098020979113
20
0.339717086109033
30
0
41
1
10
29.0946690540673
20
0.367552607894567
30
0
41
1
10
29.0948156695978
20
0.396100830342618
30
0
41
1
10
29.1000582926442
20
0.440263605844706
30
0
41
1
10
29.1026820021833
20
0.455254879506953
30
0
41
1
10
29.1097665437932
20
0.485048940770327
30
0
41
1
10
29.1137869610134
20
0.5001611968639
30
0
41
1
10
29.1315769092315
20
0.543111121853514
30
0
41
1
10
29.1512419892288
20
0.568732313881497
30
0
41
1
10
29.2007752052478
20
0.60652336368176
30
0
41
1
10
29.2300680729085
20
0.61886599575837
30
0
41
1
10
29.2603886902482
20
0.626021404737315
30
0
0
SPLINE
5
CA
100
AcDbEntity
8
1
62
256
6
ByLayer
370
18
48
1
60
0
100
AcDbSpline
70
4
71
3
72
16
73
12
40
0
40
0
40
0
40
0
40
0.262432778772274
40
0.262432778772274
40
0.524865557544548
40
0.524865557544548
40
0.787298336316822
40
0.787298336316822
40
0.918514725702959
40
0.918514725702959
40
1
40
1
40
1
40
1
41
1
10
7.76276527639564
20
1.85322590373679
30
0
41
1
10
7.42521055796132
20
1.9081188637185
30
0
41
1
10
7.08204555350181
20
1.93381738782978
30
0
41
1
10
6.39366413605708
20
1.93855618829264
30
0
41
1
10
6.04690336521509
20
1.91771920641534
30
0
41
1
10
5.34062812899629
20
1.84898655913008
30
0
41
1
10
4.98102311260777
20
1.80124667248208
30
0
41
1
10
4.42782603913756
20
1.72835925197751
30
0
41
1
10
4.24099609775732
20
1.70386687923835
30
0
41
1
10
3.93695893036431
20
1.66668379337378
30
0
41
1
10
3.82004409651555
20
1.65301856446317
30
0
41
1
10
3.70266673587594
20
1.64022678734221
30
0
0
SPLINE
5
CB
100
AcDbEntity
8
1
62
256
6
ByLayer
370
18
48
1
60
0
100
AcDbSpline
70
4
71
3
72
16
73
12
40
0
40
0
40
0
40
0
40
0.0802495036788986
40
0.0802495036788986
40
0.21164243172477
40
0.21164243172477
40
0.474428287816514
40
0.474428287816514
40
0.737214143908257
40
0.737214143908257
40
1
40
1
40
1
40
1
41
1
10
2.25185845434009
20
1.93373868499123
30
0
41
1
10
2.29080773998518
20
1.93379999690501
30
0
41
1
10
2.3318687251186
20
1.93222453891258
30
0
41
1
10
2.4438667514296
20
1.9247929799059
30
0
41
1
10
2.51767475283952
20
1.91671440733438
30
0
41
1
10
2.74387929720132
20
1.88489110349195
30
0
41
1
10
2.90066251745134
20
1.85388362948731
30
0
41
1
10
3.22012446973011
20
1.77791477388175
30
0
41
1
10
3.38297630847825
20
1.73278912249142
30
0
41
1
10
3.71308686122882
20
1.63021784051375
30
0
41
1
10
3.8809728757993
20
1.57247897972962
30
0
41
1
10
4.0483507171129
20
1.51007747503399
30
0
0
SPLINE
5
CC
100
AcDbEntity
8
1
62
256
6
ByLayer
370
18
48
1
60
0
100
AcDbSpline
70
4
71
3
72
20
73
16
40
0
40
0
40
0
40
0
40
0.170254477782621
40
0.170254477782621
40
0.362940521586505
40
0.362940521586505
40
0.459283543488447
40
0.459283543488447
40
0.555626565390389
40
0.555626565390389
40
0.748312609194274
40
0.748312609194274
40
0.940998652998158
40
0.940998652998158
40
1
40
1
40
1
40
1
41
1
10
7.76274478869794
20
1.85346583402438
30
0
41
1
10
7.62876469390591
20
1.83823626748227
30
0
41
1
10
7.49406579763195
20
1.81536083837372
30
0
41
1
10
7.20960013196571
20
1.74707870996133
30
0
41
1
10
7.05954771563418
20
1.69898615965255
30
0
41
1
10
6.83363171852332
20
1.60777102871259
30
0
41
1
10
6.75778975429964
20
1.57403479205922
30
0
41
1
10
6.607001769877
20
1.50146330960851
30
0
41
1
10
6.5324793196537
20
1.46287438671897
30
0
41
1
10
6.31046046490661
20
1.34193445394931
30
0
41
1
10
6.16450843057424
20
1.25440715256741
30
0
41
1
10
5.87069842464641
20
1.07576072844799
30
0
41
1
10
5.72211821877852
20
0.984307206539455
30
0
41
1
10
5.52904441399841
20
0.872644949919987
30
0
41
1
10
5.4837074885491
20
0.846932765269145
30
0
41
1
10
5.43834142776069
20
0.821866471514767
30
0
0
SPLINE
5
CD
100
AcDbEntity
8
1
62
256
6
ByLayer
370
18
48
1
60
0
100
AcDbSpline
70
4
71
3
72
17
73
13
40
0
40
0
40
0
40
0
40
0.210791959832294
40
0.210791959832294
40
0.473861306554865
40
0.473861306554865
40
0.605395979916149
40
0.605395979916149
40
0.736930653277433
40
0.868465326638716
40
0.868465326638716
40
1
40
1
40
1
40
1
41
1
10
29.2960806311034
20
-1.84509154717259
30
0
41
1
10
29.2543878857413
20
-1.84000659623638
30
0
41
1
10
29.2162595834866
20
-1.82458780173476
30
0
41
1
10
29.1393336808517
20
-1.76445235247917
30
0
41
1
10
29.1043856265484
20
-1.71459714665588
30
0
41
1
10
29.06438616537
20
-1.61478616540222
30
0
41
1
10
29.0530824273478
20
-1.57711222008703
30
0
41
1
10
29.0351040837437
20
-1.49334428392004
30
0
41
1
10
29.022014074201
20
-1.40259896786282
30
0
41
1
10
29.0184623990905
20
-1.29823907842109
30
0
41
1
10
29.0197749249341
20
-1.18693625555969
30
0
41
1
10
29.0229160260271
20
-1.12744442662782
30
0
41
1
10
29.0284658942375
20
-1.06586255210704
30
0
0
SPLINE
5
CE
100
AcDbEntity
8
1
62
256
6
ByLayer
370
18
48
1
60
0
100
AcDbSpline
70
4
71
3
72
8
73
4
40
0
40
0
40
0
40
0
40
1
40
1
40
1
40
1
41
1
10
4.16389312865959
20
-1.25991712879406
30
0
41
1
10
4.14979767416327
20
-1.25394834055032
30
0
41
1
10
4.13575530776077
20
-1.24784014247106
30
0
41
1
10
4.12226563567481
20
-1.24103978993341
30
0
0
SPLINE
5
CF
100
AcDbEntity
8
1
62
256
6
ByLayer
370
13
48
1
60
0
100
AcDbSpline
70
4
71
3
72
8
73
4
40
0
40
0
40
0
40
0
40
1
40
1
40
1
40
1
41
1
10
4.16389312868873
20
-1.2599171288
30
0
41
1
10
4.17618557958465
20
-1.26305717015751
30
0
41
1
10
4.18875682392363
20
-1.26727218297586
30
0
41
1
10
4.20159851009794
20
-1.27264782221891
30
0
0
SPLINE
5
D0
100
AcDbEntity
8
1
62
256
6
ByLayer
370
18
48
1
60
0
100
AcDbSpline
70
4
71
3
72
40
73
36
40
0
40
0
40
0
40
0
40
0.139145626703221
40
0.139145626703221
40
0.173932033379024
40
0.173932033379024
40
0.208718440054828
40
0.208718440054828
40
0.243504846730632
40
0.243504846730632
40
0.278291253406434
40
0.278291253406434
40
0.417436880109649
40
0.417436880109649
40
0.452223286785453
40
0.452223286785453
40
0.487009693461256
40
0.487009693461256
40
0.556582506812864
40
0.556582506812864
40
0.626155320164471
40
0.626155320164471
40
0.660941726840274
40
0.660941726840274
40
0.695728133516077
40
0.695728133516077
40
0.765300946867685
40
0.765300946867685
40
0.800087353543488
40
0.800087353543488
40
0.834873760219291
40
0.834873760219291
40
0.974019386922506
40
0.974019386922506
40
1
40
1
40
1
40
1
41
1
10
29.3346548244056
20
-1.93597783347778
30
0
41
1
10
28.8099449132025
20
-1.97111911879284
30
0
41
1
10
28.2903182325432
20
-1.93882061878781
30
0
41
1
10
27.6330428372917
20
-1.81740283842765
30
0
41
1
10
27.501044301101
20
-1.78903630516589
30
0
41
1
10
27.237937417547
20
-1.72487915949327
30
0
41
1
10
27.1065756591555
20
-1.68904226261549
30
0
41
1
10
26.8438005485688
20
-1.61025320015767
30
0
41
1
10
26.7123808864067
20
-1.56730868791155
30
0
41
1
10
26.4490991428145
20
-1.47467693408362
30
0
41
1
10
26.317129491389
20
-1.42492516919455
30
0
41
1
10
25.6611596981884
20
-1.16289031571983
30
0
41
1
10
25.1442837589792
20
-0.908895544244814
30
0
41
1
10
24.4915646195053
20
-0.562219839890787
30
0
41
1
10
24.360692265723
20
-0.491429546694889
30
0
41
1
10
24.0979750547662
20
-0.347430244066203
30
0
41
1
10
23.9658431861829
20
-0.274020151356552
30
0
41
1
10
23.5719814792018
20
-0.0537286220599924
30
0
41
1
10
23.3113170022614
20
0.0934608123591261
30
0
41
1
10
22.7910501721267
20
0.383590908745475
30
0
41
1
10
22.5312553343204
20
0.526183414881388
30
0
41
1
10
22.1400368009126
20
0.732731325059433
30
0
41
1
10
22.0093400962859
20
0.800293297050899
30
0
41
1
10
21.7469500287407
20
0.932107708882143
30
0
41
1
10
21.6149554365344
20
0.99651228265077
30
0
41
1
10
21.2198807070159
20
1.18256332533989
30
0
41
1
10
20.9573383628102
20
1.29681711553695
30
0
41
1
10
20.562617427162
20
1.45058492711522
30
0
41
1
10
20.4305566972645
20
1.49896280400685
30
0
41
1
10
20.1675110359581
20
1.58858515433414
30
0
41
1
10
20.0365124216927
20
1.62986067060498
30
0
41
1
10
19.3833410330657
20
1.81809755121841
30
0
41
1
10
18.8659477726474
20
1.90998831972368
30
0
41
1
10
18.2436597114135
20
1.94054233894244
30
0
41
1
10
18.1453436514195
20
1.9430350402445
30
0
41
1
10
18.0469373019849
20
1.94317607492158
30
0
0
SPLINE
5
D1
100
AcDbEntity
8
1
62
256
6
ByLayer
370
18
48
1
60
0
100
AcDbSpline
70
4
71
3
72
16
73
12
40
0
40
0
40
0
40
0
40
0.0135132160495877
40
0.0135132160495877
40
0.21081057283967
40
0.21081057283967
40
0.408107929629751
40
0.408107929629751
40
0.605405286419833
40
0.605405286419833
40
1
40
1
40
1
40
1
41
1
10
8.15927779069671
20
-1.8555937788264
30
0
41
1
10
8.14123817904994
20
-1.85848197964228
30
0
41
1
10
8.12320244567107
20
-1.86129352131471
30
0
41
1
10
7.84190959702528
20
-1.90394903885377
30
0
41
1
10
7.57902534939356
20
-1.92764542154026
30
0
41
1
10
7.05084720561405
20
-1.94143109115134
30
0
41
1
10
6.78807425883491
20
-1.93143095685028
30
0
41
1
10
6.26169705265687
20
-1.8782668438769
30
0
41
1
10
5.99710862417106
20
-1.83488021852051
30
0
41
1
10
5.20968422366423
20
-1.66004836305982
30
0
41
1
10
4.69072188976062
20
-1.48300531062173
30
0
41
1
10
4.16389312868927
20
-1.25991712880207
30
0
0
SPLINE
5
D2
100
AcDbEntity
8
1
62
256
6
ByLayer
370
18
48
1
60
0
100
AcDbSpline
70
4
71
3
72
72
73
68
40
0
40
0
40
0
40
0
40
0.0157448145106055
40
0.0157448145106055
40
0.0407290661096667
40
0.0407290661096667
40
0.0657133177087278
40
0.0657133177087278
40
0.0906975693077889
40
0.0906975693077889
40
0.11568182090685
40
0.11568182090685
40
0.165650324104972
40
0.165650324104972
40
0.190634575704034
40
0.190634575704034
40
0.215618827303096
40
0.215618827303096
40
0.265587330501219
40
0.265587330501219
40
0.315555833699342
40
0.315555833699342
40
0.340540085298404
40
0.340540085298404
40
0.365524336897465
40
0.365524336897465
40
0.390508588496526
40
0.390508588496526
40
0.415492840095587
40
0.415492840095587
40
0.440477091694648
40
0.440477091694648
40
0.465461343293709
40
0.465461343293709
40
0.49044559489277
40
0.49044559489277
40
0.515429846491831
40
0.515429846491831
40
0.565398349689952
40
0.565398349689952
40
0.590382601289013
40
0.590382601289013
40
0.615366852888073
40
0.615366852888073
40
0.640351104487134
40
0.640351104487134
40
0.665335356086194
40
0.665335356086194
40
0.715303859284316
40
0.715303859284316
40
0.740288110883377
40
0.740288110883377
40
0.765272362482438
40
0.765272362482438
40
0.815240865680561
40
0.815240865680561
40
0.865209368878683
40
0.865209368878683
40
0.890193620477745
40
0.890193620477745
40
0.915177872076807
40
0.915177872076807
40
0.965146375274932
40
0.965146375274932
40
0.990130626873995
40
0.990130626873995
40
1
40
1
40
1
40
1
41
1
10
14.9898708316742
20
1.40547286012478
30
0
41
1
10
15.0609520516588
20
1.43289669597667
30
0
41
1
10
15.1320259315596
20
1.45950173591058
30
0
41
1
10
15.3157552817648
20
1.52626943150386
30
0
41
1
10
15.4283077708301
20
1.56472317049858
30
0
41
1
10
15.6537467957739
20
1.63608177037355
30
0
41
1
10
15.7665003854315
20
1.6691461502102
30
0
41
1
10
15.99169958866
20
1.73033969869178
30
0
41
1
10
16.1041761471403
20
1.75840916457028
30
0
41
1
10
16.3298390619725
20
1.8086836150415
30
0
41
1
10
16.4427300912332
20
1.83079116950554
30
0
41
1
10
16.7809511238826
20
1.88847208796233
30
0
41
1
10
17.0052890113498
20
1.91550097917874
30
0
41
1
10
17.3441271369667
20
1.93727780707204
30
0
41
1
10
17.4571292600495
20
1.94148759304974
30
0
41
1
10
17.6822988767529
20
1.94376445119406
30
0
41
1
10
17.7946326456845
20
1.94179890971705
30
0
41
1
10
18.1322895498626
20
1.92670337727154
30
0
41
1
10
18.3587198315623
20
1.90452778909372
30
0
41
1
10
18.8085601554133
20
1.83558707691759
30
0
41
1
10
19.0341412998452
20
1.78994181538468
30
0
41
1
10
19.3720906562226
20
1.70391417174733
30
0
41
1
10
19.484814930776
20
1.6722918802337
30
0
41
1
10
19.7101733355681
20
1.60435077893138
30
0
41
1
10
19.822926814974
20
1.56802504712101
30
0
41
1
10
20.0482113524015
20
1.4903287794973
30
0
41
1
10
20.1606744975542
20
1.4488649293715
30
0
41
1
10
20.3856771329819
20
1.36108426344509
30
0
41
1
10
20.4987061987255
20
1.31520068093715
30
0
41
1
10
20.7243707951716
20
1.21970767133774
30
0
41
1
10
20.8370395456142
20
1.16999577700196
30
0
41
1
10
21.0619353580943
20
1.06642449448918
30
0
41
1
10
21.1742757616011
20
1.01271452497519
30
0
41
1
10
21.3996367007549
20
0.90283151272584
30
0
41
1
10
21.5127299736223
20
0.846515212185551
30
0
41
1
10
21.7383395769324
20
0.73111887861387
30
0
41
1
10
21.8507433474574
20
0.671844394730186
30
0
41
1
10
22.1879242883195
20
0.491215447857485
30
0
41
1
10
22.4138925170524
20
0.368580990278957
30
0
41
1
10
22.7518519036907
20
0.179524820790931
30
0
41
1
10
22.8642750642491
20
0.116115332113281
30
0
41
1
10
23.0894872361676
20
-0.0100103886741181
30
0
41
1
10
23.2021816205527
20
-0.0728958674038154
30
0
41
1
10
23.4274408406832
20
-0.198858693279988
30
0
41
1
10
23.5399109391903
20
-0.262234316733839
30
0
41
1
10
23.7653135383177
20
-0.387568213667493
30
0
41
1
10
23.8780859892868
20
-0.449150079584825
30
0
41
1
10
24.2161168885742
20
-0.63159120864043
30
0
41
1
10
24.4403849362466
20
-0.751283405567875
30
0
41
1
10
24.7790590609817
20
-0.921330481816284
30
0
41
1
10
24.8919258905384
20
-0.976424521015872
30
0
41
1
10
25.1171065864406
20
-1.08375557292752
30
0
41
1
10
25.2292946133419
20
-1.13623256355083
30
0
41
1
10
25.5666888617166
20
-1.28706526474315
30
0
41
1
10
25.793012584001
20
-1.37948615290463
30
0
41
1
10
26.242792877772
20
-1.54734487471308
30
0
41
1
10
26.4679661420207
20
-1.62112093307692
30
0
41
1
10
26.8060782259389
20
-1.71673848539837
30
0
41
1
10
26.9185970021688
20
-1.74623377002649
30
0
41
1
10
27.1437254636635
20
-1.79897501319815
30
0
41
1
10
27.2563925095825
20
-1.82236731439377
30
0
41
1
10
27.5941945327735
20
-1.88406311314816
30
0
41
1
10
27.8191535172179
20
-1.91395285800036
30
0
41
1
10
28.1573392932872
20
-1.93982477229585
30
0
41
1
10
28.2699870947414
20
-1.94540276902961
30
0
41
1
10
28.4268691192675
20
-1.94892210238521
30
0
41
1
10
28.4712452915127
20
-1.94943528034511
30
0
41
1
10
28.5156208440798
20
-1.94946572194271
30
0
0
SPLINE
5
D3
100
AcDbEntity
8
1
62
256
6
ByLayer
370
18
48
1
60
0
100
AcDbSpline
70
4
71
3
72
10
73
6
40
0
40
0
40
0
40
0
40
0.5
40
0.5
40
1
40
1
40
1
40
1
41
1
10
4.12226563567464
20
-1.24103978993304
30
0
41
1
10
4.10150545302463
20
-1.23057426046228
30
0
41
1
10
4.0835108891288
20
-1.21722360650733
30
0
41
1
10
4.05671235985764
20
-1.18473339046417
30
0
41
1
10
4.04805733085277
20
-1.16568819269278
30
0
41
1
10
4.04806197890218
20
-1.14555446507512
30
0
0
SPLINE
5
D4
100
AcDbEntity
8
1
62
256
6
ByLayer
370
13
48
1
60
0
100
AcDbSpline
70
4
71
3
72
8
73
4
40
0
40
0
40
0
40
0
40
1
40
1
40
1
40
1
41
1
10
4.12756853717636
20
-1.1340401416565
30
0
41
1
10
4.0952332938154
20
-1.13719642025262
30
0
41
1
10
4.06853147210774
20
-1.14127391692367
30
0
41
1
10
4.04806197890309
20
-1.14555446508467
30
0
0
SPLINE
5
D5
100
AcDbEntity
8
1
62
256
6
ByLayer
370
18
48
1
60
0
100
AcDbSpline
70
4
71
3
72
8
73
4
40
0
40
0
40
0
40
0
40
1
40
1
40
1
40
1
41
1
10
29.3346548244059
20
1.93597783347775
30
0
41
1
10
29.1962014805172
20
1.94525043983901
30
0
41
1
10
29.0580387626097
20
1.94983152489004
30
0
41
1
10
28.9199583150686
20
1.94975627270884
30
0
0
SPLINE
5
D6
100
AcDbEntity
8
1
62
256
6
ByLayer
370
18
48
1
60
0
100
AcDbSpline
70
4
71
3
72
50
73
46
40
0
40
0
40
0
40
0
40
0.0596741522783729
40
0.0596741522783729
40
0.125868578147157
40
0.125868578147157
40
0.158965791081549
40
0.158965791081549
40
0.192063004015941
40
0.192063004015941
40
0.258257429884727
40
0.258257429884727
40
0.29135464281912
40
0.29135464281912
40
0.324451855753513
40
0.324451855753513
40
0.456840707491083
40
0.456840707491083
40
0.489937920425476
40
0.489937920425476
40
0.523035133359868
40
0.523035133359868
40
0.55613234629426
40
0.55613234629426
40
0.589229559228652
40
0.589229559228652
40
0.655423985097439
40
0.655423985097439
40
0.688521198031831
40
0.688521198031831
40
0.721618410966223
40
0.721618410966223
40
0.754715623900616
40
0.754715623900616
40
0.787812836835008
40
0.787812836835008
40
0.854007262703793
40
0.854007262703793
40
0.920201688572577
40
0.920201688572577
40
0.953298901506969
40
0.953298901506969
40
0.986396114441361
40
0.986396114441361
40
1
40
1
40
1
40
1
41
1
10
19.0360735223761
20
-1.86311769258683
30
0
41
1
10
18.7997619665329
20
-1.90075827974417
30
0
41
1
10
18.5648733617775
20
-1.92518824197771
30
0
41
1
10
18.0700570026465
20
-1.94858151878512
30
0
41
1
10
17.8101186901303
20
-1.9444450231662
30
0
41
1
10
17.4182190149349
20
-1.91354046092712
30
0
41
1
10
17.2872701969475
20
-1.89912265927276
30
0
41
1
10
17.0243940854875
20
-1.86200622407151
30
0
41
1
10
16.8922645759089
20
-1.83925757257566
30
0
41
1
10
16.4972320474122
20
-1.7594384398304
30
0
41
1
10
16.234637007342
20
-1.69069981947064
30
0
41
1
10
15.8395360347097
20
-1.56622639774926
30
0
41
1
10
15.7074098932209
20
-1.52111106113
30
0
41
1
10
15.4446304269818
20
-1.42508453624569
30
0
41
1
10
15.3137274447295
20
-1.37409864289179
30
0
41
1
10
14.6607805168408
20
-1.10563750914938
30
0
41
1
10
14.1432008894568
20
-0.847829171397052
30
0
41
1
10
13.4864527075963
20
-0.495942075337069
30
0
41
1
10
13.3543433470315
20
-0.423896837834889
30
0
41
1
10
13.0908496770643
20
-0.278653444540168
30
0
41
1
10
12.9592968353748
20
-0.205445037111872
30
0
41
1
10
12.6962037878035
20
-0.0585286337664002
30
0
41
1
10
12.5646783845049
20
0.0152058346155286
30
0
41
1
10
12.3013114493199
20
0.162586457464926
30
0
41
1
10
12.1692236803306
20
0.236247615192895
30
0
41
1
10
11.7738215953731
20
0.454633364266357
30
0
41
1
10
11.5111789393991
20
0.597154046744748
30
0
41
1
10
11.1160485016138
20
0.801832715386894
30
0
41
1
10
10.9839583816366
20
0.868645332225725
30
0
41
1
10
10.7203530003981
20
0.99783886341109
30
0
41
1
10
10.5887494210477
20
1.06026578555438
30
0
41
1
10
10.3255812680221
20
1.18026496689896
30
0
41
1
10
10.1940326017586
20
1.2378598246915
30
0
41
1
10
9.93061056603162
20
1.34764983424049
30
0
41
1
10
9.7984186530021
20
1.39989675177802
30
0
41
1
10
9.40379251459115
20
1.5463908659145
30
0
41
1
10
9.14274681871717
20
1.6306772314729
30
0
41
1
10
8.62168344295753
20
1.77015670690653
30
0
41
1
10
8.36165026517406
20
1.82532232801668
30
0
41
1
10
7.96994709056139
20
1.88443715225148
30
0
41
1
10
7.8391106838377
20
1.9002080249904
30
0
41
1
10
7.57648213247342
20
1.92359289668116
30
0
41
1
10
7.44438494852963
20
1.93121101397881
30
0
41
1
10
7.25827848751968
20
1.93599523346632
30
0
41
1
10
7.20411451998106
20
1.93667735705427
30
0
41
1
10
7.14998273675374
20
1.93664988950644
30
0
0
SPLINE
5
D7
100
AcDbEntity
8
1
62
256
6
ByLayer
370
18
48
1
60
0
100
AcDbSpline
70
4
71
3
72
26
73
22
40
0
40
0
40
0
40
0
40
0.250000000000003
40
0.250000000000003
40
0.500000000000005
40
0.500000000000005
40
0.624999999999999
40
0.624999999999999
40
0.687499999999995
40
0.687499999999995
40
0.749999999999992
40
0.749999999999992
40
0.812499999999989
40
0.812499999999989
40
0.874999999999985
40
0.874999999999985
40
0.906249999999988
40
0.906249999999988
40
0.937499999999991
40
0.937499999999991
40
1
40
1
40
1
40
1
41
1
10
27.6946877035295
20
0.621210064780314
30
0
41
1
10
27.8246405673162
20
0.523499153350741
30
0
41
1
10
27.9577559098035
20
0.433888473870951
30
0
41
1
10
28.2237916834464
20
0.282087088573462
30
0
41
1
10
28.3572971001406
20
0.219097409917367
30
0
41
1
10
28.5584539360445
20
0.148413009978498
30
0
41
1
10
28.6260072001622
20
0.128931652655268
30
0
41
1
10
28.7261883198834
20
0.107257526190949
30
0
41
1
10
28.7593824089568
20
0.10129585028065
30
0
41
1
10
28.8251977363696
20
0.0920870446817901
30
0
41
1
10
28.8580083807536
20
0.0883917313717006
30
0
41
1
10
28.9208600037757
20
0.0885386662078815
30
0
41
1
10
28.950763787822
20
0.0934166349904899
30
0
41
1
10
29.0063037451717
20
0.112719774030865
30
0
41
1
10
29.0315166870321
20
0.127165879758252
30
0
41
1
10
29.0622698391281
20
0.1586215752275
30
0
41
1
10
29.0710582344902
20
0.170656586154763
30
0
41
1
10
29.085419233824
20
0.198133949558127
30
0
41
1
10
29.0909979506683
20
0.213672161725413
30
0
41
1
10
29.1022870818736
20
0.263087205146689
30
0
41
1
10
29.1026800001975
20
0.301026995750931
30
0
41
1
10
29.0980209791131
20
0.33971708610909
30
0
0
SPLINE
5
D8
100
AcDbEntity
8
1
62
256
6
ByLayer
370
18
48
1
60
0
100
AcDbSpline
70
4
71
3
72
8
73
4
40
0
40
0
40
0
40
0
40
1
40
1
40
1
40
1
41
1
10
29.3346548244071
20
-1.93597783345803
30
0
41
1
10
29.3352905576443
20
-1.93430540617962
30
0
41
1
10
29.3359261751392
20
-1.93263284003962
30
0
41
1
10
29.3365616763214
20
-1.93096013663086
30
0
0
LINE
5
76
100
AcDbEntity
8
81
62
256
6
ByLayer
370
18
48
1
60
0
100
AcDbLine
10
30
20
0
30
0
11
35
21
0
31
0
39
0
210
0
220
0
230
1
0
LINE
5
77
100
AcDbEntity
8
1
62
256
6
ByLayer
370
18
48
1
60
0
100
AcDbLine
10
2.271662
20
1.933726
30
0
11
1.508998
21
1.933268
31
0
39
0
210
0
220
0
230
1
0
LINE
5
79
100
AcDbEntity
8
1
62
256
6
ByLayer
370
18
48
1
60
0
100
AcDbLine
10
7.150583
20
1.936653
30
0
11
6.675659
21
1.936368
31
0
39
0
210
0
220
0
230
1
0
LINE
5
7A
100
AcDbEntity
8
1
62
256
6
ByLayer
370
18
48
1
60
0
100
AcDbLine
10
18.034633
20
1.943184
30
0
11
17.627214
21
1.942939
31
0
39
0
210
0
220
0
230
1
0
LINE
5
7B
100
AcDbEntity
8
1
62
256
6
ByLayer
370
18
48
1
60
0
100
AcDbLine
10
28.919755
20
1.949715
30
0
11
28.516249
21
1.949472
31
0
39
0
210
0
220
0
230
1
0
LINE
5
7C
100
AcDbEntity
8
1
62
256
6
ByLayer
370
18
48
1
60
0
100
AcDbLine
10
28.516249
20
-1.949472
30
0
11
28.91975
21
-1.949715
31
0
39
0
210
0
220
0
230
1
0
LINE
5
7D
100
AcDbEntity
8
1
62
256
6
ByLayer
370
18
48
1
60
0
100
AcDbLine
10
17.627214
20
-1.942939
30
0
11
18.035435
21
-1.943184
31
0
39
0
210
0
220
0
230
1
0
LINE
5
7E
100
AcDbEntity
8
1
62
256
6
ByLayer
370
18
48
1
60
0
100
AcDbLine
10
6.675659
20
-1.936368
30
0
11
7.150308
21
-1.936653
31
0
39
0
210
0
220
0
230
1
0
LINE
5
7F
100
AcDbEntity
8
1
62
256
6
ByLayer
370
18
48
1
60
0
100
AcDbLine
10
1.508998
20
-1.933268
30
0
11
2.271662
21
-1.933726
31
0
39
0
210
0
220
0
230
1
0
LINE
5
80
100
AcDbEntity
8
SK1
62
256
6
ByLayer
370
18
48
1
60
0
100
AcDbLine
10
-35.278312
20
3
30
0
11
-36
21
1.75
31
0
39
0
210
0
220
0
230
1
0
LINE
5
82
100
AcDbEntity
8
SK1
62
256
6
ByLayer
370
18
48
1
60
0
100
AcDbLine
10
-36
20
-1.75
30
0
11
-35.278312
21
-3
31
0
39
0
210
0
220
0
230
1
0
LINE
5
83
100
AcDbEntity
8
SK1
62
256
6
ByLayer
370
18
48
1
60
0
100
AcDbLine
10
0
20
3
30
0
11
-35.278312
21
3
31
0
39
0
210
0
220
0
230
1
0
LINE
5
84
100
AcDbEntity
8
SK1
62
256
6
ByLayer
370
18
48
1
60
0
100
AcDbLine
10
-35.278312
20
-3
30
0
11
0
21
-3
31
0
39
0
210
0
220
0
230
1
0
LINE
5
85
100
AcDbEntity
8
SK4
62
256
6
ByLayer
370
18
48
0.05
60
0
100
AcDbLine
10
35
20
0
30
0
11
-41
21
0
31
0
39
0
210
0
220
0
230
1
0
LINE
5
87
100
AcDbEntity
8
4
62
256
6
ByLayer
370
18
48
0.05
60
0
100
AcDbLine
10
30
20
0
30
0
11
0
21
0
31
0
39
0
210
0
220
0
230
1
0
LINE
5
89
100
AcDbEntity
8
80
62
256
6
ByLayer
370
18
48
1
60
0
100
AcDbLine
10
0
20
0
30
0
11
-5
21
0
31
0
39
0
210
0
220
0
230
1
0
LINE
5
8A
100
AcDbEntity
8
1
62
256
6
ByLayer
370
13
48
1
60
0
100
AcDbLine
10
29.638817
20
0.430212
30
0
11
29.938791
21
0.252228
31
0
39
0
210
0
220
0
230
1
0
LINE
5
8B
100
AcDbEntity
8
1
62
256
6
ByLayer
370
13
48
1
60
0
100
AcDbLine
10
0.754259
20
2.466634
30
0
11
0.754259
21
-2.466634
31
0
39
0
210
0
220
0
230
1
0
LINE
5
8C
100
AcDbEntity
8
1
62
256
6
ByLayer
370
18
48
1
60
0
100
AcDbLine
10
0
20
-3
30
0
11
0
21
3
31
0
39
0
210
0
220
0
230
1
0
LINE
5
8D
100
AcDbEntity
8
1
62
256
6
ByLayer
370
18
48
1
60
0
100
AcDbLine
10
29.938791
20
0.252228
30
0
11
29.904009
21
0.430212
31
0
39
0
210
0
220
0
230
1
0
LINE
5
8E
100
AcDbEntity
8
1
62
256
6
ByLayer
370
13
48
1
60
0
100
AcDbLine
10
29.448911
20
0.094883
30
0
11
29.895568
21
-0.170134
31
0
39
0
210
0
220
0
230
1
0
LINE
5
8F
100
AcDbEntity
8
1
62
256
6
ByLayer
370
18
48
1
60
0
100
AcDbLine
10
30
20
0
30
0
11
29.327753
21
-1.846983
31
0
39
0
210
0
220
0
230
1
0
LINE
5
90
100
AcDbEntity
8
1
62
256
6
ByLayer
370
13
48
1
60
0
100
AcDbLine
10
29.904009
20
0.430212
30
0
11
29.638817
21
0.430212
31
0
39
0
210
0
220
0
230
1
0
LINE
5
91
100
AcDbEntity
8
1
62
256
6
ByLayer
370
18
48
1
60
0
100
AcDbLine
10
29.028466
20
-1.065863
30
0
11
29.895568
21
-0.170134
31
0
39
0
210
0
220
0
230
1
0
LINE
5
92
100
AcDbEntity
8
1
62
256
6
ByLayer
370
18
48
1
60
0
100
AcDbLine
10
30
20
0
30
0
11
29.997118
21
-0.020121
31
0
39
0
210
0
220
0
230
1
0
LINE
5
93
100
AcDbEntity
8
1
62
256
6
ByLayer
370
13
48
1
60
0
100
AcDbLine
10
1.508998
20
1.933268
30
0
11
1.508998
21
-1.933268
31
0
39
0
210
0
220
0
230
1
0
LINE
5
94
100
AcDbEntity
8
1
62
256
6
ByLayer
370
18
48
1
60
0
100
AcDbLine
10
29.997118
20
0.020121
30
0
11
30
21
0
31
0
39
0
210
0
220
0
230
1
0
LINE
5
95
100
AcDbEntity
8
1
62
256
6
ByLayer
370
18
48
1
60
0
100
AcDbLine
10
29.938791
20
-0.252228
30
0
11
29.854979
21
-0.681109
31
0
39
0
210
0
220
0
230
1
0
LINE
5
96
100
AcDbEntity
8
SK1
62
256
6
ByLayer
370
18
48
1
60
0
100
AcDbLine
10
-35.278312
20
3
30
0
11
-35.278312
21
-3
31
0
39
0
210
0
220
0
230
1
0
LINE
5
97
100
AcDbEntity
8
SK1
62
256
6
ByLayer
370
18
48
1
60
0
100
AcDbLine
10
0
20
-3
30
0
11
0
21
3
31
0
39
0
210
0
220
0
230
1
0
LINE
5
98
100
AcDbEntity
8
SK1
62
256
6
ByLayer
370
18
48
1
60
0
100
AcDbLine
10
-36
20
1.75
30
0
11
-36
21
-1.75
31
0
39
0
210
0
220
0
230
1
0
MTEXT
5
D9
100
AcDbEntity
8
SK6
62
256
6
ByLayer
370
13
48
1
60
0
100
AcDbMText
10
-0.870831
20
34.332694
30
0
210
0
220
0
230
1
1
\W0.7670;R840-0390-50-A0A1220
40
3.5
41
0
44
1.084337
50
0
71
8
72
5
7
iso_b_vert
0
DIMENSION
5
E6
100
AcDbEntity
8
SK2
62
256
6
ByLayer
370
13
48
1
60
0
100
AcDbDimension
2
DimnDraft3D1
10
29.34
20
-12.163398
30
0
11
13.590059
21
-12.163398
31
0
70
32
71
5
72
1
41
1
210
0
220
0
230
1
3
Standard
100
AcDbAlignedDimension
13
0
23
-1.5875
33
0
14
29.34
24
-3.5375
34
0
50
0
100
AcDbRotatedDimension
1001
ACAD
1000
DSTYLE
1002
{
1070
   279
1070
     0
1070
   172
1070
     1
1070
   173
1070
     1
1070
   340
1005
DA
1070
   271
1070
     2
1070
   272
1070
     2
1070
    77
1070
     1
1070
    73
1070
     0
1070
   171
1070
     3
1070
   274
1070
     4
1070
   177
1070
    35
1070
   176
1070
    35
1070
   178
1070
    35
1070
    48
1040
-0.005
1070
    41
1041
3.5
1070
   147
1041
1.75
1070
    42
1041
1.5875
1070
    44
1041
2.0
1070
   140
1041
3.5
1070
   343
1005
0
1070
   344
1005
0
1002
}
0
DIMENSION
5
F0
100
AcDbEntity
8
SK2
62
256
6
ByLayer
370
13
48
1
60
0
100
AcDbDimension
2
DimnDraft3D2
10
30
20
-31.692985
30
0
11
-2.3187
21
-31.692985
31
0
70
32
71
5
72
1
41
1
210
0
220
0
230
1
3
Standard
100
AcDbAlignedDimension
13
-36
23
-4.5875
33
0
14
30
24
-1.5875
34
0
50
0
100
AcDbRotatedDimension
1001
ACAD
1000
DSTYLE
1002
{
1070
   279
1070
     0
1070
   172
1070
     1
1070
   173
1070
     1
1070
   340
1005
DA
1070
   271
1070
     2
1070
   272
1070
     2
1070
    77
1070
     1
1070
    73
1070
     0
1070
   171
1070
     3
1070
   274
1070
     4
1070
   177
1070
    35
1070
   176
1070
    35
1070
   178
1070
    35
1070
    48
1040
-0.005
1070
    41
1041
3.5
1070
   147
1041
1.75
1070
    42
1041
1.5875
1070
    44
1041
2.0
1070
   140
1041
3.5
1070
   343
1005
0
1070
   344
1005
0
1002
}
0
DIMENSION
5
FA
100
AcDbEntity
8
SK2
62
256
6
ByLayer
370
13
48
1
60
0
100
AcDbDimension
2
DimnDraft3D3
10
30
20
13.559119
30
0
11
19.92
21
13.559119
31
0
70
32
71
5
72
1
41
1
210
0
220
0
230
1
3
Standard
100
AcDbAlignedDimension
13
9.84
23
3.5375
33
0
14
30
24
1.5875
34
0
50
0
100
AcDbRotatedDimension
1001
ACAD
1000
DSTYLE
1002
{
1070
   279
1070
     0
1070
   172
1070
     1
1070
   173
1070
     1
1070
   340
1005
DA
1070
   271
1070
     2
1070
   272
1070
     2
1070
    77
1070
     1
1070
    73
1070
     0
1070
   171
1070
     3
1070
   274
1070
     4
1070
   177
1070
    35
1070
   176
1070
    35
1070
   178
1070
    35
1070
    48
1040
-0.005
1070
    41
1041
3.5
1070
   147
1041
1.75
1070
    42
1041
1.5875
1070
    44
1041
2.0
1070
   140
1041
3.5
1070
   343
1005
0
1070
   344
1005
0
1002
}
0
DIMENSION
5
104
100
AcDbEntity
8
SK2
62
256
6
ByLayer
370
13
48
1
60
0
100
AcDbDimension
2
DimnDraft3D4
10
29.34
20
-14.752503
30
0
11
39.981425
21
-14.752503
31
0
70
32
71
5
72
1
41
1
210
0
220
0
230
1
3
Standard
100
AcDbAlignedDimension
13
30
23
-1.5875
33
0
14
29.34
24
-3.5375
34
0
50
0
100
AcDbRotatedDimension
1001
ACAD
1000
DSTYLE
1002
{
1070
   279
1070
     0
1070
   172
1070
     1
1070
   173
1070
     1
1070
   340
1005
DA
1070
   271
1070
     2
1070
   272
1070
     2
1070
    77
1070
     1
1070
    73
1070
     0
1070
   171
1070
     3
1070
   274
1070
     4
1070
   177
1070
    35
1070
   176
1070
    35
1070
   178
1070
    35
1070
    48
1040
-0.005
1070
    41
1041
3.5
1070
   147
1041
1.75
1070
    42
1041
1.5875
1070
    44
1041
2.0
1070
   140
1041
3.5
1070
   343
1005
0
1070
   344
1005
0
1002
}
0
DIMENSION
5
10E
100
AcDbEntity
8
SK2
62
256
6
ByLayer
370
13
48
1
60
0
100
AcDbDimension
2
DimnDraft3D5
10
29.34
20
-21.343428
30
0
11
-5.399324
21
-21.343428
31
0
70
32
71
5
72
1
41
1
210
0
220
0
230
1
3
Standard
100
AcDbAlignedDimension
13
-36
23
-4.5875
33
0
14
29.34
24
-3.5375
34
0
50
0
100
AcDbRotatedDimension
1001
ACAD
1000
DSTYLE
1002
{
1070
   279
1070
     0
1070
   172
1070
     1
1070
   173
1070
     1
1070
   340
1005
DA
1070
   271
1070
     2
1070
   272
1070
     2
1070
    77
1070
     1
1070
    73
1070
     0
1070
   171
1070
     3
1070
   274
1070
     4
1070
   177
1070
    35
1070
   176
1070
    35
1070
   178
1070
    35
1070
    48
1040
-0.005
1070
    41
1041
3.5
1070
   147
1041
1.75
1070
    42
1041
1.5875
1070
    44
1041
2.0
1070
   140
1041
3.5
1070
   343
1005
0
1070
   344
1005
0
1002
}
0
DIMENSION
5
119
100
AcDbEntity
8
SK2
62
256
6
ByLayer
370
13
48
1
60
0
100
AcDbDimension
2
DimnDraft3D6
10
-46.625163
20
3
30
0
11
-47.250163
21
21.47418
31
0
70
33
71
5
72
1
41
1
210
0
220
0
230
1
3
Standard
100
AcDbAlignedDimension
13
-37.5875
23
-3
33
0
14
-37.5875
24
3
34
0
1001
ACAD
1000
DSTYLE
1002
{
1070
   279
1070
     0
1070
    74
1070
     0
1070
   173
1070
     1
1070
   340
1005
DA
1070
   271
1070
     3
1070
   272
1070
     2
1070
    77
1070
     1
1070
    73
1070
     0
1070
   171
1070
     3
1070
   274
1070
     4
1070
   177
1070
    35
1070
   176
1070
    35
1070
   178
1070
    35
1070
    48
1040
-0.005
1070
    41
1041
3.5
1070
   147
1041
1.75
1070
    42
1041
1.5875
1070
    44
1041
2.0
1070
   140
1041
3.5
1070
   343
1005
0
1070
   344
1005
0
1002
}
0
DIMENSION
5
124
100
AcDbEntity
8
2
62
256
6
ByLayer
370
13
48
1
60
0
100
AcDbDimension
2
DimnDraft3D7
10
44.083343
20
1.95
30
0
11
39.458343
21
19.017266
31
0
70
33
71
5
72
1
41
1
210
0
220
0
230
1
3
Standard
100
AcDbAlignedDimension
13
30.9275
23
-1.95
33
0
14
30.9275
24
1.95
34
0
1001
ACAD
1000
DSTYLE
1002
{
1070
   279
1070
     0
1070
    74
1070
     0
1070
   173
1070
     1
1070
   340
1005
DA
1070
   271
1070
     3
1070
   272
1070
     2
1070
    77
1070
     1
1070
    73
1070
     0
1070
   171
1070
     3
1070
   274
1070
     4
1070
   177
1070
    35
1070
   176
1070
    35
1070
   178
1070
    35
1070
    48
1040
-0.005
1070
    41
1041
3.5
1070
   147
1041
1.75
1070
    42
1041
1.5875
1070
    44
1041
2.0
1070
   140
1041
3.5
1070
   343
1005
0
1070
   344
1005
0
1002
}
0
ENDSEC
0
SECTION
2
OBJECTS
0
DICTIONARY
5
18f
330
0
100
AcDbDictionary
280
0
281
1
3
ACAD_GROUP
350
190
3
ACAD_MLINESTYLE
350
191
0
DICTIONARY
5
190
330
0
100
AcDbDictionary
280
0
281
1
0
DICTIONARY
5
191
330
0
100
AcDbDictionary
280
0
281
1
3
Standard
350
18
0
MLINESTYLE
5
18
330
191
100
AcDbMlineStyle
2
Standard
70
0
3

62
256
51
90
52
90
71
2
49
-0.5
62
256
6
ByLayer
49
0.5
62
256
6
ByLayer
0
RASTERVARIABLES
5
17d
330

100
AcDbRasterVariables
90
0
70
1
71
1
72
1
0
ENDSEC
0
EOF
