0
SECTION
2
HEADER
9
$ACADVER
1
AC1015
9
$DWGCODEPAGE
3
ANSI_1252
9
$HANDSEED
5
1b0
9
$ANGBASE
50
0
9
$ANGDIR
70
0
9
$ATTMODE
70
1
9
$AUNITS
70
0
9
$AUPREC
70
0
9
$CECOLOR
62
256
9
$CELTSCALE
40
1
9
$CELTYPE
6
ByLayer
9
$CELWEIGHT
370
18
9
$CLAYER
8
0
9
$CMLJUST
70
0
9
$CMLSCALE
40
1
9
$CMLSTYLE
2
Standard
9
$DIMSTYLE
2
Standard
9
$TEXTSIZE
40
0.2
9
$TEXTSTYLE
7
Standard
9
$LUNITS
70
2
9
$LUPREC
70
4
9
$EXTNAMES
290
1
9
$INSUNITS
70
4
9
$LTSCALE
40
1
9
$LWDISPLAY
290
1
9
$PDMODE
70
0
9
$PDSIZE
40
0
9
$PLINEGEN
70
0
0
ENDSEC
0
SECTION
2
CLASSES
0
CLASS
1
RASTERVARIABLES
2
AcDbRasterVariables
3
ISM
90
0
280
0
281
0
0
ENDSEC
0
SECTION
2
TABLES
0
TABLE
2
VPORT
5
1a6
100
AcDbSymbolTable
0
VPORT
5
1
100
AcDbSymbolTableRecord
100
AcDbViewportTableRecord
2
*Active
70
0
10
0
20
0
11
1
21
1
12
-1
22
1
13
0
23
0
14
0.5
24
0.5
15
10
25
10
16
0
26
0
36
1
17
0
27
0
37
0
0
ENDTAB
0
TABLE
2
LTYPE
5
1a7
100
AcDbSymbolTable
0
LTYPE
5
14
100
AcDbSymbolTableRecord
100
AcDbLinetypeTableRecord
70
0
2
ByBlock
3

72
65
73
0
40
0
0
LTYPE
5
15
100
AcDbSymbolTableRecord
100
AcDbLinetypeTableRecord
70
0
2
ByLayer
3

72
65
73
0
40
0
0
LTYPE
5
16
100
AcDbSymbolTableRecord
100
AcDbLinetypeTableRecord
70
0
2
CONTINUOUS
3
Solid line
72
65
73
0
40
0
0
LTYPE
5
6A
100
AcDbSymbolTableRecord
100
AcDbLinetypeTableRecord
70
0
2
CENTER
3
____ _ ____ _ ____ _ ____
72
65
73
4
40
47.5
49
22
74
0
49
-8.5
74
0
49
8.5
74
0
49
-8.5
74
0
0
LTYPE
5
6B
100
AcDbSymbolTableRecord
100
AcDbLinetypeTableRecord
70
0
2
DASHED
3
__ __ __ __ __ __ __ __ __
72
65
73
2
40
25.72
49
12.86
74
0
49
-12.86
74
0
0
ENDTAB
0
TABLE
2
LAYER
5
1a8
100
AcDbSymbolTable
0
LAYER
5
10
100
AcDbSymbolTableRecord
100
AcDbLayerTableRecord
2
0
70
0
62
7
6
CONTINUOUS
290
1
370
-3
390
0
0
LAYER
5
6D
100
AcDbSymbolTableRecord
100
AcDbLayerTableRecord
2
81
70
0
62
-3
6
CONTINUOUS
290
1
370
-3
390
0
0
LAYER
5
6F
100
AcDbSymbolTableRecord
100
AcDbLayerTableRecord
2
80
70
0
62
-6
6
CONTINUOUS
290
1
370
-3
390
0
0
LAYER
5
74
100
AcDbSymbolTableRecord
100
AcDbLayerTableRecord
2
2
70
0
62
7
6
CONTINUOUS
290
1
370
-3
390
0
0
LAYER
5
78
100
AcDbSymbolTableRecord
100
AcDbLayerTableRecord
2
1
70
0
62
4
6
CONTINUOUS
290
1
370
-3
390
0
0
LAYER
5
88
100
AcDbSymbolTableRecord
100
AcDbLayerTableRecord
2
4
70
0
62
-2
6
CENTER
290
1
370
-3
390
0
0
LAYER
5
192
100
AcDbSymbolTableRecord
100
AcDbLayerTableRecord
2
SK2
70
0
62
7
6
CONTINUOUS
290
1
370
-3
390
0
0
LAYER
5
193
100
AcDbSymbolTableRecord
100
AcDbLayerTableRecord
2
SK1
70
0
62
4
6
CONTINUOUS
290
1
370
-3
390
0
0
LAYER
5
194
100
AcDbSymbolTableRecord
100
AcDbLayerTableRecord
2
SK4
70
0
62
2
6
CENTER
290
1
370
-3
390
0
0
LAYER
5
195
100
AcDbSymbolTableRecord
100
AcDbLayerTableRecord
2
SK6
70
0
62
5
6
CONTINUOUS
290
1
370
-3
390
0
0
ENDTAB
0
TABLE
2
STYLE
5
1a9
100
AcDbSymbolTable
0
STYLE
5
11
100
AcDbSymbolTableRecord
100
AcDbTextStyleTableRecord
2
Standard
3
txt
70
0
71
0
40
0
41
1
42
0
50
0
0
STYLE
5
EE
100
AcDbSymbolTableRecord
100
AcDbTextStyleTableRecord
2
iso_b_vert
3
simplex.shx
70
0
71
0
40
0
41
1
42
0
50
0
0
STYLE
5
EF
100
AcDbSymbolTableRecord
100
AcDbTextStyleTableRecord
2
DWGDirectTextStyle
3
simplex
70
0
71
0
40
0
41
1
42
0
50
0
0
ENDTAB
0
TABLE
2
DIMSTYLE
5
1aa
100
AcDbSymbolTable
100
AcDbDimStyleTable
0
DIMSTYLE
105
27
100
AcDbSymbolTableRecord
100
AcDbDimStyleTableRecord
2
Standard
70
0
3
<>
41
0.18
42
0.0625
44
0.18
140
0.18
147
0.09
73
0
74
0
77
1
271
2
275
0
278
52
280
0
340
11
0
ENDTAB
0
TABLE
2
VIEW
5
1ab
100
AcDbSymbolTable
0
ENDTAB
0
TABLE
2
UCS
5
1ac
100
AcDbSymbolTable
0
ENDTAB
0
TABLE
2
APPID
5
1ad
100
AcDbSymbolTable
0
APPID
5
12
100
AcDbSymbolTableRecord
100
AcDbRegAppTableRecord
2
ACAD
70
0
0
ENDTAB
0
TABLE
2
BLOCK_RECORD
5
1ae
100
AcDbSymbolTable
0
BLOCK_RECORD
5
1F
100
AcDbSymbolTableRecord
100
AcDbBlockTableRecord
2
*Model_Space
340
0
70
0
0
BLOCK_RECORD
5
1B
100
AcDbSymbolTableRecord
100
AcDbBlockTableRecord
2
*Paper_Space
340
0
70
0
0
BLOCK_RECORD
5
23
100
AcDbSymbolTableRecord
100
AcDbBlockTableRecord
2
*Paper_Space0
340
0
70
0
0
BLOCK_RECORD
5
F1
100
AcDbSymbolTableRecord
100
AcDbBlockTableRecord
2
DimnDraft3D1
340
0
70
0
0
BLOCK_RECORD
5
FB
100
AcDbSymbolTableRecord
100
AcDbBlockTableRecord
2
DimnDraft3D2
340
0
70
0
0
BLOCK_RECORD
5
105
100
AcDbSymbolTableRecord
100
AcDbBlockTableRecord
2
DimnDraft3D3
340
0
70
0
0
BLOCK_RECORD
5
10F
100
AcDbSymbolTableRecord
100
AcDbBlockTableRecord
2
DimnDraft3D4
340
0
70
0
0
BLOCK_RECORD
5
119
100
AcDbSymbolTableRecord
100
AcDbBlockTableRecord
2
DimnDraft3D5
340
0
70
0
0
BLOCK_RECORD
5
123
100
AcDbSymbolTableRecord
100
AcDbBlockTableRecord
2
DimnDraft3D6
340
0
70
0
0
BLOCK_RECORD
5
12E
100
AcDbSymbolTableRecord
100
AcDbBlockTableRecord
2
DimnDraft3D7
340
0
70
0
0
ENDTAB
0
ENDSEC
0
SECTION
2
BLOCKS
0
BLOCK
5
20
100
AcDbEntity
8
0
100
AcDbBlockBegin
2
*Model_Space
70
0
10
0
20
0
30
0
3
*Model_Space
0
ENDBLK
5
21
100
AcDbEntity
8
0
100
AcDbBlockEnd
0
BLOCK
5
1C
100
AcDbEntity
8
0
100
AcDbBlockBegin
2
*Paper_Space
70
0
10
0
20
0
30
0
3
*Paper_Space
0
ENDBLK
5
1D
100
AcDbEntity
8
0
100
AcDbBlockEnd
0
BLOCK
5
24
100
AcDbEntity
8
0
100
AcDbBlockBegin
2
*Paper_Space0
70
0
10
0
20
0
30
0
3
*Paper_Space0
0
ENDBLK
5
25
100
AcDbEntity
8
0
100
AcDbBlockEnd
0
BLOCK
5
F8
100
AcDbEntity
8
0
100
AcDbBlockBegin
2
DimnDraft3D1
70
0
10
0
20
0
30
0
3
DimnDraft3D1
0
MTEXT
5
F2
100
AcDbEntity
8
SK2
62
256
6
ByLayer
370
13
48
1
60
0
100
AcDbMText
10
9.181375
20
-11.188398
30
0
210
0
220
0
230
1
1
\W0.7317;29,38
40
3.5
41
0
44
1.084337
50
0
71
7
72
5
7
iso_b_vert
0
LINE
5
F3
100
AcDbEntity
8
SK2
62
256
6
ByLayer
370
13
48
1
60
0
100
AcDbLine
10
0
20
-1.5875
30
0
11
0
21
-14.063398
31
0
39
0
210
0
220
0
230
1
0
LINE
5
F4
100
AcDbEntity
8
SK2
62
256
6
ByLayer
370
13
48
1
60
0
100
AcDbLine
10
29.38
20
-3.4375
30
0
11
29.38
21
-14.063398
31
0
39
0
210
0
220
0
230
1
0
LINE
5
F5
100
AcDbEntity
8
SK2
62
256
6
ByLayer
370
13
48
1
60
0
100
AcDbLine
10
0
20
-12.063398
30
0
11
29.38
21
-12.063398
31
0
39
0
210
0
220
0
230
1
0
SOLID
5
F6
100
AcDbEntity
8
SK2
62
256
6
ByLayer
370
13
48
1
60
0
100
AcDbTrace
10
0
20
-12.063398
30
0
11
3.499998
21
-11.602615
31
0
12
3.500002
22
-12.524182
32
0
13
0
23
-12.063398
33
0
39
0
210
0
220
0
230
1
0
SOLID
5
F7
100
AcDbEntity
8
SK2
62
256
6
ByLayer
370
13
48
1
60
0
100
AcDbTrace
10
29.38
20
-12.063398
30
0
11
25.880002
21
-12.524182
31
0
12
25.879998
22
-11.602615
32
0
13
29.38
23
-12.063398
33
0
39
0
210
0
220
0
230
1
0
ENDBLK
5
F9
100
AcDbEntity
8
0
100
AcDbBlockEnd
0
BLOCK
5
102
100
AcDbEntity
8
0
100
AcDbBlockBegin
2
DimnDraft3D2
70
0
10
0
20
0
30
0
3
DimnDraft3D2
0
MTEXT
5
FC
100
AcDbEntity
8
SK2
62
256
6
ByLayer
370
13
48
1
60
0
100
AcDbMText
10
-6.727384
20
-30.817985
30
0
210
0
220
0
230
1
1
\W0.7317;66,00
40
3.5
41
0
44
1.084337
50
0
71
7
72
5
7
iso_b_vert
0
LINE
5
FD
100
AcDbEntity
8
SK2
62
256
6
ByLayer
370
13
48
1
60
0
100
AcDbLine
10
-36
20
-4.5875
30
0
11
-36
21
-33.692985
31
0
39
0
210
0
220
0
230
1
0
LINE
5
FE
100
AcDbEntity
8
SK2
62
256
6
ByLayer
370
13
48
1
60
0
100
AcDbLine
10
30
20
-1.5875
30
0
11
30
21
-33.692985
31
0
39
0
210
0
220
0
230
1
0
LINE
5
FF
100
AcDbEntity
8
SK2
62
256
6
ByLayer
370
13
48
1
60
0
100
AcDbLine
10
-36
20
-31.692985
30
0
11
30
21
-31.692985
31
0
39
0
210
0
220
0
230
1
0
SOLID
5
100
100
AcDbEntity
8
SK2
62
256
6
ByLayer
370
13
48
1
60
0
100
AcDbTrace
10
-36
20
-31.692985
30
0
11
-32.500002
21
-31.232202
31
0
12
-32.499998
22
-32.153769
32
0
13
-36
23
-31.692985
33
0
39
0
210
0
220
0
230
1
0
SOLID
5
101
100
AcDbEntity
8
SK2
62
256
6
ByLayer
370
13
48
1
60
0
100
AcDbTrace
10
30
20
-31.692985
30
0
11
26.500002
21
-32.153769
31
0
12
26.499998
22
-31.232202
32
0
13
30
23
-31.692985
33
0
39
0
210
0
220
0
230
1
0
ENDBLK
5
103
100
AcDbEntity
8
0
100
AcDbBlockEnd
0
BLOCK
5
10C
100
AcDbEntity
8
0
100
AcDbBlockBegin
2
DimnDraft3D3
70
0
10
0
20
0
30
0
3
DimnDraft3D3
0
MTEXT
5
106
100
AcDbEntity
8
SK2
62
256
6
ByLayer
370
13
48
1
60
0
100
AcDbMText
10
16.866316
20
14.334119
30
0
210
0
220
0
230
1
1
\W0.6110;19,12
40
3.5
41
0
44
1.084337
50
0
71
7
72
5
7
iso_b_vert
0
LINE
5
107
100
AcDbEntity
8
SK2
62
256
6
ByLayer
370
13
48
1
60
0
100
AcDbLine
10
10.88
20
3.4375
30
0
11
10.88
21
15.459119
31
0
39
0
210
0
220
0
230
1
0
LINE
5
108
100
AcDbEntity
8
SK2
62
256
6
ByLayer
370
13
48
1
60
0
100
AcDbLine
10
30
20
1.5875
30
0
11
30
21
15.459119
31
0
39
0
210
0
220
0
230
1
0
LINE
5
109
100
AcDbEntity
8
SK2
62
256
6
ByLayer
370
13
48
1
60
0
100
AcDbLine
10
10.88
20
13.459119
30
0
11
30
21
13.459119
31
0
39
0
210
0
220
0
230
1
0
SOLID
5
10A
100
AcDbEntity
8
SK2
62
256
6
ByLayer
370
13
48
1
60
0
100
AcDbTrace
10
10.88
20
13.459119
30
0
11
14.379998
21
13.919903
31
0
12
14.380002
22
12.998335
32
0
13
10.88
23
13.459119
33
0
39
0
210
0
220
0
230
1
0
SOLID
5
10B
100
AcDbEntity
8
SK2
62
256
6
ByLayer
370
13
48
1
60
0
100
AcDbTrace
10
30
20
13.459119
30
0
11
26.500002
21
12.998335
31
0
12
26.499998
22
13.919903
32
0
13
30
23
13.459119
33
0
39
0
210
0
220
0
230
1
0
ENDBLK
5
10D
100
AcDbEntity
8
0
100
AcDbBlockEnd
0
BLOCK
5
116
100
AcDbEntity
8
0
100
AcDbBlockBegin
2
DimnDraft3D4
70
0
10
0
20
0
30
0
3
DimnDraft3D4
0
MTEXT
5
110
100
AcDbEntity
8
SK2
62
256
6
ByLayer
370
13
48
1
60
0
100
AcDbMText
10
36.840636
20
-13.777503
30
0
210
0
220
0
230
1
1
\W0.7150;0,62
40
3.5
41
0
44
1.084337
50
0
71
7
72
5
7
iso_b_vert
0
LINE
5
111
100
AcDbEntity
8
SK2
62
256
6
ByLayer
370
13
48
1
60
0
100
AcDbLine
10
30
20
-1.5875
30
0
11
30
21
-16.652503
31
0
39
0
210
0
220
0
230
1
0
LINE
5
112
100
AcDbEntity
8
SK2
62
256
6
ByLayer
370
13
48
1
60
0
100
AcDbLine
10
29.38
20
-3.4375
30
0
11
29.38
21
-16.652503
31
0
39
0
210
0
220
0
230
1
0
LINE
5
113
100
AcDbEntity
8
SK2
62
256
6
ByLayer
370
13
48
1
60
0
100
AcDbLine
10
20.63
20
-14.652503
30
0
11
43.997215
21
-14.652503
31
0
39
0
210
0
220
0
230
1
0
SOLID
5
114
100
AcDbEntity
8
SK2
62
256
6
ByLayer
370
13
48
1
60
0
100
AcDbTrace
10
30
20
-14.652503
30
0
11
33.499998
21
-14.191719
31
0
12
33.500002
22
-15.113287
32
0
13
30
23
-14.652503
33
0
39
0
210
0
220
0
230
1
0
SOLID
5
115
100
AcDbEntity
8
SK2
62
256
6
ByLayer
370
13
48
1
60
0
100
AcDbTrace
10
29.38
20
-14.652503
30
0
11
25.880002
21
-15.113287
31
0
12
25.879998
22
-14.191719
32
0
13
29.38
23
-14.652503
33
0
39
0
210
0
220
0
230
1
0
ENDBLK
5
117
100
AcDbEntity
8
0
100
AcDbBlockEnd
0
BLOCK
5
120
100
AcDbEntity
8
0
100
AcDbBlockBegin
2
DimnDraft3D5
70
0
10
0
20
0
30
0
3
DimnDraft3D5
0
MTEXT
5
11A
100
AcDbEntity
8
SK2
62
256
6
ByLayer
370
13
48
1
60
0
100
AcDbMText
10
-9.808008
20
-20.468428
30
0
210
0
220
0
230
1
1
\W0.7317;65,38
40
3.5
41
0
44
1.084337
50
0
71
7
72
5
7
iso_b_vert
0
LINE
5
11B
100
AcDbEntity
8
SK2
62
256
6
ByLayer
370
13
48
1
60
0
100
AcDbLine
10
-36
20
-4.5875
30
0
11
-36
21
-23.343428
31
0
39
0
210
0
220
0
230
1
0
LINE
5
11C
100
AcDbEntity
8
SK2
62
256
6
ByLayer
370
13
48
1
60
0
100
AcDbLine
10
29.38
20
-3.4375
30
0
11
29.38
21
-23.343428
31
0
39
0
210
0
220
0
230
1
0
LINE
5
11D
100
AcDbEntity
8
SK2
62
256
6
ByLayer
370
13
48
1
60
0
100
AcDbLine
10
-36
20
-21.343428
30
0
11
29.38
21
-21.343428
31
0
39
0
210
0
220
0
230
1
0
SOLID
5
11E
100
AcDbEntity
8
SK2
62
256
6
ByLayer
370
13
48
1
60
0
100
AcDbTrace
10
-36
20
-21.343428
30
0
11
-32.500002
21
-20.882645
31
0
12
-32.499998
22
-21.804212
32
0
13
-36
23
-21.343428
33
0
39
0
210
0
220
0
230
1
0
SOLID
5
11F
100
AcDbEntity
8
SK2
62
256
6
ByLayer
370
13
48
1
60
0
100
AcDbTrace
10
29.38
20
-21.343428
30
0
11
25.880002
21
-21.804212
31
0
12
25.879998
22
-20.882645
32
0
13
29.38
23
-21.343428
33
0
39
0
210
0
220
0
230
1
0
ENDBLK
5
121
100
AcDbEntity
8
0
100
AcDbBlockEnd
0
BLOCK
5
12B
100
AcDbEntity
8
0
100
AcDbBlockBegin
2
DimnDraft3D6
70
0
10
0
20
0
30
0
3
DimnDraft3D6
0
MTEXT
5
124
100
AcDbEntity
8
SK2
62
256
6
ByLayer
370
13
48
1
60
0
100
AcDbMText
10
-46.375163
20
22.34918
30
0
210
0
220
0
230
1
1
\W0.7317;6,000
40
3.5
41
0
44
1.084337
50
90
71
7
72
5
7
iso_b_vert
0
MTEXT
5
125
100
AcDbEntity
8
SK2
62
256
6
ByLayer
370
13
48
1
60
0
100
AcDbMText
10
-46.375163
20
17.126524
30
0
210
0
220
0
230
1
1
%%c
40
3.5
41
0
44
1.084337
50
90
71
7
72
5
7
iso_b_vert
0
LINE
5
126
100
AcDbEntity
8
SK2
62
256
6
ByLayer
370
13
48
1
60
0
100
AcDbLine
10
-37.5875
20
-3
30
0
11
-46.625163
21
-3
31
0
39
0
210
0
220
0
230
1
0
LINE
5
127
100
AcDbEntity
8
SK2
62
256
6
ByLayer
370
13
48
1
60
0
100
AcDbLine
10
-37.5875
20
3
30
0
11
-46.625163
21
3
31
0
39
0
210
0
220
0
230
1
0
LINE
5
128
100
AcDbEntity
8
SK2
62
256
6
ByLayer
370
13
48
1
60
0
100
AcDbLine
10
-44.625163
20
32.121549
30
0
11
-44.625163
21
-11.75
31
0
39
0
210
0
220
0
230
1
0
SOLID
5
129
100
AcDbEntity
8
SK2
62
256
6
ByLayer
370
13
48
1
60
0
100
AcDbTrace
10
-44.625163
20
-3
30
0
11
-44.164379
21
-6.499998
31
0
12
-45.085946
22
-6.500002
32
0
13
-44.625163
23
-3
33
0
39
0
210
0
220
0
230
1
0
SOLID
5
12A
100
AcDbEntity
8
SK2
62
256
6
ByLayer
370
13
48
1
60
0
100
AcDbTrace
10
-44.625163
20
3
30
0
11
-45.085946
21
6.499998
31
0
12
-44.164379
22
6.500002
32
0
13
-44.625163
23
3
33
0
39
0
210
0
220
0
230
1
0
ENDBLK
5
12C
100
AcDbEntity
8
0
100
AcDbBlockEnd
0
BLOCK
5
136
100
AcDbEntity
8
0
100
AcDbBlockBegin
2
DimnDraft3D7
70
0
10
0
20
0
30
0
3
DimnDraft3D7
0
MTEXT
5
12F
100
AcDbEntity
8
2
62
256
6
ByLayer
370
13
48
1
60
0
100
AcDbMText
10
40.333343
20
19.792266
30
0
210
0
220
0
230
1
1
\W0.7317;3,700
40
3.5
41
0
44
1.084337
50
90
71
7
72
5
7
iso_b_vert
0
MTEXT
5
130
100
AcDbEntity
8
2
62
256
6
ByLayer
370
13
48
1
60
0
100
AcDbMText
10
40.333343
20
14.56961
30
0
210
0
220
0
230
1
1
%%c
40
3.5
41
0
44
1.084337
50
90
71
7
72
5
7
iso_b_vert
0
LINE
5
131
100
AcDbEntity
8
2
62
256
6
ByLayer
370
13
48
1
60
0
100
AcDbLine
10
30.9675
20
-1.85
30
0
11
44.083343
21
-1.85
31
0
39
0
210
0
220
0
230
1
0
LINE
5
132
100
AcDbEntity
8
2
62
256
6
ByLayer
370
13
48
1
60
0
100
AcDbLine
10
30.9675
20
1.85
30
0
11
44.083343
21
1.85
31
0
39
0
210
0
220
0
230
1
0
LINE
5
133
100
AcDbEntity
8
2
62
256
6
ByLayer
370
13
48
1
60
0
100
AcDbLine
10
42.083343
20
29.564635
30
0
11
42.083343
21
-10.6
31
0
39
0
210
0
220
0
230
1
0
SOLID
5
134
100
AcDbEntity
8
2
62
256
6
ByLayer
370
13
48
1
60
0
100
AcDbTrace
10
42.083343
20
-1.85
30
0
11
42.544126
21
-5.349998
31
0
12
41.622559
22
-5.350002
32
0
13
42.083343
23
-1.85
33
0
39
0
210
0
220
0
230
1
0
SOLID
5
135
100
AcDbEntity
8
2
62
256
6
ByLayer
370
13
48
1
60
0
100
AcDbTrace
10
42.083343
20
1.85
30
0
11
41.622559
21
5.349998
31
0
12
42.544126
22
5.350002
32
0
13
42.083343
23
1.85
33
0
39
0
210
0
220
0
230
1
0
ENDBLK
5
137
100
AcDbEntity
8
0
100
AcDbBlockEnd
0
ENDSEC
0
SECTION
2
ENTITIES
0
ARC
5
9E
100
AcDbEntity
8
1
62
256
6
ByLayer
370
18
48
1
60
0
100
AcDbCircle
39
0
10
0
20
2.2
30
0
40
0.799999999999998
210
0
220
0
230
1
100
AcDbArc
50
15.711438
51
90
0
ARC
5
9F
100
AcDbEntity
8
1
62
256
6
ByLayer
370
18
48
1
60
0
100
AcDbCircle
39
0
10
0
20
-2.2
30
0
40
0.799999999999998
210
0
220
0
230
1
100
AcDbArc
50
270
51
344.288562
0
ARC
5
A0
100
AcDbEntity
8
1
62
256
6
ByLayer
370
18
48
1
60
0
100
AcDbCircle
39
0
10
-1.54022
20
2.633268
30
0
40
0.799999999999998
210
0
220
0
230
-1
100
AcDbArc
50
269.965623
51
344.288562
0
ARC
5
A1
100
AcDbEntity
8
1
62
256
6
ByLayer
370
18
48
1
60
0
100
AcDbCircle
39
0
10
-1.54022
20
-2.633268
30
0
40
0.799999999999998
210
0
220
0
230
-1
100
AcDbArc
50
15.711438
51
90.034377
0
ELLIPSE
5
A2
100
AcDbEntity
8
1
62
256
6
ByLayer
370
18
48
1
60
0
100
AcDbEllipse
10
4.25
20
1.986831
30
0
11
0.25
21
0
31
0
210
0
220
0
230
1
40
1
41
-2.42112391702005
42
-1.55622341517463
0
ELLIPSE
5
A3
100
AcDbEntity
8
1
62
256
6
ByLayer
370
18
48
1
60
0
100
AcDbEllipse
10
4.25
20
-1.986831
30
0
11
0.25
21
0
31
0
210
0
220
0
230
1
40
1
41
1.57759008369905
42
2.41809669956571
0
ELLIPSE
5
A4
100
AcDbEntity
8
1
62
256
6
ByLayer
370
18
48
1
60
0
100
AcDbEllipse
10
30.000179
20
0.000404
30
0
11
0.689688762722661
21
1.84751162657689
31
0
210
0
220
0
230
-1
40
0.148387
41
2.8322945168134
42
2.9704088250802
0
ELLIPSE
5
A5
100
AcDbEntity
8
1
62
256
6
ByLayer
370
18
48
1
60
0
100
AcDbEllipse
10
29.861078
20
0.084804
30
0
11
0.0727819104933989
21
0.301917195712214
31
0
210
0
220
0
230
-1
40
0.478434
41
1.67391814057521
42
2.45976119972683
0
ELLIPSE
5
A6
100
AcDbEntity
8
1
62
256
6
ByLayer
370
18
48
1
60
0
100
AcDbEllipse
10
29.623729
20
0.916705
30
0
11
0.289615424678015
21
-0.775810624316765
31
0
210
0
220
0
230
-1
40
0.148387
41
-1.46811507128528
42
-0.730060677423255
0
ELLIPSE
5
A7
100
AcDbEntity
8
1
62
256
6
ByLayer
370
13
48
1
60
0
100
AcDbEllipse
10
4.250254
20
0.684935
30
0
11
0.0489442246481289
21
0.0872035714497605
31
0
210
0
220
0
230
1
40
0.194267
41
2.85096384436466
42
-1.90074386622109
0
ELLIPSE
5
A8
100
AcDbEntity
8
1
62
256
6
ByLayer
370
13
48
1
60
0
100
AcDbEllipse
10
29.742515
20
0.155151
30
0
11
0.153082081612423
21
0.258003636193771
31
0
210
0
220
0
230
1
40
0.454519
41
0.917105603404853
42
2.31336900500026
0
ELLIPSE
5
A9
100
AcDbEntity
8
1
62
256
6
ByLayer
370
18
48
1
60
0
100
AcDbEllipse
10
30.000179
20
-0.000404
30
0
11
0.689688767906749
21
-1.84751164212005
31
0
210
0
220
0
230
-1
40
0.148387
41
-2.97040882581931
42
-2.83229451814199
0
ELLIPSE
5
AA
100
AcDbEntity
8
1
62
256
6
ByLayer
370
18
48
1
60
0
100
AcDbEllipse
10
30.066882
20
0.037307
30
0
11
0.133321008305692
21
0.4252136120897
31
0
210
0
220
0
230
-1
40
0.112798
41
-2.34950393586216
42
-1.73908359363508
0
ELLIPSE
5
AB
100
AcDbEntity
8
1
62
256
6
ByLayer
370
18
48
1
60
0
100
AcDbEllipse
10
30.066882
20
-0.037307
30
0
11
0.133321008192938
21
-0.425213611809702
31
0
210
0
220
0
230
-1
40
0.112798
41
1.73908359322763
42
2.34950393580805
0
ELLIPSE
5
AC
100
AcDbEntity
8
1
62
256
6
ByLayer
370
13
48
1
60
0
100
AcDbEllipse
10
4.171659
20
0.736677
30
0
11
0.0614841681947701
21
0.0788650560222791
31
0
210
0
220
0
230
1
40
0.252439
41
2.1986325765803
42
-3.06756365010523
0
ELLIPSE
5
AD
100
AcDbEntity
8
1
62
256
6
ByLayer
370
13
48
1
60
0
100
AcDbEllipse
10
29.848047
20
0.793507
30
0
11
1.23623937204246
21
-0.851185961821312
31
0
210
0
220
0
230
-1
40
0.533762
41
1.44484622739352
42
1.78960316443299
0
ELLIPSE
5
AE
100
AcDbEntity
8
1
62
256
6
ByLayer
370
13
48
1
60
0
100
AcDbEllipse
10
30.037954
20
0.916705
30
0
11
1.29654355667904
21
-0.521616284157402
31
0
210
0
220
0
230
-1
40
0.444171
41
1.62020504393989
42
1.94641557655471
0
ELLIPSE
5
AF
100
AcDbEntity
8
1
62
256
6
ByLayer
370
18
48
1
60
0
100
AcDbEllipse
10
29.623729
20
-0.916705
30
0
11
0.289615424693983
21
0.775810624348231
31
0
210
0
220
0
230
-1
40
0.148387
41
0.730060677418626
42
1.4681150712546
0
POINT
5
6C
100
AcDbEntity
8
81
62
256
6
ByLayer
370
18
48
1
60
0
100
AcDbPoint
10
30
20
0
30
0
39
0
210
0
220
0
230
1
50
360
0
POINT
5
6E
100
AcDbEntity
8
80
62
256
6
ByLayer
370
18
48
1
60
0
100
AcDbPoint
10
0
20
0
30
0
39
0
210
0
220
0
230
1
50
360
0
POINT
5
70
100
AcDbEntity
8
SK2
62
256
6
ByLayer
370
18
48
1
60
1
100
AcDbPoint
10
-36
20
-3
30
0
39
0
210
0
220
0
230
1
50
360
0
POINT
5
72
100
AcDbEntity
8
SK2
62
256
6
ByLayer
370
18
48
1
60
1
100
AcDbPoint
10
-36
20
3
30
0
39
0
210
0
220
0
230
1
50
360
0
POINT
5
73
100
AcDbEntity
8
2
62
256
6
ByLayer
370
18
48
1
60
1
100
AcDbPoint
10
29.38
20
-1.85
30
0
39
0
210
0
220
0
230
1
50
360
0
POINT
5
75
100
AcDbEntity
8
2
62
256
6
ByLayer
370
18
48
1
60
1
100
AcDbPoint
10
29.38
20
1.85
30
0
39
0
210
0
220
0
230
1
50
360
0
SPLINE
5
B0
100
AcDbEntity
8
1
62
256
6
ByLayer
370
18
48
1
60
0
100
AcDbSpline
70
4
71
2
72
6
73
3
40
0
40
0
40
0
40
1
40
1
40
1
41
1
10
5.53957362439092
20
1.73786495960547
30
0
41
1
10
4.89543217341594
20
1.7382577819339
30
0
41
1
10
4.25096824820716
20
1.73615534222145
30
0
0
SPLINE
5
B1
100
AcDbEntity
8
1
62
256
6
ByLayer
370
18
48
1
60
0
100
AcDbSpline
70
4
71
3
72
18
73
14
40
0
40
0
40
0
40
0
40
0.155439750769015
40
0.276847331741688
40
0.364361499972826
40
0.419377405322802
40
0.464444667502567
40
0.506701979645837
40
0.546798634557352
40
0.600662661364059
40
0.675009974676171
40
0.824663375819698
40
1
40
1
40
1
40
1
41
1
10
10.1412385064733
20
-1.73945420686979
30
0
41
1
10
10.3958065300469
20
-1.73954004614637
30
0
41
1
10
10.8494527751365
20
-1.73989351984562
30
0
41
1
10
11.4475896106167
20
-1.73961893883975
30
0
41
1
10
11.8805459599106
20
-1.74118536709057
30
0
41
1
10
12.1880856753631
20
-1.74067657870432
30
0
41
1
10
12.4213491311914
20
-1.74124047742214
30
0
41
1
10
12.6301805497451
20
-1.74247184489835
30
0
41
1
10
12.8534632800393
20
-1.74127077640787
30
0
41
1
10
13.1295575250911
20
-1.74080204590393
30
0
41
1
10
13.5854459334391
20
-1.74372883150542
30
0
41
1
10
14.2408534161482
20
-1.74242253223682
30
0
41
1
10
14.7738591494087
20
-1.74314025417087
30
0
41
1
10
15.0613713020428
20
-1.74328504203817
30
0
0
SPLINE
5
B2
100
AcDbEntity
8
1
62
256
6
ByLayer
370
18
48
1
60
0
100
AcDbSpline
70
4
71
1
72
4
73
2
40
0
40
0
40
1
40
1
41
1
10
29.1520766666084
20
-1.75085187240524
30
0
41
1
10
29.3311990044402
20
-1.74839034828159
30
0
0
SPLINE
5
B3
100
AcDbEntity
8
1
62
256
6
ByLayer
370
18
48
1
60
0
100
AcDbSpline
70
4
71
3
72
18
73
14
40
0
40
0
40
0
40
0
40
0.150392551445392
40
0.266089337024302
40
0.346985627010956
40
0.396679706318408
40
0.440359347770432
40
0.482647772246618
40
0.523541039518346
40
0.573342034067599
40
0.647958127659291
40
0.806290329101644
40
1
40
1
40
1
40
1
41
1
10
19.6620834571047
20
-1.74544228959746
30
0
41
1
10
19.9084179452768
20
-1.74548672202499
30
0
41
1
10
20.344493795816
20
-1.74568744173399
30
0
41
1
10
20.9141361824465
20
-1.74572407942404
30
0
41
1
10
21.3182122624456
20
-1.74650909689439
30
0
41
1
10
21.6039385690851
20
-1.74594307665728
30
0
41
1
10
21.8264145330454
20
-1.74707291928203
30
0
41
1
10
22.0345296593913
20
-1.74720939516183
30
0
41
1
10
22.2527563978883
20
-1.74662160125987
30
0
41
1
10
22.5240459728739
20
-1.7470828266317
30
0
41
1
10
22.9880016793273
20
-1.74805751780022
30
0
41
1
10
23.6881463509629
20
-1.74737366325647
30
0
41
1
10
24.2658364438706
20
-1.7479910125397
30
0
41
1
10
24.5837123514211
20
-1.74832511968171
30
0
0
SPLINE
5
B4
100
AcDbEntity
8
1
62
256
6
ByLayer
370
18
48
1
60
0
100
AcDbSpline
70
4
71
3
72
16
73
12
40
0
40
0
40
0
40
0
40
0.149001021880914
40
0.275529357988448
40
0.357610558643151
40
0.424496758157182
40
0.498605605196556
40
0.602604776101802
40
0.743776752071384
40
0.931672426944937
40
1
40
1
40
1
40
1
41
1
10
24.5857955248227
20
1.74827674819414
30
0
41
1
10
24.3759547242447
20
1.7478029511021
30
0
41
1
10
23.9879316483269
20
1.74698441179038
30
0
41
1
10
23.484417767293
20
1.74847204270827
30
0
41
1
10
23.096434495939
20
1.74663541221858
30
0
41
1
10
22.7823078237336
20
1.74823720590419
30
0
41
1
10
22.4372958870731
20
1.74646514208084
30
0
41
1
10
21.9876606887704
20
1.7475114143748
30
0
41
1
10
21.3781131764249
20
1.74586161934025
30
0
41
1
10
20.818380209387
20
1.74579850751454
30
0
41
1
10
20.4576826571924
20
1.74567164778901
30
0
41
1
10
20.3615060028754
20
1.74563690168543
30
0
0
SPLINE
5
B5
100
AcDbEntity
8
1
62
256
6
ByLayer
370
18
48
1
60
0
100
AcDbSpline
70
4
71
3
72
16
73
12
40
0
40
0
40
0
40
0
40
0.147370451659908
40
0.277734520785344
40
0.370443342070126
40
0.462979313222538
40
0.53457564400422
40
0.614480001971593
40
0.717024938096137
40
0.848914678241937
40
1
40
1
40
1
40
1
41
1
10
15.0688665795486
20
1.74325757701416
30
0
41
1
10
14.8671360697053
20
1.74314957261672
30
0
41
1
10
14.4869555947812
20
1.74308393137517
30
0
41
1
10
13.9798796435305
20
1.7414961750039
30
0
41
1
10
13.5478539967306
20
1.74307310792557
30
0
41
1
10
13.196345985022
20
1.74133659944772
30
0
41
1
10
12.8622286992311
20
1.74125197423785
30
0
41
1
10
12.5144258460999
20
1.74241207280639
30
0
41
1
10
12.084221596622
20
1.74037764566219
30
0
41
1
10
11.5566372242651
20
1.74044657347645
30
0
41
1
10
11.1691179495146
20
1.74010217266567
30
0
41
1
10
10.9623159333957
20
1.73994714700896
30
0
0
SPLINE
5
B6
100
AcDbEntity
8
1
62
256
6
ByLayer
370
18
48
1
60
0
100
AcDbSpline
70
4
71
2
72
6
73
3
40
0
40
0
40
0
40
1
40
1
40
1
41
1
10
4.25096824820719
20
-1.73615534222145
30
0
41
1
10
4.89532759356194
20
-1.73825753803328
30
0
41
1
10
5.53936451701841
20
-1.73786487676949
30
0
0
SPLINE
5
B7
100
AcDbEntity
8
1
62
256
6
ByLayer
370
18
48
1
60
0
100
AcDbSpline
70
4
71
3
72
10
73
6
40
0
40
0
40
0
40
0
40
0.220624088035075
40
0.599268470739622
40
1
40
1
40
1
40
1
41
1
10
24.2962071790974
20
-0.243159151287898
30
0
41
1
10
24.2962289946212
20
-0.24312036162587
30
0
41
1
10
24.2981839114372
20
-0.244114130241513
30
0
41
1
10
24.3103003927606
20
-0.25122452888499
30
0
41
1
10
24.3245497623727
20
-0.260005720332515
30
0
41
1
10
24.3335073025169
20
-0.26557485397916
30
0
0
SPLINE
5
B8
100
AcDbEntity
8
1
62
256
6
ByLayer
370
18
48
1
60
0
100
AcDbSpline
70
4
71
3
72
8
73
4
40
0
40
0
40
0
40
0
40
1
40
1
40
1
40
1
41
1
10
29.3805281619678
20
-1.7481508374812
30
0
41
1
10
29.3742544905665
20
-1.75004142252189
30
0
41
1
10
29.368307157815
20
-1.75099310793055
30
0
41
1
10
29.362690171638
20
-1.75099436262164
30
0
0
SPLINE
5
B9
100
AcDbEntity
8
1
62
256
6
ByLayer
370
18
48
1
60
0
100
AcDbSpline
70
4
71
3
72
70
73
66
40
0
40
0
40
0
40
0
40
0.0166224280599677
40
0.0166224280599677
40
0.0472334068165342
40
0.0472334068165342
40
0.0778443855731006
40
0.0778443855731006
40
0.108455364329667
40
0.108455364329667
40
0.139066343086234
40
0.139066343086234
40
0.1696773218428
40
0.1696773218428
40
0.200288300599367
40
0.200288300599367
40
0.230899279355933
40
0.230899279355933
40
0.292121236869067
40
0.292121236869067
40
0.322732215625634
40
0.322732215625634
40
0.353343194382201
40
0.353343194382201
40
0.383954173138769
40
0.383954173138769
40
0.414565151895336
40
0.414565151895336
40
0.445176130651903
40
0.445176130651903
40
0.47578710940847
40
0.47578710940847
40
0.506398088165037
40
0.506398088165037
40
0.537009066921604
40
0.537009066921604
40
0.567620045678171
40
0.567620045678171
40
0.598231024434739
40
0.598231024434739
40
0.659452981947874
40
0.659452981947874
40
0.690063960704442
40
0.690063960704442
40
0.720674939461011
40
0.720674939461011
40
0.751285918217579
40
0.751285918217579
40
0.781896896974148
40
0.781896896974148
40
0.812507875730716
40
0.812507875730716
40
0.843118854487285
40
0.843118854487285
40
0.873729833243853
40
0.873729833243853
40
0.904340812000422
40
0.904340812000422
40
0.93495179075699
40
0.93495179075699
40
0.965562769513558
40
0.965562769513558
40
0.996173748270127
40
0.996173748270127
40
1
40
1
40
1
40
1
41
1
10
7.48260877562794
20
1.40116508329854
30
0
41
1
10
7.54718894579335
20
1.42657739387678
30
0
41
1
10
7.61182054564483
20
1.45100012954199
30
0
41
1
10
7.79585457565923
20
1.5173576790427
30
0
41
1
10
7.91538566972906
20
1.55695966983191
30
0
41
1
10
8.1546085400378
20
1.62950262282888
30
0
41
1
10
8.27463573891086
20
1.66229604831256
30
0
41
1
10
8.51367263487458
20
1.71907294419913
30
0
41
1
10
8.63293024117175
20
1.74330070481514
30
0
41
1
10
8.87037441542094
20
1.78387904459316
30
0
41
1
10
8.98854583086413
20
1.80016928574366
30
0
41
1
10
9.22526403405701
20
1.82422732745934
30
0
41
1
10
9.3438893280474
20
1.83203853594347
30
0
41
1
10
9.58113733585452
20
1.83937675082308
30
0
41
1
10
9.69962266749405
20
1.83885796085511
30
0
41
1
10
9.93755810409812
20
1.82921057295371
30
0
41
1
10
10.0572460875246
20
1.82014363822961
30
0
41
1
10
10.4177875096223
20
1.78013629495737
30
0
41
1
10
10.6547500183204
20
1.73629615938745
30
0
41
1
10
11.010672711599
20
1.64853360305187
30
0
41
1
10
11.1290773815969
20
1.61545936330626
30
0
41
1
10
11.3655216117808
20
1.54161856009191
30
0
41
1
10
11.4837753491532
20
1.50100969045016
30
0
41
1
10
11.72138582124
20
1.41347846885083
30
0
41
1
10
11.8405554450457
20
1.36640471887404
30
0
41
1
10
12.0792574447115
20
1.26497195112847
30
0
41
1
10
12.1992877102812
20
1.21053861252634
30
0
41
1
10
12.4384621409859
20
1.09774326136377
30
0
41
1
10
12.5577630097396
20
1.03922025708252
30
0
41
1
10
12.7952423520695
20
0.917212866685986
30
0
41
1
10
12.9133960417073
20
0.853665772051016
30
0
41
1
10
13.1500127820623
20
0.723689104284404
30
0
41
1
10
13.2685619911244
20
0.657416094422672
30
0
41
1
10
13.5056190528147
20
0.521516161298962
30
0
41
1
10
13.6239854871819
20
0.451641644030161
30
0
41
1
10
13.8616023675552
20
0.309920471586764
30
0
41
1
10
13.9810414146865
20
0.238406744263443
30
0
41
1
10
14.2210801277127
20
0.0938829838367781
30
0
41
1
10
14.3408002715529
20
0.0209127891124865
30
0
41
1
10
14.697682388393
20
-0.196879087010274
30
0
41
1
10
14.934930729687
20
-0.338913165665076
30
0
41
1
10
15.2894553773625
20
-0.547918695602334
30
0
41
1
10
15.4076185566687
20
-0.616546889753437
30
0
41
1
10
15.6449928376424
20
-0.750040357927872
30
0
41
1
10
15.7640224218745
20
-0.815202701301104
30
0
41
1
10
16.0023724831045
20
-0.942898052297608
30
0
41
1
10
16.1222276027521
20
-1.00542279854849
30
0
41
1
10
16.3616107088707
20
-1.12408632166648
30
0
41
1
10
16.4809936310948
20
-1.18035316029119
30
0
41
1
10
16.7185899843952
20
-1.28763594427247
30
0
41
1
10
16.836766541581
20
-1.33864415425995
30
0
41
1
10
17.0733465462823
20
-1.43368904712079
30
0
41
1
10
17.1918459406097
20
-1.47767071571829
30
0
41
1
10
17.4287601465694
20
-1.559142095352
30
0
41
1
10
17.5470266306006
20
-1.5967299291309
30
0
41
1
10
17.7843543566416
20
-1.6643968657541
30
0
41
1
10
17.9036109978887
20
-1.69435333740438
30
0
41
1
10
18.1432529367251
20
-1.74653299994756
30
0
41
1
10
18.2632471229173
20
-1.7687944258675
30
0
41
1
10
18.5013344057958
20
-1.80472204554812
30
0
41
1
10
18.620055969303
20
-1.81838546254136
30
0
41
1
10
18.8573937354711
20
-1.83727149638446
30
0
41
1
10
18.9757893035423
20
-1.8425581640318
30
0
41
1
10
19.1086885822999
20
-1.84375816953045
30
0
41
1
10
19.1234538543195
20
-1.8438249332811
30
0
41
1
10
19.1382193210435
20
-1.84382531718106
30
0
0
SPLINE
5
BA
100
AcDbEntity
8
1
62
256
6
ByLayer
370
18
48
1
60
0
100
AcDbSpline
70
4
71
3
72
24
73
20
40
0
40
0
40
0
40
0
40
0.0178034221297225
40
0.0178034221297225
40
0.140577994363508
40
0.140577994363508
40
0.263352566597293
40
0.263352566597293
40
0.386127138831078
40
0.386127138831078
40
0.508901711064862
40
0.508901711064862
40
0.631676283298647
40
0.631676283298647
40
0.754450855532432
40
0.754450855532432
40
0.877225427766216
40
0.877225427766216
40
1
40
1
40
1
40
1
41
1
10
26.5282890946685
20
1.41105315790122
30
0
41
1
10
26.5455083693573
20
1.41782404409807
30
0
41
1
10
26.5627250038507
20
1.42452002583644
30
0
41
1
10
26.6986571314391
20
1.47679496664921
30
0
41
1
10
26.8170826232901
20
1.51910388642187
30
0
41
1
10
27.0532483253541
20
1.59705161471595
30
0
41
1
10
27.1711766017053
20
1.63248425495186
30
0
41
1
10
27.4079565534377
20
1.69536279560032
30
0
41
1
10
27.5266531836722
20
1.72297079068494
30
0
41
1
10
27.7641683765998
20
1.77066702608405
30
0
41
1
10
27.8830645216589
20
1.79065435857709
30
0
41
1
10
28.1226129038427
20
1.82205408367457
30
0
41
1
10
28.2424493923376
20
1.83341249371602
30
0
41
1
10
28.4804503144086
20
1.84769103164427
30
0
41
1
10
28.5987262210495
20
1.85058267086228
30
0
41
1
10
28.8352499976476
20
1.8478217892503
30
0
41
1
10
28.9536361363913
20
1.84223336663695
30
0
41
1
10
29.1902678892259
20
1.82274482783933
30
0
41
1
10
29.3083407706457
20
1.80876106099291
30
0
41
1
10
29.4266651338598
20
1.79059004085201
30
0
0
SPLINE
5
BB
100
AcDbEntity
8
1
62
256
6
ByLayer
370
18
48
1
60
0
100
AcDbSpline
70
4
71
3
72
14
73
10
40
0
40
0
40
0
40
0
40
0.500000000000007
40
0.500000000000007
40
0.750000000000003
40
0.750000000000003
40
0.875000000000002
40
0.875000000000002
40
1
40
1
40
1
40
1
41
1
10
29.7679291865362
20
-0.87993217661375
30
0
41
1
10
29.7112658600797
20
-1.03191652597704
30
0
41
1
10
29.6542934715451
20
-1.18362303526158
30
0
41
1
10
29.5693066064559
20
-1.41158666684373
30
0
41
1
10
29.5409470174422
20
-1.48755339085824
30
0
41
1
10
29.4982064289367
20
-1.60132784512356
30
0
41
1
10
29.4839621624662
20
-1.63925503938552
30
0
41
1
10
29.4554748779336
20
-1.7151105704435
30
0
41
1
10
29.4412040372353
20
-1.75301757851329
30
0
41
1
10
29.426665133868
20
-1.79059004085079
30
0
0
SPLINE
5
BC
100
AcDbEntity
8
1
62
256
6
ByLayer
370
18
48
1
60
0
100
AcDbSpline
70
4
71
3
72
55
73
51
40
0
40
0
40
0
40
0
40
0.01546864502378
40
0.01546864502378
40
0.13436895171485
40
0.13436895171485
40
0.164094028387617
40
0.164094028387617
40
0.178956566724001
40
0.178956566724001
40
0.186387835892193
40
0.188245653184241
40
0.188245653184241
40
0.189174561830265
40
0.189174561830265
40
0.190103470476289
40
0.190103470476289
40
0.193819105060385
40
0.193819105060385
40
0.223544181733152
40
0.223544181733152
40
0.253269258405918
40
0.253269258405918
40
0.372169565096986
40
0.372169565096986
40
0.491069871788053
40
0.491069871788053
40
0.60997017847912
40
0.60997017847912
40
0.639695255151887
40
0.639695255151887
40
0.669420331824654
40
0.669420331824654
40
0.67313596640875
40
0.67313596640875
40
0.674064875054774
40
0.674064875054774
40
0.674993783700798
40
0.674993783700798
40
0.676851600992846
40
0.684282870161037
40
0.69914540849742
40
0.69914540849742
40
0.728870485170185
40
0.728870485170185
40
0.847770791861247
40
0.847770791861247
40
0.966671098552309
40
0.966671098552309
40
1
40
1
40
1
40
1
41
1
10
5.23720883504208
20
-0.287990353980632
30
0
41
1
10
5.22335781003736
20
-0.285366709159177
30
0
41
1
10
5.20951425735211
20
-0.282970789926537
30
0
41
1
10
5.08926379096738
20
-0.264134231520529
30
0
41
1
10
4.98223425614549
20
-0.260930359963425
30
0
41
1
10
4.84715753750521
20
-0.273857417303134
30
0
41
1
10
4.82009503201277
20
-0.27728241366404
30
0
41
1
10
4.77945811505651
20
-0.283654703741149
30
0
41
1
10
4.7659058562667
20
-0.285984322259509
30
0
41
1
10
4.74556166614587
20
-0.289784843254296
30
0
41
1
10
4.73708261934922
20
-0.291431986814786
30
0
41
1
10
4.72860073299384
20
-0.293158152126836
30
0
41
1
10
4.72605599757435
20
-0.293680735609001
30
0
41
1
10
4.72474014806775
20
-0.293808364178773
30
0
41
1
10
4.72571830631529
20
-0.294765375693999
30
0
41
1
10
4.72647630448441
20
-0.295194396905544
30
0
41
1
10
4.73012818412414
20
-0.29732728622642
30
0
41
1
10
4.73339624955477
20
-0.298918185028725
30
0
41
1
10
4.76263311882531
20
-0.3132135351822
30
0
41
1
10
4.79025416251773
20
-0.325209808125038
30
0
41
1
10
4.84494927202562
20
-0.349440432034754
30
0
41
1
10
4.87245119418765
20
-0.361496750897004
30
0
41
1
10
5.01023277836981
20
-0.421712990154106
30
0
41
1
10
5.12136114813734
20
-0.469624781341565
30
0
41
1
10
5.34351311110947
20
-0.566385682187956
30
0
41
1
10
5.4546286099706
20
-0.615227674090761
30
0
41
1
10
5.67700534323919
20
-0.713661706617785
30
0
41
1
10
5.78808341076819
20
-0.763342160129696
30
0
41
1
10
5.92605870568872
20
-0.827286458819003
30
0
41
1
10
5.95360855936116
20
-0.8401748509919
30
0
41
1
10
6.00844765962967
20
-0.866412260228145
30
0
41
1
10
6.03608845397025
20
-0.87924097667954
30
0
41
1
10
6.06565066834636
20
-0.896033534961134
30
0
41
1
10
6.06894576434865
20
-0.897900152301077
30
0
41
1
10
6.07271701341509
20
-0.900671559563079
30
0
41
1
10
6.07348043775875
20
-0.901228469474034
30
0
41
1
10
6.07464873541306
20
-0.902671763264721
30
0
41
1
10
6.07372885414776
20
-0.903640796237625
30
0
41
1
10
6.07171145322764
20
-0.906128426847118
30
0
41
1
10
6.06498900503112
20
-0.914425732753529
30
0
41
1
10
6.04754053637004
20
-0.936063939073392
30
0
41
1
10
6.03150009189997
20
-0.956172215412607
30
0
41
1
10
5.99951922515376
20
-0.996521951025983
30
0
41
1
10
5.97832256464397
20
-1.02361198198113
30
0
41
1
10
5.87272803515322
20
-1.1598413763555
30
0
41
1
10
5.79165222360245
20
-1.26903097725105
30
0
41
1
10
5.62734943319299
20
-1.47993934138637
30
0
41
1
10
5.5432762149037
20
-1.58288500771943
30
0
41
1
10
5.42850286264149
20
-1.69142117170145
30
0
41
1
10
5.40265567823002
20
-1.71393702458491
30
0
41
1
10
5.37615059608791
20
-1.73473883447784
30
0
0
SPLINE
5
BD
100
AcDbEntity
8
1
62
256
6
ByLayer
370
13
48
1
60
0
100
AcDbSpline
70
4
71
3
72
8
73
4
40
0
40
0
40
0
40
0
40
1
40
1
40
1
40
1
41
1
10
4.05110052333259
20
0.758701285344216
30
0
41
1
10
4.06949911265829
20
0.73673464620768
30
0
41
1
10
4.09217240095359
20
0.717904220182817
30
0
41
1
10
4.11943116383611
20
0.702913070331277
30
0
0
SPLINE
5
BE
100
AcDbEntity
8
1
62
256
6
ByLayer
370
18
48
1
60
0
100
AcDbSpline
70
4
71
3
72
10
73
6
40
0
40
0
40
0
40
0
40
0.5
40
0.5
40
1
40
1
40
1
40
1
41
1
10
4.25114178305364
20
-1.56570171400483
30
0
41
1
10
4.43674265087412
20
-1.61711508583116
30
0
41
1
10
4.62299307526928
20
-1.65668666415513
30
0
41
1
10
4.99849161962419
20
-1.71253130046406
30
0
41
1
10
5.18632664723708
20
-1.7285840265032
30
0
41
1
10
5.3760477964986
20
-1.73469923545261
30
0
0
SPLINE
5
BF
100
AcDbEntity
8
1
62
256
6
ByLayer
370
18
48
1
60
0
100
AcDbSpline
70
4
71
3
72
8
73
4
40
0
40
0
40
0
40
0
40
1
40
1
40
1
40
1
41
1
10
29.3672712274206
20
1.83753765262475
30
0
41
1
10
29.2500314588675
20
1.84578262231671
30
0
41
1
10
29.1330959828414
20
1.84984147254323
30
0
41
1
10
29.0162937539972
20
1.84976750840289
30
0
0
SPLINE
5
C0
100
AcDbEntity
8
1
62
256
6
ByLayer
370
18
48
1
60
0
100
AcDbSpline
70
4
71
3
72
42
73
38
40
0
40
0
40
0
40
0
40
0.0416104357920816
40
0.0416104357920816
40
0.117395757972204
40
0.117395757972204
40
0.193181080152327
40
0.193181080152327
40
0.231073741242389
40
0.231073741242389
40
0.268966402332451
40
0.268966402332451
40
0.344751724512576
40
0.344751724512576
40
0.4205370466927
40
0.4205370466927
40
0.458429707782762
40
0.458429707782762
40
0.496322368872824
40
0.496322368872824
40
0.572107691052949
40
0.572107691052949
40
0.61000035214301
40
0.61000035214301
40
0.647893013233071
40
0.647893013233071
40
0.799463657593317
40
0.799463657593317
40
0.837356318683379
40
0.837356318683379
40
0.875248979773441
40
0.875248979773441
40
0.951034301953565
40
0.951034301953565
40
0.988926963043628
40
0.988926963043628
40
1
40
1
40
1
40
1
41
1
10
20.3628044566012
20
-1.76960221600092
30
0
41
1
10
20.2188804876792
20
-1.79422579749402
30
0
41
1
10
20.0744775829701
20
-1.81294215326378
30
0
41
1
10
19.6646555171724
20
-1.84827850053406
30
0
41
1
10
19.4023632403728
20
-1.84993396841321
30
0
41
1
10
18.8798775172016
20
-1.81251288464728
30
0
41
1
10
18.6193107753609
20
-1.77344168574172
30
0
41
1
10
18.2259388999931
20
-1.68541001278598
30
0
41
1
10
18.0943909349541
20
-1.65116408159935
30
0
41
1
10
17.8298529424049
20
-1.5730363925621
30
0
41
1
10
17.6978239627132
20
-1.52941830664196
30
0
41
1
10
17.3039056387153
20
-1.38680535361783
30
0
41
1
10
17.0431732942547
20
-1.27576840051361
30
0
41
1
10
16.52080917079
20
-1.02766414750195
30
0
41
1
10
16.2591662539356
20
-0.890614792228803
30
0
41
1
10
15.8624916769776
20
-0.669896534966995
30
0
41
1
10
15.7303002179109
20
-0.594227870103339
30
0
41
1
10
15.4675547852367
20
-0.440938262303888
30
0
41
1
10
15.3366708750267
20
-0.363124651713804
30
0
41
1
10
14.9445905762127
20
-0.127674509723647
30
0
41
1
10
14.683936098377
20
0.0319210517059787
30
0
41
1
10
14.2906798301834
20
0.269621931367283
30
0
41
1
10
14.1592058722475
20
0.348558090437763
30
0
41
1
10
13.8947746561143
20
0.504651343507078
30
0
41
1
10
13.7624132398017
20
0.581561620012053
30
0
41
1
10
13.1053229183795
20
0.954512980305196
30
0
41
1
10
12.5875983713347
20
1.21847175223581
30
0
41
1
10
11.9267827407929
20
1.47259149327667
30
0
41
1
10
11.7942937706761
20
1.51945926018607
30
0
41
1
10
11.5313265141043
20
1.60372751616788
30
0
41
1
10
11.4003267439511
20
1.6412483675615
30
0
41
1
10
11.0079383455973
20
1.73959100626044
30
0
41
1
10
10.7473261231152
20
1.78627833292794
30
0
41
1
10
10.3540608734529
20
1.82594405915213
30
0
41
1
10
10.2226209333228
20
1.83412379108702
30
0
41
1
10
10.0519462102039
20
1.83794419103748
30
0
41
1
10
10.0133048121344
20
1.83835730737115
30
0
41
1
10
9.97465652094314
20
1.83832264107909
30
0
0
SPLINE
5
C1
100
AcDbEntity
8
1
62
256
6
ByLayer
370
18
48
1
60
0
100
AcDbSpline
70
4
71
3
72
12
73
8
40
0
40
0
40
0
40
0
40
0.25
40
0.25
40
0.5
40
0.5
40
1
40
1
40
1
40
1
41
1
10
29.3676438454646
20
-1.8365679014191
30
0
41
1
10
29.3727147556496
20
-1.82336990987653
30
0
41
1
10
29.3773754555336
20
-1.80968881453421
30
0
41
1
10
29.3843177608264
20
-1.78515188819233
30
0
41
1
10
29.386533988781
20
-1.77443929714337
30
0
41
1
10
29.3890229933864
20
-1.75125946979105
30
0
41
1
10
29.3857905473232
20
-1.746565005772
30
0
41
1
10
29.3805281619668
20
-1.74815083748152
30
0
0
SPLINE
5
C2
100
AcDbEntity
8
1
62
256
6
ByLayer
370
13
48
1
60
0
100
AcDbSpline
70
4
71
3
72
20
73
16
40
0
40
0
40
0
40
0
40
0.174674369409648
40
0.174674369409648
40
0.349348738819297
40
0.349348738819297
40
0.436685923524121
40
0.436685923524121
40
0.524023108228946
40
0.524023108228946
40
0.698697477638594
40
0.698697477638594
40
0.873371847048243
40
0.873371847048243
40
1
40
1
40
1
40
1
41
1
10
4.25042350099233
20
0.647686252994106
30
0
41
1
10
4.25047626231952
20
0.758516956435585
30
0
41
1
10
4.25051976326694
20
0.863540963372458
30
0
41
1
10
4.25059603337681
20
1.06203730525604
30
0
41
1
10
4.25062803340074
20
1.1534315424845
30
0
41
1
10
4.25067204900685
20
1.27751694705046
30
0
41
1
10
4.2506860735549
20
1.31679409568593
30
0
41
1
10
4.25071362165875
20
1.39108830594407
30
0
41
1
10
4.25072718032226
20
1.42617379075296
30
0
41
1
10
4.2507674807888
20
1.52314377198493
30
0
41
1
10
4.25079437000508
20
1.57764842662038
30
0
41
1
10
4.25084961864692
20
1.66255394217913
30
0
41
1
10
4.25087812455499
20
1.69353066114061
30
0
41
1
10
4.25092944268113
20
1.727109527963
30
0
41
1
10
4.25095175672416
20
1.73501404223236
30
0
41
1
10
4.25097378252269
20
1.73653999956133
30
0
0
SPLINE
5
C3
100
AcDbEntity
8
1
62
256
6
ByLayer
370
18
48
1
60
0
100
AcDbSpline
70
4
71
3
72
24
73
20
40
0
40
0
40
0
40
0
40
0.250000000000012
40
0.250000000000012
40
0.500000000000024
40
0.500000000000024
40
0.62500000000003
40
0.62500000000003
40
0.687500000000025
40
0.687500000000025
40
0.75000000000002
40
0.75000000000002
40
0.812500000000015
40
0.812500000000015
40
0.87500000000001
40
0.87500000000001
40
0.937500000000005
40
0.937500000000005
40
1
40
1
40
1
40
1
41
1
10
27.7577730983305
20
0.877547753080023
30
0
41
1
10
27.871091226945
20
0.766320859390618
30
0
41
1
10
27.9899098234384
20
0.664077171842649
30
0
41
1
10
28.2310494341766
20
0.484729447126426
30
0
41
1
10
28.3539379573776
20
0.407128504194191
30
0
41
1
10
28.5423919106076
20
0.312184868614224
30
0
41
1
10
28.606240455606
20
0.284073884381627
30
0
41
1
10
28.7009296088096
20
0.24911924630598
30
0
41
1
10
28.7323784361825
20
0.238632443554224
30
0
41
1
10
28.7950346477454
20
0.220120843184418
30
0
41
1
10
28.8262801065192
20
0.211707797615986
30
0
41
1
10
28.8883304603812
20
0.199374150799656
30
0
41
1
10
28.9192101751865
20
0.195798677246614
30
0
41
1
10
28.9782834424583
20
0.196070426992122
30
0
41
1
10
29.0069656159128
20
0.199983220812754
30
0
41
1
10
29.0581809026816
20
0.218447978975433
30
0
41
1
10
29.0813380301862
20
0.23343917049084
30
0
41
1
10
29.1170290001873
20
0.275480860548782
30
0
41
1
10
29.1298616665879
20
0.302865185161693
30
0
41
1
10
29.1362047216979
20
0.334145567271008
30
0
0
SPLINE
5
C4
100
AcDbEntity
8
1
62
256
6
ByLayer
370
18
48
1
60
0
100
AcDbSpline
70
4
71
3
72
14
73
10
40
0
40
0
40
0
40
0
40
0.27651542515372
40
0.27651542515372
40
0.488556742186446
40
0.488556742186446
40
0.700598059219172
40
0.700598059219172
40
1
40
1
40
1
40
1
41
1
10
19.6912937535173
20
-1.74543480256523
30
0
41
1
10
19.5212342894873
20
-1.74544164551096
30
0
41
1
10
19.3508029966769
20
-1.73720155307541
30
0
41
1
10
19.0480528313549
20
-1.70783586349935
30
0
41
1
10
18.9158292320944
20
-1.69013819847444
30
0
41
1
10
18.6532409600688
20
-1.64558321661511
30
0
41
1
10
18.5224886377508
20
-1.6186865271539
30
0
41
1
10
18.2077985410797
20
-1.54330735425827
30
0
41
1
10
18.024102946703
20
-1.49053765235138
30
0
41
1
10
17.8402091108739
20
-1.42982156218875
30
0
0
SPLINE
5
C5
100
AcDbEntity
8
1
62
256
6
ByLayer
370
13
48
1
60
0
100
AcDbSpline
70
4
71
3
72
26
73
22
40
0
40
0
40
0
40
0
40
0.0405378705338565
40
0.0405378705338565
40
0.109479606745839
40
0.109479606745839
40
0.178421342957821
40
0.178421342957821
40
0.454188287805747
40
0.454188287805747
40
0.523130024017728
40
0.523130024017728
40
0.592071760229708
40
0.592071760229708
40
0.729955232653668
40
0.729955232653668
40
0.798896968865648
40
0.798896968865648
40
0.867838705077628
40
0.867838705077628
40
1
40
1
40
1
40
1
41
1
10
17.8402091106212
20
-1.42982156210533
30
0
41
1
10
17.7636297442452
20
-1.40453741001249
30
0
41
1
10
17.6870159996271
20
-1.37787522696181
30
0
41
1
10
17.4798731183067
20
-1.30228344856528
30
0
41
1
10
17.3491767195442
20
-1.25080871289001
30
0
41
1
10
17.086685361233
20
-1.14073992129502
30
0
41
1
10
16.9544550917303
20
-1.08192192182966
30
0
41
1
10
16.2969818002515
20
-0.774865462240115
30
0
41
1
10
15.7799804897755
20
-0.48775854279657
30
0
41
1
10
15.1237325518378
20
-0.11238018722355
30
0
41
1
10
14.9915211486511
20
-0.0362308110767344
30
0
41
1
10
14.7283928992845
20
0.11497175360293
30
0
41
1
10
14.5974003957475
20
0.190114560148885
30
0
41
1
10
14.2054310034274
20
0.412965300638632
30
0
41
1
10
13.9451745798653
20
0.557543262519573
30
0
41
1
10
13.5536524782931
20
0.763949279206003
30
0
41
1
10
13.4229251114159
20
0.830944648313107
30
0
41
1
10
13.1603945467803
20
0.960263302022895
30
0
41
1
10
13.0281591967808
20
1.02281745113638
30
0
41
1
10
12.6442693828411
20
1.19545014639672
30
0
41
1
10
12.3941643660205
20
1.29673560448469
30
0
41
1
10
12.1442699911562
20
1.38368713718026
30
0
0
SPLINE
5
C6
100
AcDbEntity
8
1
62
256
6
ByLayer
370
18
48
1
60
0
100
AcDbSpline
70
4
71
3
72
56
73
52
40
0
40
0
40
0
40
0
40
0.0624999999999962
40
0.0624999999999962
40
0.124999999999993
40
0.124999999999993
40
0.249999999999985
40
0.249999999999985
40
0.31249999999998
40
0.31249999999998
40
0.374999999999975
40
0.374999999999975
40
0.499999999999968
40
0.499999999999968
40
0.531249999999965
40
0.531249999999965
40
0.535156249999965
40
0.535156249999965
40
0.539062499999965
40
0.539062499999965
40
0.542968749999965
40
0.542968749999965
40
0.546874999999965
40
0.546874999999965
40
0.562499999999966
40
0.562499999999966
40
0.593749999999968
40
0.593749999999968
40
0.609374999999969
40
0.609374999999969
40
0.62499999999997
40
0.62499999999997
40
0.640624999999971
40
0.640624999999971
40
0.656249999999972
40
0.656249999999972
40
0.671874999999973
40
0.671874999999973
40
0.687499999999974
40
0.687499999999974
40
0.718749999999976
40
0.718749999999976
40
0.749999999999978
40
0.749999999999978
40
0.812499999999983
40
0.812499999999983
40
0.874999999999989
40
0.874999999999989
40
0.937499999999994
40
0.937499999999994
40
1
40
1
40
1
40
1
41
1
10
6.60325916667767
20
-1.00230535001148
30
0
41
1
10
6.4563233255337
20
-0.927474924771872
30
0
41
1
10
6.30808486376645
20
-0.849936657153194
30
0
41
1
10
6.01145628647777
20
-0.693398779771599
30
0
41
1
10
5.86294230378789
20
-0.614354026731888
30
0
41
1
10
5.41500277882238
20
-0.378903902904085
30
0
41
1
10
5.11311902451206
20
-0.224238366368468
30
0
41
1
10
4.648088964728
20
-0.012986304467546
30
0
41
1
10
4.49105416483161
20
0.0539754117800726
30
0
41
1
10
4.17199419109434
20
0.17851016974538
30
0
41
1
10
4.00959867684901
20
0.236171985226321
30
0
41
1
10
3.51896607560863
20
0.390724778069398
30
0
41
1
10
3.18605545813182
20
0.46965145852468
30
0
41
1
10
2.76118952366355
20
0.535158446901448
30
0
41
1
10
2.67593847803172
20
0.546584580136283
30
0
41
1
10
2.57977983260181
20
0.557523427208338
30
0
41
1
10
2.56909182816906
20
0.558712265933792
30
0
41
1
10
2.54771289380926
20
0.561036195435491
30
0
41
1
10
2.53670457849046
20
0.561186132176033
30
0
41
1
10
2.51574580674995
20
0.557807006963969
30
0
41
1
10
2.50624141877918
20
0.553342190375986
30
0
41
1
10
2.48725616532815
20
0.544331549779116
30
0
41
1
10
2.4777993577008
20
0.539739718603926
30
0
41
1
10
2.43077297413785
20
0.516357129797058
30
0
41
1
10
2.39390372812829
20
0.496278131688456
30
0
41
1
10
2.28615898899571
20
0.430784212562031
30
0
41
1
10
2.21925349481756
20
0.381205272913831
30
0
41
1
10
2.13162301712248
20
0.291203581127917
30
0
41
1
10
2.10445276713608
20
0.258212554945629
30
0
41
1
10
2.05844882804405
20
0.187766585015567
30
0
41
1
10
2.03914595257407
20
0.149532726349946
30
0
41
1
10
2.01154055515448
20
0.0694296433208592
30
0
41
1
10
2.00331174817023
20
0.028176992123889
30
0
41
1
10
1.99827263367752
20
-0.0568005958122626
30
0
41
1
10
2.00162084897724
20
-0.0994513370515619
30
0
41
1
10
2.01779954308353
20
-0.182483538698364
30
0
41
1
10
2.03069596193455
20
-0.223248722894056
30
0
41
1
10
2.06257334804667
20
-0.300545468685158
30
0
41
1
10
2.08165254891867
20
-0.337585302639269
30
0
41
1
10
2.14586594552981
20
-0.445081548836157
30
0
41
1
10
2.19689062974902
20
-0.510432889085763
30
0
41
1
10
2.30613686363577
20
-0.631729354483468
30
0
41
1
10
2.36498226290402
20
-0.68818213321299
30
0
41
1
10
2.5486976939701
20
-0.848113617053997
30
0
41
1
10
2.67807194598962
20
-0.940515135745841
30
0
41
1
10
2.94322901036969
20
-1.10953486434426
30
0
41
1
10
3.07922563536366
20
-1.18578123173424
30
0
41
1
10
3.35566244984136
20
-1.32574775151417
30
0
41
1
10
3.49482206737082
20
-1.38870675808104
30
0
41
1
10
3.7729445385865
20
-1.50194355282545
30
0
41
1
10
3.91218202777441
20
-1.55231283582029
30
0
41
1
10
4.0517257606387
20
-1.5966888759898
30
0
0
SPLINE
5
C7
100
AcDbEntity
8
1
62
256
6
ByLayer
370
18
48
1
60
0
100
AcDbSpline
70
4
71
3
72
18
73
14
40
0
40
0
40
0
40
0
40
0.204526598334997
40
0.204526598334997
40
0.337105498612498
40
0.337105498612498
40
0.469684398889999
40
0.469684398889999
40
0.734842199445
40
0.734842199445
40
0.8674210997225
40
0.8674210997225
40
1
40
1
40
1
40
1
41
1
10
29.3283408521203
20
-1.7486549946602
30
0
41
1
10
29.2906410695022
20
-1.74337015355817
30
0
41
1
10
29.2560844751224
20
-1.72905209429243
30
0
41
1
10
29.2047678696495
20
-1.68924283791762
30
0
41
1
10
29.1862856159348
20
-1.66954553794548
30
0
41
1
10
29.1532892998539
20
-1.62260197015789
30
0
41
1
10
29.1386808928386
20
-1.59528740998513
30
0
41
1
10
29.1007023469253
20
-1.50145461591202
30
0
41
1
10
29.0831825901931
20
-1.42168956270757
30
0
41
1
10
29.0710530869889
20
-1.2838724729028
30
0
41
1
10
29.0692588003853
20
-1.23475052925184
30
0
41
1
10
29.0702377768125
20
-1.13004204220422
30
0
41
1
10
29.0730572057387
20
-1.07406539519289
30
0
41
1
10
29.0781598796594
20
-1.01598427868831
30
0
0
SPLINE
5
C8
100
AcDbEntity
8
1
62
256
6
ByLayer
370
18
48
1
60
0
100
AcDbSpline
70
4
71
3
72
8
73
4
40
0
40
0
40
0
40
0
40
1
40
1
40
1
40
1
41
1
10
4.1834465503041
20
0.612953020059933
30
0
41
1
10
4.15902271827161
20
0.626876020134347
30
0
41
1
10
4.13442153253692
20
0.640491377895984
30
0
41
1
10
4.11181540996631
20
0.656879848123793
30
0
0
SPLINE
5
C9
100
AcDbEntity
8
1
62
256
6
ByLayer
370
18
48
1
60
0
100
AcDbSpline
70
4
71
3
72
8
73
4
40
0
40
0
40
0
40
0
40
1
40
1
40
1
40
1
41
1
10
4.18344655031649
20
0.61295302005243
30
0
41
1
10
4.18842763270393
20
0.60994698386898
30
0
41
1
10
4.19344815065952
20
0.607000426862527
30
0
41
1
10
4.19850795486133
20
0.604113053286426
30
0
0
SPLINE
5
CA
100
AcDbEntity
8
1
62
256
6
ByLayer
370
18
48
1
60
0
100
AcDbSpline
70
4
71
3
72
8
73
4
40
0
40
0
40
0
40
0
40
1
40
1
40
1
40
1
41
1
10
29.3672712274205
20
-1.83753765262478
30
0
41
1
10
29.3673954380755
20
-1.83721440911182
30
0
41
1
10
29.367519644091
20
-1.83689115870735
30
0
41
1
10
29.3676438454615
20
-1.83656790142652
30
0
0
SPLINE
5
CB
100
AcDbEntity
8
1
62
256
6
ByLayer
370
18
48
1
60
0
100
AcDbSpline
70
4
71
3
72
16
73
12
40
0
40
0
40
0
40
0
40
0.250000000000011
40
0.250000000000011
40
0.500000000000023
40
0.500000000000023
40
0.750000000000035
40
0.750000000000035
40
0.875000000000017
40
0.875000000000017
40
1
40
1
40
1
40
1
41
1
10
29.34678473068
20
0.572322577611487
30
0
41
1
10
29.3922675322173
20
0.583472421922551
30
0
41
1
10
29.4374877792463
20
0.596109289953148
30
0
41
1
10
29.5261635759416
20
0.626299013582297
30
0
41
1
10
29.5697182841241
20
0.643766326442858
30
0
41
1
10
29.6519363804898
20
0.687875637987702
30
0
41
1
10
29.6901992398292
20
0.713627290341918
30
0
41
1
10
29.7361665548001
20
0.767657047843699
30
0
41
1
10
29.7487535327092
20
0.78779927853256
30
0
41
1
10
29.7652875754879
20
0.832364920932122
30
0
41
1
10
29.7688410968173
20
0.856072665958351
30
0
41
1
10
29.7679291865362
20
0.87993217661375
30
0
0
SPLINE
5
CC
100
AcDbEntity
8
1
62
256
6
ByLayer
370
18
48
1
60
0
100
AcDbSpline
70
4
71
3
72
22
73
18
40
0
40
0
40
0
40
0
40
0.143477644156164
40
0.143477644156164
40
0.224355701583273
40
0.224355701583273
40
0.305233759010383
40
0.305233759010383
40
0.466989873864597
40
0.466989873864597
40
0.547867931291706
40
0.547867931291706
40
0.628745988718815
40
0.628745988718815
40
0.952258218427261
40
0.952258218427261
40
1
40
1
40
1
40
1
41
1
10
12.1611639743059
20
1.38091766264543
30
0
41
1
10
12.3927535060363
20
1.28825978417259
30
0
41
1
10
12.6246732297337
20
1.18321893262629
30
0
41
1
10
12.990633757079
20
1.00261851400813
30
0
41
1
10
13.1231301903144
20
0.934145570237717
30
0
41
1
10
13.386001371245
20
0.793254969346577
30
0
41
1
10
13.516903428099
20
0.7206511772998
30
0
41
1
10
13.9088925712174
20
0.497830936917438
30
0
41
1
10
14.169388800788
20
0.342807914767889
30
0
41
1
10
14.5620084941529
20
0.105538440115083
30
0
41
1
10
14.6932385547595
20
0.0257422667702372
30
0
41
1
10
14.9569791855454
20
-0.134344347601853
30
0
41
1
10
15.0894635667835
20
-0.214620789583876
30
0
41
1
10
15.7466705704725
20
-0.60878387279601
30
0
41
1
10
16.26384977866
20
-0.905791687439915
30
0
41
1
10
16.8689425867342
20
-1.19236506218584
30
0
41
1
10
16.9469827146532
20
-1.22817662365117
30
0
41
1
10
17.0248979458823
20
-1.26268997835635
30
0
0
SPLINE
5
CD
100
AcDbEntity
8
1
62
256
6
ByLayer
370
13
48
1
60
0
100
AcDbSpline
70
4
71
3
72
20
73
16
40
0
40
0
40
0
40
0
40
0.0482704959679096
40
0.0482704959679096
40
0.166087053248091
40
0.166087053248091
40
0.401720167808456
40
0.401720167808456
40
0.519536725088639
40
0.519536725088639
40
0.637353282368823
40
0.637353282368823
40
0.872986396929185
40
0.872986396929185
40
1
40
1
40
1
40
1
41
1
10
17.0248970315286
20
-1.26268957333389
30
0
41
1
10
17.078976185962
20
-1.28664449890522
30
0
41
1
10
17.1329951730043
20
-1.30997402347046
30
0
41
1
10
17.3182488146907
20
-1.38779706193134
30
0
41
1
10
17.449099162879
20
-1.4390077178285
30
0
41
1
10
17.840836025084
20
-1.57991521895687
30
0
41
1
10
18.1009463478846
20
-1.65697343240666
30
0
41
1
10
18.4929679331146
20
-1.7443274832722
30
0
41
1
10
18.6239533267882
20
-1.76873181950558
30
0
41
1
10
18.8871522517849
20
-1.80758061689059
30
0
41
1
10
19.0197126667362
20
-1.82203811335844
30
0
41
1
10
19.4144398154475
20
-1.84956324008829
30
0
41
1
10
19.6752921813432
20
-1.84695515537092
30
0
41
1
10
20.0765699016818
20
-1.81186436185123
30
0
41
1
10
20.217149679034
20
-1.79368524756117
30
0
41
1
10
20.3580880303012
20
-1.76969576353474
30
0
0
SPLINE
5
CE
100
AcDbEntity
8
1
62
256
6
ByLayer
370
18
48
1
60
0
100
AcDbSpline
70
4
71
3
72
64
73
60
40
0
40
0
40
0
40
0
40
0.0162889613241633
40
0.0162889613241633
40
0.046849436146395
40
0.046849436146395
40
0.107970385790859
40
0.107970385790859
40
0.13853086061309
40
0.13853086061309
40
0.169091335435322
40
0.169091335435322
40
0.230212285079784
40
0.230212285079784
40
0.291333234724246
40
0.291333234724246
40
0.321893709546476
40
0.321893709546476
40
0.352454184368707
40
0.352454184368707
40
0.383014659190937
40
0.383014659190937
40
0.413575134013167
40
0.413575134013167
40
0.444135608835397
40
0.444135608835397
40
0.474696083657628
40
0.474696083657628
40
0.505256558479858
40
0.505256558479858
40
0.535817033302088
40
0.535817033302088
40
0.596937982946548
40
0.596937982946548
40
0.627498457768777
40
0.627498457768777
40
0.658058932591007
40
0.658058932591007
40
0.688619407413237
40
0.688619407413237
40
0.719179882235466
40
0.719179882235466
40
0.749740357057696
40
0.749740357057696
40
0.780300831879926
40
0.780300831879926
40
0.841421781524384
40
0.841421781524384
40
0.871982256346613
40
0.871982256346613
40
0.902542731168843
40
0.902542731168843
40
0.933103205991072
40
0.933103205991072
40
0.963663680813302
40
0.963663680813302
40
0.994224155635532
40
0.994224155635532
40
1
40
1
40
1
40
1
41
1
10
5.54095434697967
20
1.73768059000946
30
0
41
1
10
5.60353515539546
20
1.7378929081203
30
0
41
1
10
5.66599345666987
20
1.73702696376026
30
0
41
1
10
5.84522143597729
20
1.73116283972379
30
0
41
1
10
5.96162470219934
20
1.72315888033734
30
0
41
1
10
6.31029536528223
20
1.68816722306926
30
0
41
1
10
6.54238027178806
20
1.6503856505081
30
0
41
1
10
6.89129411815225
20
1.571229336599
30
0
41
1
10
7.00770749315299
20
1.54134852601862
30
0
41
1
10
7.2415039348999
20
1.47499676564297
30
0
41
1
10
7.35909721902601
20
1.43832279727349
30
0
41
1
10
7.71216074503894
20
1.31781618594579
30
0
41
1
10
7.94521592591775
20
1.22583575442078
30
0
41
1
10
8.41047436050229
20
1.02245014793525
30
0
41
1
10
8.64207631861765
20
0.91109690370098
30
0
41
1
10
8.99135134037317
20
0.732687169989561
30
0
41
1
10
9.10797654396072
20
0.671299990293534
30
0
41
1
10
9.34181417131236
20
0.545417779554754
30
0
41
1
10
9.45939853572708
20
0.480885945147151
30
0
41
1
10
9.69461217209704
20
0.349861020861425
30
0
41
1
10
9.81170603682571
20
0.28376798229192
30
0
41
1
10
10.0450623897292
20
0.150672320898053
30
0
41
1
10
10.161390516439
20
0.0837612900105569
30
0
41
1
10
10.3938394490605
20
-0.0497039940279365
30
0
41
1
10
10.5099879734544
20
-0.116219496069334
30
0
41
1
10
10.7422215568083
20
-0.248794107421276
30
0
41
1
10
10.8582649163787
20
-0.314935910734675
30
0
41
1
10
11.0908977117734
20
-0.445631836933586
30
0
41
1
10
11.2075738362303
20
-0.509973267900534
30
0
41
1
10
11.441709994887
20
-0.636682720102954
30
0
41
1
10
11.559407443259
20
-0.699356136598055
30
0
41
1
10
11.9117442557231
20
-0.88234170112932
30
0
41
1
10
12.1446033354681
20
-0.994661456224293
30
0
41
1
10
12.4928362224812
20
-1.15090363455028
30
0
41
1
10
12.6087669408795
20
-1.20072760069249
30
0
41
1
10
12.840859542849
20
-1.29327039986171
30
0
41
1
10
12.9570147771525
20
-1.33670408245092
30
0
41
1
10
13.189540440862
20
-1.41873720539002
30
0
41
1
10
13.3059135883331
20
-1.45767289976595
30
0
41
1
10
13.5398364590104
20
-1.52722567566408
30
0
41
1
10
13.6577297408132
20
-1.55814904770367
30
0
41
1
10
13.8926629054923
20
-1.61383816532808
30
0
41
1
10
14.009601876081
20
-1.63861578955854
30
0
41
1
10
14.2429417149026
20
-1.68040370771263
30
0
41
1
10
14.3593346609385
20
-1.69680894678874
30
0
41
1
10
14.7081030357934
20
-1.7352585102123
30
0
41
1
10
14.9398231393675
20
-1.74728039101581
30
0
41
1
10
15.2894964543176
20
-1.73973885031603
30
0
41
1
10
15.4062599880654
20
-1.733557406541
30
0
41
1
10
15.6404841619567
20
-1.71402109729115
30
0
41
1
10
15.7584207765545
20
-1.70019712754919
30
0
41
1
10
15.9930194513143
20
-1.66440378297409
30
0
41
1
10
16.1098601922613
20
-1.64281318803717
30
0
41
1
10
16.3428176097163
20
-1.59330937060452
30
0
41
1
10
16.4589382315802
20
-1.56509184899372
30
0
41
1
10
16.6911425671437
20
-1.50117766754738
30
0
41
1
10
16.8072244552419
20
-1.46570427789953
30
0
41
1
10
16.9452332925384
20
-1.42016547082483
30
0
41
1
10
16.9671691586044
20
-1.41282177190013
30
0
41
1
10
16.9891063352314
20
-1.4053709567271
30
0
0
SPLINE
5
CF
100
AcDbEntity
8
1
62
256
6
ByLayer
370
18
48
1
60
0
100
AcDbSpline
70
4
71
3
72
18
73
14
40
0
40
0
40
0
40
0
40
0.118838777848272
40
0.118838777848272
40
0.339129083386199
40
0.339129083386199
40
0.449274236155163
40
0.449274236155163
40
0.559419388924126
40
0.559419388924126
40
0.779709694462063
40
0.779709694462063
40
1
40
1
40
1
40
1
41
1
10
24.5905974254235
20
1.74860536288253
30
0
41
1
10
24.7159441935326
20
1.74829993614696
30
0
41
1
10
24.8409901054691
20
1.74336832188448
30
0
41
1
10
25.1974643344769
20
1.71714430433673
30
0
41
1
10
25.4293290517411
20
1.68624095095348
30
0
41
1
10
25.7783037856759
20
1.61750652328604
30
0
41
1
10
25.8949289348974
20
1.59055033078835
30
0
41
1
10
26.1294990662215
20
1.52942463523465
30
0
41
1
10
26.2471902062208
20
1.49532022294446
30
0
41
1
10
26.5975103574481
20
1.38345350136873
30
0
41
1
10
26.8294250502604
20
1.29612616498545
30
0
41
1
10
27.2931876495656
20
1.10193399522791
30
0
41
1
10
27.5246368742942
20
0.993666277074823
30
0
41
1
10
27.757773098331
20
0.877547753079853
30
0
0
SPLINE
5
D0
100
AcDbEntity
8
1
62
256
6
ByLayer
370
18
48
1
60
0
100
AcDbSpline
70
4
71
3
72
12
73
8
40
0
40
0
40
0
40
0
40
0.190052313052071
40
0.190052313052071
40
0.595026156526035
40
0.595026156526035
40
1
40
1
40
1
40
1
41
1
10
4.05156032844013
20
-1.83477469120862
30
0
41
1
10
4.05157219650286
20
-1.83461814665716
30
0
41
1
10
4.05158423759002
20
-1.83156445749103
30
0
41
1
10
4.05162211208798
20
-1.81278102209529
30
0
41
1
10
4.05164742585305
20
-1.78707213707921
30
0
41
1
10
4.05169265393332
20
-1.7106272873001
30
0
41
1
10
4.05171267465624
20
-1.65905387633464
30
0
41
1
10
4.05172576065871
20
-1.59668887599389
30
0
0
SPLINE
5
D1
100
AcDbEntity
8
1
62
256
6
ByLayer
370
18
48
1
60
0
100
AcDbSpline
70
4
71
3
72
24
73
20
40
0
40
0
40
0
40
0
40
0.0625000000000035
40
0.0625000000000035
40
0.125000000000007
40
0.125000000000007
40
0.250000000000014
40
0.250000000000014
40
0.312500000000018
40
0.312500000000018
40
0.375000000000021
40
0.375000000000021
40
0.500000000000019
40
0.500000000000019
40
0.625000000000018
40
0.625000000000018
40
0.750000000000016
40
0.750000000000016
40
1
40
1
40
1
40
1
41
1
10
27.7577730983278
20
0.877547753079313
30
0
41
1
10
27.7599281218209
20
0.833330892469291
30
0
41
1
10
27.7647956900647
20
0.788222662561509
30
0
41
1
10
27.7798518493222
20
0.696257661511396
30
0
41
1
10
27.7901491727005
20
0.649040005807791
30
0
41
1
10
27.8281244344778
20
0.507936669884458
30
0
41
1
10
27.8625859730413
20
0.414671309485413
30
0
41
1
10
27.9256881859966
20
0.275775839354083
30
0
41
1
10
27.9487019505565
20
0.229578258204924
30
0
41
1
10
27.9972494140063
20
0.139410322361357
30
0
41
1
10
28.0228934956452
20
0.0951794235647867
30
0
41
1
10
28.1034667385044
20
-0.0352466817175809
30
0
41
1
10
28.1620163131267
20
-0.119188111367322
30
0
41
1
10
28.2872178280211
20
-0.282027092525993
30
0
41
1
10
28.3530897346652
20
-0.359857103661739
30
0
41
1
10
28.4884858819464
20
-0.507838708559461
30
0
41
1
10
28.5582957209214
20
-0.578338165031056
30
0
41
1
10
28.7731268593357
20
-0.780906124824924
30
0
41
1
10
28.924216789402
20
-0.904615905411362
30
0
41
1
10
29.0781598796594
20
-1.01598427868831
30
0
0
SPLINE
5
D2
100
AcDbEntity
8
1
62
256
6
ByLayer
370
18
48
1
60
0
100
AcDbSpline
70
4
71
3
72
66
73
62
40
0
40
0
40
0
40
0
40
0.0138290811467111
40
0.0138290811467111
40
0.0748960632697415
40
0.0748960632697415
40
0.105429554331257
40
0.105429554331257
40
0.135963045392773
40
0.135963045392773
40
0.197030027515804
40
0.197030027515804
40
0.227563518577318
40
0.227563518577318
40
0.258097009638832
40
0.258097009638832
40
0.288630500700347
40
0.288630500700347
40
0.319163991761862
40
0.319163991761862
40
0.349697482823376
40
0.349697482823376
40
0.380230973884891
40
0.380230973884891
40
0.410764464946405
40
0.410764464946405
40
0.44129795600792
40
0.44129795600792
40
0.471831447069434
40
0.471831447069434
40
0.502364938130949
40
0.502364938130949
40
0.532898429192463
40
0.532898429192463
40
0.563431920253978
40
0.563431920253978
40
0.593965411315492
40
0.593965411315492
40
0.624498902377007
40
0.624498902377007
40
0.655032393438521
40
0.655032393438521
40
0.685565884500036
40
0.685565884500036
40
0.746632866623064
40
0.746632866623064
40
0.777166357684577
40
0.777166357684577
40
0.80769984874609
40
0.80769984874609
40
0.838233339807603
40
0.838233339807603
40
0.868766830869116
40
0.868766830869116
40
0.899300321930629
40
0.899300321930629
40
0.929833812992142
40
0.929833812992142
40
0.990900795115169
40
0.990900795115169
40
1
40
1
40
1
40
1
41
1
10
26.5157453752063
20
-1.4077232559861
30
0
41
1
10
26.4631513633172
20
-1.42578313310972
30
0
41
1
10
26.4106013181119
20
-1.44318760706429
30
0
41
1
10
26.1261444331596
20
-1.53374138254227
30
0
41
1
10
25.8944732487982
20
-1.59462907850912
30
0
41
1
10
25.5456168689948
20
-1.66333507336847
30
0
41
1
10
25.4289113353972
20
-1.68239454868774
30
0
41
1
10
25.1946436329674
20
-1.71379444984555
30
0
41
1
10
25.0768252300848
20
-1.7261495981798
30
0
41
1
10
24.7254561926717
20
-1.75159596082986
30
0
41
1
10
24.4928467660511
20
-1.75339810258001
30
0
41
1
10
24.1451408283714
20
-1.73113019004592
30
0
41
1
10
24.0293466735903
20
-1.71915050097203
30
0
41
1
10
23.7973846238879
20
-1.68929743706528
30
0
41
1
10
23.681287468762
20
-1.67120838700413
30
0
41
1
10
23.4487957037461
20
-1.62705233472806
30
0
41
1
10
23.3323185749487
20
-1.60066871195389
30
0
41
1
10
23.0982397125913
20
-1.5410471856726
30
0
41
1
10
22.9803604387259
20
-1.5081996788094
30
0
41
1
10
22.7460568486501
20
-1.43580810335789
30
0
41
1
10
22.6295614512241
20
-1.39607780056295
30
0
41
1
10
22.3970583023427
20
-1.31033887663361
30
0
41
1
10
22.2809522397216
20
-1.26510933073445
30
0
41
1
10
22.0489814502674
20
-1.16966016748248
30
0
41
1
10
21.9332026248363
20
-1.11918179646557
30
0
41
1
10
21.7014766480602
20
-1.0127373091112
30
0
41
1
10
21.5854400701741
20
-0.957118304452536
30
0
41
1
10
21.3528265367659
20
-0.842644797624928
30
0
41
1
10
21.236286810537
20
-0.783333659928218
30
0
41
1
10
21.0023687666258
20
-0.660254315502073
30
0
41
1
10
20.8845846512744
20
-0.596405444436698
30
0
41
1
10
20.650138147958
20
-0.46790705028414
30
0
41
1
10
20.5332910993935
20
-0.402891170160956
30
0
41
1
10
20.3004355133643
20
-0.271137944330093
30
0
41
1
10
20.1843789700343
20
-0.20447907928201
30
0
41
1
10
19.952177822182
20
-0.0711069617040607
30
0
41
1
10
19.8360562833663
20
-0.0043648315967744
30
0
41
1
10
19.6037621468062
20
0.129266708379589
30
0
41
1
10
19.4876272544002
20
0.196223389528257
30
0
41
1
10
19.2545751365556
20
0.328989085026876
30
0
41
1
10
19.1376909475411
20
0.394834086232748
30
0
41
1
10
18.9029958927908
20
0.525106002323582
30
0
41
1
10
18.7852082738185
20
0.589573253461737
30
0
41
1
10
18.4344704037259
20
0.776948718641847
30
0
41
1
10
18.2019417672335
20
0.89516741938337
30
0
41
1
10
17.8541513781601
20
1.0589625845279
30
0
41
1
10
17.7382806908485
20
1.11113078052506
30
0
41
1
10
17.5060906510659
20
1.21074348392719
30
0
41
1
10
17.3898462875438
20
1.25822607757704
30
0
41
1
10
17.156892104534
20
1.34731966519962
30
0
41
1
10
17.0401230753319
20
1.38886317306677
30
0
41
1
10
16.8054546394613
20
1.46627972236095
30
0
41
1
10
16.6875769270352
20
1.50224988643359
30
0
41
1
10
16.4536386071665
20
1.56645628742325
30
0
41
1
10
16.3372655080907
20
1.59459053688883
30
0
41
1
10
16.1048319098402
20
1.64377564712825
30
0
41
1
10
15.9887233586057
20
1.66512428316125
30
0
41
1
10
15.6406696429979
20
1.7180300966788
30
0
41
1
10
15.4091350202253
20
1.73702023902155
30
0
41
1
10
15.1413268511335
20
1.74295403583108
30
0
41
1
10
15.1065702213081
20
1.74336665124034
30
0
41
1
10
15.0717816310672
20
1.74341591098303
30
0
0
SPLINE
5
D3
100
AcDbEntity
8
1
62
256
6
ByLayer
370
18
48
1
60
0
100
AcDbSpline
70
4
71
3
72
16
73
12
40
0
40
0
40
0
40
0
40
0.001830096856179
40
0.001830096856179
40
0.334553397904119
40
0.334553397904119
40
0.66727669895206
40
0.66727669895206
40
0.833638349476029
40
0.833638349476029
40
1
40
1
40
1
40
1
41
1
10
7.48645206944508
20
-1.39484697453278
30
0
41
1
10
7.4851751949806
20
-1.39528472291306
30
0
41
1
10
7.48389831360205
20
-1.39572210913275
30
0
41
1
10
7.25047491424453
20
-1.47561286350506
30
0
41
1
10
7.01825995753603
20
-1.54202028627827
30
0
41
1
10
6.55110002167956
20
-1.64879592568855
30
0
41
1
10
6.31499058614446
20
-1.68758060698133
30
0
41
1
10
5.96335230176752
20
-1.72304221354312
30
0
41
1
10
5.84621999582504
20
-1.73111701161369
30
0
41
1
10
5.61149751294965
20
-1.73882310045207
30
0
41
1
10
5.49391077649031
20
-1.73850766779145
30
0
41
1
10
5.37619616070177
20
-1.73470307210346
30
0
0
SPLINE
5
D4
100
AcDbEntity
8
1
62
256
6
ByLayer
370
18
48
1
60
0
100
AcDbSpline
70
4
71
3
72
10
73
6
40
0
40
0
40
0
40
0
40
0.5
40
0.5
40
1
40
1
40
1
40
1
41
1
10
4.05172576064848
20
-1.596688876005
30
0
41
1
10
4.0767571953524
20
-1.57519773424639
30
0
41
1
10
4.10869822377856
20
-1.56216112471617
30
0
41
1
10
4.1774327224729
20
-1.55241143519558
30
0
41
1
10
4.21433013612884
20
-1.55550450472859
30
0
41
1
10
4.25114178296917
20
-1.56570171398144
30
0
0
SPLINE
5
D5
100
AcDbEntity
8
1
62
256
6
ByLayer
370
18
48
1
60
0
100
AcDbSpline
70
4
71
3
72
26
73
22
40
0
40
0
40
0
40
0
40
0.0625000000000001
40
0.0625000000000001
40
0.125
40
0.125
40
0.25
40
0.25
40
0.375
40
0.375
40
0.5
40
0.5
40
0.5625
40
0.5625
40
0.625
40
0.625
40
0.75
40
0.75
40
0.875
40
0.875
40
1
40
1
40
1
40
1
41
1
10
29.6679242551309
20
-0.406749548891696
30
0
41
1
10
29.6603526028675
20
-0.425355506933187
30
0
41
1
10
29.6536882142009
20
-0.444592891216473
30
0
41
1
10
29.6430701590941
20
-0.482415753302547
30
0
41
1
10
29.6390727979664
20
-0.501275426487126
30
0
41
1
10
29.6322610285718
20
-0.552687137755413
30
0
41
1
10
29.6347185719923
20
-0.58054220304615
30
0
41
1
10
29.6505189446623
20
-0.613681540619837
30
0
41
1
10
29.6635923212826
20
-0.619751523689274
30
0
41
1
10
29.6944228512664
20
-0.61384477092929
30
0
41
1
10
29.7122971157196
20
-0.602139092181829
30
0
41
1
10
29.7404772660342
20
-0.573301577510392
30
0
41
1
10
29.749897662392
20
-0.562021709495298
30
0
41
1
10
29.768728047068
20
-0.536138078115215
30
0
41
1
10
29.7781980253135
20
-0.521393706407764
30
0
41
1
10
29.805131359914
20
-0.473829835167351
30
0
41
1
10
29.8217613002256
20
-0.436601810466982
30
0
41
1
10
29.8458840425949
20
-0.359674123151791
30
0
41
1
10
29.8524088212803
20
-0.322406564504007
30
0
41
1
10
29.8515249762725
20
-0.264381882226246
30
0
41
1
10
29.8443622936756
20
-0.245232782041882
30
0
41
1
10
29.8329167197567
20
-0.236310058503477
30
0
0
SPLINE
5
D6
100
AcDbEntity
8
1
62
256
6
ByLayer
370
18
48
1
60
0
100
AcDbSpline
70
4
71
3
72
14
73
10
40
0
40
0
40
0
40
0
40
0.25
40
0.25
40
0.499999999999999
40
0.499999999999999
40
0.75
40
0.75
40
1
40
1
40
1
40
1
41
1
10
29.1362047216982
20
0.334145567270952
30
0
41
1
10
29.1408220863729
20
0.356915814234611
30
0
41
1
10
29.1488225983248
20
0.380316283720958
30
0
41
1
10
29.1712793556101
20
0.428688030975309
30
0
41
1
10
29.1854763807646
20
0.452916967752714
30
0
41
1
10
29.2207994739951
20
0.49852031555659
30
0
41
1
10
29.2420378539969
20
0.519617825994715
30
0
41
1
10
29.2908726736774
20
0.553563223826586
30
0
41
1
10
29.3180547010241
20
0.565279577908569
30
0
41
1
10
29.3467847306799
20
0.572322577611459
30
0
0
SPLINE
5
D7
100
AcDbEntity
8
1
62
256
6
ByLayer
370
18
48
1
60
0
100
AcDbSpline
70
4
71
3
72
28
73
24
40
0
40
0
40
0
40
0
40
0.116644969986061
40
0.116644969986061
40
0.233289939972123
40
0.233289939972123
40
0.349934909958184
40
0.349934909958184
40
0.408257394951216
40
0.408257394951216
40
0.466579879944248
40
0.466579879944248
40
0.699869819916378
40
0.699869819916378
40
0.758192304909411
40
0.758192304909411
40
0.816514789902444
40
0.816514789902444
40
0.933159759888512
40
0.933159759888512
40
0.991482244881546
40
0.991482244881546
40
1
40
1
40
1
40
1
41
1
10
4.19850795486067
20
0.604113053286767
30
0
41
1
10
4.46281518730393
20
0.453286323928978
30
0
41
1
10
4.72618526524852
20
0.296098011448464
30
0
41
1
10
5.25554773669185
20
-0.0235739705888136
30
0
41
1
10
5.51796885223513
20
-0.183794220079989
30
0
41
1
10
6.04079150267361
20
-0.494693388302579
30
0
41
1
10
6.3014013017808
20
-0.646054678874606
30
0
41
1
10
6.69468159366761
20
-0.861174071890559
30
0
41
1
10
6.82617317487222
20
-0.93088982152554
30
0
41
1
10
7.09053720382443
20
-1.0653785103917
30
0
41
1
10
7.22275027959881
20
-1.12978928984563
30
0
41
1
10
7.8795743337399
20
-1.4329363265073
30
0
41
1
10
8.39695318371625
20
-1.6184004337992
30
0
41
1
10
9.05748551300621
20
-1.75472593095674
30
0
41
1
10
9.18982866548018
20
-1.77709276148997
30
0
41
1
10
9.45257212781729
20
-1.81139194022199
30
0
41
1
10
9.5834687296387
20
-1.82342854266082
30
0
41
1
10
9.97553211157961
20
-1.84415603434644
30
0
41
1
10
10.235941963242
20
-1.83750567595999
30
0
41
1
10
10.6288957856877
20
-1.79691184978901
30
0
41
1
10
10.7602299677263
20
-1.77826232531095
30
0
41
1
10
10.9114791762593
20
-1.75099861321971
30
0
41
1
10
10.9307635393307
20
-1.74741609451263
30
0
41
1
10
10.9500533134588
20
-1.74372716308503
30
0
0
SPLINE
5
D8
100
AcDbEntity
8
1
62
256
6
ByLayer
370
18
48
1
60
0
100
AcDbSpline
70
4
71
3
72
26
73
22
40
0
40
0
40
0
40
0
40
0.0276772977815557
40
0.0276772977815557
40
0.169614051334816
40
0.169614051334816
40
0.240582428111445
40
0.240582428111445
40
0.311550804888074
40
0.311550804888074
40
0.595424311994586
40
0.595424311994586
40
0.666392688771214
40
0.666392688771214
40
0.737361065547841
40
0.737361065547841
40
0.879297819101099
40
0.879297819101099
40
0.950266195877727
40
0.950266195877727
40
1
40
1
40
1
40
1
41
1
10
21.3565604579848
20
1.50752347153039
30
0
41
1
10
21.4076292544208
20
1.48962835219757
30
0
41
1
10
21.4586314634313
20
1.47111224612945
30
0
41
1
10
21.7708973067693
20
1.35398505128089
30
0
41
1
10
22.0311419796365
20
1.24033850632742
30
0
41
1
10
22.4229060987088
20
1.05015685712527
30
0
41
1
10
22.5538375530176
20
0.983623971004107
30
0
41
1
10
22.8168133991216
20
0.844652664702124
30
0
41
1
10
22.9492995549904
20
0.771959226062535
30
0
41
1
10
23.6073110404536
20
0.400858423017127
30
0
41
1
10
24.124150343778
20
0.0783718234382604
30
0
41
1
10
24.7814379383134
20
-0.318213108532007
30
0
41
1
10
24.9139167014203
20
-0.397537097451249
30
0
41
1
10
25.1772130785504
20
-0.552642306524973
30
0
41
1
10
25.3081892233803
20
-0.628534756456958
30
0
41
1
10
25.7000335544246
20
-0.849856226290825
30
0
41
1
10
25.9599926165417
20
-0.988655492201218
30
0
41
1
10
26.3514147058717
20
-1.17898719005916
30
0
41
1
10
26.4821344164006
20
-1.23945600040835
30
0
41
1
10
26.7053949044679
20
-1.33649223459941
30
0
41
1
10
26.7978964510511
20
-1.3748911788673
30
0
41
1
10
26.8903598313627
20
-1.41132163109921
30
0
0
SPLINE
5
D9
100
AcDbEntity
8
1
62
256
6
ByLayer
370
13
48
1
60
0
100
AcDbSpline
70
4
71
3
72
16
73
12
40
0
40
0
40
0
40
0
40
0.0475002278969436
40
0.0475002278969436
40
0.365000151931296
40
0.365000151931296
40
0.682500075965649
40
0.682500075965649
40
0.841250037982825
40
0.841250037982825
40
1
40
1
40
1
40
1
41
1
10
26.8903589014387
20
-1.41132126471035
30
0
41
1
10
26.9298377996126
20
-1.42687590511309
30
0
41
1
10
26.9693097403486
20
-1.44207168647773
30
0
41
1
10
27.2722378512475
20
-1.55585101662112
30
0
41
1
10
27.5331328977123
20
-1.63727664329414
30
0
41
1
10
28.054276090907
20
-1.76232338794179
30
0
41
1
10
28.3144657543684
20
-1.80593722206146
30
0
41
1
10
28.7079012662369
20
-1.84087013772398
30
0
41
1
10
28.8398528162371
20
-1.84741971478039
30
0
41
1
10
29.1039885998638
20
-1.84990084287969
30
0
41
1
10
29.235811690872
20
-1.84585584113464
30
0
41
1
10
29.3676438454468
20
-1.83656790142035
30
0
0
SPLINE
5
DA
100
AcDbEntity
8
1
62
256
6
ByLayer
370
18
48
1
60
0
100
AcDbSpline
70
4
71
3
72
22
73
18
40
0
40
0
40
0
40
0
40
0.180828839323679
40
0.180828839323679
40
0.361657678647357
40
0.361657678647357
40
0.452072098309197
40
0.452072098309197
40
0.542486517971036
40
0.542486517971036
40
0.723315357294715
40
0.723315357294715
40
0.813729776956555
40
0.813729776956555
40
0.904144196618394
40
0.904144196618394
40
1
40
1
40
1
40
1
41
1
10
4.05110052333248
20
0.758701285344273
30
0
41
1
10
4.05115208468999
20
0.874545718778421
30
0
41
1
10
4.05119399879121
20
0.984005579943158
30
0
41
1
10
4.05126550056448
20
1.18997429360704
30
0
41
1
10
4.05129420892115
20
1.2838303409718
30
0
41
1
10
4.05133216015631
20
1.41004117070273
30
0
41
1
10
4.0513439682681
20
1.44974771366145
30
0
41
1
10
4.05136672578786
20
1.52431566693181
30
0
41
1
10
4.05137768365208
20
1.55917222710568
30
0
41
1
10
4.05140965089498
20
1.65400228096075
30
0
41
1
10
4.05143010541957
20
1.70526623578397
30
0
41
1
10
4.05146276623856
20
1.76421794794905
30
0
41
1
10
4.0514740330311
20
1.7809160036482
30
0
41
1
10
4.0514970579494
20
1.80752585952396
30
0
41
1
10
4.05150882990034
20
1.81751304394248
30
0
41
1
10
4.05153369279833
20
1.83141550964774
30
0
41
1
10
4.05154687687573
20
1.83494356053558
30
0
41
1
10
4.05156028190618
20
1.83477529017523
30
0
0
SPLINE
5
DB
100
AcDbEntity
8
1
62
256
6
ByLayer
370
13
48
1
60
0
100
AcDbSpline
70
4
71
3
72
14
73
10
40
0
40
0
40
0
40
0
40
0.120899504608092
40
0.120899504608092
40
0.340674628456069
40
0.340674628456069
40
0.560449752304046
40
0.560449752304046
40
1
40
1
40
1
40
1
41
1
10
4.25097378333189
20
-1.73654005561969
30
0
41
1
10
4.25098214025539
20
-1.73711896798878
30
0
41
1
10
4.25099045568254
20
-1.73677964843424
30
0
41
1
10
4.2510136109656
20
-1.73320977394312
30
0
41
1
10
4.25102828661147
20
-1.72790806031892
30
0
41
1
10
4.25105655671737
20
-1.71126963000776
30
0
41
1
10
4.25107021344888
20
-1.69985749708451
30
0
41
1
10
4.25110795661857
20
-1.65678328752756
30
0
41
1
10
4.25112870648505
20
-1.61675188227858
30
0
41
1
10
4.2511417829692
20
-1.56570171400472
30
0
0
SPLINE
5
DC
100
AcDbEntity
8
1
62
256
6
ByLayer
370
13
48
1
60
0
100
AcDbSpline
70
4
71
3
72
30
73
26
40
0
40
0
40
0
40
0
40
0.104237294605429
40
0.104237294605429
40
0.208474589210857
40
0.208474589210857
40
0.312711883816286
40
0.312711883816286
40
0.364830531119
40
0.364830531119
40
0.416949178421714
40
0.416949178421714
40
0.521186473027143
40
0.521186473027143
40
0.573305120329857
40
0.573305120329857
40
0.625423767632572
40
0.625423767632572
40
0.833898356843429
40
0.833898356843429
40
0.886017004146142
40
0.886017004146142
40
0.938135651448856
40
0.938135651448856
40
1
40
1
40
1
40
1
41
1
10
29.3805281619678
20
-1.7481508374812
30
0
41
1
10
29.1173490295519
20
-1.7567934223776
30
0
41
1
10
28.853041727867
20
-1.74523009834368
30
0
41
1
10
28.3296577707689
20
-1.68377841572951
30
0
41
1
10
28.0697925948188
20
-1.63413271901618
30
0
41
1
10
27.5491258228273
20
-1.49993322754997
30
0
41
1
10
27.2884125313422
20
-1.41538346135508
30
0
41
1
10
26.893561024064
20
-1.26478999627207
30
0
41
1
10
26.7617307604897
20
-1.21079151972211
30
0
41
1
10
26.4998076399572
20
-1.09703628730634
30
0
41
1
10
26.3693250658214
20
-1.03713149550626
30
0
41
1
10
25.9784716434555
20
-0.849638025747254
30
0
41
1
10
25.7187392059678
20
-0.714183246635002
30
0
41
1
10
25.3271723137686
20
-0.50027932662212
30
0
41
1
10
25.1962991127906
20
-0.427235198808717
30
0
41
1
10
24.9332967779765
20
-0.278540378346122
30
0
41
1
10
24.8012327915805
20
-0.20292333192387
30
0
41
1
10
24.1455722396734
20
0.173984615995835
30
0
41
1
10
23.6289002548133
20
0.476446406289313
30
0
41
1
10
22.9716778283004
20
0.818836729477596
30
0
41
1
10
22.8395777034696
20
0.885521364615272
30
0
41
1
10
22.5772390434182
20
1.01241885899958
30
0
41
1
10
22.4465483984032
20
1.07283956849955
30
0
41
1
10
22.1613935445196
20
1.19819076645294
30
0
41
1
10
22.0069003687385
20
1.26158502930912
30
0
41
1
10
21.8522989044672
20
1.31986673047882
30
0
0
SPLINE
5
DD
100
AcDbEntity
8
1
62
256
6
ByLayer
370
18
48
1
60
0
100
AcDbSpline
70
4
71
3
72
14
73
10
40
0
40
0
40
0
40
0
40
0.229638694015143
40
0.229638694015143
40
0.44627906937877
40
0.44627906937877
40
0.662919444742397
40
0.662919444742397
40
1
40
1
40
1
40
1
41
1
10
10.1714409440407
20
-1.73950499940764
30
0
41
1
10
10.0332414537841
20
-1.73949523164629
30
0
41
1
10
9.89512954998162
20
-1.73405950982453
30
0
41
1
10
9.62625303307513
20
-1.71297683629248
30
0
41
1
10
9.49552827198383
20
-1.69790026288533
30
0
41
1
10
9.23315674757848
20
-1.65826014598073
30
0
41
1
10
9.10107132907675
20
-1.63356078572579
30
0
41
1
10
8.76422006522486
20
-1.55884850624685
30
0
41
1
10
8.56066609625776
20
-1.50269483094272
30
0
41
1
10
8.3575966789594
20
-1.4370193381956
30
0
0
SPLINE
5
DE
100
AcDbEntity
8
1
62
256
6
ByLayer
370
13
48
1
60
0
100
AcDbSpline
70
4
71
3
72
18
73
14
40
0
40
0
40
0
40
0
40
0.234013797724817
40
0.234013797724817
40
0.329762073009216
40
0.329762073009216
40
0.425510348293616
40
0.425510348293616
40
0.617006898862411
40
0.617006898862411
40
0.808503449431205
40
0.808503449431205
40
1
40
1
40
1
40
1
41
1
10
8.35759572734656
20
-1.43701903043055
30
0
41
1
10
8.03861773287971
20
-1.3338570334856
30
0
41
1
10
7.72083529757211
20
-1.20720129556301
30
0
41
1
10
7.26913610354285
20
-1.00189981434832
30
0
41
1
10
7.13717108842656
20
-0.938915210705318
30
0
41
1
10
6.87339794716101
20
-0.808078793201247
30
0
41
1
10
6.74214807583317
20
-0.740508472614152
30
0
41
1
10
6.34949298805293
20
-0.532741461626841
30
0
41
1
10
6.08914315864877
20
-0.38754887881737
30
0
41
1
10
5.56698698438149
20
-0.0912532251259677
30
0
41
1
10
5.30490406152609
20
0.0603849730894979
30
0
41
1
10
4.77678717060383
20
0.360948189135968
30
0
41
1
10
4.51401072326669
20
0.507829811458947
30
0
41
1
10
4.25042350099216
20
0.647686252994191
30
0
0
SPLINE
5
DF
100
AcDbEntity
8
1
62
256
6
ByLayer
370
18
48
1
60
0
100
AcDbSpline
70
4
71
3
72
14
73
10
40
0
40
0
40
0
40
0
40
0.499999999999985
40
0.499999999999985
40
0.749999999999985
40
0.749999999999985
40
0.874999999999993
40
0.874999999999993
40
1
40
1
40
1
40
1
41
1
10
29.7679291865362
20
0.879932176613721
30
0
41
1
10
29.7112658600797
20
1.03191652597701
30
0
41
1
10
29.654293471545
20
1.18362303526158
30
0
41
1
10
29.5693066064559
20
1.41158666684373
30
0
41
1
10
29.5409470174421
20
1.48755339085824
30
0
41
1
10
29.4982064289367
20
1.60132784512359
30
0
41
1
10
29.4839621624662
20
1.63925503938555
30
0
41
1
10
29.4554748779335
20
1.7151105704435
30
0
41
1
10
29.4412040372354
20
1.75301757851332
30
0
41
1
10
29.426665133868
20
1.79059004085079
30
0
0
SPLINE
5
E0
100
AcDbEntity
8
1
62
256
6
ByLayer
370
18
48
1
60
0
100
AcDbSpline
70
4
71
3
72
10
73
6
40
0
40
0
40
0
40
0
40
0.5
40
0.5
40
1
40
1
40
1
40
1
41
1
10
4.11181540996597
20
0.656879848124106
30
0
41
1
10
4.0945598416256
20
0.669389395797737
30
0
41
1
10
4.07970728471273
20
0.684559692156
30
0
41
1
10
4.05800157158399
20
0.719174326571334
30
0
41
1
10
4.05109162578765
20
0.738710907114125
30
0
41
1
10
4.05110052333137
20
0.758701285339868
30
0
0
SPLINE
5
E1
100
AcDbEntity
8
1
62
256
6
ByLayer
370
13
48
1
60
0
100
AcDbSpline
70
4
71
3
72
10
73
6
40
0
40
0
40
0
40
0
40
0.5
40
0.5
40
1
40
1
40
1
40
1
41
1
10
4.11943116383611
20
0.702913070331277
30
0
41
1
10
4.13934528570843
20
0.69196115786059
30
0
41
1
10
4.16091376493262
20
0.681669933301635
30
0
41
1
10
4.20495439430437
20
0.663213586480794
30
0
41
1
10
4.22746120988683
20
0.654991190776627
30
0
41
1
10
4.25042350099235
20
0.647686252994106
30
0
0
SPLINE
5
E2
100
AcDbEntity
8
1
62
256
6
ByLayer
370
18
48
1
60
0
100
AcDbSpline
70
4
71
3
72
22
73
18
40
0
40
0
40
0
40
0
40
0.237077935278117
40
0.237077935278117
40
0.355616902917176
40
0.355616902917176
40
0.474155870556234
40
0.474155870556234
40
0.592694838195293
40
0.592694838195293
40
0.711233805834351
40
0.711233805834351
40
0.82977277347341
40
0.82977277347341
40
0.948311741112469
40
0.948311741112469
40
1
40
1
40
1
40
1
41
1
10
6.60307622511812
20
-1.00219983552404
30
0
41
1
10
6.84265334331474
20
-1.12516704515591
30
0
41
1
10
7.08187627034374
20
-1.23543349784436
30
0
41
1
10
7.43850270365283
20
-1.3847137850226
30
0
41
1
10
7.55731739771906
20
-1.43134781123897
30
0
41
1
10
7.79585457565912
20
-1.51735767904268
30
0
41
1
10
7.91538566972889
20
-1.55695966983188
30
0
41
1
10
8.15460854003757
20
-1.62950262282882
30
0
41
1
10
8.27463573891066
20
-1.6622960483125
30
0
41
1
10
8.51367263487447
20
-1.7190729441991
30
0
41
1
10
8.63293024117166
20
-1.74330070481514
30
0
41
1
10
8.87037441542086
20
-1.78387904459313
30
0
41
1
10
8.98854583086404
20
-1.80016928574366
30
0
41
1
10
9.22526403405698
20
-1.82422732745934
30
0
41
1
10
9.34388932804734
20
-1.83203853594347
30
0
41
1
10
9.51423867042956
20
-1.837307537317
30
0
41
1
10
9.56593764249033
20
-1.83811116637409
30
0
41
1
10
9.6176617383945
20
-1.83810882986617
30
0
0
SPLINE
5
E3
100
AcDbEntity
8
1
62
256
6
ByLayer
370
18
48
1
60
0
100
AcDbSpline
70
4
71
3
72
70
73
66
40
0
40
0
40
0
40
0
40
0.0270758999091897
40
0.0270758999091897
40
0.0576354409153817
40
0.0576354409153817
40
0.0881949819215737
40
0.0881949819215737
40
0.118754522927766
40
0.118754522927766
40
0.149314063933958
40
0.149314063933958
40
0.179873604940149
40
0.179873604940149
40
0.210433145946341
40
0.210433145946341
40
0.240992686952533
40
0.240992686952533
40
0.271552227958725
40
0.271552227958725
40
0.302111768964917
40
0.302111768964917
40
0.332671309971109
40
0.332671309971109
40
0.363230850977301
40
0.363230850977301
40
0.393790391983493
40
0.393790391983493
40
0.424349932989685
40
0.424349932989685
40
0.454909473995877
40
0.454909473995877
40
0.516028556008262
40
0.516028556008262
40
0.546588097014454
40
0.546588097014454
40
0.577147638020646
40
0.577147638020646
40
0.607707179026838
40
0.607707179026838
40
0.63826672003303
40
0.63826672003303
40
0.668826261039222
40
0.668826261039222
40
0.699385802045414
40
0.699385802045414
40
0.729945343051606
40
0.729945343051606
40
0.760504884057798
40
0.760504884057798
40
0.79106442506399
40
0.79106442506399
40
0.821623966070182
40
0.821623966070182
40
0.852183507076374
40
0.852183507076374
40
0.882743048082566
40
0.882743048082566
40
0.913302589088758
40
0.913302589088758
40
0.94386213009495
40
0.94386213009495
40
0.974421671101142
40
0.974421671101142
40
1
40
1
40
1
40
1
41
1
10
16.9955178128693
20
1.40228099402336
30
0
41
1
10
17.1003627218609
20
1.44367426445757
30
0
41
1
10
17.2053494821743
20
1.48231438897014
30
0
41
1
10
17.4287601465693
20
1.55914209535197
30
0
41
1
10
17.5470266306005
20
1.59672992913087
30
0
41
1
10
17.7843543566414
20
1.66439686575404
30
0
41
1
10
17.9036109978885
20
1.69435333740435
30
0
41
1
10
18.1432529367248
20
1.7465329999475
30
0
41
1
10
18.2632471229171
20
1.76879442586744
30
0
41
1
10
18.5013344057957
20
1.80472204554809
30
0
41
1
10
18.6200559693029
20
1.81838546254136
30
0
41
1
10
18.857393735471
20
1.83727149638446
30
0
41
1
10
18.9757893035422
20
1.84255816403177
30
0
41
1
10
19.212055515508
20
1.84469151461249
30
0
41
1
10
19.3301309695289
20
1.84149766801559
30
0
41
1
10
19.5672884302833
20
1.82678003467524
30
0
41
1
10
19.6861949578106
20
1.81527770835336
30
0
41
1
10
19.9242378082847
20
1.78361801860388
30
0
41
1
10
20.0437942370274
20
1.76337292741854
30
0
41
1
10
20.2833896861027
20
1.71500284870831
30
0
41
1
10
20.4028569969323
20
1.68704024329338
30
0
41
1
10
20.6405748478707
20
1.62334683158716
30
0
41
1
10
20.7587737591531
20
1.587521720187
30
0
41
1
10
20.9953184305438
20
1.50917347593992
30
0
41
1
10
21.1137727112095
20
1.46680038848677
30
0
41
1
10
21.3505687322584
20
1.37527548609196
30
0
41
1
10
21.4687552945658
20
1.32591647949178
30
0
41
1
10
21.705827749402
20
1.22111048296108
30
0
41
1
10
21.8249150271907
20
1.16594038121153
30
0
41
1
10
22.064189821888
20
1.05005567906829
30
0
41
1
10
22.1843156136337
20
0.988932515866196
30
0
41
1
10
22.5416894371908
20
0.799816684314976
30
0
41
1
10
22.7790027880266
20
0.667647148409316
30
0
41
1
10
23.133321127721
20
0.460059024084671
30
0
41
1
10
23.2513224564188
20
0.389556585168009
30
0
41
1
10
23.4882846679697
20
0.247870284984401
30
0
41
1
10
23.6070796508335
20
0.1764266720065
30
0
41
1
10
23.844838281689
20
0.0315063075016155
30
0
41
1
10
23.9639775939258
20
-0.0418697243369763
30
0
41
1
10
24.2037759159739
20
-0.187647982875291
30
0
41
1
10
24.3233299028789
20
-0.259447346298486
30
0
41
1
10
24.561185781201
20
-0.401918312315274
30
0
41
1
10
24.6794210386492
20
-0.47267578266181
30
0
41
1
10
24.9159487364054
20
-0.610885208892313
30
0
41
1
10
25.034363409399
20
-0.678164383395256
30
0
41
1
10
25.2710560417191
20
-0.809808602202196
30
0
41
1
10
25.389169783283
20
-0.874406699370525
30
0
41
1
10
25.6259988158419
20
-0.999477937742739
30
0
41
1
10
25.7449234722241
20
-1.05965846979853
30
0
41
1
10
25.9838617655969
20
-1.17521510379913
30
0
41
1
10
26.1040029831751
20
-1.23102303589195
30
0
41
1
10
26.3424304905379
20
-1.33623344718197
30
0
41
1
10
26.4612229740795
20
-1.38548574679731
30
0
41
1
10
26.6986571314391
20
-1.47679496664915
30
0
41
1
10
26.8170826232899
20
-1.51910388642185
30
0
41
1
10
27.053248325354
20
-1.5970516147159
30
0
41
1
10
27.1711766017052
20
-1.63248425495183
30
0
41
1
10
27.4079565534376
20
-1.69536279560029
30
0
41
1
10
27.526653183672
20
-1.72297079068491
30
0
41
1
10
27.7641683765996
20
-1.770667026084
30
0
41
1
10
27.8830645216587
20
-1.79065435857706
30
0
41
1
10
28.1226129038424
20
-1.82205408367454
30
0
41
1
10
28.2424493923374
20
-1.83341249371602
30
0
41
1
10
28.4610532122999
20
-1.84652732918568
30
0
41
1
10
28.5601489711539
20
-1.84952713957856
30
0
41
1
10
28.659153771065
20
-1.84953685680804
30
0
0
SPLINE
5
E4
100
AcDbEntity
8
1
62
256
6
ByLayer
370
18
48
1
60
0
100
AcDbSpline
70
4
71
3
72
40
73
36
40
0
40
0
40
0
40
0
40
0.079671752248298
40
0.079671752248298
40
0.159343504496596
40
0.159343504496596
40
0.199179380620745
40
0.199179380620745
40
0.239015256744894
40
0.239015256744894
40
0.318687008993189
40
0.318687008993189
40
0.358522885117337
40
0.358522885117337
40
0.398358761241485
40
0.398358761241485
40
0.47803051348978
40
0.47803051348978
40
0.557702265738075
40
0.557702265738075
40
0.597538141862222
40
0.597538141862222
40
0.637374017986368
40
0.637374017986368
40
0.717045770234662
40
0.717045770234662
40
0.756881646358809
40
0.756881646358809
40
0.796717522482956
40
0.796717522482956
40
0.956061026979545
40
0.956061026979545
40
0.995896903103692
40
0.995896903103692
40
1
40
1
40
1
40
1
41
1
10
29.3672712274205
20
-1.83753765262478
30
0
41
1
10
29.1044878787552
20
-1.85601807758667
30
0
41
1
10
28.8435322568676
20
-1.8534475554703
30
0
41
1
10
28.321418647835
20
-1.8076824508955
30
0
41
1
10
28.0602882443749
20
-1.76439466202743
30
0
41
1
10
27.6646796070216
20
-1.66963279733199
30
0
41
1
10
27.5322171897504
20
-1.63305225009222
30
0
41
1
10
27.2693280542079
20
-1.55143658530011
30
0
41
1
10
27.1384245429762
20
-1.50628257140116
30
0
41
1
10
26.7463626138611
20
-1.35888843054369
30
0
41
1
10
26.4858014648733
20
-1.2447910231146
30
0
41
1
10
26.092837159529
20
-1.05373201186964
30
0
41
1
10
25.9614719054472
20
-0.986755762503407
30
0
41
1
10
25.6974380562264
20
-0.846820471325543
30
0
41
1
10
25.5652742379795
20
-0.774069006240779
30
0
41
1
10
25.1715241894843
20
-0.551441054392257
30
0
41
1
10
24.9109264527683
20
-0.39647972755057
30
0
41
1
10
24.3888006121766
20
-0.0813315265955907
30
0
41
1
10
24.1272817353259
20
0.0788598541308829
30
0
41
1
10
23.7313845424669
20
0.318308158934855
30
0
41
1
10
23.5990695926754
20
0.39759549181008
30
0
41
1
10
23.3363104225176
20
0.55219782008237
30
0
41
1
10
23.2054226503833
20
0.627815945995962
30
0
41
1
10
22.8136029825011
20
0.848712100846058
30
0
41
1
10
22.5530742342985
20
0.987363538025591
30
0
41
1
10
22.1603616504564
20
1.17805288130293
30
0
41
1
10
22.0290785288679
20
1.23864712510303
30
0
41
1
10
21.765104965915
20
1.35295337962313
30
0
41
1
10
21.6326306639201
20
1.40655418576705
30
0
41
1
10
20.9756363915883
20
1.65228062367658
30
0
41
1
10
20.4581118761691
20
1.77973510613359
30
0
41
1
10
19.7985255579852
20
1.83676772896774
30
0
41
1
10
19.6660151922632
20
1.84297377823631
30
0
41
1
10
19.5209656310176
20
1.84401165815243
30
0
41
1
10
19.5074260517674
20
1.84405337530714
30
0
41
1
10
19.4938916216086
20
1.84404000887102
30
0
0
SPLINE
5
E5
100
AcDbEntity
8
1
62
256
6
ByLayer
370
18
48
1
60
0
100
AcDbSpline
70
4
71
3
72
28
73
24
40
0
40
0
40
0
40
0
40
0.068683102732958
40
0.068683102732958
40
0.126890408812147
40
0.126890408812147
40
0.185097714891336
40
0.185097714891336
40
0.301512327049716
40
0.301512327049716
40
0.417926939208096
40
0.417926939208096
40
0.476134245287286
40
0.476134245287286
40
0.534341551366476
40
0.534341551366476
40
0.650756163524856
40
0.650756163524856
40
0.708963469604046
40
0.708963469604046
40
0.767170775683236
40
0.767170775683236
40
1
40
1
40
1
40
1
41
1
10
10.948797448391
20
-1.74492239100454
30
0
41
1
10
10.7946835064115
20
-1.77435648046043
30
0
41
1
10
10.6406511544262
20
-1.79700634881723
30
0
41
1
10
10.355266445469
20
-1.82584895670394
30
0
41
1
10
10.224077507668
20
-1.83404367796737
30
0
41
1
10
9.96058190157439
20
-1.84003616762342
30
0
41
1
10
9.82778950967702
20
-1.83778006844437
30
0
41
1
10
9.43214278460462
20
-1.81542098379384
30
0
41
1
10
9.17090233120234
20
-1.77984187757426
30
0
41
1
10
8.6483115462963
20
-1.67038838200492
30
0
41
1
10
8.38720788328297
20
-1.59637821033908
30
0
41
1
10
7.99205230479004
20
-1.45862183644812
30
0
41
1
10
7.85927884148097
20
-1.40803768078564
30
0
41
1
10
7.59538344823002
20
-1.29979872325831
30
0
41
1
10
7.46404861079361
20
-1.24210309750282
30
0
41
1
10
7.07102840849834
20
-1.05953084354744
30
0
41
1
10
6.81030668121866
20
-0.92519451073963
30
0
41
1
10
6.41764546898963
20
-0.709792908033762
30
0
41
1
10
6.28650686350903
20
-0.635657191959581
30
0
41
1
10
6.02307963550987
20
-0.483645775374924
30
0
41
1
10
5.89030160507878
20
-0.405481677226476
30
0
41
1
10
5.22984571434097
20
-0.012065969946832
30
0
41
1
10
4.71138918892035
20
0.311995111940348
30
0
41
1
10
4.18344655031646
20
0.612953020052458
30
0
0
SPLINE
5
E6
100
AcDbEntity
8
1
62
256
6
ByLayer
370
18
48
1
60
0
100
AcDbSpline
70
4
71
3
72
20
73
16
40
0
40
0
40
0
40
0
40
0.125000000000008
40
0.125000000000008
40
0.250000000000016
40
0.250000000000016
40
0.375000000000025
40
0.375000000000025
40
0.500000000000033
40
0.500000000000033
40
0.625000000000041
40
0.625000000000041
40
0.750000000000049
40
0.750000000000049
40
1
40
1
40
1
40
1
41
1
10
29.6679242551091
20
-0.406749548908863
30
0
41
1
10
29.6570169411996
20
-0.3910914305593
30
0
41
1
10
29.6472085646475
20
-0.37417078047821
30
0
41
1
10
29.6332038026651
20
-0.33947714815173
30
0
41
1
10
29.6291051020918
20
-0.321447033139208
30
0
41
1
10
29.6299682192558
20
-0.289039973891931
30
0
41
1
10
29.6348639541425
20
-0.275267985301866
30
0
41
1
10
29.6500143495482
20
-0.25397426321021
30
0
41
1
10
29.6602126680799
20
-0.246154308000172
30
0
41
1
10
29.6825922456489
20
-0.234752571232661
30
0
41
1
10
29.6950704002305
20
-0.231010433604354
30
0
41
1
10
29.7207904372045
20
-0.226355075795141
30
0
41
1
10
29.7341415094225
20
-0.225399069858213
30
0
41
1
10
29.7752681730706
20
-0.225529539032664
30
0
41
1
10
29.8040798184124
20
-0.229623657323202
30
0
41
1
10
29.8329167197568
20
-0.236310058503477
30
0
0
SPLINE
5
E7
100
AcDbEntity
8
SK1
62
256
6
ByLayer
370
18
48
1
60
0
100
AcDbSpline
70
4
71
3
72
8
73
4
40
0
40
0
40
0
40
0
40
1
40
1
40
1
40
1
41
1
10
-35.4
20
-2.66154464062922
30
0
41
1
10
-35.6037663377134
20
-2.29529745995333
30
0
41
1
10
-35.8061179691493
20
-1.92822052674796
30
0
41
1
10
-35.9999999999999
20
-1.55672752909211
30
0
0
SPLINE
5
E8
100
AcDbEntity
8
SK1
62
256
6
ByLayer
370
18
48
1
60
0
100
AcDbSpline
70
4
71
3
72
14
73
10
40
0
40
0
40
0
40
0
40
0.499999999999998
40
0.499999999999998
40
0.749999999999997
40
0.749999999999997
40
0.874999999999998
40
0.874999999999998
40
1
40
1
40
1
40
1
41
1
10
-35.3999999999999
20
-2.70879776091383
30
0
41
1
10
-35.3787652204583
20
-2.74696489993528
30
0
41
1
10
-35.3584465534471
20
-2.78495570893207
30
0
41
1
10
-35.3303391147581
20
-2.84010463901839
30
0
41
1
10
-35.3214282600699
20
-2.85808037407591
30
0
41
1
10
-35.3103321676609
20
-2.88185921023919
30
0
41
1
10
-35.30696138533
20
-2.88936298358539
30
0
41
1
10
-35.301759003493
20
-2.90210197182611
30
0
41
1
10
-35.2999999999999
20
-2.90719833598689
30
0
41
1
10
-35.2999999999999
20
-2.9092883223108
30
0
0
SPLINE
5
E9
100
AcDbEntity
8
SK1
62
256
6
ByLayer
370
18
48
1
60
0
100
AcDbSpline
70
4
71
3
72
8
73
4
40
0
40
0
40
0
40
0
40
1
40
1
40
1
40
1
41
1
10
-36
20
1.60398064937647
30
0
41
1
10
-35.806052902553
20
1.97559831967385
30
0
41
1
10
-35.6037423476354
20
2.34259369971744
30
0
41
1
10
-35.4
20
2.70879776091371
30
0
0
SPLINE
5
EA
100
AcDbEntity
8
SK1
62
256
6
ByLayer
370
18
48
1
60
0
100
AcDbSpline
70
4
71
3
72
14
73
10
40
0
40
0
40
0
40
0
40
0.125
40
0.125
40
0.250000000000001
40
0.250000000000001
40
0.500000000000002
40
0.500000000000002
40
1
40
1
40
1
40
1
41
1
10
-35.3
20
-2.86833561806415
30
0
41
1
10
-35.3
20
-2.86557742269579
30
0
41
1
10
-35.301759386125
20
-2.8598481911803
30
0
41
1
10
-35.306935324593
20
-2.84609926877471
30
0
41
1
10
-35.3102738888306
20
-2.83821110221197
30
0
41
1
10
-35.3215584000234
20
-2.81283291179966
30
0
41
1
10
-35.3303095430127
20
-2.79463283291508
30
0
41
1
10
-35.35839128027
20
-2.73819167752862
30
0
41
1
10
-35.378655820405
20
-2.69990841399937
30
0
41
1
10
-35.4
20
-2.66154464062922
30
0
0
SPLINE
5
EB
100
AcDbEntity
8
SK1
62
256
6
ByLayer
370
18
48
1
60
0
100
AcDbSpline
70
4
71
3
72
14
73
10
40
0
40
0
40
0
40
0
40
0.499999999999999
40
0.499999999999999
40
0.749999999999999
40
0.749999999999999
40
0.875
40
0.875
40
1
40
1
40
1
40
1
41
1
10
-35.3999999999999
20
2.70879776091383
30
0
41
1
10
-35.3787652204583
20
2.74696489993528
30
0
41
1
10
-35.3584465534471
20
2.78495570893207
30
0
41
1
10
-35.3303391147581
20
2.84010463901839
30
0
41
1
10
-35.3214282600699
20
2.85808037407591
30
0
41
1
10
-35.3103321676609
20
2.88185921023919
30
0
41
1
10
-35.30696138533
20
2.88936298358539
30
0
41
1
10
-35.301759003493
20
2.90210197182611
30
0
41
1
10
-35.2999999999999
20
2.90719833598689
30
0
41
1
10
-35.2999999999999
20
2.9092883223108
30
0
0
SPLINE
5
EC
100
AcDbEntity
8
SK1
62
256
6
ByLayer
370
18
48
1
60
0
100
AcDbSpline
70
4
71
3
72
8
73
4
40
0
40
0
40
0
40
0
40
1
40
1
40
1
40
1
41
1
10
-36
20
-1.60398064937647
30
0
41
1
10
-35.806052902553
20
-1.97559831967388
30
0
41
1
10
-35.6037423476354
20
-2.34259369971744
30
0
41
1
10
-35.4
20
-2.70879776091371
30
0
0
LINE
5
76
100
AcDbEntity
8
81
62
256
6
ByLayer
370
18
48
1
60
0
100
AcDbLine
10
30
20
0
30
0
11
35
21
0
31
0
39
0
210
0
220
0
230
1
0
LINE
5
77
100
AcDbEntity
8
1
62
256
6
ByLayer
370
18
48
1
60
0
100
AcDbLine
10
4.051549
20
1.834775
30
0
11
1.5407
21
1.833268
31
0
39
0
210
0
220
0
230
1
0
LINE
5
79
100
AcDbEntity
8
1
62
256
6
ByLayer
370
18
48
1
60
0
100
AcDbLine
10
9.975866
20
1.838329
30
0
11
9.61347
21
1.838112
31
0
39
0
210
0
220
0
230
1
0
LINE
5
7A
100
AcDbEntity
8
1
62
256
6
ByLayer
370
18
48
1
60
0
100
AcDbLine
10
19.496389
20
1.844042
30
0
11
19.135352
21
1.843825
31
0
39
0
210
0
220
0
230
1
0
LINE
5
7B
100
AcDbEntity
8
1
62
256
6
ByLayer
370
18
48
1
60
0
100
AcDbLine
10
29.016147
20
1.849754
30
0
11
28.656383
21
1.849538
31
0
39
0
210
0
220
0
230
1
0
LINE
5
7C
100
AcDbEntity
8
1
62
256
6
ByLayer
370
18
48
1
60
0
100
AcDbLine
10
28.656383
20
-1.849538
30
0
11
29.016208
21
-1.849754
31
0
39
0
210
0
220
0
230
1
0
LINE
5
7D
100
AcDbEntity
8
1
62
256
6
ByLayer
370
18
48
1
60
0
100
AcDbLine
10
19.135352
20
-1.843825
30
0
11
19.49598
21
-1.844042
31
0
39
0
210
0
220
0
230
1
0
LINE
5
7E
100
AcDbEntity
8
1
62
256
6
ByLayer
370
18
48
1
60
0
100
AcDbLine
10
9.61347
20
-1.838112
30
0
11
9.975155
21
-1.838329
31
0
39
0
210
0
220
0
230
1
0
LINE
5
7F
100
AcDbEntity
8
1
62
256
6
ByLayer
370
18
48
1
60
0
100
AcDbLine
10
1.5407
20
-1.833268
30
0
11
4.051549
21
-1.834775
31
0
39
0
210
0
220
0
230
1
0
LINE
5
80
100
AcDbEntity
8
SK1
62
256
6
ByLayer
370
18
48
1
60
0
100
AcDbLine
10
-35.278312
20
3
30
0
11
-35.3
21
2.962436
31
0
39
0
210
0
220
0
230
1
0
LINE
5
82
100
AcDbEntity
8
SK1
62
256
6
ByLayer
370
18
48
1
60
0
100
AcDbLine
10
-35.3
20
-2.962436
30
0
11
-35.278312
21
-3
31
0
39
0
210
0
220
0
230
1
0
LINE
5
83
100
AcDbEntity
8
SK1
62
256
6
ByLayer
370
18
48
1
60
0
100
AcDbLine
10
0
20
3
30
0
11
-35.278312
21
3
31
0
39
0
210
0
220
0
230
1
0
LINE
5
84
100
AcDbEntity
8
SK1
62
256
6
ByLayer
370
18
48
1
60
0
100
AcDbLine
10
-35.278312
20
-3
30
0
11
0
21
-3
31
0
39
0
210
0
220
0
230
1
0
LINE
5
85
100
AcDbEntity
8
SK4
62
256
6
ByLayer
370
18
48
0.05
60
0
100
AcDbLine
10
35
20
0
30
0
11
-41
21
0
31
0
39
0
210
0
220
0
230
1
0
LINE
5
87
100
AcDbEntity
8
4
62
256
6
ByLayer
370
18
48
0.05
60
0
100
AcDbLine
10
30
20
0
30
0
11
0
21
0
31
0
39
0
210
0
220
0
230
1
0
LINE
5
89
100
AcDbEntity
8
80
62
256
6
ByLayer
370
18
48
1
60
0
100
AcDbLine
10
0
20
0
30
0
11
-5
21
0
31
0
39
0
210
0
220
0
230
1
0
LINE
5
8A
100
AcDbEntity
8
1
62
256
6
ByLayer
370
18
48
1
60
0
100
AcDbLine
10
29.832917
20
-0.23631
30
0
11
29.895601
21
-0.171556
31
0
39
0
210
0
220
0
230
1
0
LINE
5
8B
100
AcDbEntity
8
1
62
256
6
ByLayer
370
18
48
1
60
0
100
AcDbLine
10
29.939101
20
-0.250642
30
0
11
29.916307
21
-0.367283
31
0
39
0
210
0
220
0
230
1
0
LINE
5
8C
100
AcDbEntity
8
1
62
256
6
ByLayer
370
18
48
1
60
0
100
AcDbLine
10
29.939101
20
0.250642
30
0
11
29.916307
21
0.367283
31
0
39
0
210
0
220
0
230
1
0
LINE
5
8D
100
AcDbEntity
8
1
62
256
6
ByLayer
370
13
48
1
60
0
100
AcDbLine
10
1.5407
20
1.833268
30
0
11
1.5407
21
-1.833268
31
0
39
0
210
0
220
0
230
1
0
LINE
5
8E
100
AcDbEntity
8
1
62
256
6
ByLayer
370
13
48
1
60
0
100
AcDbLine
10
29.552609
20
0.031953
30
0
11
29.895601
21
-0.171556
31
0
39
0
210
0
220
0
230
1
0
LINE
5
8F
100
AcDbEntity
8
1
62
256
6
ByLayer
370
18
48
1
60
0
100
AcDbLine
10
29.07816
20
-1.015984
30
0
11
29.667924
21
-0.40675
31
0
39
0
210
0
220
0
230
1
0
LINE
5
90
100
AcDbEntity
8
1
62
256
6
ByLayer
370
13
48
1
60
0
100
AcDbLine
10
29.916307
20
0.367283
30
0
11
29.742515
21
0.367283
31
0
39
0
210
0
220
0
230
1
0
LINE
5
91
100
AcDbEntity
8
1
62
256
6
ByLayer
370
13
48
1
60
0
100
AcDbLine
10
0.77011
20
2.416634
30
0
11
0.77011
21
-2.416634
31
0
39
0
210
0
220
0
230
1
0
LINE
5
92
100
AcDbEntity
8
1
62
256
6
ByLayer
370
13
48
1
60
0
100
AcDbLine
10
29.742515
20
0.367283
30
0
11
29.939101
21
0.250642
31
0
39
0
210
0
220
0
230
1
0
LINE
5
93
100
AcDbEntity
8
1
62
256
6
ByLayer
370
18
48
1
60
0
100
AcDbLine
10
30
20
0
30
0
11
29.36269
21
-1.750994
31
0
39
0
210
0
220
0
230
1
0
LINE
5
94
100
AcDbEntity
8
1
62
256
6
ByLayer
370
18
48
1
60
0
100
AcDbLine
10
29.997266
20
0.019088
30
0
11
30
21
0
31
0
39
0
210
0
220
0
230
1
0
LINE
5
95
100
AcDbEntity
8
1
62
256
6
ByLayer
370
18
48
1
60
0
100
AcDbLine
10
0
20
-3
30
0
11
0
21
3
31
0
39
0
210
0
220
0
230
1
0
LINE
5
96
100
AcDbEntity
8
1
62
256
6
ByLayer
370
18
48
1
60
0
100
AcDbLine
10
30
20
0
30
0
11
29.997266
21
-0.019088
31
0
39
0
210
0
220
0
230
1
0
LINE
5
97
100
AcDbEntity
8
SK1
62
256
6
ByLayer
370
13
48
1
60
0
100
AcDbLine
10
-35.4
20
-2.661472
30
0
11
-35.4
21
-2.708798
31
0
39
0
210
0
220
0
230
1
0
LINE
5
98
100
AcDbEntity
8
SK1
62
256
6
ByLayer
370
18
48
1
60
0
100
AcDbLine
10
-36
20
1.603981
30
0
11
-36
21
-1.556728
31
0
39
0
210
0
220
0
230
1
0
LINE
5
99
100
AcDbEntity
8
SK1
62
256
6
ByLayer
370
18
48
1
60
0
100
AcDbLine
10
-35.3
20
-2.962436
30
0
11
-35.3
21
-2.868336
31
0
39
0
210
0
220
0
230
1
0
LINE
5
9A
100
AcDbEntity
8
SK1
62
256
6
ByLayer
370
18
48
1
60
0
100
AcDbLine
10
-35.3
20
2.962436
30
0
11
-35.3
21
2.909288
31
0
39
0
210
0
220
0
230
1
0
LINE
5
9B
100
AcDbEntity
8
SK1
62
256
6
ByLayer
370
18
48
1
60
0
100
AcDbLine
10
-36
20
-1.556718
30
0
11
-36
21
-1.603981
31
0
39
0
210
0
220
0
230
1
0
LINE
5
9C
100
AcDbEntity
8
SK1
62
256
6
ByLayer
370
18
48
1
60
0
100
AcDbLine
10
-35.278312
20
3
30
0
11
-35.278312
21
-3
31
0
39
0
210
0
220
0
230
1
0
LINE
5
9D
100
AcDbEntity
8
SK1
62
256
6
ByLayer
370
18
48
1
60
0
100
AcDbLine
10
0
20
-3
30
0
11
0
21
3
31
0
39
0
210
0
220
0
230
1
0
MTEXT
5
ED
100
AcDbEntity
8
SK6
62
256
6
ByLayer
370
13
48
1
60
0
100
AcDbMText
10
-0.870831
20
34.232694
30
0
210
0
220
0
230
1
1
\W0.7542;R840-0370-50-A1A1220
40
3.5
41
0
44
1.084337
50
0
71
8
72
5
7
iso_b_vert
0
DIMENSION
5
FA
100
AcDbEntity
8
SK2
62
256
6
ByLayer
370
13
48
1
60
0
100
AcDbDimension
2
DimnDraft3D1
10
29.38
20
-12.063398
30
0
11
13.630059
21
-12.063398
31
0
70
32
71
5
72
1
41
1
210
0
220
0
230
1
3
Standard
100
AcDbAlignedDimension
13
0
23
-1.5875
33
0
14
29.38
24
-3.4375
34
0
50
0
100
AcDbRotatedDimension
1001
ACAD
1000
DSTYLE
1002
{
1070
   279
1070
     0
1070
   172
1070
     1
1070
   173
1070
     1
1070
   340
1005
EE
1070
   271
1070
     2
1070
   272
1070
     2
1070
    77
1070
     1
1070
    73
1070
     0
1070
   171
1070
     3
1070
   274
1070
     4
1070
   177
1070
    35
1070
   176
1070
    35
1070
   178
1070
    35
1070
    48
1040
-0.005
1070
    41
1041
3.5
1070
   147
1041
1.75
1070
    42
1041
1.5875
1070
    44
1041
2.0
1070
   140
1041
3.5
1070
   343
1005
0
1070
   344
1005
0
1002
}
0
DIMENSION
5
104
100
AcDbEntity
8
SK2
62
256
6
ByLayer
370
13
48
1
60
0
100
AcDbDimension
2
DimnDraft3D2
10
30
20
-31.692985
30
0
11
-2.2787
21
-31.692985
31
0
70
32
71
5
72
1
41
1
210
0
220
0
230
1
3
Standard
100
AcDbAlignedDimension
13
-36
23
-4.5875
33
0
14
30
24
-1.5875
34
0
50
0
100
AcDbRotatedDimension
1001
ACAD
1000
DSTYLE
1002
{
1070
   279
1070
     0
1070
   172
1070
     1
1070
   173
1070
     1
1070
   340
1005
EE
1070
   271
1070
     2
1070
   272
1070
     2
1070
    77
1070
     1
1070
    73
1070
     0
1070
   171
1070
     3
1070
   274
1070
     4
1070
   177
1070
    35
1070
   176
1070
    35
1070
   178
1070
    35
1070
    48
1040
-0.005
1070
    41
1041
3.5
1070
   147
1041
1.75
1070
    42
1041
1.5875
1070
    44
1041
2.0
1070
   140
1041
3.5
1070
   343
1005
0
1070
   344
1005
0
1002
}
0
DIMENSION
5
10E
100
AcDbEntity
8
SK2
62
256
6
ByLayer
370
13
48
1
60
0
100
AcDbDimension
2
DimnDraft3D3
10
30
20
13.459119
30
0
11
20.44
21
13.459119
31
0
70
32
71
5
72
1
41
1
210
0
220
0
230
1
3
Standard
100
AcDbAlignedDimension
13
10.88
23
3.4375
33
0
14
30
24
1.5875
34
0
50
0
100
AcDbRotatedDimension
1001
ACAD
1000
DSTYLE
1002
{
1070
   279
1070
     0
1070
   172
1070
     1
1070
   173
1070
     1
1070
   340
1005
EE
1070
   271
1070
     2
1070
   272
1070
     2
1070
    77
1070
     1
1070
    73
1070
     0
1070
   171
1070
     3
1070
   274
1070
     4
1070
   177
1070
    35
1070
   176
1070
    35
1070
   178
1070
    35
1070
    48
1040
-0.005
1070
    41
1041
3.5
1070
   147
1041
1.75
1070
    42
1041
1.5875
1070
    44
1041
2.0
1070
   140
1041
3.5
1070
   343
1005
0
1070
   344
1005
0
1002
}
0
DIMENSION
5
118
100
AcDbEntity
8
SK2
62
256
6
ByLayer
370
13
48
1
60
0
100
AcDbDimension
2
DimnDraft3D4
10
29.38
20
-14.652503
30
0
11
39.981425
21
-14.652503
31
0
70
32
71
5
72
1
41
1
210
0
220
0
230
1
3
Standard
100
AcDbAlignedDimension
13
30
23
-1.5875
33
0
14
29.38
24
-3.4375
34
0
50
0
100
AcDbRotatedDimension
1001
ACAD
1000
DSTYLE
1002
{
1070
   279
1070
     0
1070
   172
1070
     1
1070
   173
1070
     1
1070
   340
1005
EE
1070
   271
1070
     2
1070
   272
1070
     2
1070
    77
1070
     1
1070
    73
1070
     0
1070
   171
1070
     3
1070
   274
1070
     4
1070
   177
1070
    35
1070
   176
1070
    35
1070
   178
1070
    35
1070
    48
1040
-0.005
1070
    41
1041
3.5
1070
   147
1041
1.75
1070
    42
1041
1.5875
1070
    44
1041
2.0
1070
   140
1041
3.5
1070
   343
1005
0
1070
   344
1005
0
1002
}
0
DIMENSION
5
122
100
AcDbEntity
8
SK2
62
256
6
ByLayer
370
13
48
1
60
0
100
AcDbDimension
2
DimnDraft3D5
10
29.38
20
-21.343428
30
0
11
-5.359324
21
-21.343428
31
0
70
32
71
5
72
1
41
1
210
0
220
0
230
1
3
Standard
100
AcDbAlignedDimension
13
-36
23
-4.5875
33
0
14
29.38
24
-3.4375
34
0
50
0
100
AcDbRotatedDimension
1001
ACAD
1000
DSTYLE
1002
{
1070
   279
1070
     0
1070
   172
1070
     1
1070
   173
1070
     1
1070
   340
1005
EE
1070
   271
1070
     2
1070
   272
1070
     2
1070
    77
1070
     1
1070
    73
1070
     0
1070
   171
1070
     3
1070
   274
1070
     4
1070
   177
1070
    35
1070
   176
1070
    35
1070
   178
1070
    35
1070
    48
1040
-0.005
1070
    41
1041
3.5
1070
   147
1041
1.75
1070
    42
1041
1.5875
1070
    44
1041
2.0
1070
   140
1041
3.5
1070
   343
1005
0
1070
   344
1005
0
1002
}
0
DIMENSION
5
12D
100
AcDbEntity
8
SK2
62
256
6
ByLayer
370
13
48
1
60
0
100
AcDbDimension
2
DimnDraft3D6
10
-46.625163
20
3
30
0
11
-47.250163
21
21.47418
31
0
70
33
71
5
72
1
41
1
210
0
220
0
230
1
3
Standard
100
AcDbAlignedDimension
13
-37.5875
23
-3
33
0
14
-37.5875
24
3
34
0
1001
ACAD
1000
DSTYLE
1002
{
1070
   279
1070
     0
1070
    74
1070
     0
1070
   173
1070
     1
1070
   340
1005
EE
1070
   271
1070
     3
1070
   272
1070
     2
1070
    77
1070
     1
1070
    73
1070
     0
1070
   171
1070
     3
1070
   274
1070
     4
1070
   177
1070
    35
1070
   176
1070
    35
1070
   178
1070
    35
1070
    48
1040
-0.005
1070
    41
1041
3.5
1070
   147
1041
1.75
1070
    42
1041
1.5875
1070
    44
1041
2.0
1070
   140
1041
3.5
1070
   343
1005
0
1070
   344
1005
0
1002
}
0
DIMENSION
5
138
100
AcDbEntity
8
2
62
256
6
ByLayer
370
13
48
1
60
0
100
AcDbDimension
2
DimnDraft3D7
10
44.083343
20
1.85
30
0
11
39.458343
21
18.917266
31
0
70
33
71
5
72
1
41
1
210
0
220
0
230
1
3
Standard
100
AcDbAlignedDimension
13
30.9675
23
-1.85
33
0
14
30.9675
24
1.85
34
0
1001
ACAD
1000
DSTYLE
1002
{
1070
   279
1070
     0
1070
    74
1070
     0
1070
   173
1070
     1
1070
   340
1005
EE
1070
   271
1070
     3
1070
   272
1070
     2
1070
    77
1070
     1
1070
    73
1070
     0
1070
   171
1070
     3
1070
   274
1070
     4
1070
   177
1070
    35
1070
   176
1070
    35
1070
   178
1070
    35
1070
    48
1040
-0.005
1070
    41
1041
3.5
1070
   147
1041
1.75
1070
    42
1041
1.5875
1070
    44
1041
2.0
1070
   140
1041
3.5
1070
   343
1005
0
1070
   344
1005
0
1002
}
0
ENDSEC
0
SECTION
2
OBJECTS
0
DICTIONARY
5
1a3
330
0
100
AcDbDictionary
280
0
281
1
3
ACAD_GROUP
350
1a4
3
ACAD_MLINESTYLE
350
1a5
0
DICTIONARY
5
1a4
330
0
100
AcDbDictionary
280
0
281
1
0
DICTIONARY
5
1a5
330
0
100
AcDbDictionary
280
0
281
1
3
Standard
350
18
0
MLINESTYLE
5
18
330
1a5
100
AcDbMlineStyle
2
Standard
70
0
3

62
256
51
90
52
90
71
2
49
-0.5
62
256
6
ByLayer
49
0.5
62
256
6
ByLayer
0
RASTERVARIABLES
5
191
330

100
AcDbRasterVariables
90
0
70
1
71
1
72
1
0
ENDSEC
0
EOF
