0
SECTION
2
HEADER
9
$ACADVER
1
AC1015
9
$DWGCODEPAGE
3
ANSI_1252
9
$HANDSEED
5
1a0
9
$ANGBASE
50
0
9
$ANGDIR
70
0
9
$ATTMODE
70
1
9
$AUNITS
70
0
9
$AUPREC
70
0
9
$CECOLOR
62
256
9
$CELTSCALE
40
1
9
$CELTYPE
6
ByLayer
9
$CELWEIGHT
370
18
9
$CLAYER
8
0
9
$CMLJUST
70
0
9
$CMLSCALE
40
1
9
$CMLSTYLE
2
Standard
9
$DIMSTYLE
2
Standard
9
$TEXTSIZE
40
0.2
9
$TEXTSTYLE
7
Standard
9
$LUNITS
70
2
9
$LUPREC
70
4
9
$EXTNAMES
290
1
9
$INSUNITS
70
4
9
$LTSCALE
40
1
9
$LWDISPLAY
290
1
9
$PDMODE
70
0
9
$PDSIZE
40
0
9
$PLINEGEN
70
0
0
ENDSEC
0
SECTION
2
CLASSES
0
CLASS
1
RASTERVARIABLES
2
AcDbRasterVariables
3
ISM
90
0
280
0
281
0
0
ENDSEC
0
SECTION
2
TABLES
0
TABLE
2
VPORT
5
196
100
AcDbSymbolTable
0
VPORT
5
1
100
AcDbSymbolTableRecord
100
AcDbViewportTableRecord
2
*Active
70
0
10
0
20
0
11
1
21
1
12
-1
22
1
13
0
23
0
14
0.5
24
0.5
15
10
25
10
16
0
26
0
36
1
17
0
27
0
37
0
0
ENDTAB
0
TABLE
2
LTYPE
5
197
100
AcDbSymbolTable
0
LTYPE
5
14
100
AcDbSymbolTableRecord
100
AcDbLinetypeTableRecord
70
0
2
ByBlock
3

72
65
73
0
40
0
0
LTYPE
5
15
100
AcDbSymbolTableRecord
100
AcDbLinetypeTableRecord
70
0
2
ByLayer
3

72
65
73
0
40
0
0
LTYPE
5
16
100
AcDbSymbolTableRecord
100
AcDbLinetypeTableRecord
70
0
2
CONTINUOUS
3
Solid line
72
65
73
0
40
0
0
LTYPE
5
6A
100
AcDbSymbolTableRecord
100
AcDbLinetypeTableRecord
70
0
2
CENTER
3
____ _ ____ _ ____ _ ____
72
65
73
4
40
47.5
49
22
74
0
49
-8.5
74
0
49
8.5
74
0
49
-8.5
74
0
0
LTYPE
5
6B
100
AcDbSymbolTableRecord
100
AcDbLinetypeTableRecord
70
0
2
DASHED
3
__ __ __ __ __ __ __ __ __
72
65
73
2
40
25.72
49
12.86
74
0
49
-12.86
74
0
0
ENDTAB
0
TABLE
2
LAYER
5
198
100
AcDbSymbolTable
0
LAYER
5
10
100
AcDbSymbolTableRecord
100
AcDbLayerTableRecord
2
0
70
0
62
7
6
CONTINUOUS
290
1
370
-3
390
0
0
LAYER
5
6D
100
AcDbSymbolTableRecord
100
AcDbLayerTableRecord
2
81
70
0
62
-3
6
CONTINUOUS
290
1
370
-3
390
0
0
LAYER
5
6F
100
AcDbSymbolTableRecord
100
AcDbLayerTableRecord
2
80
70
0
62
-6
6
CONTINUOUS
290
1
370
-3
390
0
0
LAYER
5
74
100
AcDbSymbolTableRecord
100
AcDbLayerTableRecord
2
2
70
0
62
7
6
CONTINUOUS
290
1
370
-3
390
0
0
LAYER
5
78
100
AcDbSymbolTableRecord
100
AcDbLayerTableRecord
2
1
70
0
62
4
6
CONTINUOUS
290
1
370
-3
390
0
0
LAYER
5
86
100
AcDbSymbolTableRecord
100
AcDbLayerTableRecord
2
4
70
0
62
-2
6
CENTER
290
1
370
-3
390
0
0
LAYER
5
182
100
AcDbSymbolTableRecord
100
AcDbLayerTableRecord
2
SK2
70
0
62
7
6
CONTINUOUS
290
1
370
-3
390
0
0
LAYER
5
183
100
AcDbSymbolTableRecord
100
AcDbLayerTableRecord
2
SK1
70
0
62
4
6
CONTINUOUS
290
1
370
-3
390
0
0
LAYER
5
184
100
AcDbSymbolTableRecord
100
AcDbLayerTableRecord
2
SK4
70
0
62
2
6
CENTER
290
1
370
-3
390
0
0
LAYER
5
185
100
AcDbSymbolTableRecord
100
AcDbLayerTableRecord
2
SK6
70
0
62
5
6
CONTINUOUS
290
1
370
-3
390
0
0
ENDTAB
0
TABLE
2
STYLE
5
199
100
AcDbSymbolTable
0
STYLE
5
11
100
AcDbSymbolTableRecord
100
AcDbTextStyleTableRecord
2
Standard
3
txt
70
0
71
0
40
0
41
1
42
0
50
0
0
STYLE
5
DE
100
AcDbSymbolTableRecord
100
AcDbTextStyleTableRecord
2
iso_b_vert
3
simplex.shx
70
0
71
0
40
0
41
1
42
0
50
0
0
STYLE
5
DF
100
AcDbSymbolTableRecord
100
AcDbTextStyleTableRecord
2
DWGDirectTextStyle
3
simplex
70
0
71
0
40
0
41
1
42
0
50
0
0
ENDTAB
0
TABLE
2
DIMSTYLE
5
19a
100
AcDbSymbolTable
100
AcDbDimStyleTable
0
DIMSTYLE
105
27
100
AcDbSymbolTableRecord
100
AcDbDimStyleTableRecord
2
Standard
70
0
3
<>
41
0.18
42
0.0625
44
0.18
140
0.18
147
0.09
73
0
74
0
77
1
271
2
275
0
278
52
280
0
340
11
0
ENDTAB
0
TABLE
2
VIEW
5
19b
100
AcDbSymbolTable
0
ENDTAB
0
TABLE
2
UCS
5
19c
100
AcDbSymbolTable
0
ENDTAB
0
TABLE
2
APPID
5
19d
100
AcDbSymbolTable
0
APPID
5
12
100
AcDbSymbolTableRecord
100
AcDbRegAppTableRecord
2
ACAD
70
0
0
ENDTAB
0
TABLE
2
BLOCK_RECORD
5
19e
100
AcDbSymbolTable
0
BLOCK_RECORD
5
1F
100
AcDbSymbolTableRecord
100
AcDbBlockTableRecord
2
*Model_Space
340
0
70
0
0
BLOCK_RECORD
5
1B
100
AcDbSymbolTableRecord
100
AcDbBlockTableRecord
2
*Paper_Space
340
0
70
0
0
BLOCK_RECORD
5
23
100
AcDbSymbolTableRecord
100
AcDbBlockTableRecord
2
*Paper_Space0
340
0
70
0
0
BLOCK_RECORD
5
E1
100
AcDbSymbolTableRecord
100
AcDbBlockTableRecord
2
DimnDraft3D1
340
0
70
0
0
BLOCK_RECORD
5
EB
100
AcDbSymbolTableRecord
100
AcDbBlockTableRecord
2
DimnDraft3D2
340
0
70
0
0
BLOCK_RECORD
5
F5
100
AcDbSymbolTableRecord
100
AcDbBlockTableRecord
2
DimnDraft3D3
340
0
70
0
0
BLOCK_RECORD
5
FF
100
AcDbSymbolTableRecord
100
AcDbBlockTableRecord
2
DimnDraft3D4
340
0
70
0
0
BLOCK_RECORD
5
109
100
AcDbSymbolTableRecord
100
AcDbBlockTableRecord
2
DimnDraft3D5
340
0
70
0
0
BLOCK_RECORD
5
113
100
AcDbSymbolTableRecord
100
AcDbBlockTableRecord
2
DimnDraft3D6
340
0
70
0
0
BLOCK_RECORD
5
11E
100
AcDbSymbolTableRecord
100
AcDbBlockTableRecord
2
DimnDraft3D7
340
0
70
0
0
ENDTAB
0
ENDSEC
0
SECTION
2
BLOCKS
0
BLOCK
5
20
100
AcDbEntity
8
0
100
AcDbBlockBegin
2
*Model_Space
70
0
10
0
20
0
30
0
3
*Model_Space
0
ENDBLK
5
21
100
AcDbEntity
8
0
100
AcDbBlockEnd
0
BLOCK
5
1C
100
AcDbEntity
8
0
100
AcDbBlockBegin
2
*Paper_Space
70
0
10
0
20
0
30
0
3
*Paper_Space
0
ENDBLK
5
1D
100
AcDbEntity
8
0
100
AcDbBlockEnd
0
BLOCK
5
24
100
AcDbEntity
8
0
100
AcDbBlockBegin
2
*Paper_Space0
70
0
10
0
20
0
30
0
3
*Paper_Space0
0
ENDBLK
5
25
100
AcDbEntity
8
0
100
AcDbBlockEnd
0
BLOCK
5
E8
100
AcDbEntity
8
0
100
AcDbBlockBegin
2
DimnDraft3D1
70
0
10
0
20
0
30
0
3
DimnDraft3D1
0
MTEXT
5
E2
100
AcDbEntity
8
SK2
62
256
6
ByLayer
370
13
48
1
60
0
100
AcDbMText
10
7.181375
20
-11.188398
30
0
210
0
220
0
230
1
1
\W0.7317;25,38
40
3.5
41
0
44
1.084337
50
0
71
7
72
5
7
iso_b_vert
0
LINE
5
E3
100
AcDbEntity
8
SK2
62
256
6
ByLayer
370
13
48
1
60
0
100
AcDbLine
10
0
20
-1.5875
30
0
11
0
21
-14.063398
31
0
39
0
210
0
220
0
230
1
0
LINE
5
E4
100
AcDbEntity
8
SK2
62
256
6
ByLayer
370
13
48
1
60
0
100
AcDbLine
10
25.38
20
-3.4375
30
0
11
25.38
21
-14.063398
31
0
39
0
210
0
220
0
230
1
0
LINE
5
E5
100
AcDbEntity
8
SK2
62
256
6
ByLayer
370
13
48
1
60
0
100
AcDbLine
10
0
20
-12.063398
30
0
11
25.38
21
-12.063398
31
0
39
0
210
0
220
0
230
1
0
SOLID
5
E6
100
AcDbEntity
8
SK2
62
256
6
ByLayer
370
13
48
1
60
0
100
AcDbTrace
10
0
20
-12.063398
30
0
11
3.499998
21
-11.602615
31
0
12
3.500002
22
-12.524182
32
0
13
0
23
-12.063398
33
0
39
0
210
0
220
0
230
1
0
SOLID
5
E7
100
AcDbEntity
8
SK2
62
256
6
ByLayer
370
13
48
1
60
0
100
AcDbTrace
10
25.38
20
-12.063398
30
0
11
21.880002
21
-12.524182
31
0
12
21.879998
22
-11.602615
32
0
13
25.38
23
-12.063398
33
0
39
0
210
0
220
0
230
1
0
ENDBLK
5
E9
100
AcDbEntity
8
0
100
AcDbBlockEnd
0
BLOCK
5
F2
100
AcDbEntity
8
0
100
AcDbBlockBegin
2
DimnDraft3D2
70
0
10
0
20
0
30
0
3
DimnDraft3D2
0
MTEXT
5
EC
100
AcDbEntity
8
SK2
62
256
6
ByLayer
370
13
48
1
60
0
100
AcDbMText
10
-8.727384
20
-30.817985
30
0
210
0
220
0
230
1
1
\W0.7317;62,00
40
3.5
41
0
44
1.084337
50
0
71
7
72
5
7
iso_b_vert
0
LINE
5
ED
100
AcDbEntity
8
SK2
62
256
6
ByLayer
370
13
48
1
60
0
100
AcDbLine
10
-36
20
-4.5875
30
0
11
-36
21
-33.692985
31
0
39
0
210
0
220
0
230
1
0
LINE
5
EE
100
AcDbEntity
8
SK2
62
256
6
ByLayer
370
13
48
1
60
0
100
AcDbLine
10
26
20
-1.5875
30
0
11
26
21
-33.692985
31
0
39
0
210
0
220
0
230
1
0
LINE
5
EF
100
AcDbEntity
8
SK2
62
256
6
ByLayer
370
13
48
1
60
0
100
AcDbLine
10
-36
20
-31.692985
30
0
11
26
21
-31.692985
31
0
39
0
210
0
220
0
230
1
0
SOLID
5
F0
100
AcDbEntity
8
SK2
62
256
6
ByLayer
370
13
48
1
60
0
100
AcDbTrace
10
-36
20
-31.692985
30
0
11
-32.500002
21
-31.232202
31
0
12
-32.499998
22
-32.153769
32
0
13
-36
23
-31.692985
33
0
39
0
210
0
220
0
230
1
0
SOLID
5
F1
100
AcDbEntity
8
SK2
62
256
6
ByLayer
370
13
48
1
60
0
100
AcDbTrace
10
26
20
-31.692985
30
0
11
22.500002
21
-32.153769
31
0
12
22.499998
22
-31.232202
32
0
13
26
23
-31.692985
33
0
39
0
210
0
220
0
230
1
0
ENDBLK
5
F3
100
AcDbEntity
8
0
100
AcDbBlockEnd
0
BLOCK
5
FC
100
AcDbEntity
8
0
100
AcDbBlockBegin
2
DimnDraft3D3
70
0
10
0
20
0
30
0
3
DimnDraft3D3
0
MTEXT
5
F6
100
AcDbEntity
8
SK2
62
256
6
ByLayer
370
13
48
1
60
0
100
AcDbMText
10
16.566316
20
14.334119
30
0
210
0
220
0
230
1
1
\W0.6110;11,72
40
3.5
41
0
44
1.084337
50
0
71
7
72
5
7
iso_b_vert
0
LINE
5
F7
100
AcDbEntity
8
SK2
62
256
6
ByLayer
370
13
48
1
60
0
100
AcDbLine
10
14.28
20
3.4375
30
0
11
14.28
21
15.459119
31
0
39
0
210
0
220
0
230
1
0
LINE
5
F8
100
AcDbEntity
8
SK2
62
256
6
ByLayer
370
13
48
1
60
0
100
AcDbLine
10
26
20
1.5875
30
0
11
26
21
15.459119
31
0
39
0
210
0
220
0
230
1
0
LINE
5
F9
100
AcDbEntity
8
SK2
62
256
6
ByLayer
370
13
48
1
60
0
100
AcDbLine
10
14.28
20
13.459119
30
0
11
26
21
13.459119
31
0
39
0
210
0
220
0
230
1
0
SOLID
5
FA
100
AcDbEntity
8
SK2
62
256
6
ByLayer
370
13
48
1
60
0
100
AcDbTrace
10
14.28
20
13.459119
30
0
11
17.779998
21
13.919903
31
0
12
17.780002
22
12.998335
32
0
13
14.28
23
13.459119
33
0
39
0
210
0
220
0
230
1
0
SOLID
5
FB
100
AcDbEntity
8
SK2
62
256
6
ByLayer
370
13
48
1
60
0
100
AcDbTrace
10
26
20
13.459119
30
0
11
22.500002
21
12.998335
31
0
12
22.499998
22
13.919903
32
0
13
26
23
13.459119
33
0
39
0
210
0
220
0
230
1
0
ENDBLK
5
FD
100
AcDbEntity
8
0
100
AcDbBlockEnd
0
BLOCK
5
106
100
AcDbEntity
8
0
100
AcDbBlockBegin
2
DimnDraft3D4
70
0
10
0
20
0
30
0
3
DimnDraft3D4
0
MTEXT
5
100
100
AcDbEntity
8
SK2
62
256
6
ByLayer
370
13
48
1
60
0
100
AcDbMText
10
32.840636
20
-13.777503
30
0
210
0
220
0
230
1
1
\W0.7150;0,62
40
3.5
41
0
44
1.084337
50
0
71
7
72
5
7
iso_b_vert
0
LINE
5
101
100
AcDbEntity
8
SK2
62
256
6
ByLayer
370
13
48
1
60
0
100
AcDbLine
10
26
20
-1.5875
30
0
11
26
21
-16.652503
31
0
39
0
210
0
220
0
230
1
0
LINE
5
102
100
AcDbEntity
8
SK2
62
256
6
ByLayer
370
13
48
1
60
0
100
AcDbLine
10
25.38
20
-3.4375
30
0
11
25.38
21
-16.652503
31
0
39
0
210
0
220
0
230
1
0
LINE
5
103
100
AcDbEntity
8
SK2
62
256
6
ByLayer
370
13
48
1
60
0
100
AcDbLine
10
16.63
20
-14.652503
30
0
11
39.997215
21
-14.652503
31
0
39
0
210
0
220
0
230
1
0
SOLID
5
104
100
AcDbEntity
8
SK2
62
256
6
ByLayer
370
13
48
1
60
0
100
AcDbTrace
10
26
20
-14.652503
30
0
11
29.499998
21
-14.191719
31
0
12
29.500002
22
-15.113287
32
0
13
26
23
-14.652503
33
0
39
0
210
0
220
0
230
1
0
SOLID
5
105
100
AcDbEntity
8
SK2
62
256
6
ByLayer
370
13
48
1
60
0
100
AcDbTrace
10
25.38
20
-14.652503
30
0
11
21.880002
21
-15.113287
31
0
12
21.879998
22
-14.191719
32
0
13
25.38
23
-14.652503
33
0
39
0
210
0
220
0
230
1
0
ENDBLK
5
107
100
AcDbEntity
8
0
100
AcDbBlockEnd
0
BLOCK
5
110
100
AcDbEntity
8
0
100
AcDbBlockBegin
2
DimnDraft3D5
70
0
10
0
20
0
30
0
3
DimnDraft3D5
0
MTEXT
5
10A
100
AcDbEntity
8
SK2
62
256
6
ByLayer
370
13
48
1
60
0
100
AcDbMText
10
-11.370508
20
-20.468428
30
0
210
0
220
0
230
1
1
\W0.6713;61,38
40
3.5
41
0
44
1.084337
50
0
71
7
72
5
7
iso_b_vert
0
LINE
5
10B
100
AcDbEntity
8
SK2
62
256
6
ByLayer
370
13
48
1
60
0
100
AcDbLine
10
-36
20
-4.5875
30
0
11
-36
21
-23.343428
31
0
39
0
210
0
220
0
230
1
0
LINE
5
10C
100
AcDbEntity
8
SK2
62
256
6
ByLayer
370
13
48
1
60
0
100
AcDbLine
10
25.38
20
-3.4375
30
0
11
25.38
21
-23.343428
31
0
39
0
210
0
220
0
230
1
0
LINE
5
10D
100
AcDbEntity
8
SK2
62
256
6
ByLayer
370
13
48
1
60
0
100
AcDbLine
10
-36
20
-21.343428
30
0
11
25.38
21
-21.343428
31
0
39
0
210
0
220
0
230
1
0
SOLID
5
10E
100
AcDbEntity
8
SK2
62
256
6
ByLayer
370
13
48
1
60
0
100
AcDbTrace
10
-36
20
-21.343428
30
0
11
-32.500002
21
-20.882645
31
0
12
-32.499998
22
-21.804212
32
0
13
-36
23
-21.343428
33
0
39
0
210
0
220
0
230
1
0
SOLID
5
10F
100
AcDbEntity
8
SK2
62
256
6
ByLayer
370
13
48
1
60
0
100
AcDbTrace
10
25.38
20
-21.343428
30
0
11
21.880002
21
-21.804212
31
0
12
21.879998
22
-20.882645
32
0
13
25.38
23
-21.343428
33
0
39
0
210
0
220
0
230
1
0
ENDBLK
5
111
100
AcDbEntity
8
0
100
AcDbBlockEnd
0
BLOCK
5
11B
100
AcDbEntity
8
0
100
AcDbBlockBegin
2
DimnDraft3D6
70
0
10
0
20
0
30
0
3
DimnDraft3D6
0
MTEXT
5
114
100
AcDbEntity
8
SK2
62
256
6
ByLayer
370
13
48
1
60
0
100
AcDbMText
10
-46.375163
20
22.34918
30
0
210
0
220
0
230
1
1
\W0.7317;6,000
40
3.5
41
0
44
1.084337
50
90
71
7
72
5
7
iso_b_vert
0
MTEXT
5
115
100
AcDbEntity
8
SK2
62
256
6
ByLayer
370
13
48
1
60
0
100
AcDbMText
10
-46.375163
20
17.126524
30
0
210
0
220
0
230
1
1
%%c
40
3.5
41
0
44
1.084337
50
90
71
7
72
5
7
iso_b_vert
0
LINE
5
116
100
AcDbEntity
8
SK2
62
256
6
ByLayer
370
13
48
1
60
0
100
AcDbLine
10
-37.5875
20
-3
30
0
11
-46.625163
21
-3
31
0
39
0
210
0
220
0
230
1
0
LINE
5
117
100
AcDbEntity
8
SK2
62
256
6
ByLayer
370
13
48
1
60
0
100
AcDbLine
10
-37.5875
20
3
30
0
11
-46.625163
21
3
31
0
39
0
210
0
220
0
230
1
0
LINE
5
118
100
AcDbEntity
8
SK2
62
256
6
ByLayer
370
13
48
1
60
0
100
AcDbLine
10
-44.625163
20
32.121549
30
0
11
-44.625163
21
-11.75
31
0
39
0
210
0
220
0
230
1
0
SOLID
5
119
100
AcDbEntity
8
SK2
62
256
6
ByLayer
370
13
48
1
60
0
100
AcDbTrace
10
-44.625163
20
-3
30
0
11
-44.164379
21
-6.499998
31
0
12
-45.085946
22
-6.500002
32
0
13
-44.625163
23
-3
33
0
39
0
210
0
220
0
230
1
0
SOLID
5
11A
100
AcDbEntity
8
SK2
62
256
6
ByLayer
370
13
48
1
60
0
100
AcDbTrace
10
-44.625163
20
3
30
0
11
-45.085946
21
6.499998
31
0
12
-44.164379
22
6.500002
32
0
13
-44.625163
23
3
33
0
39
0
210
0
220
0
230
1
0
ENDBLK
5
11C
100
AcDbEntity
8
0
100
AcDbBlockEnd
0
BLOCK
5
126
100
AcDbEntity
8
0
100
AcDbBlockBegin
2
DimnDraft3D7
70
0
10
0
20
0
30
0
3
DimnDraft3D7
0
MTEXT
5
11F
100
AcDbEntity
8
2
62
256
6
ByLayer
370
13
48
1
60
0
100
AcDbMText
10
36.333343
20
19.792266
30
0
210
0
220
0
230
1
1
\W0.7317;3,700
40
3.5
41
0
44
1.084337
50
90
71
7
72
5
7
iso_b_vert
0
MTEXT
5
120
100
AcDbEntity
8
2
62
256
6
ByLayer
370
13
48
1
60
0
100
AcDbMText
10
36.333343
20
14.56961
30
0
210
0
220
0
230
1
1
%%c
40
3.5
41
0
44
1.084337
50
90
71
7
72
5
7
iso_b_vert
0
LINE
5
121
100
AcDbEntity
8
2
62
256
6
ByLayer
370
13
48
1
60
0
100
AcDbLine
10
26.9675
20
-1.85
30
0
11
40.083343
21
-1.85
31
0
39
0
210
0
220
0
230
1
0
LINE
5
122
100
AcDbEntity
8
2
62
256
6
ByLayer
370
13
48
1
60
0
100
AcDbLine
10
26.9675
20
1.85
30
0
11
40.083343
21
1.85
31
0
39
0
210
0
220
0
230
1
0
LINE
5
123
100
AcDbEntity
8
2
62
256
6
ByLayer
370
13
48
1
60
0
100
AcDbLine
10
38.083343
20
29.564635
30
0
11
38.083343
21
-10.6
31
0
39
0
210
0
220
0
230
1
0
SOLID
5
124
100
AcDbEntity
8
2
62
256
6
ByLayer
370
13
48
1
60
0
100
AcDbTrace
10
38.083343
20
-1.85
30
0
11
38.544126
21
-5.349998
31
0
12
37.622559
22
-5.350002
32
0
13
38.083343
23
-1.85
33
0
39
0
210
0
220
0
230
1
0
SOLID
5
125
100
AcDbEntity
8
2
62
256
6
ByLayer
370
13
48
1
60
0
100
AcDbTrace
10
38.083343
20
1.85
30
0
11
37.622559
21
5.349998
31
0
12
38.544126
22
5.350002
32
0
13
38.083343
23
1.85
33
0
39
0
210
0
220
0
230
1
0
ENDBLK
5
127
100
AcDbEntity
8
0
100
AcDbBlockEnd
0
ENDSEC
0
SECTION
2
ENTITIES
0
ARC
5
9D
100
AcDbEntity
8
1
62
256
6
ByLayer
370
18
48
1
60
0
100
AcDbCircle
39
0
10
0
20
2.2
30
0
40
0.799999999999995
210
0
220
0
230
1
100
AcDbArc
50
15.800722
51
90
0
ARC
5
9E
100
AcDbEntity
8
1
62
256
6
ByLayer
370
18
48
1
60
0
100
AcDbCircle
39
0
10
0
20
-2.2
30
0
40
0.799999999999995
210
0
220
0
230
1
100
AcDbArc
50
270
51
344.199278
0
ARC
5
9F
100
AcDbEntity
8
1
62
256
6
ByLayer
370
18
48
1
60
0
100
AcDbCircle
39
0
10
-1.539543
20
2.635668
30
0
40
0.800000000000002
210
0
220
0
230
-1
100
AcDbArc
50
269.965623
51
344.199278
0
ARC
5
A0
100
AcDbEntity
8
1
62
256
6
ByLayer
370
18
48
1
60
0
100
AcDbCircle
39
0
10
-1.539543
20
-2.635668
30
0
40
0.800000000000002
210
0
220
0
230
-1
100
AcDbArc
50
15.800722
51
90.034377
0
ELLIPSE
5
A1
100
AcDbEntity
8
1
62
256
6
ByLayer
370
18
48
1
60
0
100
AcDbEllipse
10
8.25
20
1.991414
30
0
11
0.25
21
0
31
0
210
0
220
0
230
1
40
1
41
-2.42258373523201
42
-1.55503889470992
0
ELLIPSE
5
A2
100
AcDbEntity
8
1
62
256
6
ByLayer
370
18
48
1
60
0
100
AcDbEllipse
10
8.25
20
-1.991414
30
0
11
0.25
21
0
31
0
210
0
220
0
230
1
40
1
41
1.58163847058727
42
2.41954787230391
0
ELLIPSE
5
A3
100
AcDbEntity
8
1
62
256
6
ByLayer
370
18
48
1
60
0
100
AcDbEllipse
10
25.623695
20
0.91688
30
0
11
0.289615424688054
21
-0.775810624336618
31
0
210
0
220
0
230
-1
40
0.148387
41
-1.47059241991486
42
-0.7300606774203
0
ELLIPSE
5
A4
100
AcDbEntity
8
1
62
256
6
ByLayer
370
18
48
1
60
0
100
AcDbEllipse
10
26.000179
20
0.000404
30
0
11
0.689688769882783
21
1.84751164807051
31
0
210
0
220
0
230
-1
40
0.148387
41
2.83172707096004
42
2.97042068503729
0
ELLIPSE
5
A5
100
AcDbEntity
8
1
62
256
6
ByLayer
370
18
48
1
60
0
100
AcDbEllipse
10
26.066882
20
-0.037307
30
0
11
0.133321008232928
21
-0.425213611909317
31
0
210
0
220
0
230
-1
40
0.112798
41
1.7390835933675
42
2.34950393582062
0
ELLIPSE
5
A6
100
AcDbEntity
8
1
62
256
6
ByLayer
370
18
48
1
60
0
100
AcDbEllipse
10
26.000179
20
-0.000404
30
0
11
0.689688767300924
21
-1.84751164030237
31
0
210
0
220
0
230
-1
40
0.148387
41
-2.97042068466896
42
-2.83172707029526
0
ELLIPSE
5
A7
100
AcDbEntity
8
1
62
256
6
ByLayer
370
18
48
1
60
0
100
AcDbEllipse
10
25.623695
20
-0.91688
30
0
11
0.289615424695539
21
0.775810624351435
31
0
210
0
220
0
230
-1
40
0.148387
41
0.730060677419511
42
1.47059241990126
0
ELLIPSE
5
A8
100
AcDbEntity
8
1
62
256
6
ByLayer
370
13
48
1
60
0
100
AcDbEllipse
10
25.847751
20
0.793682
30
0
11
1.23623937208597
21
-0.85118596185355
31
0
210
0
220
0
230
-1
40
0.533762
41
1.44484622739575
42
1.78929176598404
0
ELLIPSE
5
A9
100
AcDbEntity
8
1
62
256
6
ByLayer
370
13
48
1
60
0
100
AcDbEllipse
10
26.037658
20
0.91688
30
0
11
1.29654355641559
21
-0.521616284114473
31
0
210
0
220
0
230
-1
40
0.444171
41
1.62020504385343
42
1.946045747443
0
ELLIPSE
5
AA
100
AcDbEntity
8
1
62
256
6
ByLayer
370
13
48
1
60
0
100
AcDbEllipse
10
25.74222
20
0.155326
30
0
11
0.153082081612424
21
0.25800363619377
31
0
210
0
220
0
230
1
40
0.454519
41
0.917105603404838
42
2.31336900500026
0
ELLIPSE
5
AB
100
AcDbEntity
8
1
62
256
6
ByLayer
370
18
48
1
60
0
100
AcDbEllipse
10
26.066882
20
0.037307
30
0
11
0.133321008203737
21
0.425213611836527
31
0
210
0
220
0
230
-1
40
0.112798
41
-2.34950393581448
42
-1.73908359326781
0
ELLIPSE
5
AC
100
AcDbEntity
8
1
62
256
6
ByLayer
370
18
48
1
60
0
100
AcDbEllipse
10
25.861078
20
0.084804
30
0
11
0.0727819104925573
21
0.301917195716077
31
0
210
0
220
0
230
-1
40
0.478434
41
1.67391814058722
42
2.45976119973174
0
POINT
5
6C
100
AcDbEntity
8
81
62
256
6
ByLayer
370
18
48
1
60
0
100
AcDbPoint
10
26
20
0
30
0
39
0
210
0
220
0
230
1
50
360
0
POINT
5
6E
100
AcDbEntity
8
80
62
256
6
ByLayer
370
18
48
1
60
0
100
AcDbPoint
10
0
20
0
30
0
39
0
210
0
220
0
230
1
50
360
0
POINT
5
70
100
AcDbEntity
8
SK2
62
256
6
ByLayer
370
18
48
1
60
1
100
AcDbPoint
10
-36
20
-3
30
0
39
0
210
0
220
0
230
1
50
360
0
POINT
5
72
100
AcDbEntity
8
SK2
62
256
6
ByLayer
370
18
48
1
60
1
100
AcDbPoint
10
-36
20
3
30
0
39
0
210
0
220
0
230
1
50
360
0
POINT
5
73
100
AcDbEntity
8
2
62
256
6
ByLayer
370
18
48
1
60
1
100
AcDbPoint
10
25.38
20
-1.85
30
0
39
0
210
0
220
0
230
1
50
360
0
POINT
5
75
100
AcDbEntity
8
2
62
256
6
ByLayer
370
18
48
1
60
1
100
AcDbPoint
10
25.38
20
1.85
30
0
39
0
210
0
220
0
230
1
50
360
0
SPLINE
5
AD
100
AcDbEntity
8
1
62
256
6
ByLayer
370
18
48
1
60
0
100
AcDbSpline
70
4
71
3
72
15
73
11
40
0
40
0
40
0
40
0
40
0.175939058573274
40
0.330455214212321
40
0.446598988378767
40
0.500365051547141
40
0.551423400015628
40
0.615863161695623
40
0.782615369474365
40
1
40
1
40
1
40
1
41
1
10
8.25057250209008
20
-1.74123073570249
30
0
41
1
10
8.41558216299225
20
-1.74158790367395
30
0
41
1
10
8.7255083674616
20
-1.7420598629875
30
0
41
1
10
9.14451431125116
20
-1.74141108845731
30
0
41
1
10
9.44869848100657
20
-1.74163418571877
30
0
41
1
10
9.65597209019575
20
-1.74236906163077
30
0
41
1
10
9.81475290511503
20
-1.74272538209149
30
0
41
1
10
10.0794953770528
20
-1.7428845137533
30
0
41
1
10
10.5002546683676
20
-1.74192239521326
30
0
41
1
10
10.8605780359698
20
-1.74269975947044
30
0
41
1
10
11.0644893190397
20
-1.74332966525012
30
0
0
SPLINE
5
AE
100
AcDbEntity
8
1
62
256
6
ByLayer
370
18
48
1
60
0
100
AcDbSpline
70
4
71
2
72
6
73
3
40
0
40
0
40
0
40
1
40
1
40
1
41
1
10
25.0683909079401
20
-1.74965071171121
30
0
41
1
10
25.2055245985223
20
-1.74961221780166
30
0
41
1
10
25.3427467356939
20
-1.75008534670863
30
0
0
SPLINE
5
AF
100
AcDbEntity
8
1
62
256
6
ByLayer
370
18
48
1
60
0
100
AcDbSpline
70
4
71
3
72
20
73
16
40
0
40
0
40
0
40
0
40
0.125049452081573
40
0.209861377584628
40
0.263469895348688
40
0.315668535818297
40
0.369086371461788
40
0.426168957896247
40
0.486861202596562
40
0.606402941249727
40
0.724267825855541
40
0.767432600420886
40
0.821312918935992
40
0.904814660228826
40
1
40
1
40
1
40
1
41
1
10
15.6634745694409
20
-1.74529732773286
30
0
41
1
10
15.8687935344363
20
-1.74553192112535
30
0
41
1
10
16.213392178406
20
-1.74585112991329
30
0
41
1
10
16.6460971946817
20
-1.7454481262138
30
0
41
1
10
16.9591566273609
20
-1.7458454086574
30
0
41
1
10
17.2206613472995
20
-1.7463558427994
30
0
41
1
10
17.4878388641697
20
-1.74601773330716
30
0
41
1
10
17.7689831413866
20
-1.74534160811424
30
0
41
1
10
18.1587456354422
20
-1.74631261392338
30
0
41
1
10
18.6482603411925
20
-1.74758613478983
30
0
41
1
10
19.1092561937962
20
-1.74609378196123
30
0
41
1
10
19.4618085483016
20
-1.74576610356172
30
0
41
1
10
19.7581975003601
20
-1.74839435919105
30
0
41
1
10
20.1402785101544
20
-1.74642464214574
30
0
41
1
10
20.4335037542685
20
-1.74720721382584
30
0
41
1
10
20.5896642099237
20
-1.74758445733312
30
0
0
SPLINE
5
B0
100
AcDbEntity
8
1
62
256
6
ByLayer
370
18
48
1
60
0
100
AcDbSpline
70
4
71
3
72
15
73
11
40
0
40
0
40
0
40
0
40
0.156530404278761
40
0.299414364504153
40
0.395769605053107
40
0.490245034995571
40
0.572745811259019
40
0.673168434033416
40
0.823680625211146
40
1
40
1
40
1
40
1
41
1
10
11.0644485302205
20
1.74335953752691
30
0
41
1
10
10.9176404816923
20
1.74311344147768
30
0
41
1
10
10.6368186129158
20
1.74280862114901
30
0
41
1
10
10.2655871983532
20
1.74236710457347
30
0
41
1
10
9.95259203432568
20
1.74292421495431
30
0
41
1
10
9.69621061511083
20
1.74254397240006
30
0
41
1
10
9.4360200366277
20
1.74156123760116
30
0
41
1
10
9.12326757688797
20
1.74150009089286
30
0
41
1
10
8.72253154956658
20
1.74205412136095
30
0
41
1
10
8.41597634292577
20
1.74159714419437
30
0
41
1
10
8.25059530837396
20
1.7412329173911
30
0
0
SPLINE
5
B1
100
AcDbEntity
8
1
62
256
6
ByLayer
370
18
48
1
60
0
100
AcDbSpline
70
4
71
3
72
18
73
14
40
0
40
0
40
0
40
0
40
0.13938607517175
40
0.245360714878458
40
0.310819463395572
40
0.378086296457696
40
0.597410856820712
40
0.668284726333296
40
0.7349433876231
40
0.797322505939384
40
0.85827789903196
40
0.920879687967857
40
1
40
1
40
1
40
1
41
1
10
20.5820231935924
20
1.74763993579501
30
0
41
1
10
20.3861478079015
20
1.74769557368683
30
0
41
1
10
20.0413415223088
20
1.74753420225073
30
0
41
1
10
19.6039406957524
20
1.74660754044569
30
0
41
1
10
19.2687510192412
20
1.74576451125643
30
0
41
1
10
18.7735893795514
20
1.74700741486333
30
0
41
1
10
18.270871211865
20
1.74669590591742
30
0
41
1
10
17.7689841374097
20
1.74532781997468
30
0
41
1
10
17.4878386226278
20
1.74602107701742
30
0
41
1
10
17.2206614084723
20
1.74635499597124
30
0
41
1
10
16.9591566108959
20
1.74584563658496
30
0
41
1
10
16.6741119146524
20
1.74548360518114
30
0
41
1
10
16.4747943781876
20
1.74561523091242
30
0
41
1
10
16.3635250749792
20
1.74565951022015
30
0
0
SPLINE
5
B2
100
AcDbEntity
8
1
62
256
6
ByLayer
370
18
48
1
60
0
100
AcDbSpline
70
4
71
3
72
8
73
4
40
0
40
0
40
0
40
0
40
1
40
1
40
1
40
1
41
1
10
11.0138102733681
20
-0.381525973346896
30
0
41
1
10
11.0166024246776
20
-0.385066879624134
30
0
41
1
10
11.0203081700309
20
-0.389208744879994
30
0
41
1
10
11.024920714787
20
-0.39394395836058
30
0
0
SPLINE
5
B3
100
AcDbEntity
8
1
62
256
6
ByLayer
370
13
48
1
60
0
100
AcDbSpline
70
4
71
3
72
18
73
14
40
0
40
0
40
0
40
0
40
0.138306168202862
40
0.138306168202862
40
0.353729626152146
40
0.353729626152146
40
0.569153084101431
40
0.569153084101431
40
0.784576542050715
40
0.784576542050715
40
0.892288271025358
40
0.892288271025358
40
1
40
1
40
1
40
1
41
1
10
8.25061173659486
20
-1.74143561479471
30
0
41
1
10
8.25061814849053
20
-1.74144086741091
30
0
41
1
10
8.25062611661912
20
-1.73645322290389
30
0
41
1
10
8.25065283129669
20
-1.71117584350182
30
0
41
1
10
8.2506753998515
20
-1.68347184498944
30
0
41
1
10
8.25073419374539
20
-1.6049220778001
30
0
41
1
10
8.25077066173588
20
-1.5537398901875
30
0
41
1
10
8.25085161573338
20
-1.43251757986627
30
0
41
1
10
8.25089633563931
20
-1.36220244388863
30
0
41
1
10
8.25096433856328
20
-1.24190221986132
30
0
41
1
10
8.25098723022222
20
-1.19909819298647
30
0
41
1
10
8.25103121952816
20
-1.10973354044069
30
0
41
1
10
8.25105236485138
20
-1.06311515690695
30
0
41
1
10
8.25107191797625
20
-1.01455382932249
30
0
0
SPLINE
5
B4
100
AcDbEntity
8
1
62
256
6
ByLayer
370
13
48
1
60
0
100
AcDbSpline
70
4
71
3
72
32
73
28
40
0
40
0
40
0
40
0
40
0.0702444413370109
40
0.0702444413370109
40
0.140488882674022
40
0.140488882674022
40
0.280977765348043
40
0.280977765348043
40
0.351222206685054
40
0.351222206685054
40
0.421466648022065
40
0.421466648022065
40
0.561955530696087
40
0.561955530696087
40
0.597077751364593
40
0.597077751364593
40
0.632199972033099
40
0.632199972033099
40
0.702444413370109
40
0.702444413370109
40
0.842933296044126
40
0.842933296044126
40
0.913177737381135
40
0.913177737381135
40
0.983422178718144
40
0.983422178718144
40
1
40
1
40
1
40
1
41
1
10
25.3805262305609
20
-1.74815435365596
30
0
41
1
10
25.2009294913136
20
-1.75405773723432
30
0
41
1
10
25.020786926838
20
-1.75055450841043
30
0
41
1
10
24.6632548977013
20
-1.72541115908555
30
0
41
1
10
24.4855128200334
20
-1.70383036319288
30
0
41
1
10
23.9535084917692
20
-1.61363025928782
30
0
41
1
10
23.6005392095175
20
-1.51943231390643
30
0
41
1
10
23.065271658112
20
-1.33240739110116
30
0
41
1
10
22.8849725543438
20
-1.2620438420858
30
0
41
1
10
22.5270940283142
20
-1.11004947698723
30
0
41
1
10
22.3492381844523
20
-1.02840595137585
30
0
41
1
10
21.8169676279231
20
-0.769628193215169
30
0
41
1
10
21.4639366162401
20
-0.578363673517742
30
0
41
1
10
21.0180854599588
20
-0.327159828075537
30
0
41
1
10
20.9286852512515
20
-0.276311052350565
30
0
41
1
10
20.7492351219466
20
-0.173665384189462
30
0
41
1
10
20.6591256555716
20
-0.1218288182626
30
0
41
1
10
20.3903624973687
20
0.0333199831441675
30
0
41
1
10
20.2122039257633
20
0.136432810707248
30
0
41
1
10
19.6786650354138
20
0.441118760734554
30
0
41
1
10
19.3245805298736
20
0.638619650908964
30
0
41
1
10
18.7873041751636
20
0.91193757868794
30
0
41
1
10
18.6068904336641
20
0.999263256330636
30
0
41
1
10
18.2494740631422
20
1.16104793161622
30
0
41
1
10
18.0716489557462
20
1.23589551400801
30
0
41
1
10
17.8520450754975
20
1.32006966773631
30
0
41
1
10
17.8101211147514
20
1.33576058655689
30
0
41
1
10
17.7681958299526
20
1.35106084454225
30
0
0
SPLINE
5
B5
100
AcDbEntity
8
1
62
256
6
ByLayer
370
18
48
1
60
0
100
AcDbSpline
70
4
71
3
72
10
73
6
40
0
40
0
40
0
40
0
40
0.5
40
0.5
40
1
40
1
40
1
40
1
41
1
10
9.3795733360663
20
-1.47910313633759
30
0
41
1
10
9.1886204509579
20
-1.42119681641199
30
0
41
1
10
8.9991569086728
20
-1.35313729248165
30
0
41
1
10
8.62353531484862
20
-1.19770505707999
30
0
41
1
10
8.43721520666151
20
-1.11049787295065
30
0
41
1
10
8.25107191803198
20
-1.0145538293439
30
0
0
SPLINE
5
B6
100
AcDbEntity
8
1
62
256
6
ByLayer
370
18
48
1
60
0
100
AcDbSpline
70
4
71
3
72
24
73
20
40
0
40
0
40
0
40
0
40
0.124478747232001
40
0.124478747232001
40
0.248957494464001
40
0.248957494464001
40
0.373436241696001
40
0.373436241696001
40
0.497914988928002
40
0.497914988928002
40
0.622393736160003
40
0.622393736160003
40
0.746872483392003
40
0.746872483392003
40
0.871351230624004
40
0.871351230624004
40
0.995829977856004
40
0.995829977856004
40
1
40
1
40
1
40
1
41
1
10
9.37974128439134
20
-1.47914558734149
30
0
41
1
10
9.53040146928512
20
-1.52496132054773
30
0
41
1
10
9.68082621315827
20
-1.56564508999341
30
0
41
1
10
9.98089222288328
20
-1.63446572765838
30
0
41
1
10
10.1307889301145
20
-1.6626237297981
30
0
41
1
10
10.4317398071352
20
-1.70644324244441
30
0
41
1
10
10.5823563628017
20
-1.72274765922469
30
0
41
1
10
10.8826306884842
20
-1.742809477804
30
0
41
1
10
11.0327591750748
20
-1.74575486960387
30
0
41
1
10
11.333209608788
20
-1.73847264574468
30
0
41
1
10
11.4838772699339
20
-1.72825681249913
30
0
41
1
10
11.7846645139243
20
-1.69645273553914
30
0
41
1
10
11.934677431121
20
-1.67441118712759
30
0
41
1
10
12.2350546785503
20
-1.61827151650314
30
0
41
1
10
12.3860827283594
20
-1.58444469972477
30
0
41
1
10
12.6861522509553
20
-1.50320097919783
30
0
41
1
10
12.8353773762515
20
-1.45675246075919
30
0
41
1
10
12.9893563329717
20
-1.40406684497066
30
0
41
1
10
12.9943468974071
20
-1.40235410134304
30
0
41
1
10
12.9993369696603
20
-1.40063637367439
30
0
0
SPLINE
5
B7
100
AcDbEntity
8
1
62
256
6
ByLayer
370
18
48
1
60
0
100
AcDbSpline
70
4
71
3
72
22
73
18
40
0
40
0
40
0
40
0
40
0.0101842360913891
40
0.0101842360913891
40
0.0808853620848616
40
0.0808853620848616
40
0.151586488078334
40
0.151586488078334
40
0.292988740065279
40
0.292988740065279
40
0.434390992052224
40
0.434390992052224
40
0.717195496026115
40
0.717195496026115
40
0.858597748013058
40
0.858597748013058
40
1
40
1
40
1
40
1
41
1
10
20.5833701945026
20
1.74709517286928
30
0
41
1
10
20.5942170618117
20
1.74715200770768
30
0
41
1
10
20.6050672814359
20
1.74718085308751
30
0
41
1
10
20.6912690214752
20
1.74719020968604
30
0
41
1
10
20.7665755867683
20
1.74584835938518
30
0
41
1
10
20.9169259705561
20
1.73885515533391
30
0
41
1
10
20.9919948118531
20
1.73341756682848
30
0
41
1
10
21.2170891461876
20
1.71207832029324
30
0
41
1
10
21.3670959072426
20
1.69103782828714
30
0
41
1
10
21.6682366471377
20
1.63895460259602
30
0
41
1
10
21.8186481720251
20
1.60811069609946
30
0
41
1
10
22.2668706418621
20
1.49528640009902
30
0
41
1
10
22.5630823048226
20
1.39500792015497
30
0
41
1
10
23.0095413006287
20
1.21954688944248
30
0
41
1
10
23.1583649640849
20
1.15647201386648
30
0
41
1
10
23.4575177741721
20
1.02284711967067
30
0
41
1
10
23.6082675482376
20
0.951169041392092
30
0
41
1
10
23.7584024846234
20
0.876148780713407
30
0
0
SPLINE
5
B8
100
AcDbEntity
8
1
62
256
6
ByLayer
370
18
48
1
60
0
100
AcDbSpline
70
4
71
3
72
12
73
8
40
0
40
0
40
0
40
0
40
0.250000000000002
40
0.250000000000002
40
0.500000000000005
40
0.500000000000005
40
1
40
1
40
1
40
1
41
1
10
25.3676315651249
20
-1.83659060630802
30
0
41
1
10
25.3727032292955
20
-1.82339305049021
30
0
41
1
10
25.3773652542266
20
-1.80971097693899
30
0
41
1
10
25.3843103301041
20
-1.78516995821045
30
0
41
1
10
25.3865277521716
20
-1.7744548679502
30
0
41
1
10
25.3890189520837
20
-1.75126989479426
30
0
41
1
10
25.385787021427
20
-1.7465735964212
30
0
41
1
10
25.3805262305552
20
-1.74815435365642
30
0
0
SPLINE
5
B9
100
AcDbEntity
8
1
62
256
6
ByLayer
370
18
48
1
60
0
100
AcDbSpline
70
4
71
3
72
16
73
12
40
0
40
0
40
0
40
0
40
0.25
40
0.25
40
0.5
40
0.5
40
0.75
40
0.75
40
0.875
40
0.875
40
1
40
1
40
1
40
1
41
1
10
25.7672100084806
20
-0.882030393005891
30
0
41
1
10
25.7389034337582
20
-0.957772454457
30
0
41
1
10
25.7105698833226
20
-1.0334941910034
30
0
41
1
10
25.6540257722564
20
-1.18503428252731
30
0
41
1
10
25.6257623385128
20
-1.26081181280418
30
0
41
1
10
25.569108724073
20
-1.41226228389886
30
0
41
1
10
25.5408059467255
20
-1.488007257623
30
0
41
1
10
25.4983598970553
20
-1.60163118484414
30
0
41
1
10
25.4841797107094
20
-1.63948688787036
30
0
41
1
10
25.4556159350168
20
-1.71498093219236
30
0
41
1
10
25.4413287446356
20
-1.75275229820562
30
0
41
1
10
25.4269325354453
20
-1.7903259576826
30
0
0
SPLINE
5
BA
100
AcDbEntity
8
1
62
256
6
ByLayer
370
18
48
1
60
0
100
AcDbSpline
70
4
71
3
72
24
73
20
40
0
40
0
40
0
40
0
40
0.124999999999998
40
0.124999999999998
40
0.249999999999997
40
0.249999999999997
40
0.374999999999995
40
0.374999999999995
40
0.499999999999994
40
0.499999999999994
40
0.624999999999992
40
0.624999999999992
40
0.74999999999999
40
0.74999999999999
40
0.812499999999993
40
0.812499999999993
40
0.874999999999995
40
0.874999999999995
40
1
40
1
40
1
40
1
41
1
10
25.6679693991002
20
-0.406702914548873
30
0
41
1
10
25.6530190045462
20
-0.443443999865934
30
0
41
1
10
25.6414581570544
20
-0.483773918872004
30
0
41
1
10
25.6323043462001
20
-0.552559737963378
30
0
41
1
10
25.6347466837438
20
-0.580289072382271
30
0
41
1
10
25.6504303202103
20
-0.613497453106902
30
0
41
1
10
25.663356637508
20
-0.619688499634606
30
0
41
1
10
25.6942876141979
20
-0.613934077549715
30
0
41
1
10
25.7122204626918
20
-0.602137770002741
30
0
41
1
10
25.7492499673499
20
-0.56440367148241
30
0
41
1
10
25.7685748250206
20
-0.538228968682063
30
0
41
1
10
25.8047644643113
20
-0.474569649533379
30
0
41
1
10
25.8216869255407
20
-0.436564057703435
30
0
41
1
10
25.8395500904335
20
-0.379768110740486
30
0
41
1
10
25.8443703139383
20
-0.360449890125892
30
0
41
1
10
25.8505895697107
20
-0.324840658691386
30
0
41
1
10
25.8520871477002
20
-0.30801333295841
30
0
41
1
10
25.8514560009887
20
-0.264847485713204
30
0
41
1
10
25.8441686332363
20
-0.245256933210158
30
0
41
1
10
25.8328179030811
20
-0.236412137493659
30
0
0
SPLINE
5
BB
100
AcDbEntity
8
1
62
256
6
ByLayer
370
18
48
1
60
0
100
AcDbSpline
70
4
71
3
72
56
73
52
40
0
40
0
40
0
40
0
40
0.0625000000000075
40
0.0625000000000075
40
0.125000000000015
40
0.125000000000015
40
0.25000000000003
40
0.25000000000003
40
0.312500000000037
40
0.312500000000037
40
0.375000000000045
40
0.375000000000045
40
0.500000000000057
40
0.500000000000057
40
0.531250000000062
40
0.531250000000062
40
0.539062500000064
40
0.542968750000065
40
0.542968750000065
40
0.546875000000066
40
0.546875000000066
40
0.548828125000066
40
0.548828125000066
40
0.550781250000067
40
0.550781250000067
40
0.554687500000068
40
0.562500000000067
40
0.562500000000067
40
0.593750000000064
40
0.593750000000064
40
0.62500000000006
40
0.62500000000006
40
0.640625000000058
40
0.640625000000058
40
0.656250000000056
40
0.656250000000056
40
0.671875000000054
40
0.671875000000054
40
0.687500000000052
40
0.687500000000052
40
0.70312500000005
40
0.70312500000005
40
0.718750000000048
40
0.718750000000048
40
0.750000000000043
40
0.750000000000043
40
0.812500000000032
40
0.812500000000032
40
0.875000000000021
40
0.875000000000021
40
1
40
1
40
1
40
1
41
1
10
10.6315991025452
20
-0.156756842233733
30
0
41
1
10
10.486044629378
20
-0.0684309454808556
30
0
41
1
10
10.339228525234
20
0.0194362514704096
30
0
41
1
10
10.0453090738104
20
0.190655522508195
30
0
41
1
10
9.89818764690986
20
0.274014533143514
30
0
41
1
10
9.45459425083996
20
0.514488788824195
30
0
41
1
10
9.15584068058985
20
0.661789544671848
30
0
41
1
10
8.69598453685396
20
0.852973028383076
30
0
41
1
10
8.54075224808503
20
0.91178098002203
30
0
41
1
10
8.22545073494982
20
1.01861477030232
30
0
41
1
10
8.06494515345781
20
1.0667409624547
30
0
41
1
10
7.57956030441107
20
1.19342101984461
30
0
41
1
10
7.25030663479129
20
1.25462022563937
30
0
41
1
10
6.83018939151958
20
1.305626722813
30
0
41
1
10
6.74575844776732
20
1.31454692353958
30
0
41
1
10
6.64000062102389
20
1.32411033997843
30
0
41
1
10
6.60825089826994
20
1.32686097505103
30
0
41
1
10
6.57646729406093
20
1.32943503298506
30
0
41
1
10
6.55527468314102
20
1.33111160990771
30
0
41
1
10
6.54454402047861
20
1.33178409598378
30
0
41
1
10
6.52859134140124
20
1.33068667521724
30
0
41
1
10
6.52336190898981
20
1.33003816461911
30
0
41
1
10
6.51316067265279
20
1.32791087377652
30
0
41
1
10
6.50828158948826
20
1.32621148154468
30
0
41
1
10
6.49372142643603
20
1.32122797279681
30
0
41
1
10
6.46473374283556
20
1.31104614827066
30
0
41
1
10
6.43616397936665
20
1.30018100537217
30
0
41
1
10
6.34197127275723
20
1.26222944908156
30
0
41
1
10
6.27074198725151
20
1.22699773059449
30
0
41
1
10
6.14253226069999
20
1.13884601631986
30
0
41
1
10
6.085608752692
20
1.0854418637924
30
0
41
1
10
6.02887861002034
20
0.987685844473788
30
0
41
1
10
6.01532169711135
20
0.953166873876626
30
0
41
1
10
5.99979780326774
20
0.879713893955397
30
0
41
1
10
5.9981014240183
20
0.840694899860353
30
0
41
1
10
6.00592216798208
20
0.763378887244073
30
0
41
1
10
6.01543249191096
20
0.724035962636577
30
0
41
1
10
6.04214678018855
20
0.647961691223998
30
0
41
1
10
6.05930193130851
20
0.610875403393095
30
0
41
1
10
6.09916675129855
20
0.538007753743869
30
0
41
1
10
6.12187273664534
20
0.502332879993787
30
0
41
1
10
6.17027380726259
20
0.433596821407122
30
0
41
1
10
6.19612529021606
20
0.400269123983946
30
0
41
1
10
6.27736664403392
20
0.302560107527341
30
0
41
1
10
6.33671041590057
20
0.24010206292607
30
0
41
1
10
6.5213954459773
20
0.0606478084226012
30
0
41
1
10
6.6526511608088
20
-0.0485354494428236
30
0
41
1
10
6.92263878235764
20
-0.257107565232502
30
0
41
1
10
7.06229846059563
20
-0.356596961425311
30
0
41
1
10
7.48364474591187
20
-0.641012581636517
30
0
41
1
10
7.76684739021863
20
-0.812356490437168
30
0
41
1
10
8.05183605870187
20
-0.968717052561857
30
0
0
SPLINE
5
BC
100
AcDbEntity
8
1
62
256
6
ByLayer
370
18
48
1
60
0
100
AcDbSpline
70
4
71
3
72
20
73
16
40
0
40
0
40
0
40
0
40
0.125000000000004
40
0.125000000000004
40
0.250000000000008
40
0.250000000000008
40
0.375000000000012
40
0.375000000000012
40
0.500000000000017
40
0.500000000000017
40
0.625000000000021
40
0.625000000000021
40
0.750000000000025
40
0.750000000000025
40
1
40
1
40
1
40
1
41
1
10
25.6679693990784
20
-0.40670291456621
30
0
41
1
10
25.6570685779144
20
-0.391058847264617
30
0
41
1
10
25.6472642735844
20
-0.37415350936169
30
0
41
1
10
25.6332609668061
20
-0.339487784850434
30
0
41
1
10
25.6291599041485
20
-0.321470605789074
30
0
41
1
10
25.6300168512984
20
-0.289086044262007
30
0
41
1
10
25.6349091075426
20
-0.275324582433825
30
0
41
1
10
25.6500506102478
20
-0.254050045825323
30
0
41
1
10
25.6602427357222
20
-0.246239016963529
30
0
41
1
10
25.6826081148885
20
-0.234850859497186
30
0
41
1
10
25.695077732407
20
-0.231113967484134
30
0
41
1
10
25.7207788818143
20
-0.226465785735627
30
0
41
1
10
25.7341200989501
20
-0.225511723226362
30
0
41
1
10
25.7752162279192
20
-0.225644231188596
30
0
41
1
10
25.8040045669574
20
-0.229734442120986
30
0
41
1
10
25.8328179030791
20
-0.236412137493574
30
0
0
SPLINE
5
BD
100
AcDbEntity
8
1
62
256
6
ByLayer
370
18
48
1
60
0
100
AcDbSpline
70
4
71
3
72
14
73
10
40
0
40
0
40
0
40
0
40
0.25
40
0.25
40
0.499999999999999
40
0.499999999999999
40
0.75
40
0.75
40
1
40
1
40
1
40
1
41
1
10
25.1362542758218
20
0.334017611590156
30
0
41
1
10
25.1405865411758
20
0.356946997603671
30
0
41
1
10
25.1482936423352
20
0.380505025791109
30
0
41
1
10
25.1708691273128
20
0.428763907715108
30
0
41
1
10
25.1854597023405
20
0.452604274145358
30
0
41
1
10
25.2213375766043
20
0.497721727099957
30
0
41
1
10
25.2423427037072
20
0.518845208887996
30
0
41
1
10
25.2903148879145
20
0.553138142094383
30
0
41
1
10
25.3181049039397
20
0.565061167066915
30
0
41
1
10
25.3469038589233
20
0.572240372964814
30
0
0
SPLINE
5
BE
100
AcDbEntity
8
1
62
256
6
ByLayer
370
18
48
1
60
0
100
AcDbSpline
70
4
71
3
72
8
73
4
40
0
40
0
40
0
40
0
40
1
40
1
40
1
40
1
41
1
10
8.18368520484171
20
1.37256705177941
30
0
41
1
10
8.15910784776543
20
1.38247486033671
30
0
41
1
10
8.1343449096473
20
1.39207960829396
30
0
41
1
10
8.11161162300232
20
1.4035192758717
30
0
0
SPLINE
5
BF
100
AcDbEntity
8
1
62
256
6
ByLayer
370
18
48
1
60
0
100
AcDbSpline
70
4
71
3
72
44
73
40
40
0
40
0
40
0
40
0
40
0.108772499518228
40
0.108772499518228
40
0.163158749277342
40
0.163158749277342
40
0.190351874156898
40
0.190351874156898
40
0.217544999036455
40
0.217544999036455
40
0.326317498554679
40
0.326317498554679
40
0.353510623434235
40
0.353510623434235
40
0.380703748313791
40
0.380703748313791
40
0.435089998072904
40
0.435089998072904
40
0.54386249759113
40
0.54386249759113
40
0.598248747350241
40
0.598248747350241
40
0.652634997109353
40
0.652634997109353
40
0.761407496627575
40
0.761407496627575
40
0.788600621507131
40
0.788600621507131
40
0.815793746386687
40
0.815793746386687
40
0.870179996145799
40
0.870179996145799
40
0.924566245904912
40
0.924566245904912
40
0.951759370784468
40
0.951759370784468
40
0.978952495664024
40
0.978952495664024
40
1
40
1
40
1
40
1
41
1
10
25.3672666306095
20
-1.83754018884304
30
0
41
1
10
25.0084344546312
20
-1.86278807143606
30
0
41
1
10
24.6532139297298
20
-1.84877087416439
30
0
41
1
10
24.1177685530005
20
-1.77165964331596
30
0
41
1
10
23.9389099951225
20
-1.73654496322934
30
0
41
1
10
23.6688521350451
20
-1.66995472094737
30
0
41
1
10
23.5784372193155
20
-1.64541210826175
30
0
41
1
10
23.3986339463556
20
-1.59229197531403
30
0
41
1
10
23.3090306019446
20
-1.56366221610378
30
0
41
1
10
22.861910086003
20
-1.41082676684337
30
0
41
1
10
22.5069893690007
20
-1.25769718678967
30
0
41
1
10
22.059471283249
20
-1.03640868964845
30
0
41
1
10
21.969777891503
20
-0.990650795823797
30
0
41
1
10
21.7898522532969
20
-0.896300735632138
30
0
41
1
10
21.6994182532038
20
-0.847581487778029
30
0
41
1
10
21.4293976438042
20
-0.698968761442217
30
0
41
1
10
21.2505725928594
20
-0.596416789917669
30
0
41
1
10
20.7154285809383
20
-0.28204000652633
30
0
41
1
10
20.3607714879145
20
-0.0629424220463761
30
0
41
1
10
19.8221518420556
20
0.263811904580109
30
0
41
1
10
19.6409031761677
20
0.372758101787696
30
0
41
1
10
19.2823445398536
20
0.584124151429052
30
0
41
1
10
19.1039792818398
20
0.686571498661351
30
0
41
1
10
18.5694004893664
20
0.981042769571729
30
0
41
1
10
18.2139928300443
20
1.16064356085016
30
0
41
1
10
17.7634996453505
20
1.353158340562
30
0
41
1
10
17.673084802388
20
1.39001101123091
30
0
41
1
10
17.4932655361694
20
1.45949945831194
30
0
41
1
10
17.4036279181138
20
1.49223958410661
30
0
41
1
10
17.1352619369205
20
1.58428760565005
30
0
41
1
10
16.9571262501029
20
1.63746984036337
30
0
41
1
10
16.6009778536408
20
1.72644653126147
30
0
41
1
10
16.4228441947419
20
1.76215747714875
30
0
41
1
10
16.1544791624538
20
1.80186411622685
30
0
41
1
10
16.064826735131
20
1.81278899201075
30
0
41
1
10
15.8850021122818
20
1.82990028607364
30
0
41
1
10
15.7946115280713
20
1.83609289860507
30
0
41
1
10
15.6347176666162
20
1.84268746280921
30
0
41
1
10
15.5651360645009
20
1.84409526874384
30
0
41
1
10
15.4956947848177
20
1.84405104164517
30
0
0
SPLINE
5
C0
100
AcDbEntity
8
1
62
256
6
ByLayer
370
18
48
1
60
0
100
AcDbSpline
70
4
71
3
72
18
73
14
40
0
40
0
40
0
40
0
40
0.25
40
0.25
40
0.5
40
0.5
40
0.625
40
0.625
40
0.75
40
0.75
40
0.875
40
0.875
40
1
40
1
40
1
40
1
41
1
10
25.3469038589233
20
0.572240372964814
30
0
41
1
10
25.3923261181514
20
0.583563552973686
30
0
41
1
10
25.4375582804485
20
0.596392227234219
30
0
41
1
10
25.5261621708018
20
0.626936853033243
30
0
41
1
10
25.5698697933609
20
0.64469013847463
30
0
41
1
10
25.63104200869
20
0.677844242375386
30
0
41
1
10
25.6506833364054
20
0.689985768810885
30
0
41
1
10
25.6876891194728
20
0.71763043816847
30
0
41
1
10
25.7052889000414
20
0.733333828131833
30
0
41
1
10
25.7356092492957
20
0.76945444026353
30
0
41
1
10
25.7481790341797
20
0.789927434745465
30
0
41
1
10
25.7644223112507
20
0.834253306330936
30
0
41
1
10
25.7680268083833
20
0.858214468392333
30
0
41
1
10
25.7672100084806
20
0.882030393005948
30
0
0
SPLINE
5
C1
100
AcDbEntity
8
1
62
256
6
ByLayer
370
18
48
1
60
0
100
AcDbSpline
70
4
71
3
72
14
73
10
40
0
40
0
40
0
40
0
40
0.244699657900878
40
0.244699657900878
40
0.381479637247131
40
0.381479637247131
40
0.518259616593383
40
0.518259616593383
40
1
40
1
40
1
40
1
41
1
10
15.6969345596401
20
-1.745299984182
30
0
41
1
10
15.5379686934731
20
-1.74549294609929
30
0
41
1
10
15.3788805097497
20
-1.73851431506256
30
0
41
1
10
15.1299222905152
20
-1.71627393690716
30
0
41
1
10
15.0404710289801
20
-1.70599977239093
30
0
41
1
10
14.8610588069312
20
-1.6809294279436
30
0
41
1
10
14.7709015954897
20
-1.66609182761704
30
0
41
1
10
14.3650225563291
20
-1.58946099714643
30
0
41
1
10
14.0522398176427
20
-1.5038438910052
30
0
41
1
10
13.739187765693
20
-1.39561425546728
30
0
0
SPLINE
5
C2
100
AcDbEntity
8
1
62
256
6
ByLayer
370
13
48
1
60
0
100
AcDbSpline
70
4
71
3
72
26
73
22
40
0
40
0
40
0
40
0
40
0.0233416712827854
40
0.0233416712827854
40
0.121007504154505
40
0.121007504154505
40
0.218673337026224
40
0.218673337026224
40
0.414005002769666
40
0.414005002769666
40
0.511670835641388
40
0.511670835641388
40
0.56050375207725
40
0.56050375207725
40
0.609336668513111
40
0.609336668513111
40
0.804668334256555
40
0.804668334256555
40
0.902334167128278
40
0.902334167128278
40
1
40
1
40
1
40
1
41
1
10
13.7391877655565
20
-1.39561425542013
30
0
41
1
10
13.6967018167954
20
-1.38092583947929
30
0
41
1
10
13.6542109076506
20
-1.36582093152597
30
0
41
1
10
13.4338577554307
20
-1.28539817047402
30
0
41
1
10
13.2556794379932
20
-1.21340067570031
30
0
41
1
10
12.8974799770839
20
-1.05675084742609
30
0
41
1
10
12.7169595281163
20
-0.971865566163672
30
0
41
1
10
12.1803039508009
20
-0.70557990940884
30
0
41
1
10
11.826021664986
20
-0.511395550288142
30
0
41
1
10
11.2919193837775
20
-0.208759016830101
30
0
41
1
10
11.1134051424686
20
-0.106044158512475
30
0
41
1
10
10.8437874153942
20
0.0489110547523808
30
0
41
1
10
10.7536305270196
20
0.100685161738653
30
0
41
1
10
10.5742751724135
20
0.203293225564863
30
0
41
1
10
10.484879424749
20
0.254289395535096
30
0
41
1
10
10.0388595986652
20
0.50702823813873
30
0
41
1
10
9.68451217338912
20
0.700790059160084
30
0
41
1
10
9.14926560379132
20
0.966504855551136
30
0
41
1
10
8.96982210224144
20
1.05113177898488
30
0
41
1
10
8.6098676429279
20
1.20852688710946
30
0
41
1
10
8.43027713277129
20
1.28089892241715
30
0
41
1
10
8.25045255734457
20
1.34611931228795
30
0
0
SPLINE
5
C3
100
AcDbEntity
8
1
62
256
6
ByLayer
370
18
48
1
60
0
100
AcDbSpline
70
4
71
3
72
32
73
28
40
0
40
0
40
0
40
0
40
0.0712295134218646
40
0.0712295134218646
40
0.142673397004798
40
0.142673397004798
40
0.285561164170663
40
0.285561164170663
40
0.357005047753596
40
0.357005047753596
40
0.392726989545064
40
0.392726989545064
40
0.428448931336531
40
0.428448931336531
40
0.571336698502397
40
0.571336698502397
40
0.64278058208533
40
0.64278058208533
40
0.678502523876797
40
0.678502523876797
40
0.714224465668265
40
0.714224465668265
40
0.857112232834132
40
0.857112232834132
40
0.928556116417066
40
0.928556116417066
40
1
40
1
40
1
40
1
41
1
10
17.8658417401105
20
1.30876418574201
30
0
41
1
10
18.0433103515491
20
1.23265079264041
30
0
41
1
10
18.2209918355869
20
1.14973280592122
30
0
41
1
10
18.578862302064
20
0.97156195328418
30
0
41
1
10
18.7599194681204
20
0.875875912573207
30
0
41
1
10
19.2983226601581
20
0.578781512365737
30
0
41
1
10
19.6528431230473
20
0.366406796365624
30
0
41
1
10
20.1876074688649
20
0.0420580756553477
30
0
41
1
10
20.3662230688717
20
-0.0672337519876578
30
0
41
1
10
20.6358287074334
20
-0.23108324997466
30
0
41
1
10
20.7262405723857
20
-0.285677659120324
30
0
41
1
10
20.9060527194967
20
-0.393314276266779
30
0
41
1
10
20.9956263252286
20
-0.446479110001832
30
0
41
1
10
21.442294246004
20
-0.708443994265764
30
0
41
1
10
21.7956883930838
20
-0.905737612818712
30
0
41
1
10
22.3291710995515
20
-1.16918856709117
30
0
41
1
10
22.5075181255334
20
-1.25170611049859
30
0
41
1
10
22.7768620678234
20
-1.36596720130189
30
0
41
1
10
22.8672042338561
20
-1.40255909194826
30
0
41
1
10
23.0471114983063
20
-1.47164741938272
30
0
41
1
10
23.1367074012414
20
-1.50416837638849
30
0
41
1
10
23.5833856472854
20
-1.6563233732912
30
0
41
1
10
23.936761474702
20
-1.74440861365866
30
0
41
1
10
24.4699597384901
20
-1.82165315777107
30
0
41
1
10
24.6481785591326
20
-1.83826853967722
30
0
41
1
10
25.00689017229
20
-1.85216358042442
30
0
41
1
10
25.1875837040663
20
-1.84935096452315
30
0
41
1
10
25.3676315651249
20
-1.83659060630802
30
0
0
SPLINE
5
C4
100
AcDbEntity
8
1
62
256
6
ByLayer
370
18
48
1
60
0
100
AcDbSpline
70
4
71
3
72
10
73
6
40
0
40
0
40
0
40
0
40
0.5
40
0.5
40
1
40
1
40
1
40
1
41
1
10
8.11161162300192
20
1.4035192758717
30
0
41
1
10
8.09441799694747
20
1.41217131856101
30
0
41
1
10
8.0796240549746
20
1.42258148940149
30
0
41
1
10
8.05800583469644
20
1.44599254893316
30
0
41
1
10
8.05112790458102
20
1.45904378567857
30
0
41
1
10
8.05113741252552
20
1.47217691168399
30
0
0
SPLINE
5
C5
100
AcDbEntity
8
1
62
256
6
ByLayer
370
18
48
1
60
0
100
AcDbSpline
70
4
71
3
72
62
73
58
40
0
40
0
40
0
40
0
40
0.0494605463794139
40
0.0494605463794139
40
0.0886548093301043
40
0.0886548093301043
40
0.127849072280795
40
0.127849072280795
40
0.14744620375614
40
0.14744620375614
40
0.167043335231485
40
0.167043335231485
40
0.206237598182175
40
0.206237598182175
40
0.245431861132866
40
0.245431861132866
40
0.265028992608212
40
0.265028992608212
40
0.284626124083557
40
0.284626124083557
40
0.323820387034249
40
0.323820387034249
40
0.363014649984941
40
0.363014649984941
40
0.441403175886324
40
0.441403175886324
40
0.480597438837016
40
0.480597438837016
40
0.519791701787708
40
0.519791701787708
40
0.5589859647384
40
0.5589859647384
40
0.598180227689091
40
0.598180227689091
40
0.637374490639783
40
0.637374490639783
40
0.656971622115129
40
0.656971622115129
40
0.676568753590475
40
0.676568753590475
40
0.715763016541167
40
0.715763016541167
40
0.754957279491858
40
0.754957279491858
40
0.79415154244255
40
0.79415154244255
40
0.833345805393242
40
0.833345805393242
40
0.872540068343933
40
0.872540068343933
40
0.911734331294625
40
0.911734331294625
40
0.950928594245317
40
0.950928594245317
40
0.990122857196009
40
0.990122857196009
40
1
40
1
40
1
40
1
41
1
10
22.5326357746676
20
-1.39986916251522
30
0
41
1
10
22.3430682638648
20
-1.46590363769707
30
0
41
1
10
22.1530040159024
20
-1.52410795907338
30
0
41
1
10
21.8133614713064
20
-1.6093114765365
30
0
41
1
10
21.6632717728584
20
-1.63992003515816
30
0
41
1
10
21.3621537405228
20
-1.69178228085664
30
0
41
1
10
21.2116880579003
20
-1.71273172682027
30
0
41
1
10
20.9875024933685
20
-1.73376930034382
30
0
41
1
10
20.9129089505079
20
-1.73909787487801
30
0
41
1
10
20.7639086529779
20
-1.74591396536346
30
0
41
1
10
20.689499141305
20
-1.74719832674901
30
0
41
1
10
20.4665586368068
20
-1.74714907667899
30
0
41
1
10
20.3181973554033
20
-1.74194064399333
30
0
41
1
10
20.0208833115643
20
-1.71919346600706
30
0
41
1
10
19.8723258947495
20
-1.7018141303613
30
0
41
1
10
19.6481835687366
20
-1.664681027585
30
0
41
1
10
19.5731988022099
20
-1.65030601525416
30
0
41
1
10
19.4229511740038
20
-1.61939904408234
30
0
41
1
10
19.347565027422
20
-1.60263163936415
30
0
41
1
10
19.1219768166974
20
-1.54805541566969
30
0
41
1
10
18.9719557629924
20
-1.5062192754043
30
0
41
1
10
18.6716886160503
20
-1.41161838244616
30
0
41
1
10
18.5217091871016
20
-1.35820834777996
30
0
41
1
10
18.0698160410521
20
-1.18346002903621
30
0
41
1
10
17.7717013199875
20
-1.04932870343808
30
0
41
1
10
17.3256427122087
20
-0.830151969340108
30
0
41
1
10
17.1773116185623
20
-0.753399993077949
30
0
41
1
10
16.8796343601802
20
-0.595010406423455
30
0
41
1
10
16.7303194281394
20
-0.513467627033037
30
0
41
1
10
16.4311430128077
20
-0.346020364069091
30
0
41
1
10
16.2802655858608
20
-0.260452941296648
30
0
41
1
10
15.9794916894336
20
-0.0881830704811648
30
0
41
1
10
15.8295635040132
20
-0.0013414333134847
30
0
41
1
10
15.529162501269
20
0.171230100883775
30
0
41
1
10
15.3786963778129
20
0.257340159129626
30
0
41
1
10
15.1530743155444
20
0.38531203670135
30
0
41
1
10
15.0779350334921
20
0.427526827991926
30
0
41
1
10
14.9276863542451
20
0.510618648101001
30
0
41
1
10
14.8525531447087
20
0.55132749794376
30
0
41
1
10
14.6273516091244
20
0.672716500737124
30
0
41
1
10
14.4774016603058
20
0.7522097020952
30
0
41
1
10
14.1765319798871
20
0.90524737685061
30
0
41
1
10
14.0261509942322
20
0.978931686760092
30
0
41
1
10
13.726252390316
20
1.11674711567454
30
0
41
1
10
13.5761167178479
20
1.18128899652046
30
0
41
1
10
13.2755800746385
20
1.30180868209399
30
0
41
1
10
13.1250240418737
20
1.35784909158596
30
0
41
1
10
12.8245801951557
20
1.46023106758074
30
0
41
1
10
12.6746886816884
20
1.50662468448488
30
0
41
1
10
12.3744374033587
20
1.58725213691912
30
0
41
1
10
12.2233927346613
20
1.62072631588424
30
0
41
1
10
11.9236671742531
20
1.67617215085565
30
0
41
1
10
11.7744845368036
20
1.69775009915492
30
0
41
1
10
11.4764107851159
20
1.72881182854496
30
0
41
1
10
11.3278350642572
20
1.73871280506009
30
0
41
1
10
11.1416435074792
20
1.74308626088754
30
0
41
1
10
11.1041496879545
20
1.74355694568038
30
0
41
1
10
11.0666367162658
20
1.74360861664664
30
0
0
SPLINE
5
C6
100
AcDbEntity
8
1
62
256
6
ByLayer
370
18
48
1
60
0
100
AcDbSpline
70
4
71
3
72
8
73
4
40
0
40
0
40
0
40
0
40
1
40
1
40
1
40
1
41
1
10
25.3805262305569
20
-1.74815435365591
30
0
41
1
10
25.3742550496664
20
-1.75003871188292
30
0
41
1
10
25.368311088499
20
-1.75098172355132
30
0
41
1
10
25.3626981970574
20
-1.75097231296272
30
0
0
SPLINE
5
C7
100
AcDbEntity
8
1
62
256
6
ByLayer
370
18
48
1
60
0
100
AcDbSpline
70
4
71
3
72
69
73
65
40
0
40
0
40
0
40
0
40
0.0209866292310379
40
0.0209866292310379
40
0.0607857992778819
40
0.0607857992778819
40
0.100584969324726
40
0.100584969324726
40
0.14038413937157
40
0.14038413937157
40
0.180183309418414
40
0.180183309418414
40
0.259781649512102
40
0.259781649512102
40
0.299580819558946
40
0.299580819558946
40
0.33937998960579
40
0.33937998960579
40
0.418978329699478
40
0.418978329699478
40
0.4388779147229
40
0.4388779147229
40
0.448827707234611
40
0.448827707234611
40
0.453802603490467
40
0.45504632755443
40
0.45504632755443
40
0.455668189586412
40
0.455668189586412
40
0.456290051618394
40
0.456290051618394
40
0.458777499746322
40
0.458777499746322
40
0.478677084769745
40
0.478677084769745
40
0.498576669793167
40
0.498576669793167
40
0.578175009886857
40
0.578175009886857
40
0.657773349980547
40
0.657773349980547
40
0.737371690074238
40
0.737371690074238
40
0.75727127509766
40
0.75727127509766
40
0.777170860121083
40
0.777170860121083
40
0.779658308249011
40
0.779658308249011
40
0.780280170280993
40
0.780280170280993
40
0.780902032312975
40
0.780902032312975
40
0.782145756376939
40
0.787120652632794
40
0.797070445144506
40
0.797070445144506
40
0.81697003016793
40
0.81697003016793
40
0.896568370261626
40
0.896568370261626
40
0.976166710355322
40
0.976166710355322
40
1
40
1
40
1
40
1
41
1
10
10.631464535726
20
-0.156652839674535
30
0
41
1
10
10.6008591268552
20
-0.138556971235289
30
0
41
1
10
10.5702108238825
20
-0.120638854583547
30
0
41
1
10
10.4812773053439
20
-0.0693533304090295
30
0
41
1
10
10.4226739794477
20
-0.0364844899261243
30
0
41
1
10
10.3069000950135
20
0.0256455117004748
30
0
41
1
10
10.2494990484289
20
0.0550446507033939
30
0
41
1
10
10.1353817079883
20
0.109497845764537
30
0
41
1
10
10.0786664722702
20
0.13455003498018
30
0
41
1
10
9.9654101204419
20
0.1791584416722
30
0
41
1
10
9.90857071431512
20
0.19876083844656
30
0
41
1
10
9.74172257541784
20
0.246416969776618
30
0
41
1
10
9.63410548757665
20
0.263889279133536
30
0
41
1
10
9.47247933823908
20
0.2678192415041
30
0
41
1
10
9.41829296036096
20
0.26537830683344
30
0
41
1
10
9.31105032631237
20
0.25334914687258
30
0
41
1
10
9.25784322975295
20
0.243808521499062
30
0
41
1
10
9.09823245031589
20
0.205407822293807
30
0
41
1
10
8.99120287132902
20
0.166539257752191
30
0
41
1
10
8.85612610451548
20
0.104216593602047
30
0
41
1
10
8.82906358897924
20
0.0910743652180486
30
0
41
1
10
8.78842665770793
20
0.0704240393048394
30
0
41
1
10
8.77487439406403
20
0.0633848294814641
30
0
41
1
10
8.75453019653946
20
0.0525976939681527
30
0
41
1
10
8.74605114680642
20
0.0480560039665363
30
0
41
1
10
8.73756925743612
20
0.0434566267523167
30
0
41
1
10
8.73502452111256
20
0.0420733694212174
30
0
41
1
10
8.73370966418048
20
0.0416242727577298
30
0
41
1
10
8.73468839122222
20
0.0400047121884768
30
0
41
1
10
8.73544631440723
20
0.0393299114055594
30
0
41
1
10
8.73909830240279
20
0.0359567554080513
30
0
41
1
10
8.74236635289148
20
0.0335285813885378
30
0
41
1
10
8.77160330915666
20
0.0116925472396474
30
0
41
1
10
8.79922433097749
20
-0.0061109076226842
30
0
41
1
10
8.85391946572059
20
-0.0421998402902091
30
0
41
1
10
8.88142139866258
20
-0.0600859244720198
30
0
41
1
10
9.01920303571609
20
-0.149231422522945
30
0
41
1
10
9.13033144376982
20
-0.219621803839402
30
0
41
1
10
9.3524834808822
20
-0.360954373394378
30
0
41
1
10
9.46359901899871
20
-0.431802199797289
30
0
41
1
10
9.68597582355798
20
-0.573718647005478
30
0
41
1
10
9.79705392730682
20
-0.644995755718497
30
0
41
1
10
9.93502925999564
20
-0.735755603123579
30
0
41
1
10
9.96257912102533
20
-0.753998501158662
30
0
41
1
10
10.0174182307597
20
-0.79092512499065
30
0
41
1
10
10.0450590765576
20
-0.8090954615665
30
0
41
1
10
10.0746211994355
20
-0.831863098191576
30
0
41
1
10
10.0779163129814
20
-0.834395055024089
30
0
41
1
10
10.0816874335495
20
-0.837984434066243
30
0
41
1
10
10.0824508998165
20
-0.838706484942179
30
0
41
1
10
10.0836186645305
20
-0.840455583755585
30
0
41
1
10
10.0826971958421
20
-0.841371198641525
30
0
41
1
10
10.0806797948051
20
-0.843772681969767
30
0
41
1
10
10.0739573461306
20
-0.851773464405881
30
0
41
1
10
10.0565088713116
20
-0.872518982064804
30
0
41
1
10
10.0404684378877
20
-0.891533056733778
30
0
41
1
10
10.0084875633437
20
-0.92933498482688
30
0
41
1
10
9.98729087118215
20
-0.95424704739284
30
0
41
1
10
9.88169605195372
20
-1.07716256329257
30
0
41
1
10
9.80062174198022
20
-1.16825668648383
30
0
41
1
10
9.63631820155462
20
-1.3282835901914
30
0
41
1
10
9.5522452035066
20
-1.39772240044786
30
0
41
1
10
9.43575852570115
20
-1.45774927393873
30
0
41
1
10
9.40809652995313
20
-1.46960506509009
30
0
41
1
10
9.37968883455866
20
-1.47916323772864
30
0
0
SPLINE
5
C8
100
AcDbEntity
8
1
62
256
6
ByLayer
370
18
48
1
60
0
100
AcDbSpline
70
4
71
3
72
60
73
56
40
0
40
0
40
0
40
0
40
0.0352713952021013
40
0.0352713952021013
40
0.0749249839303846
40
0.0749249839303846
40
0.114578572658668
40
0.114578572658668
40
0.154232161386951
40
0.154232161386951
40
0.193885750115235
40
0.193885750115235
40
0.233539338843518
40
0.233539338843518
40
0.273192927571802
40
0.273192927571802
40
0.293019721935944
40
0.293019721935944
40
0.312846516300086
40
0.312846516300086
40
0.352500105028369
40
0.352500105028369
40
0.392153693756653
40
0.392153693756653
40
0.431807282484936
40
0.431807282484936
40
0.47146087121322
40
0.47146087121322
40
0.511114459941503
40
0.511114459941503
40
0.550768048669786
40
0.550768048669786
40
0.59042163739807
40
0.59042163739807
40
0.630075226126353
40
0.630075226126353
40
0.669728814854637
40
0.669728814854637
40
0.70938240358292
40
0.70938240358292
40
0.749035992311203
40
0.749035992311203
40
0.788689581039487
40
0.788689581039487
40
0.82834316976777
40
0.82834316976777
40
0.867996758496054
40
0.867996758496054
40
0.907650347224337
40
0.907650347224337
40
0.94730393595262
40
0.94730393595262
40
0.986957524680904
40
0.986957524680904
40
1
40
1
40
1
40
1
41
1
10
12.9990202940941
20
1.40393382001778
30
0
41
1
10
13.1361038775715
20
1.45787264741989
30
0
41
1
10
13.2726295743843
20
1.5076395018209
30
0
41
1
10
13.562949666926
20
1.60297953717247
30
0
41
1
10
13.7170095487512
20
1.6471605569773
30
0
41
1
10
14.0251024218226
20
1.72344747766587
30
0
41
1
10
14.1799875132696
20
1.75505236283513
30
0
41
1
10
14.4911857763503
20
1.80439545374088
30
0
41
1
10
14.6453232070818
20
1.82203820215275
30
0
41
1
10
14.9533481649019
20
1.84281006582242
30
0
41
1
10
15.1069715048058
20
1.8461074171008
30
0
41
1
10
15.4133507366626
20
1.83849192935349
30
0
41
1
10
15.5669239512945
20
1.82764728864507
30
0
41
1
10
15.8744928417172
20
1.79187799652499
30
0
41
1
10
16.0283429902792
20
1.76678121597641
30
0
41
1
10
16.2611427509379
20
1.71896016645084
30
0
41
1
10
16.3391254674333
20
1.70126182840835
30
0
41
1
10
16.4941927408839
20
1.66260570087095
30
0
41
1
10
16.5713615811566
20
1.64157898307164
30
0
41
1
10
16.8025636610037
20
1.57404259226939
30
0
41
1
10
16.9565256620066
20
1.52335802465339
30
0
41
1
10
17.2632122288413
20
1.41006318389847
30
0
41
1
10
17.4162628806133
20
1.34769792767778
30
0
41
1
10
17.7235468812651
20
1.21359492229763
30
0
41
1
10
17.8770853199592
20
1.14100355424765
30
0
41
1
10
18.18614561076
20
0.987284270818037
30
0
41
1
10
18.3423565753576
20
0.906010271150762
30
0
41
1
10
18.6514671566699
20
0.736978811305988
30
0
41
1
10
18.8053552386239
20
0.649911992006679
30
0
41
1
10
19.1126619260221
20
0.472141537240105
30
0
41
1
10
19.2655113583392
20
0.380509863183846
30
0
41
1
10
19.5723582068019
20
0.196240261645471
30
0
41
1
10
19.7260034224946
20
0.103042539143246
30
0
41
1
10
20.0339262848053
20
-0.0852408280612451
30
0
41
1
10
20.1893406570369
20
-0.179538821848268
30
0
41
1
10
20.499825244576
20
-0.366436846815873
30
0
41
1
10
20.6537109255863
20
-0.458891212594068
30
0
41
1
10
20.9614659199049
20
-0.637506932812329
30
0
41
1
10
21.1147163834525
20
-0.724696359180939
30
0
41
1
10
21.4210380561858
20
-0.893137376845715
30
0
41
1
10
21.5746402742444
20
-0.973623625017865
30
0
41
1
10
21.8820791669103
20
-1.12803242654982
30
0
41
1
10
22.0361001467251
20
-1.20164881987094
30
0
41
1
10
22.3467657823654
20
-1.33889198486739
30
0
41
1
10
22.5016835788152
20
-1.40288783248255
30
0
41
1
10
22.8096907891808
20
-1.51826688975555
30
0
41
1
10
22.9634762613383
20
-1.56971985864152
30
0
41
1
10
23.2697690812588
20
-1.66104311700735
30
0
41
1
10
23.4229466831722
20
-1.70030704701142
30
0
41
1
10
23.7301533097261
20
-1.76561280833818
30
0
41
1
10
23.88364428504
20
-1.79189943864677
30
0
41
1
10
24.1930358054788
20
-1.83016733434866
30
0
41
1
10
24.3490472481773
20
-1.84229507221113
30
0
41
1
10
24.554201512456
20
-1.84871482673429
30
0
41
1
10
24.6049550200826
20
-1.84951908598947
30
0
41
1
10
24.6556804751002
20
-1.84954537698187
30
0
0
SPLINE
5
C9
100
AcDbEntity
8
1
62
256
6
ByLayer
370
18
48
1
60
0
100
AcDbSpline
70
4
71
3
72
8
73
4
40
0
40
0
40
0
40
0
40
1
40
1
40
1
40
1
41
1
10
25.3672666306111
20
-1.83754018882743
30
0
41
1
10
25.3673882799469
20
-1.83722366801771
30
0
41
1
10
25.3675099247865
20
-1.83690714050618
30
0
41
1
10
25.3676315651248
20
-1.83659060630745
30
0
0
SPLINE
5
CA
100
AcDbEntity
8
1
62
256
6
ByLayer
370
18
48
1
60
0
100
AcDbSpline
70
4
71
3
72
8
73
4
40
0
40
0
40
0
40
0
40
1
40
1
40
1
40
1
41
1
10
25.3672666306095
20
1.83754018884304
30
0
41
1
10
25.2500886090509
20
1.84578498161483
30
0
41
1
10
25.133232181984
20
1.84984679614664
30
0
41
1
10
25.016510504589
20
1.84977782409541
30
0
0
SPLINE
5
CB
100
AcDbEntity
8
1
62
256
6
ByLayer
370
18
48
1
60
0
100
AcDbSpline
70
4
71
3
72
36
73
32
40
0
40
0
40
0
40
0
40
0.0146489115849314
40
0.0146489115849314
40
0.0474939478654353
40
0.0474939478654353
40
0.0803389841459392
40
0.0803389841459392
40
0.211719129267949
40
0.211719129267949
40
0.277409201828953
40
0.277409201828953
40
0.310254238109455
40
0.310254238109455
40
0.343099274389957
40
0.343099274389957
40
0.474479419511967
40
0.474479419511967
40
0.540169492072971
40
0.540169492072971
40
0.605859564633977
40
0.605859564633977
40
0.737239709755986
40
0.737239709755986
40
0.770084746036487
40
0.770084746036487
40
0.802929782316988
40
0.802929782316988
40
0.868619854877992
40
0.868619854877992
40
1
40
1
40
1
40
1
41
1
10
16.3629769798075
20
-1.76963853956045
30
0
41
1
10
16.3230868243401
20
-1.77646195254405
30
0
41
1
10
16.2831585216155
20
-1.78283081953589
30
0
41
1
10
16.153555421478
20
-1.80198763293234
30
0
41
1
10
16.063691369766
20
-1.81292153017932
30
0
41
1
10
15.8833650013285
20
-1.83003118452893
30
0
41
1
10
15.7929556720469
20
-1.8361867236442
30
0
41
1
10
15.3434497201966
20
-1.85459719133428
30
0
41
1
10
14.988046231355
20
-1.83030268054918
30
0
41
1
10
14.452982224683
20
-1.7383502540761
30
0
41
1
10
14.2741928785905
20
-1.69847856067705
30
0
41
1
10
14.0043254806197
20
-1.62516068816086
30
0
41
1
10
13.9138587754193
20
-1.5983888138646
30
0
41
1
10
13.7335585698042
20
-1.54077506118961
30
0
41
1
10
13.6437378268549
20
-1.50997662628012
30
0
41
1
10
13.1956881740346
20
-1.34675525854163
30
0
41
1
10
12.8406537696103
20
-1.18666330261132
30
0
41
1
10
12.3045174929696
20
-0.913351195122573
30
0
41
1
10
12.125253140368
20
-0.816641325462939
30
0
41
1
10
11.7639235280624
20
-0.614148068102708
30
0
41
1
10
11.5842559145386
20
-0.509654811087529
30
0
41
1
10
11.0479507260555
20
-0.191268959780899
30
0
41
1
10
10.6927088025455
20
0.027239911028289
30
0
41
1
10
10.2449391892779
20
0.297183516396189
30
0
41
1
10
10.1551720703134
20
0.350967029628379
30
0
41
1
10
9.97499124677665
20
0.457754486123406
30
0
41
1
10
9.88443109738802
20
0.510849594510063
30
0
41
1
10
9.6141739773357
20
0.666999723915467
30
0
41
1
10
9.43513936951794
20
0.76740893430528
30
0
41
1
10
8.89949729593431
20
1.05486960277315
30
0
41
1
10
8.54383800624487
20
1.22737955270699
30
0
41
1
10
8.18368520485353
20
1.37256705177376
30
0
0
SPLINE
5
CC
100
AcDbEntity
8
1
62
256
6
ByLayer
370
18
48
1
60
0
100
AcDbSpline
70
4
71
3
72
26
73
22
40
0
40
0
40
0
40
0
40
0.102710670588426
40
0.102710670588426
40
0.205421341176851
40
0.205421341176851
40
0.308132011765276
40
0.308132011765276
40
0.410842682353702
40
0.410842682353702
40
0.513553352942128
40
0.513553352942128
40
0.616264023530553
40
0.616264023530553
40
0.718974694118979
40
0.718974694118979
40
0.821685364707404
40
0.821685364707404
40
0.92439603529583
40
0.92439603529583
40
1
40
1
40
1
40
1
41
1
10
10.6313292545107
20
-0.156572854120128
30
0
41
1
10
10.7866717192283
20
-0.251283726909037
30
0
41
1
10
10.9416512606619
20
-0.343741935436754
30
0
41
1
10
11.2501485757007
20
-0.52565985116405
30
0
41
1
10
11.4035242790038
20
-0.615295188585065
30
0
41
1
10
11.7112175376396
20
-0.787702587481107
30
0
41
1
10
11.8649189835517
20
-0.87145324063593
30
0
41
1
10
12.1730787332771
20
-1.03235542521386
30
0
41
1
10
12.3281602023141
20
-1.10879165135972
30
0
41
1
10
12.6392135163019
20
-1.25411408698338
30
0
41
1
10
12.7936152652561
20
-1.32184416726435
30
0
41
1
10
13.1021816157249
20
-1.44543096210424
30
0
41
1
10
13.2556494061772
20
-1.50206327792617
30
0
41
1
10
13.562949666926
20
-1.60297953717244
30
0
41
1
10
13.7170095487512
20
-1.6471605569773
30
0
41
1
10
14.0251024218225
20
-1.72344747766587
30
0
41
1
10
14.1799875132696
20
-1.75505236283513
30
0
41
1
10
14.4911857763503
20
-1.80439545374088
30
0
41
1
10
14.6453232070818
20
-1.82203820215275
30
0
41
1
10
14.9127022325523
20
-1.84006908089876
30
0
41
1
10
15.0258579343696
20
-1.84387326673846
30
0
41
1
10
15.1387850096534
20
-1.84383010500267
30
0
0
SPLINE
5
CD
100
AcDbEntity
8
1
62
256
6
ByLayer
370
18
48
1
60
0
100
AcDbSpline
70
4
71
3
72
20
73
16
40
0
40
0
40
0
40
0
40
0.043338409634032
40
0.043338409634032
40
0.20278200802836
40
0.20278200802836
40
0.362225606422688
40
0.362225606422688
40
0.521669204817016
40
0.521669204817016
40
0.681112803211344
40
0.681112803211344
40
0.840556401605673
40
0.840556401605673
40
1
40
1
40
1
40
1
41
1
10
22.5299152938681
20
1.4121715402938
30
0
41
1
10
22.5719001157111
20
1.42875023080558
30
0
41
1
10
22.6138274204593
20
1.44489675400268
30
0
41
1
10
22.8096907891808
20
1.51826688975555
30
0
41
1
10
22.9634762613382
20
1.56971985864152
30
0
41
1
10
23.2697690812588
20
1.66104311700732
30
0
41
1
10
23.4229466831722
20
1.70030704701142
30
0
41
1
10
23.7301533097261
20
1.76561280833818
30
0
41
1
10
23.8836442850399
20
1.79189943864677
30
0
41
1
10
24.1930358054788
20
1.83016733434866
30
0
41
1
10
24.3490472481773
20
1.84229507221113
30
0
41
1
10
24.6578028627995
20
1.85195675416784
30
0
41
1
10
24.8119685337234
20
1.84953450121029
30
0
41
1
10
25.1195887587845
20
1.83055961500358
30
0
41
1
10
25.2728744096698
20
1.81385663320796
30
0
41
1
10
25.4269325354336
20
1.79032595768393
30
0
0
SPLINE
5
CE
100
AcDbEntity
8
1
62
256
6
ByLayer
370
18
48
1
60
0
100
AcDbSpline
70
4
71
3
72
24
73
20
40
0
40
0
40
0
40
0
40
0.0625000000000001
40
0.0625000000000001
40
0.125
40
0.125
40
0.25
40
0.25
40
0.3125
40
0.3125
40
0.375
40
0.375
40
0.5
40
0.5
40
0.625
40
0.625
40
0.75
40
0.75
40
1
40
1
40
1
40
1
41
1
10
23.7584024846295
20
0.876148780709087
30
0
41
1
10
23.7605771891766
20
0.831959787036027
30
0
41
1
10
23.7654606800262
20
0.786879983852401
30
0
41
1
10
23.7805428194527
20
0.694972438542862
30
0
41
1
10
23.7908505845288
20
0.647783935862407
30
0
41
1
10
23.8288375972937
20
0.506804513485861
30
0
41
1
10
23.8632902652686
20
0.413617091269145
30
0
41
1
10
23.9264098095705
20
0.274837205931647
30
0
41
1
10
23.9494321014461
20
0.22868551799931
30
0
41
1
10
23.9980145572788
20
0.138630384795221
30
0
41
1
10
24.0236888798425
20
0.0944646449047752
30
0
41
1
10
24.1043947914642
20
-0.0357376779834624
30
0
41
1
10
24.1630781123326
20
-0.119498812931738
30
0
41
1
10
24.288507859753
20
-0.281996842534852
30
0
41
1
10
24.354368552798
20
-0.359566565751919
30
0
41
1
10
24.4897706143706
20
-0.507237297374473
30
0
41
1
10
24.559561793638
20
-0.577622483604586
30
0
41
1
10
24.7742805741396
20
-0.779954723095727
30
0
41
1
10
24.9251812758726
20
-0.903675903147075
30
0
41
1
10
25.0789197447393
20
-1.015199327586
30
0
0
SPLINE
5
CF
100
AcDbEntity
8
1
62
256
6
ByLayer
370
13
48
1
60
0
100
AcDbSpline
70
4
71
3
72
16
73
12
40
0
40
0
40
0
40
0
40
0.298049024217503
40
0.298049024217503
40
0.447073536326254
40
0.447073536326254
40
0.596098048435005
40
0.596098048435005
40
0.894147072652507
40
0.894147072652507
40
1
40
1
40
1
40
1
41
1
10
8.25045255734517
20
1.34611931228776
30
0
41
1
10
8.25049603203644
20
1.42209162712817
30
0
41
1
10
8.2505242863412
20
1.48759900569272
30
0
41
1
10
8.25055359643093
20
1.5704312934046
30
0
41
1
10
8.25056118497284
20
1.59552500251863
30
0
41
1
10
8.2505732898577
20
1.63955999150733
30
0
41
1
10
8.25057785634149
20
1.65862161412861
30
0
41
1
10
8.25058948855937
20
1.70712702764928
30
0
41
1
10
8.25059457304354
20
1.72802533219164
30
0
41
1
10
8.25060504823358
20
1.73985279093085
30
0
41
1
10
8.25060811261577
20
1.74140802245378
30
0
41
1
10
8.25061165197718
20
1.74143525491849
30
0
0
SPLINE
5
D0
100
AcDbEntity
8
1
62
256
6
ByLayer
370
18
48
1
60
0
100
AcDbSpline
70
4
71
3
72
36
73
32
40
0
40
0
40
0
40
0
40
0.0525491182514762
40
0.0525491182514762
40
0.119151410632514
40
0.119151410632514
40
0.252355995394592
40
0.252355995394592
40
0.285657141585111
40
0.285657141585111
40
0.31895828777563
40
0.31895828777563
40
0.385560580156671
40
0.385560580156671
40
0.518765164918754
40
0.518765164918754
40
0.585367457299796
40
0.585367457299796
40
0.651969749680838
40
0.651969749680838
40
0.785174334442921
40
0.785174334442921
40
0.818475480633441
40
0.818475480633441
40
0.85177662682396
40
0.85177662682396
40
0.918378919205
40
0.918378919205
40
0.98498121158604
40
0.98498121158604
40
1
40
1
40
1
40
1
41
1
10
8.31264068547463
20
1.31886434768532
30
0
41
1
10
8.45493522263854
20
1.25885744747612
30
0
41
1
10
8.59714313041397
20
1.19447724031536
30
0
41
1
10
8.92012534924777
20
1.03955461841829
30
0
41
1
10
9.10004711533946
20
0.947097680065127
30
0
41
1
10
9.63642449579635
20
0.658339225687911
30
0
41
1
10
9.99135462903504
20
0.449968203545041
30
0
41
1
10
10.4383908054995
20
0.180434230193299
30
0
41
1
10
10.5279989501352
20
0.126132646400038
30
0
41
1
10
10.7078462051018
20
0.0170919347914662
30
0
41
1
10
10.7983040799793
20
-0.0378201346292144
30
0
41
1
10
11.0686594299337
20
-0.201691816246466
30
0
41
1
10
11.2475790398189
20
-0.309765720289675
30
0
41
1
10
11.7827405088543
20
-0.626825251022439
30
0
41
1
10
12.1375340623859
20
-0.828354456887325
30
0
41
1
10
12.6756776031363
20
-1.1016860161543
30
0
41
1
10
12.8568184904153
20
-1.18831469424413
30
0
41
1
10
13.2158376063813
20
-1.34679506833635
30
0
41
1
10
13.3943212311483
20
-1.418965215681
30
0
41
1
10
13.9288154731063
20
-1.61200137422463
30
0
41
1
10
14.2842529554988
20
-1.70927244059987
30
0
41
1
10
14.7343896831631
20
-1.78565419018761
30
0
41
1
10
14.8247846028388
20
-1.79862823588462
30
0
41
1
10
15.0045741391813
20
-1.81961887778823
30
0
41
1
10
15.0942340794751
20
-1.82765789311955
30
0
41
1
10
15.362595576327
20
-1.84455021122559
30
0
41
1
10
15.5407068058984
20
-1.84619848477206
30
0
41
1
10
15.8967304496357
20
-1.83048530909306
30
0
41
1
10
16.0747875181096
20
-1.8131992060097
30
0
41
1
10
16.2938810797506
20
-1.78037581740546
30
0
41
1
10
16.3342305669266
20
-1.77385533308933
30
0
41
1
10
16.3746232812008
20
-1.76685492315849
30
0
0
SPLINE
5
D1
100
AcDbEntity
8
1
62
256
6
ByLayer
370
18
48
1
60
0
100
AcDbSpline
70
4
71
3
72
26
73
22
40
0
40
0
40
0
40
0
40
0.249999999999995
40
0.249999999999995
40
0.49999999999999
40
0.49999999999999
40
0.624999999999988
40
0.624999999999988
40
0.68749999999999
40
0.68749999999999
40
0.749999999999993
40
0.749999999999993
40
0.812499999999996
40
0.812499999999996
40
0.874999999999999
40
0.874999999999999
40
0.937500000000002
40
0.937500000000002
40
0.968750000000001
40
0.968750000000001
40
1
40
1
40
1
40
1
41
1
10
23.7584024846309
20
0.876148780709514
30
0
41
1
10
23.8716365680711
20
0.765073794349803
30
0
41
1
10
23.989292109824
20
0.663675437559419
30
0
41
1
10
24.2329168217806
20
0.482567535416024
30
0
41
1
10
24.3562149385375
20
0.405089095855203
30
0
41
1
10
24.5431467949155
20
0.311151177431896
30
0
41
1
10
24.6058181471322
20
0.283576088426599
30
0
41
1
10
24.7004465482296
20
0.248651483507814
30
0
41
1
10
24.7321512848459
20
0.23808169681007
30
0
41
1
10
24.7948620479267
20
0.219563308228828
30
0
41
1
10
24.8260469720682
20
0.211189885488778
30
0
41
1
10
24.8875590196017
20
0.19890054965586
30
0
41
1
10
24.9178550075238
20
0.195146430147275
30
0
41
1
10
24.9770617165809
20
0.194836646099247
30
0
41
1
10
25.0059206684143
20
0.199047447750331
30
0
41
1
10
25.0576775065559
20
0.21803337605698
30
0
41
1
10
25.0812384841917
20
0.232626277011462
30
0
41
1
10
25.1085071546236
20
0.263824201967395
30
0
41
1
10
25.116375870019
20
0.276076840202478
30
0
41
1
10
25.1287312477747
20
0.303268106283696
30
0
41
1
10
25.133244758511
20
0.318089135725245
30
0
41
1
10
25.1362542758217
20
0.334017611590156
30
0
0
SPLINE
5
D2
100
AcDbEntity
8
1
62
256
6
ByLayer
370
18
48
1
60
0
100
AcDbSpline
70
4
71
3
72
16
73
12
40
0
40
0
40
0
40
0
40
0.323673270577441
40
0.323673270577441
40
0.647346541154882
40
0.647346541154882
40
0.809183176443603
40
0.809183176443603
40
0.971019811732324
40
0.971019811732324
40
1
40
1
40
1
40
1
41
1
10
8.05113741252657
20
1.4721769116928
30
0
41
1
10
8.05119277904259
20
1.54865352144827
30
0
41
1
10
8.0512339446482
20
1.61399009679096
30
0
41
1
10
8.05129843827396
20
1.72206375623907
30
0
41
1
10
8.05132098897798
20
1.76334752468407
30
0
41
1
10
8.05134892068065
20
1.80626202793243
30
0
41
1
10
8.05135724759796
20
1.81741521692967
30
0
41
1
10
8.05137323223511
20
1.8332605549999
30
0
41
1
10
8.05138089847213
20
1.83790623776974
30
0
41
1
10
8.05139004037338
20
1.83942718145124
30
0
41
1
10
8.05139143389323
20
1.8395533807757
30
0
41
1
10
8.05139283501433
20
1.83957477951176
30
0
0
SPLINE
5
D3
100
AcDbEntity
8
1
62
256
6
ByLayer
370
18
48
1
60
0
100
AcDbSpline
70
4
71
3
72
18
73
14
40
0
40
0
40
0
40
0
40
0.185511669882598
40
0.185511669882598
40
0.287322711147273
40
0.287322711147273
40
0.389133752411949
40
0.389133752411949
40
0.592755834941299
40
0.592755834941299
40
0.79637791747065
40
0.79637791747065
40
1
40
1
40
1
40
1
41
1
10
8.05139280712845
20
-1.83957433976809
30
0
41
1
10
8.05140706308771
20
-1.83980623047737
30
0
41
1
10
8.05142210435636
20
-1.82918717770991
30
0
41
1
10
8.05145069950814
20
-1.79592191421261
30
0
41
1
10
8.05146191552856
20
-1.78071477715687
30
0
41
1
10
8.05148645888693
20
-1.74416220813282
30
0
41
1
10
8.05149978979537
20
-1.72283901333807
30
0
41
1
10
8.05154316131274
20
-1.64994464848155
30
0
41
1
10
8.05157685724046
20
-1.58924026106439
30
0
41
1
10
8.05165111303859
20
-1.44433458307233
30
0
41
1
10
8.05169062185553
20
-1.3621467894215
30
0
41
1
10
8.0517677380912
20
-1.17891795458783
30
0
41
1
10
8.05180566233747
20
-1.07659315506982
30
0
41
1
10
8.05183606113542
20
-0.968717053897052
30
0
0
SPLINE
5
D4
100
AcDbEntity
8
1
62
256
6
ByLayer
370
18
48
1
60
0
100
AcDbSpline
70
4
71
3
72
12
73
8
40
0
40
0
40
0
40
0
40
0.499999999999999
40
0.499999999999999
40
0.75
40
0.75
40
1
40
1
40
1
40
1
41
1
10
8.25107191797625
20
-1.01455382931511
30
0
41
1
10
8.21420127570309
20
-0.99554955289895
30
0
41
1
10
8.17809025341671
20
-0.981697506049642
30
0
41
1
10
8.12594915464518
20
-0.969433488544212
30
0
41
1
10
8.10949843448554
20
-0.966941194106198
30
0
41
1
10
8.07871037395168
20
-0.965252664152644
30
0
41
1
10
8.06425400924547
20
-0.966116925764766
30
0
41
1
10
8.05183606113545
20
-0.968717053897052
30
0
0
SPLINE
5
D5
100
AcDbEntity
8
1
62
256
6
ByLayer
370
18
48
1
60
0
100
AcDbSpline
70
4
71
3
72
16
73
12
40
0
40
0
40
0
40
0
40
0.25
40
0.25
40
0.5
40
0.5
40
0.75
40
0.75
40
0.875
40
0.875
40
1
40
1
40
1
40
1
41
1
10
25.7672100084806
20
0.88203039300592
30
0
41
1
10
25.7389034337582
20
0.957772454457029
30
0
41
1
10
25.7105698833225
20
1.03349419100343
30
0
41
1
10
25.6540257722564
20
1.18503428252734
30
0
41
1
10
25.6257623385128
20
1.26081181280418
30
0
41
1
10
25.5691087240729
20
1.41226228389886
30
0
41
1
10
25.5408059467255
20
1.488007257623
30
0
41
1
10
25.4983598970554
20
1.60163118484414
30
0
41
1
10
25.4841797107094
20
1.63948688787036
30
0
41
1
10
25.4556159350168
20
1.71498093219236
30
0
41
1
10
25.4413287446356
20
1.75275229820562
30
0
41
1
10
25.4269325354453
20
1.7903259576826
30
0
0
SPLINE
5
D6
100
AcDbEntity
8
1
62
256
6
ByLayer
370
18
48
1
60
0
100
AcDbSpline
70
4
71
3
72
18
73
14
40
0
40
0
40
0
40
0
40
0.250000000000001
40
0.250000000000001
40
0.375
40
0.375
40
0.499999999999999
40
0.499999999999999
40
0.749999999999999
40
0.749999999999999
40
0.875
40
0.875
40
1
40
1
40
1
40
1
41
1
10
25.3626981970573
20
-1.75097231296272
30
0
41
1
10
25.3114819597325
20
-1.75092539294678
30
0
41
1
10
25.265424939765
20
-1.73605126907614
30
0
41
1
10
25.2049732042408
20
-1.68892720543423
30
0
41
1
10
25.1865336342305
20
-1.66918584444568
30
0
41
1
10
25.1536113544485
20
-1.62214919237581
30
0
41
1
10
25.1390389757485
20
-1.59478834182556
30
0
41
1
10
25.101166528155
20
-1.50081526690673
30
0
41
1
10
25.0837254255115
20
-1.42098175821369
30
0
41
1
10
25.0716933652276
20
-1.28311675992134
30
0
41
1
10
25.069927988776
20
-1.23397997675443
30
0
41
1
10
25.0709587976722
20
-1.12924231363425
30
0
41
1
10
25.0738019566084
20
-1.07325504713256
30
0
41
1
10
25.0789197447393
20
-1.015199327586
30
0
0
SPLINE
5
D7
100
AcDbEntity
8
1
62
256
6
ByLayer
370
18
48
1
60
0
100
AcDbSpline
70
4
71
3
72
8
73
4
40
0
40
0
40
0
40
0
40
1
40
1
40
1
40
1
41
1
10
8.05113741251455
20
1.47217691170417
30
0
41
1
10
8.06949536581226
20
1.44502303565881
30
0
41
1
10
8.09209319834062
20
1.42158715949569
30
0
41
1
10
8.119261206945
20
1.40283760200961
30
0
0
SPLINE
5
D8
100
AcDbEntity
8
SK1
62
256
6
ByLayer
370
18
48
1
60
0
100
AcDbSpline
70
4
71
3
72
14
73
10
40
0
40
0
40
0
40
0
40
0.500000000000001
40
0.500000000000001
40
0.75
40
0.75
40
0.875
40
0.875
40
1
40
1
40
1
40
1
41
1
10
-35.3999999999999
20
0.028090393214228
30
0
41
1
10
-35.3787677796885
20
0.0387269099616674
30
0
41
1
10
-35.3584290958895
20
0.0552149674859379
30
0
41
1
10
-35.3303626450498
20
0.0911148690127277
30
0
41
1
10
-35.3215171954455
20
0.104842666544556
30
0
41
1
10
-35.3102812516991
20
0.129884818296631
30
0
41
1
10
-35.3068890218584
20
0.139014647359005
30
0
41
1
10
-35.3017585680987
20
0.158875847035517
30
0
41
1
10
-35.3
20
0.169832781260737
30
0
41
1
10
-35.3
20
0.180889734021008
30
0
0
SPLINE
5
D9
100
AcDbEntity
8
SK1
62
256
6
ByLayer
370
18
48
1
60
0
100
AcDbSpline
70
4
71
3
72
14
73
10
40
0
40
0
40
0
40
0
40
0.125000000000002
40
0.125000000000002
40
0.250000000000004
40
0.250000000000004
40
0.500000000000005
40
0.500000000000005
40
1
40
1
40
1
40
1
41
1
10
-35.3
20
1.42942748450878
30
0
41
1
10
-35.3
20
1.43908942090604
30
0
41
1
10
-35.3017593723636
20
1.44710155226187
30
0
41
1
10
-35.3069353411979
20
1.45972243197426
30
0
41
1
10
-35.3102739075534
20
1.46441216720251
30
0
41
1
10
-35.3215583577555
20
1.47574166816031
30
0
41
1
10
-35.3303095934912
20
1.47931713402392
30
0
41
1
10
-35.358391202053
20
1.48417470347579
30
0
41
1
10
-35.378655954467
20
1.47940341138204
30
0
41
1
10
-35.4
20
1.46871087454701
30
0
0
SPLINE
5
DA
100
AcDbEntity
8
SK1
62
256
6
ByLayer
370
18
48
1
60
0
100
AcDbSpline
70
4
71
3
72
8
73
4
40
0
40
0
40
0
40
0
40
1
40
1
40
1
40
1
41
1
10
-35.4
20
1.46871087454701
30
0
41
1
10
-35.6037705334182
20
1.36662976105336
30
0
41
1
10
-35.806098623767
20
1.26433191712468
30
0
41
1
10
-36
20
1.16078048025429
30
0
0
SPLINE
5
DB
100
AcDbEntity
8
SK1
62
256
6
ByLayer
370
18
48
1
60
0
100
AcDbSpline
70
4
71
3
72
8
73
4
40
0
40
0
40
0
40
0
40
1
40
1
40
1
40
1
41
1
10
-36
20
0.279840001077758
30
0
41
1
10
-35.8060563521805
20
0.176265989413906
30
0
41
1
10
-35.6037445882294
20
0.0739777227479976
30
0
41
1
10
-35.4
20
-0.028090393214967
30
0
0
SPLINE
5
DC
100
AcDbEntity
8
SK1
62
256
6
ByLayer
370
18
48
1
60
0
100
AcDbSpline
70
4
71
3
72
8
73
4
40
0
40
0
40
0
40
0
40
1
40
1
40
1
40
1
41
1
10
-36
20
-0.279840001077758
30
0
41
1
10
-35.8060563521805
20
-0.176265989413906
30
0
41
1
10
-35.6037445882294
20
-0.0739777227479976
30
0
41
1
10
-35.4
20
0.028090393214967
30
0
0
LINE
5
76
100
AcDbEntity
8
81
62
256
6
ByLayer
370
18
48
1
60
0
100
AcDbLine
10
26
20
0
30
0
11
31
21
0
31
0
39
0
210
0
220
0
230
1
0
LINE
5
77
100
AcDbEntity
8
1
62
256
6
ByLayer
370
18
48
1
60
0
100
AcDbLine
10
8.051384
20
1.839575
30
0
11
1.540023
21
1.835668
31
0
39
0
210
0
220
0
230
1
0
LINE
5
79
100
AcDbEntity
8
1
62
256
6
ByLayer
370
18
48
1
60
0
100
AcDbLine
10
15.49664
20
1.844042
30
0
11
15.134532
21
1.843825
31
0
39
0
210
0
220
0
230
1
0
LINE
5
7A
100
AcDbEntity
8
1
62
256
6
ByLayer
370
18
48
1
60
0
100
AcDbLine
10
25.016312
20
1.849754
30
0
11
24.655481
21
1.849537
31
0
39
0
210
0
220
0
230
1
0
LINE
5
7B
100
AcDbEntity
8
1
62
256
6
ByLayer
370
18
48
1
60
0
100
AcDbLine
10
24.655481
20
-1.849537
30
0
11
25.016348
21
-1.849754
31
0
39
0
210
0
220
0
230
1
0
LINE
5
7C
100
AcDbEntity
8
1
62
256
6
ByLayer
370
18
48
1
60
0
100
AcDbLine
10
15.134532
20
-1.843825
30
0
11
15.496187
21
-1.844042
31
0
39
0
210
0
220
0
230
1
0
LINE
5
7D
100
AcDbEntity
8
1
62
256
6
ByLayer
370
18
48
1
60
0
100
AcDbLine
10
1.540023
20
-1.835668
30
0
11
8.051384
21
-1.839575
31
0
39
0
210
0
220
0
230
1
0
LINE
5
7E
100
AcDbEntity
8
SK1
62
256
6
ByLayer
370
18
48
1
60
0
100
AcDbLine
10
-35.278312
20
3
30
0
11
-36
21
1.75
31
0
39
0
210
0
220
0
230
1
0
LINE
5
80
100
AcDbEntity
8
SK1
62
256
6
ByLayer
370
18
48
1
60
0
100
AcDbLine
10
-36
20
-1.75
30
0
11
-35.278312
21
-3
31
0
39
0
210
0
220
0
230
1
0
LINE
5
81
100
AcDbEntity
8
SK1
62
256
6
ByLayer
370
18
48
1
60
0
100
AcDbLine
10
0
20
3
30
0
11
-35.278312
21
3
31
0
39
0
210
0
220
0
230
1
0
LINE
5
82
100
AcDbEntity
8
SK1
62
256
6
ByLayer
370
18
48
1
60
0
100
AcDbLine
10
-35.278312
20
-3
30
0
11
0
21
-3
31
0
39
0
210
0
220
0
230
1
0
LINE
5
83
100
AcDbEntity
8
SK4
62
256
6
ByLayer
370
18
48
0.05
60
0
100
AcDbLine
10
31
20
0
30
0
11
-41
21
0
31
0
39
0
210
0
220
0
230
1
0
LINE
5
85
100
AcDbEntity
8
4
62
256
6
ByLayer
370
18
48
0.05
60
0
100
AcDbLine
10
26
20
0
30
0
11
0
21
0
31
0
39
0
210
0
220
0
230
1
0
LINE
5
87
100
AcDbEntity
8
80
62
256
6
ByLayer
370
18
48
1
60
0
100
AcDbLine
10
0
20
0
30
0
11
-5
21
0
31
0
39
0
210
0
220
0
230
1
0
LINE
5
88
100
AcDbEntity
8
1
62
256
6
ByLayer
370
18
48
1
60
0
100
AcDbLine
10
25.07892
20
-1.015199
30
0
11
25.667969
21
-0.406703
31
0
39
0
210
0
220
0
230
1
0
LINE
5
89
100
AcDbEntity
8
1
62
256
6
ByLayer
370
13
48
1
60
0
100
AcDbLine
10
1.540023
20
1.835668
30
0
11
1.540023
21
-1.835668
31
0
39
0
210
0
220
0
230
1
0
LINE
5
8A
100
AcDbEntity
8
1
62
256
6
ByLayer
370
18
48
1
60
0
100
AcDbLine
10
25.832818
20
-0.236412
30
0
11
25.895601
21
-0.171556
31
0
39
0
210
0
220
0
230
1
0
LINE
5
8B
100
AcDbEntity
8
1
62
256
6
ByLayer
370
13
48
1
60
0
100
AcDbLine
10
8.246821
20
1.342505
30
0
11
8.250453
21
1.346119
31
0
39
0
210
0
220
0
230
1
0
LINE
5
8C
100
AcDbEntity
8
1
62
256
6
ByLayer
370
18
48
1
60
0
100
AcDbLine
10
0
20
-3
30
0
11
0
21
3
31
0
39
0
210
0
220
0
230
1
0
LINE
5
8D
100
AcDbEntity
8
1
62
256
6
ByLayer
370
18
48
1
60
0
100
AcDbLine
10
25.997266
20
0.019088
30
0
11
26
21
0
31
0
39
0
210
0
220
0
230
1
0
LINE
5
8E
100
AcDbEntity
8
1
62
256
6
ByLayer
370
13
48
1
60
0
100
AcDbLine
10
25.552313
20
0.032128
30
0
11
25.895601
21
-0.171556
31
0
39
0
210
0
220
0
230
1
0
LINE
5
8F
100
AcDbEntity
8
1
62
256
6
ByLayer
370
13
48
1
60
0
100
AcDbLine
10
25.916273
20
0.367458
30
0
11
25.74222
21
0.367458
31
0
39
0
210
0
220
0
230
1
0
LINE
5
90
100
AcDbEntity
8
1
62
256
6
ByLayer
370
18
48
1
60
0
100
AcDbLine
10
26
20
0
30
0
11
25.362698
21
-1.750972
31
0
39
0
210
0
220
0
230
1
0
LINE
5
91
100
AcDbEntity
8
1
62
256
6
ByLayer
370
13
48
1
60
0
100
AcDbLine
10
0.769772
20
2.417834
30
0
11
0.769772
21
-2.417834
31
0
39
0
210
0
220
0
230
1
0
LINE
5
92
100
AcDbEntity
8
1
62
256
6
ByLayer
370
18
48
1
60
0
100
AcDbLine
10
25.939101
20
0.250642
30
0
11
25.916273
21
0.367458
31
0
39
0
210
0
220
0
230
1
0
LINE
5
93
100
AcDbEntity
8
1
62
256
6
ByLayer
370
18
48
1
60
0
100
AcDbLine
10
25.939101
20
-0.250642
30
0
11
25.916273
21
-0.367458
31
0
39
0
210
0
220
0
230
1
0
LINE
5
94
100
AcDbEntity
8
1
62
256
6
ByLayer
370
18
48
1
60
0
100
AcDbLine
10
26
20
0
30
0
11
25.997266
21
-0.019088
31
0
39
0
210
0
220
0
230
1
0
LINE
5
95
100
AcDbEntity
8
1
62
256
6
ByLayer
370
13
48
1
60
0
100
AcDbLine
10
25.74222
20
0.367458
30
0
11
25.939101
21
0.250642
31
0
39
0
210
0
220
0
230
1
0
LINE
5
96
100
AcDbEntity
8
SK1
62
256
6
ByLayer
370
18
48
1
60
0
100
AcDbLine
10
-35.3
20
0.18089
30
0
11
-35.3
21
1.429427
31
0
39
0
210
0
220
0
230
1
0
LINE
5
97
100
AcDbEntity
8
SK1
62
256
6
ByLayer
370
18
48
1
60
0
100
AcDbLine
10
-36
20
-0.27984
30
0
11
-36
21
-1.75
31
0
39
0
210
0
220
0
230
1
0
LINE
5
98
100
AcDbEntity
8
SK1
62
256
6
ByLayer
370
18
48
1
60
0
100
AcDbLine
10
-36
20
1.75
30
0
11
-36
21
1.16078
31
0
39
0
210
0
220
0
230
1
0
LINE
5
99
100
AcDbEntity
8
SK1
62
256
6
ByLayer
370
18
48
1
60
0
100
AcDbLine
10
-36
20
1.16078
30
0
11
-36
21
0.27984
31
0
39
0
210
0
220
0
230
1
0
LINE
5
9A
100
AcDbEntity
8
SK1
62
256
6
ByLayer
370
18
48
1
60
0
100
AcDbLine
10
-35.278312
20
3
30
0
11
-35.278312
21
-3
31
0
39
0
210
0
220
0
230
1
0
LINE
5
9B
100
AcDbEntity
8
SK1
62
256
6
ByLayer
370
18
48
1
60
0
100
AcDbLine
10
0
20
-3
30
0
11
0
21
3
31
0
39
0
210
0
220
0
230
1
0
LINE
5
9C
100
AcDbEntity
8
SK1
62
256
6
ByLayer
370
13
48
1
60
0
100
AcDbLine
10
-35.4
20
1.468711
30
0
11
-35.4
21
0.02811
31
0
39
0
210
0
220
0
230
1
0
MTEXT
5
DD
100
AcDbEntity
8
SK6
62
256
6
ByLayer
370
13
48
1
60
0
100
AcDbMText
10
-2.870831
20
34.232694
30
0
210
0
220
0
230
1
1
\W0.7542;R840-0370-30-A1A1220
40
3.5
41
0
44
1.084337
50
0
71
8
72
5
7
iso_b_vert
0
DIMENSION
5
EA
100
AcDbEntity
8
SK2
62
256
6
ByLayer
370
13
48
1
60
0
100
AcDbDimension
2
DimnDraft3D1
10
25.38
20
-12.063398
30
0
11
11.630059
21
-12.063398
31
0
70
32
71
5
72
1
41
1
210
0
220
0
230
1
3
Standard
100
AcDbAlignedDimension
13
0
23
-1.5875
33
0
14
25.38
24
-3.4375
34
0
50
0
100
AcDbRotatedDimension
1001
ACAD
1000
DSTYLE
1002
{
1070
   279
1070
     0
1070
   172
1070
     1
1070
   173
1070
     1
1070
   340
1005
DE
1070
   271
1070
     2
1070
   272
1070
     2
1070
    77
1070
     1
1070
    73
1070
     0
1070
   171
1070
     3
1070
   274
1070
     4
1070
   177
1070
    35
1070
   176
1070
    35
1070
   178
1070
    35
1070
    48
1040
-0.005
1070
    41
1041
3.5
1070
   147
1041
1.75
1070
    42
1041
1.5875
1070
    44
1041
2.0
1070
   140
1041
3.5
1070
   343
1005
0
1070
   344
1005
0
1002
}
0
DIMENSION
5
F4
100
AcDbEntity
8
SK2
62
256
6
ByLayer
370
13
48
1
60
0
100
AcDbDimension
2
DimnDraft3D2
10
26
20
-31.692985
30
0
11
-4.2787
21
-31.692985
31
0
70
32
71
5
72
1
41
1
210
0
220
0
230
1
3
Standard
100
AcDbAlignedDimension
13
-36
23
-4.5875
33
0
14
26
24
-1.5875
34
0
50
0
100
AcDbRotatedDimension
1001
ACAD
1000
DSTYLE
1002
{
1070
   279
1070
     0
1070
   172
1070
     1
1070
   173
1070
     1
1070
   340
1005
DE
1070
   271
1070
     2
1070
   272
1070
     2
1070
    77
1070
     1
1070
    73
1070
     0
1070
   171
1070
     3
1070
   274
1070
     4
1070
   177
1070
    35
1070
   176
1070
    35
1070
   178
1070
    35
1070
    48
1040
-0.005
1070
    41
1041
3.5
1070
   147
1041
1.75
1070
    42
1041
1.5875
1070
    44
1041
2.0
1070
   140
1041
3.5
1070
   343
1005
0
1070
   344
1005
0
1002
}
0
DIMENSION
5
FE
100
AcDbEntity
8
SK2
62
256
6
ByLayer
370
13
48
1
60
0
100
AcDbDimension
2
DimnDraft3D3
10
26
20
13.459119
30
0
11
20.14
21
13.459119
31
0
70
32
71
5
72
1
41
1
210
0
220
0
230
1
3
Standard
100
AcDbAlignedDimension
13
14.28
23
3.4375
33
0
14
26
24
1.5875
34
0
50
0
100
AcDbRotatedDimension
1001
ACAD
1000
DSTYLE
1002
{
1070
   279
1070
     0
1070
   172
1070
     1
1070
   173
1070
     1
1070
   340
1005
DE
1070
   271
1070
     2
1070
   272
1070
     2
1070
    77
1070
     1
1070
    73
1070
     0
1070
   171
1070
     3
1070
   274
1070
     4
1070
   177
1070
    35
1070
   176
1070
    35
1070
   178
1070
    35
1070
    48
1040
-0.005
1070
    41
1041
3.5
1070
   147
1041
1.75
1070
    42
1041
1.5875
1070
    44
1041
2.0
1070
   140
1041
3.5
1070
   343
1005
0
1070
   344
1005
0
1002
}
0
DIMENSION
5
108
100
AcDbEntity
8
SK2
62
256
6
ByLayer
370
13
48
1
60
0
100
AcDbDimension
2
DimnDraft3D4
10
25.38
20
-14.652503
30
0
11
35.981425
21
-14.652503
31
0
70
32
71
5
72
1
41
1
210
0
220
0
230
1
3
Standard
100
AcDbAlignedDimension
13
26
23
-1.5875
33
0
14
25.38
24
-3.4375
34
0
50
0
100
AcDbRotatedDimension
1001
ACAD
1000
DSTYLE
1002
{
1070
   279
1070
     0
1070
   172
1070
     1
1070
   173
1070
     1
1070
   340
1005
DE
1070
   271
1070
     2
1070
   272
1070
     2
1070
    77
1070
     1
1070
    73
1070
     0
1070
   171
1070
     3
1070
   274
1070
     4
1070
   177
1070
    35
1070
   176
1070
    35
1070
   178
1070
    35
1070
    48
1040
-0.005
1070
    41
1041
3.5
1070
   147
1041
1.75
1070
    42
1041
1.5875
1070
    44
1041
2.0
1070
   140
1041
3.5
1070
   343
1005
0
1070
   344
1005
0
1002
}
0
DIMENSION
5
112
100
AcDbEntity
8
SK2
62
256
6
ByLayer
370
13
48
1
60
0
100
AcDbDimension
2
DimnDraft3D5
10
25.38
20
-21.343428
30
0
11
-7.359324
21
-21.343428
31
0
70
32
71
5
72
1
41
1
210
0
220
0
230
1
3
Standard
100
AcDbAlignedDimension
13
-36
23
-4.5875
33
0
14
25.38
24
-3.4375
34
0
50
0
100
AcDbRotatedDimension
1001
ACAD
1000
DSTYLE
1002
{
1070
   279
1070
     0
1070
   172
1070
     1
1070
   173
1070
     1
1070
   340
1005
DE
1070
   271
1070
     2
1070
   272
1070
     2
1070
    77
1070
     1
1070
    73
1070
     0
1070
   171
1070
     3
1070
   274
1070
     4
1070
   177
1070
    35
1070
   176
1070
    35
1070
   178
1070
    35
1070
    48
1040
-0.005
1070
    41
1041
3.5
1070
   147
1041
1.75
1070
    42
1041
1.5875
1070
    44
1041
2.0
1070
   140
1041
3.5
1070
   343
1005
0
1070
   344
1005
0
1002
}
0
DIMENSION
5
11D
100
AcDbEntity
8
SK2
62
256
6
ByLayer
370
13
48
1
60
0
100
AcDbDimension
2
DimnDraft3D6
10
-46.625163
20
3
30
0
11
-47.250163
21
21.47418
31
0
70
33
71
5
72
1
41
1
210
0
220
0
230
1
3
Standard
100
AcDbAlignedDimension
13
-37.5875
23
-3
33
0
14
-37.5875
24
3
34
0
1001
ACAD
1000
DSTYLE
1002
{
1070
   279
1070
     0
1070
    74
1070
     0
1070
   173
1070
     1
1070
   340
1005
DE
1070
   271
1070
     3
1070
   272
1070
     2
1070
    77
1070
     1
1070
    73
1070
     0
1070
   171
1070
     3
1070
   274
1070
     4
1070
   177
1070
    35
1070
   176
1070
    35
1070
   178
1070
    35
1070
    48
1040
-0.005
1070
    41
1041
3.5
1070
   147
1041
1.75
1070
    42
1041
1.5875
1070
    44
1041
2.0
1070
   140
1041
3.5
1070
   343
1005
0
1070
   344
1005
0
1002
}
0
DIMENSION
5
128
100
AcDbEntity
8
2
62
256
6
ByLayer
370
13
48
1
60
0
100
AcDbDimension
2
DimnDraft3D7
10
40.083343
20
1.85
30
0
11
35.458343
21
18.917266
31
0
70
33
71
5
72
1
41
1
210
0
220
0
230
1
3
Standard
100
AcDbAlignedDimension
13
26.9675
23
-1.85
33
0
14
26.9675
24
1.85
34
0
1001
ACAD
1000
DSTYLE
1002
{
1070
   279
1070
     0
1070
    74
1070
     0
1070
   173
1070
     1
1070
   340
1005
DE
1070
   271
1070
     3
1070
   272
1070
     2
1070
    77
1070
     1
1070
    73
1070
     0
1070
   171
1070
     3
1070
   274
1070
     4
1070
   177
1070
    35
1070
   176
1070
    35
1070
   178
1070
    35
1070
    48
1040
-0.005
1070
    41
1041
3.5
1070
   147
1041
1.75
1070
    42
1041
1.5875
1070
    44
1041
2.0
1070
   140
1041
3.5
1070
   343
1005
0
1070
   344
1005
0
1002
}
0
ENDSEC
0
SECTION
2
OBJECTS
0
DICTIONARY
5
193
330
0
100
AcDbDictionary
280
0
281
1
3
ACAD_GROUP
350
194
3
ACAD_MLINESTYLE
350
195
0
DICTIONARY
5
194
330
0
100
AcDbDictionary
280
0
281
1
0
DICTIONARY
5
195
330
0
100
AcDbDictionary
280
0
281
1
3
Standard
350
18
0
MLINESTYLE
5
18
330
195
100
AcDbMlineStyle
2
Standard
70
0
3

62
256
51
90
52
90
71
2
49
-0.5
62
256
6
ByLayer
49
0.5
62
256
6
ByLayer
0
RASTERVARIABLES
5
181
330

100
AcDbRasterVariables
90
0
70
1
71
1
72
1
0
ENDSEC
0
EOF
