0
SECTION
2
HEADER
9
$ACADVER
1
AC1015
9
$DWGCODEPAGE
3
ANSI_1252
9
$HANDSEED
5
1ab
9
$ANGBASE
50
0
9
$ANGDIR
70
0
9
$ATTMODE
70
1
9
$AUNITS
70
0
9
$AUPREC
70
0
9
$CECOLOR
62
256
9
$CELTSCALE
40
1
9
$CELTYPE
6
ByLayer
9
$CELWEIGHT
370
18
9
$CLAYER
8
0
9
$CMLJUST
70
0
9
$CMLSCALE
40
1
9
$CMLSTYLE
2
Standard
9
$DIMSTYLE
2
Standard
9
$TEXTSIZE
40
0.2
9
$TEXTSTYLE
7
Standard
9
$LUNITS
70
2
9
$LUPREC
70
4
9
$EXTNAMES
290
1
9
$INSUNITS
70
4
9
$LTSCALE
40
1
9
$LWDISPLAY
290
1
9
$PDMODE
70
0
9
$PDSIZE
40
0
9
$PLINEGEN
70
0
0
ENDSEC
0
SECTION
2
CLASSES
0
CLASS
1
RASTERVARIABLES
2
AcDbRasterVariables
3
ISM
90
0
280
0
281
0
0
ENDSEC
0
SECTION
2
TABLES
0
TABLE
2
VPORT
5
1a1
100
AcDbSymbolTable
0
VPORT
5
1
100
AcDbSymbolTableRecord
100
AcDbViewportTableRecord
2
*Active
70
0
10
0
20
0
11
1
21
1
12
-1
22
1
13
0
23
0
14
0.5
24
0.5
15
10
25
10
16
0
26
0
36
1
17
0
27
0
37
0
0
ENDTAB
0
TABLE
2
LTYPE
5
1a2
100
AcDbSymbolTable
0
LTYPE
5
14
100
AcDbSymbolTableRecord
100
AcDbLinetypeTableRecord
70
0
2
ByBlock
3

72
65
73
0
40
0
0
LTYPE
5
15
100
AcDbSymbolTableRecord
100
AcDbLinetypeTableRecord
70
0
2
ByLayer
3

72
65
73
0
40
0
0
LTYPE
5
16
100
AcDbSymbolTableRecord
100
AcDbLinetypeTableRecord
70
0
2
CONTINUOUS
3
Solid line
72
65
73
0
40
0
0
LTYPE
5
6A
100
AcDbSymbolTableRecord
100
AcDbLinetypeTableRecord
70
0
2
CENTER
3
____ _ ____ _ ____ _ ____
72
65
73
4
40
47.5
49
22
74
0
49
-8.5
74
0
49
8.5
74
0
49
-8.5
74
0
0
LTYPE
5
6B
100
AcDbSymbolTableRecord
100
AcDbLinetypeTableRecord
70
0
2
DASHED
3
__ __ __ __ __ __ __ __ __
72
65
73
2
40
25.72
49
12.86
74
0
49
-12.86
74
0
0
ENDTAB
0
TABLE
2
LAYER
5
1a3
100
AcDbSymbolTable
0
LAYER
5
10
100
AcDbSymbolTableRecord
100
AcDbLayerTableRecord
2
0
70
0
62
7
6
CONTINUOUS
290
1
370
-3
390
0
0
LAYER
5
6D
100
AcDbSymbolTableRecord
100
AcDbLayerTableRecord
2
81
70
0
62
-3
6
CONTINUOUS
290
1
370
-3
390
0
0
LAYER
5
6F
100
AcDbSymbolTableRecord
100
AcDbLayerTableRecord
2
80
70
0
62
-6
6
CONTINUOUS
290
1
370
-3
390
0
0
LAYER
5
74
100
AcDbSymbolTableRecord
100
AcDbLayerTableRecord
2
2
70
0
62
7
6
CONTINUOUS
290
1
370
-3
390
0
0
LAYER
5
78
100
AcDbSymbolTableRecord
100
AcDbLayerTableRecord
2
1
70
0
62
4
6
CONTINUOUS
290
1
370
-3
390
0
0
LAYER
5
88
100
AcDbSymbolTableRecord
100
AcDbLayerTableRecord
2
4
70
0
62
-2
6
CENTER
290
1
370
-3
390
0
0
LAYER
5
18d
100
AcDbSymbolTableRecord
100
AcDbLayerTableRecord
2
SK2
70
0
62
7
6
CONTINUOUS
290
1
370
-3
390
0
0
LAYER
5
18e
100
AcDbSymbolTableRecord
100
AcDbLayerTableRecord
2
SK1
70
0
62
4
6
CONTINUOUS
290
1
370
-3
390
0
0
LAYER
5
18f
100
AcDbSymbolTableRecord
100
AcDbLayerTableRecord
2
SK4
70
0
62
2
6
CENTER
290
1
370
-3
390
0
0
LAYER
5
190
100
AcDbSymbolTableRecord
100
AcDbLayerTableRecord
2
SK6
70
0
62
5
6
CONTINUOUS
290
1
370
-3
390
0
0
ENDTAB
0
TABLE
2
STYLE
5
1a4
100
AcDbSymbolTable
0
STYLE
5
11
100
AcDbSymbolTableRecord
100
AcDbTextStyleTableRecord
2
Standard
3
txt
70
0
71
0
40
0
41
1
42
0
50
0
0
STYLE
5
E9
100
AcDbSymbolTableRecord
100
AcDbTextStyleTableRecord
2
iso_b_vert
3
simplex.shx
70
0
71
0
40
0
41
1
42
0
50
0
0
STYLE
5
EA
100
AcDbSymbolTableRecord
100
AcDbTextStyleTableRecord
2
DWGDirectTextStyle
3
simplex
70
0
71
0
40
0
41
1
42
0
50
0
0
ENDTAB
0
TABLE
2
DIMSTYLE
5
1a5
100
AcDbSymbolTable
100
AcDbDimStyleTable
0
DIMSTYLE
105
27
100
AcDbSymbolTableRecord
100
AcDbDimStyleTableRecord
2
Standard
70
0
3
<>
41
0.18
42
0.0625
44
0.18
140
0.18
147
0.09
73
0
74
0
77
1
271
2
275
0
278
52
280
0
340
11
0
ENDTAB
0
TABLE
2
VIEW
5
1a6
100
AcDbSymbolTable
0
ENDTAB
0
TABLE
2
UCS
5
1a7
100
AcDbSymbolTable
0
ENDTAB
0
TABLE
2
APPID
5
1a8
100
AcDbSymbolTable
0
APPID
5
12
100
AcDbSymbolTableRecord
100
AcDbRegAppTableRecord
2
ACAD
70
0
0
ENDTAB
0
TABLE
2
BLOCK_RECORD
5
1a9
100
AcDbSymbolTable
0
BLOCK_RECORD
5
1F
100
AcDbSymbolTableRecord
100
AcDbBlockTableRecord
2
*Model_Space
340
0
70
0
0
BLOCK_RECORD
5
1B
100
AcDbSymbolTableRecord
100
AcDbBlockTableRecord
2
*Paper_Space
340
0
70
0
0
BLOCK_RECORD
5
23
100
AcDbSymbolTableRecord
100
AcDbBlockTableRecord
2
*Paper_Space0
340
0
70
0
0
BLOCK_RECORD
5
EC
100
AcDbSymbolTableRecord
100
AcDbBlockTableRecord
2
DimnDraft3D1
340
0
70
0
0
BLOCK_RECORD
5
F6
100
AcDbSymbolTableRecord
100
AcDbBlockTableRecord
2
DimnDraft3D2
340
0
70
0
0
BLOCK_RECORD
5
100
100
AcDbSymbolTableRecord
100
AcDbBlockTableRecord
2
DimnDraft3D3
340
0
70
0
0
BLOCK_RECORD
5
10A
100
AcDbSymbolTableRecord
100
AcDbBlockTableRecord
2
DimnDraft3D4
340
0
70
0
0
BLOCK_RECORD
5
114
100
AcDbSymbolTableRecord
100
AcDbBlockTableRecord
2
DimnDraft3D5
340
0
70
0
0
BLOCK_RECORD
5
11E
100
AcDbSymbolTableRecord
100
AcDbBlockTableRecord
2
DimnDraft3D6
340
0
70
0
0
BLOCK_RECORD
5
129
100
AcDbSymbolTableRecord
100
AcDbBlockTableRecord
2
DimnDraft3D7
340
0
70
0
0
ENDTAB
0
ENDSEC
0
SECTION
2
BLOCKS
0
BLOCK
5
20
100
AcDbEntity
8
0
100
AcDbBlockBegin
2
*Model_Space
70
0
10
0
20
0
30
0
3
*Model_Space
0
ENDBLK
5
21
100
AcDbEntity
8
0
100
AcDbBlockEnd
0
BLOCK
5
1C
100
AcDbEntity
8
0
100
AcDbBlockBegin
2
*Paper_Space
70
0
10
0
20
0
30
0
3
*Paper_Space
0
ENDBLK
5
1D
100
AcDbEntity
8
0
100
AcDbBlockEnd
0
BLOCK
5
24
100
AcDbEntity
8
0
100
AcDbBlockBegin
2
*Paper_Space0
70
0
10
0
20
0
30
0
3
*Paper_Space0
0
ENDBLK
5
25
100
AcDbEntity
8
0
100
AcDbBlockEnd
0
BLOCK
5
F3
100
AcDbEntity
8
0
100
AcDbBlockBegin
2
DimnDraft3D1
70
0
10
0
20
0
30
0
3
DimnDraft3D1
0
MTEXT
5
ED
100
AcDbEntity
8
SK2
62
256
6
ByLayer
370
13
48
1
60
0
100
AcDbMText
10
9.017164
20
-11.123398
30
0
210
0
220
0
230
1
1
\W0.7581;29,40
40
3.5
41
0
44
1.084337
50
0
71
7
72
5
7
iso_b_vert
0
LINE
5
EE
100
AcDbEntity
8
SK2
62
256
6
ByLayer
370
13
48
1
60
0
100
AcDbLine
10
0
20
-1.5875
30
0
11
0
21
-13.998398
31
0
39
0
210
0
220
0
230
1
0
LINE
5
EF
100
AcDbEntity
8
SK2
62
256
6
ByLayer
370
13
48
1
60
0
100
AcDbLine
10
29.4
20
-3.3725
30
0
11
29.4
21
-13.998398
31
0
39
0
210
0
220
0
230
1
0
LINE
5
F0
100
AcDbEntity
8
SK2
62
256
6
ByLayer
370
13
48
1
60
0
100
AcDbLine
10
0
20
-11.998398
30
0
11
29.4
21
-11.998398
31
0
39
0
210
0
220
0
230
1
0
SOLID
5
F1
100
AcDbEntity
8
SK2
62
256
6
ByLayer
370
13
48
1
60
0
100
AcDbTrace
10
0
20
-11.998398
30
0
11
3.499998
21
-11.537615
31
0
12
3.500002
22
-12.459182
32
0
13
0
23
-11.998398
33
0
39
0
210
0
220
0
230
1
0
SOLID
5
F2
100
AcDbEntity
8
SK2
62
256
6
ByLayer
370
13
48
1
60
0
100
AcDbTrace
10
29.4
20
-11.998398
30
0
11
25.900002
21
-12.459182
31
0
12
25.899998
22
-11.537615
32
0
13
29.4
23
-11.998398
33
0
39
0
210
0
220
0
230
1
0
ENDBLK
5
F4
100
AcDbEntity
8
0
100
AcDbBlockEnd
0
BLOCK
5
FD
100
AcDbEntity
8
0
100
AcDbBlockBegin
2
DimnDraft3D2
70
0
10
0
20
0
30
0
3
DimnDraft3D2
0
MTEXT
5
F7
100
AcDbEntity
8
SK2
62
256
6
ByLayer
370
13
48
1
60
0
100
AcDbMText
10
-6.707384
20
-30.817985
30
0
210
0
220
0
230
1
1
\W0.7317;66,00
40
3.5
41
0
44
1.084337
50
0
71
7
72
5
7
iso_b_vert
0
LINE
5
F8
100
AcDbEntity
8
SK2
62
256
6
ByLayer
370
13
48
1
60
0
100
AcDbLine
10
-36
20
-4.5875
30
0
11
-36
21
-33.692985
31
0
39
0
210
0
220
0
230
1
0
LINE
5
F9
100
AcDbEntity
8
SK2
62
256
6
ByLayer
370
13
48
1
60
0
100
AcDbLine
10
30
20
-1.5875
30
0
11
30
21
-33.692985
31
0
39
0
210
0
220
0
230
1
0
LINE
5
FA
100
AcDbEntity
8
SK2
62
256
6
ByLayer
370
13
48
1
60
0
100
AcDbLine
10
-36
20
-31.692985
30
0
11
30
21
-31.692985
31
0
39
0
210
0
220
0
230
1
0
SOLID
5
FB
100
AcDbEntity
8
SK2
62
256
6
ByLayer
370
13
48
1
60
0
100
AcDbTrace
10
-36
20
-31.692985
30
0
11
-32.500002
21
-31.232202
31
0
12
-32.499998
22
-32.153769
32
0
13
-36
23
-31.692985
33
0
39
0
210
0
220
0
230
1
0
SOLID
5
FC
100
AcDbEntity
8
SK2
62
256
6
ByLayer
370
13
48
1
60
0
100
AcDbTrace
10
30
20
-31.692985
30
0
11
26.500002
21
-32.153769
31
0
12
26.499998
22
-31.232202
32
0
13
30
23
-31.692985
33
0
39
0
210
0
220
0
230
1
0
ENDBLK
5
FE
100
AcDbEntity
8
0
100
AcDbBlockEnd
0
BLOCK
5
107
100
AcDbEntity
8
0
100
AcDbBlockBegin
2
DimnDraft3D3
70
0
10
0
20
0
30
0
3
DimnDraft3D3
0
MTEXT
5
101
100
AcDbEntity
8
SK2
62
256
6
ByLayer
370
13
48
1
60
0
100
AcDbMText
10
16.579605
20
14.269119
30
0
210
0
220
0
230
1
1
\W0.6977;18,45
40
3.5
41
0
44
1.084337
50
0
71
7
72
5
7
iso_b_vert
0
LINE
5
102
100
AcDbEntity
8
SK2
62
256
6
ByLayer
370
13
48
1
60
0
100
AcDbLine
10
11.55
20
3.3725
30
0
11
11.55
21
15.394119
31
0
39
0
210
0
220
0
230
1
0
LINE
5
103
100
AcDbEntity
8
SK2
62
256
6
ByLayer
370
13
48
1
60
0
100
AcDbLine
10
30
20
1.5875
30
0
11
30
21
15.394119
31
0
39
0
210
0
220
0
230
1
0
LINE
5
104
100
AcDbEntity
8
SK2
62
256
6
ByLayer
370
13
48
1
60
0
100
AcDbLine
10
11.55
20
13.394119
30
0
11
30
21
13.394119
31
0
39
0
210
0
220
0
230
1
0
SOLID
5
105
100
AcDbEntity
8
SK2
62
256
6
ByLayer
370
13
48
1
60
0
100
AcDbTrace
10
11.55
20
13.394119
30
0
11
15.049998
21
13.854903
31
0
12
15.050002
22
12.933335
32
0
13
11.55
23
13.394119
33
0
39
0
210
0
220
0
230
1
0
SOLID
5
106
100
AcDbEntity
8
SK2
62
256
6
ByLayer
370
13
48
1
60
0
100
AcDbTrace
10
30
20
13.394119
30
0
11
26.500002
21
12.933335
31
0
12
26.499998
22
13.854903
32
0
13
30
23
13.394119
33
0
39
0
210
0
220
0
230
1
0
ENDBLK
5
108
100
AcDbEntity
8
0
100
AcDbBlockEnd
0
BLOCK
5
111
100
AcDbEntity
8
0
100
AcDbBlockBegin
2
DimnDraft3D4
70
0
10
0
20
0
30
0
3
DimnDraft3D4
0
MTEXT
5
10B
100
AcDbEntity
8
SK2
62
256
6
ByLayer
370
13
48
1
60
0
100
AcDbMText
10
36.840636
20
-13.712503
30
0
210
0
220
0
230
1
1
\W0.7150;0,60
40
3.5
41
0
44
1.084337
50
0
71
7
72
5
7
iso_b_vert
0
LINE
5
10C
100
AcDbEntity
8
SK2
62
256
6
ByLayer
370
13
48
1
60
0
100
AcDbLine
10
30
20
-1.5875
30
0
11
30
21
-16.587503
31
0
39
0
210
0
220
0
230
1
0
LINE
5
10D
100
AcDbEntity
8
SK2
62
256
6
ByLayer
370
13
48
1
60
0
100
AcDbLine
10
29.4
20
-3.3725
30
0
11
29.4
21
-16.587503
31
0
39
0
210
0
220
0
230
1
0
LINE
5
10E
100
AcDbEntity
8
SK2
62
256
6
ByLayer
370
13
48
1
60
0
100
AcDbLine
10
20.65
20
-14.587503
30
0
11
43.997215
21
-14.587503
31
0
39
0
210
0
220
0
230
1
0
SOLID
5
10F
100
AcDbEntity
8
SK2
62
256
6
ByLayer
370
13
48
1
60
0
100
AcDbTrace
10
30
20
-14.587503
30
0
11
33.499998
21
-14.126719
31
0
12
33.500002
22
-15.048287
32
0
13
30
23
-14.587503
33
0
39
0
210
0
220
0
230
1
0
SOLID
5
110
100
AcDbEntity
8
SK2
62
256
6
ByLayer
370
13
48
1
60
0
100
AcDbTrace
10
29.4
20
-14.587503
30
0
11
25.900002
21
-15.048287
31
0
12
25.899998
22
-14.126719
32
0
13
29.4
23
-14.587503
33
0
39
0
210
0
220
0
230
1
0
ENDBLK
5
112
100
AcDbEntity
8
0
100
AcDbBlockEnd
0
BLOCK
5
11B
100
AcDbEntity
8
0
100
AcDbBlockBegin
2
DimnDraft3D5
70
0
10
0
20
0
30
0
3
DimnDraft3D5
0
MTEXT
5
115
100
AcDbEntity
8
SK2
62
256
6
ByLayer
370
13
48
1
60
0
100
AcDbMText
10
-9.972218
20
-20.468428
30
0
210
0
220
0
230
1
1
\W0.7581;65,40
40
3.5
41
0
44
1.084337
50
0
71
7
72
5
7
iso_b_vert
0
LINE
5
116
100
AcDbEntity
8
SK2
62
256
6
ByLayer
370
13
48
1
60
0
100
AcDbLine
10
-36
20
-4.5875
30
0
11
-36
21
-23.343428
31
0
39
0
210
0
220
0
230
1
0
LINE
5
117
100
AcDbEntity
8
SK2
62
256
6
ByLayer
370
13
48
1
60
0
100
AcDbLine
10
29.4
20
-3.3725
30
0
11
29.4
21
-23.343428
31
0
39
0
210
0
220
0
230
1
0
LINE
5
118
100
AcDbEntity
8
SK2
62
256
6
ByLayer
370
13
48
1
60
0
100
AcDbLine
10
-36
20
-21.343428
30
0
11
29.4
21
-21.343428
31
0
39
0
210
0
220
0
230
1
0
SOLID
5
119
100
AcDbEntity
8
SK2
62
256
6
ByLayer
370
13
48
1
60
0
100
AcDbTrace
10
-36
20
-21.343428
30
0
11
-32.500002
21
-20.882645
31
0
12
-32.499998
22
-21.804212
32
0
13
-36
23
-21.343428
33
0
39
0
210
0
220
0
230
1
0
SOLID
5
11A
100
AcDbEntity
8
SK2
62
256
6
ByLayer
370
13
48
1
60
0
100
AcDbTrace
10
29.4
20
-21.343428
30
0
11
25.900002
21
-21.804212
31
0
12
25.899998
22
-20.882645
32
0
13
29.4
23
-21.343428
33
0
39
0
210
0
220
0
230
1
0
ENDBLK
5
11C
100
AcDbEntity
8
0
100
AcDbBlockEnd
0
BLOCK
5
126
100
AcDbEntity
8
0
100
AcDbBlockBegin
2
DimnDraft3D6
70
0
10
0
20
0
30
0
3
DimnDraft3D6
0
MTEXT
5
11F
100
AcDbEntity
8
SK2
62
256
6
ByLayer
370
13
48
1
60
0
100
AcDbMText
10
-46.375163
20
22.34918
30
0
210
0
220
0
230
1
1
\W0.7317;6,000
40
3.5
41
0
44
1.084337
50
90
71
7
72
5
7
iso_b_vert
0
MTEXT
5
120
100
AcDbEntity
8
SK2
62
256
6
ByLayer
370
13
48
1
60
0
100
AcDbMText
10
-46.375163
20
17.126524
30
0
210
0
220
0
230
1
1
%%c
40
3.5
41
0
44
1.084337
50
90
71
7
72
5
7
iso_b_vert
0
LINE
5
121
100
AcDbEntity
8
SK2
62
256
6
ByLayer
370
13
48
1
60
0
100
AcDbLine
10
-37.5875
20
-3
30
0
11
-46.625163
21
-3
31
0
39
0
210
0
220
0
230
1
0
LINE
5
122
100
AcDbEntity
8
SK2
62
256
6
ByLayer
370
13
48
1
60
0
100
AcDbLine
10
-37.5875
20
3
30
0
11
-46.625163
21
3
31
0
39
0
210
0
220
0
230
1
0
LINE
5
123
100
AcDbEntity
8
SK2
62
256
6
ByLayer
370
13
48
1
60
0
100
AcDbLine
10
-44.625163
20
32.121549
30
0
11
-44.625163
21
-11.75
31
0
39
0
210
0
220
0
230
1
0
SOLID
5
124
100
AcDbEntity
8
SK2
62
256
6
ByLayer
370
13
48
1
60
0
100
AcDbTrace
10
-44.625163
20
-3
30
0
11
-44.164379
21
-6.499998
31
0
12
-45.085946
22
-6.500002
32
0
13
-44.625163
23
-3
33
0
39
0
210
0
220
0
230
1
0
SOLID
5
125
100
AcDbEntity
8
SK2
62
256
6
ByLayer
370
13
48
1
60
0
100
AcDbTrace
10
-44.625163
20
3
30
0
11
-45.085946
21
6.499998
31
0
12
-44.164379
22
6.500002
32
0
13
-44.625163
23
3
33
0
39
0
210
0
220
0
230
1
0
ENDBLK
5
127
100
AcDbEntity
8
0
100
AcDbBlockEnd
0
BLOCK
5
131
100
AcDbEntity
8
0
100
AcDbBlockBegin
2
DimnDraft3D7
70
0
10
0
20
0
30
0
3
DimnDraft3D7
0
MTEXT
5
12A
100
AcDbEntity
8
2
62
256
6
ByLayer
370
13
48
1
60
0
100
AcDbMText
10
40.333343
20
19.727266
30
0
210
0
220
0
230
1
1
\W0.7317;3,570
40
3.5
41
0
44
1.084337
50
90
71
7
72
5
7
iso_b_vert
0
MTEXT
5
12B
100
AcDbEntity
8
2
62
256
6
ByLayer
370
13
48
1
60
0
100
AcDbMText
10
40.333343
20
14.50461
30
0
210
0
220
0
230
1
1
%%c
40
3.5
41
0
44
1.084337
50
90
71
7
72
5
7
iso_b_vert
0
LINE
5
12C
100
AcDbEntity
8
2
62
256
6
ByLayer
370
13
48
1
60
0
100
AcDbLine
10
30.9875
20
-1.785
30
0
11
44.083343
21
-1.785
31
0
39
0
210
0
220
0
230
1
0
LINE
5
12D
100
AcDbEntity
8
2
62
256
6
ByLayer
370
13
48
1
60
0
100
AcDbLine
10
30.9875
20
1.785
30
0
11
44.083343
21
1.785
31
0
39
0
210
0
220
0
230
1
0
LINE
5
12E
100
AcDbEntity
8
2
62
256
6
ByLayer
370
13
48
1
60
0
100
AcDbLine
10
42.083343
20
29.499635
30
0
11
42.083343
21
-10.535
31
0
39
0
210
0
220
0
230
1
0
SOLID
5
12F
100
AcDbEntity
8
2
62
256
6
ByLayer
370
13
48
1
60
0
100
AcDbTrace
10
42.083343
20
-1.785
30
0
11
42.544126
21
-5.284998
31
0
12
41.622559
22
-5.285002
32
0
13
42.083343
23
-1.785
33
0
39
0
210
0
220
0
230
1
0
SOLID
5
130
100
AcDbEntity
8
2
62
256
6
ByLayer
370
13
48
1
60
0
100
AcDbTrace
10
42.083343
20
1.785
30
0
11
41.622559
21
5.284998
31
0
12
42.544126
22
5.285002
32
0
13
42.083343
23
1.785
33
0
39
0
210
0
220
0
230
1
0
ENDBLK
5
132
100
AcDbEntity
8
0
100
AcDbBlockEnd
0
ENDSEC
0
SECTION
2
ENTITIES
0
ARC
5
9F
100
AcDbEntity
8
1
62
256
6
ByLayer
370
18
48
1
60
0
100
AcDbCircle
39
0
10
0
20
2.2
30
0
40
0.799999999999996
210
0
220
0
230
1
100
AcDbArc
50
13.306863
51
90
0
ARC
5
A0
100
AcDbEntity
8
1
62
256
6
ByLayer
370
18
48
1
60
0
100
AcDbCircle
39
0
10
0
20
-2.2
30
0
40
0.799999999999996
210
0
220
0
230
1
100
AcDbArc
50
270
51
346.693137
0
ARC
5
A1
100
AcDbEntity
8
1
62
256
6
ByLayer
370
18
48
1
60
0
100
AcDbCircle
39
0
10
-1.557042
20
2.568266
30
0
40
0.800000000000003
210
0
220
0
230
-1
100
AcDbArc
50
269.965623
51
346.693137
0
ARC
5
A2
100
AcDbEntity
8
1
62
256
6
ByLayer
370
18
48
1
60
0
100
AcDbCircle
39
0
10
-1.557042
20
-2.568266
30
0
40
0.800000000000003
210
0
220
0
230
-1
100
AcDbArc
50
13.306863
51
90.034377
0
ELLIPSE
5
A3
100
AcDbEntity
8
1
62
256
6
ByLayer
370
18
48
1
60
0
100
AcDbEllipse
10
4.25
20
-1.924545
30
0
11
0.25
21
0
31
0
210
0
220
0
230
1
40
1
41
1.57592603827701
42
2.42500214294657
0
ELLIPSE
5
A4
100
AcDbEntity
8
1
62
256
6
ByLayer
370
18
48
1
60
0
100
AcDbEllipse
10
4.25
20
1.924545
30
0
11
0.25
21
0
31
0
210
0
220
0
230
1
40
1
41
-2.42713984822497
42
-1.55730101105454
0
ELLIPSE
5
A5
100
AcDbEntity
8
1
62
256
6
ByLayer
370
18
48
1
60
0
100
AcDbEllipse
10
30.067083
20
-0.038338
30
0
11
0.133321008276533
21
-0.425213612016731
31
0
210
0
220
0
230
-1
40
0.112798
41
1.73993824375416
42
2.34950393585839
0
ELLIPSE
5
A6
100
AcDbEntity
8
1
62
256
6
ByLayer
370
13
48
1
60
0
100
AcDbEllipse
10
4.173636
20
0.726348
30
0
11
0.0602403488143825
21
0.0798191729769328
31
0
210
0
220
0
230
1
40
0.24252
41
2.19484434956494
42
-3.0729716099481
0
ELLIPSE
5
A7
100
AcDbEntity
8
1
62
256
6
ByLayer
370
13
48
1
60
0
100
AcDbEllipse
10
29.749738
20
0.149953
30
0
11
0.153082081612425
21
0.258003636193769
31
0
210
0
220
0
230
1
40
0.454519
41
0.917105603404763
42
2.31336900500033
0
ELLIPSE
5
A8
100
AcDbEntity
8
1
62
256
6
ByLayer
370
13
48
1
60
0
100
AcDbEllipse
10
29.847781
20
0.769006
30
0
11
1.20490294257829
21
-0.829609939018688
31
0
210
0
220
0
230
-1
40
0.533762
41
1.44484622744724
42
1.78317761346837
0
ELLIPSE
5
A9
100
AcDbEntity
8
1
62
256
6
ByLayer
370
18
48
1
60
0
100
AcDbEllipse
10
29.635025
20
0.892203
30
0
11
0.279439747624713
21
-0.748552413251637
31
0
210
0
220
0
230
-1
40
0.148387
41
-1.4621950128495
42
-0.730060677417102
0
ELLIPSE
5
AA
100
AcDbEntity
8
1
62
256
6
ByLayer
370
18
48
1
60
0
100
AcDbEllipse
10
30.000172
20
-0.00039
30
0
11
0.665456414437839
21
-1.78259894812276
31
0
210
0
220
0
230
-1
40
0.148387
41
-2.97125366080374
42
-2.83203107017013
0
ELLIPSE
5
AB
100
AcDbEntity
8
1
62
256
6
ByLayer
370
13
48
1
60
0
100
AcDbEllipse
10
4.25026
20
0.677607
30
0
11
0.0475201283349842
21
0.0879877116592234
31
0
210
0
220
0
230
1
40
0.193956
41
2.85908773205845
42
-1.91214377204498
0
ELLIPSE
5
AC
100
AcDbEntity
8
1
62
256
6
ByLayer
370
18
48
1
60
0
100
AcDbEllipse
10
30.000172
20
0.00039
30
0
11
0.665456423559732
21
1.78259897546694
31
0
210
0
220
0
230
-1
40
0.148387
41
2.83203107259426
42
2.97125366214431
0
ELLIPSE
5
AD
100
AcDbEntity
8
1
62
256
6
ByLayer
370
18
48
1
60
0
100
AcDbEllipse
10
30.067083
20
0.038338
30
0
11
0.13332100829856
21
0.425213612070826
31
0
210
0
220
0
230
-1
40
0.112798
41
-2.34950393588203
42
-1.73993824384282
0
ELLIPSE
5
AE
100
AcDbEntity
8
1
62
256
6
ByLayer
370
13
48
1
60
0
100
AcDbEllipse
10
30.037687
20
0.892203
30
0
11
1.26453316056969
21
-0.501159813524314
31
0
210
0
220
0
230
-1
40
0.440933
41
1.62403069574563
42
1.94724160301815
0
ELLIPSE
5
AF
100
AcDbEntity
8
1
62
256
6
ByLayer
370
18
48
1
60
0
100
AcDbEllipse
10
29.861099
20
0.083879
30
0
11
0.0727819104937754
21
0.301917195710186
31
0
210
0
220
0
230
-1
40
0.478434
41
1.67306349035129
42
2.45976119972508
0
ELLIPSE
5
B0
100
AcDbEntity
8
1
62
256
6
ByLayer
370
18
48
1
60
0
100
AcDbEllipse
10
29.635025
20
-0.892203
30
0
11
0.279439747589607
21
0.74855241318189
31
0
210
0
220
0
230
-1
40
0.148387
41
0.730060677423385
42
1.46219501291647
0
POINT
5
6C
100
AcDbEntity
8
81
62
256
6
ByLayer
370
18
48
1
60
0
100
AcDbPoint
10
30
20
0
30
0
39
0
210
0
220
0
230
1
50
360
0
POINT
5
6E
100
AcDbEntity
8
80
62
256
6
ByLayer
370
18
48
1
60
0
100
AcDbPoint
10
0
20
0
30
0
39
0
210
0
220
0
230
1
50
360
0
POINT
5
70
100
AcDbEntity
8
SK2
62
256
6
ByLayer
370
18
48
1
60
1
100
AcDbPoint
10
-36
20
-3
30
0
39
0
210
0
220
0
230
1
50
360
0
POINT
5
72
100
AcDbEntity
8
SK2
62
256
6
ByLayer
370
18
48
1
60
1
100
AcDbPoint
10
-36
20
3
30
0
39
0
210
0
220
0
230
1
50
360
0
POINT
5
73
100
AcDbEntity
8
2
62
256
6
ByLayer
370
18
48
1
60
1
100
AcDbPoint
10
29.4
20
-1.785
30
0
39
0
210
0
220
0
230
1
50
360
0
POINT
5
75
100
AcDbEntity
8
2
62
256
6
ByLayer
370
18
48
1
60
1
100
AcDbPoint
10
29.4
20
1.785
30
0
39
0
210
0
220
0
230
1
50
360
0
SPLINE
5
B1
100
AcDbEntity
8
1
62
256
6
ByLayer
370
18
48
1
60
0
100
AcDbSpline
70
4
71
2
72
6
73
3
40
0
40
0
40
0
40
1
40
1
40
1
41
1
10
5.52129240327611
20
1.67548907923893
30
0
41
1
10
4.88630174509518
20
1.67612285520164
30
0
41
1
10
4.25104197481829
20
1.67385953143568
30
0
0
SPLINE
5
B2
100
AcDbEntity
8
1
62
256
6
ByLayer
370
18
48
1
60
0
100
AcDbSpline
70
4
71
1
72
4
73
2
40
0
40
0
40
1
40
1
41
1
10
20.0703802991604
20
-0.146836167123922
30
0
41
1
10
20.1247030287826
20
-0.174917097607505
30
0
0
SPLINE
5
B3
100
AcDbEntity
8
1
62
256
6
ByLayer
370
18
48
1
60
0
100
AcDbSpline
70
4
71
3
72
18
73
14
40
0
40
0
40
0
40
0
40
0.150789002422978
40
0.266908448238623
40
0.348254056717645
40
0.398407008964753
40
0.442221708598701
40
0.484224174052579
40
0.524409896462238
40
0.573443784324557
40
0.647409643841316
40
0.80500495796349
40
1
40
1
40
1
40
1
41
1
10
19.6918402290206
20
-1.68304097515343
30
0
41
1
10
19.9364643716253
20
-1.68308302906561
30
0
41
1
10
20.369686163846
20
-1.68326979219563
30
0
41
1
10
20.9358518672673
20
-1.68332240206752
30
0
41
1
10
21.3381819096211
20
-1.68404097240344
30
0
41
1
10
21.6228484899561
20
-1.68350263304257
30
0
41
1
10
21.8436747641361
20
-1.6845826757405
30
0
41
1
10
22.0483812581354
20
-1.68470223720979
30
0
41
1
10
22.2616332210658
20
-1.68418593034176
30
0
41
1
10
22.5268401126023
20
-1.6844593442317
30
0
41
1
10
22.9828083289397
20
-1.6856835924367
30
0
41
1
10
23.6760023266383
20
-1.68476581319794
30
0
41
1
10
24.2489909687935
20
-1.68549766423484
30
0
41
1
10
24.5658778545035
20
-1.68588701565469
30
0
0
SPLINE
5
B4
100
AcDbEntity
8
1
62
256
6
ByLayer
370
18
48
1
60
0
100
AcDbSpline
70
4
71
3
72
15
73
11
40
0
40
0
40
0
40
0
40
0.190110447714571
40
0.335728514299304
40
0.455325298930443
40
0.540907583802981
40
0.640881672811558
40
0.778513313838936
40
0.957255329346717
40
1
40
1
40
1
40
1
41
1
10
15.0520907663482
20
1.68090020174938
30
0
41
1
10
14.7893303948873
20
1.68098011043247
30
0
41
1
10
14.3252919264006
20
1.6808484205107
30
0
41
1
10
13.6955836985487
20
1.6797641187789
30
0
41
1
10
13.2108874783354
20
1.67888512179741
30
0
41
1
10
12.788913281203
20
1.67942566531525
30
0
41
1
10
12.3420759994727
20
1.67859119586535
30
0
41
1
10
11.7666852337335
20
1.67872460151409
30
0
41
1
10
11.2700475081597
20
1.67789519794138
30
0
41
1
10
10.9639009891552
20
1.67757965623329
30
0
41
1
10
10.9048229483039
20
1.67752470634991
30
0
0
SPLINE
5
B5
100
AcDbEntity
8
1
62
256
6
ByLayer
370
18
48
1
60
0
100
AcDbSpline
70
4
71
3
72
18
73
14
40
0
40
0
40
0
40
0
40
0.154290976764891
40
0.275156543936523
40
0.362719787956663
40
0.418308306200077
40
0.463935197040868
40
0.506701861427951
40
0.547285529638901
40
0.601470446967789
40
0.675771071333446
40
0.824698871218319
40
1
40
1
40
1
40
1
41
1
10
10.1705497194077
20
-1.67705159439657
30
0
41
1
10
10.4207625067783
20
-1.6771575318343
30
0
41
1
10
10.8672074880032
20
-1.67752392540541
30
0
41
1
10
11.4567164339935
20
-1.67727238048471
30
0
41
1
10
11.8855214940422
20
-1.67876500024013
30
0
41
1
10
12.1919529706472
20
-1.67829921315388
30
0
41
1
10
12.4255698517456
20
-1.67883708551204
30
0
41
1
10
12.6348387717076
20
-1.68001151309059
30
0
41
1
10
12.8579916432105
20
-1.67887330052452
30
0
41
1
10
13.1325810556947
20
-1.6783902899856
30
0
41
1
10
13.5832194603062
20
-1.68119503141204
30
0
41
1
10
14.2308079349836
20
-1.67996038139324
30
0
41
1
10
14.7572727562502
20
-1.68070168715803
30
0
41
1
10
15.0418612878994
20
-1.68087987279094
30
0
0
SPLINE
5
B6
100
AcDbEntity
8
1
62
256
6
ByLayer
370
18
48
1
60
0
100
AcDbSpline
70
4
71
1
72
4
73
2
40
0
40
0
40
1
40
1
41
1
10
29.1788592629598
20
-1.68842942167581
30
0
41
1
10
29.354873837535
20
-1.68604486343557
30
0
0
SPLINE
5
B7
100
AcDbEntity
8
1
62
256
6
ByLayer
370
18
48
1
60
0
100
AcDbSpline
70
4
71
3
72
16
73
12
40
0
40
0
40
0
40
0
40
0.148488238814762
40
0.274481372390544
40
0.35758990608273
40
0.426556172741223
40
0.50316444947462
40
0.610898149491442
40
0.755887623809512
40
0.947245250521554
40
1
40
1
40
1
40
1
41
1
10
24.56741420759
20
1.68583053493012
30
0
41
1
10
24.3636143674943
20
1.68529752283968
30
0
41
1
10
23.9868977498367
20
1.68442844558589
30
0
41
1
10
23.4962334960212
20
1.68578235346393
30
0
41
1
10
23.114573764707
20
1.68415359774104
30
0
41
1
10
22.8007730863498
20
1.68569545115926
30
0
41
1
10
22.453109636182
20
1.683975831407
30
0
41
1
10
22.001108942643
20
1.68500456969269
30
0
41
1
10
21.3919120988414
20
1.68343839028233
30
0
41
1
10
20.857798387628
20
1.6833792176493
30
0
41
1
10
20.5228658727471
20
1.68327164057186
30
0
41
1
10
20.4504904378968
20
1.68324724570286
30
0
0
SPLINE
5
B8
100
AcDbEntity
8
1
62
256
6
ByLayer
370
18
48
1
60
0
100
AcDbSpline
70
4
71
2
72
6
73
3
40
0
40
0
40
0
40
1
40
1
40
1
41
1
10
4.25104197481832
20
-1.67385953143571
30
0
41
1
10
4.88713016893286
20
-1.67612490714672
30
0
41
1
10
5.52294889997472
20
-1.67548940472406
30
0
0
SPLINE
5
B9
100
AcDbEntity
8
1
62
256
6
ByLayer
370
18
48
1
60
0
100
AcDbSpline
70
4
71
3
72
10
73
6
40
0
40
0
40
0
40
0
40
0.5
40
0.5
40
1
40
1
40
1
40
1
41
1
10
4.25119654131481
20
-1.51606065142315
30
0
41
1
10
4.42464994450651
20
-1.56138975706824
30
0
41
1
10
4.59861995688351
20
-1.59665458331676
30
0
41
1
10
4.94949121756397
20
-1.64772327452735
30
0
41
1
10
5.12505848258493
20
-1.66334885655405
30
0
41
1
10
5.30183863161736
20
-1.67048831411921
30
0
0
SPLINE
5
BA
100
AcDbEntity
8
1
62
256
6
ByLayer
370
13
48
1
60
0
100
AcDbSpline
70
4
71
3
72
12
73
8
40
0
40
0
40
0
40
0
40
0.112261107147186
40
0.112261107147186
40
0.556130553573593
40
0.556130553573593
40
1
40
1
40
1
40
1
41
1
10
4.25104873508582
20
-1.67428842744169
30
0
41
1
10
4.25105603869153
20
-1.67477617728991
30
0
41
1
10
4.25106324923109
20
-1.67453134056237
30
0
41
1
10
4.25109831569003
20
-1.66964887930803
30
0
41
1
10
4.25112462995705
20
-1.65442274245839
30
0
41
1
10
4.25116898626413
20
-1.60110842808083
30
0
41
1
10
4.2511864713087
20
-1.5637571436618
30
0
41
1
10
4.25119654126937
20
-1.51606065142295
30
0
0
SPLINE
5
BB
100
AcDbEntity
8
1
62
256
6
ByLayer
370
18
48
1
60
0
100
AcDbSpline
70
4
71
3
72
8
73
4
40
0
40
0
40
0
40
0
40
1
40
1
40
1
40
1
41
1
10
29.3891865186239
20
1.77314911663387
30
0
41
1
10
29.2720725049701
20
1.78103529080766
30
0
41
1
10
29.1547155160605
20
1.78486762721335
30
0
41
1
10
29.0374664329536
20
1.78471085929991
30
0
0
SPLINE
5
BC
100
AcDbEntity
8
1
62
256
6
ByLayer
370
18
48
1
60
0
100
AcDbSpline
70
4
71
3
72
40
73
36
40
0
40
0
40
0
40
0
40
0.0425058678023461
40
0.0425058678023461
40
0.118269218245792
40
0.118269218245792
40
0.156150893467514
40
0.156150893467514
40
0.194032568689236
40
0.194032568689236
40
0.345559269576121
40
0.345559269576121
40
0.421322620019562
40
0.421322620019562
40
0.497085970463004
40
0.497085970463004
40
0.534967645684725
40
0.534967645684725
40
0.572849320906447
40
0.572849320906447
40
0.648612671349892
40
0.648612671349892
40
0.724376021793336
40
0.724376021793336
40
0.762257697015058
40
0.762257697015058
40
0.800139372236779
40
0.800139372236779
40
0.875902722680224
40
0.875902722680224
40
0.913784397901947
40
0.913784397901947
40
0.95166607312367
40
0.95166607312367
40
1
40
1
40
1
40
1
41
1
10
20.3879416673646
20
-1.70712122665205
30
0
41
1
10
20.2408778226765
20
-1.73142181360367
30
0
41
1
10
20.0943030782943
20
-1.74960200214471
30
0
41
1
10
19.6868509478611
20
-1.783028517985
30
0
41
1
10
19.4260497503576
20
-1.78478099000421
30
0
41
1
10
19.0320891494405
20
-1.75738583056659
30
0
41
1
10
18.900020887753
20
-1.74320217370106
30
0
41
1
10
18.6355725326874
20
-1.70490401331287
30
0
41
1
10
18.504044300947
20
-1.68093505371246
30
0
41
1
10
17.8484233741945
20
-1.53836061879949
30
0
41
1
10
17.330466469796
20
-1.35151987508058
30
0
41
1
10
16.5365743341545
20
-0.987242679702575
30
0
41
1
10
16.274151358246
20
-0.854218515771095
30
0
41
1
10
15.7514944010263
20
-0.573402933819551
30
0
41
1
10
15.4908730147591
20
-0.425468564592904
30
0
41
1
10
15.097715633393
20
-0.197687798452506
30
0
41
1
10
14.9662863343415
20
-0.12079111956109
30
0
41
1
10
14.7021055580744
20
0.0340050740930735
30
0
41
1
10
14.5696310889099
20
0.111741088431785
30
0
41
1
10
14.1751512441958
20
0.341685079656202
30
0
41
1
10
13.9140940379457
20
0.491421862839644
30
0
41
1
10
13.3918422672769
20
0.777267790699284
30
0
41
1
10
13.1305542328669
20
0.91320856065218
30
0
41
1
10
12.7348772120754
20
1.100955359187
30
0
41
1
10
12.6021276133186
20
1.16095832429767
30
0
41
1
10
12.3387242020126
20
1.27321918306657
30
0
41
1
10
12.2075612015516
20
1.32561362986772
30
0
41
1
10
11.8148677567455
20
1.47088844583013
30
0
41
1
10
11.5542916029806
20
1.55200939956774
30
0
41
1
10
11.1616625454933
20
1.64682826784605
30
0
41
1
10
11.0305164376258
20
1.67398405612224
30
0
41
1
10
10.7672012454772
20
1.71890799454897
30
0
41
1
10
10.634486263595
20
1.73666930999713
30
0
41
1
10
10.3340937452596
20
1.7654831863893
30
0
41
1
10
10.166706469958
20
1.77343653075769
30
0
41
1
10
9.99974803681971
20
1.77331631873435
30
0
0
SPLINE
5
BD
100
AcDbEntity
8
1
62
256
6
ByLayer
370
18
48
1
60
0
100
AcDbSpline
70
4
71
3
72
20
73
16
40
0
40
0
40
0
40
0
40
0.125
40
0.125
40
0.25
40
0.25
40
0.375
40
0.375
40
0.5
40
0.5
40
0.625
40
0.625
40
0.75
40
0.75
40
1
40
1
40
1
40
1
41
1
10
29.6672644292926
20
-0.408378165396328
30
0
41
1
10
29.6561288111195
20
-0.392610221022011
30
0
41
1
10
29.6460836984091
20
-0.375563454842251
30
0
41
1
10
29.6316118509832
20
-0.340504433528764
30
0
41
1
10
29.6272869109569
20
-0.32225442707815
30
0
41
1
10
29.6279041537739
20
-0.289313821640491
30
0
41
1
10
29.6327980560062
20
-0.275326767084437
30
0
41
1
10
29.6480985010874
20
-0.253746395935934
30
0
41
1
10
29.6584341639023
20
-0.245856565295838
30
0
41
1
10
29.6811269162291
20
-0.234393051564297
30
0
41
1
10
29.6937806399167
20
-0.23066177142266
30
0
41
1
10
29.7198472469962
20
-0.226071833926596
30
0
41
1
10
29.733380678683
20
-0.225169201634969
30
0
41
1
10
29.7750754898306
20
-0.225508393108697
30
0
41
1
10
29.8042431048701
20
-0.229801342549393
30
0
41
1
10
29.8334341015287
20
-0.23672260332188
30
0
0
SPLINE
5
BE
100
AcDbEntity
8
1
62
256
6
ByLayer
370
18
48
1
60
0
100
AcDbSpline
70
4
71
3
72
28
73
24
40
0
40
0
40
0
40
0
40
0.0624999999999967
40
0.0624999999999967
40
0.124999999999993
40
0.124999999999993
40
0.249999999999987
40
0.249999999999987
40
0.37499999999998
40
0.37499999999998
40
0.499999999999973
40
0.499999999999973
40
0.56249999999998
40
0.56249999999998
40
0.624999999999986
40
0.624999999999986
40
0.687499999999993
40
0.687499999999993
40
0.749999999999999
40
0.749999999999999
40
0.875
40
0.875
40
1
40
1
40
1
40
1
41
1
10
29.6672644293071
20
-0.408378165384619
30
0
41
1
10
29.6597641782407
20
-0.426973357124297
30
0
41
1
10
29.6532020101849
20
-0.446107292406623
30
0
41
1
10
29.6427516492395
20
-0.483785141712104
30
0
41
1
10
29.6388487346832
20
-0.502509403248553
30
0
41
1
10
29.632272552688
20
-0.553560746002631
30
0
41
1
10
29.6348422072404
20
-0.581098144216782
30
0
41
1
10
29.6507351647283
20
-0.613831960307976
30
0
41
1
10
29.6637902863943
20
-0.619770380523761
30
0
41
1
10
29.6945414196894
20
-0.613764682219852
30
0
41
1
10
29.7123510916575
20
-0.602079945609972
30
0
41
1
10
29.7404253557723
20
-0.573356651853658
30
0
41
1
10
29.7498110991143
20
-0.562126076545155
30
0
41
1
10
29.7685714307237
20
-0.536367789520142
30
0
41
1
10
29.7780093005125
20
-0.521695556982195
30
0
41
1
10
29.7959101566931
20
-0.490145028369369
30
0
41
1
10
29.8046298588193
20
-0.472810887983059
30
0
41
1
10
29.8204240630631
20
-0.43678191561969
30
0
41
1
10
29.8274895095141
20
-0.418209651428128
30
0
41
1
10
29.8456473262627
20
-0.360670176842035
30
0
41
1
10
29.8522664191036
20
-0.323463047906785
30
0
41
1
10
29.8516924305343
20
-0.265322555375576
30
0
41
1
10
29.8447023560616
20
-0.245910567857266
30
0
41
1
10
29.8334341015287
20
-0.23672260332188
30
0
0
SPLINE
5
BF
100
AcDbEntity
8
1
62
256
6
ByLayer
370
18
48
1
60
0
100
AcDbSpline
70
4
71
3
72
38
73
34
40
0
40
0
40
0
40
0
40
0.0398550121538804
40
0.0398550121538804
40
0.0797100243077607
40
0.0797100243077607
40
0.159420048615522
40
0.159420048615522
40
0.239130072923282
40
0.239130072923282
40
0.278985085077164
40
0.278985085077164
40
0.318840097231046
40
0.318840097231046
40
0.398550121538811
40
0.398550121538811
40
0.478260145846577
40
0.478260145846577
40
0.637680194462108
40
0.637680194462108
40
0.67753520661599
40
0.67753520661599
40
0.717390218769873
40
0.717390218769873
40
0.79710024307764
40
0.79710024307764
40
0.876810267385407
40
0.876810267385407
40
0.916665279539291
40
0.916665279539291
40
0.956520291693175
40
0.956520291693175
40
1
40
1
40
1
40
1
41
1
10
29.3891865186239
20
-1.77314911663393
30
0
41
1
10
29.2570989834187
20
-1.78204357150159
30
0
41
1
10
29.1251350665295
20
-1.78581496759693
30
0
41
1
10
28.8609678191947
20
-1.7831926441068
30
0
41
1
10
28.728449438706
20
-1.77676063709299
30
0
41
1
10
28.3331060198246
20
-1.74253298813332
30
0
41
1
10
28.0720544406939
20
-1.69988507049948
30
0
41
1
10
27.5501768126263
20
-1.57834858927711
30
0
41
1
10
27.289428032455
20
-1.49943541492266
30
0
41
1
10
26.8953335149751
20
-1.35614633282881
30
0
41
1
10
26.762988165721
20
-1.30407022686467
30
0
41
1
10
26.4990143730921
20
-1.19306898603031
30
0
41
1
10
26.3676966641394
20
-1.13429052605105
30
0
41
1
10
25.9748650430716
20
-0.949480795824115
30
0
41
1
10
25.7144804971308
20
-0.814969717522757
30
0
41
1
10
25.1923914645282
20
-0.529970990935794
30
0
41
1
10
24.9301499065703
20
-0.379522763458368
30
0
41
1
10
24.1363984385037
20
0.0828802104103943
30
0
41
1
10
23.6185308413802
20
0.394557697984311
30
0
41
1
10
22.9631934879959
20
0.750734953982459
30
0
41
1
10
22.8316977494725
20
0.820252671773233
30
0
41
1
10
22.5672504458162
20
0.954842470857841
30
0
41
1
10
22.4351881523041
20
1.01947132561435
30
0
41
1
10
22.0413981398657
20
1.20338897312922
30
0
41
1
10
21.7805983098466
20
1.31270556000658
30
0
41
1
10
21.258600031476
20
1.50055447613931
30
0
41
1
10
20.9971277093241
20
1.57879426224434
30
0
41
1
10
20.6012527755905
20
1.66923874562849
30
0
41
1
10
20.4687692373715
20
1.69478341961744
30
0
41
1
10
20.2057527494859
20
1.73575002071084
30
0
41
1
10
20.0747422150902
20
1.75130153823599
30
0
41
1
10
19.8014304254074
20
1.77352228148754
30
0
41
1
10
19.6590846658382
20
1.77923089407511
30
0
41
1
10
19.5166627505195
20
1.77904547436933
30
0
0
SPLINE
5
C0
100
AcDbEntity
8
1
62
256
6
ByLayer
370
18
48
1
60
0
100
AcDbSpline
70
4
71
3
72
28
73
24
40
0
40
0
40
0
40
0
40
0.0548725138614454
40
0.0548725138614454
40
0.113942981745105
40
0.113942981745105
40
0.173013449628764
40
0.173013449628764
40
0.291154385396082
40
0.291154385396082
40
0.350224853279742
40
0.350224853279742
40
0.409295321163401
40
0.409295321163401
40
0.527436256930722
40
0.527436256930722
40
0.645577192698042
40
0.645577192698042
40
0.704647660581702
40
0.704647660581702
40
0.763718128465362
40
0.763718128465362
40
1
40
1
40
1
40
1
41
1
10
10.8672533414928
20
-1.70175644140008
30
0
41
1
10
10.745366009662
20
-1.72182255983867
30
0
41
1
10
10.6231201736805
20
-1.73781083642854
30
0
41
1
10
10.3680588339819
20
-1.76216905667047
30
0
41
1
10
10.2356150271511
20
-1.76979225605234
30
0
41
1
10
9.97261910376483
20
-1.77491279043909
30
0
41
1
10
9.84159224544587
20
-1.77244936516746
30
0
41
1
10
9.44912153136272
20
-1.75032041719567
30
0
41
1
10
9.18844294467729
20
-1.71585676750956
30
0
41
1
10
8.79527436351694
20
-1.63586142354342
30
0
41
1
10
8.66389004144256
20
-1.60447108737827
30
0
41
1
10
8.39996247352343
20
-1.53235918044624
30
0
41
1
10
8.26721858496094
20
-1.49158499493325
30
0
41
1
10
7.87204325646286
20
-1.35789639747929
30
0
41
1
10
7.61074975931905
20
-1.25318376304836
30
0
41
1
10
7.08811303529887
20
-1.01847025467896
30
0
41
1
10
6.82678977751505
20
-0.888435130179801
30
0
41
1
10
6.43141124438372
20
-0.678905743623972
30
0
41
1
10
6.29859756043743
20
-0.606365788201799
30
0
41
1
10
6.03466131182131
20
-0.459249760569776
30
0
41
1
10
5.90330983710595
20
-0.384576360933437
30
0
41
1
10
5.24829586912455
20
-0.0079747527540519
30
0
41
1
10
4.73024439614167
20
0.304323612169099
30
0
41
1
10
4.19986605121326
20
0.595676420494755
30
0
0
SPLINE
5
C1
100
AcDbEntity
8
1
62
256
6
ByLayer
370
18
48
1
60
0
100
AcDbSpline
70
4
71
3
72
66
73
62
40
0
40
0
40
0
40
0
40
0.0061792336425262
40
0.0061792336425262
40
0.0676760374439704
40
0.0676760374439704
40
0.0984244393446925
40
0.0984244393446925
40
0.129172841245415
40
0.129172841245415
40
0.159921243146137
40
0.159921243146137
40
0.190669645046859
40
0.190669645046859
40
0.221418046947581
40
0.221418046947581
40
0.252166448848303
40
0.252166448848303
40
0.282914850749025
40
0.282914850749025
40
0.313663252649747
40
0.313663252649747
40
0.34441165455047
40
0.34441165455047
40
0.375160056451192
40
0.375160056451192
40
0.405908458351914
40
0.405908458351914
40
0.436656860252636
40
0.436656860252636
40
0.467405262153358
40
0.467405262153358
40
0.49815366405408
40
0.49815366405408
40
0.528902065954802
40
0.528902065954802
40
0.559650467855525
40
0.559650467855525
40
0.621147271656969
40
0.621147271656969
40
0.682644075458413
40
0.682644075458413
40
0.713392477359135
40
0.713392477359135
40
0.744140879259857
40
0.744140879259857
40
0.774889281160579
40
0.774889281160579
40
0.805637683061302
40
0.805637683061302
40
0.836386084962024
40
0.836386084962024
40
0.867134486862746
40
0.867134486862746
40
0.897882888763468
40
0.897882888763468
40
0.92863129066419
40
0.92863129066419
40
0.990128094465636
40
0.990128094465636
40
1
40
1
40
1
40
1
41
1
10
26.4966800811419
20
-1.35718007490823
30
0
41
1
10
26.4731432713759
20
-1.36497577114687
30
0
41
1
10
26.4496226855806
20
-1.37264682671662
30
0
41
1
10
26.1922053195328
20
-1.45527870615439
30
0
41
1
10
25.9587467623726
20
-1.51756013346622
30
0
41
1
10
25.6080110075503
20
-1.58923744730956
30
0
41
1
10
25.4909526805038
20
-1.60939606736923
30
0
41
1
10
25.2559260949715
20
-1.64299613453946
30
0
41
1
10
25.1380070338161
20
-1.65651866849399
30
0
41
1
10
24.9014504887212
20
-1.67641766487546
30
0
41
1
10
24.7831958898216
20
-1.68268968857794
30
0
41
1
10
24.5479338937754
20
-1.68737466298091
30
0
41
1
10
24.4306008067973
20
-1.68590308069113
30
0
41
1
10
24.1965343906616
20
-1.67470152588885
30
0
41
1
10
24.0798626718144
20
-1.66456378421782
30
0
41
1
10
23.8464746391082
20
-1.63814549823698
30
0
41
1
10
23.7297277873792
20
-1.62190617372244
30
0
41
1
10
23.4959543281307
20
-1.5819906930063
30
0
41
1
10
23.3789969296498
20
-1.55799640596768
30
0
41
1
10
23.1444649105111
20
-1.50277940030313
30
0
41
1
10
23.0268962774041
20
-1.47222845833173
30
0
41
1
10
22.7906028861306
20
-1.4043219757578
30
0
41
1
10
22.6720207960294
20
-1.36675904200345
30
0
41
1
10
22.4367784784728
20
-1.28510044307515
30
0
41
1
10
22.3195520547562
20
-1.24167521740657
30
0
41
1
10
22.0853334827279
20
-1.15040478411228
30
0
41
1
10
21.9684078703907
20
-1.10230149872274
30
0
41
1
10
21.7349390348368
20
-1.00046857716146
30
0
41
1
10
21.6183149571652
20
-0.946946328466311
30
0
41
1
10
21.3846682829791
20
-0.836996679434321
30
0
41
1
10
21.2676332784452
20
-0.780234312157717
30
0
41
1
10
21.0330704516009
20
-0.662489494352656
30
0
41
1
10
20.9155181263746
20
-0.601344483867393
30
0
41
1
10
20.6794472001457
20
-0.47688085008437
30
0
41
1
10
20.5608625176284
20
-0.413500214056768
30
0
41
1
10
20.3253611343617
20
-0.285780876649909
30
0
41
1
10
20.2081998083761
20
-0.2211071152866
30
0
41
1
10
19.8573492348697
20
-0.0266145373059601
30
0
41
1
10
19.6240163046967
20
0.103227764286231
30
0
41
1
10
19.1571529481774
20
0.360385051047046
30
0
41
1
10
18.9230230507797
20
0.486840912781815
30
0
41
1
10
18.5691410401041
20
0.669982392117305
30
0
41
1
10
18.4506402991074
20
0.730014212151076
30
0
41
1
10
18.2149310701477
20
0.845695030042606
30
0
41
1
10
18.0974183362158
20
0.901475841624489
30
0
41
1
10
17.8631933355505
20
1.00838009268071
30
0
41
1
10
17.7464384145943
20
1.05953119278971
30
0
41
1
10
17.5128479929104
20
1.15713118152354
30
0
41
1
10
17.3960066828125
20
1.20349924888799
30
0
41
1
10
17.1621873484846
20
1.2902856955352
30
0
41
1
10
17.0452664509256
20
1.33078990299333
30
0
41
1
10
16.8108058227378
20
1.40639371140244
30
0
41
1
10
16.6932369882535
20
1.4415206590547
30
0
41
1
10
16.4570418836168
20
1.50479109554803
30
0
41
1
10
16.3384117898266
20
1.53278850775746
30
0
41
1
10
16.1028458261817
20
1.58167982904604
30
0
41
1
10
15.9854063815556
20
1.60293375285414
30
0
41
1
10
15.6336768752483
20
1.65531898943223
30
0
41
1
10
15.4005750085184
20
1.67419630269561
30
0
41
1
10
15.1291966537823
20
1.6804700694735
30
0
41
1
10
15.0916489606245
20
1.68091122656727
30
0
41
1
10
15.0540852734537
20
1.68093766830034
30
0
0
SPLINE
5
C2
100
AcDbEntity
8
1
62
256
6
ByLayer
370
18
48
1
60
0
100
AcDbSpline
70
4
71
3
72
16
73
12
40
0
40
0
40
0
40
0
40
0.0151016749375731
40
0.0151016749375731
40
0.343401116625046
40
0.343401116625046
40
0.67170055831252
40
0.67170055831252
40
0.83585027915626
40
0.83585027915626
40
1
40
1
40
1
40
1
41
1
10
7.45102838690948
20
-1.35030231749397
30
0
41
1
10
7.440227628076
20
-1.35384962970815
30
0
41
1
10
7.42942867520097
20
-1.35736861334561
30
0
41
1
10
7.18390309899456
20
-1.43673062064332
30
0
41
1
10
6.95031048621783
20
-1.49923844903216
30
0
41
1
10
6.48283313645499
20
-1.5984700599474
30
0
41
1
10
6.24846342014231
20
-1.63349428798676
30
0
41
1
10
5.89492989265011
20
-1.6648713391649
30
0
41
1
10
5.77636272306518
20
-1.67160116813534
30
0
41
1
10
5.53921321841216
20
-1.67659810135501
30
0
41
1
10
5.42063538309679
20
-1.67530517235781
30
0
41
1
10
5.30211375271352
20
-1.67049896746843
30
0
0
SPLINE
5
C3
100
AcDbEntity
8
1
62
256
6
ByLayer
370
18
48
1
60
0
100
AcDbSpline
70
4
71
3
72
8
73
4
40
0
40
0
40
0
40
0
40
1
40
1
40
1
40
1
41
1
10
4.19986605121352
20
0.595676420494613
30
0
41
1
10
4.17094137540508
20
0.61156561658882
30
0
41
1
10
4.14163529707136
20
0.62681530742509
30
0
41
1
10
4.11486466748303
20
0.645715280588917
30
0
0
SPLINE
5
C4
100
AcDbEntity
8
1
62
256
6
ByLayer
370
18
48
1
60
0
100
AcDbSpline
70
4
71
3
72
12
73
8
40
0
40
0
40
0
40
0
40
0.187649197167771
40
0.187649197167771
40
0.593824598583886
40
0.593824598583886
40
1
40
1
40
1
40
1
41
1
10
4.05367671606848
20
-1.76976308183089
30
0
41
1
10
4.05368878418491
20
-1.76978572593291
30
0
41
1
10
4.05370086585634
20
-1.76713753809727
30
0
41
1
10
4.05373803589384
20
-1.75039413026735
30
0
41
1
10
4.0537620529293
20
-1.7268265778344
30
0
41
1
10
4.05380347981355
20
-1.65587595535081
30
0
41
1
10
4.05382087927208
20
-1.60783311744817
30
0
41
1
10
4.05383121082463
20
-1.54969179195953
30
0
0
SPLINE
5
C5
100
AcDbEntity
8
1
62
256
6
ByLayer
370
18
48
1
60
0
100
AcDbSpline
70
4
71
3
72
12
73
8
40
0
40
0
40
0
40
0
40
0.250000000000001
40
0.250000000000001
40
0.500000000000001
40
0.500000000000001
40
1
40
1
40
1
40
1
41
1
10
29.3891865186239
20
-1.77314911663373
30
0
41
1
10
29.3941151153314
20
-1.76016329995443
30
0
41
1
10
29.3986300925579
20
-1.74675328459162
30
0
41
1
10
29.4053515886379
20
-1.72276644946578
30
0
41
1
10
29.4075100443115
20
-1.71229008072649
30
0
41
1
10
29.4099928096053
20
-1.68943332177287
30
0
41
1
10
29.4068974437554
20
-1.68461796702417
30
0
41
1
10
29.40175093569
20
-1.68610261946418
30
0
0
SPLINE
5
C6
100
AcDbEntity
8
1
62
256
6
ByLayer
370
18
48
1
60
0
100
AcDbSpline
70
4
71
3
72
14
73
10
40
0
40
0
40
0
40
0
40
0.25
40
0.25
40
0.5
40
0.5
40
0.75
40
0.75
40
1
40
1
40
1
40
1
41
1
10
29.1609365432291
20
0.315196968196432
30
0
41
1
10
29.1652148377255
20
0.338234926492532
30
0
41
1
10
29.172695042643
20
0.362041614355888
30
0
41
1
10
29.1940368453604
20
0.411286110142299
30
0
41
1
10
29.2076732299162
20
0.436012151498119
30
0
41
1
10
29.2420016966273
20
0.482567770536946
30
0
41
1
10
29.2629307870585
20
0.50415035977889
30
0
41
1
10
29.3111078133217
20
0.53927908691648
30
0
41
1
10
29.3385117384323
20
0.550837233614573
30
0
41
1
10
29.367319120864
20
0.55790686214084
30
0
0
SPLINE
5
C7
100
AcDbEntity
8
1
62
256
6
ByLayer
370
18
48
1
60
0
100
AcDbSpline
70
4
71
3
72
10
73
6
40
0
40
0
40
0
40
0
40
0.5
40
0.5
40
1
40
1
40
1
40
1
41
1
10
4.0538312108248
20
-1.54969179195933
30
0
41
1
10
4.07880343768417
20
-1.5281890145817
30
0
41
1
10
4.11045972916773
20
-1.51479419953907
30
0
41
1
10
4.17846018002982
20
-1.50408902985842
30
0
41
1
10
4.21488881048731
20
-1.50657224164741
30
0
41
1
10
4.25119654126939
20
-1.51606065141127
30
0
0
SPLINE
5
C8
100
AcDbEntity
8
1
62
256
6
ByLayer
370
18
48
1
60
0
100
AcDbSpline
70
4
71
3
72
10
73
6
40
0
40
0
40
0
40
0
40
0.5
40
0.5
40
1
40
1
40
1
40
1
41
1
10
4.11486466748266
20
0.645715280589286
30
0
41
1
10
4.097388720781
20
0.658053239343246
30
0
41
1
10
4.08229964322999
20
0.673093691488333
30
0
41
1
10
4.06018804489872
20
0.70754975065455
30
0
41
1
10
4.05310337687874
20
0.727059355640478
30
0
41
1
10
4.05311422707177
20
0.747046454856672
30
0
0
SPLINE
5
C9
100
AcDbEntity
8
1
62
256
6
ByLayer
370
18
48
1
60
0
100
AcDbSpline
70
4
71
3
72
72
73
68
40
0
40
0
40
0
40
0
40
0.0228876002874735
40
0.0228876002874735
40
0.0533633194212196
40
0.0533633194212196
40
0.0838390385549657
40
0.0838390385549657
40
0.114314757688712
40
0.114314757688712
40
0.144790476822458
40
0.144790476822458
40
0.175266195956204
40
0.175266195956204
40
0.20574191508995
40
0.20574191508995
40
0.236217634223696
40
0.236217634223696
40
0.266693353357442
40
0.266693353357442
40
0.297169072491189
40
0.297169072491189
40
0.327644791624935
40
0.327644791624935
40
0.358120510758681
40
0.358120510758681
40
0.388596229892427
40
0.388596229892427
40
0.419071949026173
40
0.419071949026173
40
0.449547668159919
40
0.449547668159919
40
0.480023387293665
40
0.480023387293665
40
0.510499106427411
40
0.510499106427411
40
0.540974825561157
40
0.540974825561157
40
0.571450544694903
40
0.571450544694903
40
0.601926263828649
40
0.601926263828649
40
0.662877702096143
40
0.662877702096143
40
0.69335342122989
40
0.69335342122989
40
0.723829140363638
40
0.723829140363638
40
0.754304859497385
40
0.754304859497385
40
0.784780578631133
40
0.784780578631133
40
0.81525629776488
40
0.81525629776488
40
0.845732016898628
40
0.845732016898628
40
0.876207736032375
40
0.876207736032375
40
0.906683455166123
40
0.906683455166123
40
0.93715917429987
40
0.93715917429987
40
0.967634893433617
40
0.967634893433617
40
0.998110612567365
40
0.998110612567365
40
1
40
1
40
1
40
1
41
1
10
7.47604519609277
20
1.34191311437556
30
0
41
1
10
7.56515075660809
20
1.37611361998111
30
0
41
1
10
7.65429302174132
20
1.40852532956569
30
0
41
1
10
7.86271154553964
20
1.47943633481253
30
0
41
1
10
7.98198685821089
20
1.51662308589175
30
0
41
1
10
8.2206621684974
20
1.5845339495043
30
0
41
1
10
8.3403964311814
20
1.61511016033975
30
0
41
1
10
8.57889889146702
20
1.6677667155833
30
0
41
1
10
8.69789599340763
20
1.69008046583417
30
0
41
1
10
8.93482096104998
20
1.727119380657
30
0
41
1
10
9.05273631366808
20
1.74178126401006
30
0
41
1
10
9.2889035182647
20
1.76289982523963
30
0
41
1
10
9.40723512106635
20
1.76940247154721
30
0
41
1
10
9.6438395717978
20
1.7744500822414
30
0
41
1
10
9.76198102457477
20
1.77294442101862
30
0
41
1
10
9.99913970936154
20
1.76168726828072
30
0
41
1
10
10.1183405459382
20
1.75200950348128
30
0
41
1
10
10.3578286604508
20
1.7244902423339
30
0
41
1
10
10.4773557943569
20
1.70659130151398
30
0
41
1
10
10.7148750379623
20
1.66306024171044
30
0
41
1
10
10.8333681340864
20
1.63753590300746
30
0
41
1
10
11.0702395960085
20
1.57951283076028
30
0
41
1
10
11.188396688925
20
1.54685884025994
30
0
41
1
10
11.4242466521049
20
1.47422333609487
30
0
41
1
10
11.5421473052819
20
1.43440504696807
30
0
41
1
10
11.7789113738049
20
1.34888079565229
30
0
41
1
10
11.8975880561396
20
1.30301339812351
30
0
41
1
10
12.1351473993345
20
1.20439883716807
30
0
41
1
10
12.2543795594167
20
1.15165714822777
30
0
41
1
10
12.4937225521406
20
1.0417282655672
30
0
41
1
10
12.6130465765077
20
0.984806277385019
30
0
41
1
10
12.8504423648642
20
0.866279373804957
30
0
41
1
10
12.9684892547312
20
0.804612687905973
30
0
41
1
10
13.2047173826383
20
0.678725792761242
30
0
41
1
10
13.32298775117
20
0.614669883099054
30
0
41
1
10
13.5593016633095
20
0.483495776740142
30
0
41
1
10
13.6772085977398
20
0.416132054783077
30
0
41
1
10
13.9136787271896
20
0.279739179513939
30
0
41
1
10
14.0324303395575
20
0.21104989424478
30
0
41
1
10
14.2708472289066
20
0.0724809412318734
30
0
41
1
10
14.3907089329338
20
0.0019955253767421
30
0
41
1
10
14.7482186397017
20
-0.208445726106191
30
0
41
1
10
14.9854613365652
20
-0.345179425935811
30
0
41
1
10
15.3392898260801
20
-0.545877242336616
30
0
41
1
10
15.4570968444401
20
-0.611673009291366
30
0
41
1
10
15.6934873025359
20
-0.739385455217274
30
0
41
1
10
15.811890929159
20
-0.801607965924603
30
0
41
1
10
16.048695631954
20
-0.923379561359553
30
0
41
1
10
16.1672138652084
20
-0.982726948438625
30
0
41
1
10
16.4058879924354
20
-1.09618952819855
30
0
41
1
10
16.5260633273989
20
-1.15044356092204
30
0
41
1
10
16.764191239013
20
-1.25334579410773
30
0
41
1
10
16.8824980737205
20
-1.30218052507019
30
0
41
1
10
17.119024728309
20
-1.39293970172804
30
0
41
1
10
17.237345454153
20
-1.43480548791163
30
0
41
1
10
17.4735880543351
20
-1.51218668990219
30
0
41
1
10
17.5913651918746
20
-1.54779609333866
30
0
41
1
10
17.8273507904652
20
-1.61172072467952
30
0
41
1
10
17.945754875434
20
-1.63991341069664
30
0
41
1
10
18.1833151147083
20
-1.68886267370414
30
0
41
1
10
18.3022659388494
20
-1.70972954385297
30
0
41
1
10
18.5411062016179
20
-1.74359421956928
30
0
41
1
10
18.660491789955
20
-1.75637198776661
30
0
41
1
10
18.8983779812386
20
-1.77364958554207
30
0
41
1
10
19.0168742672449
20
-1.77824677684043
30
0
41
1
10
19.1422420563436
20
-1.77880707835285
30
0
41
1
10
19.1495597276047
20
-1.77882399464454
30
0
41
1
10
19.1568765689764
20
-1.77882515280444
30
0
0
SPLINE
5
CA
100
AcDbEntity
8
1
62
256
6
ByLayer
370
18
48
1
60
0
100
AcDbSpline
70
4
71
3
72
24
73
20
40
0
40
0
40
0
40
0
40
0.0290107811104296
40
0.0290107811104296
40
0.150384433471626
40
0.150384433471626
40
0.271758085832822
40
0.271758085832822
40
0.393131738194019
40
0.393131738194019
40
0.514505390555215
40
0.514505390555215
40
0.635879042916411
40
0.635879042916411
40
0.757252695277607
40
0.757252695277607
40
0.878626347638804
40
0.878626347638804
40
1
40
1
40
1
40
1
41
1
10
26.5140299357684
20
1.34859076521772
30
0
41
1
10
26.5425552069646
20
1.35957158592072
30
0
41
1
10
26.5711215040015
20
1.37037286857861
30
0
41
1
10
26.719446489866
20
1.42538947375212
30
0
41
1
10
26.8387211651971
20
1.46644192318166
30
0
41
1
10
27.0757801361384
20
1.54183621701085
30
0
41
1
10
27.1938219942078
20
1.57599353617937
30
0
41
1
10
27.4301591800215
20
1.6364198771131
30
0
41
1
10
27.5483051119703
20
1.66285700967308
30
0
41
1
10
27.7840333687668
20
1.70847215530429
30
0
41
1
10
27.901682817953
20
1.72755091094564
30
0
41
1
10
28.1379686902616
20
1.75755506473988
30
0
41
1
10
28.2566196983589
20
1.76854018653637
30
0
41
1
10
28.4943407005423
20
1.78254813240204
30
0
41
1
10
28.6136341623887
20
1.78551334767337
30
0
41
1
10
28.852266653198
20
1.78299185665639
30
0
41
1
10
28.9715391624758
20
1.77759890331114
30
0
41
1
10
29.2096130976284
20
1.75872859330028
30
0
41
1
10
29.3282366284589
20
1.74516433790353
30
0
41
1
10
29.4469291281312
20
1.72755908139732
30
0
0
SPLINE
5
CB
100
AcDbEntity
8
1
62
256
6
ByLayer
370
18
48
1
60
0
100
AcDbSpline
70
4
71
3
72
14
73
10
40
0
40
0
40
0
40
0
40
0.275054586101384
40
0.275054586101384
40
0.479092203847563
40
0.479092203847563
40
0.683129821593742
40
0.683129821593742
40
1
40
1
40
1
40
1
41
1
10
19.7307344366296
20
-1.68302439588237
30
0
41
1
10
19.5547111701757
20
-1.68335232257988
30
0
41
1
10
19.3783117581008
20
-1.67516541765266
30
0
41
1
10
19.0693875155235
20
-1.64582368541795
30
0
41
1
10
18.9369930376019
20
-1.6285417585556
30
0
41
1
10
18.6739460278222
20
-1.58511033938663
30
0
41
1
10
18.5429427572447
20
-1.55892617760239
30
0
41
1
10
18.2091927192305
20
-1.48132363674614
30
0
41
1
10
18.0067925895285
20
-1.4240020932161
30
0
41
1
10
17.8040930582561
20
-1.35749292172258
30
0
0
SPLINE
5
CC
100
AcDbEntity
8
1
62
256
6
ByLayer
370
13
48
1
60
0
100
AcDbSpline
70
4
71
3
72
26
73
22
40
0
40
0
40
0
40
0
40
0.0314590140025007
40
0.0314590140025007
40
0.101836934684001
40
0.101836934684001
40
0.172214855365502
40
0.172214855365502
40
0.453726538091504
40
0.453726538091504
40
0.524104458773006
40
0.524104458773006
40
0.594482379454507
40
0.594482379454507
40
0.735238220817512
40
0.735238220817512
40
0.805616141499015
40
0.805616141499015
40
0.875994062180518
40
0.875994062180518
40
1
40
1
40
1
40
1
41
1
10
17.8040930582658
20
-1.35749292172576
30
0
41
1
10
17.7457498515461
20
-1.33834952106358
30
0
41
1
10
17.6873818404007
20
-1.31844495593956
30
0
41
1
10
17.4982856051635
20
-1.25161892580863
30
0
41
1
10
17.3673687802202
20
-1.2017052204111
30
0
41
1
10
17.1045037779758
20
-1.09504197725499
30
0
41
1
10
16.9721312248171
20
-1.03808559338643
30
0
41
1
10
16.313542819126
20
-0.740675885464668
30
0
41
1
10
15.7953709855653
20
-0.462704720784018
30
0
41
1
10
15.1383428697758
20
-0.100160243237269
30
0
41
1
10
15.0060291062676
20
-0.0266649348342014
30
0
41
1
10
14.7423936060131
20
0.119387972038027
30
0
41
1
10
14.611135506337
20
0.191950802643049
30
0
41
1
10
14.2183694416249
20
0.407065725666371
30
0
41
1
10
13.957610137877
20
0.546521978563675
30
0
41
1
10
13.5654799465224
20
0.745325261279532
30
0
41
1
10
13.4345796239617
20
0.80980766031368
30
0
41
1
10
13.171796116825
20
0.934169471313112
30
0
41
1
10
13.0395124457696
20
0.994254434353451
30
0
41
1
10
12.6752353847844
20
1.15142877401004
30
0
41
1
10
12.4447141563166
20
1.24166271690453
30
0
41
1
10
12.2146051887933
20
1.32023716788075
30
0
0
SPLINE
5
CD
100
AcDbEntity
8
1
62
256
6
ByLayer
370
18
48
1
60
0
100
AcDbSpline
70
4
71
3
72
10
73
6
40
0
40
0
40
0
40
0
40
0.403386215705014
40
0.403386215705014
40
1
40
1
40
1
40
1
41
1
10
12.2146051886902
20
1.32023716791596
30
0
41
1
10
12.1835235882924
20
1.33085048608817
30
0
41
1
10
12.1524495095227
20
1.3412510788925
30
0
41
1
10
12.0754261979861
20
1.3664970149957
30
0
41
1
10
12.0294844066204
20
1.3810912715779
30
0
41
1
10
11.9835424661853
20
1.39520574853015
30
0
0
SPLINE
5
CE
100
AcDbEntity
8
1
62
256
6
ByLayer
370
18
48
1
60
0
100
AcDbSpline
70
4
71
3
72
22
73
18
40
0
40
0
40
0
40
0
40
0.125
40
0.125
40
0.25
40
0.25
40
0.3125
40
0.3125
40
0.375
40
0.375
40
0.5
40
0.5
40
0.625
40
0.625
40
0.75
40
0.75
40
1
40
1
40
1
40
1
41
1
10
27.835985259006
20
0.798830077817627
30
0
41
1
10
27.8438203539757
20
0.713917349299976
30
0
41
1
10
27.8616902920813
20
0.625848017749064
30
0
41
1
10
27.9154529087968
20
0.447279432033468
30
0
41
1
10
27.9504167584652
20
0.359349490529183
30
0
41
1
10
28.0127620160715
20
0.229113385550903
30
0
41
1
10
28.0353349519972
20
0.185770570164522
30
0
41
1
10
28.0828704929484
20
0.100887867557418
30
0
41
1
10
28.1078216740784
20
0.0593241846631543
30
0
41
1
10
28.1858058333009
20
-0.063045064221086
30
0
41
1
10
28.2419476923672
20
-0.141544949922405
30
0
41
1
10
28.3610904175683
20
-0.293457785693647
30
0
41
1
10
28.4242987583415
20
-0.366999158157199
30
0
41
1
10
28.5534310478198
20
-0.506232545700072
30
0
41
1
10
28.6197455903309
20
-0.572447858947129
30
0
41
1
10
28.8231296466928
20
-0.762455267810452
30
0
41
1
10
28.9651104658236
20
-0.87812990435043
30
0
41
1
10
29.1107800254144
20
-0.983234225769195
30
0
0
SPLINE
5
CF
100
AcDbEntity
8
1
62
256
6
ByLayer
370
18
48
1
60
0
100
AcDbSpline
70
4
71
3
72
8
73
4
40
0
40
0
40
0
40
0
40
1
40
1
40
1
40
1
41
1
10
29.4017509356912
20
-1.68610261946381
30
0
41
1
10
29.3960147522214
20
-1.68775738006428
30
0
41
1
10
29.390564601067
20
-1.68858941688998
30
0
41
1
10
29.3854038414843
20
-1.6885890676057
30
0
0
SPLINE
5
D0
100
AcDbEntity
8
1
62
256
6
ByLayer
370
13
48
1
60
0
100
AcDbSpline
70
4
71
3
72
10
73
6
40
0
40
0
40
0
40
0
40
0.5
40
0.5
40
1
40
1
40
1
40
1
41
1
10
4.2504331494136
20
0.639467487281507
30
0
41
1
10
4.22809526364659
20
0.646291119420454
30
0
41
1
10
4.20619109465551
20
0.654012266996062
30
0
41
1
10
4.16330240831846
20
0.671406256728801
30
0
41
1
10
4.1422491348921
20
0.681146989204166
30
0
41
1
10
4.12272676530395
20
0.691563908838646
30
0
0
SPLINE
5
D1
100
AcDbEntity
8
1
62
256
6
ByLayer
370
18
48
1
60
0
100
AcDbSpline
70
4
71
3
72
16
73
12
40
0
40
0
40
0
40
0
40
0.25
40
0.25
40
0.5
40
0.5
40
0.75
40
0.75
40
0.875
40
0.875
40
1
40
1
40
1
40
1
41
1
10
29.3673191208641
20
0.55790686214084
30
0
41
1
10
29.4111423884634
20
0.568661543635017
30
0
41
1
10
29.4547130330807
20
0.580843012314062
30
0
41
1
10
29.5401710940588
20
0.60986695506935
30
0
41
1
10
29.5821520199733
20
0.626632500366327
30
0
41
1
10
29.6615804842455
20
0.66876132451776
30
0
41
1
10
29.6986703012242
20
0.693282822414631
30
0
41
1
10
29.7436335948867
20
0.74463067353372
30
0
41
1
10
29.7560830154462
20
0.763837401438167
30
0
41
1
10
29.7726759105865
20
0.80652297115347
30
0
41
1
10
29.7764107472931
20
0.829301161393062
30
0
41
1
10
29.7757338480748
20
0.852290281752005
30
0
0
SPLINE
5
D2
100
AcDbEntity
8
1
62
256
6
ByLayer
370
18
48
1
60
0
100
AcDbSpline
70
4
71
3
72
22
73
18
40
0
40
0
40
0
40
0
40
0.240614823064897
40
0.240614823064897
40
0.360922234597346
40
0.360922234597346
40
0.481229646129794
40
0.481229646129794
40
0.601537057662243
40
0.601537057662243
40
0.721844469194692
40
0.721844469194692
40
0.84215188072714
40
0.84215188072714
40
0.962459292259589
40
0.962459292259589
40
1
40
1
40
1
40
1
41
1
10
6.67241513673497
20
-0.991426729915588
30
0
41
1
10
6.91136998162321
20
-1.10857520218624
30
0
41
1
10
7.15013162020847
20
-1.21313845732632
30
0
41
1
10
7.50606992415106
20
-1.3544025632342
30
0
41
1
10
7.62465647466178
20
-1.39844197753365
30
0
41
1
10
7.86271154553961
20
-1.47943633481253
30
0
41
1
10
7.98198685821086
20
-1.51662308589172
30
0
41
1
10
8.22066216849737
20
-1.5845339495043
30
0
41
1
10
8.34039643118138
20
-1.61511016033975
30
0
41
1
10
8.57889889146702
20
-1.6677667155833
30
0
41
1
10
8.69789599340763
20
-1.69008046583417
30
0
41
1
10
8.93482096104998
20
-1.727119380657
30
0
41
1
10
9.05273631366808
20
-1.74178126401006
30
0
41
1
10
9.28890351826468
20
-1.76289982523963
30
0
41
1
10
9.40723512106638
20
-1.76940247154721
30
0
41
1
10
9.56245235616362
20
-1.77271380475915
30
0
41
1
10
9.59935171164926
20
-1.77310898800269
30
0
41
1
10
9.6362536020246
20
-1.77310898737963
30
0
0
SPLINE
5
D3
100
AcDbEntity
8
1
62
256
6
ByLayer
370
18
48
1
60
0
100
AcDbSpline
70
4
71
3
72
70
73
66
40
0
40
0
40
0
40
0
40
0.00033491909234
40
0.00033491909234
40
0.0307847216812121
40
0.0307847216812121
40
0.0612345242700843
40
0.0612345242700843
40
0.0916843268589563
40
0.0916843268589563
40
0.122134129447828
40
0.122134129447828
40
0.152583932036701
40
0.152583932036701
40
0.183033734625573
40
0.183033734625573
40
0.213483537214445
40
0.213483537214445
40
0.243933339803317
40
0.243933339803317
40
0.274383142392189
40
0.274383142392189
40
0.304832944981061
40
0.304832944981061
40
0.335282747569934
40
0.335282747569934
40
0.365732550158806
40
0.365732550158806
40
0.396182352747678
40
0.396182352747678
40
0.457081957925422
40
0.457081957925422
40
0.487531760514294
40
0.487531760514294
40
0.517981563103166
40
0.517981563103166
40
0.548431365692038
40
0.548431365692038
40
0.578881168280911
40
0.578881168280911
40
0.609330970869783
40
0.609330970869783
40
0.639780773458655
40
0.639780773458655
40
0.670230576047527
40
0.670230576047527
40
0.700680378636399
40
0.700680378636399
40
0.731130181225272
40
0.731130181225272
40
0.761579983814144
40
0.761579983814144
40
0.822479588991889
40
0.822479588991889
40
0.852929391580762
40
0.852929391580762
40
0.883379194169635
40
0.883379194169635
40
0.913828996758508
40
0.913828996758508
40
0.94427879934738
40
0.94427879934738
40
0.974728601936253
40
0.974728601936253
40
1
40
1
40
1
40
1
41
1
10
16.9968590292969
20
1.3460614625759
30
0
41
1
10
16.9981598257661
20
1.34656143010676
30
0
41
1
10
16.9994606160221
20
1.34706098075318
30
0
41
1
10
17.119024728309
20
1.39293970172804
30
0
41
1
10
17.237345454153
20
1.4348054879116
30
0
41
1
10
17.4735880543351
20
1.51218668990219
30
0
41
1
10
17.5913651918746
20
1.54779609333866
30
0
41
1
10
17.8273507904652
20
1.61172072467952
30
0
41
1
10
17.9457548754339
20
1.63991341069664
30
0
41
1
10
18.1833151147083
20
1.68886267370414
30
0
41
1
10
18.3022659388494
20
1.70972954385297
30
0
41
1
10
18.5411062016179
20
1.74359421956928
30
0
41
1
10
18.660491789955
20
1.75637198776661
30
0
41
1
10
18.8983779812386
20
1.77364958554207
30
0
41
1
10
19.0168742672449
20
1.77824677684043
30
0
41
1
10
19.2529725801706
20
1.77930196208985
30
0
41
1
10
19.3707716107634
20
1.77572071304982
30
0
41
1
10
19.6069730072951
20
1.76062979748474
30
0
41
1
10
19.725202790847
20
1.74913920666876
30
0
41
1
10
19.9614659427282
20
1.71798013978974
30
0
41
1
10
20.0796029315541
20
1.69828879762548
30
0
41
1
10
20.3172935940092
20
1.6513059903952
30
0
41
1
10
20.4370944762613
20
1.62398385804005
30
0
41
1
10
20.676130835558
20
1.56156008687665
30
0
41
1
10
20.7947816959494
20
1.52651345594549
30
0
41
1
10
21.0317727532944
20
1.45011487505366
30
0
41
1
10
21.1502289000431
20
1.40892342147996
30
0
41
1
10
21.3865854970248
20
1.32020867951226
30
0
41
1
10
21.5043330704846
20
1.27247687576573
30
0
41
1
10
21.8578788422681
20
1.1209163463069
30
0
41
1
10
22.094733414121
20
1.00992287264734
30
0
41
1
10
22.4513817253396
20
0.827468572462948
30
0
41
1
10
22.5712081777249
20
0.76427558583643
30
0
41
1
10
22.8098640243791
20
0.636030134642851
30
0
41
1
10
22.9286682056199
20
0.570531166750214
30
0
41
1
10
23.1651669602024
20
0.436675514475439
30
0
41
1
10
23.2830496443694
20
0.368631355271816
30
0
41
1
10
23.519238827029
20
0.232304074962116
30
0
41
1
10
23.6373835909477
20
0.163750582492952
30
0
41
1
10
23.8732851576715
20
0.0250092770423862
30
0
41
1
10
23.9911297819881
20
-0.0450337390663833
30
0
41
1
10
24.2280230909471
20
-0.183994262017649
30
0
41
1
10
24.3470582237026
20
-0.252927226116526
30
0
41
1
10
24.5857170268627
20
-0.390760898931632
30
0
41
1
10
24.7052091490153
20
-0.459735056454463
30
0
41
1
10
24.9428490241857
20
-0.593641826616079
30
0
41
1
10
25.0615269268886
20
-0.658613082907209
30
0
41
1
10
25.298174756373
20
-0.785430820097616
30
0
41
1
10
25.4159812764706
20
-0.847512018682437
30
0
41
1
10
25.6515647320837
20
-0.967413934797094
30
0
41
1
10
25.7695510119556
20
-1.02493927338219
30
0
41
1
10
26.1241933246086
20
-1.19021116724252
30
0
41
1
10
26.3603120065581
20
-1.29217954990023
30
0
41
1
10
26.7194464898661
20
-1.42538947375212
30
0
41
1
10
26.8387211651971
20
-1.46644192318166
30
0
41
1
10
27.0757801361383
20
-1.54183621701085
30
0
41
1
10
27.1938219942078
20
-1.57599353617937
30
0
41
1
10
27.4301591800215
20
-1.6364198771131
30
0
41
1
10
27.5483051119703
20
-1.66285700967308
30
0
41
1
10
27.7840333687668
20
-1.70847215530429
30
0
41
1
10
27.901682817953
20
-1.72755091094564
30
0
41
1
10
28.1379686902616
20
-1.75755506473988
30
0
41
1
10
28.2566196983589
20
-1.76854018653637
30
0
41
1
10
28.4741268500612
20
-1.7813570112109
30
0
41
1
10
28.5730717215922
20
-1.78438798950447
30
0
41
1
10
28.6720803340068
20
-1.78453007866369
30
0
0
SPLINE
5
D4
100
AcDbEntity
8
1
62
256
6
ByLayer
370
18
48
1
60
0
100
AcDbSpline
70
4
71
3
72
52
73
48
40
0
40
0
40
0
40
0
40
0.0150379400436867
40
0.0150379400436867
40
0.0775693509607538
40
0.0775693509607538
40
0.202632172794888
40
0.202632172794888
40
0.204586279386046
40
0.204586279386046
40
0.206540385977205
40
0.206540385977205
40
0.210448599159521
40
0.210448599159521
40
0.218265025524155
40
0.218265025524155
40
0.233897878253421
40
0.233897878253421
40
0.265163583711955
40
0.265163583711955
40
0.327694994629022
40
0.327694994629022
40
0.577820638297289
40
0.577820638297289
40
0.640352049214356
40
0.640352049214356
40
0.67161775467289
40
0.67161775467289
40
0.675525967855206
40
0.675525967855206
40
0.676014494502996
40
0.676014494502996
40
0.676503021150786
40
0.676503021150786
40
0.677480074446365
40
0.679434181037523
40
0.687250607402155
40
0.687250607402155
40
0.70288346013142
40
0.70288346013142
40
0.827946281965538
40
0.827946281965538
40
0.890477692882598
40
0.890477692882598
40
0.953009103799657
40
0.953009103799657
40
1
40
1
40
1
40
1
41
1
10
5.28869177835924
20
-0.291269463994865
30
0
41
1
10
5.2745227735237
20
-0.288152157572085
30
0
41
1
10
5.26038164379199
20
-0.285251637125271
30
0
41
1
10
5.18762877096523
20
-0.27143468817593
30
0
41
1
10
5.1292938777876
20
-0.264022015412337
30
0
41
1
10
4.95397572877374
20
-0.252950558168351
30
0
41
1
10
4.83591420588701
20
-0.260628224470338
30
0
41
1
10
4.71543090327722
20
-0.283325084080104
30
0
41
1
10
4.71807909083876
20
-0.284614862031077
30
0
41
1
10
4.72140358959729
20
-0.286372225265524
30
0
41
1
10
4.72313751516685
20
-0.287223136406823
30
0
41
1
10
4.72839284968029
20
-0.289755306918352
30
0
41
1
10
4.73197875663783
20
-0.291408052516999
30
0
41
1
10
4.74279841562424
20
-0.296332770345458
30
0
41
1
10
4.75011440407235
20
-0.299568080882778
30
0
41
1
10
4.77215648761211
20
-0.309232965887588
30
0
41
1
10
4.78698608391875
20
-0.315611463736474
30
0
41
1
10
4.83159889003937
20
-0.334694418324176
30
0
41
1
10
4.86152796256138
20
-0.347337754330056
30
0
41
1
10
4.95149859468876
20
-0.385232171489577
30
0
41
1
10
5.01174058151892
20
-0.410430998101674
30
0
41
1
10
5.31338821189368
20
-0.536582407465772
30
0
41
1
10
5.55603068070016
20
-0.638256208410439
30
0
41
1
10
5.85733961671792
20
-0.770230757519812
30
0
41
1
10
5.91752874742309
20
-0.796831789352524
30
0
41
1
10
6.00714396238868
20
-0.838025047547433
30
0
41
1
10
6.03729201528515
20
-0.85138027987216
30
0
41
1
10
6.06950550725045
20
-0.869073147991173
30
0
41
1
10
6.07315564228009
20
-0.870928654802725
30
0
41
1
10
6.07673466919647
20
-0.873840034348376
30
0
41
1
10
6.07712963637874
20
-0.874172607691406
30
0
41
1
10
6.07772839094423
20
-0.874996842857541
30
0
41
1
10
6.07741014765674
20
-0.875522169656534
30
0
41
1
10
6.076261414382
20
-0.876834507765864
30
0
41
1
10
6.07396420176815
20
-0.879459939954415
30
0
41
1
10
6.06554384031443
20
-0.889094774209752
30
0
41
1
10
6.05789710270099
20
-0.897878271321019
30
0
41
1
10
6.0395608552065
20
-0.919000028543337
30
0
41
1
10
6.02736209151871
20
-0.933131607495056
30
0
41
1
10
5.91773107456248
20
-1.06071098433125
30
0
41
1
10
5.82280842242187
20
-1.17594743207587
30
0
41
1
10
5.67698403442694
20
-1.34182722734229
30
0
41
1
10
5.62792081498071
20
-1.39564630539516
30
0
41
1
10
5.52844061354381
20
-1.49609839806794
30
0
41
1
10
5.47776504108998
20
-1.5430316185215
30
0
41
1
10
5.38480613141292
20
-1.61695220344893
30
0
41
1
10
5.34383255097305
20
-1.64564292490405
30
0
41
1
10
5.3020119350785
20
-1.67055963884724
30
0
0
SPLINE
5
D5
100
AcDbEntity
8
1
62
256
6
ByLayer
370
13
48
1
60
0
100
AcDbSpline
70
4
71
3
72
20
73
16
40
0
40
0
40
0
40
0
40
0.174002464417754
40
0.174002464417754
40
0.348004928835508
40
0.348004928835508
40
0.435006161044385
40
0.435006161044385
40
0.522007393253262
40
0.522007393253262
40
0.696009857671016
40
0.696009857671016
40
0.870012322088769
40
0.870012322088769
40
1
40
1
40
1
40
1
41
1
10
4.2504331494136
20
0.639467487281507
30
0
41
1
10
4.2504914675082
20
0.744665473832725
30
0
41
1
10
4.25054111767747
20
0.84427464228375
30
0
41
1
10
4.25062989999518
20
1.0323951303665
30
0
41
1
10
4.25066825500173
20
1.11921939430673
30
0
41
1
10
4.25072090309678
20
1.23685534804724
30
0
41
1
10
4.25073767762646
20
1.27407747768288
30
0
41
1
10
4.25077037302148
20
1.34446772433788
30
0
41
1
10
4.2507863529402
20
1.37774464565965
30
0
41
1
10
4.25083321138038
20
1.46983189785732
30
0
41
1
10
4.25086351475028
20
1.52164944843022
30
0
41
1
10
4.25092328464942
20
1.60263753010358
30
0
41
1
10
4.25095287076113
20
1.63224014485544
30
0
41
1
10
4.2510047735623
20
1.66501392891342
30
0
41
1
10
4.25102715853544
20
1.67284681776641
30
0
41
1
10
4.25104873159773
20
1.67428819444777
30
0
0
SPLINE
5
D6
100
AcDbEntity
8
1
62
256
6
ByLayer
370
18
48
1
60
0
100
AcDbSpline
70
4
71
3
72
23
73
19
40
0
40
0
40
0
40
0
40
0.180571531153936
40
0.180571531153936
40
0.270857296730903
40
0.270857296730903
40
0.361143062307871
40
0.361143062307871
40
0.541714593461807
40
0.541714593461807
40
0.722286124615742
40
0.722286124615742
40
0.81257189019271
40
0.81257189019271
40
0.902857655769678
40
0.993143421346646
40
0.993143421346646
40
1
40
1
40
1
40
1
41
1
10
4.05311422707331
20
0.747046454831178
30
0
41
1
10
4.05317383452973
20
0.856849170878206
30
0
41
1
10
4.05322426591846
20
0.960488103281932
30
0
41
1
10
4.05329084208623
20
1.10661069180313
30
0
41
1
10
4.05331143426704
20
1.15358027463353
30
0
41
1
10
4.05334964890693
20
1.2425821074184
30
0
41
1
10
4.05336737498075
20
1.28484218498738
30
0
41
1
10
4.05341766966558
20
1.40492904555379
30
0
41
1
10
4.05344760759255
20
1.47651418050776
30
0
41
1
10
4.05350335758456
20
1.59612311739011
30
0
41
1
10
4.05352946247737
20
1.6449392191611
30
0
41
1
10
4.05356898744157
20
1.701347037061
30
0
41
1
10
4.05358220609492
20
1.71727688031567
30
0
41
1
10
4.05360840560698
20
1.74273529302636
30
0
41
1
10
4.05363452159261
20
1.76203567870053
30
0
41
1
10
4.05366068186481
20
1.76920289570623
30
0
41
1
10
4.05367472940475
20
1.76974123933809
30
0
41
1
10
4.05367572120525
20
1.76976117902845
30
0
41
1
10
4.05367671309753
20
1.7697630762022
30
0
0
SPLINE
5
D7
100
AcDbEntity
8
1
62
256
6
ByLayer
370
13
48
1
60
0
100
AcDbSpline
70
4
71
3
72
30
73
26
40
0
40
0
40
0
40
0
40
0.0783810312450618
40
0.0783810312450618
40
0.185167378379469
40
0.185167378379469
40
0.238560551946673
40
0.238560551946673
40
0.291953725513877
40
0.291953725513877
40
0.39874007264828
40
0.39874007264828
40
0.505526419782684
40
0.505526419782684
40
0.558919593349885
40
0.558919593349885
40
0.612312766917087
40
0.612312766917087
40
0.825885461185898
40
0.825885461185898
40
0.879278634753102
40
0.879278634753102
40
0.932671808320306
40
0.932671808320306
40
1
40
1
40
1
40
1
41
1
10
29.1930879202353
20
-1.68835432196889
30
0
41
1
10
29.0015115050907
20
-1.68672067852833
30
0
41
1
10
28.8108244455061
20
-1.67491288424455
30
0
41
1
10
28.360932026242
20
-1.62393396103761
30
0
41
1
10
28.1019150648426
20
-1.57644502774969
30
0
41
1
10
27.7108155688899
20
-1.4793879187105
30
0
41
1
10
27.5800292793488
20
-1.44274269196933
30
0
41
1
10
27.3171496973497
20
-1.36111771093718
30
0
41
1
10
27.1848097369516
20
-1.31601846120188
30
0
41
1
10
26.7907301027838
20
-1.17101729090024
30
0
41
1
10
26.5301315261318
20
-1.06090299584474
30
0
41
1
10
26.0091633675889
20
-0.819979340973447
30
0
41
1
10
25.7488193302944
20
-0.689096082525765
30
0
41
1
10
25.3554248913231
20
-0.481851364622713
30
0
41
1
10
25.2233831660575
20
-0.410772332095121
30
0
41
1
10
24.9598090417803
20
-0.267046741820081
30
0
41
1
10
24.8286341381447
20
-0.19460740574354
30
0
41
1
10
24.1744917649826
20
0.16803725627426
30
0
41
1
10
23.6570600677259
20
0.460193256581874
30
0
41
1
10
22.9974980443405
20
0.791338293009431
30
0
41
1
10
22.8656695378525
20
0.855463649077876
30
0
41
1
10
22.6033771578912
20
0.977728832288022
30
0
41
1
10
22.4726375649979
20
1.03596779326253
30
0
41
1
10
22.1775876559837
20
1.16089959259943
30
0
41
1
10
22.0132656823641
20
1.22555870249073
30
0
41
1
10
21.848731327872
20
1.28461543504179
30
0
0
SPLINE
5
D8
100
AcDbEntity
8
1
62
256
6
ByLayer
370
18
48
1
60
0
100
AcDbSpline
70
4
71
3
72
10
73
6
40
0
40
0
40
0
40
0
40
0.626076192178291
40
0.626076192178291
40
1
40
1
40
1
40
1
41
1
10
10.2021300402101
20
-1.67708802942434
30
0
41
1
10
9.79443766998313
20
-1.67711030517796
30
0
41
1
10
9.38831617136103
20
-1.6316044130981
30
0
41
1
10
8.72966109769894
20
-1.48823507609998
30
0
41
1
10
8.48486811740165
20
-1.41960434073508
30
0
41
1
10
8.24115977672659
20
-1.33834053491006
30
0
0
SPLINE
5
D9
100
AcDbEntity
8
1
62
256
6
ByLayer
370
13
48
1
60
0
100
AcDbSpline
70
4
71
3
72
22
73
18
40
0
40
0
40
0
40
0
40
0.0134158328818058
40
0.0134158328818058
40
0.210732666305446
40
0.210732666305446
40
0.309391083017266
40
0.309391083017266
40
0.408049499729086
40
0.408049499729086
40
0.605366333152723
40
0.605366333152723
40
0.80268316657636
40
0.80268316657636
40
0.901341583288181
40
0.901341583288181
40
1
40
1
40
1
40
1
41
1
10
8.24115977709172
20
-1.33834053503182
30
0
41
1
10
8.22338091586124
20
-1.3324122277667
30
0
41
1
10
8.2056078269795
20
-1.32641668850428
30
0
41
1
10
7.92652060986831
20
-1.231198705943
30
0
41
1
10
7.66583756543531
20
-1.12757623634323
30
0
41
1
10
7.27287443559891
20
-0.954258447638296
30
0
41
1
10
7.14155345510238
20
-0.893494134694038
30
0
41
1
10
6.87771568318772
20
-0.766721469647194
30
0
41
1
10
6.74532829397441
20
-0.700746107667328
30
0
41
1
10
6.35092623076633
20
-0.498813701035346
30
0
41
1
10
6.08988255933173
20
-0.35808809183834
30
0
41
1
10
5.56746774472253
20
-0.071923704447812
30
0
41
1
10
5.30623719442485
20
0.0737794349233241
30
0
41
1
10
4.91113286924644
20
0.290309840626804
30
0
41
1
10
4.77865695288784
20
0.362245671314099
30
0
41
1
10
4.51447357722137
20
0.503113240915184
30
0
41
1
10
4.3825051132286
20
0.572177997306085
30
0
41
1
10
4.25043314941317
20
0.639467487281706
30
0
0
SPLINE
5
DA
100
AcDbEntity
8
1
62
256
6
ByLayer
370
18
48
1
60
0
100
AcDbSpline
70
4
71
3
72
24
73
20
40
0
40
0
40
0
40
0
40
0.250000000000014
40
0.250000000000014
40
0.500000000000029
40
0.500000000000029
40
0.625000000000027
40
0.625000000000027
40
0.687500000000027
40
0.687500000000027
40
0.750000000000026
40
0.750000000000026
40
0.875000000000024
40
0.875000000000024
40
0.937500000000017
40
0.937500000000017
40
0.968750000000009
40
0.968750000000009
40
1
40
1
40
1
40
1
41
1
10
27.8359852590071
20
0.798830077817598
30
0
41
1
10
27.9466456742287
20
0.696334293862833
30
0
41
1
10
28.062183255259
20
0.601680178644926
30
0
41
1
10
28.2958163089143
20
0.436824420586504
30
0
41
1
10
28.4145167942641
20
0.365681204859413
30
0
41
1
10
28.5959668203317
20
0.279327728627578
30
0
41
1
10
28.6572537629564
20
0.253912699693757
30
0
41
1
10
28.7484784060445
20
0.22242323387735
30
0
41
1
10
28.7788461818078
20
0.213000092670313
30
0
41
1
10
28.839267458593
20
0.196505980686084
30
0
41
1
10
28.8694259436628
20
0.189008679793005
30
0
41
1
10
28.958554195488
20
0.173638133395372
30
0
41
1
10
29.0162617653921
20
0.17316392563103
30
0
41
1
10
29.0883906574824
20
0.20211323629303
30
0
41
1
10
29.1100893261497
20
0.217196497466716
30
0
41
1
10
29.1351457327378
20
0.248149861254546
30
0
41
1
10
29.1424122578987
20
0.260030698197056
30
0
41
1
10
29.1538545403067
20
0.285925836087074
30
0
41
1
10
29.1581151562141
20
0.300004232763428
30
0
41
1
10
29.1609365432291
20
0.315196968196432
30
0
0
SPLINE
5
DB
100
AcDbEntity
8
1
62
256
6
ByLayer
370
18
48
1
60
0
100
AcDbSpline
70
4
71
3
72
14
73
10
40
0
40
0
40
0
40
0
40
0.499999999999992
40
0.499999999999992
40
0.749999999999988
40
0.749999999999988
40
0.874999999999994
40
0.874999999999994
40
1
40
1
40
1
40
1
41
1
10
29.7757338480748
20
0.852290281752005
30
0
41
1
10
29.7213601324251
20
0.998586895065159
30
0
41
1
10
29.6666123584629
20
1.14456688444267
30
0
41
1
10
29.58478973494
20
1.36378846753266
30
0
41
1
10
29.5574755575262
20
1.43682612113815
30
0
41
1
10
29.516184186344
20
1.54609262647142
30
0
41
1
10
29.5023964899968
20
1.58249577387326
30
0
41
1
10
29.4748232980749
20
1.65529153543599
30
0
41
1
10
29.4609927564497
20
1.69161709728982
30
0
41
1
10
29.4469291281419
20
1.72755908139638
30
0
0
SPLINE
5
DC
100
AcDbEntity
8
1
62
256
6
ByLayer
370
18
48
1
60
0
100
AcDbSpline
70
4
71
3
72
18
73
14
40
0
40
0
40
0
40
0
40
0.204092075485075
40
0.204092075485075
40
0.336743396237563
40
0.336743396237563
40
0.46939471699005
40
0.46939471699005
40
0.734697358495026
40
0.734697358495026
40
0.867348679247513
40
0.867348679247513
40
1
40
1
40
1
40
1
41
1
10
29.352074520264
20
-1.68629737448316
30
0
41
1
10
29.3159252434796
20
-1.6811865743347
30
0
41
1
10
29.282781633135
20
-1.66745263701546
30
0
41
1
10
29.2334860034396
20
-1.62932868445824
30
0
41
1
10
29.2156768737103
20
-1.61041715393239
30
0
41
1
10
29.1838864323757
20
-1.56536746504096
30
0
41
1
10
29.1698056740642
20
-1.53915808886092
30
0
41
1
10
29.133171501639
20
-1.4491418862649
30
0
41
1
10
29.1162141358868
20
-1.3726139859042
30
0
41
1
10
29.1043505612672
20
-1.24033586188079
30
0
41
1
10
29.1025540693569
20
-1.19319336841735
30
0
41
1
10
29.1033383019534
20
-1.0927223911909
30
0
41
1
10
29.1059612750154
20
-1.03901612025487
30
0
41
1
10
29.1107800254171
20
-0.983234225771412
30
0
0
SPLINE
5
DD
100
AcDbEntity
8
1
62
256
6
ByLayer
370
18
48
1
60
0
100
AcDbSpline
70
4
71
3
72
64
73
60
40
0
40
0
40
0
40
0
40
0.042178538791317
40
0.042178538791317
40
0.103445790013467
40
0.103445790013467
40
0.134079415624542
40
0.134079415624542
40
0.164713041235617
40
0.164713041235617
40
0.195346666846692
40
0.195346666846692
40
0.225980292457768
40
0.225980292457768
40
0.256613918068843
40
0.256613918068843
40
0.287247543679918
40
0.287247543679918
40
0.317881169290993
40
0.317881169290993
40
0.348514794902068
40
0.348514794902068
40
0.379148420513143
40
0.379148420513143
40
0.409782046124218
40
0.409782046124218
40
0.440415671735293
40
0.440415671735293
40
0.471049297346368
40
0.471049297346368
40
0.53231654856852
40
0.53231654856852
40
0.562950174179595
40
0.562950174179595
40
0.59358379979067
40
0.59358379979067
40
0.624217425401745
40
0.624217425401745
40
0.65485105101282
40
0.65485105101282
40
0.685484676623895
40
0.685484676623895
40
0.716118302234971
40
0.716118302234971
40
0.746751927846046
40
0.746751927846046
40
0.777385553457121
40
0.777385553457121
40
0.83865280467927
40
0.83865280467927
40
0.899920055901419
40
0.899920055901419
40
0.930553681512493
40
0.930553681512493
40
0.961187307123567
40
0.961187307123567
40
0.991820932734642
40
0.991820932734642
40
1
40
1
40
1
40
1
41
1
10
5.52319034149863
20
1.67526041121243
30
0
41
1
10
5.68568040939564
20
1.67562324511101
30
0
41
1
10
5.84743501753425
20
1.66896368548592
30
0
41
1
10
6.24262673552201
20
1.63418702187599
30
0
41
1
10
6.47633324392183
20
1.59959876602079
30
0
41
1
10
6.82751799068785
20
1.5254243256943
30
0
41
1
10
6.94467299830177
20
1.49716929835552
30
0
41
1
10
7.17993931697583
20
1.43442118925788
30
0
41
1
10
7.29803767828946
20
1.39979956179667
30
0
41
1
10
7.53516769040255
20
1.32322857477018
30
0
41
1
10
7.65312368486718
20
1.28171558941452
30
0
41
1
10
7.88842322496421
20
1.19399549511559
30
0
41
1
10
8.00586203393607
20
1.14780402470009
30
0
41
1
10
8.24017286963004
20
1.05010713374588
30
0
41
1
10
8.35700674349789
20
0.998548701977882
30
0
41
1
10
8.59070291156871
20
0.891715180769779
30
0
41
1
10
8.70763905100296
20
0.83650612769631
30
0
41
1
10
8.94190011243339
20
0.721829932059734
30
0
41
1
10
9.05914893178056
20
0.662489852493735
30
0
41
1
10
9.29420596774921
20
0.540795106894649
30
0
41
1
10
9.41205492044591
20
0.478696214124284
30
0
41
1
10
9.64916070261631
20
0.351803405309369
30
0
41
1
10
9.7674731961346
20
0.287440038878458
30
0
41
1
10
10.0028363919827
20
0.158020658847704
30
0
41
1
10
10.1201427899277
20
0.0929764119588583
30
0
41
1
10
10.3545495494272
20
-0.0365898271643346
30
0
41
1
10
10.4715712703395
20
-0.101219298239243
30
0
41
1
10
10.7053822699147
20
-0.23013700708475
30
0
41
1
10
10.8221771826984
20
-0.294414658977075
30
0
41
1
10
11.1733164510452
20
-0.484702555522347
30
0
41
1
10
11.4083040651413
20
-0.608009496429077
30
0
41
1
10
11.7633752434132
20
-0.786096132815118
30
0
41
1
10
11.8817559338031
20
-0.843476330002318
30
0
41
1
10
12.1170723851268
20
-0.953189150168271
30
0
41
1
10
12.2342551633778
20
-1.00599673269014
30
0
41
1
10
12.4682111993841
20
-1.10732615707815
30
0
41
1
10
12.5850637183534
20
-1.15582123134738
30
0
41
1
10
12.8186772029579
20
-1.24577523325195
30
0
41
1
10
12.9354217888184
20
-1.28794321181587
30
0
41
1
10
13.1690415294258
20
-1.36744265330827
30
0
41
1
10
13.2859495324918
20
-1.40506745224434
30
0
41
1
10
13.5206906860222
20
-1.47251984899464
30
0
41
1
10
13.63848304174
20
-1.5023127334679
30
0
41
1
10
13.8747953070889
20
-1.55630609033608
30
0
41
1
10
13.993232128165
20
-1.58038754285985
30
0
41
1
10
14.2288664654872
20
-1.62093298652886
30
0
41
1
10
14.3462649496576
20
-1.63681823794227
30
0
41
1
10
14.6975054072375
20
-1.67370513532916
30
0
41
1
10
14.9307100605252
20
-1.68496559525289
30
0
41
1
10
15.3984866138089
20
-1.67433685410037
30
0
41
1
10
15.6324970336626
20
-1.65553063568191
30
0
41
1
10
15.987226722356
20
-1.60264458208738
30
0
41
1
10
16.1057557637549
20
-1.58112920382843
30
0
41
1
10
16.3412774738511
20
-1.5321390888212
30
0
41
1
10
16.4586615060263
20
-1.50437188357975
30
0
41
1
10
16.6930436179974
20
-1.44155772632331
30
0
41
1
10
16.8099796108159
20
-1.40664044409903
30
0
41
1
10
16.9579782096768
20
-1.35894185698336
30
0
41
1
10
16.98915968635
20
-1.34869416113855
30
0
41
1
10
17.0203413197011
20
-1.33824579626057
30
0
0
SPLINE
5
DE
100
AcDbEntity
8
1
62
256
6
ByLayer
370
18
48
1
60
0
100
AcDbSpline
70
4
71
3
72
22
73
18
40
0
40
0
40
0
40
0
40
0.031515828928453
40
0.031515828928453
40
0.139125181269732
40
0.139125181269732
40
0.246734533611012
40
0.246734533611012
40
0.354343885952291
40
0.354343885952291
40
0.569562590634854
40
0.569562590634854
40
0.677171942976138
40
0.677171942976138
40
0.784781295317422
40
0.784781295317422
40
1
40
1
40
1
40
1
41
1
10
24.5666877457046
20
1.68609193520905
30
0
41
1
10
24.6013068465387
20
1.68604111092648
30
0
41
1
10
24.6358905008487
20
1.68565199601326
30
0
41
1
10
24.7882117193529
20
1.68248156603912
30
0
41
1
10
24.9054803089111
20
1.67613666851625
30
0
41
1
10
25.1397810271128
20
1.65630999676407
30
0
41
1
10
25.2568272838855
20
1.64287223250702
30
0
41
1
10
25.4905666889243
20
1.60944630444158
30
0
41
1
10
25.6072142173156
20
1.58938027089505
30
0
41
1
10
25.957540420907
20
1.5178464470155
30
0
41
1
10
26.191802227943
20
1.4554598143061
30
0
41
1
10
26.5454326926709
20
1.34186538330349
30
0
41
1
10
26.6641135681076
20
1.30057496505782
30
0
41
1
10
26.9000487726941
20
1.21311034279117
30
0
41
1
10
27.0175398010236
20
1.16679929414917
30
0
41
1
10
27.3689421084476
20
1.02043830337223
30
0
41
1
10
27.6024392805269
20
0.913417401891508
30
0
41
1
10
27.8359852590077
20
0.798830077817172
30
0
0
SPLINE
5
DF
100
AcDbEntity
8
1
62
256
6
ByLayer
370
18
48
1
60
0
100
AcDbSpline
70
4
71
3
72
55
73
51
40
0
40
0
40
0
40
0
40
0.0624999999999769
40
0.0624999999999769
40
0.124999999999954
40
0.124999999999954
40
0.24999999999991
40
0.24999999999991
40
0.312499999999888
40
0.312499999999888
40
0.374999999999866
40
0.374999999999866
40
0.499999999999822
40
0.499999999999822
40
0.531249999999811
40
0.531249999999811
40
0.53906249999981
40
0.542968749999809
40
0.542968749999809
40
0.546874999999808
40
0.546874999999808
40
0.548828124999808
40
0.548828124999808
40
0.550781249999808
40
0.550781249999808
40
0.554687499999809
40
0.554687499999809
40
0.562499999999812
40
0.562499999999812
40
0.593749999999825
40
0.593749999999825
40
0.624999999999837
40
0.624999999999837
40
0.640624999999844
40
0.640624999999844
40
0.65624999999985
40
0.65624999999985
40
0.671874999999857
40
0.671874999999857
40
0.687499999999864
40
0.687499999999864
40
0.718749999999877
40
0.718749999999877
40
0.74999999999989
40
0.74999999999989
40
0.812499999999917
40
0.812499999999917
40
0.874999999999944
40
0.874999999999944
40
1
40
1
40
1
40
1
41
1
10
6.67289929633517
20
-0.991690737035441
30
0
41
1
10
6.52518714173422
20
-0.919916383395247
30
0
41
1
10
6.37616108242528
20
-0.845521786101472
30
0
41
1
10
6.07794457502757
20
-0.695168142035328
30
0
41
1
10
5.92865849676861
20
-0.619179155153944
30
0
41
1
10
5.47866587214185
20
-0.392532742311829
30
0
41
1
10
5.1757764244378
20
-0.24323382469089
30
0
41
1
10
4.71048742573856
20
-0.0383648626553281
30
0
41
1
10
4.55357201894171
20
0.0267432309225342
30
0
41
1
10
4.23523969648065
20
0.148215063844219
30
0
41
1
10
4.07339654623718
20
0.204697733526643
30
0
41
1
10
3.58394423238539
20
0.357103476786165
30
0
41
1
10
3.252532860305
20
0.435941570017093
30
0
41
1
10
2.83055032161451
20
0.503083583477178
30
0
41
1
10
2.74571358099973
20
0.514957050804185
30
0
41
1
10
2.63945334744849
20
0.527776856770288
30
0
41
1
10
2.60755618111216
20
0.531471773120387
30
0
41
1
10
2.57563016395471
20
0.534939474818373
30
0
41
1
10
2.5543397173696
20
0.537200694638869
30
0
41
1
10
2.54355680452545
20
0.538290220320818
30
0
41
1
10
2.52755548970742
20
0.537047940718764
30
0
41
1
10
2.52227423159735
20
0.536255215869375
30
0
41
1
10
2.51187031783275
20
0.53352472030798
30
0
41
1
10
2.50700585367281
20
0.531333272464423
30
0
41
1
10
2.49258495861949
20
0.524675739044568
30
0
41
1
10
2.48301176516719
20
0.520154500766381
30
0
41
1
10
2.45442108678577
20
0.506327635098074
30
0
41
1
10
2.43551844976116
20
0.496752161383853
30
0
41
1
10
2.34212331302487
20
0.446977300097501
30
0
41
1
10
2.27132295781394
20
0.4016878794327
30
0
41
1
10
2.14321898819244
20
0.29181027643898
30
0
41
1
10
2.08584276480025
20
0.226454048260877
30
0
41
1
10
2.02878975100805
20
0.111717380164691
30
0
41
1
10
2.01509582555192
20
0.0717342810045807
30
0
41
1
10
1.99959538578219
20
-0.0121323420874546
30
0
41
1
10
1.99812470844228
20
-0.055616662971687
30
0
41
1
10
2.00663986653632
20
-0.140313538914484
30
0
41
1
10
2.01663866657793
20
-0.182488229347399
30
0
41
1
10
2.04428965589779
20
-0.26228234829415
30
0
41
1
10
2.06196088719651
20
-0.300501523892137
30
0
41
1
10
2.12344447651174
20
-0.411412141910802
30
0
41
1
10
2.1737717981203
20
-0.477611244447047
30
0
41
1
10
2.2834158019339
20
-0.600917951800227
30
0
41
1
10
2.34337627610452
20
-0.658235169206023
30
0
41
1
10
2.52814098320073
20
-0.817587482890218
30
0
41
1
10
2.65903821532362
20
-0.909071373522323
30
0
41
1
10
2.92800980431485
20
-1.07600144260607
30
0
41
1
10
3.06683963850151
20
-1.15127555577791
30
0
41
1
10
3.48744252969888
20
-1.35633138746184
30
0
41
1
10
3.76980733603199
20
-1.46458794293932
30
0
41
1
10
4.05383121074931
20
-1.54969179193697
30
0
0
SPLINE
5
E0
100
AcDbEntity
8
1
62
256
6
ByLayer
370
18
48
1
60
0
100
AcDbSpline
70
4
71
3
72
14
73
10
40
0
40
0
40
0
40
0
40
0.499999999999984
40
0.499999999999984
40
0.749999999999984
40
0.749999999999984
40
0.874999999999992
40
0.874999999999992
40
1
40
1
40
1
40
1
41
1
10
29.7757338480748
20
-0.852290281752033
30
0
41
1
10
29.7213601324251
20
-0.998586895065159
30
0
41
1
10
29.6666123584628
20
-1.14456688444267
30
0
41
1
10
29.58478973494
20
-1.36378846753269
30
0
41
1
10
29.5574755575262
20
-1.43682612113815
30
0
41
1
10
29.516184186344
20
-1.54609262647142
30
0
41
1
10
29.5023964899968
20
-1.58249577387326
30
0
41
1
10
29.474823298075
20
-1.65529153543599
30
0
41
1
10
29.4609927564497
20
-1.69161709728985
30
0
41
1
10
29.4469291281419
20
-1.72755908139638
30
0
0
SPLINE
5
E1
100
AcDbEntity
8
1
62
256
6
ByLayer
370
13
48
1
60
0
100
AcDbSpline
70
4
71
3
72
8
73
4
40
0
40
0
40
0
40
0
40
1
40
1
40
1
40
1
41
1
10
4.12272676530395
20
0.691563908838646
30
0
41
1
10
4.09505716250391
20
0.706328101647586
30
0
41
1
10
4.07192186450442
20
0.725091273011202
30
0
41
1
10
4.05311422707331
20
0.747046454836834
30
0
0
SPLINE
5
E2
100
AcDbEntity
8
SK1
62
256
6
ByLayer
370
18
48
1
60
0
100
AcDbSpline
70
4
71
3
72
14
73
10
40
0
40
0
40
0
40
0
40
0.5
40
0.5
40
0.75
40
0.75
40
0.875
40
0.875
40
1
40
1
40
1
40
1
41
1
10
-35.4
20
2.70879776091519
30
0
41
1
10
-35.3787652204583
20
2.74696489993664
30
0
41
1
10
-35.3584465534471
20
2.78495570893344
30
0
41
1
10
-35.3303391147581
20
2.8401046390197
30
0
41
1
10
-35.3214282600699
20
2.85808037407719
30
0
41
1
10
-35.3103321676609
20
2.88185921024046
30
0
41
1
10
-35.30696138533
20
2.88936298358664
30
0
41
1
10
-35.301759003493
20
2.90210197182731
30
0
41
1
10
-35.2999999999999
20
2.90719833598809
30
0
41
1
10
-35.2999999999999
20
2.90928832231194
30
0
0
SPLINE
5
E3
100
AcDbEntity
8
SK1
62
256
6
ByLayer
370
18
48
1
60
0
100
AcDbSpline
70
4
71
3
72
8
73
4
40
0
40
0
40
0
40
0
40
1
40
1
40
1
40
1
41
1
10
-36
20
-1.60398064937794
30
0
41
1
10
-35.806052902553
20
-1.97559831967533
30
0
41
1
10
-35.6037423476354
20
-2.34259369971886
30
0
41
1
10
-35.4
20
-2.7087977609151
30
0
0
SPLINE
5
E4
100
AcDbEntity
8
SK1
62
256
6
ByLayer
370
18
48
1
60
0
100
AcDbSpline
70
4
71
3
72
8
73
4
40
0
40
0
40
0
40
0
40
1
40
1
40
1
40
1
41
1
10
-36
20
1.60398064937794
30
0
41
1
10
-35.806052902553
20
1.9755983196753
30
0
41
1
10
-35.6037423476354
20
2.34259369971886
30
0
41
1
10
-35.4
20
2.7087977609151
30
0
0
SPLINE
5
E5
100
AcDbEntity
8
SK1
62
256
6
ByLayer
370
18
48
1
60
0
100
AcDbSpline
70
4
71
3
72
8
73
4
40
0
40
0
40
0
40
0
40
1
40
1
40
1
40
1
41
1
10
-35.4
20
-2.66154464062743
30
0
41
1
10
-35.6037663377134
20
-2.2952974599516
30
0
41
1
10
-35.8061179691493
20
-1.92822052674623
30
0
41
1
10
-35.9999999999999
20
-1.55672752909044
30
0
0
SPLINE
5
E6
100
AcDbEntity
8
SK1
62
256
6
ByLayer
370
18
48
1
60
0
100
AcDbSpline
70
4
71
3
72
14
73
10
40
0
40
0
40
0
40
0
40
0.125
40
0.125
40
0.250000000000001
40
0.250000000000001
40
0.500000000000002
40
0.500000000000002
40
1
40
1
40
1
40
1
41
1
10
-35.3
20
-2.86833561806256
30
0
41
1
10
-35.3
20
-2.86557742269417
30
0
41
1
10
-35.301759386125
20
-2.85984819117868
30
0
41
1
10
-35.306935324593
20
-2.84609926877303
30
0
41
1
10
-35.3102738888306
20
-2.8382111022103
30
0
41
1
10
-35.3215584000234
20
-2.81283291179793
30
0
41
1
10
-35.3303095430127
20
-2.79463283291332
30
0
41
1
10
-35.35839128027
20
-2.73819167752683
30
0
41
1
10
-35.378655820405
20
-2.69990841399758
30
0
41
1
10
-35.4
20
-2.66154464062743
30
0
0
SPLINE
5
E7
100
AcDbEntity
8
SK1
62
256
6
ByLayer
370
18
48
1
60
0
100
AcDbSpline
70
4
71
3
72
14
73
10
40
0
40
0
40
0
40
0
40
0.5
40
0.5
40
0.75
40
0.75
40
0.875
40
0.875
40
1
40
1
40
1
40
1
41
1
10
-35.4
20
-2.70879776091522
30
0
41
1
10
-35.3787652204583
20
-2.74696489993664
30
0
41
1
10
-35.3584465534471
20
-2.78495570893344
30
0
41
1
10
-35.3303391147581
20
-2.8401046390197
30
0
41
1
10
-35.3214282600699
20
-2.85808037407719
30
0
41
1
10
-35.3103321676609
20
-2.88185921024046
30
0
41
1
10
-35.30696138533
20
-2.88936298358664
30
0
41
1
10
-35.301759003493
20
-2.90210197182731
30
0
41
1
10
-35.2999999999999
20
-2.90719833598809
30
0
41
1
10
-35.2999999999999
20
-2.90928832231194
30
0
0
LINE
5
76
100
AcDbEntity
8
81
62
256
6
ByLayer
370
18
48
1
60
0
100
AcDbLine
10
30
20
0
30
0
11
35
21
0
31
0
39
0
210
0
220
0
230
1
0
LINE
5
77
100
AcDbEntity
8
1
62
256
6
ByLayer
370
18
48
1
60
0
100
AcDbLine
10
4.053669
20
1.769764
30
0
11
1.557522
21
1.768266
31
0
39
0
210
0
220
0
230
1
0
LINE
5
79
100
AcDbEntity
8
1
62
256
6
ByLayer
370
18
48
1
60
0
100
AcDbLine
10
9.999539
20
1.773331
30
0
11
9.631805
21
1.773111
31
0
39
0
210
0
220
0
230
1
0
LINE
5
7A
100
AcDbEntity
8
1
62
256
6
ByLayer
370
18
48
1
60
0
100
AcDbLine
10
19.521001
20
1.779044
30
0
11
19.154672
21
1.778825
31
0
39
0
210
0
220
0
230
1
0
LINE
5
7B
100
AcDbEntity
8
1
62
256
6
ByLayer
370
18
48
1
60
0
100
AcDbLine
10
29.04087
20
1.784756
30
0
11
28.675859
21
1.784537
31
0
39
0
210
0
220
0
230
1
0
LINE
5
7C
100
AcDbEntity
8
1
62
256
6
ByLayer
370
18
48
1
60
0
100
AcDbLine
10
28.675859
20
-1.784537
30
0
11
29.04057
21
-1.784756
31
0
39
0
210
0
220
0
230
1
0
LINE
5
7D
100
AcDbEntity
8
1
62
256
6
ByLayer
370
18
48
1
60
0
100
AcDbLine
10
19.154672
20
-1.778825
30
0
11
19.520986
21
-1.779044
31
0
39
0
210
0
220
0
230
1
0
LINE
5
7E
100
AcDbEntity
8
1
62
256
6
ByLayer
370
18
48
1
60
0
100
AcDbLine
10
9.631805
20
-1.773111
30
0
11
10.000486
21
-1.773332
31
0
39
0
210
0
220
0
230
1
0
LINE
5
7F
100
AcDbEntity
8
1
62
256
6
ByLayer
370
18
48
1
60
0
100
AcDbLine
10
1.557522
20
-1.768266
30
0
11
4.053669
21
-1.769764
31
0
39
0
210
0
220
0
230
1
0
LINE
5
80
100
AcDbEntity
8
SK1
62
256
6
ByLayer
370
18
48
1
60
0
100
AcDbLine
10
0
20
3
30
0
11
-35.278312
21
3
31
0
39
0
210
0
220
0
230
1
0
LINE
5
82
100
AcDbEntity
8
SK1
62
256
6
ByLayer
370
18
48
1
60
0
100
AcDbLine
10
-35.278312
20
-3
30
0
11
0
21
-3
31
0
39
0
210
0
220
0
230
1
0
LINE
5
83
100
AcDbEntity
8
SK1
62
256
6
ByLayer
370
18
48
1
60
0
100
AcDbLine
10
-35.278312
20
3
30
0
11
-35.3
21
2.962436
31
0
39
0
210
0
220
0
230
1
0
LINE
5
84
100
AcDbEntity
8
SK1
62
256
6
ByLayer
370
18
48
1
60
0
100
AcDbLine
10
-35.3
20
-2.962436
30
0
11
-35.278312
21
-3
31
0
39
0
210
0
220
0
230
1
0
LINE
5
85
100
AcDbEntity
8
SK4
62
256
6
ByLayer
370
18
48
0.05
60
0
100
AcDbLine
10
35
20
0
30
0
11
-41
21
0
31
0
39
0
210
0
220
0
230
1
0
LINE
5
87
100
AcDbEntity
8
4
62
256
6
ByLayer
370
18
48
0.05
60
0
100
AcDbLine
10
30
20
0
30
0
11
0
21
0
31
0
39
0
210
0
220
0
230
1
0
LINE
5
89
100
AcDbEntity
8
80
62
256
6
ByLayer
370
18
48
1
60
0
100
AcDbLine
10
0
20
0
30
0
11
-5
21
0
31
0
39
0
210
0
220
0
230
1
0
LINE
5
8A
100
AcDbEntity
8
1
62
256
6
ByLayer
370
18
48
1
60
0
100
AcDbLine
10
14.894529
20
-0.292512
30
0
11
14.902211
21
-0.296684
31
0
39
0
210
0
220
0
230
1
0
LINE
5
8B
100
AcDbEntity
8
1
62
256
6
ByLayer
370
18
48
1
60
0
100
AcDbLine
10
30
20
0
30
0
11
29.385404
21
-1.688589
31
0
39
0
210
0
220
0
230
1
0
LINE
5
8C
100
AcDbEntity
8
1
62
256
6
ByLayer
370
18
48
1
60
0
100
AcDbLine
10
29.939303
20
0.24961
30
0
11
29.917323
21
0.362085
31
0
39
0
210
0
220
0
230
1
0
LINE
5
8D
100
AcDbEntity
8
1
62
256
6
ByLayer
370
18
48
1
60
0
100
AcDbLine
10
29.11078
20
-0.983234
30
0
11
29.667264
21
-0.408378
31
0
39
0
210
0
220
0
230
1
0
LINE
5
8E
100
AcDbEntity
8
1
62
256
6
ByLayer
370
18
48
1
60
0
100
AcDbLine
10
29.997362
20
0.018417
30
0
11
30
21
0
31
0
39
0
210
0
220
0
230
1
0
LINE
5
8F
100
AcDbEntity
8
1
62
256
6
ByLayer
370
13
48
1
60
0
100
AcDbLine
10
1.557522
20
1.768266
30
0
11
1.557522
21
-1.768266
31
0
39
0
210
0
220
0
230
1
0
LINE
5
90
100
AcDbEntity
8
1
62
256
6
ByLayer
370
18
48
1
60
0
100
AcDbLine
10
30
20
0
30
0
11
29.997362
21
-0.018417
31
0
39
0
210
0
220
0
230
1
0
LINE
5
91
100
AcDbEntity
8
1
62
256
6
ByLayer
370
13
48
1
60
0
100
AcDbLine
10
29.559831
20
0.026756
30
0
11
29.895623
21
-0.172481
31
0
39
0
210
0
220
0
230
1
0
LINE
5
92
100
AcDbEntity
8
1
62
256
6
ByLayer
370
13
48
1
60
0
100
AcDbLine
10
29.749738
20
0.362085
30
0
11
29.939303
21
0.24961
31
0
39
0
210
0
220
0
230
1
0
LINE
5
93
100
AcDbEntity
8
1
62
256
6
ByLayer
370
13
48
1
60
0
100
AcDbLine
10
0.778521
20
2.384133
30
0
11
0.778521
21
-2.384133
31
0
39
0
210
0
220
0
230
1
0
LINE
5
94
100
AcDbEntity
8
1
62
256
6
ByLayer
370
13
48
1
60
0
100
AcDbLine
10
29.917323
20
0.362085
30
0
11
29.749738
21
0.362085
31
0
39
0
210
0
220
0
230
1
0
LINE
5
95
100
AcDbEntity
8
1
62
256
6
ByLayer
370
18
48
1
60
0
100
AcDbLine
10
29.939303
20
-0.24961
30
0
11
29.917323
21
-0.362085
31
0
39
0
210
0
220
0
230
1
0
LINE
5
96
100
AcDbEntity
8
1
62
256
6
ByLayer
370
18
48
1
60
0
100
AcDbLine
10
0
20
-3
30
0
11
0
21
3
31
0
39
0
210
0
220
0
230
1
0
LINE
5
97
100
AcDbEntity
8
1
62
256
6
ByLayer
370
18
48
1
60
0
100
AcDbLine
10
29.833434
20
-0.236723
30
0
11
29.895623
21
-0.172481
31
0
39
0
210
0
220
0
230
1
0
LINE
5
98
100
AcDbEntity
8
SK1
62
256
6
ByLayer
370
18
48
1
60
0
100
AcDbLine
10
-36
20
-1.556718
30
0
11
-36
21
-1.603981
31
0
39
0
210
0
220
0
230
1
0
LINE
5
99
100
AcDbEntity
8
SK1
62
256
6
ByLayer
370
18
48
1
60
0
100
AcDbLine
10
-35.278312
20
3
30
0
11
-35.278312
21
-3
31
0
39
0
210
0
220
0
230
1
0
LINE
5
9A
100
AcDbEntity
8
SK1
62
256
6
ByLayer
370
18
48
1
60
0
100
AcDbLine
10
-36
20
1.603981
30
0
11
-36
21
-1.556728
31
0
39
0
210
0
220
0
230
1
0
LINE
5
9B
100
AcDbEntity
8
SK1
62
256
6
ByLayer
370
18
48
1
60
0
100
AcDbLine
10
0
20
-3
30
0
11
0
21
3
31
0
39
0
210
0
220
0
230
1
0
LINE
5
9C
100
AcDbEntity
8
SK1
62
256
6
ByLayer
370
18
48
1
60
0
100
AcDbLine
10
-35.3
20
2.962436
30
0
11
-35.3
21
2.909288
31
0
39
0
210
0
220
0
230
1
0
LINE
5
9D
100
AcDbEntity
8
SK1
62
256
6
ByLayer
370
18
48
1
60
0
100
AcDbLine
10
-35.3
20
-2.962436
30
0
11
-35.3
21
-2.868336
31
0
39
0
210
0
220
0
230
1
0
LINE
5
9E
100
AcDbEntity
8
SK1
62
256
6
ByLayer
370
13
48
1
60
0
100
AcDbLine
10
-35.4
20
-2.661472
30
0
11
-35.4
21
-2.708798
31
0
39
0
210
0
220
0
230
1
0
MTEXT
5
E8
100
AcDbEntity
8
SK6
62
256
6
ByLayer
370
13
48
1
60
0
100
AcDbMText
10
-0.870831
20
34.167694
30
0
210
0
220
0
230
1
1
\W0.7542;R840-0357-50-A1A1220
40
3.5
41
0
44
1.084337
50
0
71
8
72
5
7
iso_b_vert
0
DIMENSION
5
F5
100
AcDbEntity
8
SK2
62
256
6
ByLayer
370
13
48
1
60
0
100
AcDbDimension
2
DimnDraft3D1
10
29.4
20
-11.998398
30
0
11
13.650059
21
-11.998398
31
0
70
32
71
5
72
1
41
1
210
0
220
0
230
1
3
Standard
100
AcDbAlignedDimension
13
0
23
-1.5875
33
0
14
29.4
24
-3.3725
34
0
50
0
100
AcDbRotatedDimension
1001
ACAD
1000
DSTYLE
1002
{
1070
   279
1070
     0
1070
   172
1070
     1
1070
   173
1070
     1
1070
   340
1005
E9
1070
   271
1070
     2
1070
   272
1070
     2
1070
    77
1070
     1
1070
    73
1070
     0
1070
   171
1070
     3
1070
   274
1070
     4
1070
   177
1070
    35
1070
   176
1070
    35
1070
   178
1070
    35
1070
    48
1040
-0.005
1070
    41
1041
3.5
1070
   147
1041
1.75
1070
    42
1041
1.5875
1070
    44
1041
2.0
1070
   140
1041
3.5
1070
   343
1005
0
1070
   344
1005
0
1002
}
0
DIMENSION
5
FF
100
AcDbEntity
8
SK2
62
256
6
ByLayer
370
13
48
1
60
0
100
AcDbDimension
2
DimnDraft3D2
10
30
20
-31.692985
30
0
11
-2.2587
21
-31.692985
31
0
70
32
71
5
72
1
41
1
210
0
220
0
230
1
3
Standard
100
AcDbAlignedDimension
13
-36
23
-4.5875
33
0
14
30
24
-1.5875
34
0
50
0
100
AcDbRotatedDimension
1001
ACAD
1000
DSTYLE
1002
{
1070
   279
1070
     0
1070
   172
1070
     1
1070
   173
1070
     1
1070
   340
1005
E9
1070
   271
1070
     2
1070
   272
1070
     2
1070
    77
1070
     1
1070
    73
1070
     0
1070
   171
1070
     3
1070
   274
1070
     4
1070
   177
1070
    35
1070
   176
1070
    35
1070
   178
1070
    35
1070
    48
1040
-0.005
1070
    41
1041
3.5
1070
   147
1041
1.75
1070
    42
1041
1.5875
1070
    44
1041
2.0
1070
   140
1041
3.5
1070
   343
1005
0
1070
   344
1005
0
1002
}
0
DIMENSION
5
109
100
AcDbEntity
8
SK2
62
256
6
ByLayer
370
13
48
1
60
0
100
AcDbDimension
2
DimnDraft3D3
10
30
20
13.394119
30
0
11
20.775
21
13.394119
31
0
70
32
71
5
72
1
41
1
210
0
220
0
230
1
3
Standard
100
AcDbAlignedDimension
13
11.55
23
3.3725
33
0
14
30
24
1.5875
34
0
50
0
100
AcDbRotatedDimension
1001
ACAD
1000
DSTYLE
1002
{
1070
   279
1070
     0
1070
   172
1070
     1
1070
   173
1070
     1
1070
   340
1005
E9
1070
   271
1070
     2
1070
   272
1070
     2
1070
    77
1070
     1
1070
    73
1070
     0
1070
   171
1070
     3
1070
   274
1070
     4
1070
   177
1070
    35
1070
   176
1070
    35
1070
   178
1070
    35
1070
    48
1040
-0.005
1070
    41
1041
3.5
1070
   147
1041
1.75
1070
    42
1041
1.5875
1070
    44
1041
2.0
1070
   140
1041
3.5
1070
   343
1005
0
1070
   344
1005
0
1002
}
0
DIMENSION
5
113
100
AcDbEntity
8
SK2
62
256
6
ByLayer
370
13
48
1
60
0
100
AcDbDimension
2
DimnDraft3D4
10
29.4
20
-14.587503
30
0
11
39.981425
21
-14.587503
31
0
70
32
71
5
72
1
41
1
210
0
220
0
230
1
3
Standard
100
AcDbAlignedDimension
13
30
23
-1.5875
33
0
14
29.4
24
-3.3725
34
0
50
0
100
AcDbRotatedDimension
1001
ACAD
1000
DSTYLE
1002
{
1070
   279
1070
     0
1070
   172
1070
     1
1070
   173
1070
     1
1070
   340
1005
E9
1070
   271
1070
     2
1070
   272
1070
     2
1070
    77
1070
     1
1070
    73
1070
     0
1070
   171
1070
     3
1070
   274
1070
     4
1070
   177
1070
    35
1070
   176
1070
    35
1070
   178
1070
    35
1070
    48
1040
-0.005
1070
    41
1041
3.5
1070
   147
1041
1.75
1070
    42
1041
1.5875
1070
    44
1041
2.0
1070
   140
1041
3.5
1070
   343
1005
0
1070
   344
1005
0
1002
}
0
DIMENSION
5
11D
100
AcDbEntity
8
SK2
62
256
6
ByLayer
370
13
48
1
60
0
100
AcDbDimension
2
DimnDraft3D5
10
29.4
20
-21.343428
30
0
11
-5.339324
21
-21.343428
31
0
70
32
71
5
72
1
41
1
210
0
220
0
230
1
3
Standard
100
AcDbAlignedDimension
13
-36
23
-4.5875
33
0
14
29.4
24
-3.3725
34
0
50
0
100
AcDbRotatedDimension
1001
ACAD
1000
DSTYLE
1002
{
1070
   279
1070
     0
1070
   172
1070
     1
1070
   173
1070
     1
1070
   340
1005
E9
1070
   271
1070
     2
1070
   272
1070
     2
1070
    77
1070
     1
1070
    73
1070
     0
1070
   171
1070
     3
1070
   274
1070
     4
1070
   177
1070
    35
1070
   176
1070
    35
1070
   178
1070
    35
1070
    48
1040
-0.005
1070
    41
1041
3.5
1070
   147
1041
1.75
1070
    42
1041
1.5875
1070
    44
1041
2.0
1070
   140
1041
3.5
1070
   343
1005
0
1070
   344
1005
0
1002
}
0
DIMENSION
5
128
100
AcDbEntity
8
SK2
62
256
6
ByLayer
370
13
48
1
60
0
100
AcDbDimension
2
DimnDraft3D6
10
-46.625163
20
3
30
0
11
-47.250163
21
21.47418
31
0
70
33
71
5
72
1
41
1
210
0
220
0
230
1
3
Standard
100
AcDbAlignedDimension
13
-37.5875
23
-3
33
0
14
-37.5875
24
3
34
0
1001
ACAD
1000
DSTYLE
1002
{
1070
   279
1070
     0
1070
    74
1070
     0
1070
   173
1070
     1
1070
   340
1005
E9
1070
   271
1070
     3
1070
   272
1070
     2
1070
    77
1070
     1
1070
    73
1070
     0
1070
   171
1070
     3
1070
   274
1070
     4
1070
   177
1070
    35
1070
   176
1070
    35
1070
   178
1070
    35
1070
    48
1040
-0.005
1070
    41
1041
3.5
1070
   147
1041
1.75
1070
    42
1041
1.5875
1070
    44
1041
2.0
1070
   140
1041
3.5
1070
   343
1005
0
1070
   344
1005
0
1002
}
0
DIMENSION
5
133
100
AcDbEntity
8
2
62
256
6
ByLayer
370
13
48
1
60
0
100
AcDbDimension
2
DimnDraft3D7
10
44.083343
20
1.785
30
0
11
39.458343
21
18.852266
31
0
70
33
71
5
72
1
41
1
210
0
220
0
230
1
3
Standard
100
AcDbAlignedDimension
13
30.9875
23
-1.785
33
0
14
30.9875
24
1.785
34
0
1001
ACAD
1000
DSTYLE
1002
{
1070
   279
1070
     0
1070
    74
1070
     0
1070
   173
1070
     1
1070
   340
1005
E9
1070
   271
1070
     3
1070
   272
1070
     2
1070
    77
1070
     1
1070
    73
1070
     0
1070
   171
1070
     3
1070
   274
1070
     4
1070
   177
1070
    35
1070
   176
1070
    35
1070
   178
1070
    35
1070
    48
1040
-0.005
1070
    41
1041
3.5
1070
   147
1041
1.75
1070
    42
1041
1.5875
1070
    44
1041
2.0
1070
   140
1041
3.5
1070
   343
1005
0
1070
   344
1005
0
1002
}
0
ENDSEC
0
SECTION
2
OBJECTS
0
DICTIONARY
5
19e
330
0
100
AcDbDictionary
280
0
281
1
3
ACAD_GROUP
350
19f
3
ACAD_MLINESTYLE
350
1a0
0
DICTIONARY
5
19f
330
0
100
AcDbDictionary
280
0
281
1
0
DICTIONARY
5
1a0
330
0
100
AcDbDictionary
280
0
281
1
3
Standard
350
18
0
MLINESTYLE
5
18
330
1a0
100
AcDbMlineStyle
2
Standard
70
0
3

62
256
51
90
52
90
71
2
49
-0.5
62
256
6
ByLayer
49
0.5
62
256
6
ByLayer
0
RASTERVARIABLES
5
18c
330

100
AcDbRasterVariables
90
0
70
1
71
1
72
1
0
ENDSEC
0
EOF
