0
SECTION
2
HEADER
9
$ACADVER
1
AC1015
9
$DWGCODEPAGE
3
ANSI_1252
9
$HANDSEED
5
19f
9
$ANGBASE
50
0
9
$ANGDIR
70
0
9
$ATTMODE
70
1
9
$AUNITS
70
0
9
$AUPREC
70
0
9
$CECOLOR
62
256
9
$CELTSCALE
40
1
9
$CELTYPE
6
ByLayer
9
$CELWEIGHT
370
18
9
$CLAYER
8
0
9
$CMLJUST
70
0
9
$CMLSCALE
40
1
9
$CMLSTYLE
2
Standard
9
$DIMSTYLE
2
Standard
9
$TEXTSIZE
40
0.2
9
$TEXTSTYLE
7
Standard
9
$LUNITS
70
2
9
$LUPREC
70
4
9
$EXTNAMES
290
1
9
$INSUNITS
70
4
9
$LTSCALE
40
1
9
$LWDISPLAY
290
1
9
$PDMODE
70
0
9
$PDSIZE
40
0
9
$PLINEGEN
70
0
0
ENDSEC
0
SECTION
2
CLASSES
0
CLASS
1
RASTERVARIABLES
2
AcDbRasterVariables
3
ISM
90
0
280
0
281
0
0
ENDSEC
0
SECTION
2
TABLES
0
TABLE
2
VPORT
5
195
100
AcDbSymbolTable
0
VPORT
5
1
100
AcDbSymbolTableRecord
100
AcDbViewportTableRecord
2
*Active
70
0
10
0
20
0
11
1
21
1
12
-1
22
1
13
0
23
0
14
0.5
24
0.5
15
10
25
10
16
0
26
0
36
1
17
0
27
0
37
0
0
ENDTAB
0
TABLE
2
LTYPE
5
196
100
AcDbSymbolTable
0
LTYPE
5
14
100
AcDbSymbolTableRecord
100
AcDbLinetypeTableRecord
70
0
2
ByBlock
3

72
65
73
0
40
0
0
LTYPE
5
15
100
AcDbSymbolTableRecord
100
AcDbLinetypeTableRecord
70
0
2
ByLayer
3

72
65
73
0
40
0
0
LTYPE
5
16
100
AcDbSymbolTableRecord
100
AcDbLinetypeTableRecord
70
0
2
CONTINUOUS
3
Solid line
72
65
73
0
40
0
0
LTYPE
5
6A
100
AcDbSymbolTableRecord
100
AcDbLinetypeTableRecord
70
0
2
CENTER
3
____ _ ____ _ ____ _ ____
72
65
73
4
40
47.5
49
22
74
0
49
-8.5
74
0
49
8.5
74
0
49
-8.5
74
0
0
LTYPE
5
6B
100
AcDbSymbolTableRecord
100
AcDbLinetypeTableRecord
70
0
2
DASHED
3
__ __ __ __ __ __ __ __ __
72
65
73
2
40
25.72
49
12.86
74
0
49
-12.86
74
0
0
ENDTAB
0
TABLE
2
LAYER
5
197
100
AcDbSymbolTable
0
LAYER
5
10
100
AcDbSymbolTableRecord
100
AcDbLayerTableRecord
2
0
70
0
62
7
6
CONTINUOUS
290
1
370
-3
390
0
0
LAYER
5
6D
100
AcDbSymbolTableRecord
100
AcDbLayerTableRecord
2
81
70
0
62
-3
6
CONTINUOUS
290
1
370
-3
390
0
0
LAYER
5
6F
100
AcDbSymbolTableRecord
100
AcDbLayerTableRecord
2
80
70
0
62
-6
6
CONTINUOUS
290
1
370
-3
390
0
0
LAYER
5
74
100
AcDbSymbolTableRecord
100
AcDbLayerTableRecord
2
2
70
0
62
7
6
CONTINUOUS
290
1
370
-3
390
0
0
LAYER
5
78
100
AcDbSymbolTableRecord
100
AcDbLayerTableRecord
2
1
70
0
62
4
6
CONTINUOUS
290
1
370
-3
390
0
0
LAYER
5
86
100
AcDbSymbolTableRecord
100
AcDbLayerTableRecord
2
4
70
0
62
-2
6
CENTER
290
1
370
-3
390
0
0
LAYER
5
181
100
AcDbSymbolTableRecord
100
AcDbLayerTableRecord
2
SK2
70
0
62
7
6
CONTINUOUS
290
1
370
-3
390
0
0
LAYER
5
182
100
AcDbSymbolTableRecord
100
AcDbLayerTableRecord
2
SK1
70
0
62
4
6
CONTINUOUS
290
1
370
-3
390
0
0
LAYER
5
183
100
AcDbSymbolTableRecord
100
AcDbLayerTableRecord
2
SK4
70
0
62
2
6
CENTER
290
1
370
-3
390
0
0
LAYER
5
184
100
AcDbSymbolTableRecord
100
AcDbLayerTableRecord
2
SK6
70
0
62
5
6
CONTINUOUS
290
1
370
-3
390
0
0
ENDTAB
0
TABLE
2
STYLE
5
198
100
AcDbSymbolTable
0
STYLE
5
11
100
AcDbSymbolTableRecord
100
AcDbTextStyleTableRecord
2
Standard
3
txt
70
0
71
0
40
0
41
1
42
0
50
0
0
STYLE
5
DD
100
AcDbSymbolTableRecord
100
AcDbTextStyleTableRecord
2
iso_b_vert
3
simplex.shx
70
0
71
0
40
0
41
1
42
0
50
0
0
STYLE
5
DE
100
AcDbSymbolTableRecord
100
AcDbTextStyleTableRecord
2
DWGDirectTextStyle
3
simplex
70
0
71
0
40
0
41
1
42
0
50
0
0
ENDTAB
0
TABLE
2
DIMSTYLE
5
199
100
AcDbSymbolTable
100
AcDbDimStyleTable
0
DIMSTYLE
105
27
100
AcDbSymbolTableRecord
100
AcDbDimStyleTableRecord
2
Standard
70
0
3
<>
41
0.18
42
0.0625
44
0.18
140
0.18
147
0.09
73
0
74
0
77
1
271
2
275
0
278
52
280
0
340
11
0
ENDTAB
0
TABLE
2
VIEW
5
19a
100
AcDbSymbolTable
0
ENDTAB
0
TABLE
2
UCS
5
19b
100
AcDbSymbolTable
0
ENDTAB
0
TABLE
2
APPID
5
19c
100
AcDbSymbolTable
0
APPID
5
12
100
AcDbSymbolTableRecord
100
AcDbRegAppTableRecord
2
ACAD
70
0
0
ENDTAB
0
TABLE
2
BLOCK_RECORD
5
19d
100
AcDbSymbolTable
0
BLOCK_RECORD
5
1F
100
AcDbSymbolTableRecord
100
AcDbBlockTableRecord
2
*Model_Space
340
0
70
0
0
BLOCK_RECORD
5
1B
100
AcDbSymbolTableRecord
100
AcDbBlockTableRecord
2
*Paper_Space
340
0
70
0
0
BLOCK_RECORD
5
23
100
AcDbSymbolTableRecord
100
AcDbBlockTableRecord
2
*Paper_Space0
340
0
70
0
0
BLOCK_RECORD
5
E0
100
AcDbSymbolTableRecord
100
AcDbBlockTableRecord
2
DimnDraft3D1
340
0
70
0
0
BLOCK_RECORD
5
EA
100
AcDbSymbolTableRecord
100
AcDbBlockTableRecord
2
DimnDraft3D2
340
0
70
0
0
BLOCK_RECORD
5
F4
100
AcDbSymbolTableRecord
100
AcDbBlockTableRecord
2
DimnDraft3D3
340
0
70
0
0
BLOCK_RECORD
5
FE
100
AcDbSymbolTableRecord
100
AcDbBlockTableRecord
2
DimnDraft3D4
340
0
70
0
0
BLOCK_RECORD
5
108
100
AcDbSymbolTableRecord
100
AcDbBlockTableRecord
2
DimnDraft3D5
340
0
70
0
0
BLOCK_RECORD
5
112
100
AcDbSymbolTableRecord
100
AcDbBlockTableRecord
2
DimnDraft3D6
340
0
70
0
0
BLOCK_RECORD
5
11D
100
AcDbSymbolTableRecord
100
AcDbBlockTableRecord
2
DimnDraft3D7
340
0
70
0
0
ENDTAB
0
ENDSEC
0
SECTION
2
BLOCKS
0
BLOCK
5
20
100
AcDbEntity
8
0
100
AcDbBlockBegin
2
*Model_Space
70
0
10
0
20
0
30
0
3
*Model_Space
0
ENDBLK
5
21
100
AcDbEntity
8
0
100
AcDbBlockEnd
0
BLOCK
5
1C
100
AcDbEntity
8
0
100
AcDbBlockBegin
2
*Paper_Space
70
0
10
0
20
0
30
0
3
*Paper_Space
0
ENDBLK
5
1D
100
AcDbEntity
8
0
100
AcDbBlockEnd
0
BLOCK
5
24
100
AcDbEntity
8
0
100
AcDbBlockBegin
2
*Paper_Space0
70
0
10
0
20
0
30
0
3
*Paper_Space0
0
ENDBLK
5
25
100
AcDbEntity
8
0
100
AcDbBlockEnd
0
BLOCK
5
E7
100
AcDbEntity
8
0
100
AcDbBlockBegin
2
DimnDraft3D1
70
0
10
0
20
0
30
0
3
DimnDraft3D1
0
MTEXT
5
E1
100
AcDbEntity
8
SK2
62
256
6
ByLayer
370
13
48
1
60
0
100
AcDbMText
10
7.047164
20
-11.038398
30
0
210
0
220
0
230
1
1
\W0.7581;25,43
40
3.5
41
0
44
1.084337
50
0
71
7
72
5
7
iso_b_vert
0
LINE
5
E2
100
AcDbEntity
8
SK2
62
256
6
ByLayer
370
13
48
1
60
0
100
AcDbLine
10
0
20
-1.5875
30
0
11
0
21
-13.913398
31
0
39
0
210
0
220
0
230
1
0
LINE
5
E3
100
AcDbEntity
8
SK2
62
256
6
ByLayer
370
13
48
1
60
0
100
AcDbLine
10
25.43
20
-3.2875
30
0
11
25.43
21
-13.913398
31
0
39
0
210
0
220
0
230
1
0
LINE
5
E4
100
AcDbEntity
8
SK2
62
256
6
ByLayer
370
13
48
1
60
0
100
AcDbLine
10
0
20
-11.913398
30
0
11
25.43
21
-11.913398
31
0
39
0
210
0
220
0
230
1
0
SOLID
5
E5
100
AcDbEntity
8
SK2
62
256
6
ByLayer
370
13
48
1
60
0
100
AcDbTrace
10
0
20
-11.913398
30
0
11
3.499998
21
-11.452615
31
0
12
3.500002
22
-12.374182
32
0
13
0
23
-11.913398
33
0
39
0
210
0
220
0
230
1
0
SOLID
5
E6
100
AcDbEntity
8
SK2
62
256
6
ByLayer
370
13
48
1
60
0
100
AcDbTrace
10
25.43
20
-11.913398
30
0
11
21.930002
21
-12.374182
31
0
12
21.929998
22
-11.452615
32
0
13
25.43
23
-11.913398
33
0
39
0
210
0
220
0
230
1
0
ENDBLK
5
E8
100
AcDbEntity
8
0
100
AcDbBlockEnd
0
BLOCK
5
F1
100
AcDbEntity
8
0
100
AcDbBlockBegin
2
DimnDraft3D2
70
0
10
0
20
0
30
0
3
DimnDraft3D2
0
MTEXT
5
EB
100
AcDbEntity
8
SK2
62
256
6
ByLayer
370
13
48
1
60
0
100
AcDbMText
10
-8.677384
20
-30.817985
30
0
210
0
220
0
230
1
1
\W0.7317;62,00
40
3.5
41
0
44
1.084337
50
0
71
7
72
5
7
iso_b_vert
0
LINE
5
EC
100
AcDbEntity
8
SK2
62
256
6
ByLayer
370
13
48
1
60
0
100
AcDbLine
10
-36
20
-4.5875
30
0
11
-36
21
-33.692985
31
0
39
0
210
0
220
0
230
1
0
LINE
5
ED
100
AcDbEntity
8
SK2
62
256
6
ByLayer
370
13
48
1
60
0
100
AcDbLine
10
26
20
-1.5875
30
0
11
26
21
-33.692985
31
0
39
0
210
0
220
0
230
1
0
LINE
5
EE
100
AcDbEntity
8
SK2
62
256
6
ByLayer
370
13
48
1
60
0
100
AcDbLine
10
-36
20
-31.692985
30
0
11
26
21
-31.692985
31
0
39
0
210
0
220
0
230
1
0
SOLID
5
EF
100
AcDbEntity
8
SK2
62
256
6
ByLayer
370
13
48
1
60
0
100
AcDbTrace
10
-36
20
-31.692985
30
0
11
-32.500002
21
-31.232202
31
0
12
-32.499998
22
-32.153769
32
0
13
-36
23
-31.692985
33
0
39
0
210
0
220
0
230
1
0
SOLID
5
F0
100
AcDbEntity
8
SK2
62
256
6
ByLayer
370
13
48
1
60
0
100
AcDbTrace
10
26
20
-31.692985
30
0
11
22.500002
21
-32.153769
31
0
12
22.499998
22
-31.232202
32
0
13
26
23
-31.692985
33
0
39
0
210
0
220
0
230
1
0
ENDBLK
5
F2
100
AcDbEntity
8
0
100
AcDbBlockEnd
0
BLOCK
5
FB
100
AcDbEntity
8
0
100
AcDbBlockBegin
2
DimnDraft3D3
70
0
10
0
20
0
30
0
3
DimnDraft3D3
0
MTEXT
5
F5
100
AcDbEntity
8
SK2
62
256
6
ByLayer
370
13
48
1
60
0
100
AcDbMText
10
16.603816
20
14.184119
30
0
210
0
220
0
230
1
1
\W0.6713;10,77
40
3.5
41
0
44
1.084337
50
0
71
7
72
5
7
iso_b_vert
0
LINE
5
F6
100
AcDbEntity
8
SK2
62
256
6
ByLayer
370
13
48
1
60
0
100
AcDbLine
10
15.23
20
3.2875
30
0
11
15.23
21
15.309119
31
0
39
0
210
0
220
0
230
1
0
LINE
5
F7
100
AcDbEntity
8
SK2
62
256
6
ByLayer
370
13
48
1
60
0
100
AcDbLine
10
26
20
1.5875
30
0
11
26
21
15.309119
31
0
39
0
210
0
220
0
230
1
0
LINE
5
F8
100
AcDbEntity
8
SK2
62
256
6
ByLayer
370
13
48
1
60
0
100
AcDbLine
10
15.23
20
13.309119
30
0
11
26
21
13.309119
31
0
39
0
210
0
220
0
230
1
0
SOLID
5
F9
100
AcDbEntity
8
SK2
62
256
6
ByLayer
370
13
48
1
60
0
100
AcDbTrace
10
15.23
20
13.309119
30
0
11
18.729998
21
13.769903
31
0
12
18.730002
22
12.848335
32
0
13
15.23
23
13.309119
33
0
39
0
210
0
220
0
230
1
0
SOLID
5
FA
100
AcDbEntity
8
SK2
62
256
6
ByLayer
370
13
48
1
60
0
100
AcDbTrace
10
26
20
13.309119
30
0
11
22.500002
21
12.848335
31
0
12
22.499998
22
13.769903
32
0
13
26
23
13.309119
33
0
39
0
210
0
220
0
230
1
0
ENDBLK
5
FC
100
AcDbEntity
8
0
100
AcDbBlockEnd
0
BLOCK
5
105
100
AcDbEntity
8
0
100
AcDbBlockBegin
2
DimnDraft3D4
70
0
10
0
20
0
30
0
3
DimnDraft3D4
0
MTEXT
5
FF
100
AcDbEntity
8
SK2
62
256
6
ByLayer
370
13
48
1
60
0
100
AcDbMText
10
32.840636
20
-13.627503
30
0
210
0
220
0
230
1
1
\W0.7150;0,57
40
3.5
41
0
44
1.084337
50
0
71
7
72
5
7
iso_b_vert
0
LINE
5
100
100
AcDbEntity
8
SK2
62
256
6
ByLayer
370
13
48
1
60
0
100
AcDbLine
10
26
20
-1.5875
30
0
11
26
21
-16.502503
31
0
39
0
210
0
220
0
230
1
0
LINE
5
101
100
AcDbEntity
8
SK2
62
256
6
ByLayer
370
13
48
1
60
0
100
AcDbLine
10
25.43
20
-3.2875
30
0
11
25.43
21
-16.502503
31
0
39
0
210
0
220
0
230
1
0
LINE
5
102
100
AcDbEntity
8
SK2
62
256
6
ByLayer
370
13
48
1
60
0
100
AcDbLine
10
16.68
20
-14.502503
30
0
11
39.997215
21
-14.502503
31
0
39
0
210
0
220
0
230
1
0
SOLID
5
103
100
AcDbEntity
8
SK2
62
256
6
ByLayer
370
13
48
1
60
0
100
AcDbTrace
10
26
20
-14.502503
30
0
11
29.499998
21
-14.041719
31
0
12
29.500002
22
-14.963287
32
0
13
26
23
-14.502503
33
0
39
0
210
0
220
0
230
1
0
SOLID
5
104
100
AcDbEntity
8
SK2
62
256
6
ByLayer
370
13
48
1
60
0
100
AcDbTrace
10
25.43
20
-14.502503
30
0
11
21.930002
21
-14.963287
31
0
12
21.929998
22
-14.041719
32
0
13
25.43
23
-14.502503
33
0
39
0
210
0
220
0
230
1
0
ENDBLK
5
106
100
AcDbEntity
8
0
100
AcDbBlockEnd
0
BLOCK
5
10F
100
AcDbEntity
8
0
100
AcDbBlockBegin
2
DimnDraft3D5
70
0
10
0
20
0
30
0
3
DimnDraft3D5
0
MTEXT
5
109
100
AcDbEntity
8
SK2
62
256
6
ByLayer
370
13
48
1
60
0
100
AcDbMText
10
-11.504718
20
-20.468428
30
0
210
0
220
0
230
1
1
\W0.6977;61,43
40
3.5
41
0
44
1.084337
50
0
71
7
72
5
7
iso_b_vert
0
LINE
5
10A
100
AcDbEntity
8
SK2
62
256
6
ByLayer
370
13
48
1
60
0
100
AcDbLine
10
-36
20
-4.5875
30
0
11
-36
21
-23.343428
31
0
39
0
210
0
220
0
230
1
0
LINE
5
10B
100
AcDbEntity
8
SK2
62
256
6
ByLayer
370
13
48
1
60
0
100
AcDbLine
10
25.43
20
-3.2875
30
0
11
25.43
21
-23.343428
31
0
39
0
210
0
220
0
230
1
0
LINE
5
10C
100
AcDbEntity
8
SK2
62
256
6
ByLayer
370
13
48
1
60
0
100
AcDbLine
10
-36
20
-21.343428
30
0
11
25.43
21
-21.343428
31
0
39
0
210
0
220
0
230
1
0
SOLID
5
10D
100
AcDbEntity
8
SK2
62
256
6
ByLayer
370
13
48
1
60
0
100
AcDbTrace
10
-36
20
-21.343428
30
0
11
-32.500002
21
-20.882645
31
0
12
-32.499998
22
-21.804212
32
0
13
-36
23
-21.343428
33
0
39
0
210
0
220
0
230
1
0
SOLID
5
10E
100
AcDbEntity
8
SK2
62
256
6
ByLayer
370
13
48
1
60
0
100
AcDbTrace
10
25.43
20
-21.343428
30
0
11
21.930002
21
-21.804212
31
0
12
21.929998
22
-20.882645
32
0
13
25.43
23
-21.343428
33
0
39
0
210
0
220
0
230
1
0
ENDBLK
5
110
100
AcDbEntity
8
0
100
AcDbBlockEnd
0
BLOCK
5
11A
100
AcDbEntity
8
0
100
AcDbBlockBegin
2
DimnDraft3D6
70
0
10
0
20
0
30
0
3
DimnDraft3D6
0
MTEXT
5
113
100
AcDbEntity
8
SK2
62
256
6
ByLayer
370
13
48
1
60
0
100
AcDbMText
10
-46.375163
20
22.34918
30
0
210
0
220
0
230
1
1
\W0.7317;6,000
40
3.5
41
0
44
1.084337
50
90
71
7
72
5
7
iso_b_vert
0
MTEXT
5
114
100
AcDbEntity
8
SK2
62
256
6
ByLayer
370
13
48
1
60
0
100
AcDbMText
10
-46.375163
20
17.126524
30
0
210
0
220
0
230
1
1
%%c
40
3.5
41
0
44
1.084337
50
90
71
7
72
5
7
iso_b_vert
0
LINE
5
115
100
AcDbEntity
8
SK2
62
256
6
ByLayer
370
13
48
1
60
0
100
AcDbLine
10
-37.5875
20
-3
30
0
11
-46.625163
21
-3
31
0
39
0
210
0
220
0
230
1
0
LINE
5
116
100
AcDbEntity
8
SK2
62
256
6
ByLayer
370
13
48
1
60
0
100
AcDbLine
10
-37.5875
20
3
30
0
11
-46.625163
21
3
31
0
39
0
210
0
220
0
230
1
0
LINE
5
117
100
AcDbEntity
8
SK2
62
256
6
ByLayer
370
13
48
1
60
0
100
AcDbLine
10
-44.625163
20
32.121549
30
0
11
-44.625163
21
-11.75
31
0
39
0
210
0
220
0
230
1
0
SOLID
5
118
100
AcDbEntity
8
SK2
62
256
6
ByLayer
370
13
48
1
60
0
100
AcDbTrace
10
-44.625163
20
-3
30
0
11
-44.164379
21
-6.499998
31
0
12
-45.085946
22
-6.500002
32
0
13
-44.625163
23
-3
33
0
39
0
210
0
220
0
230
1
0
SOLID
5
119
100
AcDbEntity
8
SK2
62
256
6
ByLayer
370
13
48
1
60
0
100
AcDbTrace
10
-44.625163
20
3
30
0
11
-45.085946
21
6.499998
31
0
12
-44.164379
22
6.500002
32
0
13
-44.625163
23
3
33
0
39
0
210
0
220
0
230
1
0
ENDBLK
5
11B
100
AcDbEntity
8
0
100
AcDbBlockEnd
0
BLOCK
5
125
100
AcDbEntity
8
0
100
AcDbBlockBegin
2
DimnDraft3D7
70
0
10
0
20
0
30
0
3
DimnDraft3D7
0
MTEXT
5
11E
100
AcDbEntity
8
2
62
256
6
ByLayer
370
13
48
1
60
0
100
AcDbMText
10
36.333343
20
19.642266
30
0
210
0
220
0
230
1
1
\W0.7581;3,400
40
3.5
41
0
44
1.084337
50
90
71
7
72
5
7
iso_b_vert
0
MTEXT
5
11F
100
AcDbEntity
8
2
62
256
6
ByLayer
370
13
48
1
60
0
100
AcDbMText
10
36.333343
20
14.41961
30
0
210
0
220
0
230
1
1
%%c
40
3.5
41
0
44
1.084337
50
90
71
7
72
5
7
iso_b_vert
0
LINE
5
120
100
AcDbEntity
8
2
62
256
6
ByLayer
370
13
48
1
60
0
100
AcDbLine
10
27.0175
20
-1.7
30
0
11
40.083343
21
-1.7
31
0
39
0
210
0
220
0
230
1
0
LINE
5
121
100
AcDbEntity
8
2
62
256
6
ByLayer
370
13
48
1
60
0
100
AcDbLine
10
27.0175
20
1.7
30
0
11
40.083343
21
1.7
31
0
39
0
210
0
220
0
230
1
0
LINE
5
122
100
AcDbEntity
8
2
62
256
6
ByLayer
370
13
48
1
60
0
100
AcDbLine
10
38.083343
20
29.783056
30
0
11
38.083343
21
-10.45
31
0
39
0
210
0
220
0
230
1
0
SOLID
5
123
100
AcDbEntity
8
2
62
256
6
ByLayer
370
13
48
1
60
0
100
AcDbTrace
10
38.083343
20
-1.7
30
0
11
38.544126
21
-5.199998
31
0
12
37.622559
22
-5.200002
32
0
13
38.083343
23
-1.7
33
0
39
0
210
0
220
0
230
1
0
SOLID
5
124
100
AcDbEntity
8
2
62
256
6
ByLayer
370
13
48
1
60
0
100
AcDbTrace
10
38.083343
20
1.7
30
0
11
37.622559
21
5.199998
31
0
12
38.544126
22
5.200002
32
0
13
38.083343
23
1.7
33
0
39
0
210
0
220
0
230
1
0
ENDBLK
5
126
100
AcDbEntity
8
0
100
AcDbBlockEnd
0
ENDSEC
0
SECTION
2
ENTITIES
0
ARC
5
9E
100
AcDbEntity
8
1
62
256
6
ByLayer
370
18
48
1
60
0
100
AcDbCircle
39
0
10
0
20
2.2
30
0
40
0.799999999999999
210
0
220
0
230
1
100
AcDbArc
50
10.284604
51
90
0
ARC
5
9F
100
AcDbEntity
8
1
62
256
6
ByLayer
370
18
48
1
60
0
100
AcDbCircle
39
0
10
0
20
-2.2
30
0
40
0.799999999999999
210
0
220
0
230
1
100
AcDbArc
50
270
51
349.715396
0
ARC
5
A0
100
AcDbEntity
8
1
62
256
6
ByLayer
370
18
48
1
60
0
100
AcDbCircle
39
0
10
-1.574293
20
2.485661
30
0
40
0.799999999999999
210
0
220
0
230
-1
100
AcDbArc
50
269.965623
51
349.715396
0
ARC
5
A1
100
AcDbEntity
8
1
62
256
6
ByLayer
370
18
48
1
60
0
100
AcDbCircle
39
0
10
-1.574293
20
-2.485661
30
0
40
0.799999999999999
210
0
220
0
230
-1
100
AcDbArc
50
10.284604
51
90.034377
0
ELLIPSE
5
A2
100
AcDbEntity
8
1
62
256
6
ByLayer
370
18
48
1
60
0
100
AcDbEllipse
10
8.25
20
1.847647
30
0
11
0.25
21
0
31
0
210
0
220
0
230
1
40
1
41
-2.40130917147689
42
-1.55710048104071
0
ELLIPSE
5
A3
100
AcDbEntity
8
1
62
256
6
ByLayer
370
18
48
1
60
0
100
AcDbEllipse
10
8.25
20
-1.847647
30
0
11
0.25
21
0
31
0
210
0
220
0
230
1
40
1
41
1.57804464246459
42
2.40759201600214
0
ELLIPSE
5
A4
100
AcDbEntity
8
1
62
256
6
ByLayer
370
18
48
1
60
0
100
AcDbEllipse
10
25.649697
20
0.860668
30
0
11
0.266133092970731
21
-0.712907060229246
31
0
210
0
220
0
230
-1
40
0.148387
41
-1.44817272324645
42
-0.730060677416734
0
ELLIPSE
5
A5
100
AcDbEntity
8
1
62
256
6
ByLayer
370
18
48
1
60
0
100
AcDbEllipse
10
26.067347
20
-0.039688
30
0
11
0.133321008236573
21
-0.425213611917832
31
0
210
0
220
0
230
-1
40
0.112798
41
1.7410573889304
42
2.34950393583228
0
ELLIPSE
5
A6
100
AcDbEntity
8
1
62
256
6
ByLayer
370
18
48
1
60
0
100
AcDbEllipse
10
25.861127
20
0.082669
30
0
11
0.0727819104923511
21
0.301917195717361
31
0
210
0
220
0
230
-1
40
0.478434
41
1.67194434504677
42
2.45976119973166
0
ELLIPSE
5
A7
100
AcDbEntity
8
1
62
256
6
ByLayer
370
13
48
1
60
0
100
AcDbEllipse
10
25.758331
20
0.143661
30
0
11
0.153082081612423
21
0.25800363619377
31
0
210
0
220
0
230
1
40
0.454519
41
0.917105603404807
42
2.31336900500031
0
ELLIPSE
5
A8
100
AcDbEntity
8
1
62
256
6
ByLayer
370
13
48
1
60
0
100
AcDbEllipse
10
26.036488
20
0.860668
30
0
11
1.22262836676057
21
-0.474506337968899
31
0
210
0
220
0
230
-1
40
0.436368
41
1.62926998740051
42
1.94705751871745
0
ELLIPSE
5
A9
100
AcDbEntity
8
1
62
256
6
ByLayer
370
13
48
1
60
0
100
AcDbEllipse
10
25.846581
20
0.73747
30
0
11
1.16392453410478
21
-0.801395139538279
31
0
210
0
220
0
230
-1
40
0.533762
41
1.44484622738198
42
1.77325315868149
0
ELLIPSE
5
AA
100
AcDbEntity
8
1
62
256
6
ByLayer
370
18
48
1
60
0
100
AcDbEllipse
10
25.649697
20
-0.860668
30
0
11
0.266133092945737
21
0.712907060179632
31
0
210
0
220
0
230
-1
40
0.148387
41
0.73006067742309
42
1.44817272329667
0
ELLIPSE
5
AB
100
AcDbEntity
8
1
62
256
6
ByLayer
370
18
48
1
60
0
100
AcDbEllipse
10
26.067347
20
0.039688
30
0
11
0.133321008272687
21
0.425213612007437
31
0
210
0
220
0
230
-1
40
0.112798
41
-2.34950393585155
42
-1.74105738906202
0
ELLIPSE
5
AC
100
AcDbEntity
8
1
62
256
6
ByLayer
370
18
48
1
60
0
100
AcDbEllipse
10
26.000164
20
-0.000371
30
0
11
0.633767975019495
21
-1.69771318128956
31
0
210
0
220
0
230
-1
40
0.148387
41
-2.97274716112354
42
-2.83125079422895
0
ELLIPSE
5
AD
100
AcDbEntity
8
1
62
256
6
ByLayer
370
18
48
1
60
0
100
AcDbEllipse
10
26.000164
20
0.000371
30
0
11
0.633767973190093
21
1.69771317580641
31
0
210
0
220
0
230
-1
40
0.148387
41
2.83125079371716
42
2.97274716084357
0
POINT
5
6C
100
AcDbEntity
8
81
62
256
6
ByLayer
370
18
48
1
60
0
100
AcDbPoint
10
26
20
0
30
0
39
0
210
0
220
0
230
1
50
360
0
POINT
5
6E
100
AcDbEntity
8
80
62
256
6
ByLayer
370
18
48
1
60
0
100
AcDbPoint
10
0
20
0
30
0
39
0
210
0
220
0
230
1
50
360
0
POINT
5
70
100
AcDbEntity
8
SK2
62
256
6
ByLayer
370
18
48
1
60
1
100
AcDbPoint
10
-36
20
-3
30
0
39
0
210
0
220
0
230
1
50
360
0
POINT
5
72
100
AcDbEntity
8
SK2
62
256
6
ByLayer
370
18
48
1
60
1
100
AcDbPoint
10
-36
20
3
30
0
39
0
210
0
220
0
230
1
50
360
0
POINT
5
73
100
AcDbEntity
8
2
62
256
6
ByLayer
370
18
48
1
60
1
100
AcDbPoint
10
25.43
20
-1.7
30
0
39
0
210
0
220
0
230
1
50
360
0
POINT
5
75
100
AcDbEntity
8
2
62
256
6
ByLayer
370
18
48
1
60
1
100
AcDbPoint
10
25.43
20
1.7
30
0
39
0
210
0
220
0
230
1
50
360
0
SPLINE
5
AE
100
AcDbEntity
8
1
62
256
6
ByLayer
370
18
48
1
60
0
100
AcDbSpline
70
4
71
3
72
15
73
11
40
0
40
0
40
0
40
0
40
0.164059392920779
40
0.306561453750682
40
0.405864605411045
40
0.491877507695024
40
0.566591267287714
40
0.670504353989134
40
0.823872845607058
40
1
40
1
40
1
40
1
41
1
10
8.25076230748539
20
-1.59742783350981
30
0
41
1
10
8.40211079485962
20
-1.59791343718021
30
0
41
1
10
8.68492336908841
20
-1.59848086790206
30
0
41
1
10
9.05944974067432
20
-1.59785759697274
30
0
41
1
10
9.3618275166524
20
-1.59754949945258
30
0
41
1
10
9.60173184936065
20
-1.59856349387604
30
0
41
1
10
9.84591531424007
20
-1.59912642421392
30
0
41
1
10
10.1522310267353
20
-1.59947517944735
30
0
41
1
10
10.5521302101958
20
-1.5988793567893
30
0
41
1
10
10.8561357824319
20
-1.59907496669723
30
0
41
1
10
11.0186359860135
20
-1.59921310713818
30
0
0
SPLINE
5
AF
100
AcDbEntity
8
1
62
256
6
ByLayer
370
18
48
1
60
0
100
AcDbSpline
70
4
71
2
72
6
73
3
40
0
40
0
40
0
40
1
40
1
40
1
41
1
10
25.12831333148
20
-1.6055115638938
30
0
41
1
10
25.2620028551365
20
-1.6055228362857
30
0
41
1
10
25.3957893839762
20
-1.6060436806913
30
0
0
SPLINE
5
B0
100
AcDbEntity
8
1
62
256
6
ByLayer
370
18
48
1
60
0
100
AcDbSpline
70
4
71
3
72
22
73
18
40
0
40
0
40
0
40
0
40
0.125097835380701
40
0.209470310336254
40
0.262787803933546
40
0.31564600470338
40
0.370532125421831
40
0.429349131993572
40
0.491820059601022
40
0.546768753069804
40
0.60168130336007
40
0.656596459916352
40
0.710970488051053
40
0.762595352325055
40
0.816826260069259
40
0.900274767592242
40
1
40
1
40
1
40
1
41
1
10
15.7335402783407
20
-1.60129696762226
30
0
41
1
10
15.9337590058912
20
-1.6015351739841
30
0
41
1
10
16.2690359881994
20
-1.6018579270517
30
0
41
1
10
16.6897167965609
20
-1.60150468630545
30
0
41
1
10
16.9947486735271
20
-1.60188027624974
30
0
41
1
10
17.2525862240357
20
-1.60236165320569
30
0
41
1
10
17.5191951717404
20
-1.60208558806687
30
0
41
1
10
17.8012109470545
20
-1.601436852484
30
0
41
1
10
18.0833362105017
20
-1.60222092027959
30
0
41
1
10
18.3592102177137
20
-1.60230115405702
30
0
41
1
10
18.6229894738356
20
-1.60323474785062
30
0
41
1
10
18.8858456298651
20
-1.60273184099086
30
0
41
1
10
19.1434521875571
20
-1.60223876965173
30
0
41
1
10
19.3998956655569
20
-1.60175589513014
30
0
41
1
10
19.7027729775877
20
-1.60335828509719
30
0
41
1
10
20.0829196497894
20
-1.60348266011022
30
0
41
1
10
20.3760257111304
20
-1.60345896412878
30
0
41
1
10
20.5355897065359
20
-1.60324217199883
30
0
0
SPLINE
5
B1
100
AcDbEntity
8
1
62
256
6
ByLayer
370
18
48
1
60
0
100
AcDbSpline
70
4
71
3
72
15
73
11
40
0
40
0
40
0
40
0
40
0.191995592910363
40
0.349426926672112
40
0.448335893527323
40
0.530024850960777
40
0.608201932251111
40
0.696387068282211
40
0.838491049843863
40
1
40
1
40
1
40
1
41
1
10
11.018746899448
20
1.59922400816404
30
0
41
1
10
10.8416057675129
20
1.59914355476866
30
0
41
1
10
10.5192109079012
20
1.59902255295489
30
0
41
1
10
10.1055510655227
20
1.59936399708357
30
0
41
1
10
9.79366473258824
20
1.5991173711889
30
0
41
1
10
9.55490184726477
20
1.59829739862045
30
0
41
1
10
9.32603277191447
20
1.59758825294594
30
0
41
1
10
9.04142427231773
20
1.59793539211185
30
0
41
1
10
8.67993259923571
20
1.59848211534268
30
0
41
1
10
8.39980403241782
20
1.59791561794663
30
0
41
1
10
8.25078793689281
20
1.59743315530346
30
0
0
SPLINE
5
B2
100
AcDbEntity
8
1
62
256
6
ByLayer
370
18
48
1
60
0
100
AcDbSpline
70
4
71
3
72
20
73
16
40
0
40
0
40
0
40
0
40
0.134939217619892
40
0.238429488284746
40
0.30732330208015
40
0.379234626048791
40
0.453583167712296
40
0.527925630565901
40
0.602314909077222
40
0.676320364478415
40
0.745997244963184
40
0.811017447392335
40
0.873635298118649
40
0.936797244733398
40
1
40
1
40
1
40
1
41
1
10
20.5368351183178
20
1.60325311584251
30
0
41
1
10
20.3545638874819
20
1.60370441096239
30
0
41
1
10
20.0324930754907
20
1.60405239343518
30
0
41
1
10
19.6170895340002
20
1.60237689213639
30
0
41
1
10
19.2872016178382
20
1.60191385487963
30
0
41
1
10
18.9964402655441
20
1.60245683323603
30
0
41
1
10
18.6983410869118
20
1.60331005376764
30
0
41
1
10
18.3968859935612
20
1.6023926088302
30
0
41
1
10
18.0958967655783
20
1.6022293110174
30
0
41
1
10
17.8012109343616
20
1.60144349837583
30
0
41
1
10
17.519195174812
20
1.60208397982541
30
0
41
1
10
17.2525862232709
20
1.60236205368327
30
0
41
1
10
16.9947486737277
20
1.60188017127984
30
0
41
1
10
16.7393748514299
20
1.60156585296818
30
0
41
1
10
16.5686149471481
20
1.60162956255064
30
0
41
1
10
16.483209322264
20
1.60166183117715
30
0
0
SPLINE
5
B3
100
AcDbEntity
8
1
62
256
6
ByLayer
370
18
48
1
60
0
100
AcDbSpline
70
4
71
3
72
8
73
4
40
0
40
0
40
0
40
0
40
1
40
1
40
1
40
1
41
1
10
11.1658633267084
20
-0.407826593752873
30
0
41
1
10
11.1818795479181
20
-0.418443060947396
30
0
41
1
10
11.2030193392893
20
-0.431993052207048
30
0
41
1
10
11.2293895110367
20
-0.448566460115416
30
0
0
SPLINE
5
B4
100
AcDbEntity
8
1
62
256
6
ByLayer
370
18
48
1
60
0
100
AcDbSpline
70
4
71
3
72
10
73
6
40
0
40
0
40
0
40
0
40
0.5
40
0.5
40
1
40
1
40
1
40
1
41
1
10
8.11880605457262
20
1.30766614423101
30
0
41
1
10
8.10109050398972
20
1.31591751098736
30
0
41
1
10
8.08573555708213
20
1.32596731288334
30
0
41
1
10
8.06315204604968
20
1.34874625496701
30
0
41
1
10
8.05585723856433
20
1.36152472112374
30
0
41
1
10
8.0558722638751
20
1.37439055986303
30
0
0
SPLINE
5
B5
100
AcDbEntity
8
1
62
256
6
ByLayer
370
18
48
1
60
0
100
AcDbSpline
70
4
71
3
72
10
73
6
40
0
40
0
40
0
40
0
40
0.5
40
0.5
40
1
40
1
40
1
40
1
41
1
10
8.25123666087268
20
-0.958741621719696
30
0
41
1
10
8.21553073656838
20
-0.942265462803846
30
0
41
1
10
8.18060974165695
20
-0.930966346865262
30
0
41
1
10
8.11299467217822
20
-0.919602270622306
30
0
41
1
10
8.08167743127314
20
-0.920117244709502
30
0
41
1
10
8.05682812973694
20
-0.927212265550224
30
0
0
SPLINE
5
B6
100
AcDbEntity
8
1
62
256
6
ByLayer
370
18
48
1
60
0
100
AcDbSpline
70
4
71
3
72
8
73
4
40
0
40
0
40
0
40
0
40
1
40
1
40
1
40
1
41
1
10
25.4294517842478
20
-1.60496026188059
30
0
41
1
10
25.4244363793805
20
-1.60630543606342
30
0
41
1
10
25.4196554580157
20
-1.60697703641287
30
0
41
1
10
25.4151114417199
20
-1.60696810677206
30
0
0
SPLINE
5
B7
100
AcDbEntity
8
1
62
256
6
ByLayer
370
18
48
1
60
0
100
AcDbSpline
70
4
71
3
72
8
73
4
40
0
40
0
40
0
40
0
40
1
40
1
40
1
40
1
41
1
10
9.2015443880743
20
-1.31908097312024
30
0
41
1
10
8.88074333812395
20
-1.22427590845339
30
0
41
1
10
8.56544182294454
20
-1.10372860311205
30
0
41
1
10
8.25123666094132
20
-0.958741621751415
30
0
0
SPLINE
5
B8
100
AcDbEntity
8
1
62
256
6
ByLayer
370
18
48
1
60
0
100
AcDbSpline
70
4
71
3
72
16
73
12
40
0
40
0
40
0
40
0
40
0.250000000000007
40
0.250000000000007
40
0.500000000000013
40
0.500000000000013
40
0.75000000000002
40
0.75000000000002
40
0.87500000000001
40
0.87500000000001
40
1
40
1
40
1
40
1
41
1
10
25.3946635551394
20
0.538828883753183
30
0
41
1
10
25.4359803409601
20
0.549045126619546
30
0
41
1
10
25.4770378748374
20
0.560534981136186
30
0
41
1
10
25.5579511419282
20
0.587820270127565
30
0
41
1
10
25.5977774449391
20
0.603527542900366
30
0
41
1
10
25.6730891899839
20
0.642567172783288
30
0
41
1
10
25.7084372423203
20
0.665267144849025
30
0
41
1
10
25.7522233947917
20
0.712502440928432
30
0
41
1
10
25.7646219577679
20
0.730108766854499
30
0
41
1
10
25.7821613768065
20
0.76974477956233
30
0
41
1
10
25.7867931494515
20
0.790889968136497
30
0
41
1
10
25.7872414705584
20
0.812661701788471
30
0
0
SPLINE
5
B9
100
AcDbEntity
8
1
62
256
6
ByLayer
370
18
48
1
60
0
100
AcDbSpline
70
4
71
3
72
16
73
12
40
0
40
0
40
0
40
0
40
0.25
40
0.25
40
0.5
40
0.5
40
0.75
40
0.75
40
0.875
40
0.875
40
1
40
1
40
1
40
1
41
1
10
25.7872414705584
20
-0.812661701788471
30
0
41
1
10
25.7613944969941
20
-0.88233304584918
30
0
41
1
10
25.7354148297279
20
-0.951921055493244
30
0
41
1
10
25.6835749795018
20
-1.09117558618317
30
0
41
1
10
25.6576525798179
20
-1.160806984907
30
0
41
1
10
25.6055186217357
20
-1.29980567946842
30
0
41
1
10
25.5793568535092
20
-1.36925607546411
30
0
41
1
10
25.5400084143917
20
-1.47319932257869
30
0
41
1
10
25.5268301764829
20
-1.50773567038598
30
0
41
1
10
25.5002983611489
20
-1.57649378145203
30
0
41
1
10
25.4870109172802
20
-1.61083419791268
30
0
41
1
10
25.4736039046302
20
-1.64496009062012
30
0
0
SPLINE
5
BA
100
AcDbEntity
8
1
62
256
6
ByLayer
370
18
48
1
60
0
100
AcDbSpline
70
4
71
3
72
65
73
61
40
0
40
0
40
0
40
0
40
0.0524330162087641
40
0.0524330162087641
40
0.139758165793912
40
0.139758165793912
40
0.183420740586485
40
0.183420740586485
40
0.227083315379059
40
0.227083315379059
40
0.270745890171632
40
0.270745890171632
40
0.314408464964206
40
0.314408464964206
40
0.401733614549354
40
0.401733614549354
40
0.445396189341927
40
0.445396189341927
40
0.456311833040071
40
0.456994060771204
40
0.456994060771204
40
0.457676288502338
40
0.457676288502338
40
0.459040743964606
40
0.459040743964606
40
0.461769654889143
40
0.461769654889143
40
0.467227476738214
40
0.467227476738214
40
0.489058764134502
40
0.489058764134502
40
0.576383913719655
40
0.576383913719655
40
0.663709063304807
40
0.663709063304807
40
0.707371638097383
40
0.707371638097383
40
0.751034212889959
40
0.751034212889959
40
0.761949856588103
40
0.761949856588103
40
0.767407678437175
40
0.767407678437175
40
0.768089906168309
40
0.768089906168309
40
0.768772133899443
40
0.768772133899443
40
0.770136589361711
40
0.772865500286247
40
0.794696787682536
40
0.794696787682536
40
0.838359362475114
40
0.838359362475114
40
0.882021937267692
40
0.882021937267692
40
0.925684512060269
40
0.925684512060269
40
0.969347086852847
40
0.969347086852847
40
1
40
1
40
1
40
1
41
1
10
10.7814669725143
20
-0.20271254556468
30
0
41
1
10
10.6999904375152
20
-0.159447952271904
30
0
41
1
10
10.6185686727373
20
-0.117503647121794
30
0
41
1
10
10.4027056761257
20
-0.0115381175634468
30
0
41
1
10
10.2685388427973
20
0.0489441486911346
30
0
41
1
10
10.0659939938858
20
0.123790083118223
30
0
41
1
10
9.99849888721835
20
0.145905963482676
30
0
41
1
10
9.86570617541327
20
0.182538822701673
30
0
41
1
10
9.80001720605819
20
0.197204703845557
30
0
41
1
10
9.66925079565115
20
0.218542192370108
30
0
41
1
10
9.60417106367441
20
0.225214866353866
30
0
41
1
10
9.4737003680201
20
0.230050652595224
30
0
41
1
10
9.40835678388908
20
0.228148133042481
30
0
41
1
10
9.21506892917017
20
0.209970473164219
30
0
41
1
10
9.08820603776346
20
0.181396850598418
30
0
41
1
10
8.89556711261554
20
0.116728125269333
30
0
41
1
10
8.83091695927808
20
0.0914760943159365
30
0
41
1
10
8.75023794330141
20
0.0561137556908022
30
0
41
1
10
8.73308335589212
20
0.0483914371801575
30
0
41
1
10
8.71592555597221
20
0.0404607172687292
30
0
41
1
10
8.71390696905038
20
0.0395262542430714
30
0
41
1
10
8.71489141120082
20
0.0384337692572956
30
0
41
1
10
8.71741652344281
20
0.036158861737249
30
0
41
1
10
8.71928597532209
20
0.0348065107600348
30
0
41
1
10
8.72490675942373
20
0.0307602799642837
30
0
41
1
10
8.72876505513059
20
0.0281793735238409
30
0
41
1
10
8.74040333178311
20
0.0205073993048472
30
0
41
1
10
8.74828081574572
20
0.0155176741222647
30
0
41
1
10
8.78780685594879
20
-0.0092549104558941
30
0
41
1
10
8.81990108740126
20
-0.0285248307181973
30
0
41
1
10
8.98058426804263
20
-0.124673114604661
30
0
41
1
10
9.11043511844338
20
-0.200107311402519
30
0
41
1
10
9.36991566361064
20
-0.351775538228424
30
0
41
1
10
9.4997924154921
20
-0.427705144420742
30
0
41
1
10
9.69441658362598
20
-0.542263194935487
30
0
41
1
10
9.75922925272607
20
-0.580605102944759
30
0
41
1
10
9.88858020219021
20
-0.65787792541812
30
0
41
1
10
9.95321928583684
20
-0.696622963037328
30
0
41
1
10
10.0331864502956
20
-0.746639893109119
30
0
41
1
10
10.0491484753674
20
-0.756703798831751
30
0
41
1
10
10.0727773678945
20
-0.772382807722892
30
0
41
1
10
10.0808191630042
20
-0.777430040090962
30
0
41
1
10
10.0889473991963
20
-0.784369538977984
30
0
41
1
10
10.0898927508152
20
-0.785117974873287
30
0
41
1
10
10.0912216328388
20
-0.787136188950996
30
0
41
1
10
10.089667711236
20
-0.787976727243517
30
0
41
1
10
10.0871574529124
20
-0.790427845795335
30
0
41
1
10
10.0821372299785
20
-0.795325496472344
30
0
41
1
10
10.0503496674881
20
-0.826253202921066
30
0
41
1
10
10.0202480234471
20
-0.855043632919234
30
0
41
1
10
9.9401030327827
20
-0.930068877249511
30
0
41
1
10
9.88692765789838
20
-0.977710184453144
30
0
41
1
10
9.77953375420833
20
-1.06678486452907
30
0
41
1
10
9.72528344810425
20
-1.10817566686447
30
0
41
1
10
9.61634056972952
20
-1.1810462962502
30
0
41
1
10
9.56133755703681
20
-1.21279391637316
30
0
41
1
10
9.44804962261634
20
-1.26513016734256
30
0
41
1
10
9.38908498475786
20
-1.28580877668449
30
0
41
1
10
9.2871337113173
20
-1.30934528377287
30
0
41
1
10
9.24466285219054
20
-1.31575257310598
30
0
41
1
10
9.20158337630326
20
-1.31910551504598
30
0
0
SPLINE
5
BB
100
AcDbEntity
8
1
62
256
6
ByLayer
370
18
48
1
60
0
100
AcDbSpline
70
4
71
3
72
24
73
20
40
0
40
0
40
0
40
0
40
0.121758025349804
40
0.121758025349804
40
0.243516050699609
40
0.243516050699609
40
0.365274076049413
40
0.365274076049413
40
0.487032101399217
40
0.487032101399217
40
0.608790126749022
40
0.608790126749022
40
0.730548152098826
40
0.730548152098826
40
0.85230617744863
40
0.85230617744863
40
0.974064202798435
40
0.974064202798435
40
1
40
1
40
1
40
1
41
1
10
9.20161277670911
20
-1.31910322628556
30
0
41
1
10
9.35544592028521
20
-1.36482985308658
30
0
41
1
10
9.50915035131774
20
-1.40567023732831
30
0
41
1
10
9.81603688749706
20
-1.47667874558275
30
0
41
1
10
9.9692434723658
20
-1.50629859992989
30
0
41
1
10
10.2767083241811
20
-1.55375249490734
30
0
41
1
10
10.4306921896886
20
-1.57129175570679
30
0
41
1
10
10.7376480800997
20
-1.59392178706145
30
0
41
1
10
10.8911794756456
20
-1.59918104677553
30
0
41
1
10
11.1981714296497
20
-1.59883580996092
30
0
41
1
10
11.3521113139844
20
-1.59290702907785
30
0
41
1
10
11.6595678391698
20
-1.56663370516159
30
0
41
1
10
11.8127738225485
20
-1.54664925129291
30
0
41
1
10
12.1196199050908
20
-1.49692900569525
30
0
41
1
10
12.2732208793134
20
-1.46757470722588
30
0
41
1
10
12.5807910122296
20
-1.3952542380859
30
0
41
1
10
12.7343477920456
20
-1.35284998106403
30
0
41
1
10
12.9204229202405
20
-1.29559777575892
30
0
41
1
10
12.953088360759
20
-1.28531522912257
30
0
41
1
10
12.9857502496329
20
-1.27481723209959
30
0
0
SPLINE
5
BC
100
AcDbEntity
8
1
62
256
6
ByLayer
370
18
48
1
60
0
100
AcDbSpline
70
4
71
3
72
22
73
18
40
0
40
0
40
0
40
0
40
0.0534230578250223
40
0.0534230578250223
40
0.188648335278591
40
0.188648335278591
40
0.323873612732159
40
0.323873612732159
40
0.459098890185727
40
0.459098890185727
40
0.594324167639295
40
0.594324167639295
40
0.729549445092864
40
0.729549445092864
40
0.864774722546432
40
0.864774722546432
40
1
40
1
40
1
40
1
41
1
10
20.535067531353
20
1.6030472933985
30
0
41
1
10
20.5956961685689
20
1.60322796824846
30
0
41
1
10
20.6563438242812
20
1.60254322408815
30
0
41
1
10
20.8706082869603
20
1.59711744133736
30
0
41
1
10
21.024470169488
20
1.5858770805703
30
0
41
1
10
21.3316879716242
20
1.5506068914375
30
0
41
1
10
21.485135441134
20
1.5268431778444
30
0
41
1
10
21.7919746937466
20
1.47041446599789
30
0
41
1
10
21.9459074051258
20
1.43720591245972
30
0
41
1
10
22.2534280511511
20
1.35716151560803
30
0
41
1
10
22.4066074543097
20
1.31110058764219
30
0
41
1
10
22.7134654417441
20
1.20992048591467
30
0
41
1
10
22.8668186449381
20
1.15451165333377
30
0
41
1
10
23.1742690193364
20
1.03575186328354
30
0
41
1
10
23.3281960694194
20
0.973123335382439
30
0
41
1
10
23.6348986133492
20
0.839825560925021
30
0
41
1
10
23.7880851838102
20
0.769163849208098
30
0
41
1
10
23.9416730704284
20
0.696044527818259
30
0
0
SPLINE
5
BD
100
AcDbEntity
8
1
62
256
6
ByLayer
370
18
48
1
60
0
100
AcDbSpline
70
4
71
3
72
28
73
24
40
0
40
0
40
0
40
0
40
0.104492390415871
40
0.104492390415871
40
0.208984780831742
40
0.208984780831742
40
0.313477171247614
40
0.313477171247614
40
0.417969561663485
40
0.417969561663485
40
0.470215756871419
40
0.470215756871419
40
0.522461952079353
40
0.522461952079353
40
0.62695434249522
40
0.62695434249522
40
0.731446732911088
40
0.731446732911088
40
0.835939123326955
40
0.835939123326955
40
0.940431513742823
40
0.940431513742823
40
1
40
1
40
1
40
1
41
1
10
10.7818230599912
20
-0.20292125038111
30
0
41
1
10
10.9356025042371
20
-0.288905146186494
30
0
41
1
10
11.0891599307793
20
-0.372478741708619
30
0
41
1
10
11.3950169738014
20
-0.536579297473025
30
0
41
1
10
11.5471223489978
20
-0.617385661604885
30
0
41
1
10
11.8522231200574
20
-0.772197017618595
30
0
41
1
10
12.0046260309274
20
-0.847220137301861
30
0
41
1
10
12.3100452318531
20
-0.990916529655493
30
0
41
1
10
12.4635535821065
20
-1.05885554837528
30
0
41
1
10
12.6945794671414
20
-1.15547399073503
30
0
41
1
10
12.7718252059518
20
-1.18691028815653
30
0
41
1
10
12.9259519000402
20
-1.24693922841212
30
0
41
1
10
13.0029117831947
20
-1.27553391122922
30
0
41
1
10
13.2332810402947
20
-1.35744758589274
30
0
41
1
10
13.3858714215833
20
-1.40720225674556
30
0
41
1
10
13.6908549779079
20
-1.49516612774065
30
0
41
1
10
13.8434677066757
20
-1.53327681470745
30
0
41
1
10
14.1481078595115
20
-1.59839221240594
30
0
41
1
10
14.3006904027535
20
-1.62494120674023
30
0
41
1
10
14.6072299602715
20
-1.66554043039781
30
0
41
1
10
14.7609380377973
20
-1.67977501133049
30
0
41
1
10
15.0034166373398
20
-1.69162021619138
30
0
41
1
10
15.091211823987
20
-1.69378592836836
30
0
41
1
10
15.1787369000747
20
-1.69383229913089
30
0
0
SPLINE
5
BE
100
AcDbEntity
8
1
62
256
6
ByLayer
370
18
48
1
60
0
100
AcDbSpline
70
4
71
3
72
20
73
16
40
0
40
0
40
0
40
0
40
0.0717018408452604
40
0.0717018408452604
40
0.226418200704384
40
0.226418200704384
40
0.381134560563507
40
0.381134560563507
40
0.53585092042263
40
0.53585092042263
40
0.690567280281754
40
0.690567280281754
40
0.845283640140877
40
0.845283640140877
40
1
40
1
40
1
40
1
41
1
10
22.5062480421084
20
1.27229363794962
30
0
41
1
10
22.5768247507187
20
1.29856820852535
30
0
41
1
10
22.6474255788302
20
1.32384529092877
30
0
41
1
10
22.8707017996241
20
1.40017215737177
30
0
41
1
10
23.0240398218905
20
1.44695201434683
30
0
41
1
10
23.331448077794
20
1.53033061823706
30
0
41
1
10
23.4861183062415
20
1.5663566674755
30
0
41
1
10
23.7931178557071
20
1.62535484976019
30
0
41
1
10
23.945515382272
20
1.64882301424925
30
0
41
1
10
24.2504549958901
20
1.68269838343534
30
0
41
1
10
24.4028578355465
20
1.69328266645485
30
0
41
1
10
24.7071132928026
20
1.70169445450651
30
0
41
1
10
24.8597159443954
20
1.69944160660347
30
0
41
1
10
25.1657924919726
20
1.68202377426797
30
0
41
1
10
25.3191052679333
20
1.66667560231019
30
0
41
1
10
25.4736039046302
20
1.64496009062009
30
0
0
SPLINE
5
BF
100
AcDbEntity
8
1
62
256
6
ByLayer
370
18
48
1
60
0
100
AcDbSpline
70
4
71
3
72
62
73
58
40
0
40
0
40
0
40
0
40
0.0076252521642719
40
0.0076252521642719
40
0.0468295878115986
40
0.0468295878115986
40
0.0860339234589252
40
0.0860339234589252
40
0.125238259106252
40
0.125238259106252
40
0.164442594753579
40
0.164442594753579
40
0.203646930400905
40
0.203646930400905
40
0.242851266048232
40
0.242851266048232
40
0.282055601695559
40
0.282055601695559
40
0.321259937342885
40
0.321259937342885
40
0.360464272990212
40
0.360464272990212
40
0.399668608637539
40
0.399668608637539
40
0.438872944284865
40
0.438872944284865
40
0.478077279932192
40
0.478077279932192
40
0.517281615579519
40
0.517281615579519
40
0.556485951226845
40
0.556485951226845
40
0.595690286874172
40
0.595690286874172
40
0.634894622521499
40
0.634894622521499
40
0.674098958168825
40
0.674098958168825
40
0.693701125992489
40
0.693701125992489
40
0.713303293816152
40
0.713303293816152
40
0.752507629463477
40
0.752507629463477
40
0.791711965110802
40
0.791711965110802
40
0.830916300758128
40
0.830916300758128
40
0.870120636405453
40
0.870120636405453
40
0.909324972052778
40
0.909324972052778
40
0.948529307700104
40
0.948529307700104
40
0.987733643347429
40
0.987733643347429
40
1
40
1
40
1
40
1
41
1
10
12.990014481202
20
1.27038071022295
30
0
41
1
10
13.0199332942192
20
1.28140027501465
30
0
41
1
10
13.0498302871008
20
1.29221698393189
30
0
41
1
10
13.2332810402947
20
1.35744758589274
30
0
41
1
10
13.3858714215833
20
1.40720225674556
30
0
41
1
10
13.6908549779079
20
1.49516612774065
30
0
41
1
10
13.8434677066757
20
1.53327681470745
30
0
41
1
10
14.1481078595115
20
1.59839221240594
30
0
41
1
10
14.3006904027535
20
1.62494120674023
30
0
41
1
10
14.6072299602715
20
1.66554043039781
30
0
41
1
10
14.7609380377972
20
1.67977501133049
30
0
41
1
10
15.0698132432051
20
1.6948637246908
30
0
41
1
10
15.2234944727903
20
1.69583813620801
30
0
41
1
10
15.529081856213
20
1.68481757608276
30
0
41
1
10
15.6817582945676
20
1.67291621421555
30
0
41
1
10
15.9865975450095
20
1.63657460869058
30
0
41
1
10
16.138573856088
20
1.61194258086732
30
0
41
1
10
16.4440012360942
20
1.55099391677044
30
0
41
1
10
16.596946895792
20
1.51442243458493
30
0
41
1
10
16.9039472264496
20
1.4291128678087
30
0
41
1
10
17.0591849705509
20
1.38086387134143
30
0
41
1
10
17.3664701838962
20
1.27398248623243
30
0
41
1
10
17.5192389211165
20
1.21550649091392
30
0
41
1
10
17.8247060192237
20
1.09086223344542
30
0
41
1
10
17.9767689664701
20
1.02383326829391
30
0
41
1
10
18.281350940614
20
0.882884379014996
30
0
41
1
10
18.4340553679413
20
0.809312486274195
30
0
41
1
10
18.739568325854
20
0.654701412431024
30
0
41
1
10
18.8929125377588
20
0.574515124835074
30
0
41
1
10
19.2016289108097
20
0.40978266836143
30
0
41
1
10
19.3554656514813
20
0.324738903273555
30
0
41
1
10
19.6618767363724
20
0.155289355019192
30
0
41
1
10
19.8145959776451
20
0.0701591930180712
30
0
41
1
10
20.1190584437101
20
-0.100920111324797
30
0
41
1
10
20.2714046192814
20
-0.185767585970751
30
0
41
1
10
20.5763591644828
20
-0.354030990987042
30
0
41
1
10
20.7286581211981
20
-0.437997222015895
30
0
41
1
10
20.9587305362559
20
-0.56029110124237
30
0
41
1
10
21.0356152409907
20
-0.600585501291079
30
0
41
1
10
21.1896319455793
20
-0.68047837703574
30
0
41
1
10
21.266879168216
20
-0.720150370016995
30
0
41
1
10
21.4977366274436
20
-0.83623708409084
30
0
41
1
10
21.6511803853281
20
-0.909618887769483
30
0
41
1
10
21.9566158982787
20
-1.04950808760586
30
0
41
1
10
22.1086773911508
20
-1.11582610493295
30
0
41
1
10
22.4134872661938
20
-1.23855541230691
30
0
41
1
10
22.5655630429617
20
-1.29586062323915
30
0
41
1
10
22.8707017996241
20
-1.40017215737174
30
0
41
1
10
23.0240398218905
20
-1.44695201434683
30
0
41
1
10
23.3314480777941
20
-1.53033061823706
30
0
41
1
10
23.4861183062415
20
-1.5663566674755
30
0
41
1
10
23.7931178557071
20
-1.62535484976019
30
0
41
1
10
23.945515382272
20
-1.64882301424925
30
0
41
1
10
24.2504549958901
20
-1.68269838343534
30
0
41
1
10
24.4028578355465
20
-1.69328266645485
30
0
41
1
10
24.6025836919144
20
-1.69880451177312
30
0
41
1
10
24.650228312502
20
-1.69948818093178
30
0
41
1
10
24.6979182221619
20
-1.69953964985055
30
0
0
SPLINE
5
C0
100
AcDbEntity
8
1
62
256
6
ByLayer
370
18
48
1
60
0
100
AcDbSpline
70
4
71
3
72
36
73
32
40
0
40
0
40
0
40
0
40
0.0545196840013449
40
0.0545196840013449
40
0.10903936800269
40
0.10903936800269
40
0.218078736005381
40
0.218078736005381
40
0.272598420006728
40
0.272598420006728
40
0.327118104008074
40
0.327118104008074
40
0.436157472010765
40
0.436157472010765
40
0.490677156012112
40
0.490677156012112
40
0.545196840013458
40
0.545196840013458
40
0.654236208016153
40
0.654236208016153
40
0.7087558920175
40
0.7087558920175
40
0.763275576018847
40
0.763275576018847
40
0.872314944021541
40
0.872314944021541
40
0.926834628022887
40
0.926834628022887
40
0.981354312024233
40
0.981354312024233
40
1
40
1
40
1
40
1
41
1
10
25.4177423138155
20
-1.68900284206271
30
0
41
1
10
25.2371827482545
20
-1.70043349232861
30
0
41
1
10
25.0569086964375
20
-1.70273569713322
30
0
41
1
10
24.6956266079718
20
-1.68927800465701
30
0
41
1
10
24.5149802807212
20
-1.67347428610975
30
0
41
1
10
23.9771074554574
20
-1.60052276593149
30
0
41
1
10
23.6218488672935
20
-1.51767010906733
30
0
41
1
10
23.0858368242887
20
-1.34825169900702
30
0
41
1
10
22.9066107680511
20
-1.28430117677865
30
0
41
1
10
22.5456756835991
20
-1.14265739528054
30
0
41
1
10
22.3651626826631
20
-1.06541553150399
30
0
41
1
10
21.8276859781137
20
-0.82000955537859
30
0
41
1
10
21.4724558002659
20
-0.636945934881169
30
0
41
1
10
20.9359365144868
20
-0.346953317385157
30
0
41
1
10
20.756495738774
20
-0.247715691477254
30
0
41
1
10
20.3952525311392
20
-0.0459876301520978
30
0
41
1
10
20.215138734137
20
0.0552827130566698
30
0
41
1
10
19.6779600150221
20
0.354664361608656
30
0
41
1
10
19.3227642290298
20
0.5496876234632
30
0
41
1
10
18.7859191204835
20
0.82059640835908
30
0
41
1
10
18.6063282146744
20
0.90735841333597
30
0
41
1
10
18.2446261274676
20
1.07162865142484
30
0
41
1
10
18.0649256811038
20
1.14796622781174
30
0
41
1
10
17.5280643488223
20
1.35693362813012
30
0
41
1
10
17.1724720260886
20
1.46940911500181
30
0
41
1
10
16.6354774336049
20
1.59063160496805
30
0
41
1
10
16.4555237107309
20
1.62304709266391
30
0
41
1
10
16.0938384512132
20
1.67046154299356
30
0
41
1
10
15.9142760364463
20
1.68521982121681
30
0
41
1
10
15.6741864788437
20
1.69312703341129
30
0
41
1
10
15.6130646314836
20
1.69410496741182
30
0
41
1
10
15.5519819427374
20
1.69405060887451
30
0
0
SPLINE
5
C1
100
AcDbEntity
8
1
62
256
6
ByLayer
370
18
48
1
60
0
100
AcDbSpline
70
4
71
3
72
60
73
56
40
0
40
0
40
0
40
0
40
0.0359465946228412
40
0.0359465946228412
40
0.0760203120021131
40
0.0760203120021131
40
0.116094029381385
40
0.116094029381385
40
0.156167746760657
40
0.156167746760657
40
0.196241464139929
40
0.196241464139929
40
0.236315181519201
40
0.236315181519201
40
0.256352040208836
40
0.256352040208836
40
0.276388898898472
40
0.276388898898472
40
0.316462616277744
40
0.316462616277744
40
0.356536333657016
40
0.356536333657016
40
0.396610051036288
40
0.396610051036288
40
0.43668376841556
40
0.43668376841556
40
0.476757485794832
40
0.476757485794832
40
0.516831203174104
40
0.516831203174104
40
0.556904920553376
40
0.556904920553376
40
0.596978637932647
40
0.596978637932647
40
0.63705235531192
40
0.63705235531192
40
0.657089214001556
40
0.657089214001556
40
0.677126072691192
40
0.677126072691192
40
0.757273507449734
40
0.757273507449734
40
0.797347224829006
40
0.797347224829006
40
0.837420942208278
40
0.837420942208278
40
0.87749465958755
40
0.87749465958755
40
0.917568376966822
40
0.917568376966822
40
0.957642094346094
40
0.957642094346094
40
0.997715811725366
40
0.997715811725366
40
1
40
1
40
1
40
1
41
1
10
22.5109618924633
20
-1.27653705859171
30
0
41
1
10
22.3730595311388
20
-1.32113289148998
30
0
41
1
10
22.2350242113933
20
-1.36201654212084
30
0
41
1
10
21.9430421602752
20
-1.4378782217276
30
0
41
1
10
21.7893604213739
20
-1.47094859029221
30
0
41
1
10
21.4822819044284
20
-1.52731364197365
30
0
41
1
10
21.328605019272
20
-1.55105188729294
30
0
41
1
10
21.0206491632181
20
-1.5862226309645
30
0
41
1
10
20.8670739977392
20
-1.59730230062507
30
0
41
1
10
20.5599475414881
20
-1.60488668210681
30
0
41
1
10
20.4064607716713
20
-1.6032575016155
30
0
41
1
10
20.0992502591299
20
-1.58854306352063
30
0
41
1
10
19.9450139171183
20
-1.57527272099406
30
0
41
1
10
19.7147198568077
20
-1.54492752012101
30
0
41
1
10
19.6380398327328
20
-1.53281763947999
30
0
41
1
10
19.4846140563633
20
-1.50638809234096
30
0
41
1
10
19.4078679374266
20
-1.49202851567597
30
0
41
1
10
19.1774956781891
20
-1.44490485213791
30
0
41
1
10
19.0236588313148
20
-1.4079230245957
30
0
41
1
10
18.7163011117526
20
-1.32324075040322
30
0
41
1
10
18.5628264839475
20
-1.27542783810449
30
0
41
1
10
18.2561368332739
20
-1.16977489182472
30
0
41
1
10
18.102685138166
20
-1.11251996976964
30
0
41
1
10
17.794745992665
20
-0.989494825190491
30
0
41
1
10
17.6413125493262
20
-0.924181684058084
30
0
41
1
10
17.334383187755
20
-0.787476299333633
30
0
41
1
10
17.1809613382148
20
-0.715725647950904
30
0
41
1
10
16.8736261540859
20
-0.566203112044946
30
0
41
1
10
16.7194484791453
20
-0.489133915434366
30
0
41
1
10
16.4121754670205
20
-0.332426441938225
30
0
41
1
10
16.2589422331438
20
-0.252196719672639
30
0
41
1
10
15.9515523690595
20
-0.0909306494880013
30
0
41
1
10
15.7972923347593
20
-0.0092070303572029
30
0
41
1
10
15.4904486528182
20
0.152965786539255
30
0
41
1
10
15.3375414976075
20
0.233133616770345
30
0
41
1
10
15.1090364150172
20
0.351789553195573
30
0
41
1
10
15.033021054866
20
0.391129478900552
30
0
41
1
10
14.8809476887475
20
0.468286529732211
30
0
41
1
10
14.8048842062604
20
0.506235566979626
30
0
41
1
10
14.4245407364717
20
0.694319122160636
30
0
41
1
10
14.1207107682378
20
0.838937300865581
30
0
41
1
10
13.6597983457301
20
1.03204012136427
30
0
41
1
10
13.5054500155019
20
1.09294057660779
30
0
41
1
10
13.1978400265804
20
1.20499529780432
30
0
41
1
10
13.044404493816
20
1.2573862890923
30
0
41
1
10
12.7368441576227
20
1.35214512646709
30
0
41
1
10
12.5825254434116
20
1.39479573824522
30
0
41
1
10
12.2749748863475
20
1.46721238182548
30
0
41
1
10
12.121241167921
20
1.49663611834129
30
0
41
1
10
11.813930358571
20
1.54649176238709
30
0
41
1
10
11.6603439641977
20
1.56655720037549
30
0
41
1
10
11.3520301997533
20
1.59292411963361
30
0
41
1
10
11.1985136620907
20
1.5988268244123
30
0
41
1
10
11.0362883170226
20
1.59901833992433
30
0
41
1
10
11.027539831862
20
1.59901102675525
30
0
41
1
10
11.0187910246729
20
1.59898595412378
30
0
0
SPLINE
5
C2
100
AcDbEntity
8
1
62
256
6
ByLayer
370
18
48
1
60
0
100
AcDbSpline
70
4
71
3
72
18
73
14
40
0
40
0
40
0
40
0
40
0.250000000000003
40
0.250000000000003
40
0.375000000000002
40
0.375000000000002
40
0.500000000000002
40
0.500000000000002
40
0.750000000000001
40
0.750000000000001
40
0.875000000000001
40
0.875000000000001
40
1
40
1
40
1
40
1
41
1
10
25.4151114417199
20
-1.60696810677206
30
0
41
1
10
25.3683817785971
20
-1.6069167061747
30
0
41
1
10
25.3263740342201
20
-1.59340367343972
30
0
41
1
10
25.2712102335349
20
-1.55076092899981
30
0
41
1
10
25.2542950519392
20
-1.53282710620999
30
0
41
1
10
25.2241301669731
20
-1.49016689122789
30
0
41
1
10
25.2107673919851
20
-1.46536161791164
30
0
41
1
10
25.1759801736774
20
-1.38023313126962
30
0
41
1
10
25.1598195704173
20
-1.30789131125306
30
0
41
1
10
25.1483792919539
20
-1.18279123119839
30
0
41
1
10
25.1466039228845
20
-1.13822429351967
30
0
41
1
10
25.1471748827556
20
-1.04329247391882
30
0
41
1
10
25.1495572561274
20
-0.992577202609112
30
0
41
1
10
25.154017400189
20
-0.939808309263583
30
0
0
SPLINE
5
C3
100
AcDbEntity
8
1
62
256
6
ByLayer
370
18
48
1
60
0
100
AcDbSpline
70
4
71
3
72
20
73
16
40
0
40
0
40
0
40
0
40
0.188188404805979
40
0.188188404805979
40
0.289664854205231
40
0.289664854205231
40
0.391141303604484
40
0.391141303604484
40
0.594094202402989
40
0.594094202402989
40
0.797047101201494
40
0.797047101201494
40
0.898523550600747
40
0.898523550600747
40
1
40
1
40
1
40
1
41
1
10
8.05633737637541
20
-1.68954960208745
30
0
41
1
10
8.05636933547308
20
-1.6897051207699
30
0
41
1
10
8.05639957086103
20
-1.68012472497631
30
0
41
1
10
8.05644709102495
20
-1.65046442471675
30
0
41
1
10
8.05646399111697
20
-1.63714510203963
30
0
41
1
10
8.05649813019113
20
-1.60503615975548
30
0
41
1
10
8.05651530399552
20
-1.58634159188739
30
0
41
1
10
8.05656746097867
20
-1.52256067321881
30
0
41
1
10
8.05660319075943
20
-1.4698550512916
30
0
41
1
10
8.05667559590421
20
-1.34336565305034
30
0
41
1
10
8.05671127761175
20
-1.27119423072099
30
0
41
1
10
8.05676006926521
20
-1.15121677863999
30
0
41
1
10
8.05677555305695
20
-1.10919739453678
30
0
41
1
10
8.05680406203149
20
-1.02101708437937
30
0
41
1
10
8.05681711360393
20
-0.974659138750724
30
0
41
1
10
8.05682812973694
20
-0.927212265550224
30
0
0
SPLINE
5
C4
100
AcDbEntity
8
1
62
256
6
ByLayer
370
18
48
1
60
0
100
AcDbSpline
70
4
71
3
72
8
73
4
40
0
40
0
40
0
40
0
40
1
40
1
40
1
40
1
41
1
10
8.20170535299397
20
1.27520109681453
30
0
41
1
10
8.17342680476108
20
1.28551793240351
30
0
41
1
10
8.14495280992929
20
1.29548777772109
30
0
41
1
10
8.11880605457327
20
1.30766614423118
30
0
0
SPLINE
5
C5
100
AcDbEntity
8
1
62
256
6
ByLayer
370
18
48
1
60
0
100
AcDbSpline
70
4
71
3
72
12
73
8
40
0
40
0
40
0
40
0
40
0.25
40
0.25
40
0.5
40
0.5
40
1
40
1
40
1
40
1
41
1
10
25.4177423138155
20
-1.68900284206291
30
0
41
1
10
25.4224157434242
20
-1.67640315258186
30
0
41
1
10
25.4266648267487
20
-1.66348576338982
30
0
41
1
10
25.4329580067559
20
-1.64050858435502
30
0
41
1
10
25.4349690293809
20
-1.63052720840383
30
0
41
1
10
25.4373102208354
20
-1.60851050628403
30
0
41
1
10
25.4344022569106
20
-1.60363250306406
30
0
41
1
10
25.4294517842448
20
-1.60496026188142
30
0
0
SPLINE
5
C6
100
AcDbEntity
8
1
62
256
6
ByLayer
370
18
48
1
60
0
100
AcDbSpline
70
4
71
3
72
16
73
12
40
0
40
0
40
0
40
0
40
0.25
40
0.25
40
0.5
40
0.5
40
0.75
40
0.75
40
0.875
40
0.875
40
1
40
1
40
1
40
1
41
1
10
25.7872414705584
20
0.812661701788471
30
0
41
1
10
25.7613944969941
20
0.882333045849151
30
0
41
1
10
25.7354148297279
20
0.951921055493244
30
0
41
1
10
25.6835749795018
20
1.09117558618314
30
0
41
1
10
25.6576525798179
20
1.160806984907
30
0
41
1
10
25.6055186217357
20
1.29980567946842
30
0
41
1
10
25.5793568535092
20
1.36925607546411
30
0
41
1
10
25.5400084143917
20
1.47319932257869
30
0
41
1
10
25.5268301764829
20
1.50773567038598
30
0
41
1
10
25.5002983611489
20
1.57649378145203
30
0
41
1
10
25.4870109172801
20
1.61083419791268
30
0
41
1
10
25.4736039046302
20
1.64496009062012
30
0
0
SPLINE
5
C7
100
AcDbEntity
8
1
62
256
6
ByLayer
370
13
48
1
60
0
100
AcDbSpline
70
4
71
3
72
8
73
4
40
0
40
0
40
0
40
0
40
1
40
1
40
1
40
1
41
1
10
8.05587226387752
20
1.37439055986405
30
0
41
1
10
8.07519593949155
20
1.34755101481593
30
0
41
1
10
8.09885911967766
20
1.32458029915617
30
0
41
1
10
8.12697847430411
20
1.30669580878015
30
0
0
SPLINE
5
C8
100
AcDbEntity
8
1
62
256
6
ByLayer
370
13
48
1
60
0
100
AcDbSpline
70
4
71
3
72
16
73
12
40
0
40
0
40
0
40
0
40
0.301631722214552
40
0.301631722214552
40
0.452447583321828
40
0.452447583321828
40
0.603263444429104
40
0.603263444429104
40
0.904895166643655
40
0.904895166643655
40
1
40
1
40
1
40
1
41
1
10
8.25047607508691
20
1.25762695748773
30
0
41
1
10
8.25053528017804
20
1.32353973758123
30
0
41
1
10
8.25058177357667
20
1.38025093358712
30
0
41
1
10
8.2506397953415
20
1.45175021618999
30
0
41
1
10
8.25065722914715
20
1.4733752139411
30
0
41
1
10
8.25068875261087
20
1.51127968188175
30
0
41
1
10
8.25070291418652
20
1.52764921507847
30
0
41
1
10
8.25074244443223
20
1.5691821856019
30
0
41
1
10
8.2507649415881
20
1.58685843753301
30
0
41
1
10
8.25079468980925
20
1.59629696372787
30
0
41
1
10
8.25080177180553
20
1.59749749158084
30
0
41
1
10
8.25080889448293
20
1.59764870426477
30
0
0
SPLINE
5
C9
100
AcDbEntity
8
1
62
256
6
ByLayer
370
18
48
1
60
0
100
AcDbSpline
70
4
71
3
72
14
73
10
40
0
40
0
40
0
40
0
40
0.25
40
0.25
40
0.5
40
0.5
40
0.75
40
0.75
40
1
40
1
40
1
40
1
41
1
10
25.1935259349572
20
0.290042712001878
30
0
41
1
10
25.1973305319581
20
0.313429500263481
30
0
41
1
10
25.2044927390817
20
0.337485766357759
30
0
41
1
10
25.225257358318
20
0.387210399261591
30
0
41
1
10
25.2386244089726
20
0.412244545996003
30
0
41
1
10
25.2708252578469
20
0.460638001979618
30
0
41
1
10
25.2902296744011
20
0.483807702897025
30
0
41
1
10
25.3381511356397
20
0.519850526801378
30
0
41
1
10
25.3657503261466
20
0.531679620721832
30
0
41
1
10
25.3946635551394
20
0.538828883753183
30
0
0
SPLINE
5
CA
100
AcDbEntity
8
1
62
256
6
ByLayer
370
13
48
1
60
0
100
AcDbSpline
70
4
71
3
72
30
73
26
40
0
40
0
40
0
40
0
40
0.142070271948148
40
0.142070271948148
40
0.213105407922222
40
0.213105407922222
40
0.248622975909259
40
0.248622975909259
40
0.284140543896296
40
0.284140543896296
40
0.426210815844441
40
0.426210815844441
40
0.568281087792587
40
0.568281087792587
40
0.639316223766661
40
0.639316223766661
40
0.710351359740735
40
0.710351359740735
40
0.781386495714809
40
0.781386495714809
40
0.852421631688883
40
0.852421631688883
40
0.994491903637033
40
0.994491903637033
40
1
40
1
40
1
40
1
41
1
10
25.4294517842478
20
-1.60496026188059
30
0
41
1
10
25.0713520553036
20
-1.61444501957763
30
0
41
1
10
24.7167299097018
20
-1.58977609436658
30
0
41
1
10
24.1835365434469
20
-1.50537642366251
30
0
41
1
10
24.0056280233598
20
-1.46933591937423
30
0
41
1
10
23.7375231202324
20
-1.40377229096774
30
0
41
1
10
23.6479459909497
20
-1.37998969890779
30
0
41
1
10
23.4682361288966
20
-1.32867325808542
30
0
41
1
10
23.3779544787133
20
-1.30109175569322
30
0
41
1
10
22.9288481230982
20
-1.1555171544891
30
0
41
1
10
22.5740622392133
20
-1.01386887248981
30
0
41
1
10
21.8638570657925
20
-0.695542798532671
30
0
41
1
10
21.5085888377899
20
-0.518379880838665
30
0
41
1
10
20.968167367015
20
-0.238394325854813
30
0
41
1
10
20.7881358146873
20
-0.143434160219528
30
0
41
1
10
20.4288425846707
20
0.0467375942922672
30
0
41
1
10
20.2492828705023
20
0.142030616761616
30
0
41
1
10
19.8890503893502
20
0.330586230347393
30
0
41
1
10
19.7089892149757
20
0.423428655461464
30
0
41
1
10
19.3514088932189
20
0.602817528013134
30
0
41
1
10
19.1732766012814
20
0.689468405280337
30
0
41
1
10
18.6390162142932
20
0.937049580988003
30
0
41
1
10
18.2831688896227
20
1.08576899240296
30
0
41
1
10
17.9089229515309
20
1.21539098948591
30
0
41
1
10
17.894955232462
20
1.22019010959133
30
0
41
1
10
17.8809879712116
20
1.22494997318785
30
0
0
SPLINE
5
CB
100
AcDbEntity
8
1
62
256
6
ByLayer
370
18
48
1
60
0
100
AcDbSpline
70
4
71
3
72
8
73
4
40
0
40
0
40
0
40
0
40
1
40
1
40
1
40
1
41
1
10
17.8809878517006
20
1.22495001391573
30
0
41
1
10
17.8201646900392
20
1.24567776678435
30
0
41
1
10
17.7593502101637
20
1.26566108400735
30
0
41
1
10
17.6985545194086
20
1.28486120154199
30
0
0
SPLINE
5
CC
100
AcDbEntity
8
1
62
256
6
ByLayer
370
18
48
1
60
0
100
AcDbSpline
70
4
71
3
72
26
73
22
40
0
40
0
40
0
40
0
40
0.25
40
0.25
40
0.375
40
0.375
40
0.5
40
0.5
40
0.625
40
0.625
40
0.6875
40
0.6875
40
0.75
40
0.75
40
0.8125
40
0.8125
40
0.875
40
0.875
40
0.9375
40
0.9375
40
1
40
1
40
1
40
1
41
1
10
23.9416730704287
20
0.696044527818344
30
0
41
1
10
24.0485736552955
20
0.60482934294447
30
0
41
1
10
24.1589719231681
20
0.520915800401554
30
0
41
1
10
24.3277955070947
20
0.410496866797018
30
0
41
1
10
24.3846831796214
20
0.37620780586181
30
0
41
1
10
24.4980594060745
20
0.31405178705424
30
0
41
1
10
24.5547358002571
20
0.286002987973603
30
0
41
1
10
24.6680629842541
20
0.236523763891967
30
0
41
1
10
24.7247138601948
20
0.215071076432878
30
0
41
1
10
24.8096686547602
20
0.188454497633074
30
0
41
1
10
24.8379833182718
20
0.180513202048331
30
0
41
1
10
24.8946048509539
20
0.166645339987184
30
0
41
1
10
24.9230031478158
20
0.160335710926432
30
0
41
1
10
24.9785171030514
20
0.152267868873111
30
0
41
1
10
25.0057201753953
20
0.150487906162425
30
0
41
1
10
25.0582039660696
20
0.154750447899914
30
0
41
1
10
25.0828997037231
20
0.160222806186169
30
0
41
1
10
25.1280162913972
20
0.180020034763061
30
0
41
1
10
25.1481080393249
20
0.19460268305545
30
0
41
1
10
25.1785973934404
20
0.23521183187475
30
0
41
1
10
25.1887590773002
20
0.260740925065704
30
0
41
1
10
25.1935259349572
20
0.290042712001878
30
0
0
SPLINE
5
CD
100
AcDbEntity
8
1
62
256
6
ByLayer
370
18
48
1
60
0
100
AcDbSpline
70
4
71
3
72
8
73
4
40
0
40
0
40
0
40
0
40
1
40
1
40
1
40
1
41
1
10
25.4177423138155
20
1.68900284206271
30
0
41
1
10
25.3022507661345
20
1.69631424362765
30
0
41
1
10
25.1866042505079
20
1.69989033879384
30
0
41
1
10
25.0709708557466
20
1.6997509538316
30
0
0
SPLINE
5
CE
100
AcDbEntity
8
1
62
256
6
ByLayer
370
18
48
1
60
0
100
AcDbSpline
70
4
71
3
72
30
73
26
40
0
40
0
40
0
40
0
40
0.0324884812697924
40
0.0324884812697924
40
0.0969892491851391
40
0.0969892491851391
40
0.225990785015832
40
0.225990785015832
40
0.290491552931179
40
0.290491552931179
40
0.354992320846526
40
0.354992320846526
40
0.483993856677219
40
0.483993856677219
40
0.548494624592566
40
0.548494624592566
40
0.612995392507912
40
0.612995392507912
40
0.741996928338608
40
0.741996928338608
40
0.806497696253956
40
0.806497696253956
40
0.870998464169305
40
0.870998464169305
40
1
40
1
40
1
40
1
41
1
10
16.5455237942655
20
-1.60468720561829
30
0
41
1
10
16.4545400403638
20
-1.62099104031924
30
0
41
1
10
16.3635123785339
20
-1.63513858576016
30
0
41
1
10
16.0928628868403
20
-1.67053008878869
30
0
41
1
10
15.9138840570273
20
-1.68523489933844
30
0
41
1
10
15.3781493839272
20
-1.70287250753503
30
0
41
1
10
15.0221402492902
20
-1.67932189687525
30
0
41
1
10
14.4825580205568
20
-1.5915934486969
30
0
41
1
10
14.3010268839095
20
-1.55343069892498
30
0
41
1
10
13.9412447184241
20
-1.46180604520282
30
0
41
1
10
13.7623883846247
20
-1.40822165974674
30
0
41
1
10
13.2266692417769
20
-1.22674485021184
30
0
41
1
10
12.8706233816349
20
-1.07820051025811
30
0
41
1
10
12.3305082898395
20
-0.823616851944621
30
0
41
1
10
12.1490504767184
20
-0.733130082243179
30
0
41
1
10
11.7894988488838
20
-0.547240071839383
30
0
41
1
10
11.6106299069086
20
-0.4514362771761
30
0
41
1
10
11.0748238090472
20
-0.158921992234639
30
0
41
1
10
10.7188179450999
20
0.0431405020714806
30
0
41
1
10
10.1781637550832
20
0.34147848894807
30
0
41
1
10
9.99666676642363
20
0.440213854375514
30
0
41
1
10
9.63704175856702
20
0.63047511850553
30
0
41
1
10
9.45803145712216
20
0.722379741462987
30
0
41
1
10
8.92140385879088
20
0.985221819395917
30
0
41
1
10
8.56402568119589
20
1.14301611950222
30
0
41
1
10
8.20170535298192
20
1.2752010968189
30
0
0
SPLINE
5
CF
100
AcDbEntity
8
1
62
256
6
ByLayer
370
18
48
1
60
0
100
AcDbSpline
70
4
71
3
72
12
73
8
40
0
40
0
40
0
40
0
40
0.260771412505514
40
0.260771412505514
40
0.52591777173662
40
0.52591777173662
40
1
40
1
40
1
40
1
41
1
10
15.7601622035279
20
-1.60130655409938
30
0
41
1
10
15.5848370701002
20
-1.60129695464471
30
0
41
1
10
15.4094480084231
20
-1.59329662520415
30
0
41
1
10
15.0544575306163
20
-1.56083250303061
30
0
41
1
10
14.8742935313908
20
-1.53592795769541
30
0
41
1
10
14.3723500559097
20
-1.44433501669781
30
0
41
1
10
14.0536426762607
20
-1.36103078594519
30
0
41
1
10
13.7347838816751
20
-1.25663438330392
30
0
0
SPLINE
5
D0
100
AcDbEntity
8
1
62
256
6
ByLayer
370
13
48
1
60
0
100
AcDbSpline
70
4
71
3
72
24
73
20
40
0
40
0
40
0
40
0
40
0.0207596957561196
40
0.0207596957561196
40
0.118683726180508
40
0.118683726180508
40
0.216607756604897
40
0.216607756604897
40
0.412455817453674
40
0.412455817453674
40
0.510379847878061
40
0.510379847878061
40
0.608303878302448
40
0.608303878302448
40
0.804151939151222
40
0.804151939151222
40
0.902075969575611
40
0.902075969575611
40
1
40
1
40
1
40
1
41
1
10
13.7347838815943
20
-1.25663438327749
30
0
41
1
10
13.6969777625994
20
-1.24425641883664
30
0
41
1
10
13.6591695149944
20
-1.2315819380114
30
0
41
1
10
13.4429746723569
20
-1.15745948856585
30
0
41
1
10
13.2643592574704
20
-1.08990307387148
30
0
41
1
10
12.9056028083406
20
-0.943523670498109
30
0
41
1
10
12.7247574924149
20
-0.864400036521801
30
0
41
1
10
12.1862682426968
20
-0.61633210193628
30
0
41
1
10
11.8309172177924
20
-0.436178986817055
30
0
41
1
10
11.296163673527
20
-0.157465571884899
30
0
41
1
10
11.1176171022886
20
-0.0631154366521969
30
0
41
1
10
10.7588024283155
20
0.12624573733035
30
0
41
1
10
10.5779261400941
20
0.221500987133624
30
0
41
1
10
10.039648078334
20
0.499709338502782
30
0
41
1
10
9.68424446696991
20
0.676504316627501
30
0
41
1
10
9.14936660236782
20
0.916765964959637
30
0
41
1
10
8.97078155010263
20
0.992729069099255
30
0
41
1
10
8.6116506962311
20
1.13399495172848
30
0
41
1
10
8.43084166597592
20
1.19932328037859
30
0
41
1
10
8.25047607508694
20
1.25762695748773
30
0
0
SPLINE
5
D1
100
AcDbEntity
8
1
62
256
6
ByLayer
370
18
48
1
60
0
100
AcDbSpline
70
4
71
3
72
17
73
13
40
0
40
0
40
0
40
0
40
0.325570819937975
40
0.325570819937975
40
0.488356229906962
40
0.488356229906962
40
0.65114163987595
40
0.813927049844937
40
0.813927049844937
40
0.976712459813924
40
0.976712459813924
40
1
40
1
40
1
40
1
41
1
10
8.05587226387752
20
1.37439055986405
30
0
41
1
10
8.05594942710758
20
1.4404637116987
30
0
41
1
10
8.05601409666693
20
1.4966867853563
30
0
41
1
10
8.05609866657758
20
1.56618941905134
30
0
41
1
10
8.05612481813978
20
1.58688460015512
30
0
41
1
10
8.05617304948822
20
1.62243502849623
30
0
41
1
10
8.05621749991437
20
1.65239463469274
30
0
41
1
10
8.05625672139777
20
1.67131402775894
30
0
41
1
10
8.05629436724598
20
1.68461471946861
30
0
41
1
10
8.05631243434325
20
1.68842540916151
30
0
41
1
10
8.05633230857933
20
1.689463056531
30
0
41
1
10
8.0563347845351
20
1.68953496456061
30
0
41
1
10
8.05633725021525
20
1.68954893764831
30
0
0
SPLINE
5
D2
100
AcDbEntity
8
1
62
256
6
ByLayer
370
13
48
1
60
0
100
AcDbSpline
70
4
71
3
72
16
73
12
40
0
40
0
40
0
40
0
40
0.146112182163246
40
0.146112182163246
40
0.359584136622435
40
0.359584136622435
40
0.573056091081623
40
0.573056091081623
40
0.786528045540812
40
0.786528045540812
40
1
40
1
40
1
40
1
41
1
10
8.25080891093302
20
-1.5976490516282
30
0
41
1
10
8.25082437298482
20
-1.59797379712913
30
0
41
1
10
8.25084002706737
20
-1.59335381991517
30
0
41
1
10
8.25088128693511
20
-1.57013569593846
30
0
41
1
10
8.25090841476802
20
-1.54572017724377
30
0
41
1
10
8.2509686562957
20
-1.47665467412134
30
0
41
1
10
8.25100201655016
20
-1.43170012058218
30
0
41
1
10
8.25107102082313
20
-1.32505026555072
30
0
41
1
10
8.25110678636941
20
-1.26331850579265
30
0
41
1
10
8.25117596740461
20
-1.12303259780299
30
0
41
1
10
8.25120948763796
20
-1.04392444708213
30
0
41
1
10
8.25123666087268
20
-0.958741621720037
30
0
0
SPLINE
5
D3
100
AcDbEntity
8
1
62
256
6
ByLayer
370
18
48
1
60
0
100
AcDbSpline
70
4
71
3
72
20
73
16
40
0
40
0
40
0
40
0
40
0.125000000000004
40
0.125000000000004
40
0.250000000000008
40
0.250000000000008
40
0.375000000000012
40
0.375000000000012
40
0.500000000000016
40
0.500000000000016
40
0.62500000000002
40
0.62500000000002
40
0.750000000000024
40
0.750000000000024
40
1
40
1
40
1
40
1
41
1
10
25.66646166764
20
-0.410446316912072
30
0
41
1
10
25.6550347599364
20
-0.39455119167161
30
0
41
1
10
25.644688143161
20
-0.377363661929024
30
0
41
1
10
25.6296030042918
20
-0.341858835789282
30
0
41
1
10
25.6249772205092
20
-0.323343617592741
30
0
41
1
10
25.6252548630517
20
-0.289723649658327
30
0
41
1
10
25.6301393959802
20
-0.275464269280548
30
0
41
1
10
25.6456243917432
20
-0.253526706737347
30
0
41
1
10
25.6561332907798
20
-0.245555029720634
30
0
41
1
10
25.6792217324852
20
-0.234025774993597
30
0
41
1
10
25.6920948596199
20
-0.230315513046008
30
0
41
1
10
25.7185959435325
20
-0.225820109392203
30
0
41
1
10
25.7323581779047
20
-0.224990251559092
30
0
41
1
10
25.7747663230583
20
-0.225608071891287
30
0
41
1
10
25.8043683408294
20
-0.230158089924061
30
0
41
1
10
25.8339972681611
20
-0.237379732088698
30
0
0
SPLINE
5
D4
100
AcDbEntity
8
1
62
256
6
ByLayer
370
18
48
1
60
0
100
AcDbSpline
70
4
71
3
72
20
73
16
40
0
40
0
40
0
40
0
40
0.125
40
0.125
40
0.25
40
0.25
40
0.375
40
0.375
40
0.5
40
0.5
40
0.625
40
0.625
40
0.75
40
0.75
40
1
40
1
40
1
40
1
41
1
10
23.9416730704285
20
0.696044527818202
30
0
41
1
10
23.9536570724881
20
0.616188918440571
30
0
41
1
10
23.9742170003854
20
0.534890863221335
30
0
41
1
10
24.0311345295135
20
0.369637629966775
30
0
41
1
10
24.0664855916106
20
0.288602980557584
30
0
41
1
10
24.1479720516689
20
0.129956421638696
30
0
41
1
10
24.1945902917405
20
0.0516856335426894
30
0
41
1
10
24.294036727694
20
-0.0975673195326294
30
0
41
1
10
24.3470837219709
20
-0.169106894508474
30
0
41
1
10
24.4585537796887
20
-0.307193110279144
30
0
41
1
10
24.5171817567751
20
-0.373922175356029
30
0
41
1
10
24.6383268252487
20
-0.502129119109412
30
0
41
1
10
24.7002373768969
20
-0.563000538848598
30
0
41
1
10
24.8893342303884
20
-0.737485982206607
30
0
41
1
10
25.0198247563475
20
-0.843118476942095
30
0
41
1
10
25.154017400189
20
-0.939808309263583
30
0
0
SPLINE
5
D5
100
AcDbEntity
8
1
62
256
6
ByLayer
370
18
48
1
60
0
100
AcDbSpline
70
4
71
3
72
22
73
18
40
0
40
0
40
0
40
0
40
0.125
40
0.125
40
0.25
40
0.25
40
0.375
40
0.375
40
0.5
40
0.5
40
0.625
40
0.625
40
0.75
40
0.75
40
0.875
40
0.875
40
1
40
1
40
1
40
1
41
1
10
25.6664616676489
20
-0.410446316905052
30
0
41
1
10
25.6518750566851
20
-0.447037713371913
30
0
41
1
10
25.6407468033162
20
-0.48701943839643
30
0
41
1
10
25.6323477635373
20
-0.5545004677154
30
0
41
1
10
25.6350454686397
20
-0.581598776236689
30
0
41
1
10
25.6509229572893
20
-0.613828479192108
30
0
41
1
10
25.663828573948
20
-0.619733921466775
30
0
41
1
10
25.6945610905002
20
-0.613746702490772
30
0
41
1
10
25.7123478596459
20
-0.602000284914681
30
0
41
1
10
25.7490563701304
20
-0.564608602679357
30
0
41
1
10
25.7682161167131
20
-0.538714604725214
30
0
41
1
10
25.8041222018408
20
-0.475840768780216
30
0
41
1
10
25.820978924029
20
-0.43826091784004
30
0
41
1
10
25.8449289205305
20
-0.363191199509544
30
0
41
1
10
25.8519671037126
20
-0.324919203654929
30
0
41
1
10
25.8518255149079
20
-0.266935268775683
30
0
41
1
10
25.8449659099562
20
-0.246844103515656
30
0
41
1
10
25.8339972681611
20
-0.237379732088698
30
0
0
SPLINE
5
D6
100
AcDbEntity
8
1
62
256
6
ByLayer
370
18
48
1
60
0
100
AcDbSpline
70
4
71
3
72
50
73
46
40
0
40
0
40
0
40
0
40
0.0625000000000064
40
0.0625000000000064
40
0.125000000000013
40
0.125000000000013
40
0.250000000000026
40
0.250000000000026
40
0.312500000000032
40
0.312500000000032
40
0.375000000000038
40
0.375000000000038
40
0.500000000000054
40
0.500000000000054
40
0.531250000000056
40
0.531250000000056
40
0.546875000000055
40
0.546875000000055
40
0.550781250000055
40
0.550781250000055
40
0.554687500000055
40
0.554687500000055
40
0.562500000000053
40
0.562500000000053
40
0.593750000000048
40
0.593750000000048
40
0.625000000000043
40
0.625000000000043
40
0.64062500000004
40
0.64062500000004
40
0.656250000000038
40
0.656250000000038
40
0.671875000000035
40
0.671875000000035
40
0.687500000000033
40
0.687500000000033
40
0.718750000000029
40
0.718750000000029
40
0.750000000000025
40
0.750000000000025
40
0.812500000000019
40
0.812500000000019
40
0.875000000000014
40
0.875000000000014
40
1
40
1
40
1
40
1
41
1
10
10.7811145481454
20
-0.202552692171139
30
0
41
1
10
10.630018735121
20
-0.11859856734003
30
0
41
1
10
10.477573194967
20
-0.0352288751557523
30
0
41
1
10
10.1723751483245
20
0.127180423063123
30
0
41
1
10
10.0196227642185
20
0.206216660975286
30
0
41
1
10
9.55946960004204
20
0.434264531824851
30
0
41
1
10
9.25013319351456
20
0.574032557926586
30
0
41
1
10
8.77624976551772
20
0.755697820126869
30
0
41
1
10
8.61664696028191
20
0.811622139394416
30
0
41
1
10
8.29336408024585
20
0.913304949537718
30
0
41
1
10
8.12940323652774
20
0.959130689482095
30
0
41
1
10
7.63250491018022
20
1.08045513935403
30
0
41
1
10
7.29670382268171
20
1.13934431740481
30
0
41
1
10
6.87004460509422
20
1.188892700152
30
0
41
1
10
6.78431546976884
20
1.19760442985
30
0
41
1
10
6.65539883554982
20
1.2088953422122
30
0
41
1
10
6.61238528264346
20
1.21236199736481
30
0
41
1
10
6.55856595841868
20
1.21632894267862
30
0
41
1
10
6.5478319115312
20
1.21731994836929
30
0
41
1
10
6.52597208410367
20
1.21669119050341
30
0
41
1
10
6.51500748970912
20
1.21506966752065
30
0
41
1
10
6.48623696364351
20
1.20565532502172
30
0
41
1
10
6.46720691396845
20
1.19911072683624
30
0
41
1
10
6.37289779221337
20
1.16485690634602
30
0
41
1
10
6.30010230665434
20
1.13277316403605
30
0
41
1
10
6.16768694684575
20
1.0532278543113
30
0
41
1
10
6.10676436583685
20
1.00495894520645
30
0
41
1
10
6.04134427737631
20
0.913994586203984
30
0
41
1
10
6.02431592619652
20
0.880852923389142
30
0
41
1
10
6.00286934655833
20
0.810319963757792
30
0
41
1
10
5.9984607120125
20
0.772110411414758
30
0
41
1
10
6.00251494862951
20
0.696064122710055
30
0
41
1
10
6.01087175926759
20
0.657145658324822
30
0
41
1
10
6.03637133848019
20
0.582148518929273
30
0
41
1
10
6.05341215953047
20
0.545686546529225
30
0
41
1
10
6.11378278126105
20
0.438399916708875
30
0
41
1
10
6.16426875658954
20
0.372561528173492
30
0
41
1
10
6.27463272597521
20
0.247228768558415
30
0
41
1
10
6.33503763556982
20
0.187654478099915
30
0
41
1
10
6.52093481694075
20
0.0186736933294753
30
0
41
1
10
6.65284703953981
20
-0.0833842447714801
30
0
41
1
10
6.92410451924053
20
-0.2774916982722
30
0
41
1
10
7.06438375351382
20
-0.369580144749392
30
0
41
1
10
7.48650305368247
20
-0.630858056643831
30
0
41
1
10
7.77052991848353
20
-0.786577399812046
30
0
41
1
10
8.05682812973723
20
-0.927212265550367
30
0
0
SPLINE
5
D7
100
AcDbEntity
8
SK1
62
256
6
ByLayer
370
18
48
1
60
0
100
AcDbSpline
70
4
71
3
72
8
73
4
40
0
40
0
40
0
40
0
40
1
40
1
40
1
40
1
41
1
10
-35.4
20
1.46871087453826
30
0
41
1
10
-35.6037705334182
20
1.36662976104594
30
0
41
1
10
-35.806098623767
20
1.26433191711854
30
0
41
1
10
-36
20
1.16078048024946
30
0
0
SPLINE
5
D8
100
AcDbEntity
8
SK1
62
256
6
ByLayer
370
18
48
1
60
0
100
AcDbSpline
70
4
71
3
72
8
73
4
40
0
40
0
40
0
40
0
40
1
40
1
40
1
40
1
41
1
10
-36
20
0.279840001084125
30
0
41
1
10
-35.8060563521805
20
0.17626598942158
30
0
41
1
10
-35.6037445882294
20
0.0739777227569789
30
0
41
1
10
-35.4
20
-0.0280903932046783
30
0
0
SPLINE
5
D9
100
AcDbEntity
8
SK1
62
256
6
ByLayer
370
18
48
1
60
0
100
AcDbSpline
70
4
71
3
72
14
73
10
40
0
40
0
40
0
40
0
40
0.499999999999998
40
0.499999999999998
40
0.749999999999999
40
0.749999999999999
40
0.874999999999999
40
0.874999999999999
40
1
40
1
40
1
40
1
41
1
10
-35.3999999999999
20
0.0280903932039394
30
0
41
1
10
-35.3787677796885
20
0.038726909951265
30
0
41
1
10
-35.3584290958895
20
0.0552149674753935
30
0
41
1
10
-35.3303626450498
20
0.0911148690020127
30
0
41
1
10
-35.3215171954455
20
0.104842666533784
30
0
41
1
10
-35.3102812516991
20
0.129884818285802
30
0
41
1
10
-35.3068890218584
20
0.139014647348119
30
0
41
1
10
-35.3017585680987
20
0.158875847024632
30
0
41
1
10
-35.3
20
0.169832781249824
30
0
41
1
10
-35.3
20
0.180889734010094
30
0
0
SPLINE
5
DA
100
AcDbEntity
8
SK1
62
256
6
ByLayer
370
18
48
1
60
0
100
AcDbSpline
70
4
71
3
72
8
73
4
40
0
40
0
40
0
40
0
40
1
40
1
40
1
40
1
41
1
10
-36
20
-0.279840001084125
30
0
41
1
10
-35.8060563521805
20
-0.17626598942158
30
0
41
1
10
-35.6037445882294
20
-0.0739777227569789
30
0
41
1
10
-35.4
20
0.0280903932046783
30
0
0
SPLINE
5
DB
100
AcDbEntity
8
SK1
62
256
6
ByLayer
370
18
48
1
60
0
100
AcDbSpline
70
4
71
3
72
14
73
10
40
0
40
0
40
0
40
0
40
0.125
40
0.125
40
0.249999999999999
40
0.249999999999999
40
0.499999999999998
40
0.499999999999998
40
1
40
1
40
1
40
1
41
1
10
-35.3
20
1.4294274844992
30
0
41
1
10
-35.3
20
1.43908942089649
30
0
41
1
10
-35.3017593723636
20
1.44710155225235
30
0
41
1
10
-35.3069353411979
20
1.45972243196482
30
0
41
1
10
-35.3102739075534
20
1.4644121671931
30
0
41
1
10
-35.3215583577555
20
1.47574166815099
30
0
41
1
10
-35.3303095934912
20
1.47931713401468
30
0
41
1
10
-35.358391202053
20
1.48417470346675
30
0
41
1
10
-35.378655954467
20
1.47940341137317
30
0
41
1
10
-35.4
20
1.46871087453826
30
0
0
LINE
5
76
100
AcDbEntity
8
81
62
256
6
ByLayer
370
18
48
1
60
0
100
AcDbLine
10
26
20
0
30
0
11
31
21
0
31
0
39
0
210
0
220
0
230
1
0
LINE
5
77
100
AcDbEntity
8
1
62
256
6
ByLayer
370
18
48
1
60
0
100
AcDbLine
10
8.056326
20
1.68955
30
0
11
1.574773
21
1.685661
31
0
39
0
210
0
220
0
230
1
0
LINE
5
79
100
AcDbEntity
8
1
62
256
6
ByLayer
370
18
48
1
60
0
100
AcDbLine
10
15.552601
20
1.694047
30
0
11
15.177054
21
1.693822
31
0
39
0
210
0
220
0
230
1
0
LINE
5
7A
100
AcDbEntity
8
1
62
256
6
ByLayer
370
18
48
1
60
0
100
AcDbLine
10
25.074098
20
1.69976
30
0
11
24.699642
21
1.699536
31
0
39
0
210
0
220
0
230
1
0
LINE
5
7B
100
AcDbEntity
8
1
62
256
6
ByLayer
370
18
48
1
60
0
100
AcDbLine
10
24.699642
20
-1.699536
30
0
11
25.073843
21
-1.69976
31
0
39
0
210
0
220
0
230
1
0
LINE
5
7C
100
AcDbEntity
8
1
62
256
6
ByLayer
370
18
48
1
60
0
100
AcDbLine
10
15.177054
20
-1.693822
30
0
11
15.55304
21
-1.694048
31
0
39
0
210
0
220
0
230
1
0
LINE
5
7D
100
AcDbEntity
8
1
62
256
6
ByLayer
370
18
48
1
60
0
100
AcDbLine
10
1.574773
20
-1.685661
30
0
11
8.056326
21
-1.68955
31
0
39
0
210
0
220
0
230
1
0
LINE
5
7E
100
AcDbEntity
8
SK1
62
256
6
ByLayer
370
18
48
1
60
0
100
AcDbLine
10
-35.278312
20
3
30
0
11
-36
21
1.75
31
0
39
0
210
0
220
0
230
1
0
LINE
5
80
100
AcDbEntity
8
SK1
62
256
6
ByLayer
370
18
48
1
60
0
100
AcDbLine
10
-36
20
-1.75
30
0
11
-35.278312
21
-3
31
0
39
0
210
0
220
0
230
1
0
LINE
5
81
100
AcDbEntity
8
SK1
62
256
6
ByLayer
370
18
48
1
60
0
100
AcDbLine
10
0
20
3
30
0
11
-35.278312
21
3
31
0
39
0
210
0
220
0
230
1
0
LINE
5
82
100
AcDbEntity
8
SK1
62
256
6
ByLayer
370
18
48
1
60
0
100
AcDbLine
10
-35.278312
20
-3
30
0
11
0
21
-3
31
0
39
0
210
0
220
0
230
1
0
LINE
5
83
100
AcDbEntity
8
SK4
62
256
6
ByLayer
370
18
48
0.05
60
0
100
AcDbLine
10
31
20
0
30
0
11
-41
21
0
31
0
39
0
210
0
220
0
230
1
0
LINE
5
85
100
AcDbEntity
8
4
62
256
6
ByLayer
370
18
48
0.05
60
0
100
AcDbLine
10
26
20
0
30
0
11
0
21
0
31
0
39
0
210
0
220
0
230
1
0
LINE
5
87
100
AcDbEntity
8
80
62
256
6
ByLayer
370
18
48
1
60
0
100
AcDbLine
10
0
20
0
30
0
11
-5
21
0
31
0
39
0
210
0
220
0
230
1
0
LINE
5
88
100
AcDbEntity
8
1
62
256
6
ByLayer
370
18
48
1
60
0
100
AcDbLine
10
20.596033
20
-0.363456
30
0
11
20.599062
21
-0.366265
31
0
39
0
210
0
220
0
230
1
0
LINE
5
89
100
AcDbEntity
8
1
62
256
6
ByLayer
370
18
48
1
60
0
100
AcDbLine
10
25.939566
20
-0.248261
30
0
11
25.918552
21
-0.355794
31
0
39
0
210
0
220
0
230
1
0
LINE
5
8A
100
AcDbEntity
8
1
62
256
6
ByLayer
370
13
48
1
60
0
100
AcDbLine
10
1.574773
20
1.685661
30
0
11
1.574773
21
-1.685661
31
0
39
0
210
0
220
0
230
1
0
LINE
5
8B
100
AcDbEntity
8
1
62
256
6
ByLayer
370
18
48
1
60
0
100
AcDbLine
10
25.833997
20
-0.23738
30
0
11
25.895651
21
-0.17369
31
0
39
0
210
0
220
0
230
1
0
LINE
5
8C
100
AcDbEntity
8
1
62
256
6
ByLayer
370
18
48
1
60
0
100
AcDbLine
10
25.997487
20
0.01754
30
0
11
26
21
0
31
0
39
0
210
0
220
0
230
1
0
LINE
5
8D
100
AcDbEntity
8
1
62
256
6
ByLayer
370
13
48
1
60
0
100
AcDbLine
10
0.787146
20
2.34283
30
0
11
0.787146
21
-2.34283
31
0
39
0
210
0
220
0
230
1
0
LINE
5
8E
100
AcDbEntity
8
1
62
256
6
ByLayer
370
13
48
1
60
0
100
AcDbLine
10
25.758331
20
0.355794
30
0
11
25.939566
21
0.248261
31
0
39
0
210
0
220
0
230
1
0
LINE
5
8F
100
AcDbEntity
8
1
62
256
6
ByLayer
370
18
48
1
60
0
100
AcDbLine
10
25.939566
20
0.248261
30
0
11
25.918552
21
0.355794
31
0
39
0
210
0
220
0
230
1
0
LINE
5
90
100
AcDbEntity
8
1
62
256
6
ByLayer
370
18
48
1
60
0
100
AcDbLine
10
26
20
0
30
0
11
25.997487
21
-0.01754
31
0
39
0
210
0
220
0
230
1
0
LINE
5
91
100
AcDbEntity
8
1
62
256
6
ByLayer
370
18
48
1
60
0
100
AcDbLine
10
25.154017
20
-0.939808
30
0
11
25.666462
21
-0.410446
31
0
39
0
210
0
220
0
230
1
0
LINE
5
92
100
AcDbEntity
8
1
62
256
6
ByLayer
370
18
48
1
60
0
100
AcDbLine
10
26
20
0
30
0
11
25.415111
21
-1.606968
31
0
39
0
210
0
220
0
230
1
0
LINE
5
93
100
AcDbEntity
8
1
62
256
6
ByLayer
370
18
48
1
60
0
100
AcDbLine
10
0
20
-3
30
0
11
0
21
3
31
0
39
0
210
0
220
0
230
1
0
LINE
5
94
100
AcDbEntity
8
1
62
256
6
ByLayer
370
13
48
1
60
0
100
AcDbLine
10
8.247963
20
1.254955
30
0
11
8.250476
21
1.257627
31
0
39
0
210
0
220
0
230
1
0
LINE
5
95
100
AcDbEntity
8
1
62
256
6
ByLayer
370
13
48
1
60
0
100
AcDbLine
10
25.568425
20
0.020464
30
0
11
25.895651
21
-0.17369
31
0
39
0
210
0
220
0
230
1
0
LINE
5
96
100
AcDbEntity
8
1
62
256
6
ByLayer
370
13
48
1
60
0
100
AcDbLine
10
25.918552
20
0.355794
30
0
11
25.758331
21
0.355794
31
0
39
0
210
0
220
0
230
1
0
LINE
5
97
100
AcDbEntity
8
SK1
62
256
6
ByLayer
370
13
48
1
60
0
100
AcDbLine
10
-35.4
20
1.468711
30
0
11
-35.4
21
0.02811
31
0
39
0
210
0
220
0
230
1
0
LINE
5
98
100
AcDbEntity
8
SK1
62
256
6
ByLayer
370
18
48
1
60
0
100
AcDbLine
10
0
20
-3
30
0
11
0
21
3
31
0
39
0
210
0
220
0
230
1
0
LINE
5
99
100
AcDbEntity
8
SK1
62
256
6
ByLayer
370
18
48
1
60
0
100
AcDbLine
10
-36
20
1.75
30
0
11
-36
21
1.16078
31
0
39
0
210
0
220
0
230
1
0
LINE
5
9A
100
AcDbEntity
8
SK1
62
256
6
ByLayer
370
18
48
1
60
0
100
AcDbLine
10
-36
20
-0.27984
30
0
11
-36
21
-1.75
31
0
39
0
210
0
220
0
230
1
0
LINE
5
9B
100
AcDbEntity
8
SK1
62
256
6
ByLayer
370
18
48
1
60
0
100
AcDbLine
10
-35.3
20
0.18089
30
0
11
-35.3
21
1.429427
31
0
39
0
210
0
220
0
230
1
0
LINE
5
9C
100
AcDbEntity
8
SK1
62
256
6
ByLayer
370
18
48
1
60
0
100
AcDbLine
10
-35.278312
20
3
30
0
11
-35.278312
21
-3
31
0
39
0
210
0
220
0
230
1
0
LINE
5
9D
100
AcDbEntity
8
SK1
62
256
6
ByLayer
370
18
48
1
60
0
100
AcDbLine
10
-36
20
1.16078
30
0
11
-36
21
0.27984
31
0
39
0
210
0
220
0
230
1
0
MTEXT
5
DC
100
AcDbEntity
8
SK6
62
256
6
ByLayer
370
13
48
1
60
0
100
AcDbMText
10
-2.870831
20
34.082694
30
0
210
0
220
0
230
1
1
\W0.7598;R840-0340-30-A1A1220
40
3.5
41
0
44
1.084337
50
0
71
8
72
5
7
iso_b_vert
0
DIMENSION
5
E9
100
AcDbEntity
8
SK2
62
256
6
ByLayer
370
13
48
1
60
0
100
AcDbDimension
2
DimnDraft3D1
10
25.43
20
-11.913398
30
0
11
11.680059
21
-11.913398
31
0
70
32
71
5
72
1
41
1
210
0
220
0
230
1
3
Standard
100
AcDbAlignedDimension
13
0
23
-1.5875
33
0
14
25.43
24
-3.2875
34
0
50
0
100
AcDbRotatedDimension
1001
ACAD
1000
DSTYLE
1002
{
1070
   279
1070
     0
1070
   172
1070
     1
1070
   173
1070
     1
1070
   340
1005
DD
1070
   271
1070
     2
1070
   272
1070
     2
1070
    77
1070
     1
1070
    73
1070
     0
1070
   171
1070
     3
1070
   274
1070
     4
1070
   177
1070
    35
1070
   176
1070
    35
1070
   178
1070
    35
1070
    48
1040
-0.005
1070
    41
1041
3.5
1070
   147
1041
1.75
1070
    42
1041
1.5875
1070
    44
1041
2.0
1070
   140
1041
3.5
1070
   343
1005
0
1070
   344
1005
0
1002
}
0
DIMENSION
5
F3
100
AcDbEntity
8
SK2
62
256
6
ByLayer
370
13
48
1
60
0
100
AcDbDimension
2
DimnDraft3D2
10
26
20
-31.692985
30
0
11
-4.2287
21
-31.692985
31
0
70
32
71
5
72
1
41
1
210
0
220
0
230
1
3
Standard
100
AcDbAlignedDimension
13
-36
23
-4.5875
33
0
14
26
24
-1.5875
34
0
50
0
100
AcDbRotatedDimension
1001
ACAD
1000
DSTYLE
1002
{
1070
   279
1070
     0
1070
   172
1070
     1
1070
   173
1070
     1
1070
   340
1005
DD
1070
   271
1070
     2
1070
   272
1070
     2
1070
    77
1070
     1
1070
    73
1070
     0
1070
   171
1070
     3
1070
   274
1070
     4
1070
   177
1070
    35
1070
   176
1070
    35
1070
   178
1070
    35
1070
    48
1040
-0.005
1070
    41
1041
3.5
1070
   147
1041
1.75
1070
    42
1041
1.5875
1070
    44
1041
2.0
1070
   140
1041
3.5
1070
   343
1005
0
1070
   344
1005
0
1002
}
0
DIMENSION
5
FD
100
AcDbEntity
8
SK2
62
256
6
ByLayer
370
13
48
1
60
0
100
AcDbDimension
2
DimnDraft3D3
10
26
20
13.309119
30
0
11
20.615
21
13.309119
31
0
70
32
71
5
72
1
41
1
210
0
220
0
230
1
3
Standard
100
AcDbAlignedDimension
13
15.23
23
3.2875
33
0
14
26
24
1.5875
34
0
50
0
100
AcDbRotatedDimension
1001
ACAD
1000
DSTYLE
1002
{
1070
   279
1070
     0
1070
   172
1070
     1
1070
   173
1070
     1
1070
   340
1005
DD
1070
   271
1070
     2
1070
   272
1070
     2
1070
    77
1070
     1
1070
    73
1070
     0
1070
   171
1070
     3
1070
   274
1070
     4
1070
   177
1070
    35
1070
   176
1070
    35
1070
   178
1070
    35
1070
    48
1040
-0.005
1070
    41
1041
3.5
1070
   147
1041
1.75
1070
    42
1041
1.5875
1070
    44
1041
2.0
1070
   140
1041
3.5
1070
   343
1005
0
1070
   344
1005
0
1002
}
0
DIMENSION
5
107
100
AcDbEntity
8
SK2
62
256
6
ByLayer
370
13
48
1
60
0
100
AcDbDimension
2
DimnDraft3D4
10
25.43
20
-14.502503
30
0
11
35.981425
21
-14.502503
31
0
70
32
71
5
72
1
41
1
210
0
220
0
230
1
3
Standard
100
AcDbAlignedDimension
13
26
23
-1.5875
33
0
14
25.43
24
-3.2875
34
0
50
0
100
AcDbRotatedDimension
1001
ACAD
1000
DSTYLE
1002
{
1070
   279
1070
     0
1070
   172
1070
     1
1070
   173
1070
     1
1070
   340
1005
DD
1070
   271
1070
     2
1070
   272
1070
     2
1070
    77
1070
     1
1070
    73
1070
     0
1070
   171
1070
     3
1070
   274
1070
     4
1070
   177
1070
    35
1070
   176
1070
    35
1070
   178
1070
    35
1070
    48
1040
-0.005
1070
    41
1041
3.5
1070
   147
1041
1.75
1070
    42
1041
1.5875
1070
    44
1041
2.0
1070
   140
1041
3.5
1070
   343
1005
0
1070
   344
1005
0
1002
}
0
DIMENSION
5
111
100
AcDbEntity
8
SK2
62
256
6
ByLayer
370
13
48
1
60
0
100
AcDbDimension
2
DimnDraft3D5
10
25.43
20
-21.343428
30
0
11
-7.309324
21
-21.343428
31
0
70
32
71
5
72
1
41
1
210
0
220
0
230
1
3
Standard
100
AcDbAlignedDimension
13
-36
23
-4.5875
33
0
14
25.43
24
-3.2875
34
0
50
0
100
AcDbRotatedDimension
1001
ACAD
1000
DSTYLE
1002
{
1070
   279
1070
     0
1070
   172
1070
     1
1070
   173
1070
     1
1070
   340
1005
DD
1070
   271
1070
     2
1070
   272
1070
     2
1070
    77
1070
     1
1070
    73
1070
     0
1070
   171
1070
     3
1070
   274
1070
     4
1070
   177
1070
    35
1070
   176
1070
    35
1070
   178
1070
    35
1070
    48
1040
-0.005
1070
    41
1041
3.5
1070
   147
1041
1.75
1070
    42
1041
1.5875
1070
    44
1041
2.0
1070
   140
1041
3.5
1070
   343
1005
0
1070
   344
1005
0
1002
}
0
DIMENSION
5
11C
100
AcDbEntity
8
SK2
62
256
6
ByLayer
370
13
48
1
60
0
100
AcDbDimension
2
DimnDraft3D6
10
-46.625163
20
3
30
0
11
-47.250163
21
21.47418
31
0
70
33
71
5
72
1
41
1
210
0
220
0
230
1
3
Standard
100
AcDbAlignedDimension
13
-37.5875
23
-3
33
0
14
-37.5875
24
3
34
0
1001
ACAD
1000
DSTYLE
1002
{
1070
   279
1070
     0
1070
    74
1070
     0
1070
   173
1070
     1
1070
   340
1005
DD
1070
   271
1070
     3
1070
   272
1070
     2
1070
    77
1070
     1
1070
    73
1070
     0
1070
   171
1070
     3
1070
   274
1070
     4
1070
   177
1070
    35
1070
   176
1070
    35
1070
   178
1070
    35
1070
    48
1040
-0.005
1070
    41
1041
3.5
1070
   147
1041
1.75
1070
    42
1041
1.5875
1070
    44
1041
2.0
1070
   140
1041
3.5
1070
   343
1005
0
1070
   344
1005
0
1002
}
0
DIMENSION
5
127
100
AcDbEntity
8
2
62
256
6
ByLayer
370
13
48
1
60
0
100
AcDbDimension
2
DimnDraft3D7
10
40.083343
20
1.7
30
0
11
35.458343
21
18.767266
31
0
70
33
71
5
72
1
41
1
210
0
220
0
230
1
3
Standard
100
AcDbAlignedDimension
13
27.0175
23
-1.7
33
0
14
27.0175
24
1.7
34
0
1001
ACAD
1000
DSTYLE
1002
{
1070
   279
1070
     0
1070
    74
1070
     0
1070
   173
1070
     1
1070
   340
1005
DD
1070
   271
1070
     3
1070
   272
1070
     2
1070
    77
1070
     1
1070
    73
1070
     0
1070
   171
1070
     3
1070
   274
1070
     4
1070
   177
1070
    35
1070
   176
1070
    35
1070
   178
1070
    35
1070
    48
1040
-0.005
1070
    41
1041
3.5
1070
   147
1041
1.75
1070
    42
1041
1.5875
1070
    44
1041
2.0
1070
   140
1041
3.5
1070
   343
1005
0
1070
   344
1005
0
1002
}
0
ENDSEC
0
SECTION
2
OBJECTS
0
DICTIONARY
5
192
330
0
100
AcDbDictionary
280
0
281
1
3
ACAD_GROUP
350
193
3
ACAD_MLINESTYLE
350
194
0
DICTIONARY
5
193
330
0
100
AcDbDictionary
280
0
281
1
0
DICTIONARY
5
194
330
0
100
AcDbDictionary
280
0
281
1
3
Standard
350
18
0
MLINESTYLE
5
18
330
194
100
AcDbMlineStyle
2
Standard
70
0
3

62
256
51
90
52
90
71
2
49
-0.5
62
256
6
ByLayer
49
0.5
62
256
6
ByLayer
0
RASTERVARIABLES
5
180
330

100
AcDbRasterVariables
90
0
70
1
71
1
72
1
0
ENDSEC
0
EOF
