0
SECTION
2
HEADER
9
$ACADVER
1
AC1015
9
$DWGCODEPAGE
3
ANSI_1252
9
$HANDSEED
5
19d
9
$ANGBASE
50
0
9
$ANGDIR
70
0
9
$ATTMODE
70
1
9
$AUNITS
70
0
9
$AUPREC
70
0
9
$CECOLOR
62
256
9
$CELTSCALE
40
1
9
$CELTYPE
6
ByLayer
9
$CELWEIGHT
370
18
9
$CLAYER
8
0
9
$CMLJUST
70
0
9
$CMLSCALE
40
1
9
$CMLSTYLE
2
Standard
9
$DIMSTYLE
2
Standard
9
$TEXTSIZE
40
0.2
9
$TEXTSTYLE
7
Standard
9
$LUNITS
70
2
9
$LUPREC
70
4
9
$EXTNAMES
290
1
9
$INSUNITS
70
4
9
$LTSCALE
40
1
9
$LWDISPLAY
290
1
9
$PDMODE
70
0
9
$PDSIZE
40
0
9
$PLINEGEN
70
0
0
ENDSEC
0
SECTION
2
CLASSES
0
CLASS
1
RASTERVARIABLES
2
AcDbRasterVariables
3
ISM
90
0
280
0
281
0
0
ENDSEC
0
SECTION
2
TABLES
0
TABLE
2
VPORT
5
193
100
AcDbSymbolTable
0
VPORT
5
1
100
AcDbSymbolTableRecord
100
AcDbViewportTableRecord
2
*Active
70
0
10
0
20
0
11
1
21
1
12
-1
22
1
13
0
23
0
14
0.5
24
0.5
15
10
25
10
16
0
26
0
36
1
17
0
27
0
37
0
0
ENDTAB
0
TABLE
2
LTYPE
5
194
100
AcDbSymbolTable
0
LTYPE
5
14
100
AcDbSymbolTableRecord
100
AcDbLinetypeTableRecord
70
0
2
ByBlock
3

72
65
73
0
40
0
0
LTYPE
5
15
100
AcDbSymbolTableRecord
100
AcDbLinetypeTableRecord
70
0
2
ByLayer
3

72
65
73
0
40
0
0
LTYPE
5
16
100
AcDbSymbolTableRecord
100
AcDbLinetypeTableRecord
70
0
2
CONTINUOUS
3
Solid line
72
65
73
0
40
0
0
LTYPE
5
6A
100
AcDbSymbolTableRecord
100
AcDbLinetypeTableRecord
70
0
2
CENTER
3
____ _ ____ _ ____ _ ____
72
65
73
4
40
47.5
49
22
74
0
49
-8.5
74
0
49
8.5
74
0
49
-8.5
74
0
0
LTYPE
5
6B
100
AcDbSymbolTableRecord
100
AcDbLinetypeTableRecord
70
0
2
DASHED
3
__ __ __ __ __ __ __ __ __
72
65
73
2
40
25.72
49
12.86
74
0
49
-12.86
74
0
0
ENDTAB
0
TABLE
2
LAYER
5
195
100
AcDbSymbolTable
0
LAYER
5
10
100
AcDbSymbolTableRecord
100
AcDbLayerTableRecord
2
0
70
0
62
7
6
CONTINUOUS
290
1
370
-3
390
0
0
LAYER
5
6D
100
AcDbSymbolTableRecord
100
AcDbLayerTableRecord
2
81
70
0
62
-3
6
CONTINUOUS
290
1
370
-3
390
0
0
LAYER
5
6F
100
AcDbSymbolTableRecord
100
AcDbLayerTableRecord
2
80
70
0
62
-6
6
CONTINUOUS
290
1
370
-3
390
0
0
LAYER
5
74
100
AcDbSymbolTableRecord
100
AcDbLayerTableRecord
2
2
70
0
62
7
6
CONTINUOUS
290
1
370
-3
390
0
0
LAYER
5
78
100
AcDbSymbolTableRecord
100
AcDbLayerTableRecord
2
1
70
0
62
4
6
CONTINUOUS
290
1
370
-3
390
0
0
LAYER
5
88
100
AcDbSymbolTableRecord
100
AcDbLayerTableRecord
2
4
70
0
62
-2
6
CENTER
290
1
370
-3
390
0
0
LAYER
5
17f
100
AcDbSymbolTableRecord
100
AcDbLayerTableRecord
2
SK2
70
0
62
7
6
CONTINUOUS
290
1
370
-3
390
0
0
LAYER
5
180
100
AcDbSymbolTableRecord
100
AcDbLayerTableRecord
2
SK1
70
0
62
4
6
CONTINUOUS
290
1
370
-3
390
0
0
LAYER
5
181
100
AcDbSymbolTableRecord
100
AcDbLayerTableRecord
2
SK4
70
0
62
2
6
CENTER
290
1
370
-3
390
0
0
LAYER
5
182
100
AcDbSymbolTableRecord
100
AcDbLayerTableRecord
2
SK6
70
0
62
5
6
CONTINUOUS
290
1
370
-3
390
0
0
ENDTAB
0
TABLE
2
STYLE
5
196
100
AcDbSymbolTable
0
STYLE
5
11
100
AcDbSymbolTableRecord
100
AcDbTextStyleTableRecord
2
Standard
3
txt
70
0
71
0
40
0
41
1
42
0
50
0
0
STYLE
5
DB
100
AcDbSymbolTableRecord
100
AcDbTextStyleTableRecord
2
iso_b_vert
3
simplex.shx
70
0
71
0
40
0
41
1
42
0
50
0
0
STYLE
5
DC
100
AcDbSymbolTableRecord
100
AcDbTextStyleTableRecord
2
DWGDirectTextStyle
3
simplex
70
0
71
0
40
0
41
1
42
0
50
0
0
ENDTAB
0
TABLE
2
DIMSTYLE
5
197
100
AcDbSymbolTable
100
AcDbDimStyleTable
0
DIMSTYLE
105
27
100
AcDbSymbolTableRecord
100
AcDbDimStyleTableRecord
2
Standard
70
0
3
<>
41
0.18
42
0.0625
44
0.18
140
0.18
147
0.09
73
0
74
0
77
1
271
2
275
0
278
52
280
0
340
11
0
ENDTAB
0
TABLE
2
VIEW
5
198
100
AcDbSymbolTable
0
ENDTAB
0
TABLE
2
UCS
5
199
100
AcDbSymbolTable
0
ENDTAB
0
TABLE
2
APPID
5
19a
100
AcDbSymbolTable
0
APPID
5
12
100
AcDbSymbolTableRecord
100
AcDbRegAppTableRecord
2
ACAD
70
0
0
ENDTAB
0
TABLE
2
BLOCK_RECORD
5
19b
100
AcDbSymbolTable
0
BLOCK_RECORD
5
1F
100
AcDbSymbolTableRecord
100
AcDbBlockTableRecord
2
*Model_Space
340
0
70
0
0
BLOCK_RECORD
5
1B
100
AcDbSymbolTableRecord
100
AcDbBlockTableRecord
2
*Paper_Space
340
0
70
0
0
BLOCK_RECORD
5
23
100
AcDbSymbolTableRecord
100
AcDbBlockTableRecord
2
*Paper_Space0
340
0
70
0
0
BLOCK_RECORD
5
DE
100
AcDbSymbolTableRecord
100
AcDbBlockTableRecord
2
DimnDraft3D1
340
0
70
0
0
BLOCK_RECORD
5
E8
100
AcDbSymbolTableRecord
100
AcDbBlockTableRecord
2
DimnDraft3D2
340
0
70
0
0
BLOCK_RECORD
5
F2
100
AcDbSymbolTableRecord
100
AcDbBlockTableRecord
2
DimnDraft3D3
340
0
70
0
0
BLOCK_RECORD
5
FC
100
AcDbSymbolTableRecord
100
AcDbBlockTableRecord
2
DimnDraft3D4
340
0
70
0
0
BLOCK_RECORD
5
106
100
AcDbSymbolTableRecord
100
AcDbBlockTableRecord
2
DimnDraft3D5
340
0
70
0
0
BLOCK_RECORD
5
110
100
AcDbSymbolTableRecord
100
AcDbBlockTableRecord
2
DimnDraft3D6
340
0
70
0
0
BLOCK_RECORD
5
11B
100
AcDbSymbolTableRecord
100
AcDbBlockTableRecord
2
DimnDraft3D7
340
0
70
0
0
ENDTAB
0
ENDSEC
0
SECTION
2
BLOCKS
0
BLOCK
5
20
100
AcDbEntity
8
0
100
AcDbBlockBegin
2
*Model_Space
70
0
10
0
20
0
30
0
3
*Model_Space
0
ENDBLK
5
21
100
AcDbEntity
8
0
100
AcDbBlockEnd
0
BLOCK
5
1C
100
AcDbEntity
8
0
100
AcDbBlockBegin
2
*Paper_Space
70
0
10
0
20
0
30
0
3
*Paper_Space
0
ENDBLK
5
1D
100
AcDbEntity
8
0
100
AcDbBlockEnd
0
BLOCK
5
24
100
AcDbEntity
8
0
100
AcDbBlockBegin
2
*Paper_Space0
70
0
10
0
20
0
30
0
3
*Paper_Space0
0
ENDBLK
5
25
100
AcDbEntity
8
0
100
AcDbBlockEnd
0
BLOCK
5
E5
100
AcDbEntity
8
0
100
AcDbBlockBegin
2
DimnDraft3D1
70
0
10
0
20
0
30
0
3
DimnDraft3D1
0
MTEXT
5
DF
100
AcDbEntity
8
SK2
62
256
6
ByLayer
370
13
48
1
60
0
100
AcDbMText
10
9.047164
20
-11.028398
30
0
210
0
220
0
230
1
1
\W0.7581;29,43
40
3.5
41
0
44
1.084337
50
0
71
7
72
5
7
iso_b_vert
0
LINE
5
E0
100
AcDbEntity
8
SK2
62
256
6
ByLayer
370
13
48
1
60
0
100
AcDbLine
10
0
20
-1.5875
30
0
11
0
21
-13.903398
31
0
39
0
210
0
220
0
230
1
0
LINE
5
E1
100
AcDbEntity
8
SK2
62
256
6
ByLayer
370
13
48
1
60
0
100
AcDbLine
10
29.43
20
-3.2775
30
0
11
29.43
21
-13.903398
31
0
39
0
210
0
220
0
230
1
0
LINE
5
E2
100
AcDbEntity
8
SK2
62
256
6
ByLayer
370
13
48
1
60
0
100
AcDbLine
10
0
20
-11.903398
30
0
11
29.43
21
-11.903398
31
0
39
0
210
0
220
0
230
1
0
SOLID
5
E3
100
AcDbEntity
8
SK2
62
256
6
ByLayer
370
13
48
1
60
0
100
AcDbTrace
10
0
20
-11.903398
30
0
11
3.499998
21
-11.442615
31
0
12
3.500002
22
-12.364182
32
0
13
0
23
-11.903398
33
0
39
0
210
0
220
0
230
1
0
SOLID
5
E4
100
AcDbEntity
8
SK2
62
256
6
ByLayer
370
13
48
1
60
0
100
AcDbTrace
10
29.43
20
-11.903398
30
0
11
25.930002
21
-12.364182
31
0
12
25.929998
22
-11.442615
32
0
13
29.43
23
-11.903398
33
0
39
0
210
0
220
0
230
1
0
ENDBLK
5
E6
100
AcDbEntity
8
0
100
AcDbBlockEnd
0
BLOCK
5
EF
100
AcDbEntity
8
0
100
AcDbBlockBegin
2
DimnDraft3D2
70
0
10
0
20
0
30
0
3
DimnDraft3D2
0
MTEXT
5
E9
100
AcDbEntity
8
SK2
62
256
6
ByLayer
370
13
48
1
60
0
100
AcDbMText
10
-6.677384
20
-30.817985
30
0
210
0
220
0
230
1
1
\W0.7317;66,00
40
3.5
41
0
44
1.084337
50
0
71
7
72
5
7
iso_b_vert
0
LINE
5
EA
100
AcDbEntity
8
SK2
62
256
6
ByLayer
370
13
48
1
60
0
100
AcDbLine
10
-36
20
-4.5875
30
0
11
-36
21
-33.692985
31
0
39
0
210
0
220
0
230
1
0
LINE
5
EB
100
AcDbEntity
8
SK2
62
256
6
ByLayer
370
13
48
1
60
0
100
AcDbLine
10
30
20
-1.5875
30
0
11
30
21
-33.692985
31
0
39
0
210
0
220
0
230
1
0
LINE
5
EC
100
AcDbEntity
8
SK2
62
256
6
ByLayer
370
13
48
1
60
0
100
AcDbLine
10
-36
20
-31.692985
30
0
11
30
21
-31.692985
31
0
39
0
210
0
220
0
230
1
0
SOLID
5
ED
100
AcDbEntity
8
SK2
62
256
6
ByLayer
370
13
48
1
60
0
100
AcDbTrace
10
-36
20
-31.692985
30
0
11
-32.500002
21
-31.232202
31
0
12
-32.499998
22
-32.153769
32
0
13
-36
23
-31.692985
33
0
39
0
210
0
220
0
230
1
0
SOLID
5
EE
100
AcDbEntity
8
SK2
62
256
6
ByLayer
370
13
48
1
60
0
100
AcDbTrace
10
30
20
-31.692985
30
0
11
26.500002
21
-32.153769
31
0
12
26.499998
22
-31.232202
32
0
13
30
23
-31.692985
33
0
39
0
210
0
220
0
230
1
0
ENDBLK
5
F0
100
AcDbEntity
8
0
100
AcDbBlockEnd
0
BLOCK
5
F9
100
AcDbEntity
8
0
100
AcDbBlockBegin
2
DimnDraft3D3
70
0
10
0
20
0
30
0
3
DimnDraft3D3
0
MTEXT
5
F3
100
AcDbEntity
8
SK2
62
256
6
ByLayer
370
13
48
1
60
0
100
AcDbMText
10
17.069605
20
14.174119
30
0
210
0
220
0
230
1
1
\W0.6977;17,47
40
3.5
41
0
44
1.084337
50
0
71
7
72
5
7
iso_b_vert
0
LINE
5
F4
100
AcDbEntity
8
SK2
62
256
6
ByLayer
370
13
48
1
60
0
100
AcDbLine
10
12.53
20
3.2775
30
0
11
12.53
21
15.299119
31
0
39
0
210
0
220
0
230
1
0
LINE
5
F5
100
AcDbEntity
8
SK2
62
256
6
ByLayer
370
13
48
1
60
0
100
AcDbLine
10
30
20
1.5875
30
0
11
30
21
15.299119
31
0
39
0
210
0
220
0
230
1
0
LINE
5
F6
100
AcDbEntity
8
SK2
62
256
6
ByLayer
370
13
48
1
60
0
100
AcDbLine
10
12.53
20
13.299119
30
0
11
30
21
13.299119
31
0
39
0
210
0
220
0
230
1
0
SOLID
5
F7
100
AcDbEntity
8
SK2
62
256
6
ByLayer
370
13
48
1
60
0
100
AcDbTrace
10
12.53
20
13.299119
30
0
11
16.029998
21
13.759903
31
0
12
16.030002
22
12.838335
32
0
13
12.53
23
13.299119
33
0
39
0
210
0
220
0
230
1
0
SOLID
5
F8
100
AcDbEntity
8
SK2
62
256
6
ByLayer
370
13
48
1
60
0
100
AcDbTrace
10
30
20
13.299119
30
0
11
26.500002
21
12.838335
31
0
12
26.499998
22
13.759903
32
0
13
30
23
13.299119
33
0
39
0
210
0
220
0
230
1
0
ENDBLK
5
FA
100
AcDbEntity
8
0
100
AcDbBlockEnd
0
BLOCK
5
103
100
AcDbEntity
8
0
100
AcDbBlockBegin
2
DimnDraft3D4
70
0
10
0
20
0
30
0
3
DimnDraft3D4
0
MTEXT
5
FD
100
AcDbEntity
8
SK2
62
256
6
ByLayer
370
13
48
1
60
0
100
AcDbMText
10
36.840636
20
-13.617503
30
0
210
0
220
0
230
1
1
\W0.7150;0,57
40
3.5
41
0
44
1.084337
50
0
71
7
72
5
7
iso_b_vert
0
LINE
5
FE
100
AcDbEntity
8
SK2
62
256
6
ByLayer
370
13
48
1
60
0
100
AcDbLine
10
30
20
-1.5875
30
0
11
30
21
-16.492503
31
0
39
0
210
0
220
0
230
1
0
LINE
5
FF
100
AcDbEntity
8
SK2
62
256
6
ByLayer
370
13
48
1
60
0
100
AcDbLine
10
29.43
20
-3.2775
30
0
11
29.43
21
-16.492503
31
0
39
0
210
0
220
0
230
1
0
LINE
5
100
100
AcDbEntity
8
SK2
62
256
6
ByLayer
370
13
48
1
60
0
100
AcDbLine
10
20.68
20
-14.492503
30
0
11
43.997215
21
-14.492503
31
0
39
0
210
0
220
0
230
1
0
SOLID
5
101
100
AcDbEntity
8
SK2
62
256
6
ByLayer
370
13
48
1
60
0
100
AcDbTrace
10
30
20
-14.492503
30
0
11
33.499998
21
-14.031719
31
0
12
33.500002
22
-14.953287
32
0
13
30
23
-14.492503
33
0
39
0
210
0
220
0
230
1
0
SOLID
5
102
100
AcDbEntity
8
SK2
62
256
6
ByLayer
370
13
48
1
60
0
100
AcDbTrace
10
29.43
20
-14.492503
30
0
11
25.930002
21
-14.953287
31
0
12
25.929998
22
-14.031719
32
0
13
29.43
23
-14.492503
33
0
39
0
210
0
220
0
230
1
0
ENDBLK
5
104
100
AcDbEntity
8
0
100
AcDbBlockEnd
0
BLOCK
5
10D
100
AcDbEntity
8
0
100
AcDbBlockBegin
2
DimnDraft3D5
70
0
10
0
20
0
30
0
3
DimnDraft3D5
0
MTEXT
5
107
100
AcDbEntity
8
SK2
62
256
6
ByLayer
370
13
48
1
60
0
100
AcDbMText
10
-9.942218
20
-20.468428
30
0
210
0
220
0
230
1
1
\W0.7581;65,43
40
3.5
41
0
44
1.084337
50
0
71
7
72
5
7
iso_b_vert
0
LINE
5
108
100
AcDbEntity
8
SK2
62
256
6
ByLayer
370
13
48
1
60
0
100
AcDbLine
10
-36
20
-4.5875
30
0
11
-36
21
-23.343428
31
0
39
0
210
0
220
0
230
1
0
LINE
5
109
100
AcDbEntity
8
SK2
62
256
6
ByLayer
370
13
48
1
60
0
100
AcDbLine
10
29.43
20
-3.2775
30
0
11
29.43
21
-23.343428
31
0
39
0
210
0
220
0
230
1
0
LINE
5
10A
100
AcDbEntity
8
SK2
62
256
6
ByLayer
370
13
48
1
60
0
100
AcDbLine
10
-36
20
-21.343428
30
0
11
29.43
21
-21.343428
31
0
39
0
210
0
220
0
230
1
0
SOLID
5
10B
100
AcDbEntity
8
SK2
62
256
6
ByLayer
370
13
48
1
60
0
100
AcDbTrace
10
-36
20
-21.343428
30
0
11
-32.500002
21
-20.882645
31
0
12
-32.499998
22
-21.804212
32
0
13
-36
23
-21.343428
33
0
39
0
210
0
220
0
230
1
0
SOLID
5
10C
100
AcDbEntity
8
SK2
62
256
6
ByLayer
370
13
48
1
60
0
100
AcDbTrace
10
29.43
20
-21.343428
30
0
11
25.930002
21
-21.804212
31
0
12
25.929998
22
-20.882645
32
0
13
29.43
23
-21.343428
33
0
39
0
210
0
220
0
230
1
0
ENDBLK
5
10E
100
AcDbEntity
8
0
100
AcDbBlockEnd
0
BLOCK
5
118
100
AcDbEntity
8
0
100
AcDbBlockBegin
2
DimnDraft3D6
70
0
10
0
20
0
30
0
3
DimnDraft3D6
0
MTEXT
5
111
100
AcDbEntity
8
SK2
62
256
6
ByLayer
370
13
48
1
60
0
100
AcDbMText
10
-46.375163
20
22.34918
30
0
210
0
220
0
230
1
1
\W0.7317;6,000
40
3.5
41
0
44
1.084337
50
90
71
7
72
5
7
iso_b_vert
0
MTEXT
5
112
100
AcDbEntity
8
SK2
62
256
6
ByLayer
370
13
48
1
60
0
100
AcDbMText
10
-46.375163
20
17.126524
30
0
210
0
220
0
230
1
1
%%c
40
3.5
41
0
44
1.084337
50
90
71
7
72
5
7
iso_b_vert
0
LINE
5
113
100
AcDbEntity
8
SK2
62
256
6
ByLayer
370
13
48
1
60
0
100
AcDbLine
10
-37.5875
20
-3
30
0
11
-46.625163
21
-3
31
0
39
0
210
0
220
0
230
1
0
LINE
5
114
100
AcDbEntity
8
SK2
62
256
6
ByLayer
370
13
48
1
60
0
100
AcDbLine
10
-37.5875
20
3
30
0
11
-46.625163
21
3
31
0
39
0
210
0
220
0
230
1
0
LINE
5
115
100
AcDbEntity
8
SK2
62
256
6
ByLayer
370
13
48
1
60
0
100
AcDbLine
10
-44.625163
20
32.121549
30
0
11
-44.625163
21
-11.75
31
0
39
0
210
0
220
0
230
1
0
SOLID
5
116
100
AcDbEntity
8
SK2
62
256
6
ByLayer
370
13
48
1
60
0
100
AcDbTrace
10
-44.625163
20
-3
30
0
11
-44.164379
21
-6.499998
31
0
12
-45.085946
22
-6.500002
32
0
13
-44.625163
23
-3
33
0
39
0
210
0
220
0
230
1
0
SOLID
5
117
100
AcDbEntity
8
SK2
62
256
6
ByLayer
370
13
48
1
60
0
100
AcDbTrace
10
-44.625163
20
3
30
0
11
-45.085946
21
6.499998
31
0
12
-44.164379
22
6.500002
32
0
13
-44.625163
23
3
33
0
39
0
210
0
220
0
230
1
0
ENDBLK
5
119
100
AcDbEntity
8
0
100
AcDbBlockEnd
0
BLOCK
5
123
100
AcDbEntity
8
0
100
AcDbBlockBegin
2
DimnDraft3D7
70
0
10
0
20
0
30
0
3
DimnDraft3D7
0
MTEXT
5
11C
100
AcDbEntity
8
2
62
256
6
ByLayer
370
13
48
1
60
0
100
AcDbMText
10
40.333343
20
19.632266
30
0
210
0
220
0
230
1
1
\W0.7317;3,380
40
3.5
41
0
44
1.084337
50
90
71
7
72
5
7
iso_b_vert
0
MTEXT
5
11D
100
AcDbEntity
8
2
62
256
6
ByLayer
370
13
48
1
60
0
100
AcDbMText
10
40.333343
20
14.40961
30
0
210
0
220
0
230
1
1
%%c
40
3.5
41
0
44
1.084337
50
90
71
7
72
5
7
iso_b_vert
0
LINE
5
11E
100
AcDbEntity
8
2
62
256
6
ByLayer
370
13
48
1
60
0
100
AcDbLine
10
31.0175
20
-1.69
30
0
11
44.083343
21
-1.69
31
0
39
0
210
0
220
0
230
1
0
LINE
5
11F
100
AcDbEntity
8
2
62
256
6
ByLayer
370
13
48
1
60
0
100
AcDbLine
10
31.0175
20
1.69
30
0
11
44.083343
21
1.69
31
0
39
0
210
0
220
0
230
1
0
LINE
5
120
100
AcDbEntity
8
2
62
256
6
ByLayer
370
13
48
1
60
0
100
AcDbLine
10
42.083343
20
29.404635
30
0
11
42.083343
21
-10.44
31
0
39
0
210
0
220
0
230
1
0
SOLID
5
121
100
AcDbEntity
8
2
62
256
6
ByLayer
370
13
48
1
60
0
100
AcDbTrace
10
42.083343
20
-1.69
30
0
11
42.544126
21
-5.189998
31
0
12
41.622559
22
-5.190002
32
0
13
42.083343
23
-1.69
33
0
39
0
210
0
220
0
230
1
0
SOLID
5
122
100
AcDbEntity
8
2
62
256
6
ByLayer
370
13
48
1
60
0
100
AcDbTrace
10
42.083343
20
1.69
30
0
11
41.622559
21
5.189998
31
0
12
42.544126
22
5.190002
32
0
13
42.083343
23
1.69
33
0
39
0
210
0
220
0
230
1
0
ENDBLK
5
124
100
AcDbEntity
8
0
100
AcDbBlockEnd
0
ENDSEC
0
SECTION
2
ENTITIES
0
ARC
5
99
100
AcDbEntity
8
1
62
256
6
ByLayer
370
18
48
1
60
0
100
AcDbCircle
39
0
10
0
20
2.2
30
0
40
0.799999999999998
210
0
220
0
230
1
100
AcDbArc
50
9.833608
51
90
0
ARC
5
9A
100
AcDbEntity
8
1
62
256
6
ByLayer
370
18
48
1
60
0
100
AcDbCircle
39
0
10
0
20
-2.2
30
0
40
0.799999999999998
210
0
220
0
230
1
100
AcDbArc
50
270
51
350.166392
0
ARC
5
9B
100
AcDbEntity
8
1
62
256
6
ByLayer
370
18
48
1
60
0
100
AcDbCircle
39
0
10
-1.576493
20
2.47326
30
0
40
0.799999999999998
210
0
220
0
230
-1
100
AcDbArc
50
269.965623
51
350.166392
0
ARC
5
9C
100
AcDbEntity
8
1
62
256
6
ByLayer
370
18
48
1
60
0
100
AcDbCircle
39
0
10
-1.576493
20
-2.47326
30
0
40
0.799999999999998
210
0
220
0
230
-1
100
AcDbArc
50
9.833608
51
90.034377
0
ELLIPSE
5
9D
100
AcDbEntity
8
1
62
256
6
ByLayer
370
18
48
1
60
0
100
AcDbEllipse
10
4.25
20
-1.833495
30
0
11
0.25
21
0
31
0
210
0
220
0
230
1
40
1
41
1.57395006886195
42
2.39428418186579
0
ELLIPSE
5
9E
100
AcDbEntity
8
1
62
256
6
ByLayer
370
18
48
1
60
0
100
AcDbEllipse
10
4.25
20
1.833495
30
0
11
0.25
21
0
31
0
210
0
220
0
230
1
40
1
41
-2.38553502866058
42
-1.55850062662996
0
ELLIPSE
5
9F
100
AcDbEntity
8
1
62
256
6
ByLayer
370
18
48
1
60
0
100
AcDbEllipse
10
29.861131
20
0.082527
30
0
11
0.0727819104907613
21
0.301917195725451
31
0
210
0
220
0
230
-1
40
0.478434
41
1.6718125668371
42
2.45976119973823
0
ELLIPSE
5
A0
100
AcDbEntity
8
1
62
256
6
ByLayer
370
18
48
1
60
0
100
AcDbEllipse
10
30.000163
20
0.000369
30
0
11
0.630039920469355
21
1.68772661153063
31
0
210
0
220
0
230
-1
40
0.148387
41
2.83141832982864
42
2.97294133239193
0
ELLIPSE
5
A1
100
AcDbEntity
8
1
62
256
6
ByLayer
370
13
48
1
60
0
100
AcDbEllipse
10
29.758535
20
0.143401
30
0
11
0.153082081612418
21
0.258003636193773
31
0
210
0
220
0
230
1
40
0.454519
41
0.917105603404807
42
2.31336900500033
0
ELLIPSE
5
A2
100
AcDbEntity
8
1
62
256
6
ByLayer
370
18
48
1
60
0
100
AcDbEllipse
10
29.651329
20
0.857437
30
0
11
0.264567604181957
21
-0.708713489273694
31
0
210
0
220
0
230
-1
40
0.148387
41
-1.43967798357696
42
-0.730060677417218
0
ELLIPSE
5
A3
100
AcDbEntity
8
1
62
256
6
ByLayer
370
13
48
1
60
0
100
AcDbEllipse
10
4.176626
20
0.710123
30
0
11
0.0583250152916975
21
0.0812292594526335
31
0
210
0
220
0
230
1
40
0.227709
41
2.19006354096529
42
-3.08031962592196
0
ELLIPSE
5
A4
100
AcDbEntity
8
1
62
256
6
ByLayer
370
13
48
1
60
0
100
AcDbEllipse
10
30.035539
20
0.857437
30
0
11
1.21769487443007
21
-0.471378351754906
31
0
210
0
220
0
230
-1
40
0.435805
41
1.62990477488795
42
1.94608228997274
0
ELLIPSE
5
A5
100
AcDbEntity
8
1
62
256
6
ByLayer
370
13
48
1
60
0
100
AcDbEllipse
10
29.845632
20
0.73424
30
0
11
1.15910354476189
21
-0.79807575128376
31
0
210
0
220
0
230
-1
40
0.533762
41
1.44484622736623
42
1.77126664561005
0
ELLIPSE
5
A6
100
AcDbEntity
8
1
62
256
6
ByLayer
370
13
48
1
60
0
100
AcDbEllipse
10
4.250269
20
0.665681
30
0
11
0.0453732875182392
21
0.0891137743549627
31
0
210
0
220
0
230
1
40
0.193063
41
2.88140561219061
42
-1.92953057782617
0
ELLIPSE
5
A7
100
AcDbEntity
8
1
62
256
6
ByLayer
370
18
48
1
60
0
100
AcDbEllipse
10
30.067378
20
-0.039846
30
0
11
0.133321008233007
21
-0.425213611909376
31
0
210
0
220
0
230
-1
40
0.112798
41
1.74118916714946
42
2.34950393582962
0
ELLIPSE
5
A8
100
AcDbEntity
8
1
62
256
6
ByLayer
370
18
48
1
60
0
100
AcDbEllipse
10
30.000163
20
-0.000369
30
0
11
0.630039925361943
21
-1.68772662625767
31
0
210
0
220
0
230
-1
40
0.148387
41
-2.97294133314544
42
-2.83141833120975
0
ELLIPSE
5
A9
100
AcDbEntity
8
1
62
256
6
ByLayer
370
18
48
1
60
0
100
AcDbEllipse
10
30.067378
20
0.039846
30
0
11
0.133321008276812
21
0.42521361201793
31
0
210
0
220
0
230
-1
40
0.112798
41
-2.3495039358497
42
-1.7411891673067
0
ELLIPSE
5
AA
100
AcDbEntity
8
1
62
256
6
ByLayer
370
18
48
1
60
0
100
AcDbEllipse
10
29.651329
20
-0.857437
30
0
11
0.264567604182984
21
0.708713489275681
31
0
210
0
220
0
230
-1
40
0.148387
41
0.730060677416288
42
1.4396779835745
0
POINT
5
6C
100
AcDbEntity
8
81
62
256
6
ByLayer
370
18
48
1
60
0
100
AcDbPoint
10
30
20
0
30
0
39
0
210
0
220
0
230
1
50
360
0
POINT
5
6E
100
AcDbEntity
8
80
62
256
6
ByLayer
370
18
48
1
60
0
100
AcDbPoint
10
0
20
0
30
0
39
0
210
0
220
0
230
1
50
360
0
POINT
5
70
100
AcDbEntity
8
SK2
62
256
6
ByLayer
370
18
48
1
60
1
100
AcDbPoint
10
-36
20
-3
30
0
39
0
210
0
220
0
230
1
50
360
0
POINT
5
72
100
AcDbEntity
8
SK2
62
256
6
ByLayer
370
18
48
1
60
1
100
AcDbPoint
10
-36
20
3
30
0
39
0
210
0
220
0
230
1
50
360
0
POINT
5
73
100
AcDbEntity
8
2
62
256
6
ByLayer
370
18
48
1
60
1
100
AcDbPoint
10
29.43
20
-1.69
30
0
39
0
210
0
220
0
230
1
50
360
0
POINT
5
75
100
AcDbEntity
8
2
62
256
6
ByLayer
370
18
48
1
60
1
100
AcDbPoint
10
29.43
20
1.69
30
0
39
0
210
0
220
0
230
1
50
360
0
SPLINE
5
AB
100
AcDbEntity
8
1
62
256
6
ByLayer
370
18
48
1
60
0
100
AcDbSpline
70
4
71
2
72
6
73
3
40
0
40
0
40
0
40
1
40
1
40
1
41
1
10
5.49035587142862
20
1.58429402705781
30
0
41
1
10
4.87084716806328
20
1.58529456152755
30
0
41
1
10
4.25114073647234
20
1.58280755949909
30
0
0
SPLINE
5
AC
100
AcDbEntity
8
1
62
256
6
ByLayer
370
18
48
1
60
0
100
AcDbSpline
70
4
71
3
72
18
73
14
40
0
40
0
40
0
40
0
40
0.152541740495637
40
0.272577220293857
40
0.360208317392809
40
0.416668234782216
40
0.463153804821608
40
0.506689247784978
40
0.547989772303533
40
0.602625497114586
40
0.676833622949579
40
0.824638814062224
40
1
40
1
40
1
40
1
41
1
10
10.2153416914861
20
-1.5858441760607
30
0
41
1
10
10.4589247433251
20
-1.58597619387029
30
0
41
1
10
10.8943813489447
20
-1.5863586099907
30
0
41
1
10
11.4706854743652
20
-1.58614866231443
30
0
41
1
10
11.8930373019264
20
-1.58753430151091
30
0
41
1
10
12.1976047320682
20
-1.58713463279184
30
0
41
1
10
12.4316595806527
20
-1.58762769518859
30
0
41
1
10
12.641538757238
20
-1.58872846106942
30
0
41
1
10
12.8645175854059
20
-1.58776021550776
30
0
41
1
10
13.1366043519
20
-1.58735662591187
30
0
41
1
10
13.5790384644163
20
-1.59000485742146
30
0
41
1
10
14.214671212723
20
-1.58881242479831
30
0
41
1
10
14.7313995195943
20
-1.58951833143305
30
0
41
1
10
15.0117670447975
20
-1.58969338393953
30
0
0
SPLINE
5
AD
100
AcDbEntity
8
1
62
256
6
ByLayer
370
18
48
1
60
0
100
AcDbSpline
70
4
71
3
72
18
73
14
40
0
40
0
40
0
40
0
40
0.145208768949635
40
0.2604798108522
40
0.345749659386256
40
0.401989633141063
40
0.448450340432671
40
0.491992020510001
40
0.533230346498626
40
0.588329682885145
40
0.664363785729553
40
0.817271093867559
40
1
40
1
40
1
40
1
41
1
10
19.737225433327
20
-1.59178605038159
30
0
41
1
10
19.9689995656501
20
-1.59185089116133
30
0
41
1
10
20.3849548377591
20
-1.59205898863266
30
0
41
1
10
20.9378782376747
20
-1.59193667076673
30
0
41
1
10
21.348337744848
20
-1.59276809309191
30
0
41
1
10
21.6486311029311
20
-1.59219879380078
30
0
41
1
10
21.8822319771214
20
-1.59328595431359
30
0
41
1
10
22.0919190622693
20
-1.5933348192676
30
0
41
1
10
22.3154809172562
20
-1.59273957293621
30
0
41
1
10
22.5910379001824
20
-1.5934344418942
30
0
41
1
10
23.0450989894611
20
-1.59382252455217
30
0
41
1
10
23.7032991539248
20
-1.59330273174294
30
0
41
1
10
24.2397973404707
20
-1.59408723771082
30
0
41
1
10
24.5318657700104
20
-1.59464038437884
30
0
0
SPLINE
5
AE
100
AcDbEntity
8
1
62
256
6
ByLayer
370
18
48
1
60
0
100
AcDbSpline
70
4
71
3
72
15
73
11
40
0
40
0
40
0
40
0
40
0.190578683822334
40
0.3401395007931
40
0.46559127143626
40
0.553670626345566
40
0.655545221862131
40
0.79559526749057
40
0.97752203238931
40
1
40
1
40
1
40
1
41
1
10
15.0188557484395
20
1.58970273021194
30
0
41
1
10
14.764929866183
20
1.5897798511443
30
0
41
1
10
14.311698960764
20
1.58966424589818
30
0
41
1
10
13.6907789077059
20
1.58823930989996
30
0
41
1
10
13.2071517655074
20
1.58766718528145
30
0
41
1
10
12.786597551014
20
1.58827464062546
30
0
41
1
10
12.3466672173021
20
1.58735476224055
30
0
41
1
10
11.7818305021109
20
1.58752545602107
30
0
41
1
10
11.3225316248273
20
1.58675863411253
30
0
41
1
10
11.0500870205294
20
1.58645656773353
30
0
41
1
10
11.0201281035117
20
1.58642501428545
30
0
0
SPLINE
5
AF
100
AcDbEntity
8
1
62
256
6
ByLayer
370
18
48
1
60
0
100
AcDbSpline
70
4
71
1
72
4
73
2
40
0
40
0
40
1
40
1
41
1
10
29.218955062596
20
-1.59718687236446
30
0
41
1
10
29.3894796157762
20
-1.59491219122782
30
0
0
SPLINE
5
B0
100
AcDbEntity
8
1
62
256
6
ByLayer
370
18
48
1
60
0
100
AcDbSpline
70
4
71
3
72
9
73
5
40
0
40
0
40
0
40
0
40
0.420459313165634
40
1
40
1
40
1
40
1
41
1
10
24.5902455161666
20
-0.353337695062095
30
0
41
1
10
24.588924519262
20
-0.353540234712796
30
0
41
1
10
24.6055292991905
20
-0.36412880850736
30
0
41
1
10
24.6387050249792
20
-0.383246371894529
30
0
41
1
10
24.6673184224663
20
-0.399140150310046
30
0
0
SPLINE
5
B1
100
AcDbEntity
8
1
62
256
6
ByLayer
370
18
48
1
60
0
100
AcDbSpline
70
4
71
3
72
17
73
13
40
0
40
0
40
0
40
0
40
0.151491251802206
40
0.280904910549501
40
0.371480995230902
40
0.461566504739004
40
0.531522472780728
40
0.609954588110716
40
0.710819618090209
40
0.840274139240347
40
0.997962791033042
40
1
40
1
40
1
40
1
41
1
10
24.5364917807927
20
1.59459687738143
30
0
41
1
10
24.3317458027812
20
1.59397017336906
30
0
41
1
10
23.9520942566707
20
1.59309070213996
30
0
41
1
10
23.4500377527282
20
1.59377858523342
30
0
41
1
10
23.0309637636966
20
1.59316275388335
30
0
41
1
10
22.6922607374571
20
1.59423180407035
30
0
41
1
10
22.3699127569738
20
1.5923566828198
30
0
41
1
10
22.0329994627292
20
1.59375422857258
30
0
41
1
10
21.6157747140315
20
1.59193593257464
30
0
41
1
10
21.0914536174594
20
1.59291391448889
30
0
41
1
10
20.7004754023463
20
1.59228238964008
30
0
41
1
10
20.4846252590839
20
1.59208739500704
30
0
41
1
10
20.4818722346765
20
1.59208493266777
30
0
0
SPLINE
5
B2
100
AcDbEntity
8
1
62
256
6
ByLayer
370
18
48
1
60
0
100
AcDbSpline
70
4
71
2
72
6
73
3
40
0
40
0
40
0
40
1
40
1
40
1
41
1
10
4.25114073647242
20
-1.58280755949912
30
0
41
1
10
4.87088651148414
20
-1.58529466735718
30
0
41
1
10
5.49043454571608
20
-1.58429401728645
30
0
0
SPLINE
5
B3
100
AcDbEntity
8
1
62
256
6
ByLayer
370
18
48
1
60
0
100
AcDbSpline
70
4
71
3
72
8
73
4
40
0
40
0
40
0
40
0
40
1
40
1
40
1
40
1
41
1
10
15.0754321214236
20
-0.358781591564366
30
0
41
1
10
15.0754010627921
20
-0.359552109489329
30
0
41
1
10
15.0778357771797
20
-0.361370616437796
30
0
41
1
10
15.0837235532866
20
-0.364680767462374
30
0
0
SPLINE
5
B4
100
AcDbEntity
8
1
62
256
6
ByLayer
370
13
48
1
60
0
100
AcDbSpline
70
4
71
3
72
24
73
20
40
0
40
0
40
0
40
0
40
0.102595732400779
40
0.102595732400779
40
0.205191464801558
40
0.205191464801558
40
0.410382929603119
40
0.410382929603119
40
0.461680795803509
40
0.461680795803509
40
0.512978662003899
40
0.512978662003899
40
0.615574394404681
40
0.615574394404681
40
0.718170126805463
40
0.718170126805463
40
0.820765859206245
40
0.820765859206245
40
1
40
1
40
1
40
1
41
1
10
29.432709081409
20
-1.5954104927014
30
0
41
1
10
29.1698247188366
20
-1.60225213504128
30
0
41
1
10
28.9082211960038
20
-1.59085277998403
30
0
41
1
10
28.3844235311518
20
-1.53303967540216
30
0
41
1
10
28.1219470132613
20
-1.48655972922509
30
0
41
1
10
27.3294720394712
20
-1.29701871630678
30
0
41
1
10
26.8112981561128
20
-1.10824751983776
30
0
41
1
10
26.1576201825712
20
-0.820672405431651
30
0
41
1
10
26.0265824464222
20
-0.760591720541072
30
0
41
1
10
25.7634660621633
20
-0.635892975249362
30
0
41
1
10
25.6310497552073
20
-0.571081316296358
30
0
41
1
10
25.236341339102
20
-0.37370808957823
30
0
41
1
10
24.9752927245682
20
-0.237635668157537
30
0
41
1
10
24.453574622173
20
0.0361110078460456
30
0
41
1
10
24.1928879890096
20
0.173755225343967
30
0
41
1
10
23.6687058338085
20
0.444450741646705
30
0
41
1
10
23.4034452278485
20
0.577561659116355
30
0
41
1
10
22.6824993189896
20
0.918109606571903
30
0
41
1
10
22.2288650310454
20
1.10768399445962
30
0
41
1
10
21.7704066453393
20
1.25577456130952
30
0
0
SPLINE
5
B5
100
AcDbEntity
8
1
62
256
6
ByLayer
370
18
48
1
60
0
100
AcDbSpline
70
4
71
3
72
12
73
8
40
0
40
0
40
0
40
0
40
0.642558652839641
40
0.642558652839641
40
0.842358188820903
40
0.842358188820903
40
1
40
1
40
1
40
1
41
1
10
10.2418701951204
20
-1.58587674166225
30
0
41
1
10
9.82076090582171
20
-1.58549483701125
30
0
41
1
10
9.40233811386716
20
-1.5391656786901
30
0
41
1
10
8.84721770027321
20
-1.42120508896616
30
0
41
1
10
8.71463345895404
20
-1.38887442428674
30
0
41
1
10
8.47866279236604
20
-1.3244591031137
30
0
41
1
10
8.37492658008114
20
-1.29375743033751
30
0
41
1
10
8.27141049099259
20
-1.26091733626632
30
0
0
SPLINE
5
B6
100
AcDbEntity
8
1
62
256
6
ByLayer
370
13
48
1
60
0
100
AcDbSpline
70
4
71
3
72
20
73
16
40
0
40
0
40
0
40
0
40
0.0206640008041143
40
0.0206640008041143
40
0.216531200643291
40
0.216531200643291
40
0.412398400482468
40
0.412398400482468
40
0.608265600321645
40
0.608265600321645
40
0.804132800160822
40
0.804132800160822
40
0.902066400080411
40
0.902066400080411
40
1
40
1
40
1
40
1
41
1
10
8.27141049135227
20
-1.26091733638037
30
0
41
1
10
8.24372746244848
20
-1.25213499847291
30
0
41
1
10
8.21606017617555
20
-1.24319972631054
30
0
41
1
10
7.926286098996
20
-1.14799834570363
30
0
41
1
10
7.66534594368588
20
-1.04843474614302
30
0
41
1
10
7.14218072357653
20
-0.827824027759561
30
0
41
1
10
6.87990261333886
20
-0.706741587591807
30
0
41
1
10
6.35038898820628
20
-0.448917224483154
30
0
41
1
10
6.0881496037851
20
-0.314697595477469
30
0
41
1
10
5.56486238869769
20
-0.0431443632624564
30
0
41
1
10
5.30393259995236
20
0.094420809246742
30
0
41
1
10
4.91069608026527
20
0.29775227670018
30
0
41
1
10
4.77930232484249
20
0.365011811867618
30
0
41
1
10
4.51539624677557
20
0.497541687569338
30
0
41
1
10
4.38278525733961
20
0.562839404644279
30
0
41
1
10
4.25044802549314
20
0.626191798623012
30
0
0
SPLINE
5
B7
100
AcDbEntity
8
1
62
256
6
ByLayer
370
18
48
1
60
0
100
AcDbSpline
70
4
71
3
72
20
73
16
40
0
40
0
40
0
40
0
40
0.203285254480339
40
0.203285254480339
40
0.336071045400283
40
0.336071045400283
40
0.468856836320226
40
0.468856836320226
40
0.60164262724017
40
0.60164262724017
40
0.734428418160113
40
0.734428418160113
40
0.867214209080057
40
0.867214209080057
40
1
40
1
40
1
40
1
41
1
10
29.3866860375163
20
-1.59514936778285
30
0
41
1
10
29.3528214345953
20
-1.59028504681717
30
0
41
1
10
29.3217719883098
20
-1.57740540509255
30
0
41
1
10
29.2754735766785
20
-1.54178420980591
30
0
41
1
10
29.2586252625959
20
-1.52400358691287
30
0
41
1
10
29.2285851499152
20
-1.48170362364243
30
0
41
1
10
29.2152750344242
20
-1.45710321748965
30
0
41
1
10
29.1921667471242
20
-1.40081578777548
30
0
41
1
10
29.1823673067059
20
-1.3691313240933
30
0
41
1
10
29.166533305182
20
-1.29816539014607
30
0
41
1
10
29.1606531478112
20
-1.25948246573574
30
0
41
1
10
29.1530029638757
20
-1.17666826469102
30
0
41
1
10
29.1512054470937
20
-1.13241550317488
30
0
41
1
10
29.151707591274
20
-1.03815967357943
30
0
41
1
10
29.1540411083113
20
-0.987816908752706
30
0
41
1
10
29.1584464912137
20
-0.935378785543122
30
0
0
SPLINE
5
B8
100
AcDbEntity
8
1
62
256
6
ByLayer
370
18
48
1
60
0
100
AcDbSpline
70
4
71
3
72
21
73
17
40
0
40
0
40
0
40
0
40
0.180083947893337
40
0.180083947893337
40
0.270125921840006
40
0.270125921840006
40
0.360167895786675
40
0.450209869733344
40
0.450209869733344
40
0.540251843680012
40
0.540251843680012
40
0.72033579157335
40
0.72033579157335
40
0.900419739466687
40
0.900419739466687
40
1
40
1
40
1
40
1
41
1
10
4.05615911359422
20
0.728790328722994
30
0
41
1
10
4.05622980321968
20
0.829974565425317
30
0
41
1
10
4.0562919685907
20
0.925319894416702
30
0
41
1
10
4.05637640442336
20
1.0595536662546
30
0
41
1
10
4.05640314124645
20
1.10293793652963
30
0
41
1
10
4.05645331072446
20
1.1850277698787
30
0
41
1
10
4.05650044794282
20
1.26286211902243
30
0
41
1
10
4.05654299795256
20
1.33230472158269
30
0
41
1
10
4.05658388898473
20
1.39748302536779
30
0
41
1
10
4.05660356644029
20
1.42801998762894
30
0
41
1
10
4.05665979401215
20
1.51130370000223
30
0
41
1
10
4.05669401110461
20
1.55646267520254
30
0
41
1
10
4.05675957317172
20
1.62624468021545
30
0
41
1
10
4.05679103998904
20
1.65068964211019
30
0
41
1
10
4.05683671911325
20
1.67069709127458
30
0
41
1
10
4.05685247088266
20
1.67444072262975
30
0
41
1
10
4.05686763663769
20
1.67474791064689
30
0
0
SPLINE
5
B9
100
AcDbEntity
8
1
62
256
6
ByLayer
370
18
48
1
60
0
100
AcDbSpline
70
4
71
3
72
64
73
60
40
0
40
0
40
0
40
0
40
0.0355725119810932
40
0.0355725119810932
40
0.0973332988838886
40
0.0973332988838886
40
0.128213692335286
40
0.128213692335286
40
0.159094085786684
40
0.159094085786684
40
0.189974479238082
40
0.189974479238082
40
0.220854872689479
40
0.220854872689479
40
0.251735266140877
40
0.251735266140877
40
0.282615659592275
40
0.282615659592275
40
0.313496053043673
40
0.313496053043673
40
0.34437644649507
40
0.34437644649507
40
0.406137233397866
40
0.406137233397866
40
0.467898020300661
40
0.467898020300661
40
0.498778413752059
40
0.498778413752059
40
0.529658807203458
40
0.529658807203458
40
0.560539200654856
40
0.560539200654856
40
0.591419594106254
40
0.591419594106254
40
0.622299987557653
40
0.622299987557653
40
0.653180381009051
40
0.653180381009051
40
0.68406077446045
40
0.68406077446045
40
0.714941167911848
40
0.714941167911848
40
0.745821561363246
40
0.745821561363246
40
0.776701954814645
40
0.776701954814645
40
0.838462741717442
40
0.838462741717442
40
0.869343135168841
40
0.869343135168841
40
0.90022352862024
40
0.90022352862024
40
0.931103922071639
40
0.931103922071639
40
0.961984315523038
40
0.961984315523038
40
0.992864708974437
40
0.992864708974437
40
1
40
1
40
1
40
1
41
1
10
5.49071687423373
20
1.58432159196232
30
0
41
1
10
5.62735474903766
20
1.58466080862849
30
0
41
1
10
5.76387466702249
20
1.58025929465415
30
0
41
1
10
6.13706296260182
20
1.55410357068098
30
0
41
1
10
6.37530392161125
20
1.52357224826343
30
0
41
1
10
6.73070529505426
20
1.45639427416211
30
0
41
1
10
6.84899172607265
20
1.43046290038669
30
0
41
1
10
7.08602179027812
20
1.37288891412459
30
0
41
1
10
7.20469415297737
20
1.34115435229984
30
0
41
1
10
7.44227333890319
20
1.27078099116577
30
0
41
1
10
7.56082474503472
20
1.23215722348428
30
0
41
1
10
7.79790104980373
20
1.15037435843999
30
0
41
1
10
7.91644140743935
20
1.1071397011269
30
0
41
1
10
8.15343406025681
20
1.01530435087383
30
0
41
1
10
8.2718608074498
20
0.966546225042322
30
0
41
1
10
8.50929024120495
20
0.864823517125132
30
0
41
1
10
8.62819527040065
20
0.812224288051567
30
0
41
1
10
8.86541023081571
20
0.703635032319937
30
0
41
1
10
8.98376287939766
20
0.647330785863005
30
0
41
1
10
9.2205129483757
20
0.531822026850904
30
0
41
1
10
9.33911521752532
20
0.473185301389236
30
0
41
1
10
9.6955270252966
20
0.293698929238246
30
0
41
1
10
9.93234068552135
20
0.169191203235329
30
0
41
1
10
10.406484204144
20
-0.0781747603026304
30
0
41
1
10
10.6439765924977
20
-0.203563639137315
30
0
41
1
10
10.9999192284495
20
-0.385833995953789
30
0
41
1
10
11.1184436649443
20
-0.445682263220931
30
0
41
1
10
11.3553315761869
20
-0.56335156015075
30
0
41
1
10
11.4737237361065
20
-0.621211872788621
30
0
41
1
10
11.7111441820476
20
-0.733897332054084
30
0
41
1
10
11.8301516192918
20
-0.788679295359827
30
0
41
1
10
12.0672409842679
20
-0.893769431225991
30
0
41
1
10
12.1854668849495
20
-0.944561351586941
30
0
41
1
10
12.4223042310466
20
-1.04164734308938
30
0
41
1
10
12.540877843925
20
-1.0882692511075
30
0
41
1
10
12.778332659896
20
-1.17533964580701
30
0
41
1
10
12.8971083747667
20
-1.21607715336967
30
0
41
1
10
13.1341239277709
20
-1.29235857685225
30
0
41
1
10
13.2526527716579
20
-1.32812523447265
30
0
41
1
10
13.4897654937633
20
-1.39288030246263
30
0
41
1
10
13.6083016811347
20
-1.42120582399531
30
0
41
1
10
13.8456044691386
20
-1.47237960108012
30
0
41
1
10
13.9644881685635
20
-1.49487074699925
30
0
41
1
10
14.2018265228894
20
-1.5335387662648
30
0
41
1
10
14.3202976874004
20
-1.54878387662629
30
0
41
1
10
14.6756261456047
20
-1.58356235937703
30
0
41
1
10
14.9137129126405
20
-1.59391655973022
30
0
41
1
10
15.2691780074235
20
-1.58522686120037
30
0
41
1
10
15.3874195321349
20
-1.5786169619731
30
0
41
1
10
15.624440838255
20
-1.55922068557581
30
0
41
1
10
15.743072630252
20
-1.5460546727648
30
0
41
1
10
15.9806314836705
20
-1.51151878078687
30
0
41
1
10
16.0992481375342
20
-1.49047992824578
30
0
41
1
10
16.3362742355342
20
-1.44282339632972
30
0
41
1
10
16.4548404912946
20
-1.41603031736813
30
0
41
1
10
16.691921205611
20
-1.35496341147714
30
0
41
1
10
16.8103811146239
20
-1.32073980137991
30
0
41
1
10
16.956566690507
20
-1.27541412389834
30
0
41
1
10
16.9840081336152
20
-1.26678068432764
30
0
41
1
10
17.0114491687499
20
-1.2580131327945
30
0
0
SPLINE
5
BA
100
AcDbEntity
8
1
62
256
6
ByLayer
370
18
48
1
60
0
100
AcDbSpline
70
4
71
3
72
20
73
16
40
0
40
0
40
0
40
0
40
0.0640541026359814
40
0.0640541026359814
40
0.168048091231981
40
0.168048091231981
40
0.376036068423986
40
0.376036068423986
40
0.58402404561599
40
0.58402404561599
40
0.792012022808
40
0.792012022808
40
0.896006011404
40
0.896006011404
40
1
40
1
40
1
40
1
41
1
10
24.5361197285156
20
1.59485372883833
30
0
41
1
10
24.6090667959116
20
1.59473935644078
30
0
41
1
10
24.6819279036656
20
1.59316187129312
30
0
41
1
10
24.8731900489639
20
1.58541353988946
30
0
41
1
10
24.9916706530675
20
1.57697517200151
30
0
41
1
10
25.3473493597158
20
1.54139479187606
30
0
41
1
10
25.5846985562175
20
1.50472658161934
30
0
41
1
10
26.0584634922876
20
1.403516870712
30
0
41
1
10
26.2952547363391
20
1.33824497546385
30
0
41
1
10
26.769881713041
20
1.18555508702482
30
0
41
1
10
27.0060137151658
20
1.09739192719303
30
0
41
1
10
27.3616526368293
20
0.952285961108458
30
0
41
1
10
27.4805945062089
20
0.901447437382274
30
0
41
1
10
27.7176638868544
20
0.795602353787956
30
0
41
1
10
27.8358269227635
20
0.740583812005411
30
0
41
1
10
27.9541604930262
20
0.684402649496491
30
0
0
SPLINE
5
BB
100
AcDbEntity
8
1
62
256
6
ByLayer
370
18
48
1
60
0
100
AcDbSpline
70
4
71
3
72
8
73
4
40
0
40
0
40
0
40
0
40
1
40
1
40
1
40
1
41
1
10
29.4210988794981
20
1.67910466322752
30
0
41
1
10
29.3057025134436
20
1.68634998155756
30
0
41
1
10
29.1900825082021
20
1.68986751223673
30
0
41
1
10
29.074555508038
20
1.68971707238632
30
0
0
SPLINE
5
BC
100
AcDbEntity
8
1
62
256
6
ByLayer
370
18
48
1
60
0
100
AcDbSpline
70
4
71
3
72
38
73
34
40
0
40
0
40
0
40
0
40
0.0178854869100638
40
0.0178854869100638
40
0.0553652010453443
40
0.0553652010453443
40
0.205284057586471
40
0.205284057586471
40
0.355202914127598
40
0.355202914127598
40
0.39268262826288
40
0.39268262826288
40
0.430162342398161
40
0.430162342398161
40
0.505121770668724
40
0.505121770668724
40
0.580081198939287
40
0.580081198939287
40
0.617560913074569
40
0.617560913074569
40
0.655040627209851
40
0.655040627209851
40
0.804959483750977
40
0.804959483750977
40
0.842439197886259
40
0.842439197886259
40
0.87991891202154
40
0.87991891202154
40
0.954878340292101
40
0.954878340292101
40
0.992358054427382
40
0.992358054427382
40
1
40
1
40
1
40
1
41
1
10
20.5524858073724
20
-1.59462368601618
30
0
41
1
10
20.4893495883354
20
-1.60591127852473
30
0
41
1
10
20.4261922037865
20
-1.61616578500284
30
0
41
1
10
20.2312036916954
20
-1.64452752097424
30
0
41
1
10
20.0997759330813
20
-1.65900958453682
30
0
41
1
10
19.4445281359321
20
-1.70794212673121
30
0
41
1
10
18.9254175987928
20
-1.67165031582411
30
0
41
1
10
17.8654229225968
20
-1.4505780401405
30
0
41
1
10
17.3462131173481
20
-1.27106400131257
30
0
41
1
10
16.6907458164232
20
-0.985098562667332
30
0
41
1
10
16.5593134719503
20
-0.924848613812003
30
0
41
1
10
16.2952601886656
20
-0.79888200169782
30
0
41
1
10
16.1624678163235
20
-0.733059551649262
30
0
41
1
10
15.7670352723421
20
-0.531436668469837
30
0
41
1
10
15.505550430869
20
-0.390638556405833
30
0
41
1
10
14.9828020267318
20
-0.10365342515496
30
0
41
1
10
14.7215176783619
20
0.0424959763520292
30
0
41
1
10
14.326685014276
20
0.260151430218144
30
0
41
1
10
14.1942012415474
20
0.332654082335637
30
0
41
1
10
13.9296197478207
20
0.47515063991176
30
0
41
1
10
13.7979515107776
20
0.544836702406002
30
0
41
1
10
13.1414687040139
20
0.883529055119993
30
0
41
1
10
12.6225966000694
20
1.12381562158677
30
0
41
1
10
11.960948451826
20
1.35355053583564
30
0
41
1
10
11.8283830666921
20
1.39580329854024
30
0
41
1
10
11.5651167685178
20
1.47169013231346
30
0
41
1
10
11.4339498815359
20
1.505400858765
30
0
41
1
10
11.0410864871966
20
1.59344376611588
30
0
41
1
10
10.7801807364305
20
1.63476806380851
30
0
41
1
10
10.387023773754
20
1.66892774492379
30
0
41
1
10
10.2556905621914
20
1.67569349311856
30
0
41
1
10
10.0969781923208
20
1.67811237941825
30
0
41
1
10
10.0700558587324
20
1.67832232112349
30
0
41
1
10
10.0431058971706
20
1.67833292013916
30
0
0
SPLINE
5
BD
100
AcDbEntity
8
1
62
256
6
ByLayer
370
18
48
1
60
0
100
AcDbSpline
70
4
71
3
72
38
73
34
40
0
40
0
40
0
40
0
40
0.0399169923031827
40
0.0399169923031827
40
0.0798339846063654
40
0.0798339846063654
40
0.159667969212728
40
0.159667969212728
40
0.23950195381909
40
0.23950195381909
40
0.319335938425452
40
0.319335938425452
40
0.479003907638178
40
0.479003907638178
40
0.518920899941359
40
0.518920899941359
40
0.55883789224454
40
0.55883789224454
40
0.638671876850899
40
0.638671876850899
40
0.678588869154078
40
0.678588869154078
40
0.718505861457257
40
0.718505861457257
40
0.798339846063614
40
0.798339846063614
40
0.878173830669971
40
0.878173830669971
40
0.918090822973149
40
0.918090822973149
40
0.958007815276328
40
0.958007815276328
40
1
40
1
40
1
40
1
41
1
10
29.4210988794981
20
-1.67910466322752
30
0
41
1
10
29.2888846647446
20
-1.68740591314028
30
0
41
1
10
29.1567968037104
20
-1.69084668549505
30
0
41
1
10
28.8924058978357
20
-1.68808362828068
30
0
41
1
10
28.7597948006843
20
-1.6818460635597
30
0
41
1
10
28.3639166182302
20
-1.64897004970712
30
0
41
1
10
28.1024476443564
20
-1.60824686905812
30
0
41
1
10
27.5801195136864
20
-1.49240955944717
30
0
41
1
10
27.3192418367317
20
-1.41732992618395
30
0
41
1
10
26.7941140763645
20
-1.23603947943275
30
0
41
1
10
26.5283613834679
20
-1.1291509919366
30
0
41
1
10
25.7406135014689
20
-0.777589602775066
30
0
41
1
10
25.222680557784
20
-0.500299015954681
30
0
41
1
10
24.5628058284401
20
-0.136255878646551
30
0
41
1
10
24.430038659084
20
-0.0624970575345571
30
0
41
1
10
24.166524879728
20
0.0839313789233245
30
0
41
1
10
24.0353465261733
20
0.156882954965766
30
0
41
1
10
23.6427669201813
20
0.373541414264906
30
0
41
1
10
23.3820081753793
20
0.514488264061697
30
0
41
1
10
22.989672550371
20
0.716025816568532
30
0
41
1
10
22.8586481872901
20
0.78147621177024
30
0
41
1
10
22.5955769849739
20
0.907996458034745
30
0
41
1
10
22.4631403691878
20
0.969256543786599
30
0
41
1
10
22.066616548825
20
1.14410590177585
30
0
41
1
10
21.8047151219603
20
1.2475671167299
30
0
41
1
10
21.2821230951285
20
1.42456072467587
30
0
41
1
10
21.0212051468125
20
1.49783711099585
30
0
41
1
10
20.6276947170789
20
1.58216505531914
30
0
41
1
10
20.4961341362096
20
1.60597611843485
30
0
41
1
10
20.2316621833039
20
1.64447712270956
30
0
41
1
10
20.0992103346774
20
1.65907666655897
30
0
41
1
10
19.8293185599794
20
1.67918043960893
30
0
41
1
10
19.6914728282048
20
1.68421901213219
30
0
41
1
10
19.553857258084
20
1.6840492892303
30
0
0
SPLINE
5
BE
100
AcDbEntity
8
1
62
256
6
ByLayer
370
18
48
1
60
0
100
AcDbSpline
70
4
71
3
72
26
73
22
40
0
40
0
40
0
40
0
40
0.0656914824521174
40
0.0656914824521174
40
0.182480047145605
40
0.182480047145605
40
0.240874329492348
40
0.240874329492348
40
0.299268611839092
40
0.299268611839092
40
0.416057176532577
40
0.416057176532577
40
0.474451458879318
40
0.474451458879318
40
0.53284574122606
40
0.53284574122606
40
0.766422870613029
40
0.766422870613029
40
0.883211435306515
40
0.883211435306515
40
1
40
1
40
1
40
1
41
1
10
10.9582411246862
20
-1.60194169057254
30
0
41
1
10
10.8110758973849
20
-1.62626139365099
30
0
41
1
10
10.6641164806797
20
-1.64488165441571
30
0
41
1
10
10.2553680178165
20
-1.68031437800306
30
0
41
1
10
9.99335819686428
20
-1.68450800225838
30
0
41
1
10
9.59636080728802
20
-1.66193211384069
30
0
41
1
10
9.4637638375641
20
-1.64959195848954
30
0
41
1
10
9.20045723318245
20
-1.61578852880095
30
0
41
1
10
9.06928940030238
20
-1.59432386711381
30
0
41
1
10
8.67645984567764
20
-1.5168987544705
30
0
41
1
10
8.41546674160898
20
-1.44791060184337
30
0
41
1
10
8.02232550899248
20
-1.32097815758286
30
0
41
1
10
7.89101257670774
20
-1.27474779859594
30
0
41
1
10
7.62730507136521
20
-1.17494707013441
30
0
41
1
10
7.49444566916611
20
-1.12117530343599
30
0
41
1
10
6.8336859909866
20
-0.838483053310398
30
0
41
1
10
6.31464120484597
20
-0.567946232860692
30
0
41
1
10
5.52559083331047
20
-0.138087088579084
30
0
41
1
10
5.25982107279265
20
0.0101865906918306
30
0
41
1
10
4.73123843046412
20
0.301215760568368
30
0
41
1
10
4.46738252451536
20
0.444429392810832
30
0
41
1
10
4.20199655552574
20
0.581820174743768
30
0
0
SPLINE
5
BF
100
AcDbEntity
8
1
62
256
6
ByLayer
370
18
48
1
60
0
100
AcDbSpline
70
4
71
3
72
16
73
12
40
0
40
0
40
0
40
0
40
0.25
40
0.25
40
0.5
40
0.5
40
0.749999999999999
40
0.749999999999999
40
0.875
40
0.875
40
1
40
1
40
1
40
1
41
1
10
29.7901812043718
20
0.803699191448828
30
0
41
1
10
29.7644151506074
20
0.873364747548067
30
0
41
1
10
29.738574095749
20
0.942977044474418
30
0
41
1
10
29.686530665444
20
1.08194506026106
30
0
41
1
10
29.66060368494
20
1.15149974061703
30
0
41
1
10
29.6086317399939
20
1.29050595583931
30
0
41
1
10
29.5825381000888
20
1.35997183004628
30
0
41
1
10
29.543017154497
20
1.46360685709476
30
0
41
1
10
29.529818576524
20
1.49810511070095
30
0
41
1
10
29.5033959113376
20
1.56705377508692
30
0
41
1
10
29.4901349477195
20
1.60143502381365
30
0
41
1
10
29.4766281751906
20
1.6353552555552
30
0
0
SPLINE
5
C0
100
AcDbEntity
8
1
62
256
6
ByLayer
370
18
48
1
60
0
100
AcDbSpline
70
4
71
3
72
66
73
62
40
0
40
0
40
0
40
0
40
0.0608730822167916
40
0.0608730822167916
40
0.122704561597616
40
0.122704561597616
40
0.153620301288029
40
0.153620301288029
40
0.184536040978442
40
0.184536040978442
40
0.215451780668855
40
0.215451780668855
40
0.246367520359268
40
0.246367520359268
40
0.277283260049681
40
0.277283260049681
40
0.308198999740094
40
0.308198999740094
40
0.339114739430507
40
0.339114739430507
40
0.37003047912092
40
0.37003047912092
40
0.400946218811333
40
0.400946218811333
40
0.431861958501746
40
0.431861958501746
40
0.462777698192158
40
0.462777698192158
40
0.493693437882571
40
0.493693437882571
40
0.524609177572984
40
0.524609177572984
40
0.555524917263397
40
0.555524917263397
40
0.58644065695381
40
0.58644065695381
40
0.617356396644223
40
0.617356396644223
40
0.648272136334636
40
0.648272136334636
40
0.679187876025049
40
0.679187876025049
40
0.741019355405875
40
0.741019355405875
40
0.771935095096287
40
0.771935095096287
40
0.802850834786699
40
0.802850834786699
40
0.833766574477111
40
0.833766574477111
40
0.864682314167524
40
0.864682314167524
40
0.895598053857936
40
0.895598053857936
40
0.926513793548348
40
0.926513793548348
40
0.95742953323876
40
0.95742953323876
40
0.988345272929172
40
0.988345272929172
40
1
40
1
40
1
40
1
41
1
10
26.5220782081907
20
-1.26526763492208
30
0
41
1
10
26.2887787442896
20
-1.34000444441114
30
0
41
1
10
26.055184835997
20
-1.40419974252242
30
0
41
1
10
25.5851730853437
20
-1.50464299475405
30
0
41
1
10
25.3486222898787
20
-1.54122929042558
30
0
41
1
10
24.9925184390115
20
-1.57690932636675
30
0
41
1
10
24.8739902173166
20
-1.58536358838484
30
0
41
1
10
24.6373741436542
20
-1.59498422405804
30
0
41
1
10
24.5192758035663
20
-1.59616705291057
30
0
41
1
10
24.2824258528656
20
-1.59057543349911
30
0
41
1
10
24.163586534087
20
-1.58345998104903
30
0
41
1
10
23.9262067846028
20
-1.56227649377368
30
0
41
1
10
23.8078258746259
20
-1.54869330179596
30
0
41
1
10
23.5709825975272
20
-1.51461565126479
30
0
41
1
10
23.4525003275143
20
-1.49397798693002
30
0
41
1
10
23.2153405025458
20
-1.44532336437069
30
0
41
1
10
23.0966867573462
20
-1.41779844813823
30
0
41
1
10
22.8594439982691
20
-1.3566854301034
30
0
41
1
10
22.7409238729231
20
-1.32307619323055
30
0
41
1
10
22.5039720792195
20
-1.24901269321856
30
0
41
1
10
22.3856520986735
20
-1.20893988817289
30
0
41
1
10
22.1488156104764
20
-1.12415557472792
30
0
41
1
10
22.0300286020639
20
-1.07912889014037
30
0
41
1
10
21.7926097006558
20
-0.984035097156749
30
0
41
1
10
21.6740971910928
20
-0.933953246339456
30
0
41
1
10
21.4374925673582
20
-0.830139415657811
30
0
41
1
10
21.3191944848401
20
-0.776417897621826
30
0
41
1
10
21.0820865875448
20
-0.665553576386515
30
0
41
1
10
20.9631575757327
20
-0.608126903326905
30
0
41
1
10
20.7258932059225
20
-0.490781127891808
30
0
41
1
10
20.607500954674
20
-0.430990070181167
30
0
41
1
10
20.3705469784051
20
-0.310046777288562
30
0
41
1
10
20.2520006071849
20
-0.248846768230891
30
0
41
1
10
20.014810866501
20
-0.12511181079762
30
0
41
1
10
19.8961300256582
20
-0.0623301816431194
30
0
41
1
10
19.6588216886865
20
0.0623406153119959
30
0
41
1
10
19.5402527705096
20
0.124321721379488
30
0
41
1
10
19.3033315403338
20
0.247652645019144
30
0
41
1
10
19.1850490374779
20
0.309230575450158
30
0
41
1
10
18.9480524809489
20
0.430616529612308
30
0
41
1
10
18.8290946554329
20
0.490347706995095
30
0
41
1
10
18.4729596188264
20
0.66513288452154
30
0
41
1
10
18.2367249354387
20
0.777301062966984
30
0
41
1
10
17.8807295665923
20
0.932357204167232
30
0
41
1
10
17.7618234040614
20
0.982193460100433
30
0
41
1
10
17.5246493955382
20
1.07730654692986
30
0
41
1
10
17.4062125689807
20
1.12264776109325
30
0
41
1
10
17.1691775573169
20
1.20707729448176
30
0
41
1
10
17.0505959635678
20
1.24622034163951
30
0
41
1
10
16.8134801242057
20
1.31981744415774
30
0
41
1
10
16.6946914222443
20
1.35419485966153
30
0
41
1
10
16.4573749711251
20
1.41543127688269
30
0
41
1
10
16.3388148527947
20
1.44226787454409
30
0
41
1
10
16.1020025949936
20
1.48996983252729
30
0
41
1
10
15.9836999717078
20
1.51100198393536
30
0
41
1
10
15.7465129396065
20
1.54562331727223
30
0
41
1
10
15.6274736255724
20
1.55891721108901
30
0
41
1
10
15.3901324295431
20
1.5784489250984
30
0
41
1
10
15.2718274827025
20
1.58510363809063
30
0
41
1
10
15.1087446560605
20
1.58916994229551
30
0
41
1
10
15.0640763598712
20
1.58971685872686
30
0
41
1
10
15.0193876581449
20
1.58971091297445
30
0
0
SPLINE
5
C1
100
AcDbEntity
8
1
62
256
6
ByLayer
370
18
48
1
60
0
100
AcDbSpline
70
4
71
3
72
16
73
12
40
0
40
0
40
0
40
0
40
0.0623539682237457
40
0.0623539682237457
40
0.218628306853124
40
0.218628306853124
40
0.374902645482502
40
0.374902645482502
40
0.68745132274125
40
0.68745132274125
40
1
40
1
40
1
40
1
41
1
10
7.46689140923061
20
-1.2618649250241
30
0
41
1
10
7.41956583260165
20
-1.27692997463274
30
0
41
1
10
7.37220594908743
20
-1.29152581214214
30
0
41
1
10
7.20589787257265
20
-1.34082202031127
30
0
41
1
10
7.08705895541243
20
-1.37262157868943
30
0
41
1
10
6.84983235215225
20
-1.43027400372208
30
0
41
1
10
6.73146763341836
20
-1.45623598985281
30
0
41
1
10
6.37589675430894
20
-1.52348843884872
30
0
41
1
10
6.13756386456112
20
-1.55405319561237
30
0
41
1
10
5.66368310033826
20
-1.5872966864832
30
0
41
1
10
5.42637290166337
20
-1.58835133489737
30
0
41
1
10
5.18875402498725
20
-1.57603058638622
30
0
0
SPLINE
5
C2
100
AcDbEntity
8
1
62
256
6
ByLayer
370
13
48
1
60
0
100
AcDbSpline
70
4
71
3
72
20
73
16
40
0
40
0
40
0
40
0
40
0.168269219166671
40
0.168269219166671
40
0.252403828750006
40
0.252403828750006
40
0.336538438333342
40
0.336538438333342
40
0.504807657500013
40
0.504807657500013
40
0.673076876666684
40
0.673076876666684
40
0.841346095833355
40
0.841346095833355
40
1
40
1
40
1
40
1
41
1
10
4.25044802549363
20
0.626191798622784
30
0
41
1
10
4.25051321537475
20
0.723266383396663
30
0
41
1
10
4.25057055508123
20
0.815079212530406
30
0
41
1
10
4.25064894587314
20
0.944983885517303
30
0
41
1
10
4.25067377277367
20
0.986937523532617
30
0
41
1
10
4.2507206320924
20
1.06665870592963
30
0
41
1
10
4.25074279302228
20
1.10463902547824
30
0
41
1
10
4.25080648689962
20
1.21302585477912
30
0
41
1
10
4.25084547571461
20
1.27824763084507
30
0
41
1
10
4.250919374647
20
1.39170381094303
30
0
41
1
10
4.25095416108471
20
1.43961538740706
30
0
41
1
10
4.25102010117121
20
1.51498617724249
30
0
41
1
10
4.25105125545787
20
1.54261978283637
30
0
41
1
10
4.25110923344224
20
1.57708028056908
30
0
41
1
10
4.25113642978866
20
1.5848738312381
30
0
41
1
10
4.25116101831844
20
1.58328643522475
30
0
0
SPLINE
5
C3
100
AcDbEntity
8
1
62
256
6
ByLayer
370
18
48
1
60
0
100
AcDbSpline
70
4
71
3
72
52
73
48
40
0
40
0
40
0
40
0
40
0.115306571189808
40
0.115306571189808
40
0.179925548411001
40
0.179925548411001
40
0.1960802927163
40
0.200118978792624
40
0.201128650311705
40
0.201128650311705
40
0.202138321830786
40
0.202138321830786
40
0.204157664868949
40
0.204157664868949
40
0.212235037021598
40
0.212235037021598
40
0.244544525632194
40
0.244544525632194
40
0.373782480074581
40
0.373782480074581
40
0.503020434516967
40
0.503020434516967
40
0.632258388959353
40
0.632258388959353
40
0.648413133264651
40
0.648413133264651
40
0.656490505417301
40
0.656490505417301
40
0.660529191493625
40
0.660529191493625
40
0.662548534531787
40
0.662548534531787
40
0.663558206050869
40
0.663558206050869
40
0.66456787756995
40
0.66456787756995
40
0.696877366180548
40
0.696877366180548
40
0.761496343401746
40
0.761496343401746
40
0.826115320622943
40
0.826115320622943
40
0.89073429784414
40
0.89073429784414
40
0.955353275065337
40
0.955353275065337
40
1
40
1
40
1
40
1
41
1
10
5.30362818151457
20
-0.283721439629772
30
0
41
1
10
5.18852270302557
20
-0.258998977141914
30
0
41
1
10
5.07527527532631
20
-0.24656715173245
30
0
41
1
10
4.89754270397583
20
-0.246664678154673
30
0
41
1
10
4.83343160716259
20
-0.250633248596841
30
0
41
1
10
4.75283301782491
20
-0.260539612167633
30
0
41
1
10
4.73268476252596
20
-0.263320928064559
30
0
41
1
10
4.71152171666625
20
-0.266638049027847
30
0
41
1
10
4.7064823960327
20
-0.26745140116688
30
0
41
1
10
4.70446667725807
20
-0.267778617379207
30
0
41
1
10
4.70262010780544
20
-0.267807514418735
30
0
41
1
10
4.70432690596698
20
-0.269389690932087
30
0
41
1
10
4.7064597305027
20
-0.270228743647749
30
0
41
1
10
4.71568865358302
20
-0.274607219398376
30
0
41
1
10
4.72355367457561
20
-0.277891421639566
30
0
41
1
10
4.76270257461204
20
-0.294358913483507
30
0
41
1
10
4.79475689859265
20
-0.307164021357465
30
0
41
1
10
4.95494819835813
20
-0.371298938885474
30
0
41
1
10
5.08454999121511
20
-0.422078307215088
30
0
41
1
10
5.34350093145866
20
-0.524735941155228
30
0
41
1
10
5.47309194784856
20
-0.576571235690551
30
0
41
1
10
5.73212066312757
20
-0.681498684551514
30
0
41
1
10
5.86174638887857
20
-0.734164662941168
30
0
41
1
10
6.00574305706047
20
-0.797094457945548
30
0
41
1
10
6.02170792416956
20
-0.804152677397212
30
0
41
1
10
6.04548664290959
20
-0.815042421140902
30
0
41
1
10
6.05339006089318
20
-0.818717349188034
30
0
41
1
10
6.06511141729601
20
-0.824451254072159
30
0
41
1
10
6.06900116898498
20
-0.826393757488177
30
0
41
1
10
6.07471853662571
20
-0.829484744947393
30
0
41
1
10
6.07661353579184
20
-0.830536636465382
30
0
41
1
10
6.079326119711
20
-0.832285173427692
30
0
41
1
10
6.08025724204475
20
-0.832866493915475
30
0
41
1
10
6.08168319569288
20
-0.834427403003303
30
0
41
1
10
6.08034677782064
20
-0.835459487014276
30
0
41
1
10
6.05211477783922
20
-0.864188211513067
30
0
41
1
10
6.02476857004581
20
-0.892229141007363
30
0
41
1
10
5.94271036232271
20
-0.976530469463739
30
0
41
1
10
5.88821977162681
20
-1.03274651836091
30
0
41
1
10
5.77891202178466
20
-1.14280623774664
30
0
41
1
10
5.72398210788816
20
-1.19678627717084
30
0
41
1
10
5.61147699443677
20
-1.30049268698443
30
0
41
1
10
5.5545185944014
20
-1.34957210581223
30
0
41
1
10
5.43862943608622
20
-1.43849690798822
30
0
41
1
10
5.37944427708075
20
-1.47855085768111
30
0
41
1
10
5.27545292567356
20
-1.53706195966362
30
0
41
1
10
5.23231716499268
20
-1.55804647170436
30
0
41
1
10
5.18874715207238
20
-1.57603342374912
30
0
0
SPLINE
5
C4
100
AcDbEntity
8
1
62
256
6
ByLayer
370
13
48
1
60
0
100
AcDbSpline
70
4
71
3
72
8
73
4
40
0
40
0
40
0
40
0
40
1
40
1
40
1
40
1
41
1
10
4.05615911359422
20
0.728790328722994
30
0
41
1
10
4.07559742117968
20
0.706837857453735
30
0
41
1
10
4.09942224070329
20
0.688198209535301
30
0
41
1
10
4.12770978827399
20
0.673789598264619
30
0
0
SPLINE
5
C5
100
AcDbEntity
8
1
62
256
6
ByLayer
370
18
48
1
60
0
100
AcDbSpline
70
4
71
3
72
16
73
12
40
0
40
0
40
0
40
0
40
0.250000000000014
40
0.250000000000014
40
0.500000000000028
40
0.500000000000028
40
0.750000000000041
40
0.750000000000041
40
0.875000000000021
40
0.875000000000021
40
1
40
1
40
1
40
1
41
1
10
29.3980750377387
20
0.536471589112693
30
0
41
1
10
29.4391642459738
20
0.546465950280663
30
0
41
1
10
29.4798814469853
20
0.557698215885893
30
0
41
1
10
29.5600196038538
20
0.584352554319196
30
0
41
1
10
29.5991615751088
20
0.599586201945101
30
0
41
1
10
29.6738795615032
20
0.637606253770912
30
0
41
1
10
29.7100478126444
20
0.66043963513323
30
0
41
1
10
29.7538143606245
20
0.706210070277137
30
0
41
1
10
29.7661610388491
20
0.723010929915489
30
0
41
1
10
29.7842119507717
20
0.761262523668108
30
0
41
1
10
29.7893816790426
20
0.782200560239374
30
0
41
1
10
29.7901812043715
20
0.803699191448686
30
0
0
SPLINE
5
C6
100
AcDbEntity
8
1
62
256
6
ByLayer
370
18
48
1
60
0
100
AcDbSpline
70
4
71
3
72
10
73
6
40
0
40
0
40
0
40
0
40
0.5
40
0.5
40
1
40
1
40
1
40
1
41
1
10
4.11954286874214
20
0.628233203793229
30
0
41
1
10
4.10172129403642
20
0.640299674960971
30
0
41
1
10
4.08626038489433
20
0.655135068204828
30
0
41
1
10
4.06350756889989
20
0.689341434931805
30
0
41
1
10
4.0561451523964
20
0.708806450196278
30
0
41
1
10
4.05615911359163
20
0.728790328723363
30
0
0
SPLINE
5
C7
100
AcDbEntity
8
1
62
256
6
ByLayer
370
18
48
1
60
0
100
AcDbSpline
70
4
71
3
72
14
73
10
40
0
40
0
40
0
40
0
40
0.182595201717878
40
0.182595201717878
40
0.591297600858939
40
0.591297600858939
40
0.79564880042947
40
0.79564880042947
40
1
40
1
40
1
40
1
41
1
10
4.05686765853193
20
-1.67474835174244
30
0
41
1
10
4.05687991123204
20
-1.67499387173245
30
0
41
1
10
4.05689178136996
20
-1.67299612749673
30
0
41
1
10
4.05692885725415
20
-1.65916682585848
30
0
41
1
10
4.05695176409824
20
-1.63829772294241
30
0
41
1
10
4.05697938784607
20
-1.59112810720862
30
0
41
1
10
4.05698749018481
20
-1.5727275172253
30
0
41
1
10
4.05700089446566
20
-1.53046949731188
30
0
41
1
10
4.05700620359917
20
-1.50645980048341
30
0
41
1
10
4.05700966223185
20
-1.48016225378214
30
0
0
SPLINE
5
C8
100
AcDbEntity
8
1
62
256
6
ByLayer
370
18
48
1
60
0
100
AcDbSpline
70
4
71
3
72
14
73
10
40
0
40
0
40
0
40
0
40
0.25
40
0.25
40
0.5
40
0.5
40
0.75
40
0.75
40
1
40
1
40
1
40
1
41
1
10
29.1973686033869
20
0.286865936299108
30
0
41
1
10
29.2014955539364
20
0.31010997322187
30
0
41
1
10
29.2092831238485
20
0.33388355919962
30
0
41
1
10
29.2282543832265
20
0.384886254738518
30
0
41
1
10
29.2407410424629
20
0.410550367611563
30
0
41
1
10
29.2733481322751
20
0.458622644384718
30
0
41
1
10
29.2936550832997
20
0.481806957801098
30
0
41
1
10
29.3415388374777
20
0.517724088881039
30
0
41
1
10
29.3691653851578
20
0.529439730346297
30
0
41
1
10
29.3980750377387
20
0.536471589112722
30
0
0
SPLINE
5
C9
100
AcDbEntity
8
1
62
256
6
ByLayer
370
13
48
1
60
0
100
AcDbSpline
70
4
71
3
72
10
73
6
40
0
40
0
40
0
40
0
40
0.5
40
0.5
40
1
40
1
40
1
40
1
41
1
10
4.12770978827399
20
0.673789598264619
30
0
41
1
10
4.14662478105797
20
0.664155013381247
30
0
41
1
10
4.16688548043101
20
0.655214771693153
30
0
41
1
10
4.20804458557683
20
0.639341966150766
30
0
41
1
10
4.22904549447259
20
0.63233466128051
30
0
41
1
10
4.2504480254936
20
0.626191798622813
30
0
0
SPLINE
5
CA
100
AcDbEntity
8
1
62
256
6
ByLayer
370
18
48
1
60
0
100
AcDbSpline
70
4
71
3
72
8
73
4
40
0
40
0
40
0
40
0
40
1
40
1
40
1
40
1
41
1
10
29.432709081409
20
-1.5954104927014
30
0
41
1
10
29.4277774752248
20
-1.59672462943286
30
0
41
1
10
29.4230738215859
20
-1.59738407666785
30
0
41
1
10
29.4186005194762
20
-1.5973819444219
30
0
0
SPLINE
5
CB
100
AcDbEntity
8
1
62
256
6
ByLayer
370
18
48
1
60
0
100
AcDbSpline
70
4
71
3
72
68
73
64
40
0
40
0
40
0
40
0
40
0.0302929565553334
40
0.0302929565553334
40
0.0606162026652011
40
0.0606162026652011
40
0.0909394487750687
40
0.0909394487750687
40
0.121262694884936
40
0.121262694884936
40
0.151585940994804
40
0.151585940994804
40
0.181909187104672
40
0.181909187104672
40
0.212232433214539
40
0.212232433214539
40
0.242555679324407
40
0.242555679324407
40
0.272878925434275
40
0.272878925434275
40
0.303202171544142
40
0.303202171544142
40
0.33352541765401
40
0.33352541765401
40
0.363848663763877
40
0.363848663763877
40
0.394171909873745
40
0.394171909873745
40
0.424495155983613
40
0.424495155983613
40
0.454818402093481
40
0.454818402093481
40
0.485141648203348
40
0.485141648203348
40
0.515464894313216
40
0.515464894313216
40
0.545788140423083
40
0.545788140423083
40
0.576111386532951
40
0.576111386532951
40
0.606434632642819
40
0.606434632642819
40
0.667081124862554
40
0.667081124862554
40
0.697404370972421
40
0.697404370972421
40
0.727727617082288
40
0.727727617082288
40
0.758050863192155
40
0.758050863192155
40
0.788374109302022
40
0.788374109302022
40
0.818697355411889
40
0.818697355411889
40
0.849020601521756
40
0.849020601521756
40
0.879343847631623
40
0.879343847631623
40
0.90966709374149
40
0.90966709374149
40
0.970313585961223
40
0.970313585961223
40
1
40
1
40
1
40
1
41
1
10
7.46895227612555
20
1.2574526732935
30
0
41
1
10
7.58649386586944
20
1.30071715883488
30
0
41
1
10
7.70386881999963
20
1.34122552598706
30
0
41
1
10
7.93973383555391
20
1.415368998665
30
0
41
1
10
8.0579780350179
20
1.44930497320246
30
0
41
1
10
8.29451067551298
20
1.51114474518732
30
0
41
1
10
8.41308605032924
20
1.53891086912935
30
0
41
1
10
8.65008164735806
20
1.58665278366882
30
0
41
1
10
8.76861872312963
20
1.60679494589246
30
0
41
1
10
9.00532579962896
20
1.63992093030467
30
0
41
1
10
9.12327630826954
20
1.6529286732233
30
0
41
1
10
9.36016405313276
20
1.67108698491404
30
0
41
1
10
9.47919304129579
20
1.67630548123407
30
0
41
1
10
9.71628311407164
20
1.67913228420812
30
0
41
1
10
9.83435673698682
20
1.67670831550993
30
0
41
1
10
10.0706749610156
20
1.66414143437137
30
0
41
1
10
10.1890975222776
20
1.65407145165503
30
0
41
1
10
10.4264072194853
20
1.62646623193325
30
0
41
1
10
10.5452324642165
20
1.60887399269799
30
0
41
1
10
10.7816030253866
20
1.56609677058921
30
0
41
1
10
10.8998509823515
20
1.54119281030208
30
0
41
1
10
11.13670653697
20
1.48475117897263
30
0
41
1
10
11.2551316214594
20
1.45307930953732
30
0
41
1
10
11.4919229749403
20
1.3825730860074
30
0
41
1
10
11.6104546226606
20
1.34391929467097
30
0
41
1
10
11.8474170340864
20
1.2614900634143
30
0
41
1
10
11.9658717470353
20
1.21751171978136
30
0
41
1
10
12.2023794154361
20
1.12355468128521
30
0
41
1
10
12.3203141925941
20
1.07336310450242
30
0
41
1
10
12.5575191054923
20
0.969263944344732
30
0
41
1
10
12.6764304431623
20
0.915159413939534
30
0
41
1
10
12.9131758333241
20
0.802556438837513
30
0
41
1
10
13.0311159233182
20
0.74386332370193
30
0
41
1
10
13.2675279171432
20
0.623925381628482
30
0
41
1
10
13.3860815331461
20
0.562844537789829
30
0
41
1
10
13.6234640689059
20
0.437766353873656
30
0
41
1
10
13.7418925363213
20
0.373631250621259
30
0
41
1
10
13.9781437006717
20
0.243996958268951
30
0
41
1
10
14.0965377728995
20
0.179220201736228
30
0
41
1
10
14.333372365089
20
0.0488914364295283
30
0
41
1
10
14.4516674156583
20
-0.016927808592726
30
0
41
1
10
14.8070226427152
20
-0.214871023787026
30
0
41
1
10
15.0440980065549
20
-0.343822362912647
30
0
41
1
10
15.398535453392
20
-0.533516005318376
30
0
41
1
10
15.5166381856114
20
-0.595933546491182
30
0
41
1
10
15.7541300824836
20
-0.716803245227737
30
0
41
1
10
15.8727356826536
20
-0.775426445068121
30
0
41
1
10
16.1091245744836
20
-0.889776089807128
30
0
41
1
10
16.2270352189714
20
-0.945287743823059
30
0
41
1
10
16.4636374896621
20
-1.05096775905076
30
0
41
1
10
16.5823242077653
20
-1.10129570259252
30
0
41
1
10
16.8196291596184
20
-1.1973672069272
30
0
41
1
10
16.9376044117675
20
-1.24317586055648
30
0
41
1
10
17.173981121138
20
-1.32810132976846
30
0
41
1
10
17.2923949679347
20
-1.36726793573402
30
0
41
1
10
17.5291679215026
20
-1.43963179197104
30
0
41
1
10
17.6474897629192
20
-1.47297340089085
30
0
41
1
10
17.8843190301981
20
-1.53257738057536
30
0
41
1
10
18.0027197782996
20
-1.55866025337022
30
0
41
1
10
18.3578226831277
20
-1.62612685382695
30
0
41
1
10
18.5937438912102
20
-1.65709852746019
30
0
41
1
10
18.9471846362199
20
-1.67984161213826
30
0
41
1
10
19.063083003043
20
-1.68367757794027
30
0
41
1
10
19.1786882263054
20
-1.68382007222604
30
0
0
SPLINE
5
CC
100
AcDbEntity
8
1
62
256
6
ByLayer
370
18
48
1
60
0
100
AcDbSpline
70
4
71
3
72
24
73
20
40
0
40
0
40
0
40
0
40
0.0363807122477754
40
0.0363807122477754
40
0.156833123216804
40
0.156833123216804
40
0.277285534185832
40
0.277285534185832
40
0.397737945154859
40
0.397737945154859
40
0.518190356123887
40
0.518190356123887
40
0.638642767092915
40
0.638642767092915
40
0.759095178061944
40
0.759095178061944
40
0.879547589030972
40
0.879547589030972
40
1
40
1
40
1
40
1
41
1
10
26.5311106579768
20
1.27288181964929
30
0
41
1
10
26.5667973953983
20
1.28593921987397
30
0
41
1
10
26.6025000280508
20
1.2987133050693
30
0
41
1
10
26.7565030880026
20
1.35254057497985
30
0
41
1
10
26.874824913182
20
1.39096223614649
30
0
41
1
10
27.1114172729844
20
1.46193456692279
30
0
41
1
10
27.2296907502477
20
1.49418169330548
30
0
41
1
10
27.4662668170757
20
1.55111515122812
30
0
41
1
10
27.5845653572713
20
1.57601879002226
30
0
41
1
10
27.8208186529932
20
1.6188980988544
30
0
41
1
10
27.9386251081429
20
1.63688285941532
30
0
41
1
10
28.1755994535232
20
1.66493074286632
30
0
41
1
10
28.2942565413686
20
1.67510917841787
30
0
41
1
10
28.5307556517608
20
1.68792024686618
30
0
41
1
10
28.6486057786659
20
1.69051377936606
30
0
41
1
10
28.8848806350896
20
1.6878977325409
30
0
41
1
10
29.0035608378645
20
1.68274119807083
30
0
41
1
10
29.2406085785599
20
1.66481267562952
30
0
41
1
10
29.3586994623859
20
1.65200035775359
30
0
41
1
10
29.4766281751786
20
1.63535525555611
30
0
0
SPLINE
5
CD
100
AcDbEntity
8
1
62
256
6
ByLayer
370
18
48
1
60
0
100
AcDbSpline
70
4
71
3
72
10
73
6
40
0
40
0
40
0
40
0
40
0.5
40
0.5
40
1
40
1
40
1
40
1
41
1
10
4.05700966225064
20
-1.48016225379362
30
0
41
1
10
4.08186907764716
20
-1.4587076410844
30
0
41
1
10
4.11308509475575
20
-1.44486989517975
30
0
41
1
10
4.17996856110045
20
-1.43288923241394
30
0
41
1
10
4.21570193019562
20
-1.43452756091978
30
0
41
1
10
4.25127085818525
20
-1.4430202023683
30
0
0
SPLINE
5
CE
100
AcDbEntity
8
1
62
256
6
ByLayer
370
18
48
1
60
0
100
AcDbSpline
70
4
71
3
72
18
73
14
40
0
40
0
40
0
40
0
40
0.124999999999997
40
0.124999999999997
40
0.249999999999994
40
0.249999999999994
40
0.374999999999991
40
0.374999999999991
40
0.499999999999988
40
0.499999999999988
40
0.749999999999994
40
0.749999999999994
40
1
40
1
40
1
40
1
41
1
10
27.9541604930257
20
0.684402649496235
30
0
41
1
10
27.9666180518294
20
0.605155352646818
30
0
41
1
10
27.9874915130048
20
0.52459912687371
30
0
41
1
10
28.0446165185214
20
0.361094915422427
30
0
41
1
10
28.0799761072028
20
0.280739724753346
30
0
41
1
10
28.1610271567752
20
0.123731602286995
30
0
41
1
10
28.2072643886025
20
0.0462662201160526
30
0
41
1
10
28.3059170100004
20
-0.101620303373068
30
0
41
1
10
28.358484503265
20
-0.17248030562638
30
0
41
1
10
28.52410939035
20
-0.377523915722719
30
0
41
1
10
28.6459212257654
20
-0.504893272271914
30
0
41
1
10
28.8960044354247
20
-0.735313905949795
30
0
41
1
10
29.0254100893006
20
-0.839805260980285
30
0
41
1
10
29.1584464912137
20
-0.935378785543122
30
0
0
SPLINE
5
CF
100
AcDbEntity
8
1
62
256
6
ByLayer
370
18
48
1
60
0
100
AcDbSpline
70
4
71
3
72
10
73
6
40
0
40
0
40
0
40
0
40
0.5
40
0.5
40
1
40
1
40
1
40
1
41
1
10
4.25127085820864
20
-1.4430202023739
30
0
41
1
10
4.4061693241176
20
-1.48000464936351
30
0
41
1
10
4.56155048670709
20
-1.50931824367169
30
0
41
1
10
4.87440969683507
20
-1.55330188797981
30
0
41
1
10
5.03136423881261
20
-1.5679296778662
30
0
41
1
10
5.18873777361876
20
-1.57602974371596
30
0
0
SPLINE
5
D0
100
AcDbEntity
8
1
62
256
6
ByLayer
370
18
48
1
60
0
100
AcDbSpline
70
4
71
3
72
12
73
8
40
0
40
0
40
0
40
0
40
0.249999999999996
40
0.249999999999996
40
0.499999999999993
40
0.499999999999993
40
1
40
1
40
1
40
1
41
1
10
29.4210988794981
20
-1.67910466322772
30
0
41
1
10
29.4257431102968
20
-1.66654914329706
30
0
41
1
10
29.4299612522331
20
-1.65368987072077
30
0
41
1
10
29.4362056533086
20
-1.63082852718014
30
0
41
1
10
29.4382001932124
20
-1.62090307680756
30
0
41
1
10
29.4405255373356
20
-1.59898112225795
30
0
41
1
10
29.4376385227123
20
-1.59409693284834
30
0
41
1
10
29.4327090814061
20
-1.5954104927022
30
0
0
SPLINE
5
D1
100
AcDbEntity
8
1
62
256
6
ByLayer
370
18
48
1
60
0
100
AcDbSpline
70
4
71
3
72
16
73
12
40
0
40
0
40
0
40
0
40
0.25
40
0.25
40
0.5
40
0.5
40
0.75
40
0.75
40
0.875
40
0.875
40
1
40
1
40
1
40
1
41
1
10
29.7901812043718
20
-0.803699191448828
30
0
41
1
10
29.7644151506075
20
-0.873364747548067
30
0
41
1
10
29.7385740957491
20
-0.942977044474418
30
0
41
1
10
29.6865306654441
20
-1.08194506026106
30
0
41
1
10
29.66060368494
20
-1.151499740617
30
0
41
1
10
29.6086317399939
20
-1.29050595583928
30
0
41
1
10
29.5825381000887
20
-1.35997183004625
30
0
41
1
10
29.543017154497
20
-1.46360685709473
30
0
41
1
10
29.529818576524
20
-1.49810511070095
30
0
41
1
10
29.5033959113377
20
-1.56705377508692
30
0
41
1
10
29.4901349477196
20
-1.60143502381368
30
0
41
1
10
29.4766281751907
20
-1.6353552555552
30
0
0
SPLINE
5
D2
100
AcDbEntity
8
1
62
256
6
ByLayer
370
18
48
1
60
0
100
AcDbSpline
70
4
71
3
72
14
73
10
40
0
40
0
40
0
40
0
40
0.0848209161096915
40
0.0848209161096915
40
0.292204327841522
40
0.292204327841522
40
0.706971151305184
40
0.706971151305184
40
1
40
1
40
1
40
1
41
1
10
19.7658917697648
20
-1.59180081913405
30
0
41
1
10
19.7123095917174
20
-1.59181013416006
30
0
41
1
10
19.6586685051935
20
-1.59107297341785
30
0
41
1
10
19.4736109369937
20
-1.58593198790544
30
0
41
1
10
19.3414990972589
20
-1.57770794250075
30
0
41
1
10
18.9453337661563
20
-1.53965788811735
30
0
41
1
10
18.6837494660912
20
-1.49680059400069
30
0
41
1
10
18.2386285707997
20
-1.39649312711941
30
0
41
1
10
18.0546736638059
20
-1.34707825938597
30
0
41
1
10
17.8703710859419
20
-1.29044791452211
30
0
0
SPLINE
5
D3
100
AcDbEntity
8
1
62
256
6
ByLayer
370
13
48
1
60
0
100
AcDbSpline
70
4
71
3
72
26
73
22
40
0
40
0
40
0
40
0
40
0.0414442078957148
40
0.0414442078957148
40
0.112045653449201
40
0.112045653449201
40
0.182647099002688
40
0.182647099002688
40
0.465052881216633
40
0.465052881216633
40
0.535654326770121
40
0.535654326770121
40
0.606255772323609
40
0.606255772323609
40
0.747458663430585
40
0.747458663430585
40
0.818060108984075
40
0.818060108984075
40
0.888661554537564
40
0.888661554537564
40
1
40
1
40
1
40
1
41
1
10
17.8703701300314
20
-1.29044762080102
30
0
41
1
10
17.7938024833634
20
-1.26692079785306
30
0
41
1
10
17.7171748303008
20
-1.2421486210842
30
0
41
1
10
17.5097168504805
20
-1.17193969931444
30
0
41
1
10
17.3787080372097
20
-1.12417873122115
30
0
41
1
10
17.1156581709998
20
-1.02219072848536
30
0
41
1
10
16.9831835929471
20
-0.9677898211323
30
0
41
1
10
16.3238941470085
20
-0.68394919955071
30
0
41
1
10
15.8044968368039
20
-0.419319206814407
30
0
41
1
10
15.1467823249931
20
-0.075704197674213
30
0
41
1
10
15.014413441764
20
-0.0061492182803136
30
0
41
1
10
14.7504262433643
20
0.132111890545218
30
0
41
1
10
14.6189652388928
20
0.200772626915864
30
0
41
1
10
14.2255155479355
20
0.404102583624905
30
0
41
1
10
13.9643806115684
20
0.535950730311953
30
0
41
1
10
13.5716102616892
20
0.722991243020289
30
0
41
1
10
13.4405267348831
20
0.783579174896801
30
0
41
1
10
13.1775361866379
20
0.900358798567765
30
0
41
1
10
13.0452862378483
20
0.956652498996704
30
0
41
1
10
12.7048554839245
20
1.09408754979808
30
0
41
1
10
12.4980070665123
20
1.17046196914177
30
0
41
1
10
12.2916778744465
20
1.23799970387597
30
0
0
SPLINE
5
D4
100
AcDbEntity
8
1
62
256
6
ByLayer
370
18
48
1
60
0
100
AcDbSpline
70
4
71
3
72
22
73
18
40
0
40
0
40
0
40
0
40
0.24506734321281
40
0.24506734321281
40
0.367601014819215
40
0.367601014819215
40
0.49013468642562
40
0.49013468642562
40
0.612668358032025
40
0.612668358032025
40
0.73520202963843
40
0.73520202963843
40
0.857735701244835
40
0.857735701244835
40
0.98026937285124
40
0.98026937285124
40
1
40
1
40
1
40
1
41
1
10
6.75977124676797
20
-0.965900944483053
30
0
41
1
10
6.99650664069273
20
-1.07441170452523
30
0
41
1
10
7.23328078573098
20
-1.17069636295494
30
0
41
1
10
7.58625914282899
20
-1.30063614774684
30
0
41
1
10
7.70375095966571
20
-1.3411884769385
30
0
41
1
10
7.93973383555999
20
-1.41536899866679
30
0
41
1
10
8.05797803502398
20
-1.44930497320416
30
0
41
1
10
8.29451067551912
20
-1.51114474518883
30
0
41
1
10
8.41308605033538
20
-1.53891086913072
30
0
41
1
10
8.65008164736429
20
-1.58665278366996
30
0
41
1
10
8.76861872313592
20
-1.60679494589345
30
0
41
1
10
9.0053257996353
20
-1.63992093030544
30
0
41
1
10
9.12327630827591
20
-1.65292867322395
30
0
41
1
10
9.36016405313922
20
-1.67108698491438
30
0
41
1
10
9.47919304130227
20
-1.67630548123429
30
0
41
1
10
9.61682644648425
20
-1.67794647157396
30
0
41
1
10
9.63590259241718
20
-1.67807456466471
30
0
41
1
10
9.65496884055648
20
-1.67810306971893
30
0
0
SPLINE
5
D5
100
AcDbEntity
8
1
62
256
6
ByLayer
370
18
48
1
60
0
100
AcDbSpline
70
4
71
3
72
72
73
68
40
0
40
0
40
0
40
0
40
0.0050019678757025
40
0.0050019678757025
40
0.0353187883153838
40
0.0353187883153838
40
0.0656356087550651
40
0.0656356087550651
40
0.0959524291947465
40
0.0959524291947465
40
0.156586070074108
40
0.156586070074108
40
0.186902890513788
40
0.186902890513788
40
0.217219710953468
40
0.217219710953468
40
0.247536531393148
40
0.247536531393148
40
0.277853351832828
40
0.277853351832828
40
0.308170172272508
40
0.308170172272508
40
0.338486992712188
40
0.338486992712188
40
0.368803813151868
40
0.368803813151868
40
0.399120633591548
40
0.399120633591548
40
0.429437454031229
40
0.429437454031229
40
0.459754274470908
40
0.459754274470908
40
0.490071094910588
40
0.490071094910588
40
0.520387915350269
40
0.520387915350269
40
0.550704735789949
40
0.550704735789949
40
0.581021556229629
40
0.581021556229629
40
0.611338376669309
40
0.611338376669309
40
0.641655197108989
40
0.641655197108989
40
0.671972017548669
40
0.671972017548669
40
0.702288837988349
40
0.702288837988349
40
0.732605658428029
40
0.732605658428029
40
0.762922478867709
40
0.762922478867709
40
0.793239299307389
40
0.793239299307389
40
0.823556119747069
40
0.823556119747069
40
0.853872940186749
40
0.853872940186749
40
0.884189760626429
40
0.884189760626429
40
0.91450658106611
40
0.91450658106611
40
0.944823401505789
40
0.944823401505789
40
0.97514022194547
40
0.97514022194547
40
1
40
1
40
1
40
1
41
1
10
16.997306531458
20
1.26435261422122
30
0
41
1
10
17.0167988079355
20
1.27153567267948
30
0
41
1
10
17.0362928866968
20
1.27863267464582
30
0
41
1
10
17.1739811211467
20
1.32810132977144
30
0
41
1
10
17.2923949679434
20
1.36726793573683
30
0
41
1
10
17.5291679215114
20
1.4396317919736
30
0
41
1
10
17.6474897629281
20
1.47297340089324
30
0
41
1
10
17.884319030207
20
1.53257738057744
30
0
41
1
10
18.0027197783085
20
1.55866025337212
30
0
41
1
10
18.3578226831368
20
1.62612685382831
30
0
41
1
10
18.5937438912193
20
1.65709852746119
30
0
41
1
10
18.9496763351125
20
1.68000194712974
30
0
41
1
10
19.0680553827635
20
1.68384048174931
30
0
41
1
10
19.3042000185577
20
1.68380780418397
30
0
41
1
10
19.4221755405724
20
1.67989761008127
30
0
41
1
10
19.6589740112147
20
1.6645337194698
30
0
41
1
10
19.7778169567661
20
1.65306826283773
30
0
41
1
10
20.0146878853702
20
1.62248027313146
30
0
41
1
10
20.1325254666143
20
1.60324698315503
30
0
41
1
10
20.3689914930988
20
1.55802904958386
30
0
41
1
10
20.4874110503941
20
1.5319965513236
30
0
41
1
10
20.7240869333326
20
1.4726648821696
30
0
41
1
10
20.8424619036447
20
1.43918473515586
30
0
41
1
10
21.0791349681534
20
1.36622867557216
30
0
41
1
10
21.1975502229391
20
1.32690422671911
30
0
41
1
10
21.4341324639036
20
1.24224318566067
30
0
41
1
10
21.5521623079878
20
1.19671683685016
30
0
41
1
10
21.7884015465744
20
1.09997304031245
30
0
41
1
10
21.9072491180174
20
1.04933084270257
30
0
41
1
10
22.1442828455206
20
0.943671762006659
30
0
41
1
10
22.2624216795955
20
0.888394226408792
30
0
41
1
10
22.4984418076963
20
0.773626116439601
30
0
41
1
10
22.6165520819628
20
0.714495335253702
30
0
41
1
10
22.8535101384603
20
0.593687535324079
30
0
41
1
10
22.9723435408565
20
0.53169078830345
30
0
41
1
10
23.2087685433755
20
0.404848680966069
30
0
41
1
10
23.3266423471673
20
0.340167814188845
30
0
41
1
10
23.5631663720878
20
0.210879556636769
30
0
41
1
10
23.6815655430712
20
0.14583666357646
30
0
41
1
10
23.9181427666944
20
0.0140358376970937
30
0
41
1
10
24.0365090584335
20
-0.0525851367810333
30
0
41
1
10
24.2731242656969
20
-0.183874106364499
30
0
41
1
10
24.3914988953412
20
-0.248740109785018
30
0
41
1
10
24.6279185944163
20
-0.377755469270227
30
0
41
1
10
24.7457475145673
20
-0.442274980657601
30
0
41
1
10
24.9823633470449
20
-0.568296180241276
30
0
41
1
10
25.1012039669791
20
-0.629735669772089
30
0
41
1
10
25.3379469452509
20
-0.749594267334572
30
0
41
1
10
25.4558739056955
20
-0.808356718010344
30
0
41
1
10
25.6918833454779
20
-0.921805450079887
30
0
41
1
10
25.8101559974051
20
-0.976214582270813
30
0
41
1
10
26.0472450798102
20
-1.08045127925746
30
0
41
1
10
26.1658789089905
20
-1.13038600878639
30
0
41
1
10
26.4019032091044
20
-1.22536377308467
30
0
41
1
10
26.5199454082672
20
-1.26985874982333
30
0
41
1
10
26.756503088014
20
-1.35254057498366
30
0
41
1
10
26.8748249131935
20
-1.39096223615016
30
0
41
1
10
27.111417272996
20
-1.46193456692606
30
0
41
1
10
27.2296907502593
20
-1.49418169330852
30
0
41
1
10
27.4662668170874
20
-1.5511151512307
30
0
41
1
10
27.584565357283
20
-1.57601879002462
30
0
41
1
10
27.820818653005
20
-1.61889809885631
30
0
41
1
10
27.9386251081547
20
-1.63688285941697
30
0
41
1
10
28.1755994535351
20
-1.66493074286748
30
0
41
1
10
28.2942565413805
20
-1.67510917841878
30
0
41
1
10
28.5094706744773
20
-1.68676724759911
30
0
41
1
10
28.6061666771128
20
-1.68945659562866
30
0
41
1
10
28.7029727445361
20
-1.68953337950535
30
0
0
SPLINE
5
D6
100
AcDbEntity
8
1
62
256
6
ByLayer
370
13
48
1
60
0
100
AcDbSpline
70
4
71
3
72
12
73
8
40
0
40
0
40
0
40
0
40
0.0277446240715941
40
0.0277446240715941
40
0.513872312035797
40
0.513872312035797
40
1
40
1
40
1
40
1
41
1
10
4.25116102377447
20
-1.5832860828362
30
0
41
1
10
4.25116251213504
20
-1.58318991115931
30
0
41
1
10
4.25116399093992
20
-1.58305936683229
30
0
41
1
10
4.25119119680065
20
-1.58000300276271
30
0
41
1
10
4.25121410601213
20
-1.56685236181335
30
0
41
1
10
4.25125101674195
20
-1.51960301251651
30
0
41
1
10
4.25126453134322
20
-1.48592400942519
30
0
41
1
10
4.25127085817812
20
-1.44302020237379
30
0
0
SPLINE
5
D7
100
AcDbEntity
8
1
62
256
6
ByLayer
370
18
48
1
60
0
100
AcDbSpline
70
4
71
3
72
8
73
4
40
0
40
0
40
0
40
0
40
1
40
1
40
1
40
1
41
1
10
4.20199655552574
20
0.581820174743768
30
0
41
1
10
4.17386898472486
20
0.596381867514964
30
0
41
1
10
4.14556866861619
20
0.61061188979707
30
0
41
1
10
4.11954286874271
20
0.628233203792604
30
0
0
SPLINE
5
D8
100
AcDbEntity
8
1
62
256
6
ByLayer
370
18
48
1
60
0
100
AcDbSpline
70
4
71
3
72
23
73
19
40
0
40
0
40
0
40
0
40
0.249999999999986
40
0.249999999999986
40
0.374999999999979
40
0.374999999999979
40
0.499999999999972
40
0.624999999999965
40
0.624999999999965
40
0.687499999999971
40
0.687499999999971
40
0.749999999999977
40
0.749999999999977
40
0.874999999999988
40
0.874999999999988
40
0.937499999999994
40
0.937499999999994
40
1
40
1
40
1
40
1
41
1
10
27.9541604930257
20
0.68440264949578
30
0
41
1
10
28.0609767740534
20
0.594241817696457
30
0
41
1
10
28.170860156268
20
0.511529441416172
30
0
41
1
10
28.3386273662634
20
0.402874522917102
30
0
41
1
10
28.3952369946672
20
0.369078308218576
30
0
41
1
10
28.5081708023956
20
0.307804174752704
30
0
41
1
10
28.6209460890754
20
0.252682652725724
30
0
41
1
10
28.7333815040707
20
0.210752428838134
30
0
41
1
10
28.8175660209557
20
0.184817869568462
30
0
41
1
10
28.845603673224
20
0.177098827007995
30
0
41
1
10
28.9016276265728
20
0.163653814153406
30
0
41
1
10
28.9298109600414
20
0.157502445516911
30
0
41
1
10
29.0122828254668
20
0.146452011301335
30
0
41
1
10
29.0661304345879
20
0.14768135303521
30
0
41
1
10
29.1323579358703
20
0.17803148756164
30
0
41
1
10
29.1519133214009
20
0.193031237734743
30
0
41
1
10
29.1818154644743
20
0.233228390039784
30
0
41
1
10
29.1922976187582
20
0.25830485892962
30
0
41
1
10
29.1973686033869
20
0.286865936299137
30
0
0
SPLINE
5
D9
100
AcDbEntity
8
1
62
256
6
ByLayer
370
18
48
1
60
0
100
AcDbSpline
70
4
71
3
72
58
73
54
40
0
40
0
40
0
40
0
40
0.0625000000000029
40
0.0625000000000029
40
0.125000000000006
40
0.125000000000006
40
0.250000000000009
40
0.250000000000009
40
0.375000000000013
40
0.375000000000013
40
0.500000000000016
40
0.500000000000016
40
0.531250000000017
40
0.531250000000017
40
0.546875000000018
40
0.546875000000018
40
0.554687500000019
40
0.55859375000002
40
0.55859375000002
40
0.56250000000002
40
0.56250000000002
40
0.566406250000021
40
0.566406250000021
40
0.568359375000023
40
0.568359375000023
40
0.570312500000024
40
0.578125000000024
40
0.578125000000024
40
0.593750000000022
40
0.593750000000022
40
0.625000000000022
40
0.625000000000022
40
0.640625000000021
40
0.640625000000021
40
0.65625000000002
40
0.65625000000002
40
0.671875000000019
40
0.671875000000019
40
0.687500000000019
40
0.687500000000019
40
0.718750000000017
40
0.718750000000017
40
0.750000000000015
40
0.750000000000015
40
0.781250000000013
40
0.781250000000013
40
0.812500000000011
40
0.812500000000011
40
0.875000000000007
40
0.875000000000007
40
0.937500000000004
40
0.937500000000004
40
1
40
1
40
1
40
1
41
1
10
6.76033124748969
20
-0.966177006888103
30
0
41
1
10
6.61315997786196
20
-0.899406453791158
30
0
41
1
10
6.46468900191826
20
-0.830245213614489
30
0
41
1
10
6.16752967286172
20
-0.690352313231159
30
0
41
1
10
6.01879373746266
20
-0.619613119144759
30
0
41
1
10
5.57082275400938
20
-0.408316813254402
30
0
41
1
10
5.26979220773535
20
-0.268698366866573
30
0
41
1
10
4.65570492118775
20
-0.0113193488309093
30
0
41
1
10
4.34252155864007
20
0.106219284854262
30
0
41
1
10
3.69908321499401
20
0.30334832494043
30
0
41
1
10
3.37326583895072
20
0.38163233906451
30
0
41
1
10
2.95969165554581
20
0.45119775541167
30
0
41
1
10
2.87666515624673
20
0.463708770271524
30
0
41
1
10
2.75164260689127
20
0.480336613911561
30
0
41
1
10
2.70987769538544
20
0.485523681662187
30
0
41
1
10
2.64720089425106
20
0.492754255365696
30
0
41
1
10
2.61585008041664
20
0.496232764908484
30
0
41
1
10
2.58448053047542
20
0.499505681035572
30
0
41
1
10
2.56356332027673
20
0.501641879729391
30
0
41
1
10
2.55314027981007
20
0.503093099708252
30
0
41
1
10
2.53206673833904
20
0.50354223743102
30
0
41
1
10
2.52101379754211
20
0.502629305926206
30
0
41
1
10
2.50552289576882
20
0.497417732321679
30
0
41
1
10
2.50074236400547
20
0.494997323260293
30
0
41
1
10
2.49095154256611
20
0.490562822707375
30
0
41
1
10
2.46652930289059
20
0.479372393855584
30
0
41
1
10
2.44238754866225
20
0.467648151771243
30
0
41
1
10
2.38505238804126
20
0.438351098280293
30
0
41
1
10
2.34758121558829
20
0.41726391524773
30
0
41
1
10
2.23862552996042
20
0.348029370397342
30
0
41
1
10
2.17173379573694
20
0.295366438874765
30
0
41
1
10
2.08812803223913
20
0.197039853330239
30
0
41
1
10
2.06320879427136
20
0.160674103100746
30
0
41
1
10
2.02485491539827
20
0.083033058466782
30
0
41
1
10
2.01111282035197
20
0.0407108030732388
30
0
41
1
10
1.99814245150929
20
-0.0447713042929649
30
0
41
1
10
1.9986962959006
20
-0.0891845478316213
30
0
41
1
10
2.01212956199285
20
-0.17483695930386
30
0
41
1
10
2.02494222495306
20
-0.216882575871182
30
0
41
1
10
2.0748299106908
20
-0.335738809503056
30
0
41
1
10
2.1232456245414
20
-0.407332767089883
30
0
41
1
10
2.23093019330136
20
-0.537270720135922
30
0
41
1
10
2.29045949377468
20
-0.595843935281749
30
0
41
1
10
2.4159129522136
20
-0.705474559905412
30
0
41
1
10
2.4820029543566
20
-0.756407173426879
30
0
41
1
10
2.6159981972524
20
-0.85111254787455
30
0
41
1
10
2.68430416366817
20
-0.895180715736728
30
0
41
1
10
2.89190341320764
20
-1.02005075267209
30
0
41
1
10
3.03381493607679
20
-1.09364376765535
30
0
41
1
10
3.32191918724158
20
-1.22710523703927
30
0
41
1
10
3.46878733793426
20
-1.2870562536809
30
0
41
1
10
3.76287764766317
20
-1.39351610703682
30
0
41
1
10
3.90988357184585
20
-1.43997428985642
30
0
41
1
10
4.057009658824
20
-1.48016225284462
30
0
0
LINE
5
76
100
AcDbEntity
8
81
62
256
6
ByLayer
370
18
48
1
60
0
100
AcDbLine
10
30
20
0
30
0
11
35
21
0
31
0
39
0
210
0
220
0
230
1
0
LINE
5
77
100
AcDbEntity
8
1
62
256
6
ByLayer
370
18
48
1
60
0
100
AcDbLine
10
4.056854
20
1.674748
30
0
11
1.576973
21
1.67326
31
0
39
0
210
0
220
0
230
1
0
LINE
5
79
100
AcDbEntity
8
1
62
256
6
ByLayer
370
18
48
1
60
0
100
AcDbLine
10
10.036237
20
1.678336
30
0
11
9.658201
21
1.678109
31
0
39
0
210
0
220
0
230
1
0
LINE
5
7A
100
AcDbEntity
8
1
62
256
6
ByLayer
370
18
48
1
60
0
100
AcDbLine
10
19.556301
20
1.684048
30
0
11
19.181127
21
1.683823
31
0
39
0
210
0
220
0
230
1
0
LINE
5
7B
100
AcDbEntity
8
1
62
256
6
ByLayer
370
18
48
1
60
0
100
AcDbLine
10
29.077914
20
1.689761
30
0
11
28.704287
21
1.689537
31
0
39
0
210
0
220
0
230
1
0
LINE
5
7C
100
AcDbEntity
8
1
62
256
6
ByLayer
370
18
48
1
60
0
100
AcDbLine
10
28.704287
20
-1.689537
30
0
11
29.077635
21
-1.689761
31
0
39
0
210
0
220
0
230
1
0
LINE
5
7D
100
AcDbEntity
8
1
62
256
6
ByLayer
370
18
48
1
60
0
100
AcDbLine
10
19.181127
20
-1.683823
30
0
11
19.556674
21
-1.684048
31
0
39
0
210
0
220
0
230
1
0
LINE
5
7E
100
AcDbEntity
8
1
62
256
6
ByLayer
370
18
48
1
60
0
100
AcDbLine
10
9.658201
20
-1.678109
30
0
11
10.036439
21
-1.678336
31
0
39
0
210
0
220
0
230
1
0
LINE
5
7F
100
AcDbEntity
8
1
62
256
6
ByLayer
370
18
48
1
60
0
100
AcDbLine
10
1.576973
20
-1.67326
30
0
11
4.056854
21
-1.674748
31
0
39
0
210
0
220
0
230
1
0
LINE
5
80
100
AcDbEntity
8
SK1
62
256
6
ByLayer
370
18
48
1
60
0
100
AcDbLine
10
0
20
3
30
0
11
-35.278312
21
3
31
0
39
0
210
0
220
0
230
1
0
LINE
5
82
100
AcDbEntity
8
SK1
62
256
6
ByLayer
370
18
48
1
60
0
100
AcDbLine
10
-35.278312
20
-3
30
0
11
0
21
-3
31
0
39
0
210
0
220
0
230
1
0
LINE
5
83
100
AcDbEntity
8
SK1
62
256
6
ByLayer
370
18
48
1
60
0
100
AcDbLine
10
-35.278312
20
3
30
0
11
-36
21
1.75
31
0
39
0
210
0
220
0
230
1
0
LINE
5
84
100
AcDbEntity
8
SK1
62
256
6
ByLayer
370
18
48
1
60
0
100
AcDbLine
10
-36
20
-1.75
30
0
11
-35.278312
21
-3
31
0
39
0
210
0
220
0
230
1
0
LINE
5
85
100
AcDbEntity
8
SK4
62
256
6
ByLayer
370
18
48
0.05
60
0
100
AcDbLine
10
35
20
0
30
0
11
-41
21
0
31
0
39
0
210
0
220
0
230
1
0
LINE
5
87
100
AcDbEntity
8
4
62
256
6
ByLayer
370
18
48
0.05
60
0
100
AcDbLine
10
30
20
0
30
0
11
0
21
0
31
0
39
0
210
0
220
0
230
1
0
LINE
5
89
100
AcDbEntity
8
80
62
256
6
ByLayer
370
18
48
1
60
0
100
AcDbLine
10
0
20
0
30
0
11
-5
21
0
31
0
39
0
210
0
220
0
230
1
0
LINE
5
8A
100
AcDbEntity
8
1
62
256
6
ByLayer
370
13
48
1
60
0
100
AcDbLine
10
29.568628
20
0.020203
30
0
11
29.895655
21
-0.173833
31
0
39
0
210
0
220
0
230
1
0
LINE
5
8B
100
AcDbEntity
8
1
62
256
6
ByLayer
370
18
48
1
60
0
100
AcDbLine
10
29.939597
20
0.248102
30
0
11
29.918603
21
0.355533
31
0
39
0
210
0
220
0
230
1
0
LINE
5
8C
100
AcDbEntity
8
1
62
256
6
ByLayer
370
18
48
1
60
0
100
AcDbLine
10
29.158446
20
-0.935379
30
0
11
29.895655
21
-0.173833
31
0
39
0
210
0
220
0
230
1
0
LINE
5
8D
100
AcDbEntity
8
1
62
256
6
ByLayer
370
18
48
1
60
0
100
AcDbLine
10
30
20
0
30
0
11
29.418601
21
-1.597382
31
0
39
0
210
0
220
0
230
1
0
LINE
5
8E
100
AcDbEntity
8
1
62
256
6
ByLayer
370
18
48
1
60
0
100
AcDbLine
10
0
20
-3
30
0
11
0
21
3
31
0
39
0
210
0
220
0
230
1
0
LINE
5
8F
100
AcDbEntity
8
1
62
256
6
ByLayer
370
18
48
1
60
0
100
AcDbLine
10
29.939597
20
-0.248102
30
0
11
29.918603
21
-0.355533
31
0
39
0
210
0
220
0
230
1
0
LINE
5
90
100
AcDbEntity
8
1
62
256
6
ByLayer
370
13
48
1
60
0
100
AcDbLine
10
29.918603
20
0.355533
30
0
11
29.758535
21
0.355533
31
0
39
0
210
0
220
0
230
1
0
LINE
5
91
100
AcDbEntity
8
1
62
256
6
ByLayer
370
13
48
1
60
0
100
AcDbLine
10
0.788246
20
2.33663
30
0
11
0.788246
21
-2.33663
31
0
39
0
210
0
220
0
230
1
0
LINE
5
92
100
AcDbEntity
8
1
62
256
6
ByLayer
370
18
48
1
60
0
100
AcDbLine
10
30
20
0
30
0
11
29.997502
21
-0.017436
31
0
39
0
210
0
220
0
230
1
0
LINE
5
93
100
AcDbEntity
8
1
62
256
6
ByLayer
370
13
48
1
60
0
100
AcDbLine
10
1.576973
20
1.67326
30
0
11
1.576973
21
-1.67326
31
0
39
0
210
0
220
0
230
1
0
LINE
5
94
100
AcDbEntity
8
1
62
256
6
ByLayer
370
18
48
1
60
0
100
AcDbLine
10
29.997502
20
0.017436
30
0
11
30
21
0
31
0
39
0
210
0
220
0
230
1
0
LINE
5
95
100
AcDbEntity
8
1
62
256
6
ByLayer
370
13
48
1
60
0
100
AcDbLine
10
29.758535
20
0.355533
30
0
11
29.939597
21
0.248102
31
0
39
0
210
0
220
0
230
1
0
LINE
5
96
100
AcDbEntity
8
SK1
62
256
6
ByLayer
370
18
48
1
60
0
100
AcDbLine
10
0
20
-3
30
0
11
0
21
3
31
0
39
0
210
0
220
0
230
1
0
LINE
5
97
100
AcDbEntity
8
SK1
62
256
6
ByLayer
370
18
48
1
60
0
100
AcDbLine
10
-36
20
1.75
30
0
11
-36
21
-1.75
31
0
39
0
210
0
220
0
230
1
0
LINE
5
98
100
AcDbEntity
8
SK1
62
256
6
ByLayer
370
18
48
1
60
0
100
AcDbLine
10
-35.278312
20
3
30
0
11
-35.278312
21
-3
31
0
39
0
210
0
220
0
230
1
0
MTEXT
5
DA
100
AcDbEntity
8
SK6
62
256
6
ByLayer
370
13
48
1
60
0
100
AcDbMText
10
-0.870831
20
34.072694
30
0
210
0
220
0
230
1
1
\W0.7670;R840-0338-50-A0A1220
40
3.5
41
0
44
1.084337
50
0
71
8
72
5
7
iso_b_vert
0
DIMENSION
5
E7
100
AcDbEntity
8
SK2
62
256
6
ByLayer
370
13
48
1
60
0
100
AcDbDimension
2
DimnDraft3D1
10
29.43
20
-11.903398
30
0
11
13.680059
21
-11.903398
31
0
70
32
71
5
72
1
41
1
210
0
220
0
230
1
3
Standard
100
AcDbAlignedDimension
13
0
23
-1.5875
33
0
14
29.43
24
-3.2775
34
0
50
0
100
AcDbRotatedDimension
1001
ACAD
1000
DSTYLE
1002
{
1070
   279
1070
     0
1070
   172
1070
     1
1070
   173
1070
     1
1070
   340
1005
DB
1070
   271
1070
     2
1070
   272
1070
     2
1070
    77
1070
     1
1070
    73
1070
     0
1070
   171
1070
     3
1070
   274
1070
     4
1070
   177
1070
    35
1070
   176
1070
    35
1070
   178
1070
    35
1070
    48
1040
-0.005
1070
    41
1041
3.5
1070
   147
1041
1.75
1070
    42
1041
1.5875
1070
    44
1041
2.0
1070
   140
1041
3.5
1070
   343
1005
0
1070
   344
1005
0
1002
}
0
DIMENSION
5
F1
100
AcDbEntity
8
SK2
62
256
6
ByLayer
370
13
48
1
60
0
100
AcDbDimension
2
DimnDraft3D2
10
30
20
-31.692985
30
0
11
-2.2287
21
-31.692985
31
0
70
32
71
5
72
1
41
1
210
0
220
0
230
1
3
Standard
100
AcDbAlignedDimension
13
-36
23
-4.5875
33
0
14
30
24
-1.5875
34
0
50
0
100
AcDbRotatedDimension
1001
ACAD
1000
DSTYLE
1002
{
1070
   279
1070
     0
1070
   172
1070
     1
1070
   173
1070
     1
1070
   340
1005
DB
1070
   271
1070
     2
1070
   272
1070
     2
1070
    77
1070
     1
1070
    73
1070
     0
1070
   171
1070
     3
1070
   274
1070
     4
1070
   177
1070
    35
1070
   176
1070
    35
1070
   178
1070
    35
1070
    48
1040
-0.005
1070
    41
1041
3.5
1070
   147
1041
1.75
1070
    42
1041
1.5875
1070
    44
1041
2.0
1070
   140
1041
3.5
1070
   343
1005
0
1070
   344
1005
0
1002
}
0
DIMENSION
5
FB
100
AcDbEntity
8
SK2
62
256
6
ByLayer
370
13
48
1
60
0
100
AcDbDimension
2
DimnDraft3D3
10
30
20
13.299119
30
0
11
21.265
21
13.299119
31
0
70
32
71
5
72
1
41
1
210
0
220
0
230
1
3
Standard
100
AcDbAlignedDimension
13
12.53
23
3.2775
33
0
14
30
24
1.5875
34
0
50
0
100
AcDbRotatedDimension
1001
ACAD
1000
DSTYLE
1002
{
1070
   279
1070
     0
1070
   172
1070
     1
1070
   173
1070
     1
1070
   340
1005
DB
1070
   271
1070
     2
1070
   272
1070
     2
1070
    77
1070
     1
1070
    73
1070
     0
1070
   171
1070
     3
1070
   274
1070
     4
1070
   177
1070
    35
1070
   176
1070
    35
1070
   178
1070
    35
1070
    48
1040
-0.005
1070
    41
1041
3.5
1070
   147
1041
1.75
1070
    42
1041
1.5875
1070
    44
1041
2.0
1070
   140
1041
3.5
1070
   343
1005
0
1070
   344
1005
0
1002
}
0
DIMENSION
5
105
100
AcDbEntity
8
SK2
62
256
6
ByLayer
370
13
48
1
60
0
100
AcDbDimension
2
DimnDraft3D4
10
29.43
20
-14.492503
30
0
11
39.981425
21
-14.492503
31
0
70
32
71
5
72
1
41
1
210
0
220
0
230
1
3
Standard
100
AcDbAlignedDimension
13
30
23
-1.5875
33
0
14
29.43
24
-3.2775
34
0
50
0
100
AcDbRotatedDimension
1001
ACAD
1000
DSTYLE
1002
{
1070
   279
1070
     0
1070
   172
1070
     1
1070
   173
1070
     1
1070
   340
1005
DB
1070
   271
1070
     2
1070
   272
1070
     2
1070
    77
1070
     1
1070
    73
1070
     0
1070
   171
1070
     3
1070
   274
1070
     4
1070
   177
1070
    35
1070
   176
1070
    35
1070
   178
1070
    35
1070
    48
1040
-0.005
1070
    41
1041
3.5
1070
   147
1041
1.75
1070
    42
1041
1.5875
1070
    44
1041
2.0
1070
   140
1041
3.5
1070
   343
1005
0
1070
   344
1005
0
1002
}
0
DIMENSION
5
10F
100
AcDbEntity
8
SK2
62
256
6
ByLayer
370
13
48
1
60
0
100
AcDbDimension
2
DimnDraft3D5
10
29.43
20
-21.343428
30
0
11
-5.309324
21
-21.343428
31
0
70
32
71
5
72
1
41
1
210
0
220
0
230
1
3
Standard
100
AcDbAlignedDimension
13
-36
23
-4.5875
33
0
14
29.43
24
-3.2775
34
0
50
0
100
AcDbRotatedDimension
1001
ACAD
1000
DSTYLE
1002
{
1070
   279
1070
     0
1070
   172
1070
     1
1070
   173
1070
     1
1070
   340
1005
DB
1070
   271
1070
     2
1070
   272
1070
     2
1070
    77
1070
     1
1070
    73
1070
     0
1070
   171
1070
     3
1070
   274
1070
     4
1070
   177
1070
    35
1070
   176
1070
    35
1070
   178
1070
    35
1070
    48
1040
-0.005
1070
    41
1041
3.5
1070
   147
1041
1.75
1070
    42
1041
1.5875
1070
    44
1041
2.0
1070
   140
1041
3.5
1070
   343
1005
0
1070
   344
1005
0
1002
}
0
DIMENSION
5
11A
100
AcDbEntity
8
SK2
62
256
6
ByLayer
370
13
48
1
60
0
100
AcDbDimension
2
DimnDraft3D6
10
-46.625163
20
3
30
0
11
-47.250163
21
21.47418
31
0
70
33
71
5
72
1
41
1
210
0
220
0
230
1
3
Standard
100
AcDbAlignedDimension
13
-37.5875
23
-3
33
0
14
-37.5875
24
3
34
0
1001
ACAD
1000
DSTYLE
1002
{
1070
   279
1070
     0
1070
    74
1070
     0
1070
   173
1070
     1
1070
   340
1005
DB
1070
   271
1070
     3
1070
   272
1070
     2
1070
    77
1070
     1
1070
    73
1070
     0
1070
   171
1070
     3
1070
   274
1070
     4
1070
   177
1070
    35
1070
   176
1070
    35
1070
   178
1070
    35
1070
    48
1040
-0.005
1070
    41
1041
3.5
1070
   147
1041
1.75
1070
    42
1041
1.5875
1070
    44
1041
2.0
1070
   140
1041
3.5
1070
   343
1005
0
1070
   344
1005
0
1002
}
0
DIMENSION
5
125
100
AcDbEntity
8
2
62
256
6
ByLayer
370
13
48
1
60
0
100
AcDbDimension
2
DimnDraft3D7
10
44.083343
20
1.69
30
0
11
39.458343
21
18.757266
31
0
70
33
71
5
72
1
41
1
210
0
220
0
230
1
3
Standard
100
AcDbAlignedDimension
13
31.0175
23
-1.69
33
0
14
31.0175
24
1.69
34
0
1001
ACAD
1000
DSTYLE
1002
{
1070
   279
1070
     0
1070
    74
1070
     0
1070
   173
1070
     1
1070
   340
1005
DB
1070
   271
1070
     3
1070
   272
1070
     2
1070
    77
1070
     1
1070
    73
1070
     0
1070
   171
1070
     3
1070
   274
1070
     4
1070
   177
1070
    35
1070
   176
1070
    35
1070
   178
1070
    35
1070
    48
1040
-0.005
1070
    41
1041
3.5
1070
   147
1041
1.75
1070
    42
1041
1.5875
1070
    44
1041
2.0
1070
   140
1041
3.5
1070
   343
1005
0
1070
   344
1005
0
1002
}
0
ENDSEC
0
SECTION
2
OBJECTS
0
DICTIONARY
5
190
330
0
100
AcDbDictionary
280
0
281
1
3
ACAD_GROUP
350
191
3
ACAD_MLINESTYLE
350
192
0
DICTIONARY
5
191
330
0
100
AcDbDictionary
280
0
281
1
0
DICTIONARY
5
192
330
0
100
AcDbDictionary
280
0
281
1
3
Standard
350
18
0
MLINESTYLE
5
18
330
192
100
AcDbMlineStyle
2
Standard
70
0
3

62
256
51
90
52
90
71
2
49
-0.5
62
256
6
ByLayer
49
0.5
62
256
6
ByLayer
0
RASTERVARIABLES
5
17e
330

100
AcDbRasterVariables
90
0
70
1
71
1
72
1
0
ENDSEC
0
EOF
