0
SECTION
2
HEADER
9
$ACADVER
1
AC1015
9
$DWGCODEPAGE
3
ANSI_1252
9
$HANDSEED
5
1a9
9
$ANGBASE
50
0
9
$ANGDIR
70
0
9
$ATTMODE
70
1
9
$AUNITS
70
0
9
$AUPREC
70
0
9
$CECOLOR
62
256
9
$CELTSCALE
40
1
9
$CELTYPE
6
ByLayer
9
$CELWEIGHT
370
18
9
$CLAYER
8
0
9
$CMLJUST
70
0
9
$CMLSCALE
40
1
9
$CMLSTYLE
2
Standard
9
$DIMSTYLE
2
Standard
9
$TEXTSIZE
40
0.2
9
$TEXTSTYLE
7
Standard
9
$LUNITS
70
2
9
$LUPREC
70
4
9
$EXTNAMES
290
1
9
$INSUNITS
70
4
9
$LTSCALE
40
1
9
$LWDISPLAY
290
1
9
$PDMODE
70
0
9
$PDSIZE
40
0
9
$PLINEGEN
70
0
0
ENDSEC
0
SECTION
2
CLASSES
0
CLASS
1
RASTERVARIABLES
2
AcDbRasterVariables
3
ISM
90
0
280
0
281
0
0
ENDSEC
0
SECTION
2
TABLES
0
TABLE
2
VPORT
5
19f
100
AcDbSymbolTable
0
VPORT
5
1
100
AcDbSymbolTableRecord
100
AcDbViewportTableRecord
2
*Active
70
0
10
0
20
0
11
1
21
1
12
-1
22
1
13
0
23
0
14
0.5
24
0.5
15
10
25
10
16
0
26
0
36
1
17
0
27
0
37
0
0
ENDTAB
0
TABLE
2
LTYPE
5
1a0
100
AcDbSymbolTable
0
LTYPE
5
14
100
AcDbSymbolTableRecord
100
AcDbLinetypeTableRecord
70
0
2
ByBlock
3

72
65
73
0
40
0
0
LTYPE
5
15
100
AcDbSymbolTableRecord
100
AcDbLinetypeTableRecord
70
0
2
ByLayer
3

72
65
73
0
40
0
0
LTYPE
5
16
100
AcDbSymbolTableRecord
100
AcDbLinetypeTableRecord
70
0
2
CONTINUOUS
3
Solid line
72
65
73
0
40
0
0
LTYPE
5
6A
100
AcDbSymbolTableRecord
100
AcDbLinetypeTableRecord
70
0
2
CENTER
3
____ _ ____ _ ____ _ ____
72
65
73
4
40
47.5
49
22
74
0
49
-8.5
74
0
49
8.5
74
0
49
-8.5
74
0
0
LTYPE
5
6B
100
AcDbSymbolTableRecord
100
AcDbLinetypeTableRecord
70
0
2
DASHED
3
__ __ __ __ __ __ __ __ __
72
65
73
2
40
25.72
49
12.86
74
0
49
-12.86
74
0
0
ENDTAB
0
TABLE
2
LAYER
5
1a1
100
AcDbSymbolTable
0
LAYER
5
10
100
AcDbSymbolTableRecord
100
AcDbLayerTableRecord
2
0
70
0
62
7
6
CONTINUOUS
290
1
370
-3
390
0
0
LAYER
5
6D
100
AcDbSymbolTableRecord
100
AcDbLayerTableRecord
2
81
70
0
62
-3
6
CONTINUOUS
290
1
370
-3
390
0
0
LAYER
5
6F
100
AcDbSymbolTableRecord
100
AcDbLayerTableRecord
2
80
70
0
62
-6
6
CONTINUOUS
290
1
370
-3
390
0
0
LAYER
5
74
100
AcDbSymbolTableRecord
100
AcDbLayerTableRecord
2
2
70
0
62
7
6
CONTINUOUS
290
1
370
-3
390
0
0
LAYER
5
78
100
AcDbSymbolTableRecord
100
AcDbLayerTableRecord
2
1
70
0
62
4
6
CONTINUOUS
290
1
370
-3
390
0
0
LAYER
5
88
100
AcDbSymbolTableRecord
100
AcDbLayerTableRecord
2
4
70
0
62
-2
6
CENTER
290
1
370
-3
390
0
0
LAYER
5
18b
100
AcDbSymbolTableRecord
100
AcDbLayerTableRecord
2
SK2
70
0
62
7
6
CONTINUOUS
290
1
370
-3
390
0
0
LAYER
5
18c
100
AcDbSymbolTableRecord
100
AcDbLayerTableRecord
2
SK1
70
0
62
4
6
CONTINUOUS
290
1
370
-3
390
0
0
LAYER
5
18d
100
AcDbSymbolTableRecord
100
AcDbLayerTableRecord
2
SK4
70
0
62
2
6
CENTER
290
1
370
-3
390
0
0
LAYER
5
18e
100
AcDbSymbolTableRecord
100
AcDbLayerTableRecord
2
SK6
70
0
62
5
6
CONTINUOUS
290
1
370
-3
390
0
0
ENDTAB
0
TABLE
2
STYLE
5
1a2
100
AcDbSymbolTable
0
STYLE
5
11
100
AcDbSymbolTableRecord
100
AcDbTextStyleTableRecord
2
Standard
3
txt
70
0
71
0
40
0
41
1
42
0
50
0
0
STYLE
5
E7
100
AcDbSymbolTableRecord
100
AcDbTextStyleTableRecord
2
iso_b_vert
3
simplex.shx
70
0
71
0
40
0
41
1
42
0
50
0
0
STYLE
5
E8
100
AcDbSymbolTableRecord
100
AcDbTextStyleTableRecord
2
DWGDirectTextStyle
3
simplex
70
0
71
0
40
0
41
1
42
0
50
0
0
ENDTAB
0
TABLE
2
DIMSTYLE
5
1a3
100
AcDbSymbolTable
100
AcDbDimStyleTable
0
DIMSTYLE
105
27
100
AcDbSymbolTableRecord
100
AcDbDimStyleTableRecord
2
Standard
70
0
3
<>
41
0.18
42
0.0625
44
0.18
140
0.18
147
0.09
73
0
74
0
77
1
271
2
275
0
278
52
280
0
340
11
0
ENDTAB
0
TABLE
2
VIEW
5
1a4
100
AcDbSymbolTable
0
ENDTAB
0
TABLE
2
UCS
5
1a5
100
AcDbSymbolTable
0
ENDTAB
0
TABLE
2
APPID
5
1a6
100
AcDbSymbolTable
0
APPID
5
12
100
AcDbSymbolTableRecord
100
AcDbRegAppTableRecord
2
ACAD
70
0
0
ENDTAB
0
TABLE
2
BLOCK_RECORD
5
1a7
100
AcDbSymbolTable
0
BLOCK_RECORD
5
1F
100
AcDbSymbolTableRecord
100
AcDbBlockTableRecord
2
*Model_Space
340
0
70
0
0
BLOCK_RECORD
5
1B
100
AcDbSymbolTableRecord
100
AcDbBlockTableRecord
2
*Paper_Space
340
0
70
0
0
BLOCK_RECORD
5
23
100
AcDbSymbolTableRecord
100
AcDbBlockTableRecord
2
*Paper_Space0
340
0
70
0
0
BLOCK_RECORD
5
EA
100
AcDbSymbolTableRecord
100
AcDbBlockTableRecord
2
DimnDraft3D1
340
0
70
0
0
BLOCK_RECORD
5
F4
100
AcDbSymbolTableRecord
100
AcDbBlockTableRecord
2
DimnDraft3D2
340
0
70
0
0
BLOCK_RECORD
5
FE
100
AcDbSymbolTableRecord
100
AcDbBlockTableRecord
2
DimnDraft3D3
340
0
70
0
0
BLOCK_RECORD
5
108
100
AcDbSymbolTableRecord
100
AcDbBlockTableRecord
2
DimnDraft3D4
340
0
70
0
0
BLOCK_RECORD
5
112
100
AcDbSymbolTableRecord
100
AcDbBlockTableRecord
2
DimnDraft3D5
340
0
70
0
0
BLOCK_RECORD
5
11C
100
AcDbSymbolTableRecord
100
AcDbBlockTableRecord
2
DimnDraft3D6
340
0
70
0
0
BLOCK_RECORD
5
127
100
AcDbSymbolTableRecord
100
AcDbBlockTableRecord
2
DimnDraft3D7
340
0
70
0
0
ENDTAB
0
ENDSEC
0
SECTION
2
BLOCKS
0
BLOCK
5
20
100
AcDbEntity
8
0
100
AcDbBlockBegin
2
*Model_Space
70
0
10
0
20
0
30
0
3
*Model_Space
0
ENDBLK
5
21
100
AcDbEntity
8
0
100
AcDbBlockEnd
0
BLOCK
5
1C
100
AcDbEntity
8
0
100
AcDbBlockBegin
2
*Paper_Space
70
0
10
0
20
0
30
0
3
*Paper_Space
0
ENDBLK
5
1D
100
AcDbEntity
8
0
100
AcDbBlockEnd
0
BLOCK
5
24
100
AcDbEntity
8
0
100
AcDbBlockBegin
2
*Paper_Space0
70
0
10
0
20
0
30
0
3
*Paper_Space0
0
ENDBLK
5
25
100
AcDbEntity
8
0
100
AcDbBlockEnd
0
BLOCK
5
F1
100
AcDbEntity
8
0
100
AcDbBlockBegin
2
DimnDraft3D1
70
0
10
0
20
0
30
0
3
DimnDraft3D1
0
MTEXT
5
EB
100
AcDbEntity
8
SK2
62
256
6
ByLayer
370
13
48
1
60
0
100
AcDbMText
10
8.872954
20
-10.988398
30
0
210
0
220
0
230
1
1
\W0.7756;29,44
40
3.5
41
0
44
1.084337
50
0
71
7
72
5
7
iso_b_vert
0
LINE
5
EC
100
AcDbEntity
8
SK2
62
256
6
ByLayer
370
13
48
1
60
0
100
AcDbLine
10
0
20
-1.5875
30
0
11
0
21
-13.863398
31
0
39
0
210
0
220
0
230
1
0
LINE
5
ED
100
AcDbEntity
8
SK2
62
256
6
ByLayer
370
13
48
1
60
0
100
AcDbLine
10
29.44
20
-3.2375
30
0
11
29.44
21
-13.863398
31
0
39
0
210
0
220
0
230
1
0
LINE
5
EE
100
AcDbEntity
8
SK2
62
256
6
ByLayer
370
13
48
1
60
0
100
AcDbLine
10
0
20
-11.863398
30
0
11
29.44
21
-11.863398
31
0
39
0
210
0
220
0
230
1
0
SOLID
5
EF
100
AcDbEntity
8
SK2
62
256
6
ByLayer
370
13
48
1
60
0
100
AcDbTrace
10
0
20
-11.863398
30
0
11
3.499998
21
-11.402615
31
0
12
3.500002
22
-12.324182
32
0
13
0
23
-11.863398
33
0
39
0
210
0
220
0
230
1
0
SOLID
5
F0
100
AcDbEntity
8
SK2
62
256
6
ByLayer
370
13
48
1
60
0
100
AcDbTrace
10
29.44
20
-11.863398
30
0
11
25.940002
21
-12.324182
31
0
12
25.939998
22
-11.402615
32
0
13
29.44
23
-11.863398
33
0
39
0
210
0
220
0
230
1
0
ENDBLK
5
F2
100
AcDbEntity
8
0
100
AcDbBlockEnd
0
BLOCK
5
FB
100
AcDbEntity
8
0
100
AcDbBlockBegin
2
DimnDraft3D2
70
0
10
0
20
0
30
0
3
DimnDraft3D2
0
MTEXT
5
F5
100
AcDbEntity
8
SK2
62
256
6
ByLayer
370
13
48
1
60
0
100
AcDbMText
10
-6.667384
20
-30.817985
30
0
210
0
220
0
230
1
1
\W0.7317;66,00
40
3.5
41
0
44
1.084337
50
0
71
7
72
5
7
iso_b_vert
0
LINE
5
F6
100
AcDbEntity
8
SK2
62
256
6
ByLayer
370
13
48
1
60
0
100
AcDbLine
10
-36
20
-4.5875
30
0
11
-36
21
-33.692985
31
0
39
0
210
0
220
0
230
1
0
LINE
5
F7
100
AcDbEntity
8
SK2
62
256
6
ByLayer
370
13
48
1
60
0
100
AcDbLine
10
30
20
-1.5875
30
0
11
30
21
-33.692985
31
0
39
0
210
0
220
0
230
1
0
LINE
5
F8
100
AcDbEntity
8
SK2
62
256
6
ByLayer
370
13
48
1
60
0
100
AcDbLine
10
-36
20
-31.692985
30
0
11
30
21
-31.692985
31
0
39
0
210
0
220
0
230
1
0
SOLID
5
F9
100
AcDbEntity
8
SK2
62
256
6
ByLayer
370
13
48
1
60
0
100
AcDbTrace
10
-36
20
-31.692985
30
0
11
-32.500002
21
-31.232202
31
0
12
-32.499998
22
-32.153769
32
0
13
-36
23
-31.692985
33
0
39
0
210
0
220
0
230
1
0
SOLID
5
FA
100
AcDbEntity
8
SK2
62
256
6
ByLayer
370
13
48
1
60
0
100
AcDbTrace
10
30
20
-31.692985
30
0
11
26.500002
21
-32.153769
31
0
12
26.499998
22
-31.232202
32
0
13
30
23
-31.692985
33
0
39
0
210
0
220
0
230
1
0
ENDBLK
5
FC
100
AcDbEntity
8
0
100
AcDbBlockEnd
0
BLOCK
5
105
100
AcDbEntity
8
0
100
AcDbBlockBegin
2
DimnDraft3D3
70
0
10
0
20
0
30
0
3
DimnDraft3D3
0
MTEXT
5
FF
100
AcDbEntity
8
SK2
62
256
6
ByLayer
370
13
48
1
60
0
100
AcDbMText
10
17.458816
20
14.134119
30
0
210
0
220
0
230
1
1
\W0.6713;17,06
40
3.5
41
0
44
1.084337
50
0
71
7
72
5
7
iso_b_vert
0
LINE
5
100
100
AcDbEntity
8
SK2
62
256
6
ByLayer
370
13
48
1
60
0
100
AcDbLine
10
12.94
20
3.2375
30
0
11
12.94
21
15.259119
31
0
39
0
210
0
220
0
230
1
0
LINE
5
101
100
AcDbEntity
8
SK2
62
256
6
ByLayer
370
13
48
1
60
0
100
AcDbLine
10
30
20
1.5875
30
0
11
30
21
15.259119
31
0
39
0
210
0
220
0
230
1
0
LINE
5
102
100
AcDbEntity
8
SK2
62
256
6
ByLayer
370
13
48
1
60
0
100
AcDbLine
10
12.94
20
13.259119
30
0
11
30
21
13.259119
31
0
39
0
210
0
220
0
230
1
0
SOLID
5
103
100
AcDbEntity
8
SK2
62
256
6
ByLayer
370
13
48
1
60
0
100
AcDbTrace
10
12.94
20
13.259119
30
0
11
16.439998
21
13.719903
31
0
12
16.440002
22
12.798335
32
0
13
12.94
23
13.259119
33
0
39
0
210
0
220
0
230
1
0
SOLID
5
104
100
AcDbEntity
8
SK2
62
256
6
ByLayer
370
13
48
1
60
0
100
AcDbTrace
10
30
20
13.259119
30
0
11
26.500002
21
12.798335
31
0
12
26.499998
22
13.719903
32
0
13
30
23
13.259119
33
0
39
0
210
0
220
0
230
1
0
ENDBLK
5
106
100
AcDbEntity
8
0
100
AcDbBlockEnd
0
BLOCK
5
10F
100
AcDbEntity
8
0
100
AcDbBlockBegin
2
DimnDraft3D4
70
0
10
0
20
0
30
0
3
DimnDraft3D4
0
MTEXT
5
109
100
AcDbEntity
8
SK2
62
256
6
ByLayer
370
13
48
1
60
0
100
AcDbMText
10
36.840636
20
-13.577503
30
0
210
0
220
0
230
1
1
\W0.7150;0,56
40
3.5
41
0
44
1.084337
50
0
71
7
72
5
7
iso_b_vert
0
LINE
5
10A
100
AcDbEntity
8
SK2
62
256
6
ByLayer
370
13
48
1
60
0
100
AcDbLine
10
30
20
-1.5875
30
0
11
30
21
-16.452503
31
0
39
0
210
0
220
0
230
1
0
LINE
5
10B
100
AcDbEntity
8
SK2
62
256
6
ByLayer
370
13
48
1
60
0
100
AcDbLine
10
29.44
20
-3.2375
30
0
11
29.44
21
-16.452503
31
0
39
0
210
0
220
0
230
1
0
LINE
5
10C
100
AcDbEntity
8
SK2
62
256
6
ByLayer
370
13
48
1
60
0
100
AcDbLine
10
20.69
20
-14.452503
30
0
11
43.997215
21
-14.452503
31
0
39
0
210
0
220
0
230
1
0
SOLID
5
10D
100
AcDbEntity
8
SK2
62
256
6
ByLayer
370
13
48
1
60
0
100
AcDbTrace
10
30
20
-14.452503
30
0
11
33.499998
21
-13.991719
31
0
12
33.500002
22
-14.913287
32
0
13
30
23
-14.452503
33
0
39
0
210
0
220
0
230
1
0
SOLID
5
10E
100
AcDbEntity
8
SK2
62
256
6
ByLayer
370
13
48
1
60
0
100
AcDbTrace
10
29.44
20
-14.452503
30
0
11
25.940002
21
-14.913287
31
0
12
25.939998
22
-13.991719
32
0
13
29.44
23
-14.452503
33
0
39
0
210
0
220
0
230
1
0
ENDBLK
5
110
100
AcDbEntity
8
0
100
AcDbBlockEnd
0
BLOCK
5
119
100
AcDbEntity
8
0
100
AcDbBlockBegin
2
DimnDraft3D5
70
0
10
0
20
0
30
0
3
DimnDraft3D5
0
MTEXT
5
113
100
AcDbEntity
8
SK2
62
256
6
ByLayer
370
13
48
1
60
0
100
AcDbMText
10
-10.116429
20
-20.468428
30
0
210
0
220
0
230
1
1
\W0.7756;65,44
40
3.5
41
0
44
1.084337
50
0
71
7
72
5
7
iso_b_vert
0
LINE
5
114
100
AcDbEntity
8
SK2
62
256
6
ByLayer
370
13
48
1
60
0
100
AcDbLine
10
-36
20
-4.5875
30
0
11
-36
21
-23.343428
31
0
39
0
210
0
220
0
230
1
0
LINE
5
115
100
AcDbEntity
8
SK2
62
256
6
ByLayer
370
13
48
1
60
0
100
AcDbLine
10
29.44
20
-3.2375
30
0
11
29.44
21
-23.343428
31
0
39
0
210
0
220
0
230
1
0
LINE
5
116
100
AcDbEntity
8
SK2
62
256
6
ByLayer
370
13
48
1
60
0
100
AcDbLine
10
-36
20
-21.343428
30
0
11
29.44
21
-21.343428
31
0
39
0
210
0
220
0
230
1
0
SOLID
5
117
100
AcDbEntity
8
SK2
62
256
6
ByLayer
370
13
48
1
60
0
100
AcDbTrace
10
-36
20
-21.343428
30
0
11
-32.500002
21
-20.882645
31
0
12
-32.499998
22
-21.804212
32
0
13
-36
23
-21.343428
33
0
39
0
210
0
220
0
230
1
0
SOLID
5
118
100
AcDbEntity
8
SK2
62
256
6
ByLayer
370
13
48
1
60
0
100
AcDbTrace
10
29.44
20
-21.343428
30
0
11
25.940002
21
-21.804212
31
0
12
25.939998
22
-20.882645
32
0
13
29.44
23
-21.343428
33
0
39
0
210
0
220
0
230
1
0
ENDBLK
5
11A
100
AcDbEntity
8
0
100
AcDbBlockEnd
0
BLOCK
5
124
100
AcDbEntity
8
0
100
AcDbBlockBegin
2
DimnDraft3D6
70
0
10
0
20
0
30
0
3
DimnDraft3D6
0
MTEXT
5
11D
100
AcDbEntity
8
SK2
62
256
6
ByLayer
370
13
48
1
60
0
100
AcDbMText
10
-46.375163
20
22.34918
30
0
210
0
220
0
230
1
1
\W0.7317;6,000
40
3.5
41
0
44
1.084337
50
90
71
7
72
5
7
iso_b_vert
0
MTEXT
5
11E
100
AcDbEntity
8
SK2
62
256
6
ByLayer
370
13
48
1
60
0
100
AcDbMText
10
-46.375163
20
17.126524
30
0
210
0
220
0
230
1
1
%%c
40
3.5
41
0
44
1.084337
50
90
71
7
72
5
7
iso_b_vert
0
LINE
5
11F
100
AcDbEntity
8
SK2
62
256
6
ByLayer
370
13
48
1
60
0
100
AcDbLine
10
-37.5875
20
-3
30
0
11
-46.625163
21
-3
31
0
39
0
210
0
220
0
230
1
0
LINE
5
120
100
AcDbEntity
8
SK2
62
256
6
ByLayer
370
13
48
1
60
0
100
AcDbLine
10
-37.5875
20
3
30
0
11
-46.625163
21
3
31
0
39
0
210
0
220
0
230
1
0
LINE
5
121
100
AcDbEntity
8
SK2
62
256
6
ByLayer
370
13
48
1
60
0
100
AcDbLine
10
-44.625163
20
32.121549
30
0
11
-44.625163
21
-11.75
31
0
39
0
210
0
220
0
230
1
0
SOLID
5
122
100
AcDbEntity
8
SK2
62
256
6
ByLayer
370
13
48
1
60
0
100
AcDbTrace
10
-44.625163
20
-3
30
0
11
-44.164379
21
-6.499998
31
0
12
-45.085946
22
-6.500002
32
0
13
-44.625163
23
-3
33
0
39
0
210
0
220
0
230
1
0
SOLID
5
123
100
AcDbEntity
8
SK2
62
256
6
ByLayer
370
13
48
1
60
0
100
AcDbTrace
10
-44.625163
20
3
30
0
11
-45.085946
21
6.499998
31
0
12
-44.164379
22
6.500002
32
0
13
-44.625163
23
3
33
0
39
0
210
0
220
0
230
1
0
ENDBLK
5
125
100
AcDbEntity
8
0
100
AcDbBlockEnd
0
BLOCK
5
12F
100
AcDbEntity
8
0
100
AcDbBlockBegin
2
DimnDraft3D7
70
0
10
0
20
0
30
0
3
DimnDraft3D7
0
MTEXT
5
128
100
AcDbEntity
8
2
62
256
6
ByLayer
370
13
48
1
60
0
100
AcDbMText
10
40.333343
20
19.592266
30
0
210
0
220
0
230
1
1
\W0.7317;3,300
40
3.5
41
0
44
1.084337
50
90
71
7
72
5
7
iso_b_vert
0
MTEXT
5
129
100
AcDbEntity
8
2
62
256
6
ByLayer
370
13
48
1
60
0
100
AcDbMText
10
40.333343
20
14.36961
30
0
210
0
220
0
230
1
1
%%c
40
3.5
41
0
44
1.084337
50
90
71
7
72
5
7
iso_b_vert
0
LINE
5
12A
100
AcDbEntity
8
2
62
256
6
ByLayer
370
13
48
1
60
0
100
AcDbLine
10
31.0275
20
-1.65
30
0
11
44.083343
21
-1.65
31
0
39
0
210
0
220
0
230
1
0
LINE
5
12B
100
AcDbEntity
8
2
62
256
6
ByLayer
370
13
48
1
60
0
100
AcDbLine
10
31.0275
20
1.65
30
0
11
44.083343
21
1.65
31
0
39
0
210
0
220
0
230
1
0
LINE
5
12C
100
AcDbEntity
8
2
62
256
6
ByLayer
370
13
48
1
60
0
100
AcDbLine
10
42.083343
20
29.364635
30
0
11
42.083343
21
-10.4
31
0
39
0
210
0
220
0
230
1
0
SOLID
5
12D
100
AcDbEntity
8
2
62
256
6
ByLayer
370
13
48
1
60
0
100
AcDbTrace
10
42.083343
20
-1.65
30
0
11
42.544126
21
-5.149998
31
0
12
41.622559
22
-5.150002
32
0
13
42.083343
23
-1.65
33
0
39
0
210
0
220
0
230
1
0
SOLID
5
12E
100
AcDbEntity
8
2
62
256
6
ByLayer
370
13
48
1
60
0
100
AcDbTrace
10
42.083343
20
1.65
30
0
11
41.622559
21
5.149998
31
0
12
42.544126
22
5.150002
32
0
13
42.083343
23
1.65
33
0
39
0
210
0
220
0
230
1
0
ENDBLK
5
130
100
AcDbEntity
8
0
100
AcDbBlockEnd
0
ENDSEC
0
SECTION
2
ENTITIES
0
ARC
5
9E
100
AcDbEntity
8
1
62
256
6
ByLayer
370
18
48
1
60
0
100
AcDbCircle
39
0
10
0
20
2.2
30
0
40
0.800000000000003
210
0
220
0
230
1
100
AcDbArc
50
8.382752
51
90
0
ARC
5
9F
100
AcDbEntity
8
1
62
256
6
ByLayer
370
18
48
1
60
0
100
AcDbCircle
39
0
10
0
20
-2.2
30
0
40
0.800000000000003
210
0
220
0
230
1
100
AcDbArc
50
270
51
351.617248
0
ARC
5
A0
100
AcDbEntity
8
1
62
256
6
ByLayer
370
18
48
1
60
0
100
AcDbCircle
39
0
10
-1.582906
20
2.433256
30
0
40
0.800000000000003
210
0
220
0
230
-1
100
AcDbArc
50
269.965623
51
351.617248
0
ARC
5
A1
100
AcDbEntity
8
1
62
256
6
ByLayer
370
18
48
1
60
0
100
AcDbCircle
39
0
10
-1.582906
20
-2.433256
30
0
40
0.800000000000003
210
0
220
0
230
-1
100
AcDbArc
50
8.382752
51
90.034377
0
ELLIPSE
5
A2
100
AcDbEntity
8
1
62
256
6
ByLayer
370
18
48
1
60
0
100
AcDbEllipse
10
4.25
20
1.795138
30
0
11
0.25
21
0
31
0
210
0
220
0
230
1
40
1
41
-2.37230498428073
42
-1.55921272428594
0
ELLIPSE
5
A3
100
AcDbEntity
8
1
62
256
6
ByLayer
370
18
48
1
60
0
100
AcDbEllipse
10
4.25
20
-1.795138
30
0
11
0.25
21
0
31
0
210
0
220
0
230
1
40
1
41
1.57301567410268
42
2.39251020364353
0
ELLIPSE
5
A4
100
AcDbEntity
8
1
62
256
6
ByLayer
370
18
48
1
60
0
100
AcDbEllipse
10
29.658343
20
0.842038
30
0
11
0.258305649060597
21
-0.691939205518278
31
0
210
0
220
0
230
-1
40
0.148387
41
-1.43657860306299
42
-0.730060677419405
0
ELLIPSE
5
A5
100
AcDbEntity
8
1
62
256
6
ByLayer
370
13
48
1
60
0
100
AcDbEllipse
10
4.250271
20
0.660235
30
0
11
0.0444459827163637
21
0.089579878434706
31
0
210
0
220
0
230
1
40
0.192522
41
2.89056864717639
42
-1.93714915105188
0
ELLIPSE
5
A6
100
AcDbEntity
8
1
62
256
6
ByLayer
370
13
48
1
60
0
100
AcDbEllipse
10
30.035916
20
0.842038
30
0
11
1.19795320559667
21
-0.458883545390448
31
0
210
0
220
0
230
-1
40
0.433491
41
1.6324841015398
42
1.94694885964225
0
ELLIPSE
5
A7
100
AcDbEntity
8
1
62
256
6
ByLayer
370
18
48
1
60
0
100
AcDbEllipse
10
29.658343
20
-0.842038
30
0
11
0.258305649089748
21
0.691939205575918
31
0
210
0
220
0
230
-1
40
0.148387
41
0.730060677407806
42
1.4365786030011
0
ELLIPSE
5
A8
100
AcDbEntity
8
1
62
256
6
ByLayer
370
18
48
1
60
0
100
AcDbEllipse
10
30.067502
20
0.040482
30
0
11
0.133321008274775
21
0.42521361201289
31
0
210
0
220
0
230
-1
40
0.112798
41
-2.3495039358479
42
-1.74171652107636
0
ELLIPSE
5
A9
100
AcDbEntity
8
1
62
256
6
ByLayer
370
13
48
1
60
0
100
AcDbEllipse
10
29.84601
20
0.71884
30
0
11
1.13981958802323
21
-0.784798198705087
31
0
210
0
220
0
230
-1
40
0.533762
41
1.44484622736828
42
1.76684311778571
0
ELLIPSE
5
AA
100
AcDbEntity
8
1
62
256
6
ByLayer
370
13
48
1
60
0
100
AcDbEllipse
10
4.177921
20
0.702898
30
0
11
0.0574824059747717
21
0.0818277031533425
31
0
210
0
220
0
230
1
40
0.221353
41
2.18836722229434
42
-3.08316936945992
0
ELLIPSE
5
AB
100
AcDbEntity
8
1
62
256
6
ByLayer
370
18
48
1
60
0
100
AcDbEllipse
10
30.067502
20
-0.040482
30
0
11
0.133321008173008
21
-0.42521361176069
31
0
210
0
220
0
230
-1
40
0.112798
41
1.74171652070524
42
2.34950393579157
0
ELLIPSE
5
AC
100
AcDbEntity
8
1
62
256
6
ByLayer
370
18
48
1
60
0
100
AcDbEllipse
10
29.861144
20
0.081957
30
0
11
0.0727819104894076
21
0.301917195732169
31
0
210
0
220
0
230
-1
40
0.478434
41
1.67128521307841
42
2.45976119974458
0
ELLIPSE
5
AD
100
AcDbEntity
8
1
62
256
6
ByLayer
370
13
48
1
60
0
100
AcDbEllipse
10
29.763521
20
0.139881
30
0
11
0.153082081612425
21
0.258003636193769
31
0
210
0
220
0
230
1
40
0.454519
41
0.917105603404793
42
2.31336900500031
0
ELLIPSE
5
AE
100
AcDbEntity
8
1
62
256
6
ByLayer
370
18
48
1
60
0
100
AcDbEllipse
10
30.000159
20
-0.00036
30
0
11
0.615127717747621
21
-1.64778037831848
31
0
210
0
220
0
230
-1
40
0.148387
41
-2.97383382146895
42
-2.83107367787339
0
ELLIPSE
5
AF
100
AcDbEntity
8
1
62
256
6
ByLayer
370
18
48
1
60
0
100
AcDbEllipse
10
30.000159
20
0.00036
30
0
11
0.615127724860772
21
1.64778039968436
31
0
210
0
220
0
230
-1
40
0.148387
41
2.83107367992825
42
2.97383382258369
0
POINT
5
6C
100
AcDbEntity
8
81
62
256
6
ByLayer
370
18
48
1
60
0
100
AcDbPoint
10
30
20
0
30
0
39
0
210
0
220
0
230
1
50
360
0
POINT
5
6E
100
AcDbEntity
8
80
62
256
6
ByLayer
370
18
48
1
60
0
100
AcDbPoint
10
0
20
0
30
0
39
0
210
0
220
0
230
1
50
360
0
POINT
5
70
100
AcDbEntity
8
SK2
62
256
6
ByLayer
370
18
48
1
60
1
100
AcDbPoint
10
-36
20
-3
30
0
39
0
210
0
220
0
230
1
50
360
0
POINT
5
72
100
AcDbEntity
8
SK2
62
256
6
ByLayer
370
18
48
1
60
1
100
AcDbPoint
10
-36
20
3
30
0
39
0
210
0
220
0
230
1
50
360
0
POINT
5
73
100
AcDbEntity
8
2
62
256
6
ByLayer
370
18
48
1
60
1
100
AcDbPoint
10
29.44
20
-1.65
30
0
39
0
210
0
220
0
230
1
50
360
0
POINT
5
75
100
AcDbEntity
8
2
62
256
6
ByLayer
370
18
48
1
60
1
100
AcDbPoint
10
29.44
20
1.65
30
0
39
0
210
0
220
0
230
1
50
360
0
SPLINE
5
B0
100
AcDbEntity
8
1
62
256
6
ByLayer
370
18
48
1
60
0
100
AcDbSpline
70
4
71
2
72
6
73
3
40
0
40
0
40
0
40
1
40
1
40
1
41
1
10
5.47613681011609
20
1.5458775258335
30
0
41
1
10
4.8637383678381
20
1.5470160507204
30
0
41
1
10
4.25116946594696
20
1.54445921821574
30
0
0
SPLINE
5
B1
100
AcDbEntity
8
1
62
256
6
ByLayer
370
18
48
1
60
0
100
AcDbSpline
70
4
71
3
72
18
73
14
40
0
40
0
40
0
40
0
40
0.151829462461407
40
0.271536666725535
40
0.359210674434446
40
0.416057088931565
40
0.462933478497101
40
0.506827786884553
40
0.54846597142384
40
0.60330657884346
40
0.677481779859592
40
0.824806262495487
40
1
40
1
40
1
40
1
41
1
10
10.2348444394255
20
-1.5474469004125
30
0
41
1
10
10.4755685878202
20
-1.54758911711787
30
0
41
1
10
10.9062732451565
20
-1.54797622555924
30
0
41
1
10
11.4768433138829
20
-1.5477868654668
30
0
41
1
10
11.8963315607995
20
-1.54911818352957
30
0
41
1
10
12.2000279672139
20
-1.54876767630634
30
0
41
1
10
12.4342123850948
20
-1.54925036931866
30
0
41
1
10
12.6443105439633
20
-1.55030663155409
30
0
41
1
10
12.8671123124024
20
-1.5493858148335
30
0
41
1
10
13.1380562101551
20
-1.5489791234437
30
0
41
1
10
13.5768276217951
20
-1.55158324025581
30
0
41
1
10
14.2068136556695
20
-1.55036812880985
30
0
41
1
10
14.7188049257922
20
-1.55109709758108
30
0
41
1
10
14.9968944688866
20
-1.5512982865589
30
0
0
SPLINE
5
B2
100
AcDbEntity
8
1
62
256
6
ByLayer
370
18
48
1
60
0
100
AcDbSpline
70
4
71
1
72
4
73
2
40
0
40
0
40
1
40
1
41
1
10
29.2360034207688
20
-1.55876976925251
30
0
41
1
10
29.4040323659954
20
-1.55653990660298
30
0
0
SPLINE
5
B3
100
AcDbEntity
8
1
62
256
6
ByLayer
370
18
48
1
60
0
100
AcDbSpline
70
4
71
3
72
18
73
14
40
0
40
0
40
0
40
0
40
0.145368959549379
40
0.260888333788359
40
0.346502339905698
40
0.40317066654102
40
0.450029108655256
40
0.493937371745306
40
0.535524933249608
40
0.590765540316812
40
0.666550588577076
40
0.818395786826789
40
1
40
1
40
1
40
1
41
1
10
19.7568970070989
20
-1.55338977419561
30
0
41
1
10
19.9872685204711
20
-1.55345801058149
30
0
41
1
10
20.4008886942451
20
-1.55366669865768
30
0
41
1
10
20.951002632357
20
-1.55356544581292
30
0
41
1
10
21.3601166049699
20
-1.55436446935772
30
0
41
1
10
21.6601116091709
20
-1.55383246194634
30
0
41
1
10
21.8939018551936
20
-1.55488201680509
30
0
41
1
10
22.1037995584405
20
-1.55492455641956
30
0
41
1
10
22.3270295242128
20
-1.55433708531436
30
0
41
1
10
22.6009689676898
20
-1.55500254083637
30
0
41
1
10
23.049891030897
20
-1.55536600356038
30
0
41
1
10
23.6994914721219
20
-1.554834215298
30
0
41
1
10
24.2285973287191
20
-1.55569969191788
30
0
41
1
10
24.5167355678463
20
-1.55631859168878
30
0
0
SPLINE
5
B4
100
AcDbEntity
8
1
62
256
6
ByLayer
370
18
48
1
60
0
100
AcDbSpline
70
4
71
3
72
15
73
11
40
0
40
0
40
0
40
0
40
0.194820485594083
40
0.340051929628614
40
0.457975446449867
40
0.542668426859802
40
0.642105959520725
40
0.778912907335166
40
0.956209990686478
40
1
40
1
40
1
40
1
41
1
10
24.5232311212249
20
1.55631526136412
30
0
41
1
10
24.2595303982012
20
1.55574120599763
30
0
41
1
10
23.7992324803736
20
1.55516698606621
30
0
41
1
10
23.1790430489752
20
1.55441312591978
30
0
41
1
10
22.7082747365799
20
1.55578872977367
30
0
41
1
10
22.2992669215023
20
1.55412159987179
30
0
41
1
10
21.8647445274478
20
1.55509099290811
30
0
41
1
10
21.3050296613299
20
1.5540266597113
30
0
41
1
10
20.8203577761813
20
1.55377248865733
30
0
41
1
10
20.5210871558383
20
1.55363123410152
30
0
41
1
10
20.4618161792301
20
1.5536045460143
30
0
0
SPLINE
5
B5
100
AcDbEntity
8
1
62
256
6
ByLayer
370
18
48
1
60
0
100
AcDbSpline
70
4
71
3
72
15
73
11
40
0
40
0
40
0
40
0
40
0.185337470192314
40
0.332127572090966
40
0.456439066474687
40
0.542982767835113
40
0.642630585182173
40
0.779520103382272
40
0.957371609850703
40
1
40
1
40
1
40
1
41
1
10
15.005059405333
20
1.55130836829167
30
0
41
1
10
14.7546113485798
20
1.55135820896143
30
0
41
1
10
14.305763608989
20
1.55121151760355
30
0
41
1
10
13.6883110844182
20
1.54986128482264
30
0
41
1
10
13.2051694730892
20
1.54925267611122
30
0
41
1
10
12.7852234636149
20
1.54991024688351
30
0
41
1
10
12.3483598009045
20
1.54896908653419
30
0
41
1
10
11.7882168155414
20
1.54911103232973
30
0
41
1
10
11.3048834809256
20
1.54832321147288
30
0
41
1
10
11.0068160516212
20
1.54801057864182
30
0
41
1
10
10.9491907785382
20
1.54795533783931
30
0
0
SPLINE
5
B6
100
AcDbEntity
8
1
62
256
6
ByLayer
370
18
48
1
60
0
100
AcDbSpline
70
4
71
2
72
6
73
3
40
0
40
0
40
0
40
1
40
1
40
1
41
1
10
4.25116946594693
20
-1.54445921821574
30
0
41
1
10
4.86394412436374
20
-1.54701661927615
30
0
41
1
10
5.47654826590778
20
-1.5458774216261
30
0
0
SPLINE
5
B7
100
AcDbEntity
8
1
62
256
6
ByLayer
370
18
48
1
60
0
100
AcDbSpline
70
4
71
3
72
8
73
4
40
0
40
0
40
0
40
0
40
1
40
1
40
1
40
1
41
1
10
24.6773458526525
20
-0.387253857620664
30
0
41
1
10
24.694812924038
20
-0.397142105335547
30
0
41
1
10
24.7164911316533
20
-0.409202833594918
30
0
41
1
10
24.7451509371273
20
-0.424849199430867
30
0
0
SPLINE
5
B8
100
AcDbEntity
8
1
62
256
6
ByLayer
370
18
48
1
60
0
100
AcDbSpline
70
4
71
3
72
66
73
62
40
0
40
0
40
0
40
0
40
0.0251188095738756
40
0.0251188095738756
40
0.0561679428955483
40
0.0561679428955483
40
0.087217076217221
40
0.087217076217221
40
0.118266209538894
40
0.118266209538894
40
0.149315342860566
40
0.149315342860566
40
0.180364476182239
40
0.180364476182239
40
0.211413609503912
40
0.211413609503912
40
0.242462742825584
40
0.242462742825584
40
0.30456100946893
40
0.30456100946893
40
0.335610142790603
40
0.335610142790603
40
0.366659276112275
40
0.366659276112275
40
0.397708409433948
40
0.397708409433948
40
0.428757542755621
40
0.428757542755621
40
0.459806676077293
40
0.459806676077293
40
0.490855809398966
40
0.490855809398966
40
0.521904942720639
40
0.521904942720639
40
0.552954076042312
40
0.552954076042312
40
0.584003209363984
40
0.584003209363984
40
0.615052342685657
40
0.615052342685657
40
0.677150609329004
40
0.677150609329004
40
0.739248875972351
40
0.739248875972351
40
0.770298009294024
40
0.770298009294024
40
0.801347142615697
40
0.801347142615697
40
0.832396275937371
40
0.832396275937371
40
0.863445409259044
40
0.863445409259044
40
0.894494542580717
40
0.894494542580717
40
0.925543675902391
40
0.925543675902391
40
0.956592809224065
40
0.956592809224065
40
0.987641942545738
40
0.987641942545738
40
1
40
1
40
1
40
1
41
1
10
26.5089466997234
20
-1.23418672692492
30
0
41
1
10
26.4126354758621
20
-1.26430657618161
30
0
41
1
10
26.3162358004919
20
-1.29253476267897
30
0
41
1
10
26.1005296392785
20
-1.35155490929327
30
0
41
1
10
25.9816031584698
20
-1.38118583880731
30
0
41
1
10
25.743639680985
20
-1.43298830454489
30
0
41
1
10
25.6246468261465
20
-1.45513167840892
30
0
41
1
10
25.3867935792032
20
-1.49321182151959
30
0
41
1
10
25.2678892264921
20
-1.5092337882333
30
0
41
1
10
25.0294059227508
20
-1.53464871349897
30
0
41
1
10
24.9101558075535
20
-1.54397597906728
30
0
41
1
10
24.6722053396288
20
-1.55546721501793
30
0
41
1
10
24.5535521457092
20
-1.55767513444664
30
0
41
1
10
24.3158429687663
20
-1.55425336952084
30
0
41
1
10
24.1967501270191
20
-1.54832866892474
30
0
41
1
10
23.9581085451503
20
-1.52935245932886
30
0
41
1
10
23.8389742474532
20
-1.516884769455
30
0
41
1
10
23.4820971155225
20
-1.46936452055192
30
0
41
1
10
23.24408970546
20
-1.42308292905867
30
0
41
1
10
22.886650800155
20
-1.33534351635626
30
0
41
1
10
22.7674341736723
20
-1.30300815881179
30
0
41
1
10
22.5293364495517
20
-1.23177151397599
30
0
41
1
10
22.4103936576524
20
-1.19318228686293
30
0
41
1
10
22.1726586722903
20
-1.11127793401815
30
0
41
1
10
22.0537559493952
20
-1.06771901254265
30
0
41
1
10
21.8151881463605
20
-0.975437942055493
30
0
41
1
10
21.6958024915208
20
-0.926710796269504
30
0
41
1
10
21.4577796871004
20
-0.825873978108319
30
0
41
1
10
21.3390290946514
20
-0.773377217212328
30
0
41
1
10
21.1010367994272
20
-0.665288543603253
30
0
41
1
10
20.9818368056451
20
-0.609488655685993
30
0
41
1
10
20.7433160830589
20
-0.495031764977341
30
0
41
1
10
20.6241615393965
20
-0.436434094637605
30
0
41
1
10
20.386140557558
20
-0.317964894432521
30
0
41
1
10
20.2671257645204
20
-0.258086216805424
30
0
41
1
10
20.0290722686528
20
-0.137221523906419
30
0
41
1
10
19.9102009359835
20
-0.0760033760095382
30
0
41
1
10
19.6718261052701
20
0.0464418689382455
30
0
41
1
10
19.5524398145017
20
0.1074620124852
30
0
41
1
10
19.1951630743234
20
0.288865659228662
30
0
41
1
10
18.9579374097112
20
0.409228144516703
30
0
41
1
10
18.4806898250303
20
0.638421384519177
30
0
41
1
10
18.2427703072208
20
0.749054130131469
30
0
41
1
10
17.8855788973263
20
0.901602648217391
30
0
41
1
10
17.7664519916444
20
0.950401087560721
30
0
41
1
10
17.5280553151868
20
1.04418018525254
30
0
41
1
10
17.4087784443179
20
1.08909906894874
30
0
41
1
10
17.1705733429905
20
1.17246035365164
30
0
41
1
10
17.0515126153064
20
1.21103856424557
30
0
41
1
10
16.8135605776879
20
1.28348266044378
30
0
41
1
10
16.6947317898149
20
1.31738600717068
30
0
41
1
10
16.4562277583483
20
1.37796669197436
30
0
41
1
10
16.33669053129
20
1.40457921701812
30
0
41
1
10
16.0984632869806
20
1.45183411147985
30
0
41
1
10
15.9796128934512
20
1.47272502761615
30
0
41
1
10
15.7416639629607
20
1.50706380172369
30
0
41
1
10
15.6225074984866
20
1.52021844777343
30
0
41
1
10
15.3838468629835
20
1.53975360479038
30
0
41
1
10
15.2645296481216
20
1.54650418161342
30
0
41
1
10
15.0980803651867
20
1.55074404238999
30
0
41
1
10
15.0506954665282
20
1.5513258846577
30
0
41
1
10
15.003310728194
20
1.5513065348384
30
0
0
SPLINE
5
B9
100
AcDbEntity
8
1
62
256
6
ByLayer
370
18
48
1
60
0
100
AcDbSpline
70
4
71
3
72
18
73
14
40
0
40
0
40
0
40
0
40
0.0747872133181033
40
0.0747872133181033
40
0.22898934443175
40
0.22898934443175
40
0.383191475545398
40
0.383191475545398
40
0.691595737772699
40
0.691595737772699
40
0.84579786888635
40
0.84579786888635
40
1
40
1
40
1
40
1
41
1
10
7.45205169041756
20
-1.23122994711628
30
0
41
1
10
7.39431405440629
20
-1.24916629783306
30
0
41
1
10
7.33658809318322
20
-1.26641081022819
30
0
41
1
10
7.15967897590272
20
-1.31674108942354
30
0
41
1
10
7.04037079840884
20
-1.34735849775322
30
0
41
1
10
6.80155259447918
20
-1.40292359708025
30
0
41
1
10
6.68215685120302
20
-1.42788693822939
30
0
41
1
10
6.32538559843442
20
-1.49169573088307
30
0
41
1
10
6.08843999672021
20
-1.5200727880123
30
0
41
1
10
5.7335777357622
20
-1.54223946807096
30
0
41
1
10
5.61511014128448
20
-1.54564607323394
30
0
41
1
10
5.37777051083987
20
-1.54578432667677
30
0
41
1
10
5.2589363217264
20
-1.54277073587693
30
0
41
1
10
5.13993661456107
20
-1.53608758230249
30
0
0
SPLINE
5
BA
100
AcDbEntity
8
1
62
256
6
ByLayer
370
18
48
1
60
0
100
AcDbSpline
70
4
71
3
72
38
73
34
40
0
40
0
40
0
40
0
40
0.0399521007998626
40
0.0399521007998626
40
0.0799042015997252
40
0.0799042015997252
40
0.15980840319945
40
0.15980840319945
40
0.239712604799175
40
0.239712604799175
40
0.27966470559904
40
0.27966470559904
40
0.319616806398904
40
0.319616806398904
40
0.479425209598359
40
0.479425209598359
40
0.519377310398223
40
0.519377310398223
40
0.559329411198087
40
0.559329411198087
40
0.639233612797816
40
0.639233612797816
40
0.719137814397544
40
0.719137814397544
40
0.799042015997273
40
0.799042015997273
40
0.878946217597001
40
0.878946217597001
40
0.918898318396866
40
0.918898318396866
40
0.958850419196731
40
0.958850419196731
40
1
40
1
40
1
40
1
41
1
10
29.4344936425947
20
-1.63952839125659
30
0
41
1
10
29.3021956559907
20
-1.64757158066101
30
0
41
1
10
29.1700178331144
20
-1.6508634841839
30
0
41
1
10
28.9054648959319
20
-1.64802281476446
30
0
41
1
10
28.7727872587522
20
-1.64185856177411
30
0
41
1
10
28.3766545990432
20
-1.60949955681133
30
0
41
1
10
28.1149959698109
20
-1.56951601043983
30
0
41
1
10
27.5922633197688
20
-1.45606863623448
30
0
41
1
10
27.331276520121
20
-1.38256364108827
30
0
41
1
10
26.9374498203824
20
-1.24957720457536
30
0
41
1
10
26.8057555640275
20
-1.20149473646808
30
0
41
1
10
26.5410547434234
20
-1.09824693890906
30
0
41
1
10
26.4088507370609
20
-1.0433717651531
30
0
41
1
10
25.7514184420517
20
-0.756600687030868
30
0
41
1
10
25.2330102005189
20
-0.4853923848043
30
0
41
1
10
24.5736935343241
20
-0.130204244707443
30
0
41
1
10
24.4408422629243
20
-0.0581404494290894
30
0
41
1
10
24.1767808009029
20
0.085117677505707
30
0
41
1
10
24.0453661157849
20
0.156464206868605
30
0
41
1
10
23.6522008127147
20
0.368235655322536
30
0
41
1
10
23.3912418654929
20
0.505861160475206
30
0
41
1
10
22.8682121497674
20
0.767900494735983
30
0
41
1
10
22.6059089935843
20
0.891909590194814
30
0
41
1
10
22.0761919343814
20
1.11958724621928
30
0
41
1
10
21.8132839392661
20
1.22074471006064
30
0
41
1
10
21.2899876202301
20
1.39317062863634
30
0
41
1
10
21.029024479503
20
1.46435594932524
30
0
41
1
10
20.6359962384174
20
1.54605515385873
30
0
41
1
10
20.5046905759149
20
1.56907725642711
30
0
41
1
10
20.2409476298631
20
1.60622972255084
30
0
41
1
10
20.1080904911437
20
1.62038049305207
30
0
41
1
10
19.8401137768915
20
1.63949639129834
30
0
41
1
10
19.7047390958074
20
1.64421893640878
30
0
41
1
10
19.5696945789383
20
1.64404583839567
30
0
0
SPLINE
5
BB
100
AcDbEntity
8
1
62
256
6
ByLayer
370
18
48
1
60
0
100
AcDbSpline
70
4
71
3
72
26
73
22
40
0
40
0
40
0
40
0
40
0.0602594703231212
40
0.0602594703231212
40
0.177727036532734
40
0.177727036532734
40
0.236460819637538
40
0.236460819637538
40
0.295194602742343
40
0.295194602742343
40
0.530129735161563
40
0.530129735161563
40
0.588863518266369
40
0.588863518266369
40
0.647597301371174
40
0.647597301371174
40
0.765064867580783
40
0.765064867580783
40
0.882532433790392
40
0.882532433790392
40
1
40
1
40
1
40
1
41
1
10
10.9214327654088
20
-1.57207029280332
30
0
41
1
10
10.786780246597
20
-1.59257364187269
30
0
41
1
10
10.6524811197232
20
-1.60836809895272
30
0
41
1
10
10.2565676335008
20
-1.64083047622165
30
0
41
1
10
9.99530328341268
20
-1.64414400065806
30
0
41
1
10
9.60083278966073
20
-1.62136862317024
30
0
41
1
10
9.46892939368971
20
-1.60916216668508
30
0
41
1
10
9.20387549988263
20
-1.57539958129215
30
0
41
1
10
9.07155230324656
20
-1.55395678609708
30
0
41
1
10
8.41333985839503
20
-1.4257195757065
30
0
41
1
10
7.89395260135743
20
-1.25527878683604
30
0
41
1
10
7.23414135837714
20
-0.978809958761332
30
0
41
1
10
7.10120825920811
20
-0.920129809644635
30
0
41
1
10
6.83678780065219
20
-0.798509511692316
30
0
41
1
10
6.70515496055691
20
-0.73553775279612
30
0
41
1
10
6.31126064595949
20
-0.541466992704102
30
0
41
1
10
6.04999727470758
20
-0.405218290894396
30
0
41
1
10
5.52611716093199
20
-0.126370305804954
30
0
41
1
10
5.26367896297714
20
0.0165681572363781
30
0
41
1
10
4.7334549647565
20
0.301410482924609
30
0
41
1
10
4.46845309073416
20
0.441658357340174
30
0
41
1
10
4.20293397309422
20
0.575587725342615
30
0
0
SPLINE
5
BC
100
AcDbEntity
8
1
62
256
6
ByLayer
370
18
48
1
60
0
100
AcDbSpline
70
4
71
3
72
20
73
16
40
0
40
0
40
0
40
0
40
0.124999999999992
40
0.124999999999992
40
0.249999999999984
40
0.249999999999984
40
0.374999999999976
40
0.374999999999976
40
0.499999999999968
40
0.499999999999968
40
0.62499999999996
40
0.62499999999996
40
0.749999999999952
40
0.749999999999952
40
1
40
1
40
1
40
1
41
1
10
29.6659317727471
20
-0.411722725274188
30
0
41
1
10
29.6543222447813
20
-0.395733880705393
30
0
41
1
10
29.6437921084916
20
-0.378444846017999
30
0
41
1
10
29.6283408106477
20
-0.342637673839107
30
0
41
1
10
29.6235412585523
20
-0.323949819729705
30
0
41
1
10
29.6236269869602
20
-0.289897490090084
30
0
41
1
10
29.628511920755
20
-0.275462837061866
30
0
41
1
10
29.6441202010403
20
-0.253287899242309
30
0
41
1
10
29.6547404932587
20
-0.245255691328509
30
0
41
1
10
29.6780835383321
20
-0.233667953642481
30
0
41
1
10
29.6910977377109
20
-0.229962346966573
30
0
41
1
10
29.71788216053
20
-0.225511155700957
30
0
41
1
10
29.7317936402673
20
-0.224720666338072
30
0
41
1
10
29.7746673854476
20
-0.225497907797092
30
0
41
1
10
29.8045557124682
20
-0.230203106813463
30
0
41
1
10
29.8344766284903
20
-0.23761356589327
30
0
0
SPLINE
5
BD
100
AcDbEntity
8
1
62
256
6
ByLayer
370
13
48
1
60
0
100
AcDbSpline
70
4
71
3
72
12
73
8
40
0
40
0
40
0
40
0
40
0.0217173911682081
40
0.0217173911682081
40
0.510858695584104
40
0.510858695584104
40
1
40
1
40
1
40
1
41
1
10
4.25118884788626
20
-1.54494965149763
30
0
41
1
10
4.25118996797096
20
-1.54487967545904
30
0
41
1
10
4.25119108164356
20
-1.54478970373242
30
0
41
1
10
4.25121712404484
20
-1.54220181685702
30
0
41
1
10
4.25123889049939
20
-1.52985890018397
30
0
41
1
10
4.25127326547579
20
-1.48514335911816
30
0
41
1
10
4.25128548639896
20
-1.45300558169998
30
0
41
1
10
4.25129065702359
20
-1.4120687658413
30
0
0
SPLINE
5
BE
100
AcDbEntity
8
1
62
256
6
ByLayer
370
18
48
1
60
0
100
AcDbSpline
70
4
71
3
72
68
73
64
40
0
40
0
40
0
40
0
40
0.0018287918565851
40
0.0018287918565851
40
0.0328259462314724
40
0.0328259462314724
40
0.0638231006063597
40
0.0638231006063597
40
0.094820254981247
40
0.094820254981247
40
0.125817409356134
40
0.125817409356134
40
0.156814563731022
40
0.156814563731022
40
0.187811718105909
40
0.187811718105909
40
0.218808872480796
40
0.218808872480796
40
0.249806026855683
40
0.249806026855683
40
0.280803181230571
40
0.280803181230571
40
0.311800335605458
40
0.311800335605458
40
0.342797489980345
40
0.342797489980345
40
0.40479179873012
40
0.40479179873012
40
0.466786107479894
40
0.466786107479894
40
0.497783261854782
40
0.497783261854782
40
0.528780416229669
40
0.528780416229669
40
0.559777570604556
40
0.559777570604556
40
0.590774724979443
40
0.590774724979443
40
0.621771879354331
40
0.621771879354331
40
0.652769033729218
40
0.652769033729218
40
0.683766188104105
40
0.683766188104105
40
0.714763342478993
40
0.714763342478993
40
0.74576049685388
40
0.74576049685388
40
0.776757651228767
40
0.776757651228767
40
0.838751959978542
40
0.838751959978542
40
0.869749114353428
40
0.869749114353428
40
0.900746268728315
40
0.900746268728315
40
0.931743423103202
40
0.931743423103202
40
0.962740577478088
40
0.962740577478088
40
0.993737731852975
40
0.993737731852975
40
1
40
1
40
1
40
1
41
1
10
5.47614169578642
20
1.5456968864969
30
0
41
1
10
5.48316710007524
20
1.54571370803328
30
0
41
1
10
5.49019241154971
20
1.54571960801769
30
0
41
1
10
5.61629165923552
20
1.54563155031809
30
0
41
1
10
5.73530976861628
20
1.54218287789746
30
0
41
1
10
5.9733418023869
20
1.52720978396602
30
0
41
1
10
6.09272028776499
20
1.51600251741752
30
0
41
1
10
6.33142904116772
20
1.48718394770725
30
0
41
1
10
6.45057295740781
20
1.46942819633696
30
0
41
1
10
6.68849567646956
20
1.42662426258605
30
0
41
1
10
6.80733464901078
20
1.40166369608784
30
0
41
1
10
7.04555986516084
20
1.34606175781946
30
0
41
1
10
7.16498032409598
20
1.31533292608091
30
0
41
1
10
7.40363566869633
20
1.24723113685746
30
0
41
1
10
7.52252370097239
20
1.20981462956689
30
0
41
1
10
7.76058098257624
20
1.13032369356623
30
0
41
1
10
7.8796476173635
20
1.08824287028762
30
0
41
1
10
8.11776720297922
20
0.998795823996318
30
0
41
1
10
8.23684441056014
20
0.951221513821736
30
0
41
1
10
8.47547961051902
20
0.851912118718872
30
0
41
1
10
8.59471933543685
20
0.800634985014085
30
0
41
1
10
8.83291749066674
20
0.694573428874918
30
0
41
1
10
8.95178802112957
20
0.639517964440273
30
0
41
1
10
9.18970722640751
20
0.526513973139686
30
0
41
1
10
9.30892674044259
20
0.469076333503352
30
0
41
1
10
9.6672181120569
20
0.293302214087134
30
0
41
1
10
9.90459144661389
20
0.17154901857117
30
0
41
1
10
10.3808596357873
20
-0.0708463459984898
30
0
41
1
10
10.6194355503136
20
-0.193855576805817
30
0
41
1
10
10.9767910544883
20
-0.372464215341324
30
0
41
1
10
11.0958126419644
20
-0.431211429970915
30
0
41
1
10
11.3337505039746
20
-0.546709082752415
30
0
41
1
10
11.4527165801305
20
-0.603484985526933
30
0
41
1
10
11.691385844803
20
-0.713949494420774
30
0
41
1
10
11.8107593963837
20
-0.767671697129572
30
0
41
1
10
12.0487786879384
20
-0.870811754656984
30
0
41
1
10
12.1675036594361
20
-0.920637272335455
30
0
41
1
10
12.4054597092656
20
-1.01573742494892
30
0
41
1
10
12.5245852872461
20
-1.06145328309057
30
0
41
1
10
12.7631697836564
20
-1.14700228516173
30
0
41
1
10
12.8823410418567
20
-1.18690345230539
30
0
41
1
10
13.1203453746144
20
-1.26153173913821
30
0
41
1
10
13.2394101384066
20
-1.29641837722815
30
0
41
1
10
13.4775130932075
20
-1.35995239435104
30
0
41
1
10
13.5965118262155
20
-1.38774234047284
30
0
41
1
10
13.8349019299288
20
-1.4376937656541
30
0
41
1
10
13.9543284691335
20
-1.45954867917047
30
0
41
1
10
14.1926755820678
20
-1.49725225649388
30
0
41
1
10
14.3116190540931
20
-1.51217283854135
30
0
41
1
10
14.6684444528066
20
-1.54581432367718
30
0
41
1
10
14.9076541038903
20
-1.55560095091644
30
0
41
1
10
15.2645990437781
20
-1.54649926256377
30
0
41
1
10
15.383413565883
20
-1.53977540577372
30
0
41
1
10
15.6214681310343
20
-1.52031710493392
30
0
41
1
10
15.740564087123
20
-1.50720396679412
30
0
41
1
10
15.9789693826131
20
-1.47283631813343
30
0
41
1
10
16.0982142730186
20
-1.45187944836817
30
0
41
1
10
16.3364287524185
20
-1.40463519260086
30
0
41
1
10
16.4555308738647
20
-1.37812451301693
30
0
41
1
10
16.6935439165427
20
-1.31770676848009
30
0
41
1
10
16.812406209867
20
-1.28382211986445
30
0
41
1
10
16.9557226390089
20
-1.24020402806482
30
0
41
1
10
16.9798214376721
20
-1.23277374941725
30
0
41
1
10
17.0039258963348
20
-1.22523986436951
30
0
0
SPLINE
5
BF
100
AcDbEntity
8
1
62
256
6
ByLayer
370
18
48
1
60
0
100
AcDbSpline
70
4
71
3
72
24
73
20
40
0
40
0
40
0
40
0
40
0.0772120230841993
40
0.0772120230841993
40
0.17974402051929
40
0.17974402051929
40
0.282276017954381
40
0.282276017954381
40
0.384808015389473
40
0.384808015389473
40
0.487340012824564
40
0.487340012824564
40
0.589872010259656
40
0.589872010259656
40
0.692404007694742
40
0.692404007694742
40
0.794936005129827
40
0.794936005129827
40
1
40
1
40
1
40
1
41
1
10
24.5214023168918
20
1.55652086278269
30
0
41
1
10
24.6111155555157
20
1.55638772743305
30
0
41
1
10
24.7009026498778
20
1.5540731688568
30
0
41
1
10
24.9098041286928
20
1.54400376743581
30
0
41
1
10
25.0288838070932
20
1.53468945868085
30
0
41
1
10
25.2668364845273
20
1.50936077577967
30
0
41
1
10
25.3856943886937
20
1.49337139117298
30
0
41
1
10
25.6238786837042
20
1.45527093933828
30
0
41
1
10
25.7434251079884
20
1.43303368880254
30
0
41
1
10
25.9816869968569
20
1.38116891354835
30
0
41
1
10
26.100432340371
20
1.35157356029828
30
0
41
1
10
26.3381003113123
20
1.28656027200447
30
0
41
1
10
26.4570827226318
20
1.25120327099435
30
0
41
1
10
26.6952740398958
20
1.17449341324078
30
0
41
1
10
26.8145886302212
20
1.13300594472062
30
0
41
1
10
27.0526593638401
20
1.04540408464467
30
0
41
1
10
27.1716173489704
20
0.999470650695315
30
0
41
1
10
27.5285726716002
20
0.855118121234568
30
0
41
1
10
27.7665835449732
20
0.748603147921642
30
0
41
1
10
28.0049591762223
20
0.63723704650377
30
0
0
SPLINE
5
C0
100
AcDbEntity
8
1
62
256
6
ByLayer
370
18
48
1
60
0
100
AcDbSpline
70
4
71
3
72
8
73
4
40
0
40
0
40
0
40
0
40
1
40
1
40
1
40
1
41
1
10
29.4457237408475
20
-1.55722022928481
30
0
41
1
10
29.441136978016
20
-1.5583943504657
30
0
41
1
10
29.436754151771
20
-1.55898324164073
30
0
41
1
10
29.4325772935824
20
-1.55898107316841
30
0
0
SPLINE
5
C1
100
AcDbEntity
8
1
62
256
6
ByLayer
370
13
48
1
60
0
100
AcDbSpline
70
4
71
3
72
32
73
28
40
0
40
0
40
0
40
0
40
0.0510803399537405
40
0.0510803399537405
40
0.102160679907481
40
0.102160679907481
40
0.204321359814966
40
0.204321359814966
40
0.306482039722452
40
0.306482039722452
40
0.357562379676197
40
0.357562379676197
40
0.408642719629941
40
0.408642719629941
40
0.612964079444912
40
0.612964079444912
40
0.664044419398655
40
0.664044419398655
40
0.715124759352398
40
0.715124759352398
40
0.817285439259881
40
0.817285439259881
40
0.919446119167364
40
0.919446119167364
40
0.970526459121105
40
0.970526459121105
40
1
40
1
40
1
40
1
41
1
10
29.4457237408475
20
-1.55722022928481
30
0
41
1
10
29.3139267878518
20
-1.56041813903298
30
0
41
1
10
29.182186470308
20
-1.5591563862896
30
0
41
1
10
28.9184550684136
20
-1.54776144507983
30
0
41
1
10
28.7861668427283
20
-1.53758803633053
30
0
41
1
10
28.3908680172571
20
-1.49423427473062
30
0
41
1
10
28.1296887501848
20
-1.44836402557081
30
0
41
1
10
27.6081737294267
20
-1.32599581296316
30
0
41
1
10
27.3479351813108
20
-1.2494912768542
30
0
41
1
10
26.9556647915891
20
-1.11468450791926
30
0
41
1
10
26.8245776788799
20
-1.0664108303184
30
0
41
1
10
26.5613118335032
20
-0.963690458365619
30
0
41
1
10
26.4289230643868
20
-0.909140694806837
30
0
41
1
10
25.77153437713
20
-0.626264364896571
30
0
41
1
10
25.2540078999075
20
-0.364662394351342
30
0
41
1
10
24.5989821699575
20
-0.0292086857093068
30
0
41
1
10
24.4675712961704
20
0.0383021613100709
30
0
41
1
10
24.203527709578
20
0.173383699266339
30
0
41
1
10
24.0715072560388
20
0.240633478117502
30
0
41
1
10
23.6777125967668
20
0.438959594928576
30
0
41
1
10
23.4167663896527
20
0.566612557150052
30
0
41
1
10
22.8948478113471
20
0.807010253497452
30
0
41
1
10
22.6336730982179
20
0.91940074692647
30
0
41
1
10
22.2392149507257
20
1.07199228411534
30
0
41
1
10
22.1068412226761
20
1.12030860544365
30
0
41
1
10
21.89903615233
20
1.19081654440009
30
0
41
1
10
21.8231747627749
20
1.21541917634403
30
0
41
1
10
21.7474536413357
20
1.23882609281307
30
0
0
SPLINE
5
C2
100
AcDbEntity
8
1
62
256
6
ByLayer
370
18
48
1
60
0
100
AcDbSpline
70
4
71
3
72
14
73
10
40
0
40
0
40
0
40
0
40
0.251243673755801
40
0.251243673755801
40
0.450805463357151
40
0.450805463357151
40
0.650367252958502
40
0.650367252958502
40
1
40
1
40
1
40
1
41
1
10
10.2639478712549
20
-1.5475006835909
30
0
41
1
10
10.0990600929987
20
-1.54743837614296
30
0
41
1
10
9.93372608317344
20
-1.54050639600277
30
0
41
1
10
9.63542498412247
20
-1.51555574886649
30
0
41
1
10
9.50309942068242
20
-1.50007809270639
30
0
41
1
10
9.24011021267958
20
-1.46101435433644
30
0
41
1
10
9.10906178870107
20
-1.43738440349989
30
0
41
1
10
8.74900959591065
20
-1.36160545016042
30
0
41
1
10
8.52041470873965
20
-1.30138107693054
30
0
41
1
10
8.29129717938005
20
-1.23045841818663
30
0
0
SPLINE
5
C3
100
AcDbEntity
8
1
62
256
6
ByLayer
370
13
48
1
60
0
100
AcDbSpline
70
4
71
3
72
20
73
16
40
0
40
0
40
0
40
0
40
0.0241996093728214
40
0.0241996093728214
40
0.121779648435539
40
0.121779648435539
40
0.219359687498257
40
0.219359687498257
40
0.609679843749129
40
0.609679843749129
40
0.707259882811846
40
0.707259882811846
40
0.804839921874564
40
0.804839921874564
40
1
40
1
40
1
40
1
41
1
10
8.29129717975397
20
-1.23045841830236
30
0
41
1
10
8.25886538573519
20
-1.22041925165411
30
0
41
1
10
8.22642311971302
20
-1.21016572710513
30
0
41
1
10
8.06309489477883
20
-1.15750653481837
30
0
41
1
10
7.93199268154322
20
-1.11186662534271
30
0
41
1
10
7.66886547761089
20
-1.01427921033616
30
0
41
1
10
7.53644569583531
20
-0.962156899298577
30
0
41
1
10
6.87635857562705
20
-0.689315135405053
30
0
41
1
10
6.35716047368476
20
-0.433489441134753
30
0
41
1
10
5.70118981225761
20
-0.101162127112332
30
0
41
1
10
5.56963206216594
20
-0.0340922382674194
30
0
41
1
10
5.30548248904808
20
0.100620461818096
30
0
41
1
10
5.17310296541385
20
0.168076897149348
30
0
41
1
10
4.77743783671343
20
0.367498427097928
30
0
41
1
10
4.51444034761317
20
0.49719457856537
30
0
41
1
10
4.25045138850325
20
0.62015689448549
30
0
0
SPLINE
5
C4
100
AcDbEntity
8
1
62
256
6
ByLayer
370
18
48
1
60
0
100
AcDbSpline
70
4
71
3
72
18
73
14
40
0
40
0
40
0
40
0
40
0.124999999999986
40
0.124999999999986
40
0.249999999999972
40
0.249999999999972
40
0.499999999999909
40
0.499999999999909
40
0.624999999999909
40
0.624999999999909
40
0.749999999999909
40
0.749999999999909
40
1
40
1
40
1
40
1
41
1
10
29.2131095481654
20
0.274975858885938
30
0
41
1
10
29.2150895382248
20
0.286660344555798
30
0
41
1
10
29.2179585844817
20
0.298507091942241
30
0
41
1
10
29.2247528395426
20
0.322921684694108
30
0
41
1
10
29.2284352613335
20
0.335628903090708
30
0
41
1
10
29.24222502794
20
0.37416983593306
30
0
41
1
10
29.2546195418668
20
0.399938166157511
30
0
41
1
10
29.2786393993445
20
0.436377099343389
30
0
41
1
10
29.2876993871201
20
0.448301306282389
30
0
41
1
10
29.3076410766245
20
0.470610436122598
30
0
41
1
10
29.3183671278937
20
0.481369350079604
30
0
41
1
10
29.354122716481
20
0.508679976359133
30
0
41
1
10
29.3818687945441
20
0.520546836506128
30
0
41
1
10
29.4108403019156
20
0.527610834489565
30
0
0
SPLINE
5
C5
100
AcDbEntity
8
1
62
256
6
ByLayer
370
18
48
1
60
0
100
AcDbSpline
70
4
71
3
72
10
73
6
40
0
40
0
40
0
40
0
40
0.5
40
0.5
40
1
40
1
40
1
40
1
41
1
10
4.12159423461563
20
0.620467433997618
30
0
41
1
10
4.10361795330732
20
0.632411688745862
30
0
41
1
10
4.0879902434267
20
0.64715492343916
30
0
41
1
10
4.06494850939367
20
0.681249360390609
30
0
41
1
10
4.0574602323899
20
0.700693570417201
30
0
41
1
10
4.05747544329074
20
0.72067684062057
30
0
0
SPLINE
5
C6
100
AcDbEntity
8
1
62
256
6
ByLayer
370
13
48
1
60
0
100
AcDbSpline
70
4
71
3
72
8
73
4
40
0
40
0
40
0
40
0
40
1
40
1
40
1
40
1
41
1
10
4.25045138850402
20
0.620156894485149
30
0
41
1
10
4.2083727207538
20
0.631907717570243
30
0
41
1
10
4.16723296454947
20
0.64724220615625
30
0
41
1
10
4.12986828096967
20
0.665889237297108
30
0
0
SPLINE
5
C7
100
AcDbEntity
8
1
62
256
6
ByLayer
370
18
48
1
60
0
100
AcDbSpline
70
4
71
3
72
22
73
18
40
0
40
0
40
0
40
0
40
0.246487487265467
40
0.246487487265467
40
0.369731230898201
40
0.369731230898201
40
0.492974974530934
40
0.492974974530934
40
0.616218718163668
40
0.616218718163668
40
0.739462461796402
40
0.739462461796402
40
0.862706205429135
40
0.862706205429135
40
0.985949949061869
40
0.985949949061869
40
1
40
1
40
1
40
1
41
1
10
6.79224718318682
20
-0.952326903273473
30
0
41
1
10
7.02825506047742
20
-1.05743970526805
30
0
41
1
10
7.2652806743537
20
-1.15096452174606
30
0
41
1
10
7.62001750422382
20
-1.27737689865032
30
0
41
1
10
7.73846017931479
20
-1.31689513169559
30
0
41
1
10
7.97541188211568
20
-1.38875696339247
30
0
41
1
10
8.0938162922092
20
-1.42147451396977
30
0
41
1
10
8.3300124374058
20
-1.48084781546245
30
0
41
1
10
8.44793293778039
20
-1.507335869445
30
0
41
1
10
8.68471385315098
20
-1.5529558249182
30
0
41
1
10
8.80362616164251
20
-1.57220678938299
30
0
41
1
10
9.04043392917038
20
-1.60358119682658
30
0
41
1
10
9.15825329818324
20
-1.61575958632562
30
0
41
1
10
9.3944933254505
20
-1.63244679435766
30
0
41
1
10
9.51290510949707
20
-1.63703980881112
30
0
41
1
10
9.64485724094214
20
-1.63804831997146
30
0
41
1
10
9.65836084524597
20
-1.63810266857257
30
0
41
1
10
9.67186425487077
20
-1.63810815137862
30
0
0
SPLINE
5
C8
100
AcDbEntity
8
1
62
256
6
ByLayer
370
18
48
1
60
0
100
AcDbSpline
70
4
71
3
72
72
73
68
40
0
40
0
40
0
40
0
40
0.008399085028999
40
0.008399085028999
40
0.038615161271158
40
0.038615161271158
40
0.068831237513317
40
0.068831237513317
40
0.099047313755476
40
0.099047313755476
40
0.129263389997635
40
0.129263389997635
40
0.159479466239794
40
0.159479466239794
40
0.189695542481953
40
0.189695542481953
40
0.219911618724112
40
0.219911618724112
40
0.250127694966271
40
0.250127694966271
40
0.28034377120843
40
0.28034377120843
40
0.310559847450589
40
0.310559847450589
40
0.340775923692748
40
0.340775923692748
40
0.370991999934907
40
0.370991999934907
40
0.401208076177066
40
0.401208076177066
40
0.431424152419225
40
0.431424152419225
40
0.461640228661384
40
0.461640228661384
40
0.491856304903543
40
0.491856304903543
40
0.522072381145702
40
0.522072381145702
40
0.552288457387861
40
0.552288457387861
40
0.58250453363002
40
0.58250453363002
40
0.612720609872179
40
0.612720609872179
40
0.642936686114338
40
0.642936686114338
40
0.673152762356497
40
0.673152762356497
40
0.703368838598656
40
0.703368838598656
40
0.733584914840815
40
0.733584914840815
40
0.763800991082974
40
0.763800991082974
40
0.824233143567294
40
0.824233143567294
40
0.854449219809453
40
0.854449219809453
40
0.884665296051613
40
0.884665296051613
40
0.914881372293773
40
0.914881372293773
40
0.945097448535932
40
0.945097448535932
40
0.975313524778092
40
0.975313524778092
40
1
40
1
40
1
40
1
41
1
10
16.9832121323036
20
1.22512069918375
30
0
41
1
10
17.0160276415902
20
1.23705220865244
30
0
41
1
10
17.0488628640969
20
1.248760743384
30
0
41
1
10
17.2000027311549
20
1.30145055444956
30
0
41
1
10
17.3188200683338
20
1.33955161052293
30
0
41
1
10
17.5554875021308
20
1.40964427859538
30
0
41
1
10
17.6733589538336
20
1.44180770239817
30
0
41
1
10
17.9092914788501
20
1.49923246501385
30
0
41
1
10
18.0275212121717
20
1.52439315611488
30
0
41
1
10
18.264410644625
20
1.56779340889543
30
0
41
1
10
18.3830358947973
20
1.58608276643767
30
0
41
1
10
18.6190284007345
20
1.6154235982126
30
0
41
1
10
18.7370976476451
20
1.62628389665926
30
0
41
1
10
18.973543568598
20
1.64059510797702
30
0
41
1
10
19.091745331338
20
1.64408872028673
30
0
41
1
10
19.3280784899225
20
1.6435271028617
30
0
41
1
10
19.446458257079
20
1.63942158506381
30
0
41
1
10
19.6830752354702
20
1.62390246964139
30
0
41
1
10
19.8013357325265
20
1.61250248000184
30
0
41
1
10
20.0374237742948
20
1.58224856227571
30
0
41
1
10
20.1551418861232
20
1.56326700509936
30
0
41
1
10
20.3918427081119
20
1.51864361375257
30
0
41
1
10
20.5106288422876
20
1.49292950633554
30
0
41
1
10
20.7470438187494
20
1.4346073727819
30
0
41
1
10
20.8648051339842
20
1.40186875514053
30
0
41
1
10
21.1008004835153
20
1.33049568912281
30
0
41
1
10
21.219108406294
20
1.29199195876816
30
0
41
1
10
21.4559196642184
20
1.20892605316837
30
0
41
1
10
21.5742806800982
20
1.16413968060056
30
0
41
1
10
21.8102551085096
20
1.0695296135342
30
0
41
1
10
21.9284671043812
20
1.02024223715676
30
0
41
1
10
22.1648512026214
20
0.917143640798258
30
0
41
1
10
22.2828783200877
20
0.863092799223978
30
0
41
1
10
22.5191670072297
20
0.750723248347185
30
0
41
1
10
22.6376281459181
20
0.692773422717323
30
0
41
1
10
22.8742200651811
20
0.574880894066808
30
0
41
1
10
22.9923942210064
20
0.514619516700833
30
0
41
1
10
23.2282261951669
20
0.390944015325658
30
0
41
1
10
23.3460575729697
20
0.327821842951011
30
0
41
1
10
23.5828684270615
20
0.201428786017289
30
0
41
1
10
23.7015603576513
20
0.137741961784599
30
0
41
1
10
23.9376888298849
20
0.0092387602923907
30
0
41
1
10
24.055423810071
20
-0.0554483185406411
30
0
41
1
10
24.291544520396
20
-0.183272548823709
30
0
41
1
10
24.4098581449373
20
-0.24654578345374
30
0
41
1
10
24.6465535948993
20
-0.372620448961413
30
0
41
1
10
24.7646546144927
20
-0.43575943932629
30
0
41
1
10
25.0007938608493
20
-0.558388351194225
30
0
41
1
10
25.1190174497856
20
-0.617990047711743
30
0
41
1
10
25.3552698617622
20
-0.734680608890784
30
0
41
1
10
25.473142815957
20
-0.79201018294296
30
0
41
1
10
25.7094701136278
20
-0.902772326372457
30
0
41
1
10
25.8280012169053
20
-0.955887939666837
30
0
41
1
10
26.1827437483576
20
-1.10792135845921
30
0
41
1
10
26.4177618558912
20
-1.20115128645125
30
0
41
1
10
26.7730613782232
20
-1.32213255580581
30
0
41
1
10
26.8915678820298
20
-1.35963194944904
30
0
41
1
10
27.1274845679433
20
-1.42856904205522
30
0
41
1
10
27.2452660544819
20
-1.45982521971513
30
0
41
1
10
27.4814818097428
20
-1.51516042578967
30
0
41
1
10
27.5997568959929
20
-1.53940936881634
30
0
41
1
10
27.8363014210721
20
-1.58119054724119
30
0
41
1
10
27.9542825536931
20
-1.59867949666253
30
0
41
1
10
28.1904804014011
20
-1.62580868356773
30
0
41
1
10
28.3086564008247
20
-1.63564646006927
30
0
41
1
10
28.5230362840767
20
-1.64689339812452
30
0
41
1
10
28.6192594430792
20
-1.64947833226398
30
0
41
1
10
28.7156823633612
20
-1.64953344306846
30
0
0
SPLINE
5
C9
100
AcDbEntity
8
1
62
256
6
ByLayer
370
18
48
1
60
0
100
AcDbSpline
70
4
71
3
72
12
73
8
40
0
40
0
40
0
40
0
40
0.250000000000004
40
0.250000000000004
40
0.500000000000008
40
0.500000000000008
40
1
40
1
40
1
40
1
41
1
10
29.4344936425947
20
-1.63952839125687
30
0
41
1
10
29.4390210552357
20
-1.62715599132002
30
0
41
1
10
29.4431161617881
20
-1.61453476427695
30
0
41
1
10
29.4491694177864
20
-1.59213527854334
30
0
41
1
10
29.4510989429112
20
-1.58243374542965
30
0
41
1
10
29.4533624689884
20
-1.56089265365617
30
0
41
1
10
29.4505614447493
20
-1.55598187211805
30
0
41
1
10
29.4457237408458
20
-1.55722022928524
30
0
0
SPLINE
5
CA
100
AcDbEntity
8
1
62
256
6
ByLayer
370
18
48
1
60
0
100
AcDbSpline
70
4
71
3
72
10
73
6
40
0
40
0
40
0
40
0
40
0.5
40
0.5
40
1
40
1
40
1
40
1
41
1
10
4.25129065706722
20
-1.41206876584144
30
0
41
1
10
4.398156764476
20
-1.44575306730681
30
0
41
1
10
4.54547716581956
20
-1.47268320327143
30
0
41
1
10
4.84191828414333
20
-1.51369545818278
30
0
41
1
10
4.99076128348574
20
-1.5277711617658
30
0
41
1
10
5.13982458745443
20
-1.53608066671978
30
0
0
SPLINE
5
CB
100
AcDbEntity
8
1
62
256
6
ByLayer
370
18
48
1
60
0
100
AcDbSpline
70
4
71
3
72
18
73
14
40
0
40
0
40
0
40
0
40
0.250000000000005
40
0.250000000000005
40
0.375000000000007
40
0.375000000000007
40
0.50000000000001
40
0.50000000000001
40
0.750000000000014
40
0.750000000000014
40
0.875000000000007
40
0.875000000000007
40
1
40
1
40
1
40
1
41
1
10
29.7946601134581
20
0.787430269305929
30
0
41
1
10
29.7695994602279
20
0.855303161766699
30
0
41
1
10
29.744474865954
20
0.92312968422911
30
0
41
1
10
29.7064959567173
20
1.02465769680751
30
0
41
1
10
29.6938070799379
20
1.05847916257392
30
0
41
1
10
29.6685262184615
20
1.12619236017451
30
0
41
1
10
29.6558838397861
20
1.16004893535504
30
0
41
1
10
29.6178914687284
20
1.26156272436131
30
0
41
1
10
29.5924781897681
20
1.32909872338587
30
0
41
1
10
29.5539535016247
20
1.42973695502053
30
0
41
1
10
29.5410825906755
20
1.46323476013265
30
0
41
1
10
29.5153008238519
20
1.53016466877662
30
0
41
1
10
29.5023542443817
20
1.56353801398853
30
0
41
1
10
29.4891606744951
20
1.59650510832944
30
0
0
SPLINE
5
CC
100
AcDbEntity
8
1
62
256
6
ByLayer
370
18
48
1
60
0
100
AcDbSpline
70
4
71
3
72
14
73
10
40
0
40
0
40
0
40
0
40
0.177015824938215
40
0.177015824938215
40
0.382761868703661
40
0.382761868703661
40
0.588507912469108
40
0.588507912469108
40
1
40
1
40
1
40
1
41
1
10
4.05823538678666
20
-1.63474100632618
30
0
41
1
10
4.05824737878578
20
-1.6349655942295
30
0
41
1
10
4.0582589041077
20
-1.63319875124645
30
0
41
1
10
4.05828276181521
20
-1.62504583916964
30
0
41
1
10
4.05829492976906
20
-1.61787594852836
30
0
41
1
10
4.05831708077321
20
-1.59833666759184
30
0
41
1
10
4.05832713350276
20
-1.5859639098386
30
0
41
1
10
4.05835370837474
20
-1.5411851953227
30
0
41
1
10
4.05836677409496
20
-1.50095552102417
30
0
41
1
10
4.05837265772357
20
-1.45057763322501
30
0
0
SPLINE
5
CD
100
AcDbEntity
8
1
62
256
6
ByLayer
370
18
48
1
60
0
100
AcDbSpline
70
4
71
3
72
56
73
52
40
0
40
0
40
0
40
0
40
0.0624999999999975
40
0.0624999999999975
40
0.124999999999995
40
0.124999999999995
40
0.24999999999999
40
0.24999999999999
40
0.374999999999985
40
0.374999999999985
40
0.49999999999998
40
0.49999999999998
40
0.531249999999979
40
0.531249999999979
40
0.546874999999979
40
0.546874999999979
40
0.550781249999978
40
0.550781249999978
40
0.554687499999978
40
0.554687499999978
40
0.558593749999977
40
0.558593749999977
40
0.562499999999976
40
0.562499999999976
40
0.593749999999977
40
0.593749999999977
40
0.609374999999978
40
0.609374999999978
40
0.624999999999979
40
0.624999999999979
40
0.640624999999979
40
0.640624999999979
40
0.65624999999998
40
0.65624999999998
40
0.67187499999998
40
0.67187499999998
40
0.687499999999981
40
0.687499999999981
40
0.703124999999982
40
0.703124999999982
40
0.718749999999982
40
0.718749999999982
40
0.749999999999983
40
0.749999999999983
40
0.812499999999987
40
0.812499999999987
40
0.874999999999992
40
0.874999999999992
40
0.937499999999996
40
0.937499999999996
40
1
40
1
40
1
40
1
41
1
10
6.79284827031199
20
-0.952612694196034
30
0
41
1
10
6.64203818158282
20
-0.886150090112551
30
0
41
1
10
6.48987069091459
20
-0.817280176471229
30
0
41
1
10
6.18533969064856
20
-0.678012823067945
30
0
41
1
10
6.03290381567214
20
-0.607597231134463
30
0
41
1
10
5.57380250893857
20
-0.397400462312731
30
0
41
1
10
5.26530811760929
20
-0.258694014612615
30
0
41
1
10
4.63630343923501
20
-0.0039693872206783
30
0
41
1
10
4.31558354872061
20
0.111840061103805
30
0
41
1
10
3.65761759615876
20
0.304489897735493
30
0
41
1
10
3.32465894419965
20
0.380162174896128
30
0
41
1
10
2.90238466469367
20
0.446116449038811
30
0
41
1
10
2.81762928150431
20
0.457887470397338
30
0
41
1
10
2.69003080391332
20
0.473378165878131
30
0
41
1
10
2.64741762953943
20
0.478180739371794
30
0
41
1
10
2.59411270726079
20
0.483722394480338
30
0
41
1
10
2.5834490661328
20
0.484807738783474
30
0
41
1
10
2.56211645148392
20
0.486932380718656
30
0
41
1
10
2.55146493904709
20
0.488390801300426
30
0
41
1
10
2.53006099122942
20
0.488673309408767
30
0
41
1
10
2.51904025867469
20
0.487594912412135
30
0
41
1
10
2.49920167241848
20
0.480640887181096
30
0
41
1
10
2.4898415436096
20
0.475754693018416
30
0
41
1
10
2.40378462530953
20
0.436312067841925
30
0
41
1
10
2.32946041305723
20
0.396018212987656
30
0
41
1
10
2.22678759045056
20
0.323719098742174
30
0
41
1
10
2.194154906503
20
0.297701149809143
30
0
41
1
10
2.13330494776829
20
0.240294914730697
30
0
41
1
10
2.10478813888369
20
0.208491698506833
30
0
41
1
10
2.05638064290127
20
0.139493184271117
30
0
41
1
10
2.03613734402336
20
0.101668531559625
30
0
41
1
10
2.00828598552815
20
0.0217463255853829
30
0
41
1
10
2.00076833050576
20
-0.0197187654918025
30
0
41
1
10
1.9993292665529
20
-0.105206785631111
30
0
41
1
10
2.00536533290179
20
-0.146939138163162
30
0
41
1
10
2.02797673290479
20
-0.22879601314807
30
0
41
1
10
2.04407422019534
20
-0.267356419951909
30
0
41
1
10
2.08258977668234
20
-0.341060561549114
30
0
41
1
10
2.10524019491032
20
-0.376441638251919
30
0
41
1
10
2.15407022536243
20
-0.443179395861534
30
0
41
1
10
2.1802998734583
20
-0.474687226655732
30
0
41
1
10
2.26284310469995
20
-0.56518434804488
30
0
41
1
10
2.32326028455449
20
-0.620473934854715
30
0
41
1
10
2.51134920323111
20
-0.774507221943338
30
0
41
1
10
2.6442737373655
20
-0.861055413993256
30
0
41
1
10
2.91667589535325
20
-1.01770967392406
30
0
41
1
10
3.05644137634508
20
-1.08727909815582
30
0
41
1
10
3.34061819255598
20
-1.21355259396881
30
0
41
1
10
3.48414644800022
20
-1.26970882758317
30
0
41
1
10
3.77080310467966
20
-1.36927283365674
30
0
41
1
10
3.91439270150565
20
-1.41283411587901
30
0
41
1
10
4.05837265771271
20
-1.45057763322356
30
0
0
SPLINE
5
CE
100
AcDbEntity
8
1
62
256
6
ByLayer
370
18
48
1
60
0
100
AcDbSpline
70
4
71
3
72
20
73
16
40
0
40
0
40
0
40
0
40
0.125
40
0.125
40
0.25
40
0.25
40
0.375
40
0.375
40
0.5
40
0.5
40
0.625
40
0.625
40
0.75
40
0.75
40
1
40
1
40
1
40
1
41
1
10
28.0049591762423
20
0.637237046494079
30
0
41
1
10
28.0190867389655
20
0.560567015960601
30
0
41
1
10
28.0410088643295
20
0.483052120232799
30
0
41
1
10
28.0988712930477
20
0.326502875893937
30
0
41
1
10
28.1342470170411
20
0.249178280605264
30
0
41
1
10
28.2141249233377
20
0.0990525017909079
30
0
41
1
10
28.2592555742432
20
0.0251622985516065
30
0
41
1
10
28.3555349267358
20
-0.116466089058235
30
0
41
1
10
28.4065809572203
20
-0.184216113296486
30
0
41
1
10
28.5133785514895
20
-0.314755117539534
30
0
41
1
10
28.569139785852
20
-0.377533901853098
30
0
41
1
10
28.6847470340684
20
-0.49878488705042
30
0
41
1
10
28.7444085119419
20
-0.55701857941483
30
0
41
1
10
28.9256250928305
20
-0.723054530416135
30
0
41
1
10
29.0504019783425
20
-0.82344750795906
30
0
41
1
10
29.1784810536661
20
-0.91526603762145
30
0
0
SPLINE
5
CF
100
AcDbEntity
8
1
62
256
6
ByLayer
370
18
48
1
60
0
100
AcDbSpline
70
4
71
3
72
57
73
53
40
0
40
0
40
0
40
0
40
0.121694305666448
40
0.121694305666448
40
0.186367786529903
40
0.186367786529903
40
0.194451971637836
40
0.196473017914818
40
0.196978279484064
40
0.196978279484064
40
0.19748354105331
40
0.19748354105331
40
0.198494064191802
40
0.198494064191802
40
0.202536156745768
40
0.202536156745768
40
0.218704526961631
40
0.218704526961631
40
0.25104126739336
40
0.25104126739336
40
0.380388229120271
40
0.380388229120271
40
0.509735190847183
40
0.509735190847183
40
0.574408671710639
40
0.574408671710639
40
0.639082152574095
40
0.639082152574095
40
0.647166337682027
40
0.647166337682027
40
0.651208430235993
40
0.651208430235993
40
0.653229476512976
40
0.653229476512976
40
0.653734738082222
40
0.653734738082222
40
0.654239999651468
40
0.654239999651468
40
0.655250522789959
40
0.671418893005823
40
0.671418893005823
40
0.70375563343755
40
0.70375563343755
40
0.768429114301006
40
0.768429114301006
40
0.833102595164461
40
0.833102595164461
40
0.897776076027917
40
0.897776076027917
40
0.962449556891372
40
0.962449556891372
40
1
40
1
40
1
40
1
41
1
10
5.30000636404026
20
-0.278478185656127
30
0
41
1
10
5.17544714391244
20
-0.252766665665717
30
0
41
1
10
5.05276307242173
20
-0.240538696246944
30
0
41
1
10
4.86341430423352
20
-0.243222474052374
30
0
41
1
10
4.79724995789991
20
-0.248130780434764
30
0
41
1
10
4.72273306413396
20
-0.258083312854552
30
0
41
1
10
4.71238243538653
20
-0.259541946867586
30
0
41
1
10
4.70151353702872
20
-0.261173068402258
30
0
41
1
10
4.69892571516007
20
-0.261567338622541
30
0
41
1
10
4.69789058633921
20
-0.261725519318446
30
0
41
1
10
4.69705836552532
20
-0.261757898411787
30
0
41
1
10
4.69769423972193
20
-0.262575967253383
30
0
41
1
10
4.69876005590584
20
-0.263022798535957
30
0
41
1
10
4.70324168980022
20
-0.26528716865684
30
0
41
1
10
4.70718567868207
20
-0.266954347395398
30
0
41
1
10
4.72675558255608
20
-0.27530784757576
30
0
41
1
10
4.74292862220926
20
-0.281725781739681
30
0
41
1
10
4.79141144400333
20
-0.300999413686526
30
0
41
1
10
4.82402479307075
20
-0.31370410152195
30
0
41
1
10
4.98736332652118
20
-0.377171024557072
30
0
41
1
10
5.119148500379
20
-0.42757790738176
30
0
41
1
10
5.38248488967761
20
-0.529627749134988
30
0
41
1
10
5.51431636188673
20
-0.581102147006192
30
0
41
1
10
5.71176880031183
20
-0.659470550945571
30
0
41
1
10
5.77752397526979
20
-0.685803271372436
30
0
41
1
10
5.9087299943956
20
-0.739231006539228
30
0
41
1
10
5.97443499023817
20
-0.765880613295849
30
0
41
1
10
6.04701943460981
20
-0.798329033895385
30
0
41
1
10
6.05505940834627
20
-0.801978196179391
30
0
41
1
10
6.06698223041269
20
-0.807687164681028
30
0
41
1
10
6.07093837483956
20
-0.809620196379086
30
0
41
1
10
6.0767412437099
20
-0.812725100987194
30
0
41
1
10
6.07867098639702
20
-0.813774481671004
30
0
41
1
10
6.08092256973003
20
-0.815302466653208
30
0
41
1
10
6.08136428153404
20
-0.815617893731485
30
0
41
1
10
6.08217580827181
20
-0.816330853531468
30
0
41
1
10
6.08269571693847
20
-0.816870151843034
30
0
41
1
10
6.08138390207725
20
-0.818138922255002
30
0
41
1
10
6.06651658438727
20
-0.83252083876576
30
0
41
1
10
6.05164713199079
20
-0.846945199162121
30
0
41
1
10
6.0096601304395
20
-0.88772361196763
30
0
41
1
10
5.98162295960375
20
-0.915019402608493
30
0
41
1
10
5.89762257194047
20
-0.996473062226812
30
0
41
1
10
5.84170393466383
20
-1.05029104874455
30
0
41
1
10
5.72838564165261
20
-1.15520324268604
30
0
41
1
10
5.67076058569171
20
-1.20644803224059
30
0
41
1
10
5.55489707230228
20
-1.30156114387154
30
0
41
1
10
5.49634375317692
20
-1.34572402860565
30
0
41
1
10
5.37609131397542
20
-1.42523225138504
30
0
41
1
10
5.31378895621856
20
-1.4608090554137
30
0
41
1
10
5.21394718763
20
-1.50761744745776
30
0
41
1
10
5.17706005104023
20
-1.52280852747469
30
0
41
1
10
5.13988670731524
20
-1.53610543532466
30
0
0
SPLINE
5
D0
100
AcDbEntity
8
1
62
256
6
ByLayer
370
18
48
1
60
0
100
AcDbSpline
70
4
71
3
72
20
73
16
40
0
40
0
40
0
40
0
40
0.202888977156485
40
0.202888977156485
40
0.335740814297071
40
0.335740814297071
40
0.468592651437657
40
0.468592651437657
40
0.601444488578243
40
0.601444488578243
40
0.734296325718828
40
0.734296325718828
40
0.867148162859414
40
0.867148162859414
40
1
40
1
40
1
40
1
41
1
10
29.4012391215432
20
-1.55677346782576
30
0
41
1
10
29.3683387930602
20
-1.55201467991813
30
0
41
1
10
29.3381739124387
20
-1.53949926927788
30
0
41
1
10
29.2931398098927
20
-1.50494322321066
30
0
41
1
10
29.2766940721164
20
-1.48764188795957
30
0
41
1
10
29.2473851042675
20
-1.4465006800101
30
0
41
1
10
29.2343974637032
20
-1.42257815820918
30
0
41
1
10
29.2118397683228
20
-1.36786056325158
30
0
41
1
10
29.2022685348818
20
-1.33706786023646
30
0
41
1
10
29.1867825264218
20
-1.26812954483233
30
0
41
1
10
29.1809998971042
20
-1.23044804594312
30
0
41
1
10
29.1734560661268
20
-1.14988991466313
30
0
41
1
10
29.1716573993325
20
-1.1068519970938
30
0
41
1
10
29.1720397208823
20
-1.01521209935379
30
0
41
1
10
29.1742501324467
20
-0.966299574025157
30
0
41
1
10
29.1784810536661
20
-0.91526603762145
30
0
0
SPLINE
5
D1
100
AcDbEntity
8
1
62
256
6
ByLayer
370
18
48
1
60
0
100
AcDbSpline
70
4
71
3
72
18
73
14
40
0
40
0
40
0
40
0
40
0.250000000000004
40
0.250000000000004
40
0.375000000000006
40
0.375000000000006
40
0.500000000000008
40
0.500000000000008
40
0.750000000000012
40
0.750000000000012
40
0.875000000000006
40
0.875000000000006
40
1
40
1
40
1
40
1
41
1
10
29.7946601134581
20
-0.787430269305958
30
0
41
1
10
29.7695994602279
20
-0.855303161766727
30
0
41
1
10
29.744474865954
20
-0.92312968422911
30
0
41
1
10
29.7064959567174
20
-1.02465769680751
30
0
41
1
10
29.6938070799379
20
-1.05847916257392
30
0
41
1
10
29.6685262184615
20
-1.12619236017451
30
0
41
1
10
29.6558838397861
20
-1.16004893535504
30
0
41
1
10
29.6178914687284
20
-1.26156272436131
30
0
41
1
10
29.5924781897681
20
-1.32909872338587
30
0
41
1
10
29.5539535016247
20
-1.4297369550205
30
0
41
1
10
29.5410825906755
20
-1.46323476013265
30
0
41
1
10
29.5153008238519
20
-1.53016466877662
30
0
41
1
10
29.5023542443817
20
-1.56353801398853
30
0
41
1
10
29.4891606744952
20
-1.59650510832944
30
0
0
SPLINE
5
D2
100
AcDbEntity
8
1
62
256
6
ByLayer
370
13
48
1
60
0
100
AcDbSpline
70
4
71
3
72
8
73
4
40
0
40
0
40
0
40
0
40
1
40
1
40
1
40
1
41
1
10
4.12986828096967
20
0.665889237297137
30
0
41
1
10
4.10131205725745
20
0.680140362740076
30
0
41
1
10
4.07717237025344
20
0.698741155151879
30
0
41
1
10
4.05747544329395
20
0.720676840619745
30
0
0
SPLINE
5
D3
100
AcDbEntity
8
1
62
256
6
ByLayer
370
18
48
1
60
0
100
AcDbSpline
70
4
71
3
72
8
73
4
40
0
40
0
40
0
40
0
40
1
40
1
40
1
40
1
41
1
10
4.20293397310573
20
0.575587725336788
30
0
41
1
10
4.17516258890134
20
0.58959577104028
30
0
41
1
10
4.14729499289041
20
0.603390687211686
30
0
41
1
10
4.12159423461645
20
0.620467433996708
30
0
0
SPLINE
5
D4
100
AcDbEntity
8
1
62
256
6
ByLayer
370
18
48
1
60
0
100
AcDbSpline
70
4
71
3
72
22
73
18
40
0
40
0
40
0
40
0
40
0.250000000000005
40
0.250000000000005
40
0.50000000000001
40
0.50000000000001
40
0.625000000000012
40
0.625000000000012
40
0.687500000000004
40
0.687500000000004
40
0.749999999999996
40
0.749999999999996
40
0.874999999999998
40
0.874999999999998
40
0.937499999999999
40
0.937499999999999
40
1
40
1
40
1
40
1
41
1
10
28.0049591762427
20
0.637237046494249
30
0
41
1
10
28.1095312569707
20
0.552559175754851
30
0
41
1
10
28.217375946579
20
0.474526399584249
30
0
41
1
10
28.4342151719895
20
0.339362888049124
30
0
41
1
10
28.5432199742369
20
0.281907400286542
30
0
41
1
10
28.7077672486009
20
0.213721820454168
30
0
41
1
10
28.7627908512944
20
0.19401308050692
30
0
41
1
10
28.8456299690449
20
0.169705509528484
30
0
41
1
10
28.8731241700766
20
0.162531882200398
30
0
41
1
10
28.9278077559918
20
0.15015859370115
30
0
41
1
10
28.9551523080915
20
0.144563962326458
30
0
41
1
10
29.0352254324183
20
0.134906890486008
30
0
41
1
10
29.0872230769951
20
0.137373772454907
30
0
41
1
10
29.1506785633111
20
0.167848451560388
30
0
41
1
10
29.1695862658013
20
0.182931605420663
30
0
41
1
10
29.1982856374647
20
0.222381705506223
30
0
41
1
10
29.2083927964629
20
0.247140962739166
30
0
41
1
10
29.2131095481652
20
0.274975858885938
30
0
0
SPLINE
5
D5
100
AcDbEntity
8
1
62
256
6
ByLayer
370
18
48
1
60
0
100
AcDbSpline
70
4
71
3
72
74
73
70
40
0
40
0
40
0
40
0
40
0.0029650489791125
40
0.0029650489791125
40
0.0332204013811771
40
0.0332204013811771
40
0.0634757537832417
40
0.0634757537832417
40
0.0937311061853063
40
0.0937311061853063
40
0.123986458587371
40
0.123986458587371
40
0.154241810989436
40
0.154241810989436
40
0.1844971633915
40
0.1844971633915
40
0.214752515793565
40
0.214752515793565
40
0.245007868195629
40
0.245007868195629
40
0.275263220597694
40
0.275263220597694
40
0.305518572999758
40
0.305518572999758
40
0.335773925401823
40
0.335773925401823
40
0.366029277803888
40
0.366029277803888
40
0.396284630205952
40
0.396284630205952
40
0.426539982608017
40
0.426539982608017
40
0.456795335010081
40
0.456795335010081
40
0.487050687412146
40
0.487050687412146
40
0.51730603981421
40
0.51730603981421
40
0.547561392216275
40
0.547561392216275
40
0.57781674461834
40
0.57781674461834
40
0.608072097020404
40
0.608072097020404
40
0.638327449422469
40
0.638327449422469
40
0.668582801824533
40
0.668582801824533
40
0.698838154226598
40
0.698838154226598
40
0.729093506628662
40
0.729093506628662
40
0.759348859030727
40
0.759348859030727
40
0.789604211432791
40
0.789604211432791
40
0.819859563834856
40
0.819859563834856
40
0.85011491623692
40
0.85011491623692
40
0.880370268638985
40
0.880370268638985
40
0.91062562104105
40
0.91062562104105
40
0.940880973443114
40
0.940880973443114
40
0.971136325845179
40
0.971136325845179
40
1
40
1
40
1
40
1
41
1
10
7.46700373165112
20
1.2227840214172
30
0
41
1
10
7.47859428055008
20
1.22695822026506
30
0
41
1
10
7.49018372895912
20
1.23110993465994
30
0
41
1
10
7.62001750422382
20
1.27737689865032
30
0
41
1
10
7.73846017931476
20
1.31689513169559
30
0
41
1
10
7.97541188211568
20
1.38875696339247
30
0
41
1
10
8.0938162922092
20
1.42147451396977
30
0
41
1
10
8.3300124374058
20
1.48084781546245
30
0
41
1
10
8.44793293778039
20
1.507335869445
30
0
41
1
10
8.68471385315098
20
1.5529558249182
30
0
41
1
10
8.80362616164251
20
1.57220678938299
30
0
41
1
10
9.0404339291704
20
1.60358119682658
30
0
41
1
10
9.15825329818324
20
1.61575958632562
30
0
41
1
10
9.3944933254505
20
1.63244679435766
30
0
41
1
10
9.5129051094971
20
1.63703980881112
30
0
41
1
10
9.74980255574283
20
1.63885041782348
30
0
41
1
10
9.86826635844599
20
1.6359963951642
30
0
41
1
10
10.1046967831677
20
1.62275924482768
30
0
41
1
10
10.2229750981159
20
1.61246245616241
30
0
41
1
10
10.4595660745198
20
1.58468048411834
30
0
41
1
10
10.5777921345623
20
1.56715941309349
30
0
41
1
10
10.8140348673409
20
1.52455341517682
30
0
41
1
10
10.9326997154103
20
1.49975000204483
30
0
41
1
10
11.1696374723947
20
1.4438198541618
30
0
41
1
10
11.2878854730958
20
1.41253290756524
30
0
41
1
10
11.5239112634201
20
1.34315914147257
30
0
41
1
10
11.6419037257633
20
1.30525893473538
30
0
41
1
10
11.8787934666575
20
1.22417346537844
30
0
41
1
10
11.9976458690177
20
1.18078473501305
30
0
41
1
10
12.2342102774831
20
1.08841979764807
30
0
41
1
10
12.3519680303016
20
1.03919976464164
30
0
41
1
10
12.5883485266475
20
0.937444809125026
30
0
41
1
10
12.7067551142902
20
0.884643519573132
30
0
41
1
10
12.9434530555961
20
0.774306396816769
30
0
41
1
10
13.0618093460249
20
0.716606655462471
30
0
41
1
10
13.2982748892726
20
0.599190181008822
30
0
41
1
10
13.4166153011269
20
0.539543667689401
30
0
41
1
10
13.6530860312236
20
0.417673898587452
30
0
41
1
10
13.7710662713612
20
0.355170604453946
30
0
41
1
10
14.0073624739796
20
0.228487684313109
30
0
41
1
10
14.1261722608632
20
0.165004818005713
30
0
41
1
10
14.3630139903134
20
0.0377294634159568
30
0
41
1
10
14.4810632754903
20
-0.0264295381830095
30
0
41
1
10
14.7170035790807
20
-0.154694279239209
30
0
41
1
10
14.8351144907136
20
-0.218392177489648
30
0
41
1
10
15.0720397645298
20
-0.344144810648686
30
0
41
1
10
15.1908041185207
20
-0.406498186348642
30
0
41
1
10
15.4270687432357
20
-0.529774198326237
30
0
41
1
10
15.5449272124979
20
-0.590425945876973
30
0
41
1
10
15.7813724955412
20
-0.707602176393976
30
0
41
1
10
15.8997158762174
20
-0.764565422976744
30
0
41
1
10
16.1361875299262
20
-0.875935181219802
30
0
41
1
10
16.2545205505572
20
-0.930128001365631
30
0
41
1
10
16.4910829382661
20
-1.03283138220561
30
0
41
1
10
16.6094063820596
20
-1.08158861746241
30
0
41
1
10
16.8457077369003
20
-1.17455129841062
30
0
41
1
10
16.9634710893894
20
-1.21899178458133
30
0
41
1
10
17.2000027311549
20
-1.30145055444959
30
0
41
1
10
17.3188200683338
20
-1.33955161052293
30
0
41
1
10
17.5554875021309
20
-1.40964427859538
30
0
41
1
10
17.6733589538337
20
-1.44180770239817
30
0
41
1
10
17.9092914788501
20
-1.49923246501388
30
0
41
1
10
18.0275212121717
20
-1.52439315611488
30
0
41
1
10
18.264410644625
20
-1.56779340889545
30
0
41
1
10
18.3830358947973
20
-1.58608276643767
30
0
41
1
10
18.6190284007345
20
-1.6154235982126
30
0
41
1
10
18.7370976476452
20
-1.62628389665926
30
0
41
1
10
18.968105577983
20
-1.64026596619055
30
0
41
1
10
19.0808712553543
20
-1.64375957562865
30
0
41
1
10
19.1936054970468
20
-1.64382271454119
30
0
0
SPLINE
5
D6
100
AcDbEntity
8
1
62
256
6
ByLayer
370
18
48
1
60
0
100
AcDbSpline
70
4
71
3
72
24
73
20
40
0
40
0
40
0
40
0
40
0.0488714646821619
40
0.0488714646821619
40
0.167762531596892
40
0.167762531596892
40
0.286653598511621
40
0.286653598511621
40
0.405544665426352
40
0.405544665426352
40
0.524435732341081
40
0.524435732341081
40
0.643326799255811
40
0.643326799255811
40
0.762217866170541
40
0.762217866170541
40
0.881108933085271
40
0.881108933085271
40
1
40
1
40
1
40
1
41
1
10
26.5087838302945
20
1.23051973423043
30
0
41
1
10
26.5573397931565
20
1.24812045498254
30
0
41
1
10
26.605944961242
20
1.26522857765335
30
0
41
1
10
26.7730613782233
20
1.32213255580584
30
0
41
1
10
26.8915678820299
20
1.35963194944907
30
0
41
1
10
27.1274845679433
20
1.42856904205524
30
0
41
1
10
27.245266054482
20
1.45982521971516
30
0
41
1
10
27.4814818097429
20
1.51516042578967
30
0
41
1
10
27.599756895993
20
1.53940936881637
30
0
41
1
10
27.8363014210722
20
1.58119054724122
30
0
41
1
10
27.9542825536931
20
1.59867949666256
30
0
41
1
10
28.1904804014012
20
1.62580868356773
30
0
41
1
10
28.3086564008248
20
1.63564646006927
30
0
41
1
10
28.5446279075904
20
1.64802615204007
30
0
41
1
10
28.6623575193968
20
1.65051231188116
30
0
41
1
10
28.8986641100492
20
1.64786577295146
30
0
41
1
10
29.0173048476994
20
1.64278491713387
30
0
41
1
10
29.2536656787987
20
1.62525752890997
30
0
41
1
10
29.3714477406476
20
1.61274085575073
30
0
41
1
10
29.489160674484
20
1.59650510833094
30
0
0
SPLINE
5
D7
100
AcDbEntity
8
1
62
256
6
ByLayer
370
18
48
1
60
0
100
AcDbSpline
70
4
71
3
72
16
73
12
40
0
40
0
40
0
40
0
40
0.249999999999986
40
0.249999999999986
40
0.499999999999971
40
0.499999999999971
40
0.749999999999957
40
0.749999999999957
40
0.874999999999978
40
0.874999999999978
40
1
40
1
40
1
40
1
41
1
10
29.4108403019159
20
0.527610834488712
30
0
41
1
10
29.4509062443042
20
0.537379940825019
30
0
41
1
10
29.4906824767033
20
0.548380992587823
30
0
41
1
10
29.5687522983753
20
0.574361691327965
30
0
41
1
10
29.6069299155211
20
0.58919808514986
30
0
41
1
10
29.6799713063696
20
0.626221817406332
30
0
41
1
10
29.7154072697813
20
0.648505559542059
30
0
41
1
10
29.7582273354254
20
0.692643002795876
30
0
41
1
10
29.7704356785983
20
0.708879127983067
30
0
41
1
10
29.7884963730099
20
0.746115742860695
30
0
41
1
10
29.7937455881396
20
0.766526525688533
30
0
41
1
10
29.7946601134581
20
0.787430269305958
30
0
0
SPLINE
5
D8
100
AcDbEntity
8
1
62
256
6
ByLayer
370
18
48
1
60
0
100
AcDbSpline
70
4
71
3
72
16
73
12
40
0
40
0
40
0
40
0
40
0.0908769320310594
40
0.0908769320310594
40
0.295180904322954
40
0.295180904322954
40
0.703788848906735
40
0.703788848906735
40
0.90809282119863
40
0.90809282119863
40
1
40
1
40
1
40
1
41
1
10
19.7906525958287
20
-1.55339810508084
30
0
41
1
10
19.73203890679
20
-1.55345899510962
30
0
41
1
10
19.6735046381702
20
-1.55265025241772
30
0
41
1
10
19.4837879576642
20
-1.54720217958933
30
0
41
1
10
19.352870985097
20
-1.53902469216965
30
0
41
1
10
18.9607981499545
20
-1.50182486448966
30
0
41
1
10
18.7001529992019
20
-1.4601447322556
30
0
41
1
10
18.3077491275964
20
-1.37361126451424
30
0
41
1
10
18.1767023492567
20
-1.34077933683449
30
0
41
1
10
17.9859633322146
20
-1.28768383205951
30
0
41
1
10
17.9266214393359
20
-1.27042375409965
30
0
41
1
10
17.8672129821612
20
-1.25242979604357
30
0
0
SPLINE
5
D9
100
AcDbEntity
8
1
62
256
6
ByLayer
370
13
48
1
60
0
100
AcDbSpline
70
4
71
3
72
22
73
18
40
0
40
0
40
0
40
0
40
0.0381829090827745
40
0.0381829090827745
40
0.176993274646945
40
0.176993274646945
40
0.315803640211115
40
0.315803640211115
40
0.454614005775285
40
0.454614005775285
40
0.593424371339456
40
0.593424371339456
40
0.662829554121542
40
0.662829554121542
40
0.732234736903629
40
0.732234736903629
40
1
40
1
40
1
40
1
41
1
10
17.8672129822433
20
-1.2524297960685
30
0
41
1
10
17.7945601146191
20
-1.23042429862241
30
0
41
1
10
17.7218076949198
20
-1.207321226489
30
0
41
1
10
17.3849028902558
20
-1.095581789226
30
0
41
1
10
17.1207190853738
20
-0.994335783626155
30
0
41
1
10
16.5925167553922
20
-0.771699475750609
30
0
41
1
10
16.3291988832236
20
-0.650728642690837
30
0
41
1
10
15.8005159804013
20
-0.395824745234705
30
0
41
1
10
15.5376532472556
20
-0.263249755176474
30
0
41
1
10
15.0141198807924
20
0.0038199059933959
30
0
41
1
10
14.7529245094498
20
0.138359997318872
30
0
41
1
10
14.3594358745179
20
0.336598452383441
30
0
41
1
10
14.2279867071545
20
0.402075092344916
30
0
41
1
10
13.9640004317274
20
0.53079785403483
30
0
41
1
10
13.8316937555128
20
0.593937001471289
30
0
41
1
10
13.1929718491999
20
0.889748987846758
30
0
41
1
10
12.6923990249081
20
1.09385005785993
30
0
41
1
10
12.1855191689073
20
1.24715280268865
30
0
0
SPLINE
5
DA
100
AcDbEntity
8
1
62
256
6
ByLayer
370
18
48
1
60
0
100
AcDbSpline
70
4
71
3
72
10
73
6
40
0
40
0
40
0
40
0
40
0.5
40
0.5
40
1
40
1
40
1
40
1
41
1
10
4.05837265771126
20
-1.45057763323706
30
0
41
1
10
4.08321047843316
20
-1.42913123076963
30
0
41
1
10
4.11421701524239
20
-1.41516225086693
30
0
41
1
10
4.18054430843227
20
-1.40269176448675
30
0
41
1
10
4.21604029849283
20
-1.40398396175712
30
0
41
1
10
4.25129065702356
20
-1.41206876583144
30
0
0
SPLINE
5
DB
100
AcDbEntity
8
1
62
256
6
ByLayer
370
18
48
1
60
0
100
AcDbSpline
70
4
71
3
72
22
73
18
40
0
40
0
40
0
40
0
40
0.125
40
0.125
40
0.25
40
0.25
40
0.375
40
0.375
40
0.5
40
0.5
40
0.625
40
0.625
40
0.75
40
0.75
40
0.875
40
0.875
40
1
40
1
40
1
40
1
41
1
10
29.6659317727536
20
-0.411722725269101
30
0
41
1
10
29.6514557789139
20
-0.448274493338005
30
0
41
1
10
29.6404604840938
20
-0.488144248599468
30
0
41
1
10
29.6322938984404
20
-0.555237943209079
30
0
41
1
10
29.6350768836275
20
-0.582134540088333
30
0
41
1
10
29.6510320622384
20
-0.614040380573101
30
0
41
1
10
29.6639403995729
20
-0.619838631065733
30
0
41
1
10
29.6946265920275
20
-0.613750136114447
30
0
41
1
10
29.7123729495741
20
-0.602008106392702
30
0
41
1
10
29.7489895777296
20
-0.564713747008113
30
0
41
1
10
29.7681028899943
20
-0.538905658770773
30
0
41
1
10
29.8039290461479
20
-0.476289748851428
30
0
41
1
10
29.8207779801838
20
-0.438841789246737
30
0
41
1
10
29.8447996085199
20
-0.363960903703912
30
0
41
1
10
29.851933292072
20
-0.32572596660583
30
0
41
1
10
29.8520395770007
20
-0.267553486713439
30
0
41
1
10
29.8453232089195
20
-0.247287441948856
30
0
41
1
10
29.8344766284903
20
-0.23761356589327
30
0
0
SPLINE
5
DC
100
AcDbEntity
8
1
62
256
6
ByLayer
370
18
48
1
60
0
100
AcDbSpline
70
4
71
3
72
21
73
17
40
0
40
0
40
0
40
0
40
0.179531768193122
40
0.179531768193122
40
0.269297652289682
40
0.269297652289682
40
0.359063536386243
40
0.448829420482804
40
0.448829420482804
40
0.538595304579364
40
0.538595304579364
40
0.718127072772485
40
0.718127072772485
40
0.897658840965607
40
0.897658840965607
40
1
40
1
40
1
40
1
41
1
10
4.05747544329395
20
0.720676840619774
30
0
41
1
10
4.05754974309357
20
0.818287954612572
30
0
41
1
10
4.0576158024233
20
0.910199926964196
30
0
41
1
10
4.05770622554735
20
1.03951918343606
30
0
41
1
10
4.05773503502368
20
1.08136761031844
30
0
41
1
10
4.05778932562902
20
1.16061982799968
30
0
41
1
10
4.05784049327283
20
1.23571049251558
30
0
41
1
10
4.05788682010777
20
1.30262938671041
30
0
41
1
10
4.05793132149122
20
1.3654157485478
30
0
41
1
10
4.05795276863233
20
1.39488311925001
30
0
41
1
10
4.05801415979801
20
1.47556718767987
30
0
41
1
10
4.05805126411164
20
1.51924045224678
30
0
41
1
10
4.05812139465982
20
1.5867975071273
30
0
41
1
10
4.05815468682451
20
1.6106582210966
30
0
41
1
10
4.05820280551305
20
1.63065476580491
30
0
41
1
10
4.05821951531459
20
1.63444651265687
30
0
41
1
10
4.05823540562233
20
1.63474135745324
30
0
0
SPLINE
5
DD
100
AcDbEntity
8
1
62
256
6
ByLayer
370
13
48
1
60
0
100
AcDbSpline
70
4
71
3
72
20
73
16
40
0
40
0
40
0
40
0
40
0.167906233363026
40
0.167906233363026
40
0.251859350044539
40
0.251859350044539
40
0.335812466726051
40
0.335812466726051
40
0.503718700089077
40
0.503718700089077
40
0.671624933452103
40
0.671624933452103
40
0.839531166815129
40
0.839531166815129
40
1
40
1
40
1
40
1
41
1
10
4.25045138850402
20
0.62015689448512
30
0
41
1
10
4.25051840783132
20
0.713844769955585
30
0
41
1
10
4.25057793049191
20
0.802412048009671
30
0
41
1
10
4.2506597630603
20
0.927667196301456
30
0
41
1
10
4.25068579920244
20
0.968162033508463
30
0
41
1
10
4.25073502773222
20
1.04509565117667
30
0
41
1
10
4.2507583540679
20
1.08173880650744
30
0
41
1
10
4.25082541148274
20
1.18628951271617
30
0
41
1
10
4.25086642742477
20
1.2491085634997
30
0
41
1
10
4.25094385592791
20
1.35870186931004
30
0
41
1
10
4.25097999617316
20
1.40497574771021
30
0
41
1
10
4.25104780591582
20
1.47802130951493
30
0
41
1
10
4.25107939062087
20
1.50484142261692
30
0
41
1
10
4.2511376654335
20
1.53870083170062
30
0
41
1
10
4.25116474617477
20
1.54645743648572
30
0
41
1
10
4.2511888557612
20
1.54494915919079
30
0
0
SPLINE
5
DE
100
AcDbEntity
8
1
62
256
6
ByLayer
370
18
48
1
60
0
100
AcDbSpline
70
4
71
3
72
8
73
4
40
0
40
0
40
0
40
0
40
1
40
1
40
1
40
1
41
1
10
29.4344936425948
20
1.63952839125659
30
0
41
1
10
29.3200882837177
20
1.64648378032899
30
0
41
1
10
29.2054635050669
20
1.64986367602495
30
0
41
1
10
29.0909278148508
20
1.64972319680515
30
0
0
SPLINE
5
DF
100
AcDbEntity
8
1
62
256
6
ByLayer
370
18
48
1
60
0
100
AcDbSpline
70
4
71
3
72
34
73
30
40
0
40
0
40
0
40
0
40
0.0519478249978636
40
0.0519478249978636
40
0.202593642137196
40
0.202593642137196
40
0.240255096422029
40
0.240255096422029
40
0.277916550706861
40
0.277916550706861
40
0.353239459276527
40
0.353239459276527
40
0.428562367846192
40
0.428562367846192
40
0.503885276415858
40
0.503885276415858
40
0.579208184985523
40
0.579208184985523
40
0.616869639270356
40
0.616869639270356
40
0.654531093555189
40
0.654531093555189
40
0.805176910694515
40
0.805176910694515
40
0.880499819264178
40
0.880499819264178
40
0.955822727833841
40
0.955822727833841
40
1
40
1
40
1
40
1
41
1
10
20.5233793807821
20
-1.56442817069831
30
0
41
1
10
20.3411344704035
20
-1.59477911214725
30
0
41
1
10
20.1583293216014
20
-1.61676489768683
30
0
41
1
10
19.4514176664882
20
-1.66731573359991
30
0
41
1
10
18.932316290247
20
-1.63067902100246
30
0
41
1
10
18.2724537549918
20
-1.49554568244341
30
0
41
1
10
18.1396150738442
20
-1.46395154618924
30
0
41
1
10
17.8757553431035
20
-1.39309755135758
30
0
41
1
10
17.7443466753491
20
-1.35378887786729
30
0
41
1
10
17.3509749598293
20
-1.22519928078285
30
0
41
1
10
17.0899676200417
20
-1.1251252534789
30
0
41
1
10
16.5664598506799
20
-0.901600485086846
30
0
41
1
10
16.3037954084718
20
-0.778109338944887
30
0
41
1
10
15.7734648048848
20
-0.513827613040888
30
0
41
1
10
15.5110005703942
20
-0.375708730521666
30
0
41
1
10
14.9874950634139
20
-0.0950002645669485
30
0
41
1
10
14.7264370801214
20
0.0475580520127892
30
0
41
1
10
14.332977664282
20
0.259209001220796
30
0
41
1
10
14.2015145590835
20
0.329398814752238
30
0
41
1
10
13.9374734221305
20
0.468123984784768
30
0
41
1
10
13.8045497466754
20
0.536743192460449
30
0
41
1
10
13.14451016159
20
0.868716677722603
30
0
41
1
10
12.6254206494166
20
1.10230036716783
30
0
41
1
10
11.836026132446
20
1.3687327996598
30
0
41
1
10
11.5698899858941
20
1.4438437752286
30
0
41
1
10
11.0436990159819
20
1.55789307602652
30
0
41
1
10
10.782386349881
20
1.59760170326029
30
0
41
1
10
10.3672577377829
20
1.631821180179
30
0
41
1
10
10.2137312854362
20
1.63824925786645
30
0
41
1
10
10.0597109982577
20
1.63833219513992
30
0
0
SPLINE
5
E0
100
AcDbEntity
8
SK1
62
256
6
ByLayer
370
18
48
1
60
0
100
AcDbSpline
70
4
71
3
72
8
73
4
40
0
40
0
40
0
40
0
40
1
40
1
40
1
40
1
41
1
10
-36
20
1.60398064937794
30
0
41
1
10
-35.806052902553
20
1.9755983196753
30
0
41
1
10
-35.6037423476354
20
2.34259369971886
30
0
41
1
10
-35.4
20
2.7087977609151
30
0
0
SPLINE
5
E1
100
AcDbEntity
8
SK1
62
256
6
ByLayer
370
18
48
1
60
0
100
AcDbSpline
70
4
71
3
72
8
73
4
40
0
40
0
40
0
40
0
40
1
40
1
40
1
40
1
41
1
10
-35.4
20
-2.66154464062743
30
0
41
1
10
-35.6037663377134
20
-2.2952974599516
30
0
41
1
10
-35.8061179691493
20
-1.92822052674623
30
0
41
1
10
-35.9999999999999
20
-1.55672752909044
30
0
0
SPLINE
5
E2
100
AcDbEntity
8
SK1
62
256
6
ByLayer
370
18
48
1
60
0
100
AcDbSpline
70
4
71
3
72
14
73
10
40
0
40
0
40
0
40
0
40
0.5
40
0.5
40
0.75
40
0.75
40
0.875
40
0.875
40
1
40
1
40
1
40
1
41
1
10
-35.4
20
2.70879776091519
30
0
41
1
10
-35.3787652204583
20
2.74696489993664
30
0
41
1
10
-35.3584465534471
20
2.78495570893344
30
0
41
1
10
-35.3303391147581
20
2.8401046390197
30
0
41
1
10
-35.3214282600699
20
2.85808037407719
30
0
41
1
10
-35.3103321676609
20
2.88185921024046
30
0
41
1
10
-35.30696138533
20
2.88936298358664
30
0
41
1
10
-35.301759003493
20
2.90210197182731
30
0
41
1
10
-35.2999999999999
20
2.90719833598809
30
0
41
1
10
-35.2999999999999
20
2.90928832231194
30
0
0
SPLINE
5
E3
100
AcDbEntity
8
SK1
62
256
6
ByLayer
370
18
48
1
60
0
100
AcDbSpline
70
4
71
3
72
8
73
4
40
0
40
0
40
0
40
0
40
1
40
1
40
1
40
1
41
1
10
-36
20
-1.60398064937794
30
0
41
1
10
-35.806052902553
20
-1.97559831967533
30
0
41
1
10
-35.6037423476354
20
-2.34259369971886
30
0
41
1
10
-35.4
20
-2.7087977609151
30
0
0
SPLINE
5
E4
100
AcDbEntity
8
SK1
62
256
6
ByLayer
370
18
48
1
60
0
100
AcDbSpline
70
4
71
3
72
14
73
10
40
0
40
0
40
0
40
0
40
0.125
40
0.125
40
0.250000000000001
40
0.250000000000001
40
0.500000000000002
40
0.500000000000002
40
1
40
1
40
1
40
1
41
1
10
-35.3
20
-2.86833561806256
30
0
41
1
10
-35.3
20
-2.86557742269417
30
0
41
1
10
-35.301759386125
20
-2.85984819117868
30
0
41
1
10
-35.306935324593
20
-2.84609926877303
30
0
41
1
10
-35.3102738888306
20
-2.8382111022103
30
0
41
1
10
-35.3215584000234
20
-2.81283291179793
30
0
41
1
10
-35.3303095430127
20
-2.79463283291332
30
0
41
1
10
-35.35839128027
20
-2.73819167752683
30
0
41
1
10
-35.378655820405
20
-2.69990841399758
30
0
41
1
10
-35.4
20
-2.66154464062743
30
0
0
SPLINE
5
E5
100
AcDbEntity
8
SK1
62
256
6
ByLayer
370
18
48
1
60
0
100
AcDbSpline
70
4
71
3
72
14
73
10
40
0
40
0
40
0
40
0
40
0.5
40
0.5
40
0.75
40
0.75
40
0.875
40
0.875
40
1
40
1
40
1
40
1
41
1
10
-35.4
20
-2.70879776091522
30
0
41
1
10
-35.3787652204583
20
-2.74696489993664
30
0
41
1
10
-35.3584465534471
20
-2.78495570893344
30
0
41
1
10
-35.3303391147581
20
-2.8401046390197
30
0
41
1
10
-35.3214282600699
20
-2.85808037407719
30
0
41
1
10
-35.3103321676609
20
-2.88185921024046
30
0
41
1
10
-35.30696138533
20
-2.88936298358664
30
0
41
1
10
-35.301759003493
20
-2.90210197182731
30
0
41
1
10
-35.2999999999999
20
-2.90719833598809
30
0
41
1
10
-35.2999999999999
20
-2.90928832231194
30
0
0
LINE
5
76
100
AcDbEntity
8
81
62
256
6
ByLayer
370
18
48
1
60
0
100
AcDbLine
10
30
20
0
30
0
11
35
21
0
31
0
39
0
210
0
220
0
230
1
0
LINE
5
77
100
AcDbEntity
8
1
62
256
6
ByLayer
370
18
48
1
60
0
100
AcDbLine
10
4.058219
20
1.634741
30
0
11
1.583386
21
1.633257
31
0
39
0
210
0
220
0
230
1
0
LINE
5
79
100
AcDbEntity
8
1
62
256
6
ByLayer
370
18
48
1
60
0
100
AcDbLine
10
10.053028
20
1.638338
30
0
11
9.67175
21
1.63811
31
0
39
0
210
0
220
0
230
1
0
LINE
5
7A
100
AcDbEntity
8
1
62
256
6
ByLayer
370
18
48
1
60
0
100
AcDbLine
10
19.573027
20
1.64405
30
0
11
19.193688
21
1.643823
31
0
39
0
210
0
220
0
230
1
0
LINE
5
7B
100
AcDbEntity
8
1
62
256
6
ByLayer
370
18
48
1
60
0
100
AcDbLine
10
29.093954
20
1.649763
30
0
11
28.716199
21
1.649536
31
0
39
0
210
0
220
0
230
1
0
LINE
5
7C
100
AcDbEntity
8
1
62
256
6
ByLayer
370
18
48
1
60
0
100
AcDbLine
10
28.716199
20
-1.649536
30
0
11
29.093703
21
-1.649763
31
0
39
0
210
0
220
0
230
1
0
LINE
5
7D
100
AcDbEntity
8
1
62
256
6
ByLayer
370
18
48
1
60
0
100
AcDbLine
10
19.193688
20
-1.643823
30
0
11
19.572251
21
-1.64405
31
0
39
0
210
0
220
0
230
1
0
LINE
5
7E
100
AcDbEntity
8
1
62
256
6
ByLayer
370
18
48
1
60
0
100
AcDbLine
10
9.67175
20
-1.63811
30
0
11
10.054202
21
-1.638339
31
0
39
0
210
0
220
0
230
1
0
LINE
5
7F
100
AcDbEntity
8
1
62
256
6
ByLayer
370
18
48
1
60
0
100
AcDbLine
10
1.583386
20
-1.633257
30
0
11
4.058219
21
-1.634741
31
0
39
0
210
0
220
0
230
1
0
LINE
5
80
100
AcDbEntity
8
SK1
62
256
6
ByLayer
370
18
48
1
60
0
100
AcDbLine
10
0
20
3
30
0
11
-35.278312
21
3
31
0
39
0
210
0
220
0
230
1
0
LINE
5
82
100
AcDbEntity
8
SK1
62
256
6
ByLayer
370
18
48
1
60
0
100
AcDbLine
10
-35.278312
20
-3
30
0
11
0
21
-3
31
0
39
0
210
0
220
0
230
1
0
LINE
5
83
100
AcDbEntity
8
SK1
62
256
6
ByLayer
370
18
48
1
60
0
100
AcDbLine
10
-35.278312
20
3
30
0
11
-35.3
21
2.962436
31
0
39
0
210
0
220
0
230
1
0
LINE
5
84
100
AcDbEntity
8
SK1
62
256
6
ByLayer
370
18
48
1
60
0
100
AcDbLine
10
-35.3
20
-2.962436
30
0
11
-35.278312
21
-3
31
0
39
0
210
0
220
0
230
1
0
LINE
5
85
100
AcDbEntity
8
SK4
62
256
6
ByLayer
370
18
48
0.05
60
0
100
AcDbLine
10
35
20
0
30
0
11
-41
21
0
31
0
39
0
210
0
220
0
230
1
0
LINE
5
87
100
AcDbEntity
8
4
62
256
6
ByLayer
370
18
48
0.05
60
0
100
AcDbLine
10
30
20
0
30
0
11
0
21
0
31
0
39
0
210
0
220
0
230
1
0
LINE
5
89
100
AcDbEntity
8
80
62
256
6
ByLayer
370
18
48
1
60
0
100
AcDbLine
10
0
20
0
30
0
11
-5
21
0
31
0
39
0
210
0
220
0
230
1
0
LINE
5
8A
100
AcDbEntity
8
1
62
256
6
ByLayer
370
18
48
1
60
0
100
AcDbLine
10
30
20
0
30
0
11
29.432577
21
-1.558981
31
0
39
0
210
0
220
0
230
1
0
LINE
5
8B
100
AcDbEntity
8
1
62
256
6
ByLayer
370
13
48
1
60
0
100
AcDbLine
10
29.919291
20
0.352013
30
0
11
29.763521
21
0.352013
31
0
39
0
210
0
220
0
230
1
0
LINE
5
8C
100
AcDbEntity
8
1
62
256
6
ByLayer
370
13
48
1
60
0
100
AcDbLine
10
29.573614
20
0.016683
30
0
11
29.895668
21
-0.174402
31
0
39
0
210
0
220
0
230
1
0
LINE
5
8D
100
AcDbEntity
8
1
62
256
6
ByLayer
370
18
48
1
60
0
100
AcDbLine
10
29.997561
20
0.017023
30
0
11
30
21
0
31
0
39
0
210
0
220
0
230
1
0
LINE
5
8E
100
AcDbEntity
8
1
62
256
6
ByLayer
370
13
48
1
60
0
100
AcDbLine
10
29.763521
20
0.352013
30
0
11
29.939722
21
0.247467
31
0
39
0
210
0
220
0
230
1
0
LINE
5
8F
100
AcDbEntity
8
1
62
256
6
ByLayer
370
18
48
1
60
0
100
AcDbLine
10
29.834477
20
-0.237614
30
0
11
29.895668
21
-0.174402
31
0
39
0
210
0
220
0
230
1
0
LINE
5
90
100
AcDbEntity
8
1
62
256
6
ByLayer
370
13
48
1
60
0
100
AcDbLine
10
1.583386
20
1.633257
30
0
11
1.583386
21
-1.633257
31
0
39
0
210
0
220
0
230
1
0
LINE
5
91
100
AcDbEntity
8
1
62
256
6
ByLayer
370
18
48
1
60
0
100
AcDbLine
10
29.939722
20
-0.247467
30
0
11
29.919291
21
-0.352013
31
0
39
0
210
0
220
0
230
1
0
LINE
5
92
100
AcDbEntity
8
1
62
256
6
ByLayer
370
18
48
1
60
0
100
AcDbLine
10
30
20
0
30
0
11
29.997561
21
-0.017023
31
0
39
0
210
0
220
0
230
1
0
LINE
5
93
100
AcDbEntity
8
1
62
256
6
ByLayer
370
13
48
1
60
0
100
AcDbLine
10
0.791453
20
2.316628
30
0
11
0.791453
21
-2.316628
31
0
39
0
210
0
220
0
230
1
0
LINE
5
94
100
AcDbEntity
8
1
62
256
6
ByLayer
370
18
48
1
60
0
100
AcDbLine
10
0
20
-3
30
0
11
0
21
3
31
0
39
0
210
0
220
0
230
1
0
LINE
5
95
100
AcDbEntity
8
1
62
256
6
ByLayer
370
18
48
1
60
0
100
AcDbLine
10
29.939722
20
0.247467
30
0
11
29.919291
21
0.352013
31
0
39
0
210
0
220
0
230
1
0
LINE
5
96
100
AcDbEntity
8
1
62
256
6
ByLayer
370
18
48
1
60
0
100
AcDbLine
10
29.178481
20
-0.915266
30
0
11
29.665932
21
-0.411723
31
0
39
0
210
0
220
0
230
1
0
LINE
5
97
100
AcDbEntity
8
SK1
62
256
6
ByLayer
370
18
48
1
60
0
100
AcDbLine
10
0
20
-3
30
0
11
0
21
3
31
0
39
0
210
0
220
0
230
1
0
LINE
5
98
100
AcDbEntity
8
SK1
62
256
6
ByLayer
370
13
48
1
60
0
100
AcDbLine
10
-35.4
20
-2.661472
30
0
11
-35.4
21
-2.708798
31
0
39
0
210
0
220
0
230
1
0
LINE
5
99
100
AcDbEntity
8
SK1
62
256
6
ByLayer
370
18
48
1
60
0
100
AcDbLine
10
-35.3
20
2.962436
30
0
11
-35.3
21
2.909288
31
0
39
0
210
0
220
0
230
1
0
LINE
5
9A
100
AcDbEntity
8
SK1
62
256
6
ByLayer
370
18
48
1
60
0
100
AcDbLine
10
-36
20
-1.556718
30
0
11
-36
21
-1.603981
31
0
39
0
210
0
220
0
230
1
0
LINE
5
9B
100
AcDbEntity
8
SK1
62
256
6
ByLayer
370
18
48
1
60
0
100
AcDbLine
10
-36
20
1.603981
30
0
11
-36
21
-1.556728
31
0
39
0
210
0
220
0
230
1
0
LINE
5
9C
100
AcDbEntity
8
SK1
62
256
6
ByLayer
370
18
48
1
60
0
100
AcDbLine
10
-35.278312
20
3
30
0
11
-35.278312
21
-3
31
0
39
0
210
0
220
0
230
1
0
LINE
5
9D
100
AcDbEntity
8
SK1
62
256
6
ByLayer
370
18
48
1
60
0
100
AcDbLine
10
-35.3
20
-2.962436
30
0
11
-35.3
21
-2.868336
31
0
39
0
210
0
220
0
230
1
0
MTEXT
5
E6
100
AcDbEntity
8
SK6
62
256
6
ByLayer
370
13
48
1
60
0
100
AcDbMText
10
-0.870831
20
34.032694
30
0
210
0
220
0
230
1
1
\W0.7542;R840-0330-50-A1A1220
40
3.5
41
0
44
1.084337
50
0
71
8
72
5
7
iso_b_vert
0
DIMENSION
5
F3
100
AcDbEntity
8
SK2
62
256
6
ByLayer
370
13
48
1
60
0
100
AcDbDimension
2
DimnDraft3D1
10
29.44
20
-11.863398
30
0
11
13.690059
21
-11.863398
31
0
70
32
71
5
72
1
41
1
210
0
220
0
230
1
3
Standard
100
AcDbAlignedDimension
13
0
23
-1.5875
33
0
14
29.44
24
-3.2375
34
0
50
0
100
AcDbRotatedDimension
1001
ACAD
1000
DSTYLE
1002
{
1070
   279
1070
     0
1070
   172
1070
     1
1070
   173
1070
     1
1070
   340
1005
E7
1070
   271
1070
     2
1070
   272
1070
     2
1070
    77
1070
     1
1070
    73
1070
     0
1070
   171
1070
     3
1070
   274
1070
     4
1070
   177
1070
    35
1070
   176
1070
    35
1070
   178
1070
    35
1070
    48
1040
-0.005
1070
    41
1041
3.5
1070
   147
1041
1.75
1070
    42
1041
1.5875
1070
    44
1041
2.0
1070
   140
1041
3.5
1070
   343
1005
0
1070
   344
1005
0
1002
}
0
DIMENSION
5
FD
100
AcDbEntity
8
SK2
62
256
6
ByLayer
370
13
48
1
60
0
100
AcDbDimension
2
DimnDraft3D2
10
30
20
-31.692985
30
0
11
-2.2187
21
-31.692985
31
0
70
32
71
5
72
1
41
1
210
0
220
0
230
1
3
Standard
100
AcDbAlignedDimension
13
-36
23
-4.5875
33
0
14
30
24
-1.5875
34
0
50
0
100
AcDbRotatedDimension
1001
ACAD
1000
DSTYLE
1002
{
1070
   279
1070
     0
1070
   172
1070
     1
1070
   173
1070
     1
1070
   340
1005
E7
1070
   271
1070
     2
1070
   272
1070
     2
1070
    77
1070
     1
1070
    73
1070
     0
1070
   171
1070
     3
1070
   274
1070
     4
1070
   177
1070
    35
1070
   176
1070
    35
1070
   178
1070
    35
1070
    48
1040
-0.005
1070
    41
1041
3.5
1070
   147
1041
1.75
1070
    42
1041
1.5875
1070
    44
1041
2.0
1070
   140
1041
3.5
1070
   343
1005
0
1070
   344
1005
0
1002
}
0
DIMENSION
5
107
100
AcDbEntity
8
SK2
62
256
6
ByLayer
370
13
48
1
60
0
100
AcDbDimension
2
DimnDraft3D3
10
30
20
13.259119
30
0
11
21.47
21
13.259119
31
0
70
32
71
5
72
1
41
1
210
0
220
0
230
1
3
Standard
100
AcDbAlignedDimension
13
12.94
23
3.2375
33
0
14
30
24
1.5875
34
0
50
0
100
AcDbRotatedDimension
1001
ACAD
1000
DSTYLE
1002
{
1070
   279
1070
     0
1070
   172
1070
     1
1070
   173
1070
     1
1070
   340
1005
E7
1070
   271
1070
     2
1070
   272
1070
     2
1070
    77
1070
     1
1070
    73
1070
     0
1070
   171
1070
     3
1070
   274
1070
     4
1070
   177
1070
    35
1070
   176
1070
    35
1070
   178
1070
    35
1070
    48
1040
-0.005
1070
    41
1041
3.5
1070
   147
1041
1.75
1070
    42
1041
1.5875
1070
    44
1041
2.0
1070
   140
1041
3.5
1070
   343
1005
0
1070
   344
1005
0
1002
}
0
DIMENSION
5
111
100
AcDbEntity
8
SK2
62
256
6
ByLayer
370
13
48
1
60
0
100
AcDbDimension
2
DimnDraft3D4
10
29.44
20
-14.452503
30
0
11
39.981425
21
-14.452503
31
0
70
32
71
5
72
1
41
1
210
0
220
0
230
1
3
Standard
100
AcDbAlignedDimension
13
30
23
-1.5875
33
0
14
29.44
24
-3.2375
34
0
50
0
100
AcDbRotatedDimension
1001
ACAD
1000
DSTYLE
1002
{
1070
   279
1070
     0
1070
   172
1070
     1
1070
   173
1070
     1
1070
   340
1005
E7
1070
   271
1070
     2
1070
   272
1070
     2
1070
    77
1070
     1
1070
    73
1070
     0
1070
   171
1070
     3
1070
   274
1070
     4
1070
   177
1070
    35
1070
   176
1070
    35
1070
   178
1070
    35
1070
    48
1040
-0.005
1070
    41
1041
3.5
1070
   147
1041
1.75
1070
    42
1041
1.5875
1070
    44
1041
2.0
1070
   140
1041
3.5
1070
   343
1005
0
1070
   344
1005
0
1002
}
0
DIMENSION
5
11B
100
AcDbEntity
8
SK2
62
256
6
ByLayer
370
13
48
1
60
0
100
AcDbDimension
2
DimnDraft3D5
10
29.44
20
-21.343428
30
0
11
-5.299324
21
-21.343428
31
0
70
32
71
5
72
1
41
1
210
0
220
0
230
1
3
Standard
100
AcDbAlignedDimension
13
-36
23
-4.5875
33
0
14
29.44
24
-3.2375
34
0
50
0
100
AcDbRotatedDimension
1001
ACAD
1000
DSTYLE
1002
{
1070
   279
1070
     0
1070
   172
1070
     1
1070
   173
1070
     1
1070
   340
1005
E7
1070
   271
1070
     2
1070
   272
1070
     2
1070
    77
1070
     1
1070
    73
1070
     0
1070
   171
1070
     3
1070
   274
1070
     4
1070
   177
1070
    35
1070
   176
1070
    35
1070
   178
1070
    35
1070
    48
1040
-0.005
1070
    41
1041
3.5
1070
   147
1041
1.75
1070
    42
1041
1.5875
1070
    44
1041
2.0
1070
   140
1041
3.5
1070
   343
1005
0
1070
   344
1005
0
1002
}
0
DIMENSION
5
126
100
AcDbEntity
8
SK2
62
256
6
ByLayer
370
13
48
1
60
0
100
AcDbDimension
2
DimnDraft3D6
10
-46.625163
20
3
30
0
11
-47.250163
21
21.47418
31
0
70
33
71
5
72
1
41
1
210
0
220
0
230
1
3
Standard
100
AcDbAlignedDimension
13
-37.5875
23
-3
33
0
14
-37.5875
24
3
34
0
1001
ACAD
1000
DSTYLE
1002
{
1070
   279
1070
     0
1070
    74
1070
     0
1070
   173
1070
     1
1070
   340
1005
E7
1070
   271
1070
     3
1070
   272
1070
     2
1070
    77
1070
     1
1070
    73
1070
     0
1070
   171
1070
     3
1070
   274
1070
     4
1070
   177
1070
    35
1070
   176
1070
    35
1070
   178
1070
    35
1070
    48
1040
-0.005
1070
    41
1041
3.5
1070
   147
1041
1.75
1070
    42
1041
1.5875
1070
    44
1041
2.0
1070
   140
1041
3.5
1070
   343
1005
0
1070
   344
1005
0
1002
}
0
DIMENSION
5
131
100
AcDbEntity
8
2
62
256
6
ByLayer
370
13
48
1
60
0
100
AcDbDimension
2
DimnDraft3D7
10
44.083343
20
1.65
30
0
11
39.458343
21
18.717266
31
0
70
33
71
5
72
1
41
1
210
0
220
0
230
1
3
Standard
100
AcDbAlignedDimension
13
31.0275
23
-1.65
33
0
14
31.0275
24
1.65
34
0
1001
ACAD
1000
DSTYLE
1002
{
1070
   279
1070
     0
1070
    74
1070
     0
1070
   173
1070
     1
1070
   340
1005
E7
1070
   271
1070
     3
1070
   272
1070
     2
1070
    77
1070
     1
1070
    73
1070
     0
1070
   171
1070
     3
1070
   274
1070
     4
1070
   177
1070
    35
1070
   176
1070
    35
1070
   178
1070
    35
1070
    48
1040
-0.005
1070
    41
1041
3.5
1070
   147
1041
1.75
1070
    42
1041
1.5875
1070
    44
1041
2.0
1070
   140
1041
3.5
1070
   343
1005
0
1070
   344
1005
0
1002
}
0
ENDSEC
0
SECTION
2
OBJECTS
0
DICTIONARY
5
19c
330
0
100
AcDbDictionary
280
0
281
1
3
ACAD_GROUP
350
19d
3
ACAD_MLINESTYLE
350
19e
0
DICTIONARY
5
19d
330
0
100
AcDbDictionary
280
0
281
1
0
DICTIONARY
5
19e
330
0
100
AcDbDictionary
280
0
281
1
3
Standard
350
18
0
MLINESTYLE
5
18
330
19e
100
AcDbMlineStyle
2
Standard
70
0
3

62
256
51
90
52
90
71
2
49
-0.5
62
256
6
ByLayer
49
0.5
62
256
6
ByLayer
0
RASTERVARIABLES
5
18a
330

100
AcDbRasterVariables
90
0
70
1
71
1
72
1
0
ENDSEC
0
EOF
