0
SECTION
2
HEADER
9
$ACADVER
1
AC1015
9
$DWGCODEPAGE
3
ANSI_1252
9
$HANDSEED
5
19f
9
$ANGBASE
50
0
9
$ANGDIR
70
0
9
$ATTMODE
70
1
9
$AUNITS
70
0
9
$AUPREC
70
0
9
$CECOLOR
62
256
9
$CELTSCALE
40
1
9
$CELTYPE
6
ByLayer
9
$CELWEIGHT
370
18
9
$CLAYER
8
0
9
$CMLJUST
70
0
9
$CMLSCALE
40
1
9
$CMLSTYLE
2
Standard
9
$DIMSTYLE
2
Standard
9
$TEXTSIZE
40
0.2
9
$TEXTSTYLE
7
Standard
9
$LUNITS
70
2
9
$LUPREC
70
4
9
$EXTNAMES
290
1
9
$INSUNITS
70
4
9
$LTSCALE
40
1
9
$LWDISPLAY
290
1
9
$PDMODE
70
0
9
$PDSIZE
40
0
9
$PLINEGEN
70
0
0
ENDSEC
0
SECTION
2
CLASSES
0
CLASS
1
RASTERVARIABLES
2
AcDbRasterVariables
3
ISM
90
0
280
0
281
0
0
ENDSEC
0
SECTION
2
TABLES
0
TABLE
2
VPORT
5
195
100
AcDbSymbolTable
0
VPORT
5
1
100
AcDbSymbolTableRecord
100
AcDbViewportTableRecord
2
*Active
70
0
10
0
20
0
11
1
21
1
12
-1
22
1
13
0
23
0
14
0.5
24
0.5
15
10
25
10
16
0
26
0
36
1
17
0
27
0
37
0
0
ENDTAB
0
TABLE
2
LTYPE
5
196
100
AcDbSymbolTable
0
LTYPE
5
14
100
AcDbSymbolTableRecord
100
AcDbLinetypeTableRecord
70
0
2
ByBlock
3

72
65
73
0
40
0
0
LTYPE
5
15
100
AcDbSymbolTableRecord
100
AcDbLinetypeTableRecord
70
0
2
ByLayer
3

72
65
73
0
40
0
0
LTYPE
5
16
100
AcDbSymbolTableRecord
100
AcDbLinetypeTableRecord
70
0
2
CONTINUOUS
3
Solid line
72
65
73
0
40
0
0
LTYPE
5
6A
100
AcDbSymbolTableRecord
100
AcDbLinetypeTableRecord
70
0
2
CENTER
3
____ _ ____ _ ____ _ ____
72
65
73
4
40
47.5
49
22
74
0
49
-8.5
74
0
49
8.5
74
0
49
-8.5
74
0
0
LTYPE
5
6B
100
AcDbSymbolTableRecord
100
AcDbLinetypeTableRecord
70
0
2
DASHED
3
__ __ __ __ __ __ __ __ __
72
65
73
2
40
25.72
49
12.86
74
0
49
-12.86
74
0
0
ENDTAB
0
TABLE
2
LAYER
5
197
100
AcDbSymbolTable
0
LAYER
5
10
100
AcDbSymbolTableRecord
100
AcDbLayerTableRecord
2
0
70
0
62
7
6
CONTINUOUS
290
1
370
-3
390
0
0
LAYER
5
6D
100
AcDbSymbolTableRecord
100
AcDbLayerTableRecord
2
81
70
0
62
-3
6
CONTINUOUS
290
1
370
-3
390
0
0
LAYER
5
6F
100
AcDbSymbolTableRecord
100
AcDbLayerTableRecord
2
80
70
0
62
-6
6
CONTINUOUS
290
1
370
-3
390
0
0
LAYER
5
74
100
AcDbSymbolTableRecord
100
AcDbLayerTableRecord
2
2
70
0
62
7
6
CONTINUOUS
290
1
370
-3
390
0
0
LAYER
5
78
100
AcDbSymbolTableRecord
100
AcDbLayerTableRecord
2
1
70
0
62
4
6
CONTINUOUS
290
1
370
-3
390
0
0
LAYER
5
86
100
AcDbSymbolTableRecord
100
AcDbLayerTableRecord
2
4
70
0
62
-2
6
CENTER
290
1
370
-3
390
0
0
LAYER
5
181
100
AcDbSymbolTableRecord
100
AcDbLayerTableRecord
2
SK2
70
0
62
7
6
CONTINUOUS
290
1
370
-3
390
0
0
LAYER
5
182
100
AcDbSymbolTableRecord
100
AcDbLayerTableRecord
2
SK1
70
0
62
4
6
CONTINUOUS
290
1
370
-3
390
0
0
LAYER
5
183
100
AcDbSymbolTableRecord
100
AcDbLayerTableRecord
2
SK4
70
0
62
2
6
CENTER
290
1
370
-3
390
0
0
LAYER
5
184
100
AcDbSymbolTableRecord
100
AcDbLayerTableRecord
2
SK6
70
0
62
5
6
CONTINUOUS
290
1
370
-3
390
0
0
ENDTAB
0
TABLE
2
STYLE
5
198
100
AcDbSymbolTable
0
STYLE
5
11
100
AcDbSymbolTableRecord
100
AcDbTextStyleTableRecord
2
Standard
3
txt
70
0
71
0
40
0
41
1
42
0
50
0
0
STYLE
5
DD
100
AcDbSymbolTableRecord
100
AcDbTextStyleTableRecord
2
iso_b_vert
3
simplex.shx
70
0
71
0
40
0
41
1
42
0
50
0
0
STYLE
5
DE
100
AcDbSymbolTableRecord
100
AcDbTextStyleTableRecord
2
DWGDirectTextStyle
3
simplex
70
0
71
0
40
0
41
1
42
0
50
0
0
ENDTAB
0
TABLE
2
DIMSTYLE
5
199
100
AcDbSymbolTable
100
AcDbDimStyleTable
0
DIMSTYLE
105
27
100
AcDbSymbolTableRecord
100
AcDbDimStyleTableRecord
2
Standard
70
0
3
<>
41
0.18
42
0.0625
44
0.18
140
0.18
147
0.09
73
0
74
0
77
1
271
2
275
0
278
52
280
0
340
11
0
ENDTAB
0
TABLE
2
VIEW
5
19a
100
AcDbSymbolTable
0
ENDTAB
0
TABLE
2
UCS
5
19b
100
AcDbSymbolTable
0
ENDTAB
0
TABLE
2
APPID
5
19c
100
AcDbSymbolTable
0
APPID
5
12
100
AcDbSymbolTableRecord
100
AcDbRegAppTableRecord
2
ACAD
70
0
0
ENDTAB
0
TABLE
2
BLOCK_RECORD
5
19d
100
AcDbSymbolTable
0
BLOCK_RECORD
5
1F
100
AcDbSymbolTableRecord
100
AcDbBlockTableRecord
2
*Model_Space
340
0
70
0
0
BLOCK_RECORD
5
1B
100
AcDbSymbolTableRecord
100
AcDbBlockTableRecord
2
*Paper_Space
340
0
70
0
0
BLOCK_RECORD
5
23
100
AcDbSymbolTableRecord
100
AcDbBlockTableRecord
2
*Paper_Space0
340
0
70
0
0
BLOCK_RECORD
5
E0
100
AcDbSymbolTableRecord
100
AcDbBlockTableRecord
2
DimnDraft3D1
340
0
70
0
0
BLOCK_RECORD
5
EA
100
AcDbSymbolTableRecord
100
AcDbBlockTableRecord
2
DimnDraft3D2
340
0
70
0
0
BLOCK_RECORD
5
F4
100
AcDbSymbolTableRecord
100
AcDbBlockTableRecord
2
DimnDraft3D3
340
0
70
0
0
BLOCK_RECORD
5
FE
100
AcDbSymbolTableRecord
100
AcDbBlockTableRecord
2
DimnDraft3D4
340
0
70
0
0
BLOCK_RECORD
5
108
100
AcDbSymbolTableRecord
100
AcDbBlockTableRecord
2
DimnDraft3D5
340
0
70
0
0
BLOCK_RECORD
5
112
100
AcDbSymbolTableRecord
100
AcDbBlockTableRecord
2
DimnDraft3D6
340
0
70
0
0
BLOCK_RECORD
5
11D
100
AcDbSymbolTableRecord
100
AcDbBlockTableRecord
2
DimnDraft3D7
340
0
70
0
0
ENDTAB
0
ENDSEC
0
SECTION
2
BLOCKS
0
BLOCK
5
20
100
AcDbEntity
8
0
100
AcDbBlockBegin
2
*Model_Space
70
0
10
0
20
0
30
0
3
*Model_Space
0
ENDBLK
5
21
100
AcDbEntity
8
0
100
AcDbBlockEnd
0
BLOCK
5
1C
100
AcDbEntity
8
0
100
AcDbBlockBegin
2
*Paper_Space
70
0
10
0
20
0
30
0
3
*Paper_Space
0
ENDBLK
5
1D
100
AcDbEntity
8
0
100
AcDbBlockEnd
0
BLOCK
5
24
100
AcDbEntity
8
0
100
AcDbBlockBegin
2
*Paper_Space0
70
0
10
0
20
0
30
0
3
*Paper_Space0
0
ENDBLK
5
25
100
AcDbEntity
8
0
100
AcDbBlockEnd
0
BLOCK
5
E7
100
AcDbEntity
8
0
100
AcDbBlockBegin
2
DimnDraft3D1
70
0
10
0
20
0
30
0
3
DimnDraft3D1
0
MTEXT
5
E1
100
AcDbEntity
8
SK2
62
256
6
ByLayer
370
13
48
1
60
0
100
AcDbMText
10
6.872954
20
-10.988398
30
0
210
0
220
0
230
1
1
\W0.7756;25,44
40
3.5
41
0
44
1.084337
50
0
71
7
72
5
7
iso_b_vert
0
LINE
5
E2
100
AcDbEntity
8
SK2
62
256
6
ByLayer
370
13
48
1
60
0
100
AcDbLine
10
0
20
-1.5875
30
0
11
0
21
-13.863398
31
0
39
0
210
0
220
0
230
1
0
LINE
5
E3
100
AcDbEntity
8
SK2
62
256
6
ByLayer
370
13
48
1
60
0
100
AcDbLine
10
25.44
20
-3.2375
30
0
11
25.44
21
-13.863398
31
0
39
0
210
0
220
0
230
1
0
LINE
5
E4
100
AcDbEntity
8
SK2
62
256
6
ByLayer
370
13
48
1
60
0
100
AcDbLine
10
0
20
-11.863398
30
0
11
25.44
21
-11.863398
31
0
39
0
210
0
220
0
230
1
0
SOLID
5
E5
100
AcDbEntity
8
SK2
62
256
6
ByLayer
370
13
48
1
60
0
100
AcDbTrace
10
0
20
-11.863398
30
0
11
3.499998
21
-11.402615
31
0
12
3.500002
22
-12.324182
32
0
13
0
23
-11.863398
33
0
39
0
210
0
220
0
230
1
0
SOLID
5
E6
100
AcDbEntity
8
SK2
62
256
6
ByLayer
370
13
48
1
60
0
100
AcDbTrace
10
25.44
20
-11.863398
30
0
11
21.940002
21
-12.324182
31
0
12
21.939998
22
-11.402615
32
0
13
25.44
23
-11.863398
33
0
39
0
210
0
220
0
230
1
0
ENDBLK
5
E8
100
AcDbEntity
8
0
100
AcDbBlockEnd
0
BLOCK
5
F1
100
AcDbEntity
8
0
100
AcDbBlockBegin
2
DimnDraft3D2
70
0
10
0
20
0
30
0
3
DimnDraft3D2
0
MTEXT
5
EB
100
AcDbEntity
8
SK2
62
256
6
ByLayer
370
13
48
1
60
0
100
AcDbMText
10
-8.667384
20
-30.817985
30
0
210
0
220
0
230
1
1
\W0.7317;62,00
40
3.5
41
0
44
1.084337
50
0
71
7
72
5
7
iso_b_vert
0
LINE
5
EC
100
AcDbEntity
8
SK2
62
256
6
ByLayer
370
13
48
1
60
0
100
AcDbLine
10
-36
20
-4.5875
30
0
11
-36
21
-33.692985
31
0
39
0
210
0
220
0
230
1
0
LINE
5
ED
100
AcDbEntity
8
SK2
62
256
6
ByLayer
370
13
48
1
60
0
100
AcDbLine
10
26
20
-1.5875
30
0
11
26
21
-33.692985
31
0
39
0
210
0
220
0
230
1
0
LINE
5
EE
100
AcDbEntity
8
SK2
62
256
6
ByLayer
370
13
48
1
60
0
100
AcDbLine
10
-36
20
-31.692985
30
0
11
26
21
-31.692985
31
0
39
0
210
0
220
0
230
1
0
SOLID
5
EF
100
AcDbEntity
8
SK2
62
256
6
ByLayer
370
13
48
1
60
0
100
AcDbTrace
10
-36
20
-31.692985
30
0
11
-32.500002
21
-31.232202
31
0
12
-32.499998
22
-32.153769
32
0
13
-36
23
-31.692985
33
0
39
0
210
0
220
0
230
1
0
SOLID
5
F0
100
AcDbEntity
8
SK2
62
256
6
ByLayer
370
13
48
1
60
0
100
AcDbTrace
10
26
20
-31.692985
30
0
11
22.500002
21
-32.153769
31
0
12
22.499998
22
-31.232202
32
0
13
26
23
-31.692985
33
0
39
0
210
0
220
0
230
1
0
ENDBLK
5
F2
100
AcDbEntity
8
0
100
AcDbBlockEnd
0
BLOCK
5
FB
100
AcDbEntity
8
0
100
AcDbBlockBegin
2
DimnDraft3D3
70
0
10
0
20
0
30
0
3
DimnDraft3D3
0
MTEXT
5
F5
100
AcDbEntity
8
SK2
62
256
6
ByLayer
370
13
48
1
60
0
100
AcDbMText
10
16.574605
20
14.134119
30
0
210
0
220
0
230
1
1
\W0.6977;10,46
40
3.5
41
0
44
1.084337
50
0
71
7
72
5
7
iso_b_vert
0
LINE
5
F6
100
AcDbEntity
8
SK2
62
256
6
ByLayer
370
13
48
1
60
0
100
AcDbLine
10
15.54
20
3.2375
30
0
11
15.54
21
15.259119
31
0
39
0
210
0
220
0
230
1
0
LINE
5
F7
100
AcDbEntity
8
SK2
62
256
6
ByLayer
370
13
48
1
60
0
100
AcDbLine
10
26
20
1.5875
30
0
11
26
21
15.259119
31
0
39
0
210
0
220
0
230
1
0
LINE
5
F8
100
AcDbEntity
8
SK2
62
256
6
ByLayer
370
13
48
1
60
0
100
AcDbLine
10
15.54
20
13.259119
30
0
11
26
21
13.259119
31
0
39
0
210
0
220
0
230
1
0
SOLID
5
F9
100
AcDbEntity
8
SK2
62
256
6
ByLayer
370
13
48
1
60
0
100
AcDbTrace
10
15.54
20
13.259119
30
0
11
19.039998
21
13.719903
31
0
12
19.040002
22
12.798335
32
0
13
15.54
23
13.259119
33
0
39
0
210
0
220
0
230
1
0
SOLID
5
FA
100
AcDbEntity
8
SK2
62
256
6
ByLayer
370
13
48
1
60
0
100
AcDbTrace
10
26
20
13.259119
30
0
11
22.500002
21
12.798335
31
0
12
22.499998
22
13.719903
32
0
13
26
23
13.259119
33
0
39
0
210
0
220
0
230
1
0
ENDBLK
5
FC
100
AcDbEntity
8
0
100
AcDbBlockEnd
0
BLOCK
5
105
100
AcDbEntity
8
0
100
AcDbBlockBegin
2
DimnDraft3D4
70
0
10
0
20
0
30
0
3
DimnDraft3D4
0
MTEXT
5
FF
100
AcDbEntity
8
SK2
62
256
6
ByLayer
370
13
48
1
60
0
100
AcDbMText
10
32.840636
20
-13.577503
30
0
210
0
220
0
230
1
1
\W0.7150;0,56
40
3.5
41
0
44
1.084337
50
0
71
7
72
5
7
iso_b_vert
0
LINE
5
100
100
AcDbEntity
8
SK2
62
256
6
ByLayer
370
13
48
1
60
0
100
AcDbLine
10
26
20
-1.5875
30
0
11
26
21
-16.452503
31
0
39
0
210
0
220
0
230
1
0
LINE
5
101
100
AcDbEntity
8
SK2
62
256
6
ByLayer
370
13
48
1
60
0
100
AcDbLine
10
25.44
20
-3.2375
30
0
11
25.44
21
-16.452503
31
0
39
0
210
0
220
0
230
1
0
LINE
5
102
100
AcDbEntity
8
SK2
62
256
6
ByLayer
370
13
48
1
60
0
100
AcDbLine
10
16.69
20
-14.452503
30
0
11
39.997215
21
-14.452503
31
0
39
0
210
0
220
0
230
1
0
SOLID
5
103
100
AcDbEntity
8
SK2
62
256
6
ByLayer
370
13
48
1
60
0
100
AcDbTrace
10
26
20
-14.452503
30
0
11
29.499998
21
-13.991719
31
0
12
29.500002
22
-14.913287
32
0
13
26
23
-14.452503
33
0
39
0
210
0
220
0
230
1
0
SOLID
5
104
100
AcDbEntity
8
SK2
62
256
6
ByLayer
370
13
48
1
60
0
100
AcDbTrace
10
25.44
20
-14.452503
30
0
11
21.940002
21
-14.913287
31
0
12
21.939998
22
-13.991719
32
0
13
25.44
23
-14.452503
33
0
39
0
210
0
220
0
230
1
0
ENDBLK
5
106
100
AcDbEntity
8
0
100
AcDbBlockEnd
0
BLOCK
5
10F
100
AcDbEntity
8
0
100
AcDbBlockBegin
2
DimnDraft3D5
70
0
10
0
20
0
30
0
3
DimnDraft3D5
0
MTEXT
5
109
100
AcDbEntity
8
SK2
62
256
6
ByLayer
370
13
48
1
60
0
100
AcDbMText
10
-11.678929
20
-20.468428
30
0
210
0
220
0
230
1
1
\W0.7159;61,44
40
3.5
41
0
44
1.084337
50
0
71
7
72
5
7
iso_b_vert
0
LINE
5
10A
100
AcDbEntity
8
SK2
62
256
6
ByLayer
370
13
48
1
60
0
100
AcDbLine
10
-36
20
-4.5875
30
0
11
-36
21
-23.343428
31
0
39
0
210
0
220
0
230
1
0
LINE
5
10B
100
AcDbEntity
8
SK2
62
256
6
ByLayer
370
13
48
1
60
0
100
AcDbLine
10
25.44
20
-3.2375
30
0
11
25.44
21
-23.343428
31
0
39
0
210
0
220
0
230
1
0
LINE
5
10C
100
AcDbEntity
8
SK2
62
256
6
ByLayer
370
13
48
1
60
0
100
AcDbLine
10
-36
20
-21.343428
30
0
11
25.44
21
-21.343428
31
0
39
0
210
0
220
0
230
1
0
SOLID
5
10D
100
AcDbEntity
8
SK2
62
256
6
ByLayer
370
13
48
1
60
0
100
AcDbTrace
10
-36
20
-21.343428
30
0
11
-32.500002
21
-20.882645
31
0
12
-32.499998
22
-21.804212
32
0
13
-36
23
-21.343428
33
0
39
0
210
0
220
0
230
1
0
SOLID
5
10E
100
AcDbEntity
8
SK2
62
256
6
ByLayer
370
13
48
1
60
0
100
AcDbTrace
10
25.44
20
-21.343428
30
0
11
21.940002
21
-21.804212
31
0
12
21.939998
22
-20.882645
32
0
13
25.44
23
-21.343428
33
0
39
0
210
0
220
0
230
1
0
ENDBLK
5
110
100
AcDbEntity
8
0
100
AcDbBlockEnd
0
BLOCK
5
11A
100
AcDbEntity
8
0
100
AcDbBlockBegin
2
DimnDraft3D6
70
0
10
0
20
0
30
0
3
DimnDraft3D6
0
MTEXT
5
113
100
AcDbEntity
8
SK2
62
256
6
ByLayer
370
13
48
1
60
0
100
AcDbMText
10
-46.375163
20
22.34918
30
0
210
0
220
0
230
1
1
\W0.7317;6,000
40
3.5
41
0
44
1.084337
50
90
71
7
72
5
7
iso_b_vert
0
MTEXT
5
114
100
AcDbEntity
8
SK2
62
256
6
ByLayer
370
13
48
1
60
0
100
AcDbMText
10
-46.375163
20
17.126524
30
0
210
0
220
0
230
1
1
%%c
40
3.5
41
0
44
1.084337
50
90
71
7
72
5
7
iso_b_vert
0
LINE
5
115
100
AcDbEntity
8
SK2
62
256
6
ByLayer
370
13
48
1
60
0
100
AcDbLine
10
-37.5875
20
-3
30
0
11
-46.625163
21
-3
31
0
39
0
210
0
220
0
230
1
0
LINE
5
116
100
AcDbEntity
8
SK2
62
256
6
ByLayer
370
13
48
1
60
0
100
AcDbLine
10
-37.5875
20
3
30
0
11
-46.625163
21
3
31
0
39
0
210
0
220
0
230
1
0
LINE
5
117
100
AcDbEntity
8
SK2
62
256
6
ByLayer
370
13
48
1
60
0
100
AcDbLine
10
-44.625163
20
32.121549
30
0
11
-44.625163
21
-11.75
31
0
39
0
210
0
220
0
230
1
0
SOLID
5
118
100
AcDbEntity
8
SK2
62
256
6
ByLayer
370
13
48
1
60
0
100
AcDbTrace
10
-44.625163
20
-3
30
0
11
-44.164379
21
-6.499998
31
0
12
-45.085946
22
-6.500002
32
0
13
-44.625163
23
-3
33
0
39
0
210
0
220
0
230
1
0
SOLID
5
119
100
AcDbEntity
8
SK2
62
256
6
ByLayer
370
13
48
1
60
0
100
AcDbTrace
10
-44.625163
20
3
30
0
11
-45.085946
21
6.499998
31
0
12
-44.164379
22
6.500002
32
0
13
-44.625163
23
3
33
0
39
0
210
0
220
0
230
1
0
ENDBLK
5
11B
100
AcDbEntity
8
0
100
AcDbBlockEnd
0
BLOCK
5
125
100
AcDbEntity
8
0
100
AcDbBlockBegin
2
DimnDraft3D7
70
0
10
0
20
0
30
0
3
DimnDraft3D7
0
MTEXT
5
11E
100
AcDbEntity
8
2
62
256
6
ByLayer
370
13
48
1
60
0
100
AcDbMText
10
36.333343
20
19.592266
30
0
210
0
220
0
230
1
1
\W0.7317;3,300
40
3.5
41
0
44
1.084337
50
90
71
7
72
5
7
iso_b_vert
0
MTEXT
5
11F
100
AcDbEntity
8
2
62
256
6
ByLayer
370
13
48
1
60
0
100
AcDbMText
10
36.333343
20
14.36961
30
0
210
0
220
0
230
1
1
%%c
40
3.5
41
0
44
1.084337
50
90
71
7
72
5
7
iso_b_vert
0
LINE
5
120
100
AcDbEntity
8
2
62
256
6
ByLayer
370
13
48
1
60
0
100
AcDbLine
10
27.0275
20
-1.65
30
0
11
40.083343
21
-1.65
31
0
39
0
210
0
220
0
230
1
0
LINE
5
121
100
AcDbEntity
8
2
62
256
6
ByLayer
370
13
48
1
60
0
100
AcDbLine
10
27.0275
20
1.65
30
0
11
40.083343
21
1.65
31
0
39
0
210
0
220
0
230
1
0
LINE
5
122
100
AcDbEntity
8
2
62
256
6
ByLayer
370
13
48
1
60
0
100
AcDbLine
10
38.083343
20
29.364635
30
0
11
38.083343
21
-10.4
31
0
39
0
210
0
220
0
230
1
0
SOLID
5
123
100
AcDbEntity
8
2
62
256
6
ByLayer
370
13
48
1
60
0
100
AcDbTrace
10
38.083343
20
-1.65
30
0
11
38.544126
21
-5.149998
31
0
12
37.622559
22
-5.150002
32
0
13
38.083343
23
-1.65
33
0
39
0
210
0
220
0
230
1
0
SOLID
5
124
100
AcDbEntity
8
2
62
256
6
ByLayer
370
13
48
1
60
0
100
AcDbTrace
10
38.083343
20
1.65
30
0
11
37.622559
21
5.149998
31
0
12
38.544126
22
5.150002
32
0
13
38.083343
23
1.65
33
0
39
0
210
0
220
0
230
1
0
ENDBLK
5
126
100
AcDbEntity
8
0
100
AcDbBlockEnd
0
ENDSEC
0
SECTION
2
ENTITIES
0
ARC
5
9D
100
AcDbEntity
8
1
62
256
6
ByLayer
370
18
48
1
60
0
100
AcDbCircle
39
0
10
0
20
2.2
30
0
40
0.800000000000001
210
0
220
0
230
1
100
AcDbArc
50
8.469626
51
90
0
ARC
5
9E
100
AcDbEntity
8
1
62
256
6
ByLayer
370
18
48
1
60
0
100
AcDbCircle
39
0
10
0
20
-2.2
30
0
40
0.800000000000001
210
0
220
0
230
1
100
AcDbArc
50
270
51
351.530374
0
ARC
5
9F
100
AcDbEntity
8
1
62
256
6
ByLayer
370
18
48
1
60
0
100
AcDbCircle
39
0
10
-1.582551
20
2.435656
30
0
40
0.8
210
0
220
0
230
-1
100
AcDbArc
50
269.965623
51
351.530374
0
ARC
5
A0
100
AcDbEntity
8
1
62
256
6
ByLayer
370
18
48
1
60
0
100
AcDbCircle
39
0
10
-1.582551
20
-2.435656
30
0
40
0.8
210
0
220
0
230
-1
100
AcDbArc
50
8.469626
51
90.034377
0
ELLIPSE
5
A1
100
AcDbEntity
8
1
62
256
6
ByLayer
370
18
48
1
60
0
100
AcDbEllipse
10
8.25
20
1.798842
30
0
11
0.25
21
0
31
0
210
0
220
0
230
1
40
1
41
-2.41273164030596
42
-1.56094719508492
0
ELLIPSE
5
A2
100
AcDbEntity
8
1
62
256
6
ByLayer
370
18
48
1
60
0
100
AcDbEllipse
10
8.25
20
-1.798842
30
0
11
0.25
21
0
31
0
210
0
220
0
230
1
40
1
41
1.57955284797929
42
2.41111924571587
0
ELLIPSE
5
A3
100
AcDbEntity
8
1
62
256
6
ByLayer
370
13
48
1
60
0
100
AcDbEllipse
10
26.036858
20
0.841479
30
0
11
1.19795320547027
21
-0.458883545366936
31
0
210
0
220
0
230
-1
40
0.433491
41
1.63248410150371
42
1.94819619429398
0
ELLIPSE
5
A4
100
AcDbEntity
8
1
62
256
6
ByLayer
370
13
48
1
60
0
100
AcDbEllipse
10
25.764462
20
0.139322
30
0
11
0.153082081612424
21
0.25800363619377
31
0
210
0
220
0
230
1
40
0.454519
41
0.917105603404838
42
2.3133690050003
0
ELLIPSE
5
A5
100
AcDbEntity
8
1
62
256
6
ByLayer
370
13
48
1
60
0
100
AcDbEllipse
10
25.846951
20
0.718282
30
0
11
1.13981958823581
21
-0.784798198838727
31
0
210
0
220
0
230
-1
40
0.533762
41
1.44484622740543
42
1.76791210950817
0
ELLIPSE
5
A6
100
AcDbEntity
8
1
62
256
6
ByLayer
370
18
48
1
60
0
100
AcDbEllipse
10
25.861144
20
0.081957
30
0
11
0.07278191049138
21
0.301917195722311
31
0
210
0
220
0
230
-1
40
0.478434
41
1.67128521304608
42
2.45976119973591
0
ELLIPSE
5
A7
100
AcDbEntity
8
1
62
256
6
ByLayer
370
18
48
1
60
0
100
AcDbEllipse
10
26.067502
20
-0.040482
30
0
11
0.133321008263895
21
-0.425213611985529
31
0
210
0
220
0
230
-1
40
0.112798
41
1.74171652104644
42
2.34950393584992
0
ELLIPSE
5
A8
100
AcDbEntity
8
1
62
256
6
ByLayer
370
18
48
1
60
0
100
AcDbEllipse
10
26.067502
20
0.040482
30
0
11
0.133321008212704
21
0.425213611858884
31
0
210
0
220
0
230
-1
40
0.112798
41
-2.34950393581463
42
-1.74171652085537
0
ELLIPSE
5
A9
100
AcDbEntity
8
1
62
256
6
ByLayer
370
18
48
1
60
0
100
AcDbEllipse
10
26.000159
20
0.00036
30
0
11
0.615127718702204
21
1.6477803811822
31
0
210
0
220
0
230
-1
40
0.148387
41
2.83106366649681
42
2.97384699051105
0
ELLIPSE
5
AA
100
AcDbEntity
8
1
62
256
6
ByLayer
370
18
48
1
60
0
100
AcDbEllipse
10
25.658452
20
-0.841479
30
0
11
0.258305649051743
21
0.691939205500575
31
0
210
0
220
0
230
-1
40
0.148387
41
0.730060677419362
42
1.44350529328259
0
ELLIPSE
5
AB
100
AcDbEntity
8
1
62
256
6
ByLayer
370
18
48
1
60
0
100
AcDbEllipse
10
25.658452
20
0.841479
30
0
11
0.258305649033544
21
-0.691939205464235
31
0
210
0
220
0
230
-1
40
0.148387
41
-1.44350529331862
42
-0.730060677421847
0
ELLIPSE
5
AC
100
AcDbEntity
8
1
62
256
6
ByLayer
370
18
48
1
60
0
100
AcDbEllipse
10
26.000159
20
-0.00036
30
0
11
0.615127718314188
21
-1.64778038004444
31
0
210
0
220
0
230
-1
40
0.148387
41
-2.97384699045096
42
-2.83106366638713
0
POINT
5
6C
100
AcDbEntity
8
81
62
256
6
ByLayer
370
18
48
1
60
0
100
AcDbPoint
10
26
20
0
30
0
39
0
210
0
220
0
230
1
50
360
0
POINT
5
6E
100
AcDbEntity
8
80
62
256
6
ByLayer
370
18
48
1
60
0
100
AcDbPoint
10
0
20
0
30
0
39
0
210
0
220
0
230
1
50
360
0
POINT
5
70
100
AcDbEntity
8
SK2
62
256
6
ByLayer
370
18
48
1
60
1
100
AcDbPoint
10
-36
20
-3
30
0
39
0
210
0
220
0
230
1
50
360
0
POINT
5
72
100
AcDbEntity
8
SK2
62
256
6
ByLayer
370
18
48
1
60
1
100
AcDbPoint
10
-36
20
3
30
0
39
0
210
0
220
0
230
1
50
360
0
POINT
5
73
100
AcDbEntity
8
2
62
256
6
ByLayer
370
18
48
1
60
1
100
AcDbPoint
10
25.44
20
-1.65
30
0
39
0
210
0
220
0
230
1
50
360
0
POINT
5
75
100
AcDbEntity
8
2
62
256
6
ByLayer
370
18
48
1
60
1
100
AcDbPoint
10
25.44
20
1.65
30
0
39
0
210
0
220
0
230
1
50
360
0
SPLINE
5
AD
100
AcDbEntity
8
1
62
256
6
ByLayer
370
18
48
1
60
0
100
AcDbSpline
70
4
71
1
72
4
73
2
40
0
40
0
40
1
40
1
41
1
10
8.21888670379226
20
1.20684828702841
30
0
41
1
10
8.29118147014808
20
1.18414828970649
30
0
0
SPLINE
5
AE
100
AcDbEntity
8
1
62
256
6
ByLayer
370
18
48
1
60
0
100
AcDbSpline
70
4
71
3
72
8
73
4
40
0
40
0
40
0
40
0
40
1
40
1
40
1
40
1
41
1
10
20.6590500699047
20
-0.374915140339908
30
0
41
1
10
20.6562961922766
20
-0.375930611925412
30
0
41
1
10
20.664100527168
20
-0.381717536427345
30
0
41
1
10
20.684147843653
20
-0.392792383304965
30
0
0
SPLINE
5
AF
100
AcDbEntity
8
1
62
256
6
ByLayer
370
18
48
1
60
0
100
AcDbSpline
70
4
71
3
72
21
73
17
40
0
40
0
40
0
40
0
40
0.124954346727069
40
0.209038887908829
40
0.262135369837971
40
0.315170574053854
40
0.370587854047031
40
0.430038228143523
40
0.493159144374108
40
0.556606218428864
40
0.620020836696955
40
0.683441938472774
40
0.744760929792562
40
0.80340534499931
40
0.889257597103597
40
1
40
1
40
1
40
1
41
1
10
15.7600615893416
20
-1.55322350292675
30
0
41
1
10
15.9582017926983
20
-1.55340554215334
30
0
41
1
10
16.2896928162783
20
-1.55363907637985
30
0
41
1
10
16.7054414107737
20
-1.55319964895423
30
0
41
1
10
17.0071195216502
20
-1.55350042592596
30
0
41
1
10
17.2633413265976
20
-1.5539257465494
30
0
41
1
10
17.5296057528346
20
-1.55362632471088
30
0
41
1
10
17.8118856047251
20
-1.55297569010821
30
0
41
1
10
18.1069105071214
20
-1.55371583045184
30
0
41
1
10
18.4082214974828
20
-1.5538341394026
30
0
41
1
10
18.7100100962106
20
-1.55475587212112
30
0
41
1
10
19.0084183328426
20
-1.55423385238299
30
0
41
1
10
19.2992805641103
20
-1.55339627798372
30
0
41
1
10
19.6254979508738
20
-1.55418687829356
30
0
41
1
10
20.0304020768586
20
-1.55533924700904
30
0
41
1
10
20.3420920170883
20
-1.55502958885455
30
0
41
1
10
20.5176631468153
20
-1.55460810655077
30
0
0
SPLINE
5
B0
100
AcDbEntity
8
1
62
256
6
ByLayer
370
18
48
1
60
0
100
AcDbSpline
70
4
71
3
72
15
73
11
40
0
40
0
40
0
40
0
40
0.164939851046528
40
0.307075903931987
40
0.405956596389466
40
0.492626636812867
40
0.568873537288305
40
0.673306665695372
40
0.825253501114453
40
1
40
1
40
1
40
1
41
1
10
8.25011776827449
20
-1.54873355209455
30
0
41
1
10
8.40127492868922
20
-1.54855660390146
30
0
41
1
10
8.6826926191944
20
-1.54846081890486
30
0
41
1
10
9.0548322879774
20
-1.54930333515486
30
0
41
1
10
9.35508868656802
20
-1.54980834406732
30
0
41
1
10
9.59504565464482
20
-1.54947712340137
30
0
41
1
10
9.84009738619568
20
-1.54902188390503
30
0
41
1
10
10.1449695094756
20
-1.54950698212872
30
0
41
1
10
10.5401351514882
20
-1.55027895107401
30
0
41
1
10
10.8395692480288
20
-1.55005934872011
30
0
41
1
10
10.9997342332029
20
-1.54979732444289
30
0
0
SPLINE
5
B1
100
AcDbEntity
8
1
62
256
6
ByLayer
370
18
48
1
60
0
100
AcDbSpline
70
4
71
2
72
6
73
3
40
0
40
0
40
0
40
1
40
1
40
1
41
1
10
25.1489060173143
20
-1.5574524939631
30
0
41
1
10
25.2811241410657
20
-1.55748073660882
30
0
41
1
10
25.413441006408
20
-1.55802156489295
30
0
0
SPLINE
5
B2
100
AcDbEntity
8
1
62
256
6
ByLayer
370
18
48
1
60
0
100
AcDbSpline
70
4
71
3
72
8
73
4
40
0
40
0
40
0
40
0
40
1
40
1
40
1
40
1
41
1
10
11.2075503637771
20
-0.41048132022442
30
0
41
1
10
11.2285499642107
20
-0.423125277617316
30
0
41
1
10
11.2562813087152
20
-0.439482898008464
30
0
41
1
10
11.2913462236652
20
-0.459918488155239
30
0
0
SPLINE
5
B3
100
AcDbEntity
8
1
62
256
6
ByLayer
370
18
48
1
60
0
100
AcDbSpline
70
4
71
3
72
20
73
16
40
0
40
0
40
0
40
0
40
0.129933639175839
40
0.230552111324469
40
0.299283115037585
40
0.371148710512059
40
0.445477970447158
40
0.519799631738932
40
0.594159331073804
40
0.66813677483422
40
0.73781235891783
40
0.802761173967886
40
0.864918206398654
40
0.927147056047188
40
1
40
1
40
1
40
1
41
1
10
20.5182476719129
20
1.55460767330825
30
0
41
1
10
20.3424817363559
20
1.55502976453528
30
0
41
1
10
20.0305969857293
20
1.55533959819186
30
0
41
1
10
19.6254979550906
20
1.55418690988978
30
0
41
1
10
19.2992805631179
20
1.55339627054786
30
0
41
1
10
19.0084183331239
20
1.55423385449052
30
0
41
1
10
18.7100100961341
20
1.55475587154865
30
0
41
1
10
18.4082214975032
20
1.5538341395563
30
0
41
1
10
18.1069105071159
20
1.55371583041094
30
0
41
1
10
17.8118856047264
20
1.55297569011861
30
0
41
1
10
17.5296057528342
20
1.55362632470849
30
0
41
1
10
17.2633413265977
20
1.55392574655011
30
0
41
1
10
17.00711952165
20
1.5535004259259
30
0
41
1
10
16.7402108900557
20
1.55323431457413
30
0
41
1
10
16.5574115890141
20
1.55336752276486
30
0
41
1
10
16.4588261945339
20
1.55342511458616
30
0
0
SPLINE
5
B4
100
AcDbEntity
8
1
62
256
6
ByLayer
370
18
48
1
60
0
100
AcDbSpline
70
4
71
3
72
15
73
11
40
0
40
0
40
0
40
0
40
0.193139967264646
40
0.349314288239855
40
0.446656199212472
40
0.527421140745148
40
0.605469209055356
40
0.69409955991329
40
0.836982647477622
40
1
40
1
40
1
40
1
41
1
10
10.9999384088492
20
1.54979502826916
30
0
41
1
10
10.822908082326
20
1.55011463790999
30
0
41
1
10
10.5027288496186
20
1.55041191115433
30
0
41
1
10
10.0933227894109
20
1.54924049747086
30
0
41
1
10
9.78692073878244
20
1.54910719114039
30
0
41
1
10
9.55212981044821
20
1.54954597614895
30
0
41
1
10
9.32532187082799
20
1.54979387467563
30
0
41
1
10
9.04157628393173
20
1.54929261799299
30
0
41
1
10
8.67994983508825
20
1.54849098810368
30
0
41
1
10
8.39956266345905
20
1.54857270169992
30
0
41
1
10
8.2501419604003
20
1.54873730249429
30
0
0
SPLINE
5
B5
100
AcDbEntity
8
1
62
256
6
ByLayer
370
18
48
1
60
0
100
AcDbSpline
70
4
71
3
72
10
73
6
40
0
40
0
40
0
40
0
40
0.5
40
0.5
40
1
40
1
40
1
40
1
41
1
10
9.14092279161659
20
-1.26670619686018
30
0
41
1
10
8.99078635256791
20
-1.22234304578959
30
0
41
1
10
8.84186251755267
20
-1.17235646139375
30
0
41
1
10
8.54528729540627
20
-1.06300321371455
30
0
41
1
10
8.39765087090944
20
-1.00323293282057
30
0
41
1
10
8.25022403717452
20
-0.938245191502944
30
0
0
SPLINE
5
B6
100
AcDbEntity
8
1
62
256
6
ByLayer
370
18
48
1
60
0
100
AcDbSpline
70
4
71
3
72
20
73
16
40
0
40
0
40
0
40
0
40
0.249999999999997
40
0.249999999999997
40
0.374999999999998
40
0.374999999999998
40
0.499999999999998
40
0.499999999999998
40
0.624999999999999
40
0.624999999999999
40
0.749999999999999
40
0.749999999999999
40
0.875
40
0.875
40
1
40
1
40
1
40
1
41
1
10
25.4325827303297
20
-1.55896613582794
30
0
41
1
10
25.3873445714004
20
-1.55891201455998
30
0
41
1
10
25.3466894689016
20
-1.54584667605533
30
0
41
1
10
25.2932984295545
20
-1.5046962074783
30
0
41
1
10
25.2768906946757
20
-1.48736155745215
30
0
41
1
10
25.2476448810781
20
-1.4461502735019
30
0
41
1
10
25.2346866708417
20
-1.42219225731387
30
0
41
1
10
25.2121850943824
20
-1.36739939508436
30
0
41
1
10
25.2026405506683
20
-1.33656692028123
30
0
41
1
10
25.1872072178682
20
-1.26753999382998
30
0
41
1
10
25.1814604660071
20
-1.22987613807385
30
0
41
1
10
25.1739683656755
20
-1.14930180889777
30
0
41
1
10
25.1721918096134
20
-1.10625472843728
30
0
41
1
10
25.1726134431683
20
-1.0145906276648
30
0
41
1
10
25.1748428436683
20
-0.96565168644878
30
0
41
1
10
25.1790848870018
20
-0.914642269462774
30
0
0
SPLINE
5
B7
100
AcDbEntity
8
1
62
256
6
ByLayer
370
18
48
1
60
0
100
AcDbSpline
70
4
71
3
72
58
73
54
40
0
40
0
40
0
40
0
40
0.0309404194736121
40
0.0309404194736121
40
0.0713187432073789
40
0.0713187432073789
40
0.111697066941146
40
0.111697066941146
40
0.152075390674912
40
0.152075390674912
40
0.192453714408679
40
0.192453714408679
40
0.232832038142446
40
0.232832038142446
40
0.273210361876213
40
0.273210361876213
40
0.31358868560998
40
0.31358868560998
40
0.353967009343746
40
0.353967009343746
40
0.394345333077513
40
0.394345333077513
40
0.43472365681128
40
0.43472365681128
40
0.475101980545047
40
0.475101980545047
40
0.515480304278814
40
0.515480304278814
40
0.55585862801258
40
0.55585862801258
40
0.596236951746347
40
0.596236951746347
40
0.636615275480114
40
0.636615275480114
40
0.656804437346997
40
0.656804437346997
40
0.676993599213881
40
0.676993599213881
40
0.717371922947649
40
0.717371922947649
40
0.757750246681417
40
0.757750246681417
40
0.798128570415186
40
0.798128570415186
40
0.838506894148954
40
0.838506894148954
40
0.878885217882722
40
0.878885217882722
40
0.91926354161649
40
0.91926354161649
40
0.959641865350259
40
0.959641865350259
40
1
40
1
40
1
40
1
41
1
10
22.5031530945306
20
-1.23484204170924
30
0
41
1
10
22.3845265247339
20
-1.27224479261457
30
0
41
1
10
22.265839512157
20
-1.30681681422081
30
0
41
1
10
21.9917933886622
20
-1.37891644774285
30
0
41
1
10
21.8369160514061
20
-1.41300567957802
30
0
41
1
10
21.5273360167233
20
-1.47077730071428
30
0
41
1
10
21.3727217907524
20
-1.49551869854028
30
0
41
1
10
21.0626005686015
20
-1.53300410247348
30
0
41
1
10
20.9074623753688
20
-1.54561967758056
30
0
41
1
10
20.5980158183154
20
-1.5560841878264
30
0
41
1
10
20.4432247108635
20
-1.55571505338429
30
0
41
1
10
20.13381306714
20
-1.54414062882057
30
0
41
1
10
19.9785542329589
20
-1.53238580382123
30
0
41
1
10
19.6686567535032
20
-1.49569284404566
30
0
41
1
10
19.5142050005209
20
-1.47037483833824
30
0
41
1
10
19.2047838339811
20
-1.41108713569258
30
0
41
1
10
19.0500046892617
20
-1.37636023201796
30
0
41
1
10
18.7398768546395
20
-1.29523083878081
30
0
41
1
10
18.5850730116355
20
-1.24928383242397
30
0
41
1
10
18.2758424447021
20
-1.14770056436626
30
0
41
1
10
18.121399738139
20
-1.09233285143259
30
0
41
1
10
17.8115027939465
20
-0.973485149475039
30
0
41
1
10
17.6563590560934
20
-0.910159314346004
30
0
41
1
10
17.3470097010437
20
-0.777265943201627
30
0
41
1
10
17.1923864000764
20
-0.70770102011204
30
0
41
1
10
16.8831147037042
20
-0.562430206718886
30
0
41
1
10
16.7279381513122
20
-0.487227400859666
30
0
41
1
10
16.4179938560646
20
-0.334484008432781
30
0
41
1
10
16.2635960659255
20
-0.256225845396017
30
0
41
1
10
15.9543165291022
20
-0.0988890540240561
30
0
41
1
10
15.7995520757444
20
-0.0196396779054737
30
0
41
1
10
15.4895378367646
20
0.139335175604401
30
0
41
1
10
15.3346366278173
20
0.218246998735765
30
0
41
1
10
15.1027206544492
20
0.334903619905049
30
0
41
1
10
15.025512976485
20
0.373626913275643
30
0
41
1
10
14.8709499563387
20
0.449804289242564
30
0
41
1
10
14.7935716079686
20
0.487341668416548
30
0
41
1
10
14.5612353874572
20
0.598860870700207
30
0
41
1
10
14.4060951803094
20
0.671900976457238
30
0
41
1
10
14.096814426838
20
0.811794563934228
30
0
41
1
10
13.9422371027358
20
0.878209558601384
30
0
41
1
10
13.6330621033016
20
1.00355339297121
30
0
41
1
10
13.4780227454664
20
1.06280486291391
30
0
41
1
10
13.1680221050686
20
1.17178051210661
30
0
41
1
10
13.0135116338654
20
1.22276782893599
30
0
41
1
10
12.7041913534728
20
1.31462024344336
30
0
41
1
10
12.5494518711235
20
1.35570553746985
30
0
41
1
10
12.2393206651354
20
1.42547453013384
30
0
41
1
10
12.0843055608853
20
1.45400154561054
30
0
41
1
10
11.7747348412551
20
1.50158746302529
30
0
41
1
10
11.6202113592924
20
1.52032213778401
30
0
41
1
10
11.3102581707313
20
1.54462227744514
30
0
41
1
10
11.1550041838734
20
1.54976616191428
30
0
41
1
10
11.0002532888063
20
1.54966050799447
30
0
0
SPLINE
5
B8
100
AcDbEntity
8
1
62
256
6
ByLayer
370
18
48
1
60
0
100
AcDbSpline
70
4
71
3
72
20
73
16
40
0
40
0
40
0
40
0
40
0.125
40
0.125
40
0.25
40
0.25
40
0.375
40
0.375
40
0.5
40
0.5
40
0.625
40
0.625
40
0.75
40
0.75
40
1
40
1
40
1
40
1
41
1
10
25.6659207740963
20
-0.411734087032983
30
0
41
1
10
25.654314059051
20
-0.395748320615894
30
0
41
1
10
25.6437860671891
20
-0.378463011305968
30
0
41
1
10
25.6283361108219
20
-0.342662737267403
30
0
41
1
10
25.6235358447037
20
-0.323979174767885
30
0
41
1
10
25.6236175637803
20
-0.289930769362598
30
0
41
1
10
25.6284998594767
20
-0.275497644952651
30
0
41
1
10
25.6441033125531
20
-0.253325126212843
30
0
41
1
10
25.6547214115287
20
-0.245293947012584
30
0
41
1
10
25.6780599659261
20
-0.233708523999752
30
0
41
1
10
25.6910719428971
20
-0.230004093195504
30
0
41
1
10
25.7178518696292
20
-0.225555244427483
30
0
41
1
10
25.73176103579
20
-0.224765927738304
30
0
41
1
10
25.7746276794875
20
-0.225546643437156
30
0
41
1
10
25.804510831088
20
-0.230254086707475
30
0
41
1
10
25.8344260696482
20
-0.237665793874981
30
0
0
SPLINE
5
B9
100
AcDbEntity
8
1
62
256
6
ByLayer
370
13
48
1
60
0
100
AcDbSpline
70
4
71
3
72
16
73
12
40
0
40
0
40
0
40
0
40
0.298563441490561
40
0.298563441490561
40
0.447845162235841
40
0.447845162235841
40
0.597126882981122
40
0.597126882981122
40
0.895690324471683
40
0.895690324471683
40
1
40
1
40
1
40
1
41
1
10
8.25024757830204
20
1.22739134304484
30
0
41
1
10
8.25024512854449
20
1.28995267925143
30
0
41
1
10
8.25023710922042
20
1.34372785482373
30
0
41
1
10
8.25022044331809
20
1.41143723461536
30
0
41
1
10
8.25021407598632
20
1.43190227761906
30
0
41
1
10
8.25020061217614
20
1.46775705818646
30
0
41
1
10
8.25019350840509
20
1.48322332873931
30
0
41
1
10
8.25017199194377
20
1.52240737078822
30
0
41
1
10
8.25015738391767
20
1.53898159933237
30
0
41
1
10
8.25014023289543
20
1.54792114456859
30
0
41
1
10
8.25013607996371
20
1.54899412903401
30
0
41
1
10
8.2501322734098
20
1.548843335453
30
0
0
SPLINE
5
BA
100
AcDbEntity
8
1
62
256
6
ByLayer
370
18
48
1
60
0
100
AcDbSpline
70
4
71
3
72
24
73
20
40
0
40
0
40
0
40
0
40
0.121094701074058
40
0.121094701074058
40
0.242189402148117
40
0.242189402148117
40
0.363284103222175
40
0.363284103222175
40
0.484378804296233
40
0.484378804296233
40
0.605473505370291
40
0.605473505370291
40
0.72656820644435
40
0.72656820644435
40
0.847662907518408
40
0.847662907518408
40
0.968757608592466
40
0.968757608592466
40
1
40
1
40
1
40
1
41
1
10
9.14101550178358
20
-1.26673676308573
30
0
41
1
10
9.29615398175056
20
-1.31286146819849
30
0
41
1
10
9.45112511129074
20
-1.35317853862836
30
0
41
1
10
9.76085847412128
20
-1.42309417837475
30
0
41
1
10
9.91562590204521
20
-1.45270089564619
30
0
41
1
10
10.2262502415711
20
-1.50138539362689
30
0
41
1
10
10.3813696782065
20
-1.5199235258647
30
0
41
1
10
10.6909324065808
20
-1.54395881066549
30
0
41
1
10
10.8458137378277
20
-1.54956653194512
30
0
41
1
10
11.1556680834779
20
-1.54975511306273
30
0
41
1
10
11.311063450245
20
-1.54458182243607
30
0
41
1
10
11.6209483981772
20
-1.52024155711783
30
0
41
1
10
11.7754443122473
20
-1.50149409554305
30
0
41
1
10
12.0850352223938
20
-1.45387362255627
30
0
41
1
10
12.2402214445219
20
-1.42529471224813
30
0
41
1
10
12.5501791094268
20
-1.35551898644422
30
0
41
1
10
12.7048618466947
20
-1.31443507874829
30
0
41
1
10
12.8993800378031
20
-1.25665548478617
30
0
41
1
10
12.9392648879786
20
-1.24446865971049
30
0
41
1
10
12.9791522872645
20
-1.23197154422061
30
0
0
SPLINE
5
BB
100
AcDbEntity
8
1
62
256
6
ByLayer
370
18
48
1
60
0
100
AcDbSpline
70
4
71
3
72
20
73
16
40
0
40
0
40
0
40
0
40
0.0680338235064869
40
0.0680338235064869
40
0.201171848719845
40
0.201171848719845
40
0.334309873933202
40
0.334309873933202
40
0.46744789914656
40
0.46744789914656
40
0.73372394957328
40
0.73372394957328
40
0.86686197478664
40
0.86686197478664
40
1
40
1
40
1
40
1
41
1
10
20.516990044225
20
1.55451479291546
30
0
41
1
10
20.5960836908557
20
1.55472539309429
30
0
41
1
10
20.6752032776086
20
1.55349679344232
30
0
41
1
10
20.9091723745206
20
1.54551646349159
30
0
41
1
10
21.064376496525
20
1.53282996160615
30
0
41
1
10
21.374101892121
20
1.49531094436205
30
0
41
1
10
21.5286302549456
20
1.47056079400429
30
0
41
1
10
21.8382098483354
20
1.41273901568724
30
0
41
1
10
21.9935056517154
20
1.37850177918875
30
0
41
1
10
22.4581062133491
20
1.25616065121838
30
0
41
1
10
22.7665875405842
20
1.15224793562345
30
0
41
1
10
23.232016463551
20
0.974670444614077
30
0
41
1
10
23.3868810873002
20
0.912167352793318
30
0
41
1
10
23.6959750330153
20
0.779233712704325
30
0
41
1
10
23.8506206066954
20
0.7094780342712
30
0
41
1
10
24.0054316452082
20
0.636888814420701
30
0
0
SPLINE
5
BC
100
AcDbEntity
8
1
62
256
6
ByLayer
370
18
48
1
60
0
100
AcDbSpline
70
4
71
3
72
20
73
16
40
0
40
0
40
0
40
0
40
0.124999999999999
40
0.124999999999999
40
0.249999999999998
40
0.249999999999998
40
0.374999999999997
40
0.374999999999997
40
0.499999999999996
40
0.499999999999996
40
0.624999999999995
40
0.624999999999995
40
0.749999999999994
40
0.749999999999994
40
1
40
1
40
1
40
1
41
1
10
24.0054316452083
20
0.636888814420502
30
0
41
1
10
24.0195492558583
20
0.560264453718702
30
0
41
1
10
24.0414679165703
20
0.482792347402665
30
0
41
1
10
24.0994011642736
20
0.326316320516071
30
0
41
1
10
24.1348383510816
20
0.249074215060688
30
0
41
1
10
24.214880589096
20
0.0991200918624884
30
0
41
1
10
24.2601078249729
20
0.0253280651602097
30
0
41
1
10
24.3565071971877
20
-0.116067929851965
30
0
41
1
10
24.4075900197427
20
-0.183718216903998
30
0
41
1
10
24.514412643683
20
-0.314095984431702
30
0
41
1
10
24.570164400457
20
-0.376810827085905
30
0
41
1
10
24.6857219963529
20
-0.497955016588804
30
0
41
1
10
24.7453518689624
20
-0.556156929301551
30
0
41
1
10
24.9264561338254
20
-0.722178946606476
30
0
41
1
10
25.0511289632736
20
-0.822662846475879
30
0
41
1
10
25.1790848870018
20
-0.914642269462746
30
0
0
SPLINE
5
BD
100
AcDbEntity
8
1
62
256
6
ByLayer
370
18
48
1
60
0
100
AcDbSpline
70
4
71
3
72
8
73
4
40
0
40
0
40
0
40
0
40
1
40
1
40
1
40
1
41
1
10
8.05731653808493
20
1.34129901515072
30
0
41
1
10
8.077014426994
20
1.31444516791657
30
0
41
1
10
8.10117348474421
20
1.29149159974568
30
0
41
1
10
8.12976157264171
20
1.27384574390001
30
0
0
SPLINE
5
BE
100
AcDbEntity
8
1
62
256
6
ByLayer
370
18
48
1
60
0
100
AcDbSpline
70
4
71
3
72
56
73
52
40
0
40
0
40
0
40
0
40
0.0625000000000078
40
0.0625000000000078
40
0.125000000000016
40
0.125000000000016
40
0.250000000000034
40
0.250000000000034
40
0.375000000000052
40
0.375000000000052
40
0.50000000000007
40
0.50000000000007
40
0.531250000000073
40
0.531250000000073
40
0.546875000000075
40
0.546875000000075
40
0.550781250000075
40
0.550781250000075
40
0.554687500000075
40
0.554687500000075
40
0.558593750000075
40
0.558593750000075
40
0.562500000000075
40
0.562500000000075
40
0.593750000000071
40
0.593750000000071
40
0.609375000000069
40
0.609375000000069
40
0.625000000000066
40
0.625000000000066
40
0.640625000000063
40
0.640625000000063
40
0.648437500000062
40
0.648437500000062
40
0.65625000000006
40
0.65625000000006
40
0.671875000000058
40
0.671875000000058
40
0.687500000000055
40
0.687500000000055
40
0.703125000000052
40
0.703125000000052
40
0.71875000000005
40
0.71875000000005
40
0.750000000000044
40
0.750000000000044
40
0.812500000000033
40
0.812500000000033
40
0.875000000000022
40
0.875000000000022
40
1
40
1
40
1
40
1
41
1
10
10.8225641539418
20
-0.211033595955229
30
0
41
1
10
10.6709989801712
20
-0.129385830587097
30
0
41
1
10
10.5180803188477
20
-0.0483821170982992
30
0
41
1
10
10.2119186727275
20
0.10939527055524
30
0
41
1
10
10.0586857619469
20
0.186160796208469
30
0
41
1
10
9.59722967496194
20
0.407708428194212
30
0
41
1
10
9.28721512435226
20
0.543575811417156
30
0
41
1
10
8.65511368672946
20
0.77956111972648
30
0
41
1
10
8.33286739982421
20
0.879526654777067
30
0
41
1
10
7.67142450403836
20
1.03864383550851
30
0
41
1
10
7.33667694430818
20
1.09701102223212
30
0
41
1
10
6.91207379172056
20
1.14675318353377
30
0
41
1
10
6.82684812217406
20
1.15554275663959
30
0
41
1
10
6.69853717575512
20
1.16703628698931
30
0
41
1
10
6.65568506403554
20
1.17058551029018
30
0
41
1
10
6.60208181798669
20
1.17466845338527
30
0
41
1
10
6.59135850830324
20
1.1754674290037
30
0
41
1
10
6.56990654900318
20
1.17703025363926
30
0
41
1
10
6.55916623348668
20
1.17801452232814
30
0
41
1
10
6.53772721762539
20
1.17892550212042
30
0
41
1
10
6.52702645947389
20
1.1785705773465
30
0
41
1
10
6.50608175962952
20
1.17475593876841
30
0
41
1
10
6.49685253858604
20
1.17106517664118
30
0
41
1
10
6.41055868582561
20
1.14232227103906
30
0
41
1
10
6.3360426468345
20
1.11242604397796
30
0
41
1
10
6.23304960303483
20
1.05716526780685
30
0
41
1
10
6.20011550849256
20
1.03695988169559
30
0
41
1
10
6.13823240853944
20
0.991279805207427
30
0
41
1
10
6.10939710838426
20
0.965796352312367
30
0
41
1
10
6.06001313106333
20
0.909239343418506
30
0
41
1
10
6.039069881633
20
0.877449451410456
30
0
41
1
10
6.01730534761433
20
0.826559731705288
30
0
41
1
10
6.0115696169627
20
0.808999948789705
30
0
41
1
10
6.00336514245987
20
0.772566911128251
30
0
41
1
10
6.00091698346844
20
0.753530685405707
30
0
41
1
10
5.99881818910035
20
0.696550210438602
30
0
41
1
10
6.0042834240846
20
0.657737885809837
30
0
41
1
10
6.02578897041241
20
0.581414441424897
30
0
41
1
10
6.04145521375756
20
0.54451726833102
30
0
41
1
10
6.07958005590342
20
0.472374421672214
30
0
41
1
10
6.10203172345058
20
0.437300785022415
30
0
41
1
10
6.15042154855127
20
0.370250350390592
30
0
41
1
10
6.17655057652581
20
0.337956141812782
30
0
41
1
10
6.25911222649847
20
0.243678693424556
30
0
41
1
10
6.31985830307826
20
0.184126807663972
30
0
41
1
10
6.50705429813416
20
0.0157541185760124
30
0
41
1
10
6.6401663676848
20
-0.0852134323736209
30
0
41
1
10
6.91393334651266
20
-0.276765076081403
30
0
41
1
10
7.05554203766891
20
-0.367315431493722
30
0
41
1
10
7.48152368454527
20
-0.623529639012816
30
0
41
1
10
7.76829284282741
20
-0.775442729391642
30
0
41
1
10
8.05749415222363
20
-0.912058786156791
30
0
0
SPLINE
5
BF
100
AcDbEntity
8
1
62
256
6
ByLayer
370
18
48
1
60
0
100
AcDbSpline
70
4
71
3
72
16
73
12
40
0
40
0
40
0
40
0
40
0.250000000000007
40
0.250000000000007
40
0.500000000000014
40
0.500000000000014
40
0.750000000000021
40
0.750000000000021
40
0.87500000000001
40
0.87500000000001
40
1
40
1
40
1
40
1
41
1
10
25.4104836423255
20
0.527822773019835
30
0
41
1
10
25.4506620588127
20
0.53774281756327
30
0
41
1
10
25.4905278849653
20
0.548876415662988
30
0
41
1
10
25.5690009400667
20
0.575229581651541
30
0
41
1
10
25.6073428443223
20
0.590258865221529
30
0
41
1
10
25.6805032221952
20
0.627822260393572
30
0
41
1
10
25.7159292347853
20
0.650452341333647
30
0
41
1
10
25.7583638590906
20
0.695635195910114
30
0
41
1
10
25.7702863302508
20
0.712229325177475
30
0
41
1
10
25.7875968400625
20
0.750003076076325
30
0
41
1
10
25.7924415266335
20
0.770583517557981
30
0
41
1
10
25.793088079124
20
0.791658197102322
30
0
0
SPLINE
5
C0
100
AcDbEntity
8
1
62
256
6
ByLayer
370
18
48
1
60
0
100
AcDbSpline
70
4
71
3
72
44
73
40
40
0
40
0
40
0
40
0
40
0.0545940985551957
40
0.0545940985551957
40
0.109188197110392
40
0.109188197110392
40
0.218376394220783
40
0.218376394220783
40
0.27297049277598
40
0.27297049277598
40
0.300267542053578
40
0.300267542053578
40
0.327564591331176
40
0.327564591331176
40
0.436752788441568
40
0.436752788441568
40
0.491346886996764
40
0.491346886996764
40
0.518643936274363
40
0.518643936274363
40
0.545940985551962
40
0.545940985551962
40
0.655129182662359
40
0.655129182662359
40
0.709723281217557
40
0.709723281217557
40
0.737020330495156
40
0.737020330495156
40
0.764317379772755
40
0.764317379772755
40
0.873505576883152
40
0.873505576883152
40
0.92809967543835
40
0.92809967543835
40
0.95539672471595
40
0.95539672471595
40
0.98269377399355
40
0.98269377399355
40
1
40
1
40
1
40
1
41
1
10
25.4344891153487
20
-1.6395308291917
30
0
41
1
10
25.2537794322437
20
-1.65052375299177
30
0
41
1
10
25.0733467497087
20
-1.6526399256438
30
0
41
1
10
24.7117908157787
20
-1.63931641677442
30
0
41
1
10
24.5309662945417
20
-1.62383152478733
30
0
41
1
10
23.9925492926755
20
-1.55254236020664
30
0
41
1
10
23.6369236046751
20
-1.47173626612522
30
0
41
1
10
23.1007083894719
20
-1.30681970268421
30
0
41
1
10
22.9214725285968
20
-1.24461218412051
30
0
41
1
10
22.6508966872129
20
-1.14137293348682
30
0
41
1
10
22.5602521282803
20
-1.10523643910227
30
0
41
1
10
22.3798238046286
20
-1.03048907240105
30
0
41
1
10
22.2898830955464
20
-0.991823665528443
30
0
41
1
10
21.8411684524758
20
-0.79269056433003
30
0
41
1
10
21.4854830152957
20
-0.614574751794152
30
0
41
1
10
20.9489331655747
20
-0.332923825282563
30
0
41
1
10
20.7695919851952
20
-0.236617549233017
30
0
41
1
10
20.4990151060097
20
-0.089946357484564
30
0
41
1
10
20.4083806108472
20
-0.0406454544745714
30
0
41
1
10
20.2279807316129
20
0.0574112204559754
30
0
41
1
10
20.1380522852913
20
0.106256081217879
30
0
41
1
10
19.6893872232696
20
0.348883460538673
30
0
41
1
10
19.3336803273983
20
0.538042221277465
30
0
41
1
10
18.7972145772119
20
0.800506475040862
30
0
41
1
10
18.617944269048
20
0.88451423770718
30
0
41
1
10
18.3473710237757
20
1.00354755397626
30
0
41
1
10
18.2567134277042
20
1.0421316097005
30
0
41
1
10
18.0762387708405
20
1.11608865108332
30
0
41
1
10
17.9862982458693
20
1.15152962316344
30
0
41
1
10
17.537573623432
20
1.32048060388541
30
0
41
1
10
17.181565207151
20
1.42910363019837
30
0
41
1
10
16.6452231668133
20
1.54566133379566
30
0
41
1
10
16.465944317395
20
1.57668501675545
30
0
41
1
10
16.1953491362587
20
1.61067008466753
30
0
41
1
10
16.1046645088907
20
1.61991740950373
30
0
41
1
10
15.9240669297749
20
1.63400396008228
30
0
41
1
10
15.834080813501
20
1.63886473662404
30
0
41
1
10
15.6873782741156
20
1.6432559718896
30
0
41
1
10
15.6305339882945
20
1.64408766750185
30
0
41
1
10
15.5737480661404
20
1.6440534647771
30
0
0
SPLINE
5
C1
100
AcDbEntity
8
1
62
256
6
ByLayer
370
18
48
1
60
0
100
AcDbSpline
70
4
71
3
72
14
73
10
40
0
40
0
40
0
40
0
40
0.25
40
0.25
40
0.5
40
0.5
40
0.75
40
0.75
40
1
40
1
40
1
40
1
41
1
10
25.7930880791258
20
-0.791658197103004
30
0
41
1
10
25.7681239001373
20
-0.859106074530473
30
0
41
1
10
25.7430089152676
20
-0.926444456284599
30
0
41
1
10
25.6928678969642
20
-1.06118580478972
30
0
41
1
10
25.667793159098
20
-1.12855457333981
30
0
41
1
10
25.6172908156665
20
-1.26303120824153
30
0
41
1
10
25.5919286037477
20
-1.33014806578043
30
0
41
1
10
25.5409756959983
20
-1.46413185664133
30
0
41
1
10
25.5152057027176
20
-1.53070132823439
30
0
41
1
10
25.4891648871259
20
-1.59650093767482
30
0
0
SPLINE
5
C2
100
AcDbEntity
8
1
62
256
6
ByLayer
370
18
48
1
60
0
100
AcDbSpline
70
4
71
3
72
14
73
10
40
0
40
0
40
0
40
0
40
0.25
40
0.25
40
0.5
40
0.5
40
0.75
40
0.75
40
1
40
1
40
1
40
1
41
1
10
25.7930880791258
20
0.791658197103004
30
0
41
1
10
25.7681239001373
20
0.859106074530473
30
0
41
1
10
25.7430089152676
20
0.926444456284599
30
0
41
1
10
25.6928678969642
20
1.06118580478972
30
0
41
1
10
25.6677931590981
20
1.12855457333981
30
0
41
1
10
25.6172908156666
20
1.26303120824153
30
0
41
1
10
25.5919286037477
20
1.33014806578043
30
0
41
1
10
25.5409756959983
20
1.4641318566413
30
0
41
1
10
25.5152057027175
20
1.53070132823439
30
0
41
1
10
25.4891648871259
20
1.59650093767482
30
0
0
SPLINE
5
C3
100
AcDbEntity
8
1
62
256
6
ByLayer
370
18
48
1
60
0
100
AcDbSpline
70
4
71
3
72
8
73
4
40
0
40
0
40
0
40
0
40
1
40
1
40
1
40
1
41
1
10
25.4344891153487
20
1.6395308291917
30
0
41
1
10
25.3201696689611
20
1.64648510491955
30
0
41
1
10
25.2057122945532
20
1.64988661229492
30
0
41
1
10
25.0912581965703
20
1.64975452087981
30
0
0
SPLINE
5
C4
100
AcDbEntity
8
1
62
256
6
ByLayer
370
18
48
1
60
0
100
AcDbSpline
70
4
71
3
72
30
73
26
40
0
40
0
40
0
40
0
40
0.0273825452684924
40
0.0273825452684924
40
0.0922237089172609
40
0.0922237089172609
40
0.221906036214796
40
0.221906036214796
40
0.286747199863564
40
0.286747199863564
40
0.351588363512331
40
0.351588363512331
40
0.481270690809865
40
0.481270690809865
40
0.54611185445863
40
0.54611185445863
40
0.610953018107396
40
0.610953018107396
40
0.74063534540493
40
0.74063534540493
40
0.805476509053697
40
0.805476509053697
40
0.870317672702465
40
0.870317672702465
40
1
40
1
40
1
40
1
41
1
10
16.5130963429978
20
-1.56626805083167
30
0
41
1
10
16.43692519414
20
-1.57883160191983
30
0
41
1
10
16.3606179065818
20
-1.58993078591774
30
0
41
1
10
16.1033350941281
20
-1.62218469261759
30
0
41
1
10
15.92366339479
20
-1.63617298044366
30
0
41
1
10
15.3865327207376
20
-1.65228170595154
30
0
41
1
10
15.0305142572183
20
-1.62853187938842
30
0
41
1
10
14.492652431079
20
-1.54267433258957
30
0
41
1
10
14.3123190030268
20
-1.50564111188731
30
0
41
1
10
13.9503457950905
20
-1.41559760255581
30
0
41
1
10
13.770659497916
20
-1.36302449913117
30
0
41
1
10
13.2333331689832
20
-1.18541948796073
30
0
41
1
10
12.8773688442114
20
-1.0405925615496
30
0
41
1
10
12.3394778515032
20
-0.793936958322007
30
0
41
1
10
12.1593772377111
20
-0.706645562027802
30
0
41
1
10
11.7973200005815
20
-0.524528351351648
30
0
41
1
10
11.6175202188911
20
-0.430876633825676
30
0
41
1
10
11.0798307236178
20
-0.145867396849837
30
0
41
1
10
10.7239195344125
20
0.0500505229197472
30
0
41
1
10
10.1860142055197
20
0.337972037115321
30
0
41
1
10
10.006003454277
20
0.432993921045949
30
0
41
1
10
9.64363321478714
20
0.618719786982325
30
0
41
1
10
9.46341376929072
20
0.708251460709675
30
0
41
1
10
8.92369792854322
20
0.963772117507517
30
0
41
1
10
8.56529755706478
20
1.11686856018869
30
0
41
1
10
8.20273279169342
20
1.24426160950117
30
0
0
SPLINE
5
C5
100
AcDbEntity
8
1
62
256
6
ByLayer
370
18
48
1
60
0
100
AcDbSpline
70
4
71
3
72
24
73
20
40
0
40
0
40
0
40
0
40
0.125000000000001
40
0.125000000000001
40
0.250000000000002
40
0.250000000000002
40
0.499999999999995
40
0.499999999999995
40
0.624999999999996
40
0.624999999999996
40
0.687499999999997
40
0.687499999999997
40
0.749999999999997
40
0.749999999999997
40
0.874999999999999
40
0.874999999999999
40
0.937499999999999
40
0.937499999999999
40
1
40
1
40
1
40
1
41
1
10
24.0054316452082
20
0.636888814420416
30
0
41
1
10
24.057813783631
20
0.594528977212946
30
0
41
1
10
24.1107555996857
20
0.553949890720276
30
0
41
1
10
24.2179202287518
20
0.476867521586456
30
0
41
1
10
24.2722879419283
20
0.440286653054642
30
0
41
1
10
24.4352745798509
20
0.338711384794095
30
0
41
1
10
24.5443358816823
20
0.281271947816378
30
0
41
1
10
24.7086369967081
20
0.213173684401681
30
0
41
1
10
24.7635230288014
20
0.193504787251811
30
0
41
1
10
24.8460578820511
20
0.169242870714157
30
0
41
1
10
24.8736349423713
20
0.162028337781464
30
0
41
1
10
24.9283555012258
20
0.149614918896503
30
0
41
1
10
24.9556975397244
20
0.143990625467921
30
0
41
1
10
25.0360028996908
20
0.134034877700429
30
0
41
1
10
25.0874588346421
20
0.137482473282091
30
0
41
1
10
25.1517110749131
20
0.167712593701936
30
0
41
1
10
25.170514155666
20
0.182397546445912
30
0
41
1
10
25.1991253166882
20
0.222300912394871
30
0
41
1
10
25.2085511445217
20
0.247063276990161
30
0
41
1
10
25.2129435056118
20
0.275367057207433
30
0
0
SPLINE
5
C6
100
AcDbEntity
8
1
62
256
6
ByLayer
370
18
48
1
60
0
100
AcDbSpline
70
4
71
3
72
28
73
24
40
0
40
0
40
0
40
0
40
0.0625
40
0.0625
40
0.125
40
0.125
40
0.25
40
0.25
40
0.375
40
0.375
40
0.5
40
0.5
40
0.5625
40
0.5625
40
0.625
40
0.625
40
0.6875
40
0.6875
40
0.75
40
0.75
40
0.875
40
0.875
40
1
40
1
40
1
40
1
41
1
10
25.6659207741029
20
-0.411734087027867
30
0
41
1
10
25.6585656368129
20
-0.430306481045818
30
0
41
1
10
25.6522159069731
20
-0.44920992245406
30
0
41
1
10
25.6421040426175
20
-0.48659130848722
30
0
41
1
10
25.6383931043596
20
-0.505026882092807
30
0
41
1
10
25.632287454461
20
-0.555349671018291
30
0
41
1
10
25.6350759024993
20
-0.582241337423767
30
0
41
1
10
25.6511445720018
20
-0.614170354742186
30
0
41
1
10
25.6641565604957
20
-0.619850984500232
30
0
41
1
10
25.69473969272
20
-0.613658869661322
30
0
41
1
10
25.7124157294861
20
-0.602021856057178
30
0
41
1
10
25.7402730253887
20
-0.573533527435927
30
0
41
1
10
25.7495871513496
20
-0.562404301472071
30
0
41
1
10
25.7682041748611
20
-0.536900350493312
30
0
41
1
10
25.7775753047739
20
-0.522375536155948
30
0
41
1
10
25.7953626078268
20
-0.491148046159367
30
0
41
1
10
25.8040276467644
20
-0.474009297365427
30
0
41
1
10
25.8197810162164
20
-0.438309818004228
30
0
41
1
10
25.8268337566343
20
-0.419928182660186
30
0
41
1
10
25.8450630128586
20
-0.362892488886473
30
0
41
1
10
25.8519088892999
20
-0.325703932072116
30
0
41
1
10
25.8519634580477
20
-0.267331279644367
30
0
41
1
10
25.8453259340471
20
-0.247386878253195
30
0
41
1
10
25.8344260696483
20
-0.237665793874981
30
0
0
SPLINE
5
C7
100
AcDbEntity
8
1
62
256
6
ByLayer
370
18
48
1
60
0
100
AcDbSpline
70
4
71
3
72
17
73
13
40
0
40
0
40
0
40
0
40
0.32627569578319
40
0.32627569578319
40
0.489413543674786
40
0.489413543674786
40
0.652551391566381
40
0.815689239457976
40
0.815689239457976
40
0.978827087349572
40
0.978827087349572
40
1
40
1
40
1
40
1
41
1
10
8.05731653809505
20
1.34129901514157
30
0
41
1
10
8.05733328280238
20
1.40402737989743
30
0
41
1
10
8.0573418476844
20
1.45732197147697
30
0
41
1
10
8.05734690434215
20
1.52311043648336
30
0
41
1
10
8.05734727736876
20
1.54272599729833
30
0
41
1
10
8.05734618417176
20
1.57641458071222
30
0
41
1
10
8.05734328525256
20
1.60474213995911
30
0
41
1
10
8.05733841893806
20
1.62253859855915
30
0
41
1
10
8.05733332323109
20
1.63500732326216
30
0
41
1
10
8.05733064741506
20
1.63857236780135
30
0
41
1
10
8.05732794336433
20
1.63947051992034
30
0
41
1
10
8.05732763767722
20
1.63952805289398
30
0
41
1
10
8.05732733751645
20
1.6395400042978
30
0
0
SPLINE
5
C8
100
AcDbEntity
8
1
62
256
6
ByLayer
370
18
48
1
60
0
100
AcDbSpline
70
4
71
3
72
12
73
8
40
0
40
0
40
0
40
0
40
0.500000000000035
40
0.500000000000035
40
0.750000000000018
40
0.750000000000018
40
1
40
1
40
1
40
1
41
1
10
8.25022403711151
20
-0.93824519147509
30
0
41
1
10
8.21483937863204
20
-0.922647155665231
30
0
41
1
10
8.17962580541317
20
-0.912105127592383
30
0
41
1
10
8.12959084829765
20
-0.905082374552023
30
0
41
1
10
8.11375465777539
20
-0.904264427465677
30
0
41
1
10
8.08395715115469
20
-0.905745842102448
30
0
41
1
10
8.06981898124909
20
-0.908122673276978
30
0
41
1
10
8.05749415208354
20
-0.912058786090626
30
0
0
SPLINE
5
C9
100
AcDbEntity
8
1
62
256
6
ByLayer
370
18
48
1
60
0
100
AcDbSpline
70
4
71
3
72
69
73
65
40
0
40
0
40
0
40
0
40
0.0562316692529125
40
0.0562316692529125
40
0.143506798411303
40
0.143506798411303
40
0.187144362990498
40
0.187144362990498
40
0.230781927569693
40
0.230781927569693
40
0.274419492148888
40
0.274419492148888
40
0.318057056728083
40
0.318057056728083
40
0.405332185886474
40
0.405332185886474
40
0.448969750465669
40
0.448969750465669
40
0.454424446038068
40
0.455788119931168
40
0.456129038404443
40
0.456129038404443
40
0.456469956877718
40
0.456469956877718
40
0.457151793824268
40
0.457151793824268
40
0.459879141610468
40
0.459879141610468
40
0.470788532755266
40
0.470788532755266
40
0.492607315044863
40
0.492607315044863
40
0.579882444203253
40
0.579882444203253
40
0.667157573361642
40
0.667157573361642
40
0.710795137940836
40
0.710795137940836
40
0.754432702520031
40
0.754432702520031
40
0.75988739809243
40
0.75988739809243
40
0.76261474587863
40
0.76261474587863
40
0.76397841977173
40
0.76397841977173
40
0.764319338245005
40
0.764319338245005
40
0.76466025671828
40
0.76466025671828
40
0.765342093664829
40
0.776251484809628
40
0.776251484809628
40
0.798070267099225
40
0.798070267099225
40
0.84170783167842
40
0.84170783167842
40
0.885345396257614
40
0.885345396257614
40
0.928982960836809
40
0.928982960836809
40
0.972620525416003
40
0.972620525416003
40
1
40
1
40
1
40
1
41
1
10
10.8229032759959
20
-0.211184041085261
30
0
41
1
10
10.7337435327902
20
-0.165658098104643
30
0
41
1
10
10.6445552395943
20
-0.121618065931273
30
0
41
1
10
10.418106312478
20
-0.0157079006105789
30
0
41
1
10
10.2810041950408
20
0.042896357378595
30
0
41
1
10
10.0740820541106
20
0.11519708258686
30
0
41
1
10
10.005050456965
20
0.136553329266434
30
0
41
1
10
9.86905440650528
20
0.17193654097639
30
0
41
1
10
9.80171502909661
20
0.186099110036196
30
0
41
1
10
9.66763773391077
20
0.206678101937399
30
0
41
1
10
9.60089787105932
20
0.213095049232976
30
0
41
1
10
9.46718497336957
20
0.217668009492428
30
0
41
1
10
9.39994097537397
20
0.215761830013577
30
0
41
1
10
9.20095760005779
20
0.197730301992493
30
0
41
1
10
9.07062146872528
20
0.169507191316711
30
0
41
1
10
8.87349569400985
20
0.105916515918466
30
0
41
1
10
8.80733063673841
20
0.0810821730972293
30
0
41
1
10
8.73281306173294
20
0.0496702525730939
30
0
41
1
10
8.72246233625282
20
0.0452477353844927
30
0
41
1
10
8.71159334028539
20
0.0405276170392312
30
0
41
1
10
8.70900549506109
20
0.0393992767698705
30
0
41
1
10
8.7079703568802
20
0.0389475805377515
30
0
41
1
10
8.7071585017471
20
0.0387495214499154
30
0
41
1
10
8.70783405161811
20
0.037312701945325
30
0
41
1
10
8.70888331317619
20
0.0366323075014066
30
0
41
1
10
8.71336798596343
20
0.0330452374940648
30
0
41
1
10
8.7173112845079
20
0.0304983865999873
30
0
41
1
10
8.73688236845916
20
0.0177137791613404
30
0
41
1
10
8.75305539041096
20
0.0080677715691024
30
0
41
1
10
8.80153891693826
20
-0.0208882423535215
30
0
41
1
10
8.83415259295256
20
-0.0398456602118813
30
0
41
1
10
8.99749282562323
20
-0.134325988840601
30
0
41
1
10
9.12927919902313
20
-0.208648252040859
30
0
41
1
10
9.3926179737386
20
-0.358095543272242
30
0
41
1
10
9.52445066690947
20
-0.432870587560103
30
0
41
1
10
9.72190481667752
20
-0.545888378210805
30
0
41
1
10
9.787660556959
20
-0.583725051178163
30
0
41
1
10
9.91886764571385
20
-0.660073213050879
30
0
41
1
10
9.98457348237372
20
-0.698135968990783
30
0
41
1
10
10.0571577161122
20
-0.743389421794859
30
0
41
1
10
10.0651976597882
20
-0.748460785731879
30
0
41
1
10
10.0771201279102
20
-0.756303358290097
30
0
41
1
10
10.081076149104
20
-0.758947396298794
30
0
41
1
10
10.0868781521537
20
-0.763118912778367
30
0
41
1
10
10.0888081763218
20
-0.764524134136224
30
0
41
1
10
10.0910569005099
20
-0.766495964466685
30
0
41
1
10
10.0914980479121
20
-0.766899797809089
30
0
41
1
10
10.0923055268413
20
-0.767789841183827
30
0
41
1
10
10.0927684459783
20
-0.768441365363117
30
0
41
1
10
10.0914566511797
20
-0.769636960737103
30
0
41
1
10
10.0765895614699
20
-0.783179772894528
30
0
41
1
10
10.0617203405309
20
-0.796598505782299
30
0
41
1
10
10.0197339773263
20
-0.834097293490913
30
0
41
1
10
9.9916972302882
20
-0.858614494247348
30
0
41
1
10
9.90769818178615
20
-0.930023140126224
30
0
41
1
10
9.85178030267713
20
-0.974866401776978
30
0
41
1
10
9.73846325980193
20
-1.05744184131615
30
0
41
1
10
9.68083896116542
20
-1.09524091480782
30
0
41
1
10
9.56497694899707
20
-1.16012088380236
30
0
41
1
10
9.50642425042429
20
-1.18744840842726
30
0
41
1
10
9.38617287107058
20
-1.23060711553302
30
0
41
1
10
9.32387087783891
20
-1.24648214636954
30
0
41
1
10
9.22107352225487
20
-1.26195355002596
30
0
41
1
10
9.1811943739165
20
-1.26545829338869
30
0
41
1
10
9.14097398605921
20
-1.26673808488726
30
0
0
SPLINE
5
CA
100
AcDbEntity
8
1
62
256
6
ByLayer
370
18
48
1
60
0
100
AcDbSpline
70
4
71
3
72
12
73
8
40
0
40
0
40
0
40
0
40
0.250000000000001
40
0.250000000000001
40
0.500000000000003
40
0.500000000000003
40
1
40
1
40
1
40
1
41
1
10
25.4344891153487
20
-1.63953082919201
30
0
41
1
10
25.4390163929164
20
-1.6271596132629
30
0
41
1
10
25.4431115589534
20
-1.61453906387925
30
0
41
1
10
25.4491649852295
20
-1.59213987508491
30
0
41
1
10
25.451094283276
20
-1.58243922974222
30
0
41
1
10
25.4533575766763
20
-1.56090002727413
30
0
41
1
10
25.4505571768861
20
-1.55598859633727
30
0
41
1
10
25.4457214116368
20
-1.55722225989584
30
0
0
SPLINE
5
CB
100
AcDbEntity
8
1
62
256
6
ByLayer
370
18
48
1
60
0
100
AcDbSpline
70
4
71
3
72
60
73
56
40
0
40
0
40
0
40
0
40
0.0115971141041718
40
0.0115971141041718
40
0.0506514690702562
40
0.0506514690702562
40
0.0897058240363405
40
0.0897058240363405
40
0.128760179002425
40
0.128760179002425
40
0.167814533968509
40
0.167814533968509
40
0.206868888934594
40
0.206868888934594
40
0.245923243900678
40
0.245923243900678
40
0.284977598866762
40
0.284977598866762
40
0.324031953832847
40
0.324031953832847
40
0.363086308798931
40
0.363086308798931
40
0.402140663765016
40
0.402140663765016
40
0.4411950187311
40
0.4411950187311
40
0.480249373697184
40
0.480249373697184
40
0.519303728663269
40
0.519303728663269
40
0.558358083629353
40
0.558358083629353
40
0.597412438595437
40
0.597412438595437
40
0.636466793561522
40
0.636466793561522
40
0.675521148527606
40
0.675521148527606
40
0.71457550349369
40
0.71457550349369
40
0.753629858459775
40
0.753629858459775
40
0.792684213425859
40
0.792684213425859
40
0.831738568391943
40
0.831738568391943
40
0.870792923358028
40
0.870792923358028
40
0.909847278324112
40
0.909847278324112
40
0.948901633290197
40
0.948901633290197
40
0.987955988256281
40
0.987955988256281
40
1
40
1
40
1
40
1
41
1
10
12.9802219830778
20
1.22402321856941
30
0
41
1
10
13.0256533816991
20
1.24047400230887
30
0
41
1
10
13.0710786973443
20
1.25648557482475
30
0
41
1
10
13.2694167268081
20
1.32431614657293
30
0
41
1
10
13.4218191572918
20
1.37208366900742
30
0
41
1
10
13.7273148553251
20
1.45658222594329
30
0
41
1
10
13.8809265671455
20
1.49326642525804
30
0
41
1
10
14.1865762918765
20
1.55548999487425
30
0
41
1
10
14.3391873706101
20
1.58060981666094
30
0
41
1
10
14.6447850068981
20
1.61865367114308
30
0
41
1
10
14.7972950423474
20
1.63173677768322
30
0
41
1
10
15.1037407774144
20
1.64514960639568
30
0
41
1
10
15.256680259242
20
1.64560347680427
30
0
41
1
10
15.5616831802377
20
1.63393519520116
30
0
41
1
10
15.7145137139912
20
1.62191474578177
30
0
41
1
10
16.0205263138661
20
1.58551796832913
30
0
41
1
10
16.1734244066201
20
1.56093458646669
30
0
41
1
10
16.4791086091848
20
1.50071651461599
30
0
41
1
10
16.6316858647962
20
1.46477982736042
30
0
41
1
10
16.9369455955212
20
1.38154794757747
30
0
41
1
10
17.090579734132
20
1.33483048133815
30
0
41
1
10
17.396191174151
20
1.2309856012161
30
0
41
1
10
17.5485900265669
20
1.17409496118995
30
0
41
1
10
17.8541789817401
20
1.05254975046009
30
0
41
1
10
18.0068989871045
20
0.986957168632301
30
0
41
1
10
18.3129729884865
20
0.84902029277066
30
0
41
1
10
18.4659232261635
20
0.777262350629798
30
0
41
1
10
18.7709423912837
20
0.627036330042046
30
0
41
1
10
18.9235538398666
20
0.549448627738627
30
0
41
1
10
19.2297292217647
20
0.390665542508088
30
0
41
1
10
19.3824797398664
20
0.308626062121107
30
0
41
1
10
19.687932014126
20
0.144612731232257
30
0
41
1
10
19.8406113025291
20
0.0619939508157472
30
0
41
1
10
20.1458774650335
20
-0.104482178919397
30
0
41
1
10
20.2993065547634
20
-0.187356661914322
30
0
41
1
10
20.6049949291865
20
-0.350949179559876
30
0
41
1
10
20.7571802572821
20
-0.432288839348814
30
0
41
1
10
21.0626929535047
20
-0.58965224426268
30
0
41
1
10
21.2156852056808
20
-0.666820186309536
30
0
41
1
10
21.5214049410835
20
-0.815775502798601
30
0
41
1
10
21.6742698193451
20
-0.886601004280408
30
0
41
1
10
21.9794115984353
20
-1.02199507765616
30
0
41
1
10
22.13177928268
20
-1.08635899557083
30
0
41
1
10
22.4380300725505
20
-1.20568960800267
30
0
41
1
10
22.5907671170626
20
-1.26135832486392
30
0
41
1
10
22.8958819935358
20
-1.36212011947322
30
0
41
1
10
23.0486979800784
20
-1.40711460041328
30
0
41
1
10
23.3540110476857
20
-1.48708869022258
30
0
41
1
10
23.5072010458023
20
-1.52154143009415
30
0
41
1
10
23.8128296244513
20
-1.5782708998014
30
0
41
1
10
23.9649880068075
20
-1.60091950107412
30
0
41
1
10
24.2703234300396
20
-1.63358495462629
30
0
41
1
10
24.4236827281919
20
-1.64378919913816
30
0
41
1
10
24.6233469454051
20
-1.64892220199687
30
0
41
1
10
24.6703876991848
20
-1.64953061788202
30
0
41
1
10
24.717405241255
20
-1.64954269302589
30
0
0
SPLINE
5
CC
100
AcDbEntity
8
1
62
256
6
ByLayer
370
13
48
1
60
0
100
AcDbSpline
70
4
71
3
72
16
73
12
40
0
40
0
40
0
40
0
40
0.139735469415392
40
0.139735469415392
40
0.354801602061544
40
0.354801602061544
40
0.569867734707696
40
0.569867734707696
40
0.784933867353848
40
0.784933867353848
40
1
40
1
40
1
40
1
41
1
10
8.25013224414477
20
-1.54884215174718
30
0
41
1
10
8.250125168338
20
-1.54855005121647
30
0
41
1
10
8.25011929101424
20
-1.54402561813444
30
0
41
1
10
8.25010836901441
20
-1.52208230128102
30
0
41
1
10
8.25010549959006
20
-1.49871233700702
30
0
41
1
10
8.25010897336381
20
-1.43265309687266
30
0
41
1
10
8.25011535471327
20
-1.389728641972
30
0
41
1
10
8.25013608407119
20
-1.28778185650253
30
0
41
1
10
8.25015035126248
20
-1.22882345659499
30
0
41
1
10
8.2501842504268
20
-1.09502448879039
30
0
41
1
10
8.25020404931365
20
-1.01955084469864
30
0
41
1
10
8.25022403711154
20
-0.938245191476057
30
0
0
SPLINE
5
CD
100
AcDbEntity
8
1
62
256
6
ByLayer
370
18
48
1
60
0
100
AcDbSpline
70
4
71
3
72
8
73
4
40
0
40
0
40
0
40
0
40
1
40
1
40
1
40
1
41
1
10
25.4457214116396
20
-1.5572222598951
30
0
41
1
10
25.4411368906054
20
-1.55839182794304
30
0
41
1
10
25.4367566709255
20
-1.55897501207494
30
0
41
1
10
25.4325827303297
20
-1.55896613582794
30
0
0
SPLINE
5
CE
100
AcDbEntity
8
1
62
256
6
ByLayer
370
18
48
1
60
0
100
AcDbSpline
70
4
71
3
72
14
73
10
40
0
40
0
40
0
40
0
40
0.0048445597465029
40
0.0048445597465029
40
0.266727362074549
40
0.266727362074549
40
0.528610164402594
40
0.528610164402594
40
1
40
1
40
1
40
1
41
1
10
15.7837247592099
20
-1.55322639472919
30
0
41
1
10
15.7804233406597
20
-1.55322553491445
30
0
41
1
10
15.777121936245
20
-1.55322195165351
30
0
41
1
10
15.5953568185754
20
-1.55287480379272
30
0
41
1
10
15.4168428159307
20
-1.54450661601533
30
0
41
1
10
15.058578537758
20
-1.51152827551868
30
0
41
1
10
14.8783372883393
20
-1.4867622179637
30
0
41
1
10
14.3737884778448
20
-1.39581689303432
30
0
41
1
10
14.0525693504131
20
-1.31319283833363
30
0
41
1
10
13.7312199108343
20
-1.20995266098754
30
0
0
SPLINE
5
CF
100
AcDbEntity
8
1
62
256
6
ByLayer
370
13
48
1
60
0
100
AcDbSpline
70
4
71
3
72
24
73
20
40
0
40
0
40
0
40
0
40
0.0196077235397052
40
0.0196077235397052
40
0.117646951185733
40
0.117646951185733
40
0.215686178831761
40
0.215686178831761
40
0.411764634123821
40
0.411764634123821
40
0.50980386176985
40
0.50980386176985
40
0.607843089415879
40
0.607843089415879
40
0.803921544707938
40
0.803921544707938
40
0.901960772353969
40
0.901960772353969
40
1
40
1
40
1
40
1
41
1
10
13.7312208629355
20
-1.20995296686971
30
0
41
1
10
13.6955156517628
20
-1.19848193120379
30
0
41
1
10
13.6598088318635
20
-1.1867563794836
30
0
41
1
10
13.4455302840761
20
-1.11490476049286
30
0
41
1
10
13.2667459696773
20
-1.04885025899966
30
0
41
1
10
12.907746564012
20
-0.905919982368204
30
0
41
1
10
12.7268154994623
20
-0.828754806903476
30
0
41
1
10
12.1877620761552
20
-0.586904912943766
30
0
41
1
10
11.8321235564917
20
-0.411358029229547
30
0
41
1
10
11.297061158594
20
-0.140652918461626
30
0
41
1
10
11.1184104727974
20
-0.0492155863020969
30
0
41
1
10
10.759711654394
20
0.134409626598654
30
0
41
1
10
10.5788066213179
20
0.226767901764902
30
0
41
1
10
10.0395364158513
20
0.496672198919328
30
0
41
1
10
9.68369831909465
20
0.667834260972768
30
0
41
1
10
9.14864685425141
20
0.899600020740166
30
0
41
1
10
8.97002417037024
20
0.972527015753968
30
0
41
1
10
8.61137548574541
20
1.10839727204402
30
0
41
1
10
8.43078451604873
20
1.17130693818604
30
0
41
1
10
8.25024757830192
20
1.22739134304484
30
0
0
SPLINE
5
D0
100
AcDbEntity
8
1
62
256
6
ByLayer
370
18
48
1
60
0
100
AcDbSpline
70
4
71
3
72
18
73
14
40
0
40
0
40
0
40
0
40
0.189492009184331
40
0.189492009184331
40
0.392119006888248
40
0.392119006888248
40
0.594746004592165
40
0.594746004592165
40
0.696059503444124
40
0.696059503444124
40
0.797373002296082
40
0.797373002296082
40
1
40
1
40
1
40
1
41
1
10
8.05732733847702
20
-1.63953996589785
30
0
41
1
10
8.05732301265476
20
-1.63971360034725
30
0
41
1
10
8.05731983442411
20
-1.63042082448217
30
0
41
1
10
8.05731924025483
20
-1.5919843991868
30
0
41
1
10
8.0573223617605
20
-1.56096943378142
30
0
41
1
10
8.05733735082495
20
-1.47966328843137
30
0
41
1
10
8.05734913992987
20
-1.42939966615285
30
0
41
1
10
8.05737314582214
20
-1.33936567344742
30
0
41
1
10
8.05738222926354
20
-1.30676848568805
30
0
41
1
10
8.05740182775332
20
-1.23803787935105
30
0
41
1
10
8.05741237839413
20
-1.2017622854224
30
0
41
1
10
8.0574456271174
20
-1.08731086961905
30
0
41
1
10
8.05747011068985
20
-1.00309180991059
30
0
41
1
10
8.05749415208345
20
-0.912058786090626
30
0
0
SPLINE
5
D1
100
AcDbEntity
8
1
62
256
6
ByLayer
370
13
48
1
60
0
100
AcDbSpline
70
4
71
3
72
26
73
22
40
0
40
0
40
0
40
0
40
0.139149738661373
40
0.139149738661373
40
0.208724607992059
40
0.208724607992059
40
0.278299477322745
40
0.278299477322745
40
0.41744921598412
40
0.41744921598412
40
0.487024085314808
40
0.487024085314808
40
0.556598954645496
40
0.556598954645496
40
0.695748693306871
40
0.695748693306871
40
0.834898431968246
40
0.834898431968246
40
0.97404817062962
40
0.97404817062962
40
1
40
1
40
1
40
1
41
1
10
25.4457214116396
20
-1.5572222598951
30
0
41
1
10
25.0870131977314
20
-1.5659271681559
30
0
41
1
10
24.7311443287482
20
-1.54139280128186
30
0
41
1
10
24.1953665501039
20
-1.45810960336425
30
0
41
1
10
24.0164738596113
20
-1.4225934772081
30
0
41
1
10
23.6568145247724
20
-1.33647572036179
30
0
41
1
10
23.4763212415332
20
-1.28581630488793
30
0
41
1
10
22.9397565710691
20
-1.11600078172114
30
0
41
1
10
22.5854299458797
20
-0.978316265828198
30
0
41
1
10
22.0522102355894
20
-0.745827009755118
30
0
41
1
10
21.8742248562863
20
-0.663883125715927
30
0
41
1
10
21.5165246613722
20
-0.49317952393622
30
0
41
1
10
21.3362727163239
20
-0.404125283117139
30
0
41
1
10
20.7957394685378
20
-0.132151894523929
30
0
41
1
10
20.4370210081035
20
0.054970625082575
30
0
41
1
10
19.7156821861631
20
0.42090962548275
30
0
41
1
10
19.3595029435456
20
0.596308438728158
30
0
41
1
10
18.6467573443656
20
0.915851047855284
30
0
41
1
10
18.2897393167025
20
1.05999768503341
30
0
41
1
10
17.8617117829097
20
1.2027888207663
30
0
41
1
10
17.7945096039412
20
1.22432352023589
30
0
41
1
10
17.7273567387224
20
1.24491980231872
30
0
0
SPLINE
5
D2
100
AcDbEntity
8
1
62
256
6
ByLayer
370
18
48
1
60
0
100
AcDbSpline
70
4
71
3
72
26
73
22
40
0
40
0
40
0
40
0
40
0.104953030966841
40
0.104953030966841
40
0.209906061933682
40
0.209906061933682
40
0.314859092900522
40
0.314859092900522
40
0.419812123867363
40
0.419812123867363
40
0.524765154834204
40
0.524765154834204
40
0.629718185801045
40
0.629718185801045
40
0.734671216767885
40
0.734671216767885
40
0.839624247734726
40
0.839624247734726
40
0.944577278701567
40
0.944577278701567
40
1
40
1
40
1
40
1
41
1
10
10.8232467942305
20
-0.211380744531965
30
0
41
1
10
10.9759357069425
20
-0.294173701363206
30
0
41
1
10
11.1288982081626
20
-0.374827239995312
30
0
41
1
10
11.434503846093
20
-0.533538977225078
30
0
41
1
10
11.586943620164
20
-0.611918871656911
30
0
41
1
10
11.8936052730922
20
-0.762322842248864
30
0
41
1
10
12.0464363127715
20
-0.834975367659524
30
0
41
1
10
12.3516606702251
20
-0.973524374192181
30
0
41
1
10
12.504594341046
20
-1.0387358627554
30
0
41
1
10
12.8104775069633
20
-1.16195917752421
30
0
41
1
10
12.963563256094
20
-1.21971585460781
30
0
41
1
10
13.2694167268082
20
-1.32431614657298
30
0
41
1
10
13.4218191572919
20
-1.37208366900748
30
0
41
1
10
13.7273148553252
20
-1.45658222594332
30
0
41
1
10
13.8809265671457
20
-1.49326642525807
30
0
41
1
10
14.1865762918766
20
-1.55548999487428
30
0
41
1
10
14.3391873706103
20
-1.58060981666097
30
0
41
1
10
14.6447850068982
20
-1.61865367114308
30
0
41
1
10
14.7972950423475
20
-1.63173677768324
30
0
41
1
10
15.0314305639095
20
-1.64198465940206
30
0
41
1
10
15.1122641930912
20
-1.64378254437131
30
0
41
1
10
15.1929960261099
20
-1.64383162411281
30
0
0
SPLINE
5
D3
100
AcDbEntity
8
1
62
256
6
ByLayer
370
18
48
1
60
0
100
AcDbSpline
70
4
71
3
72
20
73
16
40
0
40
0
40
0
40
0
40
0.0806407724440581
40
0.0806407724440581
40
0.233867310370048
40
0.233867310370048
40
0.387093848296039
40
0.387093848296039
40
0.540320386222029
40
0.540320386222029
40
0.693546924148019
40
0.693546924148019
40
0.84677346207401
40
0.84677346207401
40
1
40
1
40
1
40
1
41
1
10
22.5022789807923
20
1.22798957619887
30
0
41
1
10
22.5826975376411
20
1.25724524141276
30
0
41
1
10
22.6630359197408
20
1.28522453006602
30
0
41
1
10
22.8958819935363
20
1.36212011947336
30
0
41
1
10
23.0486979800789
20
1.40711460041342
30
0
41
1
10
23.3540110476862
20
1.48708869022269
30
0
41
1
10
23.5072010458028
20
1.52154143009426
30
0
41
1
10
23.8128296244518
20
1.57827089980148
30
0
41
1
10
23.964988006808
20
1.60091950107417
30
0
41
1
10
24.2703234300401
20
1.63358495462632
30
0
41
1
10
24.4236827281924
20
1.64378919913818
30
0
41
1
10
24.7288884603973
20
1.65163548185106
30
0
41
1
10
24.8812747518865
20
1.64923460717452
30
0
41
1
10
25.1854359094524
20
1.63213293060406
30
0
41
1
10
25.3369836154292
20
1.61727093831067
30
0
41
1
10
25.4891648871151
20
1.59650093767613
30
0
0
SPLINE
5
D4
100
AcDbEntity
8
1
62
256
6
ByLayer
370
18
48
1
60
0
100
AcDbSpline
70
4
71
3
72
14
73
10
40
0
40
0
40
0
40
0
40
0.25
40
0.25
40
0.5
40
0.5
40
0.75
40
0.75
40
1
40
1
40
1
40
1
41
1
10
25.2129435056117
20
0.275367057207433
30
0
41
1
10
25.2165909363919
20
0.29887060735814
30
0
41
1
10
25.2235183744642
20
0.323100299080465
30
0
41
1
10
25.2434275796942
20
0.373381922776588
30
0
41
1
10
25.2558432879591
20
0.399127925118961
30
0
41
1
10
25.287013601275
20
0.448273595062687
30
0
41
1
10
25.3063925475885
20
0.472365283379645
30
0
41
1
10
25.3539035209206
20
0.508735351593828
30
0
41
1
10
25.3815824042238
20
0.520687061999155
30
0
41
1
10
25.4104836423255
20
0.527822773020006
30
0
0
SPLINE
5
D5
100
AcDbEntity
8
1
62
256
6
ByLayer
370
18
48
1
60
0
100
AcDbSpline
70
4
71
3
72
10
73
6
40
0
40
0
40
0
40
0
40
0.5
40
0.5
40
1
40
1
40
1
40
1
41
1
10
8.12151196247885
20
1.27508551979506
30
0
41
1
10
8.10351904435441
20
1.28320286870962
30
0
41
1
10
8.08787666619952
20
1.2931478508701
30
0
41
1
10
8.06481155793375
20
1.3157634672464
30
0
41
1
10
8.05731311732754
20
1.32848428224358
30
0
41
1
10
8.0573165380919
20
1.34129901513748
30
0
0
SPLINE
5
D6
100
AcDbEntity
8
1
62
256
6
ByLayer
370
18
48
1
60
0
100
AcDbSpline
70
4
71
3
72
8
73
4
40
0
40
0
40
0
40
0
40
1
40
1
40
1
40
1
41
1
10
8.20273279169342
20
1.24426160950117
30
0
41
1
10
8.17500789415135
20
1.25400320487142
30
0
41
1
10
8.14718137501936
20
1.26350498702263
30
0
41
1
10
8.12151196247962
20
1.2750855197952
30
0
0
SPLINE
5
D7
100
AcDbEntity
8
SK1
62
256
6
ByLayer
370
18
48
1
60
0
100
AcDbSpline
70
4
71
3
72
14
73
10
40
0
40
0
40
0
40
0
40
0.125000000000001
40
0.125000000000001
40
0.250000000000003
40
0.250000000000003
40
0.5
40
0.5
40
1
40
1
40
1
40
1
41
1
10
-35.3
20
1.42942748450233
30
0
41
1
10
-35.3
20
1.43908942089962
30
0
41
1
10
-35.3017593723636
20
1.44710155225548
30
0
41
1
10
-35.3069353411979
20
1.45972243196789
30
0
41
1
10
-35.3102739075534
20
1.46441216719617
30
0
41
1
10
-35.3215583577555
20
1.47574166815403
30
0
41
1
10
-35.3303095934912
20
1.47931713401769
30
0
41
1
10
-35.358391202053
20
1.48417470346971
30
0
41
1
10
-35.378655954467
20
1.47940341137607
30
0
41
1
10
-35.4
20
1.4687108745411
30
0
0
SPLINE
5
D8
100
AcDbEntity
8
SK1
62
256
6
ByLayer
370
18
48
1
60
0
100
AcDbSpline
70
4
71
3
72
14
73
10
40
0
40
0
40
0
40
0
40
0.5
40
0.5
40
0.75
40
0.75
40
0.875
40
0.875
40
1
40
1
40
1
40
1
41
1
10
-35.3999999999999
20
0.0280903932072931
30
0
41
1
10
-35.3787677796885
20
0.0387269099546472
30
0
41
1
10
-35.3584290958895
20
0.0552149674788325
30
0
41
1
10
-35.3303626450498
20
0.0911148690055086
30
0
41
1
10
-35.3215171954455
20
0.10484266653728
30
0
41
1
10
-35.3102812516991
20
0.129884818289327
30
0
41
1
10
-35.3068890218584
20
0.139014647351672
30
0
41
1
10
-35.3017585680987
20
0.158875847028156
30
0
41
1
10
-35.3
20
0.169832781253376
30
0
41
1
10
-35.3
20
0.180889734013647
30
0
0
SPLINE
5
D9
100
AcDbEntity
8
SK1
62
256
6
ByLayer
370
18
48
1
60
0
100
AcDbSpline
70
4
71
3
72
8
73
4
40
0
40
0
40
0
40
0
40
1
40
1
40
1
40
1
41
1
10
-36
20
-0.27984000108205
30
0
41
1
10
-35.8060563521805
20
-0.176265989419079
30
0
41
1
10
-35.6037445882294
20
-0.0739777227540515
30
0
41
1
10
-35.4
20
0.0280903932080321
30
0
0
SPLINE
5
DA
100
AcDbEntity
8
SK1
62
256
6
ByLayer
370
18
48
1
60
0
100
AcDbSpline
70
4
71
3
72
8
73
4
40
0
40
0
40
0
40
0
40
1
40
1
40
1
40
1
41
1
10
-36
20
0.27984000108205
30
0
41
1
10
-35.8060563521805
20
0.176265989419107
30
0
41
1
10
-35.6037445882294
20
0.0739777227540515
30
0
41
1
10
-35.4
20
-0.0280903932080037
30
0
0
SPLINE
5
DB
100
AcDbEntity
8
SK1
62
256
6
ByLayer
370
18
48
1
60
0
100
AcDbSpline
70
4
71
3
72
8
73
4
40
0
40
0
40
0
40
0
40
1
40
1
40
1
40
1
41
1
10
-35.4
20
1.4687108745411
30
0
41
1
10
-35.6037705334182
20
1.36662976104836
30
0
41
1
10
-35.806098623767
20
1.26433191712053
30
0
41
1
10
-36
20
1.16078048025102
30
0
0
LINE
5
76
100
AcDbEntity
8
81
62
256
6
ByLayer
370
18
48
1
60
0
100
AcDbLine
10
26
20
0
30
0
11
31
21
0
31
0
39
0
210
0
220
0
230
1
0
LINE
5
77
100
AcDbEntity
8
1
62
256
6
ByLayer
370
18
48
1
60
0
100
AcDbLine
10
8.057323
20
1.639541
30
0
11
1.583031
21
1.635656
31
0
39
0
210
0
220
0
230
1
0
LINE
5
79
100
AcDbEntity
8
1
62
256
6
ByLayer
370
18
48
1
60
0
100
AcDbLine
10
15.573402
20
1.644051
30
0
11
15.191498
21
1.643821
31
0
39
0
210
0
220
0
230
1
0
LINE
5
7A
100
AcDbEntity
8
1
62
256
6
ByLayer
370
18
48
1
60
0
100
AcDbLine
10
25.094165
20
1.649763
30
0
11
24.714706
21
1.649535
31
0
39
0
210
0
220
0
230
1
0
LINE
5
7B
100
AcDbEntity
8
1
62
256
6
ByLayer
370
18
48
1
60
0
100
AcDbLine
10
24.714706
20
-1.649535
30
0
11
25.093927
21
-1.649763
31
0
39
0
210
0
220
0
230
1
0
LINE
5
7C
100
AcDbEntity
8
1
62
256
6
ByLayer
370
18
48
1
60
0
100
AcDbLine
10
15.191498
20
-1.643821
30
0
11
15.572717
21
-1.64405
31
0
39
0
210
0
220
0
230
1
0
LINE
5
7D
100
AcDbEntity
8
1
62
256
6
ByLayer
370
18
48
1
60
0
100
AcDbLine
10
1.583031
20
-1.635656
30
0
11
8.057323
21
-1.639541
31
0
39
0
210
0
220
0
230
1
0
LINE
5
7E
100
AcDbEntity
8
SK1
62
256
6
ByLayer
370
18
48
1
60
0
100
AcDbLine
10
0
20
3
30
0
11
-35.278312
21
3
31
0
39
0
210
0
220
0
230
1
0
LINE
5
80
100
AcDbEntity
8
SK1
62
256
6
ByLayer
370
18
48
1
60
0
100
AcDbLine
10
-35.278312
20
-3
30
0
11
0
21
-3
31
0
39
0
210
0
220
0
230
1
0
LINE
5
81
100
AcDbEntity
8
SK1
62
256
6
ByLayer
370
18
48
1
60
0
100
AcDbLine
10
-35.278312
20
3
30
0
11
-36
21
1.75
31
0
39
0
210
0
220
0
230
1
0
LINE
5
82
100
AcDbEntity
8
SK1
62
256
6
ByLayer
370
18
48
1
60
0
100
AcDbLine
10
-36
20
-1.75
30
0
11
-35.278312
21
-3
31
0
39
0
210
0
220
0
230
1
0
LINE
5
83
100
AcDbEntity
8
SK4
62
256
6
ByLayer
370
18
48
0.05
60
0
100
AcDbLine
10
31
20
0
30
0
11
-41
21
0
31
0
39
0
210
0
220
0
230
1
0
LINE
5
85
100
AcDbEntity
8
4
62
256
6
ByLayer
370
18
48
0.05
60
0
100
AcDbLine
10
26
20
0
30
0
11
0
21
0
31
0
39
0
210
0
220
0
230
1
0
LINE
5
87
100
AcDbEntity
8
80
62
256
6
ByLayer
370
18
48
1
60
0
100
AcDbLine
10
0
20
0
30
0
11
-5
21
0
31
0
39
0
210
0
220
0
230
1
0
LINE
5
88
100
AcDbEntity
8
1
62
256
6
ByLayer
370
13
48
1
60
0
100
AcDbLine
10
25.574555
20
0.016125
30
0
11
25.895668
21
-0.174402
31
0
39
0
210
0
220
0
230
1
0
LINE
5
89
100
AcDbEntity
8
1
62
256
6
ByLayer
370
13
48
1
60
0
100
AcDbLine
10
0.791275
20
2.317828
30
0
11
0.791275
21
-2.317828
31
0
39
0
210
0
220
0
230
1
0
LINE
5
8A
100
AcDbEntity
8
1
62
256
6
ByLayer
370
18
48
1
60
0
100
AcDbLine
10
26
20
0
30
0
11
25.997561
21
-0.017023
31
0
39
0
210
0
220
0
230
1
0
LINE
5
8B
100
AcDbEntity
8
1
62
256
6
ByLayer
370
18
48
1
60
0
100
AcDbLine
10
25.997561
20
0.017023
30
0
11
26
21
0
31
0
39
0
210
0
220
0
230
1
0
LINE
5
8C
100
AcDbEntity
8
1
62
256
6
ByLayer
370
13
48
1
60
0
100
AcDbLine
10
25.9194
20
0.351454
30
0
11
25.764462
21
0.351454
31
0
39
0
210
0
220
0
230
1
0
LINE
5
8D
100
AcDbEntity
8
1
62
256
6
ByLayer
370
13
48
1
60
0
100
AcDbLine
10
8.248494
20
1.225474
30
0
11
8.250248
21
1.227391
31
0
39
0
210
0
220
0
230
1
0
LINE
5
8E
100
AcDbEntity
8
1
62
256
6
ByLayer
370
13
48
1
60
0
100
AcDbLine
10
25.764462
20
0.351454
30
0
11
25.939722
21
0.247467
31
0
39
0
210
0
220
0
230
1
0
LINE
5
8F
100
AcDbEntity
8
1
62
256
6
ByLayer
370
13
48
1
60
0
100
AcDbLine
10
1.583031
20
1.635656
30
0
11
1.583031
21
-1.635656
31
0
39
0
210
0
220
0
230
1
0
LINE
5
90
100
AcDbEntity
8
1
62
256
6
ByLayer
370
18
48
1
60
0
100
AcDbLine
10
25.834426
20
-0.237666
30
0
11
25.895668
21
-0.174402
31
0
39
0
210
0
220
0
230
1
0
LINE
5
91
100
AcDbEntity
8
1
62
256
6
ByLayer
370
18
48
1
60
0
100
AcDbLine
10
25.179085
20
-0.914642
30
0
11
25.665921
21
-0.411734
31
0
39
0
210
0
220
0
230
1
0
LINE
5
92
100
AcDbEntity
8
1
62
256
6
ByLayer
370
18
48
1
60
0
100
AcDbLine
10
25.939722
20
-0.247467
30
0
11
25.9194
21
-0.351454
31
0
39
0
210
0
220
0
230
1
0
LINE
5
93
100
AcDbEntity
8
1
62
256
6
ByLayer
370
18
48
1
60
0
100
AcDbLine
10
25.939722
20
0.247467
30
0
11
25.9194
21
0.351454
31
0
39
0
210
0
220
0
230
1
0
LINE
5
94
100
AcDbEntity
8
1
62
256
6
ByLayer
370
18
48
1
60
0
100
AcDbLine
10
26
20
0
30
0
11
25.432583
21
-1.558966
31
0
39
0
210
0
220
0
230
1
0
LINE
5
95
100
AcDbEntity
8
1
62
256
6
ByLayer
370
18
48
1
60
0
100
AcDbLine
10
0
20
-3
30
0
11
0
21
3
31
0
39
0
210
0
220
0
230
1
0
LINE
5
96
100
AcDbEntity
8
SK1
62
256
6
ByLayer
370
18
48
1
60
0
100
AcDbLine
10
-36
20
-0.27984
30
0
11
-36
21
-1.75
31
0
39
0
210
0
220
0
230
1
0
LINE
5
97
100
AcDbEntity
8
SK1
62
256
6
ByLayer
370
18
48
1
60
0
100
AcDbLine
10
-35.278312
20
3
30
0
11
-35.278312
21
-3
31
0
39
0
210
0
220
0
230
1
0
LINE
5
98
100
AcDbEntity
8
SK1
62
256
6
ByLayer
370
18
48
1
60
0
100
AcDbLine
10
-36
20
1.16078
30
0
11
-36
21
0.27984
31
0
39
0
210
0
220
0
230
1
0
LINE
5
99
100
AcDbEntity
8
SK1
62
256
6
ByLayer
370
18
48
1
60
0
100
AcDbLine
10
-36
20
1.75
30
0
11
-36
21
1.16078
31
0
39
0
210
0
220
0
230
1
0
LINE
5
9A
100
AcDbEntity
8
SK1
62
256
6
ByLayer
370
18
48
1
60
0
100
AcDbLine
10
-35.3
20
0.18089
30
0
11
-35.3
21
1.429427
31
0
39
0
210
0
220
0
230
1
0
LINE
5
9B
100
AcDbEntity
8
SK1
62
256
6
ByLayer
370
18
48
1
60
0
100
AcDbLine
10
0
20
-3
30
0
11
0
21
3
31
0
39
0
210
0
220
0
230
1
0
LINE
5
9C
100
AcDbEntity
8
SK1
62
256
6
ByLayer
370
13
48
1
60
0
100
AcDbLine
10
-35.4
20
1.468711
30
0
11
-35.4
21
0.02811
31
0
39
0
210
0
220
0
230
1
0
MTEXT
5
DC
100
AcDbEntity
8
SK6
62
256
6
ByLayer
370
13
48
1
60
0
100
AcDbMText
10
-2.870831
20
34.032694
30
0
210
0
220
0
230
1
1
\W0.7542;R840-0330-30-A1A1220
40
3.5
41
0
44
1.084337
50
0
71
8
72
5
7
iso_b_vert
0
DIMENSION
5
E9
100
AcDbEntity
8
SK2
62
256
6
ByLayer
370
13
48
1
60
0
100
AcDbDimension
2
DimnDraft3D1
10
25.44
20
-11.863398
30
0
11
11.690059
21
-11.863398
31
0
70
32
71
5
72
1
41
1
210
0
220
0
230
1
3
Standard
100
AcDbAlignedDimension
13
0
23
-1.5875
33
0
14
25.44
24
-3.2375
34
0
50
0
100
AcDbRotatedDimension
1001
ACAD
1000
DSTYLE
1002
{
1070
   279
1070
     0
1070
   172
1070
     1
1070
   173
1070
     1
1070
   340
1005
DD
1070
   271
1070
     2
1070
   272
1070
     2
1070
    77
1070
     1
1070
    73
1070
     0
1070
   171
1070
     3
1070
   274
1070
     4
1070
   177
1070
    35
1070
   176
1070
    35
1070
   178
1070
    35
1070
    48
1040
-0.005
1070
    41
1041
3.5
1070
   147
1041
1.75
1070
    42
1041
1.5875
1070
    44
1041
2.0
1070
   140
1041
3.5
1070
   343
1005
0
1070
   344
1005
0
1002
}
0
DIMENSION
5
F3
100
AcDbEntity
8
SK2
62
256
6
ByLayer
370
13
48
1
60
0
100
AcDbDimension
2
DimnDraft3D2
10
26
20
-31.692985
30
0
11
-4.2187
21
-31.692985
31
0
70
32
71
5
72
1
41
1
210
0
220
0
230
1
3
Standard
100
AcDbAlignedDimension
13
-36
23
-4.5875
33
0
14
26
24
-1.5875
34
0
50
0
100
AcDbRotatedDimension
1001
ACAD
1000
DSTYLE
1002
{
1070
   279
1070
     0
1070
   172
1070
     1
1070
   173
1070
     1
1070
   340
1005
DD
1070
   271
1070
     2
1070
   272
1070
     2
1070
    77
1070
     1
1070
    73
1070
     0
1070
   171
1070
     3
1070
   274
1070
     4
1070
   177
1070
    35
1070
   176
1070
    35
1070
   178
1070
    35
1070
    48
1040
-0.005
1070
    41
1041
3.5
1070
   147
1041
1.75
1070
    42
1041
1.5875
1070
    44
1041
2.0
1070
   140
1041
3.5
1070
   343
1005
0
1070
   344
1005
0
1002
}
0
DIMENSION
5
FD
100
AcDbEntity
8
SK2
62
256
6
ByLayer
370
13
48
1
60
0
100
AcDbDimension
2
DimnDraft3D3
10
26
20
13.259119
30
0
11
20.77
21
13.259119
31
0
70
32
71
5
72
1
41
1
210
0
220
0
230
1
3
Standard
100
AcDbAlignedDimension
13
15.54
23
3.2375
33
0
14
26
24
1.5875
34
0
50
0
100
AcDbRotatedDimension
1001
ACAD
1000
DSTYLE
1002
{
1070
   279
1070
     0
1070
   172
1070
     1
1070
   173
1070
     1
1070
   340
1005
DD
1070
   271
1070
     2
1070
   272
1070
     2
1070
    77
1070
     1
1070
    73
1070
     0
1070
   171
1070
     3
1070
   274
1070
     4
1070
   177
1070
    35
1070
   176
1070
    35
1070
   178
1070
    35
1070
    48
1040
-0.005
1070
    41
1041
3.5
1070
   147
1041
1.75
1070
    42
1041
1.5875
1070
    44
1041
2.0
1070
   140
1041
3.5
1070
   343
1005
0
1070
   344
1005
0
1002
}
0
DIMENSION
5
107
100
AcDbEntity
8
SK2
62
256
6
ByLayer
370
13
48
1
60
0
100
AcDbDimension
2
DimnDraft3D4
10
25.44
20
-14.452503
30
0
11
35.981425
21
-14.452503
31
0
70
32
71
5
72
1
41
1
210
0
220
0
230
1
3
Standard
100
AcDbAlignedDimension
13
26
23
-1.5875
33
0
14
25.44
24
-3.2375
34
0
50
0
100
AcDbRotatedDimension
1001
ACAD
1000
DSTYLE
1002
{
1070
   279
1070
     0
1070
   172
1070
     1
1070
   173
1070
     1
1070
   340
1005
DD
1070
   271
1070
     2
1070
   272
1070
     2
1070
    77
1070
     1
1070
    73
1070
     0
1070
   171
1070
     3
1070
   274
1070
     4
1070
   177
1070
    35
1070
   176
1070
    35
1070
   178
1070
    35
1070
    48
1040
-0.005
1070
    41
1041
3.5
1070
   147
1041
1.75
1070
    42
1041
1.5875
1070
    44
1041
2.0
1070
   140
1041
3.5
1070
   343
1005
0
1070
   344
1005
0
1002
}
0
DIMENSION
5
111
100
AcDbEntity
8
SK2
62
256
6
ByLayer
370
13
48
1
60
0
100
AcDbDimension
2
DimnDraft3D5
10
25.44
20
-21.343428
30
0
11
-7.299324
21
-21.343428
31
0
70
32
71
5
72
1
41
1
210
0
220
0
230
1
3
Standard
100
AcDbAlignedDimension
13
-36
23
-4.5875
33
0
14
25.44
24
-3.2375
34
0
50
0
100
AcDbRotatedDimension
1001
ACAD
1000
DSTYLE
1002
{
1070
   279
1070
     0
1070
   172
1070
     1
1070
   173
1070
     1
1070
   340
1005
DD
1070
   271
1070
     2
1070
   272
1070
     2
1070
    77
1070
     1
1070
    73
1070
     0
1070
   171
1070
     3
1070
   274
1070
     4
1070
   177
1070
    35
1070
   176
1070
    35
1070
   178
1070
    35
1070
    48
1040
-0.005
1070
    41
1041
3.5
1070
   147
1041
1.75
1070
    42
1041
1.5875
1070
    44
1041
2.0
1070
   140
1041
3.5
1070
   343
1005
0
1070
   344
1005
0
1002
}
0
DIMENSION
5
11C
100
AcDbEntity
8
SK2
62
256
6
ByLayer
370
13
48
1
60
0
100
AcDbDimension
2
DimnDraft3D6
10
-46.625163
20
3
30
0
11
-47.250163
21
21.47418
31
0
70
33
71
5
72
1
41
1
210
0
220
0
230
1
3
Standard
100
AcDbAlignedDimension
13
-37.5875
23
-3
33
0
14
-37.5875
24
3
34
0
1001
ACAD
1000
DSTYLE
1002
{
1070
   279
1070
     0
1070
    74
1070
     0
1070
   173
1070
     1
1070
   340
1005
DD
1070
   271
1070
     3
1070
   272
1070
     2
1070
    77
1070
     1
1070
    73
1070
     0
1070
   171
1070
     3
1070
   274
1070
     4
1070
   177
1070
    35
1070
   176
1070
    35
1070
   178
1070
    35
1070
    48
1040
-0.005
1070
    41
1041
3.5
1070
   147
1041
1.75
1070
    42
1041
1.5875
1070
    44
1041
2.0
1070
   140
1041
3.5
1070
   343
1005
0
1070
   344
1005
0
1002
}
0
DIMENSION
5
127
100
AcDbEntity
8
2
62
256
6
ByLayer
370
13
48
1
60
0
100
AcDbDimension
2
DimnDraft3D7
10
40.083343
20
1.65
30
0
11
35.458343
21
18.717266
31
0
70
33
71
5
72
1
41
1
210
0
220
0
230
1
3
Standard
100
AcDbAlignedDimension
13
27.0275
23
-1.65
33
0
14
27.0275
24
1.65
34
0
1001
ACAD
1000
DSTYLE
1002
{
1070
   279
1070
     0
1070
    74
1070
     0
1070
   173
1070
     1
1070
   340
1005
DD
1070
   271
1070
     3
1070
   272
1070
     2
1070
    77
1070
     1
1070
    73
1070
     0
1070
   171
1070
     3
1070
   274
1070
     4
1070
   177
1070
    35
1070
   176
1070
    35
1070
   178
1070
    35
1070
    48
1040
-0.005
1070
    41
1041
3.5
1070
   147
1041
1.75
1070
    42
1041
1.5875
1070
    44
1041
2.0
1070
   140
1041
3.5
1070
   343
1005
0
1070
   344
1005
0
1002
}
0
ENDSEC
0
SECTION
2
OBJECTS
0
DICTIONARY
5
192
330
0
100
AcDbDictionary
280
0
281
1
3
ACAD_GROUP
350
193
3
ACAD_MLINESTYLE
350
194
0
DICTIONARY
5
193
330
0
100
AcDbDictionary
280
0
281
1
0
DICTIONARY
5
194
330
0
100
AcDbDictionary
280
0
281
1
3
Standard
350
18
0
MLINESTYLE
5
18
330
194
100
AcDbMlineStyle
2
Standard
70
0
3

62
256
51
90
52
90
71
2
49
-0.5
62
256
6
ByLayer
49
0.5
62
256
6
ByLayer
0
RASTERVARIABLES
5
180
330

100
AcDbRasterVariables
90
0
70
1
71
1
72
1
0
ENDSEC
0
EOF
