0
SECTION
2
HEADER
9
$ACADVER
1
AC1015
9
$DWGCODEPAGE
3
ANSI_1252
9
$HANDSEED
5
1ac
9
$ANGBASE
50
0
9
$ANGDIR
70
0
9
$ATTMODE
70
1
9
$AUNITS
70
0
9
$AUPREC
70
0
9
$CECOLOR
62
256
9
$CELTSCALE
40
1
9
$CELTYPE
6
ByLayer
9
$CELWEIGHT
370
18
9
$CLAYER
8
0
9
$CMLJUST
70
0
9
$CMLSCALE
40
1
9
$CMLSTYLE
2
Standard
9
$DIMSTYLE
2
Standard
9
$TEXTSIZE
40
0.2
9
$TEXTSTYLE
7
Standard
9
$LUNITS
70
2
9
$LUPREC
70
4
9
$EXTNAMES
290
1
9
$INSUNITS
70
4
9
$LTSCALE
40
1
9
$LWDISPLAY
290
1
9
$PDMODE
70
0
9
$PDSIZE
40
0
9
$PLINEGEN
70
0
0
ENDSEC
0
SECTION
2
CLASSES
0
CLASS
1
RASTERVARIABLES
2
AcDbRasterVariables
3
ISM
90
0
280
0
281
0
0
ENDSEC
0
SECTION
2
TABLES
0
TABLE
2
VPORT
5
1a2
100
AcDbSymbolTable
0
VPORT
5
1
100
AcDbSymbolTableRecord
100
AcDbViewportTableRecord
2
*Active
70
0
10
0
20
0
11
1
21
1
12
-1
22
1
13
0
23
0
14
0.5
24
0.5
15
10
25
10
16
0
26
0
36
1
17
0
27
0
37
0
0
ENDTAB
0
TABLE
2
LTYPE
5
1a3
100
AcDbSymbolTable
0
LTYPE
5
14
100
AcDbSymbolTableRecord
100
AcDbLinetypeTableRecord
70
0
2
ByBlock
3

72
65
73
0
40
0
0
LTYPE
5
15
100
AcDbSymbolTableRecord
100
AcDbLinetypeTableRecord
70
0
2
ByLayer
3

72
65
73
0
40
0
0
LTYPE
5
16
100
AcDbSymbolTableRecord
100
AcDbLinetypeTableRecord
70
0
2
CONTINUOUS
3
Solid line
72
65
73
0
40
0
0
LTYPE
5
6A
100
AcDbSymbolTableRecord
100
AcDbLinetypeTableRecord
70
0
2
CENTER
3
____ _ ____ _ ____ _ ____
72
65
73
4
40
47.5
49
22
74
0
49
-8.5
74
0
49
8.5
74
0
49
-8.5
74
0
0
LTYPE
5
6B
100
AcDbSymbolTableRecord
100
AcDbLinetypeTableRecord
70
0
2
DASHED
3
__ __ __ __ __ __ __ __ __
72
65
73
2
40
25.72
49
12.86
74
0
49
-12.86
74
0
0
ENDTAB
0
TABLE
2
LAYER
5
1a4
100
AcDbSymbolTable
0
LAYER
5
10
100
AcDbSymbolTableRecord
100
AcDbLayerTableRecord
2
0
70
0
62
7
6
CONTINUOUS
290
1
370
-3
390
0
0
LAYER
5
6D
100
AcDbSymbolTableRecord
100
AcDbLayerTableRecord
2
81
70
0
62
-3
6
CONTINUOUS
290
1
370
-3
390
0
0
LAYER
5
6F
100
AcDbSymbolTableRecord
100
AcDbLayerTableRecord
2
80
70
0
62
-6
6
CONTINUOUS
290
1
370
-3
390
0
0
LAYER
5
74
100
AcDbSymbolTableRecord
100
AcDbLayerTableRecord
2
2
70
0
62
7
6
CONTINUOUS
290
1
370
-3
390
0
0
LAYER
5
78
100
AcDbSymbolTableRecord
100
AcDbLayerTableRecord
2
1
70
0
62
4
6
CONTINUOUS
290
1
370
-3
390
0
0
LAYER
5
8A
100
AcDbSymbolTableRecord
100
AcDbLayerTableRecord
2
4
70
0
62
-2
6
CENTER
290
1
370
-3
390
0
0
LAYER
5
18e
100
AcDbSymbolTableRecord
100
AcDbLayerTableRecord
2
SK2
70
0
62
7
6
CONTINUOUS
290
1
370
-3
390
0
0
LAYER
5
18f
100
AcDbSymbolTableRecord
100
AcDbLayerTableRecord
2
SK1
70
0
62
4
6
CONTINUOUS
290
1
370
-3
390
0
0
LAYER
5
190
100
AcDbSymbolTableRecord
100
AcDbLayerTableRecord
2
SK4
70
0
62
2
6
CENTER
290
1
370
-3
390
0
0
LAYER
5
191
100
AcDbSymbolTableRecord
100
AcDbLayerTableRecord
2
SK6
70
0
62
5
6
CONTINUOUS
290
1
370
-3
390
0
0
ENDTAB
0
TABLE
2
STYLE
5
1a5
100
AcDbSymbolTable
0
STYLE
5
11
100
AcDbSymbolTableRecord
100
AcDbTextStyleTableRecord
2
Standard
3
txt
70
0
71
0
40
0
41
1
42
0
50
0
0
STYLE
5
EA
100
AcDbSymbolTableRecord
100
AcDbTextStyleTableRecord
2
iso_b_vert
3
simplex.shx
70
0
71
0
40
0
41
1
42
0
50
0
0
STYLE
5
EB
100
AcDbSymbolTableRecord
100
AcDbTextStyleTableRecord
2
DWGDirectTextStyle
3
simplex
70
0
71
0
40
0
41
1
42
0
50
0
0
ENDTAB
0
TABLE
2
DIMSTYLE
5
1a6
100
AcDbSymbolTable
100
AcDbDimStyleTable
0
DIMSTYLE
105
27
100
AcDbSymbolTableRecord
100
AcDbDimStyleTableRecord
2
Standard
70
0
3
<>
41
0.18
42
0.0625
44
0.18
140
0.18
147
0.09
73
0
74
0
77
1
271
2
275
0
278
52
280
0
340
11
0
ENDTAB
0
TABLE
2
VIEW
5
1a7
100
AcDbSymbolTable
0
ENDTAB
0
TABLE
2
UCS
5
1a8
100
AcDbSymbolTable
0
ENDTAB
0
TABLE
2
APPID
5
1a9
100
AcDbSymbolTable
0
APPID
5
12
100
AcDbSymbolTableRecord
100
AcDbRegAppTableRecord
2
ACAD
70
0
0
ENDTAB
0
TABLE
2
BLOCK_RECORD
5
1aa
100
AcDbSymbolTable
0
BLOCK_RECORD
5
1F
100
AcDbSymbolTableRecord
100
AcDbBlockTableRecord
2
*Model_Space
340
0
70
0
0
BLOCK_RECORD
5
1B
100
AcDbSymbolTableRecord
100
AcDbBlockTableRecord
2
*Paper_Space
340
0
70
0
0
BLOCK_RECORD
5
23
100
AcDbSymbolTableRecord
100
AcDbBlockTableRecord
2
*Paper_Space0
340
0
70
0
0
BLOCK_RECORD
5
ED
100
AcDbSymbolTableRecord
100
AcDbBlockTableRecord
2
DimnDraft3D1
340
0
70
0
0
BLOCK_RECORD
5
F7
100
AcDbSymbolTableRecord
100
AcDbBlockTableRecord
2
DimnDraft3D2
340
0
70
0
0
BLOCK_RECORD
5
101
100
AcDbSymbolTableRecord
100
AcDbBlockTableRecord
2
DimnDraft3D3
340
0
70
0
0
BLOCK_RECORD
5
10B
100
AcDbSymbolTableRecord
100
AcDbBlockTableRecord
2
DimnDraft3D4
340
0
70
0
0
BLOCK_RECORD
5
115
100
AcDbSymbolTableRecord
100
AcDbBlockTableRecord
2
DimnDraft3D5
340
0
70
0
0
BLOCK_RECORD
5
11F
100
AcDbSymbolTableRecord
100
AcDbBlockTableRecord
2
DimnDraft3D6
340
0
70
0
0
BLOCK_RECORD
5
12A
100
AcDbSymbolTableRecord
100
AcDbBlockTableRecord
2
DimnDraft3D7
340
0
70
0
0
ENDTAB
0
ENDSEC
0
SECTION
2
BLOCKS
0
BLOCK
5
20
100
AcDbEntity
8
0
100
AcDbBlockBegin
2
*Model_Space
70
0
10
0
20
0
30
0
3
*Model_Space
0
ENDBLK
5
21
100
AcDbEntity
8
0
100
AcDbBlockEnd
0
BLOCK
5
1C
100
AcDbEntity
8
0
100
AcDbBlockBegin
2
*Paper_Space
70
0
10
0
20
0
30
0
3
*Paper_Space
0
ENDBLK
5
1D
100
AcDbEntity
8
0
100
AcDbBlockEnd
0
BLOCK
5
24
100
AcDbEntity
8
0
100
AcDbBlockBegin
2
*Paper_Space0
70
0
10
0
20
0
30
0
3
*Paper_Space0
0
ENDBLK
5
25
100
AcDbEntity
8
0
100
AcDbBlockEnd
0
BLOCK
5
F4
100
AcDbEntity
8
0
100
AcDbBlockBegin
2
DimnDraft3D1
70
0
10
0
20
0
30
0
3
DimnDraft3D1
0
MTEXT
5
EE
100
AcDbEntity
8
SK2
62
256
6
ByLayer
370
13
48
1
60
0
100
AcDbMText
10
9.087164
20
-10.923398
30
0
210
0
220
0
230
1
1
\W0.7581;29,47
40
3.5
41
0
44
1.084337
50
0
71
7
72
5
7
iso_b_vert
0
LINE
5
EF
100
AcDbEntity
8
SK2
62
256
6
ByLayer
370
13
48
1
60
0
100
AcDbLine
10
0
20
-1.5875
30
0
11
0
21
-13.798398
31
0
39
0
210
0
220
0
230
1
0
LINE
5
F0
100
AcDbEntity
8
SK2
62
256
6
ByLayer
370
13
48
1
60
0
100
AcDbLine
10
29.47
20
-3.1725
30
0
11
29.47
21
-13.798398
31
0
39
0
210
0
220
0
230
1
0
LINE
5
F1
100
AcDbEntity
8
SK2
62
256
6
ByLayer
370
13
48
1
60
0
100
AcDbLine
10
0
20
-11.798398
30
0
11
29.47
21
-11.798398
31
0
39
0
210
0
220
0
230
1
0
SOLID
5
F2
100
AcDbEntity
8
SK2
62
256
6
ByLayer
370
13
48
1
60
0
100
AcDbTrace
10
0
20
-11.798398
30
0
11
3.499998
21
-11.337615
31
0
12
3.500002
22
-12.259182
32
0
13
0
23
-11.798398
33
0
39
0
210
0
220
0
230
1
0
SOLID
5
F3
100
AcDbEntity
8
SK2
62
256
6
ByLayer
370
13
48
1
60
0
100
AcDbTrace
10
29.47
20
-11.798398
30
0
11
25.970002
21
-12.259182
31
0
12
25.969998
22
-11.337615
32
0
13
29.47
23
-11.798398
33
0
39
0
210
0
220
0
230
1
0
ENDBLK
5
F5
100
AcDbEntity
8
0
100
AcDbBlockEnd
0
BLOCK
5
FE
100
AcDbEntity
8
0
100
AcDbBlockBegin
2
DimnDraft3D2
70
0
10
0
20
0
30
0
3
DimnDraft3D2
0
MTEXT
5
F8
100
AcDbEntity
8
SK2
62
256
6
ByLayer
370
13
48
1
60
0
100
AcDbMText
10
-6.637384
20
-30.817985
30
0
210
0
220
0
230
1
1
\W0.7317;66,00
40
3.5
41
0
44
1.084337
50
0
71
7
72
5
7
iso_b_vert
0
LINE
5
F9
100
AcDbEntity
8
SK2
62
256
6
ByLayer
370
13
48
1
60
0
100
AcDbLine
10
-36
20
-4.5875
30
0
11
-36
21
-33.692985
31
0
39
0
210
0
220
0
230
1
0
LINE
5
FA
100
AcDbEntity
8
SK2
62
256
6
ByLayer
370
13
48
1
60
0
100
AcDbLine
10
30
20
-1.5875
30
0
11
30
21
-33.692985
31
0
39
0
210
0
220
0
230
1
0
LINE
5
FB
100
AcDbEntity
8
SK2
62
256
6
ByLayer
370
13
48
1
60
0
100
AcDbLine
10
-36
20
-31.692985
30
0
11
30
21
-31.692985
31
0
39
0
210
0
220
0
230
1
0
SOLID
5
FC
100
AcDbEntity
8
SK2
62
256
6
ByLayer
370
13
48
1
60
0
100
AcDbTrace
10
-36
20
-31.692985
30
0
11
-32.500002
21
-31.232202
31
0
12
-32.499998
22
-32.153769
32
0
13
-36
23
-31.692985
33
0
39
0
210
0
220
0
230
1
0
SOLID
5
FD
100
AcDbEntity
8
SK2
62
256
6
ByLayer
370
13
48
1
60
0
100
AcDbTrace
10
30
20
-31.692985
30
0
11
26.500002
21
-32.153769
31
0
12
26.499998
22
-31.232202
32
0
13
30
23
-31.692985
33
0
39
0
210
0
220
0
230
1
0
ENDBLK
5
FF
100
AcDbEntity
8
0
100
AcDbBlockEnd
0
BLOCK
5
108
100
AcDbEntity
8
0
100
AcDbBlockBegin
2
DimnDraft3D3
70
0
10
0
20
0
30
0
3
DimnDraft3D3
0
MTEXT
5
102
100
AcDbEntity
8
SK2
62
256
6
ByLayer
370
13
48
1
60
0
100
AcDbMText
10
17.798816
20
14.069119
30
0
210
0
220
0
230
1
1
\W0.6713;16,38
40
3.5
41
0
44
1.084337
50
0
71
7
72
5
7
iso_b_vert
0
LINE
5
103
100
AcDbEntity
8
SK2
62
256
6
ByLayer
370
13
48
1
60
0
100
AcDbLine
10
13.62
20
3.1725
30
0
11
13.62
21
15.194119
31
0
39
0
210
0
220
0
230
1
0
LINE
5
104
100
AcDbEntity
8
SK2
62
256
6
ByLayer
370
13
48
1
60
0
100
AcDbLine
10
30
20
1.5875
30
0
11
30
21
15.194119
31
0
39
0
210
0
220
0
230
1
0
LINE
5
105
100
AcDbEntity
8
SK2
62
256
6
ByLayer
370
13
48
1
60
0
100
AcDbLine
10
13.62
20
13.194119
30
0
11
30
21
13.194119
31
0
39
0
210
0
220
0
230
1
0
SOLID
5
106
100
AcDbEntity
8
SK2
62
256
6
ByLayer
370
13
48
1
60
0
100
AcDbTrace
10
13.62
20
13.194119
30
0
11
17.119998
21
13.654903
31
0
12
17.120002
22
12.733335
32
0
13
13.62
23
13.194119
33
0
39
0
210
0
220
0
230
1
0
SOLID
5
107
100
AcDbEntity
8
SK2
62
256
6
ByLayer
370
13
48
1
60
0
100
AcDbTrace
10
30
20
13.194119
30
0
11
26.500002
21
12.733335
31
0
12
26.499998
22
13.654903
32
0
13
30
23
13.194119
33
0
39
0
210
0
220
0
230
1
0
ENDBLK
5
109
100
AcDbEntity
8
0
100
AcDbBlockEnd
0
BLOCK
5
112
100
AcDbEntity
8
0
100
AcDbBlockBegin
2
DimnDraft3D4
70
0
10
0
20
0
30
0
3
DimnDraft3D4
0
MTEXT
5
10C
100
AcDbEntity
8
SK2
62
256
6
ByLayer
370
13
48
1
60
0
100
AcDbMText
10
36.840636
20
-13.512503
30
0
210
0
220
0
230
1
1
\W0.7150;0,53
40
3.5
41
0
44
1.084337
50
0
71
7
72
5
7
iso_b_vert
0
LINE
5
10D
100
AcDbEntity
8
SK2
62
256
6
ByLayer
370
13
48
1
60
0
100
AcDbLine
10
30
20
-1.5875
30
0
11
30
21
-16.387503
31
0
39
0
210
0
220
0
230
1
0
LINE
5
10E
100
AcDbEntity
8
SK2
62
256
6
ByLayer
370
13
48
1
60
0
100
AcDbLine
10
29.47
20
-3.1725
30
0
11
29.47
21
-16.387503
31
0
39
0
210
0
220
0
230
1
0
LINE
5
10F
100
AcDbEntity
8
SK2
62
256
6
ByLayer
370
13
48
1
60
0
100
AcDbLine
10
20.72
20
-14.387503
30
0
11
43.997215
21
-14.387503
31
0
39
0
210
0
220
0
230
1
0
SOLID
5
110
100
AcDbEntity
8
SK2
62
256
6
ByLayer
370
13
48
1
60
0
100
AcDbTrace
10
30
20
-14.387503
30
0
11
33.499998
21
-13.926719
31
0
12
33.500002
22
-14.848287
32
0
13
30
23
-14.387503
33
0
39
0
210
0
220
0
230
1
0
SOLID
5
111
100
AcDbEntity
8
SK2
62
256
6
ByLayer
370
13
48
1
60
0
100
AcDbTrace
10
29.47
20
-14.387503
30
0
11
25.970002
21
-14.848287
31
0
12
25.969998
22
-13.926719
32
0
13
29.47
23
-14.387503
33
0
39
0
210
0
220
0
230
1
0
ENDBLK
5
113
100
AcDbEntity
8
0
100
AcDbBlockEnd
0
BLOCK
5
11C
100
AcDbEntity
8
0
100
AcDbBlockBegin
2
DimnDraft3D5
70
0
10
0
20
0
30
0
3
DimnDraft3D5
0
MTEXT
5
116
100
AcDbEntity
8
SK2
62
256
6
ByLayer
370
13
48
1
60
0
100
AcDbMText
10
-9.902218
20
-20.468428
30
0
210
0
220
0
230
1
1
\W0.7581;65,47
40
3.5
41
0
44
1.084337
50
0
71
7
72
5
7
iso_b_vert
0
LINE
5
117
100
AcDbEntity
8
SK2
62
256
6
ByLayer
370
13
48
1
60
0
100
AcDbLine
10
-36
20
-4.5875
30
0
11
-36
21
-23.343428
31
0
39
0
210
0
220
0
230
1
0
LINE
5
118
100
AcDbEntity
8
SK2
62
256
6
ByLayer
370
13
48
1
60
0
100
AcDbLine
10
29.47
20
-3.1725
30
0
11
29.47
21
-23.343428
31
0
39
0
210
0
220
0
230
1
0
LINE
5
119
100
AcDbEntity
8
SK2
62
256
6
ByLayer
370
13
48
1
60
0
100
AcDbLine
10
-36
20
-21.343428
30
0
11
29.47
21
-21.343428
31
0
39
0
210
0
220
0
230
1
0
SOLID
5
11A
100
AcDbEntity
8
SK2
62
256
6
ByLayer
370
13
48
1
60
0
100
AcDbTrace
10
-36
20
-21.343428
30
0
11
-32.500002
21
-20.882645
31
0
12
-32.499998
22
-21.804212
32
0
13
-36
23
-21.343428
33
0
39
0
210
0
220
0
230
1
0
SOLID
5
11B
100
AcDbEntity
8
SK2
62
256
6
ByLayer
370
13
48
1
60
0
100
AcDbTrace
10
29.47
20
-21.343428
30
0
11
25.970002
21
-21.804212
31
0
12
25.969998
22
-20.882645
32
0
13
29.47
23
-21.343428
33
0
39
0
210
0
220
0
230
1
0
ENDBLK
5
11D
100
AcDbEntity
8
0
100
AcDbBlockEnd
0
BLOCK
5
127
100
AcDbEntity
8
0
100
AcDbBlockBegin
2
DimnDraft3D6
70
0
10
0
20
0
30
0
3
DimnDraft3D6
0
MTEXT
5
120
100
AcDbEntity
8
SK2
62
256
6
ByLayer
370
13
48
1
60
0
100
AcDbMText
10
-46.375163
20
22.34918
30
0
210
0
220
0
230
1
1
\W0.7317;6,000
40
3.5
41
0
44
1.084337
50
90
71
7
72
5
7
iso_b_vert
0
MTEXT
5
121
100
AcDbEntity
8
SK2
62
256
6
ByLayer
370
13
48
1
60
0
100
AcDbMText
10
-46.375163
20
17.126524
30
0
210
0
220
0
230
1
1
%%c
40
3.5
41
0
44
1.084337
50
90
71
7
72
5
7
iso_b_vert
0
LINE
5
122
100
AcDbEntity
8
SK2
62
256
6
ByLayer
370
13
48
1
60
0
100
AcDbLine
10
-37.5875
20
-3
30
0
11
-46.625163
21
-3
31
0
39
0
210
0
220
0
230
1
0
LINE
5
123
100
AcDbEntity
8
SK2
62
256
6
ByLayer
370
13
48
1
60
0
100
AcDbLine
10
-37.5875
20
3
30
0
11
-46.625163
21
3
31
0
39
0
210
0
220
0
230
1
0
LINE
5
124
100
AcDbEntity
8
SK2
62
256
6
ByLayer
370
13
48
1
60
0
100
AcDbLine
10
-44.625163
20
32.121549
30
0
11
-44.625163
21
-11.75
31
0
39
0
210
0
220
0
230
1
0
SOLID
5
125
100
AcDbEntity
8
SK2
62
256
6
ByLayer
370
13
48
1
60
0
100
AcDbTrace
10
-44.625163
20
-3
30
0
11
-44.164379
21
-6.499998
31
0
12
-45.085946
22
-6.500002
32
0
13
-44.625163
23
-3
33
0
39
0
210
0
220
0
230
1
0
SOLID
5
126
100
AcDbEntity
8
SK2
62
256
6
ByLayer
370
13
48
1
60
0
100
AcDbTrace
10
-44.625163
20
3
30
0
11
-45.085946
21
6.499998
31
0
12
-44.164379
22
6.500002
32
0
13
-44.625163
23
3
33
0
39
0
210
0
220
0
230
1
0
ENDBLK
5
128
100
AcDbEntity
8
0
100
AcDbBlockEnd
0
BLOCK
5
132
100
AcDbEntity
8
0
100
AcDbBlockBegin
2
DimnDraft3D7
70
0
10
0
20
0
30
0
3
DimnDraft3D7
0
MTEXT
5
12B
100
AcDbEntity
8
2
62
256
6
ByLayer
370
13
48
1
60
0
100
AcDbMText
10
40.333343
20
19.527266
30
0
210
0
220
0
230
1
1
\W0.6713;3,170
40
3.5
41
0
44
1.084337
50
90
71
7
72
5
7
iso_b_vert
0
MTEXT
5
12C
100
AcDbEntity
8
2
62
256
6
ByLayer
370
13
48
1
60
0
100
AcDbMText
10
40.333343
20
14.30461
30
0
210
0
220
0
230
1
1
%%c
40
3.5
41
0
44
1.084337
50
90
71
7
72
5
7
iso_b_vert
0
LINE
5
12D
100
AcDbEntity
8
2
62
256
6
ByLayer
370
13
48
1
60
0
100
AcDbLine
10
31.0575
20
-1.585
30
0
11
44.083343
21
-1.585
31
0
39
0
210
0
220
0
230
1
0
LINE
5
12E
100
AcDbEntity
8
2
62
256
6
ByLayer
370
13
48
1
60
0
100
AcDbLine
10
31.0575
20
1.585
30
0
11
44.083343
21
1.585
31
0
39
0
210
0
220
0
230
1
0
LINE
5
12F
100
AcDbEntity
8
2
62
256
6
ByLayer
370
13
48
1
60
0
100
AcDbLine
10
42.083343
20
28.424635
30
0
11
42.083343
21
-10.335
31
0
39
0
210
0
220
0
230
1
0
SOLID
5
130
100
AcDbEntity
8
2
62
256
6
ByLayer
370
13
48
1
60
0
100
AcDbTrace
10
42.083343
20
-1.585
30
0
11
42.544126
21
-5.084998
31
0
12
41.622559
22
-5.085002
32
0
13
42.083343
23
-1.585
33
0
39
0
210
0
220
0
230
1
0
SOLID
5
131
100
AcDbEntity
8
2
62
256
6
ByLayer
370
13
48
1
60
0
100
AcDbTrace
10
42.083343
20
1.585
30
0
11
41.622559
21
5.084998
31
0
12
42.544126
22
5.085002
32
0
13
42.083343
23
1.585
33
0
39
0
210
0
220
0
230
1
0
ENDBLK
5
133
100
AcDbEntity
8
0
100
AcDbBlockEnd
0
ENDSEC
0
SECTION
2
ENTITIES
0
ARC
5
A0
100
AcDbEntity
8
1
62
256
6
ByLayer
370
18
48
1
60
0
100
AcDbCircle
39
0
10
0
20
2.2
30
0
40
0.800000000000003
210
0
220
0
230
1
100
AcDbArc
50
6.036139
51
90
0
ARC
5
A1
100
AcDbEntity
8
1
62
256
6
ByLayer
370
18
48
1
60
0
100
AcDbCircle
39
0
10
-1.591129
20
2.368249
30
0
40
0.800000000000003
210
0
220
0
230
-1
100
AcDbArc
50
269.965623
51
353.963861
0
ARC
5
A2
100
AcDbEntity
8
1
62
256
6
ByLayer
370
18
48
1
60
0
100
AcDbCircle
39
0
10
-1.591129
20
-2.368249
30
0
40
0.800000000000003
210
0
220
0
230
-1
100
AcDbArc
50
6.036139
51
90.034377
0
ARC
5
A3
100
AcDbEntity
8
1
62
256
6
ByLayer
370
18
48
1
60
0
100
AcDbCircle
39
0
10
0
20
-2.2
30
0
40
0.800000000000003
210
0
220
0
230
1
100
AcDbArc
50
270
51
353.963861
0
ELLIPSE
5
A4
100
AcDbEntity
8
1
62
256
6
ByLayer
370
18
48
1
60
0
100
AcDbEllipse
10
30.000153
20
0.000346
30
0
11
0.590895403636934
21
1.58286779257091
31
0
210
0
220
0
230
-1
40
0.148387
41
2.83043962070919
42
2.97893947023057
0
ELLIPSE
5
A5
100
AcDbEntity
8
1
62
256
6
ByLayer
370
18
48
1
60
0
100
AcDbEllipse
10
30.067704
20
-0.041514
30
0
11
0.133321008178149
21
-0.425213611773428
31
0
210
0
220
0
230
-1
40
0.112798
41
1.74257429454856
42
2.34950393579083
0
ELLIPSE
5
A6
100
AcDbEntity
8
1
62
256
6
ByLayer
370
18
48
1
60
0
100
AcDbEllipse
10
29.861166
20
0.081032
30
0
11
0.0727819104923336
21
0.301917195717179
31
0
210
0
220
0
230
-1
40
0.478434
41
1.67042743921021
42
2.45976119973265
0
ELLIPSE
5
A7
100
AcDbEntity
8
1
62
256
6
ByLayer
370
18
48
1
60
0
100
AcDbEllipse
10
29.663856
20
-0.847128
30
0
11
0.248129971978563
21
0.664680994396212
31
0
210
0
220
0
230
-1
40
0.148387
41
0.730060677418246
42
1.4535108249452
0
ELLIPSE
5
A8
100
AcDbEntity
8
1
62
256
6
ByLayer
370
13
48
1
60
0
100
AcDbEllipse
10
29.795868
20
0.723931
30
0
11
1.10848315799468
21
-0.763222175536676
31
0
210
0
220
0
230
-1
40
0.533762
41
1.44484622733654
42
1.71008152073816
0
ELLIPSE
5
A9
100
AcDbEntity
8
1
62
256
6
ByLayer
370
13
48
1
60
0
100
AcDbEllipse
10
29.720868
20
0.164275
30
0
11
0.153082081612419
21
0.258003636193773
31
0
210
0
220
0
230
1
40
0.454519
41
0.917105603404808
42
2.31336900500028
0
ELLIPSE
5
AA
100
AcDbEntity
8
1
62
256
6
ByLayer
370
13
48
1
60
0
100
AcDbEllipse
10
29.985775
20
0.847128
30
0
11
1.16584580758725
21
-0.438640759763599
31
0
210
0
220
0
230
-1
40
0.429517
41
1.6368169593161
42
1.8979439765804
0
ELLIPSE
5
AB
100
AcDbEntity
8
1
62
256
6
ByLayer
370
13
48
1
60
0
100
AcDbEllipse
10
4.250208
20
-1.534307
30
0
11
0.0147183048653128
21
0.0989109271106672
31
0
210
0
220
0
230
1
40
0.503553
41
0.284660966603741
42
1.71440447630295
0
ELLIPSE
5
AC
100
AcDbEntity
8
1
62
256
6
ByLayer
370
18
48
1
60
0
100
AcDbEllipse
10
30.000153
20
-0.000346
30
0
11
0.590895403387128
21
-1.58286779181208
31
0
210
0
220
0
230
-1
40
0.148387
41
-2.97893947019088
42
-2.83043962063333
0
ELLIPSE
5
AD
100
AcDbEntity
8
1
62
256
6
ByLayer
370
18
48
1
60
0
100
AcDbEllipse
10
29.663856
20
0.847128
30
0
11
0.248129971981155
21
-0.664680994401302
31
0
210
0
220
0
230
-1
40
0.148387
41
-1.45351082493959
42
-0.730060677417541
0
ELLIPSE
5
AE
100
AcDbEntity
8
1
62
256
6
ByLayer
370
18
48
1
60
0
100
AcDbEllipse
10
30.067704
20
0.041514
30
0
11
0.133321008182496
21
0.425213611783996
31
0
210
0
220
0
230
-1
40
0.112798
41
-2.34950393579491
42
-1.74257429456578
0
ELLIPSE
5
AF
100
AcDbEntity
8
1
62
256
6
ByLayer
370
13
48
1
60
0
100
AcDbEllipse
10
4.171355
20
-1.543734
30
0
11
0.039837219621513
21
-0.0917223851239562
31
0
210
0
220
0
230
1
40
0.555744
41
-2.86008897664488
42
-1.97336596782089
0
POINT
5
6C
100
AcDbEntity
8
81
62
256
6
ByLayer
370
18
48
1
60
0
100
AcDbPoint
10
30
20
0
30
0
39
0
210
0
220
0
230
1
50
360
0
POINT
5
6E
100
AcDbEntity
8
80
62
256
6
ByLayer
370
18
48
1
60
0
100
AcDbPoint
10
0
20
0
30
0
39
0
210
0
220
0
230
1
50
360
0
POINT
5
70
100
AcDbEntity
8
SK2
62
256
6
ByLayer
370
18
48
1
60
1
100
AcDbPoint
10
-36
20
-3
30
0
39
0
210
0
220
0
230
1
50
360
0
POINT
5
72
100
AcDbEntity
8
SK2
62
256
6
ByLayer
370
18
48
1
60
1
100
AcDbPoint
10
-36
20
3
30
0
39
0
210
0
220
0
230
1
50
360
0
POINT
5
73
100
AcDbEntity
8
2
62
256
6
ByLayer
370
18
48
1
60
1
100
AcDbPoint
10
29.47
20
-1.585
30
0
39
0
210
0
220
0
230
1
50
360
0
POINT
5
75
100
AcDbEntity
8
2
62
256
6
ByLayer
370
18
48
1
60
1
100
AcDbPoint
10
29.47
20
1.585
30
0
39
0
210
0
220
0
230
1
50
360
0
SPLINE
5
B0
100
AcDbEntity
8
1
62
256
6
ByLayer
370
18
48
1
60
0
100
AcDbSpline
70
4
71
3
72
17
73
13
40
0
40
0
40
0
40
0
40
0.163334329112195
40
0.274860992518162
40
0.344330291721251
40
0.412289031700014
40
0.4835708264647
40
0.581887175305887
40
0.718773788998312
40
0.853692400487331
40
0.995316005159977
40
1
40
1
40
1
40
1
41
1
10
8.77087875212604
20
1.48453718016782
30
0
41
1
10
8.59067557412806
20
1.48446034213703
30
0
41
1
10
8.28742670307622
20
1.48443747444719
30
0
41
1
10
7.9075327927946
20
1.48254432718699
30
0
41
1
10
7.63286354275564
20
1.48373342179101
30
0
41
1
10
7.40259855883983
20
1.48447375486248
30
0
41
1
10
7.14049870579333
20
1.48453614399361
30
0
41
1
10
6.80237638705191
20
1.48208555128193
30
0
41
1
10
6.39401253298306
20
1.48204641115365
30
0
41
1
10
5.93787775927663
20
1.48347052959974
30
0
41
1
10
5.62760705547601
20
1.48252622198427
30
0
41
1
10
5.46619930861152
20
1.48226733008337
30
0
41
1
10
5.46103189738852
20
1.482259273913
30
0
0
SPLINE
5
B1
100
AcDbEntity
8
1
62
256
6
ByLayer
370
18
48
1
60
0
100
AcDbSpline
70
4
71
3
72
16
73
12
40
0
40
0
40
0
40
0
40
0.144178080634333
40
0.236774912130439
40
0.334624445128864
40
0.477920456929136
40
0.623261491853828
40
0.727781947227101
40
0.790383491113957
40
0.88114597859785
40
1
40
1
40
1
40
1
41
1
10
13.0263579319772
20
-1.4867650553883
30
0
41
1
10
13.2139715049515
20
-1.48655657935396
30
0
41
1
10
13.5220879224567
20
-1.48636659420907
30
0
41
1
10
13.9575589680275
20
-1.48843803971511
30
0
41
1
10
14.391902349566
20
-1.48671327898631
30
0
41
1
10
14.8948726255722
20
-1.48903838079625
30
0
41
1
10
15.406538062616
20
-1.48753149678126
30
0
41
1
10
15.8131841478317
20
-1.48964348413421
30
0
41
1
10
16.1487864779672
20
-1.48772455861518
30
0
41
1
10
16.5030563754049
20
-1.48792375709593
30
0
41
1
10
16.7758383656875
20
-1.48916162756052
30
0
41
1
10
16.9305052997385
20
-1.49033427913653
30
0
0
SPLINE
5
B2
100
AcDbEntity
8
1
62
256
6
ByLayer
370
18
48
1
60
0
100
AcDbSpline
70
4
71
3
72
10
73
6
40
0
40
0
40
0
40
0
40
0.406979455108909
40
0.777533418292385
40
1
40
1
40
1
40
1
41
1
10
4.77089780720934
20
-0.054473916098317
30
0
41
1
10
4.7664085454544
20
-0.0532520934683873
30
0
41
1
10
4.75719514132805
20
-0.0502923961020656
30
0
41
1
10
4.74420510305686
20
-0.0452354043099206
30
0
41
1
10
4.73539188356764
20
-0.0412698112414773
30
0
41
1
10
4.73195436912783
20
-0.0396629104205317
30
0
0
SPLINE
5
B3
100
AcDbEntity
8
1
62
256
6
ByLayer
370
18
48
1
60
0
100
AcDbSpline
70
4
71
3
72
8
73
4
40
0
40
0
40
0
40
0
40
1
40
1
40
1
40
1
41
1
10
25.5561460791195
20
-0.474606258894937
30
0
41
1
10
25.5690072215132
20
-0.48229037448823
30
0
41
1
10
25.5831381830278
20
-0.490780932400639
30
0
41
1
10
25.5987931490038
20
-0.500185529925119
30
0
0
SPLINE
5
B4
100
AcDbEntity
8
1
62
256
6
ByLayer
370
18
48
1
60
0
100
AcDbSpline
70
4
71
3
72
10
73
6
40
0
40
0
40
0
40
0
40
0.0464660570967761
40
0.387250564379967
40
1
40
1
40
1
40
1
41
1
10
9.12737582487549
20
-0.413360780236843
30
0
41
1
10
9.12753089158579
20
-0.413495425573217
30
0
41
1
10
9.12984541391529
20
-0.4150898199388
30
0
41
1
10
9.15931736450554
20
-0.430145956750835
30
0
41
1
10
9.22114210111124
20
-0.46615556719567
30
0
41
1
10
9.2771280055772
20
-0.498675434324895
30
0
0
SPLINE
5
B5
100
AcDbEntity
8
1
62
256
6
ByLayer
370
18
48
1
60
0
100
AcDbSpline
70
4
71
3
72
16
73
12
40
0
40
0
40
0
40
0
40
0.156078666494439
40
0.276305197771972
40
0.390737949796582
40
0.506661835168477
40
0.58994758866755
40
0.665005379904332
40
0.73590927638006
40
0.833715301103825
40
1
40
1
40
1
40
1
41
1
10
4.86756771188053
20
-1.48201816824007
30
0
41
1
10
5.07044428691086
20
-1.48198170543137
30
0
41
1
10
5.42961675634672
20
-1.48192384226402
30
0
41
1
10
5.93761352353297
20
-1.48347037188307
30
0
41
1
10
6.39341287328233
20
-1.4820484158507
30
0
41
1
10
6.80119448464788
20
-1.48208521790579
30
0
41
1
10
7.15775272713938
20
-1.48465325700227
30
0
41
1
10
7.4558057759595
20
-1.48442477604863
30
0
41
1
10
7.77272849161119
20
-1.48300318092561
30
0
41
1
10
8.20825292837122
20
-1.48308808030745
30
0
41
1
10
8.5515992370407
20
-1.48371237963241
30
0
41
1
10
8.76778791570649
20
-1.48453626110958
30
0
0
SPLINE
5
B6
100
AcDbEntity
8
1
62
256
6
ByLayer
370
18
48
1
60
0
100
AcDbSpline
70
4
71
3
72
11
73
7
40
0
40
0
40
0
40
0
40
0.0582080033749884
40
0.203155197049266
40
0.565912617914599
40
1
40
1
40
1
40
1
41
1
10
17.3091149132908
20
-0.423724954762264
30
0
41
1
10
17.3090822270303
20
-0.423777425119226
30
0
41
1
10
17.3100163618085
20
-0.424430502375856
30
0
41
1
10
17.3266796631509
20
-0.432923431961825
30
0
41
1
10
17.3731966985641
20
-0.460849256533464
30
0
41
1
10
17.4316144569873
20
-0.495264303753231
30
0
41
1
10
17.4696407446509
20
-0.517912221089802
30
0
0
SPLINE
5
B7
100
AcDbEntity
8
1
62
256
6
ByLayer
370
18
48
1
60
0
100
AcDbSpline
70
4
71
1
72
4
73
2
40
0
40
0
40
1
40
1
41
1
10
29.278335287893
20
-1.49603006838851
30
0
41
1
10
29.4440307205064
20
-1.49620773580588
30
0
0
SPLINE
5
B8
100
AcDbEntity
8
1
62
256
6
ByLayer
370
18
48
1
60
0
100
AcDbSpline
70
4
71
3
72
15
73
11
40
0
40
0
40
0
40
0
40
0.187442456806436
40
0.337314771568353
40
0.46047960531958
40
0.635262525910476
40
0.757473779301742
40
0.840957989499438
40
0.917250986691961
40
1
40
1
40
1
40
1
41
1
10
25.0919807232325
20
1.49393490873834
30
0
41
1
10
24.8867484496726
20
1.49340491503614
30
0
41
1
10
24.5174209948967
20
1.49250435587209
30
0
41
1
10
24.0132545635522
20
1.4949643082449
30
0
41
1
10
23.5229303538375
20
1.49115460947746
30
0
41
1
10
23.06290056322
20
1.49326969231836
30
0
41
1
10
22.6463062005238
20
1.49228983095153
30
0
41
1
10
22.3375537115963
20
1.4928515061236
30
0
41
1
10
22.0720050576814
20
1.49194050577555
30
0
41
1
10
21.8978754145169
20
1.49203254989533
30
0
41
1
10
21.8072775350388
20
1.49207058555305
30
0
0
SPLINE
5
B9
100
AcDbEntity
8
1
62
256
6
ByLayer
370
18
48
1
60
0
100
AcDbSpline
70
4
71
3
72
16
73
12
40
0
40
0
40
0
40
0
40
0.142067179011902
40
0.22843125412636
40
0.292589370309851
40
0.362797099014919
40
0.465723033288046
40
0.613000320800904
40
0.716445997614809
40
0.842352616305839
40
1
40
1
40
1
40
1
41
1
10
21.1869807251945
20
-1.49179134307602
30
0
41
1
10
21.3717431252785
20
-1.49194527752624
30
0
41
1
10
21.6688333193587
20
-1.49225699145535
30
0
41
1
10
22.0493767310031
20
-1.49186453451
30
0
41
1
10
22.3364775736847
20
-1.49284902275812
30
0
41
1
10
22.645115806879
20
-1.49229503198427
30
0
41
1
10
23.0618686712213
20
-1.49326011703192
30
0
41
1
10
23.5218417476996
20
-1.49115499225607
30
0
41
1
10
24.0117130966342
20
-1.49495940475595
30
0
41
1
10
24.5150539660759
20
-1.49251285523843
30
0
41
1
10
24.8838616128781
20
-1.49340598111559
30
0
41
1
10
25.0889081064577
20
-1.49393020337376
30
0
0
SPLINE
5
BA
100
AcDbEntity
8
1
62
256
6
ByLayer
370
18
48
1
60
0
100
AcDbSpline
70
4
71
3
72
15
73
11
40
0
40
0
40
0
40
0
40
0.144012150633632
40
0.253987447285514
40
0.329840043206984
40
0.456323043788515
40
0.632172585463218
40
0.806045616187468
40
0.924716063225569
40
1
40
1
40
1
40
1
41
1
10
16.9273880732145
20
1.49032678911803
30
0
41
1
10
16.7728292080411
20
1.48915169932369
30
0
41
1
10
16.5002369281793
20
1.48791275161142
30
0
41
1
10
16.1462139717217
20
1.48773163001519
30
0
41
1
10
15.8110187633737
20
1.48965249494265
30
0
41
1
10
15.4051054905065
20
1.48752258908152
30
0
41
1
10
14.8939831470367
20
1.48903624509521
30
0
41
1
10
14.391259676219
20
1.48671563210681
30
0
41
1
10
13.9964600195393
20
1.48828051012924
30
0
41
1
10
13.7882913555583
20
1.48757971283172
30
0
41
1
10
13.7074912446888
20
1.48730864004924
30
0
0
SPLINE
5
BB
100
AcDbEntity
8
1
62
256
6
ByLayer
370
18
48
1
60
0
100
AcDbSpline
70
4
71
3
72
16
73
12
40
0
40
0
40
0
40
0
40
0.25
40
0.25
40
0.5
40
0.5
40
0.75
40
0.75
40
0.875
40
0.875
40
1
40
1
40
1
40
1
41
1
10
29.4327269920726
20
0.513890510898477
30
0
41
1
10
29.4729700458765
20
0.524885632165507
30
0
41
1
10
29.5126505752431
20
0.537308457532106
30
0
41
1
10
29.5901611668636
20
0.567029356797633
30
0
41
1
10
29.6282748890999
20
0.584356300998365
30
0
41
1
10
29.698734683283
20
0.6277050082019
30
0
41
1
10
29.7315370177857
20
0.653915470179015
30
0
41
1
10
29.767795952258
20
0.704826794076496
30
0
41
1
10
29.7773536795881
20
0.723437559107026
30
0
41
1
10
29.7895471859503
20
0.763710094225075
30
0
41
1
10
29.791956224178
20
0.784721074212996
30
0
41
1
10
29.7908439123007
20
0.805915642821873
30
0
0
SPLINE
5
BC
100
AcDbEntity
8
1
62
256
6
ByLayer
370
18
48
1
60
0
100
AcDbSpline
70
4
71
3
72
8
73
4
40
0
40
0
40
0
40
0
40
1
40
1
40
1
40
1
41
1
10
4.19880744901351
20
-1.54112705540047
30
0
41
1
10
4.16763224910628
20
-1.53753096822641
30
0
41
1
10
4.13631343879473
20
-1.53372207509059
30
0
41
1
10
4.10884858302703
20
-1.52816766395975
30
0
0
SPLINE
5
BD
100
AcDbEntity
8
1
62
256
6
ByLayer
370
18
48
1
60
0
100
AcDbSpline
70
4
71
3
72
16
73
12
40
0
40
0
40
0
40
0
40
0.249999999999995
40
0.249999999999995
40
0.49999999999999
40
0.49999999999999
40
0.749999999999985
40
0.749999999999985
40
0.874999999999992
40
0.874999999999992
40
1
40
1
40
1
40
1
41
1
10
29.7908439123004
20
-0.805915642821674
30
0
41
1
10
29.7680116657128
20
-0.867457336222571
30
0
41
1
10
29.7451467296636
20
-0.928968463789005
30
0
41
1
10
29.6989748305613
20
-1.05157740761175
30
0
41
1
10
29.6756109460314
20
-1.11262687429397
30
0
41
1
10
29.6286826902588
20
-1.23451852827785
30
0
41
1
10
29.6052168971006
20
-1.29545896967866
30
0
41
1
10
29.5695689095395
20
-1.38541657514509
30
0
41
1
10
29.5576134089021
20
-1.41516688070976
30
0
41
1
10
29.5336290620665
20
-1.47443028781083
30
0
41
1
10
29.5216290452939
20
-1.50403662547225
30
0
41
1
10
29.5095410420511
20
-1.53335840950913
30
0
0
SPLINE
5
BE
100
AcDbEntity
8
1
62
256
6
ByLayer
370
13
48
1
60
0
100
AcDbSpline
70
4
71
3
72
22
73
18
40
0
40
0
40
0
40
0
40
0.125
40
0.125
40
0.25
40
0.25
40
0.375
40
0.375
40
0.5
40
0.5
40
0.625
40
0.625
40
0.75
40
0.75
40
0.875
40
0.875
40
1
40
1
40
1
40
1
41
1
10
4.25034664475845
20
-1.43729474529741
30
0
41
1
10
4.25036177596451
20
-1.41487944763762
30
0
41
1
10
4.25037000048536
20
-1.38440676046298
30
0
41
1
10
4.25037874584385
20
-1.30764458547054
30
0
41
1
10
4.25037921676568
20
-1.26119208140122
30
0
41
1
10
4.25037811895982
20
-1.15444833313077
30
0
41
1
10
4.25037660867224
20
-1.09409660674544
30
0
41
1
10
4.25037665227413
20
-0.962920673522831
30
0
41
1
10
4.25037817797286
20
-0.891718096754914
30
0
41
1
10
4.25038783865495
20
-0.737675504621052
30
0
41
1
10
4.25039590085225
20
-0.656730488970226
30
0
41
1
10
4.25041946000559
20
-0.489127935801775
30
0
41
1
10
4.25043497119952
20
-0.402184537708081
30
0
41
1
10
4.25047310735604
20
-0.221710818548757
30
0
41
1
10
4.25049520297799
20
-0.130657727924017
30
0
41
1
10
4.25054236344224
20
0.0522699421739787
30
0
41
1
10
4.25056768572358
20
0.145090982317129
30
0
41
1
10
4.25059147888558
20
0.235369630292041
30
0
0
SPLINE
5
BF
100
AcDbEntity
8
1
62
256
6
ByLayer
370
18
48
1
60
0
100
AcDbSpline
70
4
71
3
72
64
73
60
40
0
40
0
40
0
40
0
40
0.0179501960958432
40
0.0179501960958432
40
0.0536390926846791
40
0.0536390926846791
40
0.0893279892735151
40
0.0893279892735151
40
0.125016885862351
40
0.125016885862351
40
0.160705782451187
40
0.160705782451187
40
0.196394679040023
40
0.196394679040023
40
0.232083575628859
40
0.232083575628859
40
0.267772472217695
40
0.267772472217695
40
0.303461368806531
40
0.303461368806531
40
0.339150265395366
40
0.339150265395366
40
0.374839161984202
40
0.374839161984202
40
0.410528058573038
40
0.410528058573038
40
0.446216955161874
40
0.446216955161874
40
0.48190585175071
40
0.48190585175071
40
0.517594748339546
40
0.517594748339546
40
0.553283644928382
40
0.553283644928382
40
0.588972541517218
40
0.588972541517218
40
0.624661438106054
40
0.624661438106054
40
0.660350334694889
40
0.660350334694889
40
0.696039231283725
40
0.696039231283725
40
0.731728127872561
40
0.731728127872561
40
0.767417024461397
40
0.767417024461397
40
0.803105921050233
40
0.803105921050233
40
0.838794817639069
40
0.838794817639069
40
0.874483714227905
40
0.874483714227905
40
0.910172610816741
40
0.910172610816741
40
0.945861507405577
40
0.945861507405577
40
0.981550403994412
40
0.981550403994412
40
1
40
1
40
1
40
1
41
1
10
10.5717214093694
20
1.15147358240688
30
0
41
1
10
10.6321610440046
20
1.17637792959852
30
0
41
1
10
10.6926254151536
20
1.20043815978022
30
0
41
1
10
10.8733663638871
20
1.26977736541778
30
0
41
1
10
10.9943191797951
20
1.31219114109953
30
0
41
1
10
11.2373640438883
20
1.38758369147558
30
0
41
1
10
11.3582178096818
20
1.42069796710501
30
0
41
1
10
11.5983744198306
20
1.47793977809212
30
0
41
1
10
11.7180005042506
20
1.50178315763378
30
0
41
1
10
11.957933219173
20
1.53939711433358
30
0
41
1
10
12.0778998216404
20
1.5533896420886
30
0
41
1
10
12.3174432744572
20
1.57160080087297
30
0
41
1
10
12.4373159445017
20
1.57567469424643
30
0
41
1
10
12.6790213630099
20
1.57362770270524
30
0
41
1
10
12.8010193209725
20
1.56752766240899
30
0
41
1
10
13.0426317859535
20
1.54502100203553
30
0
41
1
10
13.1626496954011
20
1.52864041269902
30
0
41
1
10
13.4029990551302
20
1.48675091503071
30
0
41
1
10
13.5230502560598
20
1.46119328437391
30
0
41
1
10
13.7622566600221
20
1.40035495021573
30
0
41
1
10
13.8816378534888
20
1.3651397908454
30
0
41
1
10
14.1219586022098
20
1.28682070761846
30
0
41
1
10
14.2426575668816
20
1.24359648272878
30
0
41
1
10
14.4843965149803
20
1.14789828870948
30
0
41
1
10
14.6056851907426
20
1.09547624465202
30
0
41
1
10
14.8471468739817
20
0.985915436654125
30
0
41
1
10
14.9676212969235
20
0.928399257616803
30
0
41
1
10
15.2072233479636
20
0.806793497875276
30
0
41
1
10
15.326490842995
20
0.742846205787515
30
0
41
1
10
15.5661227006422
20
0.611889471295171
30
0
41
1
10
15.6863455576957
20
0.544721053427878
30
0
41
1
10
15.9266952351276
20
0.405480238784634
30
0
41
1
10
16.0469089631034
20
0.333490768541395
30
0
41
1
10
16.2896364618277
20
0.188405877197994
30
0
41
1
10
16.4110146317765
20
0.11582914096013
30
0
41
1
10
16.651653814479
20
-0.0303058872185318
30
0
41
1
10
16.7711439302737
20
-0.103901822608464
30
0
41
1
10
17.0106951471803
20
-0.248409383606457
30
0
41
1
10
17.1307377274388
20
-0.319373059181402
30
0
41
1
10
17.3703710796927
20
-0.460345757146627
30
0
41
1
10
17.4899408353624
20
-0.530368006172637
30
0
41
1
10
17.7308009902226
20
-0.665883275481605
30
0
41
1
10
17.8525582958234
20
-0.731548584254313
30
0
41
1
10
18.094858706851
20
-0.858604955223996
30
0
41
1
10
18.2148981442462
20
-0.919814133517832
30
0
41
1
10
18.4549663033492
20
-1.03460060038188
30
0
41
1
10
18.5750950871222
20
-1.08813700265031
30
0
41
1
10
18.8145826853447
20
-1.18882217445278
30
0
41
1
10
18.9338280164188
20
-1.23601519738597
30
0
41
1
10
19.1734394857115
20
-1.32171087832611
30
0
41
1
10
19.293959255367
20
-1.360148366722
30
0
41
1
10
19.5355379059853
20
-1.42893456615266
30
0
41
1
10
19.6568509407788
20
-1.45937684122353
30
0
41
1
10
19.898167869641
20
-1.5096827862734
30
0
41
1
10
20.0187059717494
20
-1.52966715912072
30
0
41
1
10
20.2587298823792
20
-1.56004370126721
30
0
41
1
10
20.3780204627788
20
-1.57039511830837
30
0
41
1
10
20.5593583043185
20
-1.57833729746864
30
0
41
1
10
20.6212871012932
20
-1.5796964740685
30
0
41
1
10
20.6832973440607
20
-1.57971381221117
30
0
0
SPLINE
5
C0
100
AcDbEntity
8
1
62
256
6
ByLayer
370
18
48
1
60
0
100
AcDbSpline
70
4
71
3
72
20
73
16
40
0
40
0
40
0
40
0
40
0.178623502430707
40
0.178623502430707
40
0.315519585358921
40
0.315519585358921
40
0.452415668287137
40
0.452415668287137
40
0.589311751215353
40
0.589311751215353
40
0.726207834143569
40
0.726207834143569
40
0.863103917071784
40
0.863103917071784
40
1
40
1
40
1
40
1
41
1
10
26.8798871106883
20
1.15160531140785
30
0
41
1
10
27.0362711465235
20
1.21722331934342
30
0
41
1
10
27.1919319452048
20
1.27657075579907
30
0
41
1
10
27.4680855863876
20
1.3677861144794
30
0
41
1
10
27.5878574213145
20
1.40332905380089
30
0
41
1
10
27.8275769066341
20
1.46580002220969
30
0
41
1
10
27.9479030813336
20
1.49242741794575
30
0
41
1
10
28.1905862896676
20
1.53579426544718
30
0
41
1
10
28.3116421511223
20
1.55258629582283
30
0
41
1
10
28.5516776819529
20
1.57607175063535
30
0
41
1
10
28.6712740109259
20
1.58266774495996
30
0
41
1
10
28.9109125137954
20
1.58579958445901
30
0
41
1
10
29.0305781154717
20
1.58240062749781
30
0
41
1
10
29.2694932657485
20
1.56539158211106
30
0
41
1
10
29.3890817200875
20
1.55178596732571
30
0
41
1
10
29.5095410420313
20
1.53335840952641
30
0
0
SPLINE
5
C1
100
AcDbEntity
8
1
62
256
6
ByLayer
370
18
48
1
60
0
100
AcDbSpline
70
4
71
3
72
8
73
4
40
0
40
0
40
0
40
0
40
1
40
1
40
1
40
1
41
1
10
29.4550921599635
20
1.57582835103582
30
0
41
1
10
29.3615840530181
20
1.58191550337131
30
0
41
1
10
29.2679069495808
20
1.58486754190372
30
0
41
1
10
29.174259074869
20
1.58473910832825
30
0
0
SPLINE
5
C2
100
AcDbEntity
8
1
62
256
6
ByLayer
370
18
48
1
60
0
100
AcDbSpline
70
4
71
3
72
40
73
36
40
0
40
0
40
0
40
0
40
0.0243463715082783
40
0.0243463715082783
40
0.112717340862202
40
0.112717340862202
40
0.156902825539163
40
0.156902825539163
40
0.201088310216124
40
0.201088310216124
40
0.289459279570045
40
0.289459279570045
40
0.333644764247005
40
0.333644764247005
40
0.377830248923965
40
0.377830248923965
40
0.466201218277888
40
0.466201218277888
40
0.510386702954849
40
0.510386702954849
40
0.55457218763181
40
0.55457218763181
40
0.642943156985734
40
0.642943156985734
40
0.687128641662695
40
0.687128641662695
40
0.731314126339656
40
0.731314126339656
40
0.81968509569358
40
0.81968509569358
40
0.863870580370542
40
0.863870580370542
40
0.908056065047504
40
0.908056065047504
40
1
40
1
40
1
40
1
41
1
10
21.7850798482742
20
-1.51164801485294
30
0
41
1
10
21.7128174183052
20
-1.52443248084558
30
0
41
1
10
21.6406609448607
20
-1.53543713950125
30
0
41
1
10
21.3067619999003
20
-1.57808078587035
30
0
41
1
10
21.0455987390717
20
-1.58795791574934
30
0
41
1
10
20.6500936538756
20
-1.56603617038792
30
0
41
1
10
20.5170748973227
20
-1.55249793285878
30
0
41
1
10
20.2530811730901
20
-1.51373213642069
30
0
41
1
10
20.1217490635418
20
-1.48853411433893
30
0
41
1
10
19.7287395512109
20
-1.39635543694428
30
0
41
1
10
19.4676819736819
20
-1.31306333960421
30
0
41
1
10
19.0732243531301
20
-1.15874313506316
30
0
41
1
10
18.9407933763321
20
-1.10227087131335
30
0
41
1
10
18.6757918683047
20
-0.981252268726394
30
0
41
1
10
18.5440675826385
20
-0.917123625369783
30
0
41
1
10
18.1503296809253
20
-0.715303229058861
30
0
41
1
10
17.8893190469331
20
-0.568804637071082
30
0
41
1
10
17.4957392443802
20
-0.33766825728992
30
0
41
1
10
17.3641090171761
20
-0.258869463087024
30
0
41
1
10
17.0991254843761
20
-0.0990914741182678
30
0
41
1
10
16.9665099872999
20
-0.0185212306376457
30
0
41
1
10
16.5717883030362
20
0.221018271206049
30
0
41
1
10
16.3108740958057
20
0.378608406634555
30
0
41
1
10
15.9176219819012
20
0.60333385448223
30
0
41
1
10
15.7862706626691
20
0.676374460834523
30
0
41
1
10
15.5221791221794
20
0.817330287070035
30
0
41
1
10
15.3890482620009
20
0.885471160713649
30
0
41
1
10
14.993247753831
20
1.07734366453255
30
0
41
1
10
14.7317577359147
20
1.18890155249093
30
0
41
1
10
14.3391141610293
20
1.32767037253242
30
0
41
1
10
14.208015375192
20
1.36900150191209
30
0
41
1
10
13.9446663400417
20
1.44110325098779
30
0
41
1
10
13.8119670916568
20
1.47198805744
30
0
41
1
10
13.4039167638695
20
1.54897235540838
30
0
41
1
10
13.1316629038236
20
1.57504027165487
30
0
41
1
10
12.8592050144393
20
1.57507645549504
30
0
0
SPLINE
5
C3
100
AcDbEntity
8
1
62
256
6
ByLayer
370
18
48
1
60
0
100
AcDbSpline
70
4
71
3
72
12
73
8
40
0
40
0
40
0
40
0
40
0.0760666736253332
40
0.0760666736253332
40
0.384044449083556
40
0.384044449083556
40
1
40
1
40
1
40
1
41
1
10
5.48886585409554
20
-1.49797788194033
30
0
41
1
10
5.45628429016259
20
-1.50388102868996
30
0
41
1
10
5.42367093443929
20
-1.50943958859224
30
0
41
1
10
5.25882985418011
20
-1.53573865451167
30
0
41
1
10
5.12575218758292
20
-1.55101076720095
30
0
41
1
10
4.72859924564241
20
-1.57816574747406
30
0
41
1
10
4.46480441157763
20
-1.57181004278354
30
0
41
1
10
4.1988074490128
20
-1.54112705540038
30
0
0
SPLINE
5
C4
100
AcDbEntity
8
1
62
256
6
ByLayer
370
13
48
1
60
0
100
AcDbSpline
70
4
71
3
72
10
73
6
40
0
40
0
40
0
40
0
40
0.5
40
0.5
40
1
40
1
40
1
40
1
41
1
10
4.25034664475848
20
-1.43729474529741
30
0
41
1
10
4.22730318571485
20
-1.43535403270261
30
0
41
1
10
4.20471430405075
20
-1.43645088277549
30
0
41
1
10
4.16052117610315
20
-1.44458722268689
30
0
41
1
10
4.13888604096888
20
-1.45173773730508
30
0
41
1
10
4.11892549805637
20
-1.46177181314329
30
0
0
SPLINE
5
C5
100
AcDbEntity
8
1
62
256
6
ByLayer
370
18
48
1
60
0
100
AcDbSpline
70
4
71
3
72
32
73
28
40
0
40
0
40
0
40
0
40
0.0128525620537198
40
0.0128525620537198
40
0.556931866189213
40
0.556931866189213
40
0.624941779206142
40
0.624941779206142
40
0.658946735714607
40
0.675949213968845
40
0.675949213968845
40
0.692951692223083
40
0.692951692223083
40
0.709954170477321
40
0.709954170477321
40
0.718455409604445
40
0.718455409604445
40
0.726956648731569
40
0.760961605240057
40
0.760961605240057
40
0.828971518257042
40
0.828971518257042
40
0.896981431274027
40
0.896981431274027
40
0.964991344291011
40
0.964991344291011
40
1
40
1
40
1
40
1
41
1
10
3.76086593731179
20
-1.56939640146808
30
0
41
1
10
3.75339746937186
20
-1.56935926303396
30
0
41
1
10
3.74592662651389
20
-1.56931704096323
30
0
41
1
10
3.42210126472918
20
-1.56727368326804
30
0
41
1
10
3.0997809223141
20
-1.55680185589327
30
0
41
1
10
2.73081004549721
20
-1.54717791188563
30
0
41
1
10
2.68975312609541
20
-1.5461336365359
30
0
41
1
10
2.62807613027135
20
-1.54462683999839
30
0
41
1
10
2.59721322149966
20
-1.54388827520611
30
0
41
1
10
2.56632189874682
20
-1.54317596232926
30
0
41
1
10
2.54572165590798
20
-1.54270732439915
30
0
41
1
10
2.5354587416382
20
-1.54241495307198
30
0
41
1
10
2.51474239628954
20
-1.54211669082014
30
0
41
1
10
2.5042448698203
20
-1.54221549187884
30
0
41
1
10
2.48941811596339
20
-1.54304650683355
30
0
41
1
10
2.48489994565145
20
-1.54347556196362
30
0
41
1
10
2.47569464842394
20
-1.5442611344551
30
0
41
1
10
2.45272963908374
20
-1.54621888231605
30
0
41
1
10
2.43001133135556
20
-1.54814231101167
30
0
41
1
10
2.37601812633639
20
-1.55265774358705
30
0
41
1
10
2.3409160191124
20
-1.55552101285247
30
0
41
1
10
2.27314149294395
20
-1.56068244831741
30
0
41
1
10
2.24043646899114
20
-1.56298682381987
30
0
41
1
10
2.1782017716458
20
-1.56661506275009
30
0
41
1
10
2.14845163669102
20
-1.56794505046278
30
0
41
1
10
2.10816346483409
20
-1.56862250765357
30
0
41
1
10
2.09524271406727
20
-1.56861520458594
30
0
41
1
10
2.08330448626503
20
-1.56830998959578
30
0
0
SPLINE
5
C6
100
AcDbEntity
8
1
62
256
6
ByLayer
370
18
48
1
60
0
100
AcDbSpline
70
4
71
3
72
20
73
16
40
0
40
0
40
0
40
0
40
0.125
40
0.125
40
0.25
40
0.25
40
0.375
40
0.375
40
0.5
40
0.5
40
0.625
40
0.625
40
0.75
40
0.75
40
1
40
1
40
1
40
1
41
1
10
29.6640966639187
20
-0.414566434903463
30
0
41
1
10
29.6516119341601
20
-0.39837449266966
30
0
41
1
10
29.6402169453616
20
-0.380983529920258
30
0
41
1
10
29.6227980538422
20
-0.344365059152977
30
0
41
1
10
29.6169619887916
20
-0.325044658083158
30
0
41
1
10
29.6158710912669
20
-0.289495651351558
30
0
41
1
10
29.6207699032466
20
-0.274353351105873
30
0
41
1
10
29.6370232296611
20
-0.251639460276408
30
0
41
1
10
29.6481684931259
20
-0.243662472743665
30
0
41
1
10
29.672623161968
20
-0.232314064290165
30
0
41
1
10
29.6861725768284
20
-0.228838184201294
30
0
41
1
10
29.7139995742517
20
-0.224835117065737
30
0
41
1
10
29.7284425399383
20
-0.224274937364925
30
0
41
1
10
29.772921949167
20
-0.225726407027025
30
0
41
1
10
29.8036567537
20
-0.230816302355436
30
0
41
1
10
29.8345091290128
20
-0.238528009316156
30
0
0
SPLINE
5
C7
100
AcDbEntity
8
1
62
256
6
ByLayer
370
13
48
1
60
0
100
AcDbSpline
70
4
71
3
72
8
73
4
40
0
40
0
40
0
40
0
40
1
40
1
40
1
40
1
41
1
10
4.0595724218953
20
-1.50298304342303
30
0
41
1
10
4.07628135925921
20
-1.48721381375896
30
0
41
1
10
4.09591719002646
20
-1.47333798690411
30
0
41
1
10
4.11892549805637
20
-1.46177181314329
30
0
0
SPLINE
5
C8
100
AcDbEntity
8
1
62
256
6
ByLayer
370
13
48
1
60
0
100
AcDbSpline
70
4
71
3
72
28
73
24
40
0
40
0
40
0
40
0
40
0.121721080361894
40
0.121721080361894
40
0.182581620542842
40
0.182581620542842
40
0.243442160723789
40
0.243442160723789
40
0.486884321447578
40
0.486884321447578
40
0.547744861628526
40
0.547744861628526
40
0.608605401809475
40
0.608605401809475
40
0.730326482171372
40
0.730326482171372
40
0.79118702235232
40
0.79118702235232
40
0.852047562533269
40
0.852047562533269
40
0.973768642895165
40
0.973768642895165
40
1
40
1
40
1
40
1
41
1
10
29.4652814329214
20
-1.49550810337948
30
0
41
1
10
29.2026351025479
20
-1.50124688970351
30
0
41
1
10
28.9419372142247
20
-1.48385761462754
30
0
41
1
10
28.5499436932848
20
-1.42465629133659
30
0
41
1
10
28.4191166637582
20
-1.39939820456331
30
0
41
1
10
28.1563381914772
20
-1.33813013217721
30
0
41
1
10
28.0237947298656
20
-1.30192095432258
30
0
41
1
10
27.3647772000083
20
-1.09749095741219
30
0
41
1
10
26.8504171770431
20
-0.860336676873487
30
0
41
1
10
26.1945679259908
20
-0.512526232971908
30
0
41
1
10
26.062187994317
20
-0.440128565940995
30
0
41
1
10
25.7981974491834
20
-0.292915333817604
30
0
41
1
10
25.6668929385264
20
-0.218326383490819
30
0
41
1
10
25.2741442190618
20
0.0068007793770732
30
0
41
1
10
25.013468328284
20
0.157984740213919
30
0
41
1
10
24.6202789749082
20
0.379499424649424
30
0
41
1
10
24.4888493102725
20
0.452456217665883
30
0
41
1
10
24.2243340586676
20
0.594973631778231
30
0
41
1
10
24.0924877836061
20
0.663849439849571
30
0
41
1
10
23.6987598701079
20
0.860907332087862
30
0
41
1
10
23.4383157685489
20
0.980576597223035
30
0
41
1
10
23.1200569459342
20
1.10621940480777
30
0
41
1
10
23.0635667271194
20
1.12772088450893
30
0
41
1
10
23.0069955557443
20
1.14843484111191
30
0
0
SPLINE
5
C9
100
AcDbEntity
8
1
62
256
6
ByLayer
370
18
48
1
60
0
100
AcDbSpline
70
4
71
3
72
14
73
10
40
0
40
0
40
0
40
0
40
0.0807443736722828
40
0.0807443736722828
40
0.342938584737339
40
0.342938584737339
40
0.605132795802394
40
0.605132795802394
40
1
40
1
40
1
40
1
41
1
10
13.0469476435508
20
-1.48679431116145
30
0
41
1
10
13.006393358994
20
-1.48677062792521
30
0
41
1
10
12.9657840328329
20
-1.48620082799061
30
0
41
1
10
12.7930273307915
20
-1.48143484464001
30
0
41
1
10
12.6604344895436
20
-1.47193715489149
30
0
41
1
10
12.3973223530335
20
-1.44190686501437
30
0
41
1
10
12.2663004217704
20
-1.42133411046404
30
0
41
1
10
11.9383450118487
20
-1.3566641531367
30
0
41
1
10
11.7415744244625
20
-1.30585673900669
30
0
41
1
10
11.5439025675722
20
-1.24386847227956
30
0
0
SPLINE
5
CA
100
AcDbEntity
8
1
62
256
6
ByLayer
370
13
48
1
60
0
100
AcDbSpline
70
4
71
3
72
26
73
22
40
0
40
0
40
0
40
0
40
0.0402928238853093
40
0.0402928238853093
40
0.12185895910349
40
0.12185895910349
40
0.203425094321671
40
0.203425094321671
40
0.366557364758033
40
0.366557364758033
40
0.448123499976216
40
0.448123499976216
40
0.529689635194398
40
0.529689635194398
40
0.69282190563076
40
0.69282190563076
40
0.774388040848943
40
0.774388040848943
40
0.855954176067125
40
0.855954176067125
40
1
40
1
40
1
40
1
41
1
10
11.5439025674744
20
-1.24386847224883
30
0
41
1
10
11.4790638080879
20
-1.22353557117447
30
0
41
1
10
11.4141280793736
20
-1.20199970055933
30
0
41
1
10
11.2173174164817
20
-1.13331124100299
30
0
41
1
10
11.0845141312665
20
-1.08240780950749
30
0
41
1
10
10.8207185474007
20
-0.973401198881589
30
0
41
1
10
10.6894219582502
20
-0.915228987332569
30
0
41
1
10
10.2962858116922
20
-0.731356266463791
30
0
41
1
10
10.0354024771925
20
-0.595889021905379
30
0
41
1
10
9.64105190855659
20
-0.381080564512473
30
0
41
1
10
9.50873466753308
20
-0.307371220244193
30
0
41
1
10
9.24400851029424
20
-0.158032198250623
30
0
41
1
10
9.1124217040929
20
-0.0828351428737051
30
0
41
1
10
8.7187669289132
20
0.142209658807815
30
0
41
1
10
8.45774367218027
20
0.291348225159368
30
0
41
1
10
8.06406241805323
20
0.506206119728716
30
0
41
1
10
7.93251978038492
20
0.576435804803197
30
0
41
1
10
7.66796228426199
20
0.712639269889962
30
0
41
1
10
7.53558541784761
20
0.778221077886371
30
0
41
1
10
7.17183635730686
20
0.949333117926528
30
0
41
1
10
6.94117112541113
20
1.04776001522365
30
0
41
1
10
6.70999520541153
20
1.13288202478034
30
0
0
SPLINE
5
CB
100
AcDbEntity
8
1
62
256
6
ByLayer
370
18
48
1
60
0
100
AcDbSpline
70
4
71
3
72
14
73
10
40
0
40
0
40
0
40
0
40
0.0053337949394338
40
0.0053337949394338
40
0.272026423620362
40
0.272026423620362
40
0.805411680982229
40
0.805411680982229
40
1
40
1
40
1
40
1
41
1
10
21.2158761314347
20
-1.49180529885317
30
0
41
1
10
21.2132465569229
20
-1.49180850138157
30
0
41
1
10
21.2106167876653
20
-1.49180942313279
30
0
41
1
10
21.0764870949928
20
-1.49174010472061
30
0
41
1
10
20.9438778939882
20
-1.48583771129015
30
0
41
1
10
20.5483132481441
20
-1.45123536209951
30
0
41
1
10
20.2871035866343
20
-1.40560735637189
30
0
41
1
10
19.9302917652483
20
-1.31540618902537
30
0
41
1
10
19.8348109925915
20
-1.288575207029
30
0
41
1
10
19.7391490297875
20
-1.25913658990467
30
0
0
SPLINE
5
CC
100
AcDbEntity
8
1
62
256
6
ByLayer
370
13
48
1
60
0
100
AcDbSpline
70
4
71
3
72
22
73
18
40
0
40
0
40
0
40
0
40
0.0979448268839209
40
0.0979448268839209
40
0.252144351061452
40
0.252144351061452
40
0.406343875238983
40
0.406343875238983
40
0.560543399416514
40
0.560543399416514
40
0.63764316150528
40
0.63764316150528
40
0.714742923594045
40
0.714742923594045
40
0.868942447771576
40
0.868942447771576
40
1
40
1
40
1
40
1
41
1
10
19.7391490298762
20
-1.25913658993196
30
0
41
1
10
19.5725923717825
20
-1.20788113224376
30
0
41
1
10
19.4054864511257
20
-1.14872084983657
30
0
41
1
10
18.9728410483876
20
-0.977599676696116
30
0
41
1
10
18.7111386559038
20
-0.857684441421043
30
0
41
1
10
18.188279601145
20
-0.595469012115046
30
0
41
1
10
17.926805695558
20
-0.453606856815952
30
0
41
1
10
17.3986036478974
20
-0.156595016856556
30
0
41
1
10
17.1332072137041
20
-0.0030377612432346
30
0
41
1
10
16.7366138508426
20
0.223176749383839
30
0
41
1
10
16.6046671903233
20
0.297853775348102
30
0
41
1
10
16.3405476198531
20
0.444564933941848
30
0
41
1
10
16.2079198033302
20
0.516683794363161
30
0
41
1
10
15.8118700890719
20
0.725199028537588
30
0
41
1
10
15.5503903448063
20
0.853430306985217
30
0
41
1
10
15.0666242429722
20
1.06425509608269
30
0
41
1
10
14.8438056308063
20
1.15014540015713
30
0
41
1
10
14.6193983716771
20
1.22319165145637
30
0
0
SPLINE
5
CD
100
AcDbEntity
8
1
62
256
6
ByLayer
370
18
48
1
60
0
100
AcDbSpline
70
4
71
3
72
8
73
4
40
0
40
0
40
0
40
0
40
1
40
1
40
1
40
1
41
1
10
5.01296819404712
20
-1.48035980295714
30
0
41
1
10
4.97225305674826
20
-1.48146080937599
30
0
41
1
10
4.93152056254669
20
-1.48201718926299
30
0
41
1
10
4.89075921823508
20
-1.48202640551008
30
0
0
SPLINE
5
CE
100
AcDbEntity
8
1
62
256
6
ByLayer
370
13
48
1
60
0
100
AcDbSpline
70
4
71
3
72
10
73
6
40
0
40
0
40
0
40
0
40
0.38233425305933
40
0.38233425305933
40
1
40
1
40
1
40
1
41
1
10
4.89076021793142
20
-1.4820264052839
30
0
41
1
10
4.80963158955359
20
-1.48204476648641
30
0
41
1
10
4.72838867404221
20
-1.47989558083825
30
0
41
1
10
4.51536088287889
20
-1.4685527926367
30
0
41
1
10
4.38295030717717
20
-1.45579133277684
30
0
41
1
10
4.25034664475743
20
-1.43729474529727
30
0
0
SPLINE
5
CF
100
AcDbEntity
8
1
62
256
6
ByLayer
370
18
48
1
60
0
100
AcDbSpline
70
4
71
3
72
20
73
16
40
0
40
0
40
0
40
0
40
0.125000000000002
40
0.125000000000002
40
0.250000000000004
40
0.250000000000004
40
0.375000000000006
40
0.375000000000006
40
0.500000000000008
40
0.500000000000008
40
0.625000000000009
40
0.625000000000009
40
0.750000000000011
40
0.750000000000011
40
1
40
1
40
1
40
1
41
1
10
28.0830482281868
20
0.591976741032994
30
0
41
1
10
28.0978725482152
20
0.518699426979936
30
0
41
1
10
28.1199429547008
20
0.444838191385202
30
0
41
1
10
28.1770027513398
20
0.296074651625048
30
0
41
1
10
28.2115590297697
20
0.222510584082983
30
0
41
1
10
28.2889162307267
20
0.0800254801748679
30
0
41
1
10
28.3323044515955
20
0.0100384529522444
30
0
41
1
10
28.4248584632048
20
-0.12450826879612
30
0
41
1
10
28.4737772095287
20
-0.188834658434757
30
0
41
1
10
28.5759136459912
20
-0.312691787392623
30
0
41
1
10
28.6291421272915
20
-0.372210488722885
30
0
41
1
10
28.7393539330051
20
-0.487059207987983
30
0
41
1
10
28.7964207242218
20
-0.54242785231645
30
0
41
1
10
28.9696441505565
20
-0.70020066388733
30
0
41
1
10
29.0887747819675
20
-0.795531109982988
30
0
41
1
10
29.2109303526678
20
-0.882693481348099
30
0
0
SPLINE
5
D0
100
AcDbEntity
8
1
62
256
6
ByLayer
370
18
48
1
60
0
100
AcDbSpline
70
4
71
3
72
14
73
10
40
0
40
0
40
0
40
0
40
0.25
40
0.25
40
0.5
40
0.5
40
0.75
40
0.75
40
1
40
1
40
1
40
1
41
1
10
29.2385381405681
20
0.243956983656062
30
0
41
1
10
29.2413752327187
20
0.268814795891274
30
0
41
1
10
29.2477920455227
20
0.294444884748458
30
0
41
1
10
29.2665185379852
20
0.348016080657885
30
0
41
1
10
29.2785839656709
20
0.375220222438912
30
0
41
1
10
29.3085000246171
20
0.428040345551039
30
0
41
1
10
29.3264442093445
20
0.453918538037072
30
0
41
1
10
29.3748763712371
20
0.492752392600721
30
0
41
1
10
29.4030794752884
20
0.505790279641332
30
0
41
1
10
29.4327269920726
20
0.513890510898563
30
0
0
SPLINE
5
D1
100
AcDbEntity
8
1
62
256
6
ByLayer
370
18
48
1
60
0
100
AcDbSpline
70
4
71
3
72
8
73
4
40
0
40
0
40
0
40
0
40
1
40
1
40
1
40
1
41
1
10
4.25059147908843
20
0.235369630292155
30
0
41
1
10
4.33991172172372
20
0.183568036432035
30
0
41
1
10
4.4294869638116
20
0.13193446084901
30
0
41
1
10
4.51949790700095
20
0.0807938454954069
30
0
0
SPLINE
5
D2
100
AcDbEntity
8
1
62
256
6
ByLayer
370
18
48
1
60
0
100
AcDbSpline
70
4
71
3
72
26
73
22
40
0
40
0
40
0
40
0
40
0.0624999999999949
40
0.0624999999999949
40
0.12499999999999
40
0.12499999999999
40
0.24999999999998
40
0.24999999999998
40
0.37499999999997
40
0.37499999999997
40
0.49999999999996
40
0.49999999999996
40
0.562499999999965
40
0.562499999999965
40
0.62499999999997
40
0.62499999999997
40
0.74999999999998
40
0.74999999999998
40
0.87499999999999
40
0.87499999999999
40
1
40
1
40
1
40
1
41
1
10
29.6640966639187
20
-0.41456643490352
30
0
41
1
10
29.6568016383586
20
-0.433245008605667
30
0
41
1
10
29.6506430691979
20
-0.451957469569635
30
0
41
1
10
29.6408464610101
20
-0.489343174162912
30
0
41
1
10
29.6373940501809
20
-0.507473714669544
30
0
41
1
10
29.6320216738642
20
-0.557220946224135
30
0
41
1
10
29.6353442644037
20
-0.583024802478747
30
0
41
1
10
29.6521376272031
20
-0.613649392444472
30
0
41
1
10
29.6652237505993
20
-0.618773776705808
30
0
41
1
10
29.6959137378685
20
-0.612150407364169
30
0
41
1
10
29.7135926250467
20
-0.600493392271005
30
0
41
1
10
29.7413450373749
20
-0.572240653731569
30
0
41
1
10
29.7506184448512
20
-0.561228127423334
30
0
41
1
10
29.7692119553407
20
-0.535908127754823
30
0
41
1
10
29.7785757756458
20
-0.521481675434728
30
0
41
1
10
29.8052544919782
20
-0.474884842082048
30
0
41
1
10
29.8217878419366
20
-0.438369177239736
30
0
41
1
10
29.8460053694046
20
-0.362368437927756
30
0
41
1
10
29.8526572849571
20
-0.325428501562243
30
0
41
1
10
29.8522756125768
20
-0.267529304084349
30
0
41
1
10
29.8454808619647
20
-0.248109116133009
30
0
41
1
10
29.8345091290129
20
-0.238528009316156
30
0
0
SPLINE
5
D3
100
AcDbEntity
8
1
62
256
6
ByLayer
370
18
48
1
60
0
100
AcDbSpline
70
4
71
3
72
16
73
12
40
0
40
0
40
0
40
0
40
0.249999999999995
40
0.249999999999995
40
0.49999999999999
40
0.49999999999999
40
0.749999999999986
40
0.749999999999986
40
0.874999999999993
40
0.874999999999993
40
1
40
1
40
1
40
1
41
1
10
29.7908439123005
20
0.805915642821645
30
0
41
1
10
29.7680116657128
20
0.867457336222571
30
0
41
1
10
29.7451467296635
20
0.92896846378909
30
0
41
1
10
29.6989748305613
20
1.05157740761189
30
0
41
1
10
29.6756109460313
20
1.11262687429419
30
0
41
1
10
29.6286826902586
20
1.23451852827816
30
0
41
1
10
29.6052168971005
20
1.29545896967897
30
0
41
1
10
29.5695689095394
20
1.38541657514548
30
0
41
1
10
29.5576134089019
20
1.41516688071019
30
0
41
1
10
29.5336290620664
20
1.47443028781129
30
0
41
1
10
29.5216290452937
20
1.50403662547274
30
0
41
1
10
29.509541042051
20
1.53335840950962
30
0
0
SPLINE
5
D4
100
AcDbEntity
8
1
62
256
6
ByLayer
370
18
48
1
60
0
100
AcDbSpline
70
4
71
3
72
60
73
56
40
0
40
0
40
0
40
0
40
0.0636489487412256
40
0.0636489487412256
40
0.154972353472604
40
0.154972353472604
40
0.246295758203983
40
0.246295758203983
40
0.337619162935362
40
0.337619162935362
40
0.42894256766674
40
0.42894256766674
40
0.47460427003243
40
0.47460427003243
40
0.497435121215275
40
0.497435121215275
40
0.50028897761313
40
0.50028897761313
40
0.500645709662862
40
0.500645709662862
40
0.501002441712594
40
0.501002441712594
40
0.501715905812058
40
0.501715905812058
40
0.503142834010986
40
0.503142834010986
40
0.508850546806697
40
0.508850546806697
40
0.52026597239812
40
0.52026597239812
40
0.611589377129502
40
0.611589377129502
40
0.702912781860884
40
0.702912781860884
40
0.748574484226575
40
0.748574484226575
40
0.771405335409421
40
0.771405335409421
40
0.782820761000843
40
0.782820761000843
40
0.788528473796555
40
0.788528473796555
40
0.789955401995483
40
0.789955401995483
40
0.790668866094946
40
0.790668866094946
40
0.791025598144678
40
0.791025598144678
40
0.79138233019441
40
0.794236186592266
40
0.885559591323646
40
0.885559591323646
40
0.976882996055027
40
0.976882996055027
40
1
40
1
40
1
40
1
41
1
10
6.41426969280553
20
1.1040414364935
30
0
41
1
10
6.32790341232376
20
1.11884575361148
30
0
41
1
10
6.24121451075752
20
1.1296093761629
30
0
41
1
10
6.03119881997816
20
1.14295072055665
30
0
41
1
10
5.90814933749161
20
1.13998017077518
30
0
41
1
10
5.66096589235414
20
1.10742402944882
30
0
41
1
10
5.5355251573879
20
1.07710288365996
30
0
41
1
10
5.2901124866992
20
0.992795083516739
30
0
41
1
10
5.16912368214781
20
0.939061406485763
30
0
41
1
10
4.92541884048705
20
0.815383411804191
30
0
41
1
10
4.80180681912844
20
0.744922683693915
30
0
41
1
10
4.61686574125571
20
0.636110222952397
30
0
41
1
10
4.55506527811843
20
0.599196303235544
30
0
41
1
10
4.46211744918901
20
0.543808572816488
30
0
41
1
10
4.43111090770026
20
0.525352762470959
30
0
41
1
10
4.39620745636864
20
0.504685037075717
30
0
41
1
10
4.3921957247633
20
0.502604243743065
30
0
41
1
10
4.38798245438471
20
0.499782084850665
30
0
41
1
10
4.38856424446493
20
0.499085749776015
30
0
41
1
10
4.38927141168287
20
0.498247178460815
30
0
41
1
10
4.38966357223342
20
0.497862355252295
30
0
41
1
10
4.39087076484827
20
0.496735327624975
30
0
41
1
10
4.39172197906549
20
0.496028981200709
30
0
41
1
10
4.39430575025153
20
0.49395707274266
30
0
41
1
10
4.39608299549013
20
0.492640089610148
30
0
41
1
10
4.40505204022037
20
0.486152634294371
30
0
41
1
10
4.41246841133457
20
0.481272848075946
30
0
41
1
10
4.43477768458828
20
0.466738206160784
30
0
41
1
10
4.4498452927831
20
0.457314001348181
30
0
41
1
10
4.58581242768821
20
0.373101912152265
30
0
41
1
10
4.70899868166538
20
0.301786988082426
30
0
41
1
10
4.95454060357332
20
0.158743428883582
30
0
41
1
10
5.0775141960743
20
0.0879126178600131
30
0
41
1
10
5.26163150911179
20
-0.018152670709469
30
0
41
1
10
5.32292668527185
20
-0.0534984701596954
30
0
41
1
10
5.41449816717966
20
-0.106662809477427
30
0
41
1
10
5.4449692090991
20
-0.124402907528349
30
0
41
1
10
5.49039012931678
20
-0.151173440397457
30
0
41
1
10
5.50549460747138
20
-0.160116123801771
30
0
41
1
10
5.52789096242682
20
-0.173691469098713
30
0
41
1
10
5.5353543267766
20
-0.178224202320649
30
0
41
1
10
5.54432581244254
20
-0.184070752986997
30
0
41
1
10
5.54611292223964
20
-0.185248488166735
30
0
41
1
10
5.54862578573903
20
-0.187081791513634
30
0
41
1
10
5.54978552737151
20
-0.187732365796336
30
0
41
1
10
5.55002989735584
20
-0.188700701527011
30
0
41
1
10
5.5492416519885
20
-0.18863140162307
30
0
41
1
10
5.54837255107424
20
-0.188789896684313
30
0
41
1
10
5.54446164500482
20
-0.189500845201252
30
0
41
1
10
5.42931250644563
20
-0.209836346620364
30
0
41
1
10
5.3152326732714
20
-0.212128589404159
30
0
41
1
10
5.09175016834419
20
-0.180244739506975
30
0
41
1
10
4.9805771201539
20
-0.146546269225468
30
0
41
1
10
4.83458635052122
20
-0.084340274177805
30
0
41
1
10
4.80471868298523
20
-0.0707274939883007
30
0
41
1
10
4.7746797159935
20
-0.0562948703505697
30
0
0
SPLINE
5
D5
100
AcDbEntity
8
1
62
256
6
ByLayer
370
18
48
1
60
0
100
AcDbSpline
70
4
71
3
72
58
73
54
40
0
40
0
40
0
40
0
40
0.0201778017390885
40
0.0201778017390885
40
0.0941966323400662
40
0.0941966323400662
40
0.131206047640556
40
0.131206047640556
40
0.168215462941046
40
0.168215462941046
40
0.205224878241535
40
0.205224878241535
40
0.242234293542025
40
0.242234293542025
40
0.279243708842514
40
0.279243708842514
40
0.316253124143004
40
0.316253124143004
40
0.353262539443494
40
0.353262539443494
40
0.390271954743983
40
0.390271954743983
40
0.427281370044473
40
0.427281370044473
40
0.464290785344962
40
0.464290785344962
40
0.501300200645452
40
0.501300200645452
40
0.538309615945942
40
0.538309615945942
40
0.612328446546921
40
0.612328446546921
40
0.64933786184741
40
0.64933786184741
40
0.686347277147899
40
0.686347277147899
40
0.723356692448388
40
0.723356692448388
40
0.760366107748876
40
0.760366107748876
40
0.797375523049365
40
0.797375523049365
40
0.834384938349854
40
0.834384938349854
40
0.871394353650343
40
0.871394353650343
40
0.908403768950832
40
0.908403768950832
40
0.945413184251321
40
0.945413184251321
40
0.98242259955181
40
0.98242259955181
40
1
40
1
40
1
40
1
41
1
10
8.74260338046528
20
1.48454009564341
30
0
41
1
10
8.8097656211003
20
1.48451066705306
30
0
41
1
10
8.87696488145508
20
1.48308032804786
30
0
41
1
10
9.18968369718624
20
1.47031588590716
30
0
41
1
10
9.43328993983829
20
1.43814724405942
30
0
41
1
10
9.79820881200067
20
1.36398784545329
30
0
41
1
10
9.91999048962006
20
1.33506278575604
30
0
41
1
10
10.1640353462047
20
1.26958892540546
30
0
41
1
10
10.2860993408721
20
1.23272302690725
30
0
41
1
10
10.5316055838674
20
1.14828667339685
30
0
41
1
10
10.6553433457083
20
1.101420710649
30
0
41
1
10
10.9018585310055
20
1.00132143936892
30
0
41
1
10
11.0248539166769
20
0.947789660301453
30
0
41
1
10
11.2709600068438
20
0.835298458228408
30
0
41
1
10
11.3945527915763
20
0.776648637235922
30
0
41
1
10
11.640839074327
20
0.653626452014407
30
0
41
1
10
11.7631514344866
20
0.589521547842679
30
0
41
1
10
12.0071937397326
20
0.458394656693486
30
0
41
1
10
12.1290724877717
20
0.391759909552292
30
0
41
1
10
12.372753303648
20
0.255944193602744
30
0
41
1
10
12.4944777998323
20
0.186661391944909
30
0
41
1
10
12.7383723002195
20
0.0471668564014749
30
0
41
1
10
12.860649865991
20
-0.0228200887397634
30
0
41
1
10
13.1063391776494
20
-0.162995374968887
30
0
41
1
10
13.2299003815857
20
-0.233335107243903
30
0
41
1
10
13.4760000673823
20
-0.371208404149684
30
0
41
1
10
13.5990960699407
20
-0.439206834407685
30
0
41
1
10
13.8453703891884
20
-0.572348572483918
30
0
41
1
10
13.9687325090987
20
-0.637392467009704
30
0
41
1
10
14.3382806983378
20
-0.824228280022879
30
0
41
1
10
14.5843140930854
20
-0.937051442308501
30
0
41
1
10
14.9541300855892
20
-1.09128823448563
30
0
41
1
10
15.0771942951408
20
-1.13812728679267
30
0
41
1
10
15.3231811055802
20
-1.22324195448883
30
0
41
1
10
15.4459972637603
20
-1.26219911006774
30
0
41
1
10
15.6920366115105
20
-1.3324003503663
30
0
41
1
10
15.8154006285252
20
-1.36270707500938
30
0
41
1
10
16.0603243414058
20
-1.41254384257968
30
0
41
1
10
16.1821987690629
20
-1.43296768048234
30
0
41
1
10
16.4256045757638
20
-1.46478199840095
30
0
41
1
10
16.5473062900547
20
-1.47610499785722
30
0
41
1
10
16.7907768283448
20
-1.49004259702912
30
0
41
1
10
16.912400291454
20
-1.49214078142248
30
0
41
1
10
17.1565982235178
20
-1.48473243978185
30
0
41
1
10
17.2794110463879
20
-1.47560205064096
30
0
41
1
10
17.5261352757082
20
-1.44756342707308
30
0
41
1
10
17.6490509112559
20
-1.42845234818643
30
0
41
1
10
17.8947971611279
20
-1.38296842889196
30
0
41
1
10
18.0177511502299
20
-1.35625167470374
30
0
41
1
10
18.2641854816064
20
-1.2917599760502
30
0
41
1
10
18.3874734092793
20
-1.2542049334503
30
0
41
1
10
18.5687947772821
20
-1.19349791501571
30
0
41
1
10
18.6271901572013
20
-1.17319479264867
30
0
41
1
10
18.6856035751148
20
-1.15204750501218
30
0
0
SPLINE
5
D6
100
AcDbEntity
8
1
62
256
6
ByLayer
370
18
48
1
60
0
100
AcDbSpline
70
4
71
3
72
24
73
20
40
0
40
0
40
0
40
0
40
0.0266434771573017
40
0.0266434771573017
40
0.148313042512639
40
0.148313042512639
40
0.269982607867976
40
0.269982607867976
40
0.391652173223313
40
0.391652173223313
40
0.51332173857865
40
0.51332173857865
40
0.634991303933989
40
0.634991303933989
40
0.756660869289326
40
0.756660869289326
40
0.878330434644663
40
0.878330434644663
40
1
40
1
40
1
40
1
41
1
10
25.0511609426903
20
1.49382879916996
30
0
41
1
10
25.0778508321668
20
1.49394705397666
30
0
41
1
10
25.1045317325662
20
1.49381419221547
30
0
41
1
10
25.2530316304589
20
1.49162010037057
30
0
41
1
10
25.3749583170243
20
1.48470122025398
30
0
41
1
10
25.6190266295486
20
1.46173469484626
30
0
41
1
10
25.7410190975908
20
1.44574157686569
30
0
41
1
10
25.9862302797923
20
1.4025714141944
30
0
41
1
10
26.1099464793264
20
1.37566828031385
30
0
41
1
10
26.3569777214384
20
1.31331908430147
30
0
41
1
10
26.4800662380301
20
1.27772832548516
30
0
41
1
10
26.7263753242684
20
1.19877469068263
30
0
41
1
10
26.8497293096345
20
1.15568872307227
30
0
41
1
10
27.0969670565316
20
1.06061803281907
30
0
41
1
10
27.2202172752537
20
1.00867989472468
30
0
41
1
10
27.4665252167768
20
0.898958127241599
30
0
41
1
10
27.5898243339203
20
0.841354723344523
30
0
41
1
10
27.8366688908203
20
0.720476419197894
30
0
41
1
10
27.9602997318939
20
0.656929809311151
30
0
41
1
10
28.0830482281876
20
0.591976741033335
30
0
0
SPLINE
5
D7
100
AcDbEntity
8
1
62
256
6
ByLayer
370
18
48
1
60
0
100
AcDbSpline
70
4
71
3
72
62
73
58
40
0
40
0
40
0
40
0
40
0.0624999999999939
40
0.0624999999999939
40
0.124999999999988
40
0.124999999999988
40
0.249999999999976
40
0.249999999999976
40
0.312499999999968
40
0.312499999999968
40
0.374999999999961
40
0.374999999999961
40
0.499999999999949
40
0.499999999999949
40
0.515624999999948
40
0.515624999999948
40
0.523437499999948
40
0.527343749999946
40
0.527343749999946
40
0.531249999999945
40
0.531249999999945
40
0.535156249999943
40
0.535156249999943
40
0.537109374999942
40
0.537109374999942
40
0.539062499999942
40
0.546874999999941
40
0.546874999999941
40
0.562499999999942
40
0.562499999999942
40
0.578124999999943
40
0.578124999999943
40
0.593749999999944
40
0.593749999999944
40
0.624999999999948
40
0.624999999999948
40
0.64062499999995
40
0.64062499999995
40
0.656249999999952
40
0.656249999999952
40
0.671874999999954
40
0.671874999999954
40
0.687499999999957
40
0.687499999999957
40
0.718749999999961
40
0.718749999999961
40
0.749999999999965
40
0.749999999999965
40
0.781249999999969
40
0.781249999999969
40
0.812499999999974
40
0.812499999999974
40
0.874999999999982
40
0.874999999999982
40
0.937499999999991
40
0.937499999999991
40
1
40
1
40
1
40
1
41
1
10
6.4145078325445
20
1.10386815791804
30
0
41
1
10
6.27269238524423
20
1.16505522816951
30
0
41
1
10
6.12918534401794
20
1.21992818283772
30
0
41
1
10
5.84082580344764
20
1.31665725400612
30
0
41
1
10
5.69638941092686
20
1.35838956675525
30
0
41
1
10
5.26076062077837
20
1.46503861093001
30
0
41
1
10
4.96720352091381
20
1.51106256799875
30
0
41
1
10
4.51561052991264
20
1.55088255272159
30
0
41
1
10
4.36320859326088
20
1.55936194539956
30
0
41
1
10
4.05381232628832
20
1.56905589116812
30
0
41
1
10
3.89662971658572
20
1.57026798661207
30
0
41
1
10
3.42210126473015
20
1.56727368326804
30
0
41
1
10
3.09978092231515
20
1.5568018558933
30
0
41
1
10
2.73081004549843
20
1.54717791188563
30
0
41
1
10
2.68975312609658
20
1.54613363653593
30
0
41
1
10
2.62807613027255
20
1.54462683999842
30
0
41
1
10
2.59721322150091
20
1.54388827520614
30
0
41
1
10
2.5663218987481
20
1.54317596232929
30
0
41
1
10
2.54572165590923
20
1.54270732439915
30
0
41
1
10
2.53545874163939
20
1.54241495307204
30
0
41
1
10
2.51474239629079
20
1.54211669082014
30
0
41
1
10
2.50424486982163
20
1.54221549187881
30
0
41
1
10
2.48941811596453
20
1.54304650683346
30
0
41
1
10
2.4848999456525
20
1.54347556196353
30
0
41
1
10
2.47569464842496
20
1.54426113445501
30
0
41
1
10
2.45272963908479
20
1.54621888231597
30
0
41
1
10
2.43001133135652
20
1.54814231101162
30
0
41
1
10
2.37601812633724
20
1.55265774358699
30
0
41
1
10
2.34091601911302
20
1.55552101285241
30
0
41
1
10
2.27314149294426
20
1.56068244831738
30
0
41
1
10
2.24043646899128
20
1.5629868238199
30
0
41
1
10
2.1782017716456
20
1.56661506275012
30
0
41
1
10
2.14845163669085
20
1.56794505046278
30
0
41
1
10
2.06866033991361
20
1.56928676405443
30
0
41
1
10
2.02709470250508
20
1.56659567045867
30
0
41
1
10
2.00085798225936
20
1.55186775658356
30
0
41
1
10
1.99821918596032
20
1.54529346053906
30
0
41
1
10
2.0041165646706
20
1.5290883652516
30
0
41
1
10
2.01268388615432
20
1.51941932391873
30
0
41
1
10
2.03751981267558
20
1.49827267858709
30
0
41
1
10
2.05398641387868
20
1.48657671455328
30
0
41
1
10
2.09203072136717
20
1.46186265763535
30
0
41
1
10
2.11344517055821
20
1.44893157552551
30
0
41
1
10
2.18272868529036
20
1.40865369542405
30
0
41
1
10
2.23596461177857
20
1.3796109008814
30
0
41
1
10
2.34777272853066
20
1.31958472885637
30
0
41
1
10
2.40649862059664
20
1.28854679933826
30
0
41
1
10
2.5275170334225
20
1.22453902097052
30
0
41
1
10
2.58984293909239
20
1.19156761554288
30
0
41
1
10
2.71712553751851
20
1.1237454239859
30
0
41
1
10
2.7821481295868
20
1.08886159807699
30
0
41
1
10
2.977955851731
20
0.982764072912033
30
0
41
1
10
3.11029654199211
20
0.909638712789501
30
0
41
1
10
3.37736919311808
20
0.758869135271794
30
0
41
1
10
3.51212932983284
20
0.681219945264559
30
0
41
1
10
3.78411213463383
20
0.522156007827022
30
0
41
1
10
3.92194504697824
20
0.440375146550394
30
0
41
1
10
4.05978408292464
20
0.358392494033637
30
0
0
SPLINE
5
D8
100
AcDbEntity
8
1
62
256
6
ByLayer
370
18
48
1
60
0
100
AcDbSpline
70
4
71
3
72
10
73
6
40
0
40
0
40
0
40
0
40
0.5
40
0.5
40
1
40
1
40
1
40
1
41
1
10
4.05978408295618
20
0.358392494014225
30
0
41
1
10
4.08450401821659
20
0.338968398580676
30
0
41
1
10
4.11512544801946
20
0.318158430134446
30
0
41
1
10
4.18056867122669
20
0.276595692206797
30
0
41
1
10
4.21559610810732
20
0.255665320732248
30
0
41
1
10
4.25059147889129
20
0.235369630406495
30
0
0
SPLINE
5
D9
100
AcDbEntity
8
1
62
256
6
ByLayer
370
18
48
1
60
0
100
AcDbSpline
70
4
71
3
72
60
73
56
40
0
40
0
40
0
40
0
40
0.0268071603623597
40
0.0268071603623597
40
0.0636831408287728
40
0.0636831408287728
40
0.100559121295186
40
0.100559121295186
40
0.137435101761599
40
0.137435101761599
40
0.174311082228012
40
0.174311082228012
40
0.211187062694425
40
0.211187062694425
40
0.248063043160839
40
0.248063043160839
40
0.284939023627252
40
0.284939023627252
40
0.321815004093665
40
0.321815004093665
40
0.358690984560078
40
0.358690984560078
40
0.395566965026491
40
0.395566965026491
40
0.469318925959318
40
0.469318925959318
40
0.50619490642573
40
0.50619490642573
40
0.543070886892143
40
0.543070886892143
40
0.579946867358555
40
0.579946867358555
40
0.616822847824967
40
0.616822847824967
40
0.65369882829138
40
0.65369882829138
40
0.690574808757792
40
0.690574808757792
40
0.727450789224204
40
0.727450789224204
40
0.764326769690617
40
0.764326769690617
40
0.801202750157029
40
0.801202750157029
40
0.838078730623442
40
0.838078730623442
40
0.874954711089854
40
0.874954711089854
40
0.911830691556266
40
0.911830691556266
40
0.948706672022679
40
0.948706672022679
40
0.985582652489091
40
0.985582652489091
40
1
40
1
40
1
40
1
41
1
10
26.8729593324256
20
-1.14581513472058
30
0
41
1
10
26.7833695011876
20
-1.17859934936845
30
0
41
1
10
26.6940870964485
20
-1.20909583625391
30
0
41
1
10
26.4827404868803
20
-1.27690992756803
30
0
41
1
10
26.3607872975126
20
-1.3122292848646
30
0
41
1
10
26.1167876655613
20
-1.37406441141516
30
0
41
1
10
25.9948457567126
20
-1.40078380424276
30
0
41
1
10
25.7510343586044
20
-1.44422923452393
30
0
41
1
10
25.6289800949543
20
-1.46055248499843
30
0
41
1
10
25.3835542775115
20
-1.48412006422512
30
0
41
1
10
25.2599726917121
20
-1.49135943328756
30
0
41
1
10
25.0132768176048
20
-1.49531380445109
30
0
41
1
10
24.8902948472559
20
-1.49170593150339
30
0
41
1
10
24.6438759840342
20
-1.47545308245836
30
0
41
1
10
24.5205792744449
20
-1.46275351568323
30
0
41
1
10
24.2738033803037
20
-1.42736112727923
30
0
41
1
10
24.1505036413794
20
-1.40478845858695
30
0
41
1
10
23.9041446210188
20
-1.34993350371849
30
0
41
1
10
23.7810037930407
20
-1.31712292715343
30
0
41
1
10
23.5346226696535
20
-1.24304354347558
30
0
41
1
10
23.4110088692079
20
-1.20265674542927
30
0
41
1
10
23.1651771067423
20
-1.11433091585894
30
0
41
1
10
23.0428798119568
20
-1.06597036408198
30
0
41
1
10
22.6772574112463
20
-0.910333274533912
30
0
41
1
10
22.4340616367189
20
-0.79611057648151
30
0
41
1
10
22.0678929295511
20
-0.606874486217862
30
0
41
1
10
21.9455248700387
20
-0.541567798314986
30
0
41
1
10
21.69935511403
20
-0.408041368385966
30
0
41
1
10
21.5757117848249
20
-0.3394754710813
30
0
41
1
10
21.3309704595033
20
-0.200709346856968
30
0
41
1
10
21.2091079984822
20
-0.130718621547487
30
0
41
1
10
20.965483357658
20
0.008792752577591
30
0
41
1
10
20.843805187085
20
0.0784746376743328
30
0
41
1
10
20.6006922712157
20
0.217747374906963
30
0
41
1
10
20.479129075088
20
0.287065861691275
30
0
41
1
10
20.2348371056333
20
0.422947287034504
30
0
41
1
10
20.1121702460465
20
0.489616854921394
30
0
41
1
10
19.8660397610469
20
0.621036119676972
30
0
41
1
10
19.7428449761595
20
0.685238779771993
30
0
41
1
10
19.4968810557834
20
0.807188690680164
30
0
41
1
10
19.3739369543164
20
0.86488773155304
30
0
41
1
10
19.1280152844406
20
0.976114814217055
30
0
41
1
10
19.0046040838274
20
1.02913049727607
30
0
41
1
10
18.7591575579066
20
1.12630862725115
30
0
41
1
10
18.6370070019651
20
1.1705673481589
30
0
41
1
10
18.3934873665578
20
1.25228069394905
30
0
41
1
10
18.2720162835004
20
1.28944661871708
30
0
41
1
10
18.0287214952134
20
1.35362513532837
30
0
41
1
10
17.9069608673134
20
1.38044472531749
30
0
41
1
10
17.6631029984596
20
1.42609623143446
30
0
41
1
10
17.5409286772976
20
1.44545553168248
30
0
41
1
10
17.2950931041753
20
1.4741967695233
30
0
41
1
10
17.1716687057054
20
1.483813194719
30
0
41
1
10
17.000995860452
20
1.48959783494874
30
0
41
1
10
16.9530547951593
20
1.49033358424361
30
0
41
1
10
16.9051092967593
20
1.49022455614957
30
0
0
SPLINE
5
DA
100
AcDbEntity
8
1
62
256
6
ByLayer
370
18
48
1
60
0
100
AcDbSpline
70
4
71
3
72
32
73
28
40
0
40
0
40
0
40
0
40
0.0228996220158537
40
0.0228996220158537
40
0.0839683956398643
40
0.0839683956398643
40
0.145037169263875
40
0.145037169263875
40
0.206105942887885
40
0.206105942887885
40
0.267174716511895
40
0.267174716511895
40
0.389312263759913
40
0.389312263759913
40
0.511449811007931
40
0.511449811007931
40
0.57251858463194
40
0.57251858463194
40
0.633587358255949
40
0.633587358255949
40
0.755724905503967
40
0.755724905503967
40
0.816793679127976
40
0.816793679127976
40
0.877862452751985
40
0.877862452751985
40
1
40
1
40
1
40
1
41
1
10
10.5552254203655
20
-1.1382087553778
30
0
41
1
10
10.5094450319888
20
-1.15515712989208
30
0
41
1
10
10.4637034131648
20
-1.17154920778762
30
0
41
1
10
10.2960990560974
20
-1.22949588344412
30
0
41
1
10
10.1742230505483
20
-1.26663952826445
30
0
41
1
10
9.9295590509748
20
-1.33269506947585
30
0
41
1
10
9.80698296999452
20
-1.36202263598614
30
0
41
1
10
9.56110872808239
20
-1.41234306070436
30
0
41
1
10
9.43730474310576
20
-1.43323208070473
30
0
41
1
10
9.19032988810511
20
-1.46482272649249
30
0
41
1
10
9.06714968339978
20
-1.47531570173271
30
0
41
1
10
8.69775825978795
20
-1.49039858229716
30
0
41
1
10
8.44958123687616
20
-1.4827561296284
30
0
41
1
10
7.96037319804174
20
-1.4216581423037
30
0
41
1
10
7.71658893416207
20
-1.37577696205256
30
0
41
1
10
7.3511197177165
20
-1.27865621787612
30
0
41
1
10
7.22912971574564
20
-1.24158818542756
30
0
41
1
10
6.9838055433807
20
-1.15824154377063
30
0
41
1
10
6.86046266092745
20
-1.11200454411059
30
0
41
1
10
6.48975639938095
20
-0.963107290596071
30
0
41
1
10
6.24325659352516
20
-0.8522313645895
30
0
41
1
10
5.87277384200499
20
-0.667874667703728
30
0
41
1
10
5.74914404583825
20
-0.603743359554841
30
0
41
1
10
5.50296302180109
20
-0.472715112118578
30
0
41
1
10
5.3802234490424
20
-0.405602522488067
30
0
41
1
10
5.01241495476799
20
-0.200574322496834
30
0
41
1
10
4.76676382344115
20
-0.0607191153760596
30
0
41
1
10
4.51957488288491
20
0.0807497913654061
30
0
0
SPLINE
5
DB
100
AcDbEntity
8
1
62
256
6
ByLayer
370
18
48
1
60
0
100
AcDbSpline
70
4
71
3
72
10
73
6
40
0
40
0
40
0
40
0
40
0.5
40
0.5
40
1
40
1
40
1
40
1
41
1
10
4.108848583027
20
-1.52816766395975
30
0
41
1
10
4.09473726920035
20
-1.52531383362282
30
0
41
1
10
4.0827681217944
20
-1.52185662777305
30
0
41
1
10
4.06508999432452
20
-1.51339294333997
30
0
41
1
10
4.05956827244614
20
-1.5084363473886
30
0
41
1
10
4.05957242189498
20
-1.50298304342303
30
0
0
SPLINE
5
DC
100
AcDbEntity
8
1
62
256
6
ByLayer
370
18
48
1
60
0
100
AcDbSpline
70
4
71
3
72
38
73
34
40
0
40
0
40
0
40
0
40
0.0467245979888708
40
0.0467245979888708
40
0.0934491959777416
40
0.0934491959777416
40
0.186898391955487
40
0.186898391955487
40
0.233622989944361
40
0.233622989944361
40
0.280347587933236
40
0.280347587933236
40
0.373796783910984
40
0.373796783910984
40
0.467245979888731
40
0.467245979888731
40
0.513970577877605
40
0.513970577877605
40
0.560695175866478
40
0.560695175866478
40
0.654144371844225
40
0.654144371844225
40
0.7008689698331
40
0.7008689698331
40
0.747593567821974
40
0.747593567821974
40
0.841042763799723
40
0.841042763799723
40
0.887767361788597
40
0.887767361788597
40
0.934491959777472
40
0.934491959777472
40
1
40
1
40
1
40
1
41
1
10
29.4550921599636
20
-1.57582835103585
30
0
41
1
10
29.3227468256115
20
-1.58444371324782
30
0
41
1
10
29.1906306629431
20
-1.58684256845967
30
0
41
1
10
28.9260825263677
20
-1.57931752858494
30
0
41
1
10
28.7932558718499
20
-1.56932948992448
30
0
41
1
10
28.3974251369991
20
-1.52148286718679
30
0
41
1
10
28.136402908064
20
-1.46586858287807
30
0
41
1
10
27.7440935363174
20
-1.35073850633267
30
0
41
1
10
27.613211573115
20
-1.30706767438275
30
0
41
1
10
27.3504371851326
20
-1.20971582980474
30
0
41
1
10
27.2182259413934
20
-1.15589726889686
30
0
41
1
10
26.8208877240925
20
-0.981255061797754
30
0
41
1
10
26.5594356893819
20
-0.849096997923397
30
0
41
1
10
26.0364862432584
20
-0.563706528090648
30
0
41
1
10
25.774902277267
20
-0.410652059101665
30
0
41
1
10
25.3781580649337
20
-0.171698232157638
30
0
41
1
10
25.2456525379414
20
-0.0909299252345761
30
0
41
1
10
24.9826328519078
20
0.0692290388142283
30
0
41
1
10
24.8516212432488
20
0.148930410127036
30
0
41
1
10
24.4592976531253
20
0.385628302237308
30
0
41
1
10
24.1983034580151
20
0.539552446677504
30
0
41
1
10
23.8025427969113
20
0.756313241686996
30
0
41
1
10
23.6695409356851
20
0.826582323698489
30
0
41
1
10
23.405894750927
20
0.959250950794285
30
0
41
1
10
23.27468823562
20
1.02168860343554
30
0
41
1
10
22.8817105210797
20
1.19610812234097
30
0
41
1
10
22.6209463303765
20
1.29561175598198
30
0
41
1
10
22.2263987355879
20
1.41393194958624
30
0
41
1
10
22.0938858667336
20
1.44834309693871
30
0
41
1
10
21.8291748730483
20
1.50556657226395
30
0
41
1
10
21.697606724617
20
1.52822830369368
30
0
41
1
10
21.3824397677448
20
1.56832473399658
30
0
41
1
10
21.1992519506712
20
1.58003328559567
30
0
41
1
10
21.0157657763883
20
1.57990758108613
30
0
0
SPLINE
5
DD
100
AcDbEntity
8
1
62
256
6
ByLayer
370
18
48
1
60
0
100
AcDbSpline
70
4
71
3
72
40
73
36
40
0
40
0
40
0
40
0
40
0.043219934546555
40
0.043219934546555
40
0.0872320773977667
40
0.0872320773977667
40
0.175256363100188
40
0.175256363100188
40
0.219268505951399
40
0.219268505951399
40
0.263280648802611
40
0.263280648802611
40
0.351304934505033
40
0.351304934505033
40
0.395317077356244
40
0.395317077356244
40
0.439329220207456
40
0.439329220207456
40
0.527353505909881
40
0.527353505909881
40
0.571365648761093
40
0.571365648761093
40
0.615377791612305
40
0.615377791612305
40
0.703402077314727
40
0.703402077314727
40
0.747414220165938
40
0.747414220165938
40
0.79142636301715
40
0.79142636301715
40
0.879450648719574
40
0.879450648719574
40
0.967474934421998
40
0.967474934421998
40
1
40
1
40
1
40
1
41
1
10
13.6732261631616
20
-1.49815894085791
30
0
41
1
10
13.5434519144283
20
-1.52245760328805
30
0
41
1
10
13.4127728981392
20
-1.54121654179832
30
0
41
1
10
13.1513605515708
20
-1.56701978574816
30
0
41
1
10
13.0201026613225
20
-1.57397167447405
30
0
41
1
10
12.6271152574943
20
-1.57676052574198
30
0
41
1
10
12.3657463313073
20
-1.5546027805737
30
0
41
1
10
11.9705774605887
20
-1.485765930718
30
0
41
1
10
11.837686287805
20
-1.45673826751144
30
0
41
1
10
11.5729524516217
20
-1.38782836828824
30
0
41
1
10
11.4413268606517
20
-1.34806265273315
30
0
41
1
10
11.0477376341998
20
-1.21393018314185
30
0
41
1
10
10.7866137842067
20
-1.10514187002741
30
0
41
1
10
10.3921373295367
20
-0.918332953584354
30
0
41
1
10
10.2602258806218
20
-0.852065166797814
30
0
41
1
10
9.99483431910721
20
-0.712236960655133
30
0
41
1
10
9.86274417288024
20
-0.639586470728545
30
0
41
1
10
9.46815377778685
20
-0.416448045231419
30
0
41
1
10
9.20677625007508
20
-0.260502705158388
30
0
41
1
10
8.81320068527694
20
-0.0224741715743448
30
0
41
1
10
8.68166355958834
20
0.0573996608116261
30
0
41
1
10
8.41707536963909
20
0.216842986305949
30
0
41
1
10
8.28392380801967
20
0.296457476485216
30
0
41
1
10
7.88827409013783
20
0.529160682040043
30
0
41
1
10
7.62694593936922
20
0.67700515141027
30
0
41
1
10
7.23363794244739
20
0.880452573349174
30
0
41
1
10
7.10234683571249
20
0.945263941089053
30
0
41
1
10
6.83871861251527
20
1.06782766014504
30
0
41
1
10
6.70573258715498
20
1.12571788662518
30
0
41
1
10
6.30874047084114
20
1.28450926164695
30
0
41
1
10
6.04690268814488
20
1.37059690448075
30
0
41
1
10
5.52258886377126
20
1.49910785893246
30
0
41
1
10
5.26047424784812
20
1.54171190560839
30
0
41
1
10
4.89660665966275
20
1.56671035192542
30
0
41
1
10
4.79862288308266
20
1.57008758278019
30
0
41
1
10
4.70067432766953
20
1.57011722168207
30
0
0
SPLINE
5
DE
100
AcDbEntity
8
1
62
256
6
ByLayer
370
18
48
1
60
0
100
AcDbSpline
70
4
71
3
72
38
73
34
40
0
40
0
40
0
40
0
40
0.0591401498256824
40
0.0591401498256824
40
0.118280299651365
40
0.118280299651365
40
0.236560599302727
40
0.236560599302727
40
0.295700749128408
40
0.295700749128408
40
0.35484089895409
40
0.35484089895409
40
0.413981048779771
40
0.413981048779771
40
0.473121198605452
40
0.473121198605452
40
0.532261348431133
40
0.532261348431133
40
0.591401498256814
40
0.591401498256814
40
0.650541648082495
40
0.650541648082495
40
0.709681797908177
40
0.709681797908177
40
0.768821947733858
40
0.768821947733858
40
0.827962097559539
40
0.827962097559539
40
0.88710224738522
40
0.88710224738522
40
0.946242397210901
40
0.946242397210901
40
1
40
1
40
1
40
1
41
1
10
6.41403674798812
20
1.10408135636774
30
0
41
1
10
6.535096879729
20
1.05122359837225
30
0
41
1
10
6.65620471237918
20
0.995842280076715
30
0
41
1
10
6.89778184995458
20
0.879440937817577
30
0
41
1
10
7.01805098473551
20
0.818121794506993
30
0
41
1
10
7.37815859865623
20
0.625876195456442
30
0
41
1
10
7.61943235419815
20
0.489991832173388
30
0
41
1
10
7.98305637041159
20
0.273994695800582
30
0
41
1
10
8.10421694901461
20
0.201277560035265
30
0
41
1
10
8.34590039612689
20
0.0564983666811827
30
0
41
1
10
8.46622989819431
20
-0.0163723487477512
30
0
41
1
10
8.70627802517947
20
-0.162365846406942
30
0
41
1
10
8.82638962539443
20
-0.23482996181167
30
0
41
1
10
9.06770178818428
20
-0.377190170771456
30
0
41
1
10
9.18849988082016
20
-0.447754310659945
30
0
41
1
10
9.43066496575821
20
-0.587142479185701
30
0
41
1
10
9.55193039185104
20
-0.65501953534897
30
0
41
1
10
9.79340252403773
20
-0.78425247370231
30
0
41
1
10
9.91359387857611
20
-0.84644826325578
30
0
41
1
10
10.1529878258136
20
-0.965771980759314
30
0
41
1
10
10.2725546938802
20
-1.02237013976136
30
0
41
1
10
10.5126768167692
20
-1.12798846661249
30
0
41
1
10
10.6328535324482
20
-1.17750735801505
30
0
41
1
10
10.8733663638876
20
-1.26977736541798
30
0
41
1
10
10.9943191797958
20
-1.31219114109973
30
0
41
1
10
11.2373640438889
20
-1.38758369147575
30
0
41
1
10
11.3582178096824
20
-1.42069796710518
30
0
41
1
10
11.5983744198312
20
-1.47793977809223
30
0
41
1
10
11.7180005042512
20
-1.50178315763389
30
0
41
1
10
11.9579332191736
20
-1.53939711433367
30
0
41
1
10
12.077899821641
20
-1.55338964208866
30
0
41
1
10
12.3065424405413
20
-1.57077207099121
30
0
41
1
10
12.41549673838
20
-1.57489145666636
30
0
41
1
10
12.5251946917234
20
-1.57480403176831
30
0
0
SPLINE
5
DF
100
AcDbEntity
8
1
62
256
6
ByLayer
370
18
48
1
60
0
100
AcDbSpline
70
4
71
3
72
60
73
56
40
0
40
0
40
0
40
0
40
0.0353830923010454
40
0.0353830923010454
40
0.0709083103010801
40
0.0709083103010801
40
0.106433528301114
40
0.106433528301114
40
0.141958746301149
40
0.141958746301149
40
0.177483964301184
40
0.177483964301184
40
0.213009182301218
40
0.213009182301218
40
0.248534400301253
40
0.248534400301253
40
0.284059618301287
40
0.284059618301287
40
0.319584836301322
40
0.319584836301322
40
0.355110054301356
40
0.355110054301356
40
0.390635272301391
40
0.390635272301391
40
0.426160490301425
40
0.426160490301425
40
0.46168570830146
40
0.46168570830146
40
0.497210926301495
40
0.497210926301495
40
0.532736144301529
40
0.532736144301529
40
0.568261362301564
40
0.568261362301564
40
0.603786580301598
40
0.603786580301598
40
0.639311798301633
40
0.639311798301633
40
0.7103622343017
40
0.7103622343017
40
0.745887452301734
40
0.745887452301734
40
0.781412670301768
40
0.781412670301768
40
0.852463106301835
40
0.852463106301835
40
0.887988324301869
40
0.887988324301869
40
0.923513542301903
40
0.923513542301903
40
0.959038760301937
40
0.959038760301937
40
0.994563978301971
40
0.994563978301971
40
1
40
1
40
1
40
1
41
1
10
18.6962760390078
20
1.13908365382105
30
0
41
1
10
18.8155368236346
20
1.18919971505173
30
0
41
1
10
18.9343073230856
20
1.23618661869278
30
0
41
1
10
19.1734394857128
20
1.32171087832654
30
0
41
1
10
19.2939592553684
20
1.36014836672243
30
0
41
1
10
19.5355379059867
20
1.42893456615303
30
0
41
1
10
19.6568509407802
20
1.45937684122387
30
0
41
1
10
19.8981678696424
20
1.50968278627369
30
0
41
1
10
20.0187059717508
20
1.52966715912095
30
0
41
1
10
20.2587298823806
20
1.56004370126735
30
0
41
1
10
20.3780204627802
20
1.57039511830848
30
0
41
1
10
20.6171016475053
20
1.5808663227013
30
0
41
1
10
20.7371344789607
20
1.58106008349242
30
0
41
1
10
20.9774593096965
20
1.57144444017069
30
0
41
1
10
21.0975194947091
20
1.56150951005438
30
0
41
1
10
21.3392895964735
20
1.53135714200053
30
0
41
1
10
21.4609835622223
20
1.51133170952684
30
0
41
1
10
21.7021563746574
20
1.4619642995383
30
0
41
1
10
21.8218275912898
20
1.43233637298863
30
0
41
1
10
22.0610365714105
20
1.36431428030568
30
0
41
1
10
22.1808859199756
20
1.32623579244594
30
0
41
1
10
22.4206047622019
20
1.24172769706377
30
0
41
1
10
22.5401819343508
20
1.19494722232542
30
0
41
1
10
22.780317812011
20
1.09367491512867
30
0
41
1
10
22.9013449507952
20
1.03958421034289
30
0
41
1
10
23.144250736126
20
0.924466757337598
30
0
41
1
10
23.2646115682591
20
0.863538313353587
30
0
41
1
10
23.5045417310337
20
0.736936159467803
30
0
41
1
10
23.6244735959058
20
0.671815721610358
30
0
41
1
10
23.864136842297
20
0.537865327018267
30
0
41
1
10
23.9835281612529
20
0.468491259309417
30
0
41
1
10
24.2226352390268
20
0.326755018684679
30
0
41
1
10
24.3427291271729
20
0.255022809232401
30
0
41
1
10
24.5840690970408
20
0.109981308794318
30
0
41
1
10
24.7054506331108
20
0.0357368042940323
30
0
41
1
10
24.9468270302912
20
-0.112139219470805
30
0
41
1
10
25.067168647733
20
-0.185059151656532
30
0
41
1
10
25.4275674209834
20
-0.400303045828963
30
0
41
1
10
25.6652870798493
20
-0.54182408110583
30
0
41
1
10
26.0255280777443
20
-0.739222285769586
30
0
41
1
10
26.145683106772
20
-0.803387127504294
30
0
41
1
10
26.3868102856284
20
-0.927291890164611
30
0
41
1
10
26.5083532744283
20
-0.986503648076109
30
0
41
1
10
26.8705944583553
20
-1.15179591142146
30
0
41
1
10
27.1086370432388
20
-1.24905790343718
30
0
41
1
10
27.4680855863897
20
-1.36778611448005
30
0
41
1
10
27.5878574213167
20
-1.40332905380151
30
0
41
1
10
27.8275769066363
20
-1.4658000222102
30
0
41
1
10
27.9479030813358
20
-1.4924274179462
30
0
41
1
10
28.19058628967
20
-1.53579426544755
30
0
41
1
10
28.3116421511245
20
-1.55258629582312
30
0
41
1
10
28.5516776819551
20
-1.57607175063552
30
0
41
1
10
28.6712740109281
20
-1.58266774496005
30
0
41
1
10
28.8094278451553
20
-1.58447327967079
30
0
41
1
10
28.8277588302826
20
-1.58459664346322
30
0
41
1
10
28.8460860229187
20
-1.58460325201369
30
0
0
SPLINE
5
E0
100
AcDbEntity
8
1
62
256
6
ByLayer
370
18
48
1
60
0
100
AcDbSpline
70
4
71
3
72
12
73
8
40
0
40
0
40
0
40
0
40
0.25
40
0.25
40
0.500000000000001
40
0.500000000000001
40
1
40
1
40
1
40
1
41
1
10
29.4550921599634
20
-1.57582835103682
30
0
41
1
10
29.4595969501577
20
-1.56349020952237
30
0
41
1
10
29.4636308547536
20
-1.55093955980536
30
0
41
1
10
29.4694732832
20
-1.52873153122704
30
0
41
1
10
29.4711729951657
20
-1.51951073907713
30
0
41
1
10
29.4729419714832
20
-1.49903949610439
30
0
41
1
10
29.4700248136601
20
-1.49451771755196
30
0
41
1
10
29.4652814329201
20
-1.49550810337976
30
0
0
SPLINE
5
E1
100
AcDbEntity
8
1
62
256
6
ByLayer
370
18
48
1
60
0
100
AcDbSpline
70
4
71
3
72
22
73
18
40
0
40
0
40
0
40
0
40
0.250000000000006
40
0.250000000000006
40
0.500000000000011
40
0.500000000000011
40
0.625000000000014
40
0.625000000000014
40
0.687500000000015
40
0.687500000000015
40
0.750000000000017
40
0.750000000000017
40
0.875000000000001
40
0.875000000000001
40
0.937500000000001
40
0.937500000000001
40
1
40
1
40
1
40
1
41
1
10
28.0830482281875
20
0.59197674103325
30
0
41
1
10
28.182959931052
20
0.511510778980664
30
0
41
1
10
28.2844822002004
20
0.437291382763135
30
0
41
1
10
28.4920606835403
20
0.306437452550853
30
0
41
1
10
28.5990335969028
20
0.249164323656487
30
0
41
1
10
28.7579016756685
20
0.182903624521288
30
0
41
1
10
28.8107251159141
20
0.163958427724595
30
0
41
1
10
28.8897399186172
20
0.140762136066712
30
0
41
1
10
28.9160593008476
20
0.133901153249354
30
0
41
1
10
28.9685405363103
20
0.122104016036843
30
0
41
1
10
28.9946876631424
20
0.116889163349555
30
0
41
1
10
29.0720316577201
20
0.106349648896895
30
0
41
1
10
29.121937891957
20
0.108223460669848
30
0
41
1
10
29.1834397142659
20
0.137687051259519
30
0
41
1
10
29.2012384367069
20
0.152223484423416
30
0
41
1
10
29.2272796319976
20
0.191652835508279
30
0
41
1
10
29.2353933403516
20
0.21640311894285
30
0
41
1
10
29.2385381405681
20
0.243956983656062
30
0
0
SPLINE
5
E2
100
AcDbEntity
8
1
62
256
6
ByLayer
370
18
48
1
60
0
100
AcDbSpline
70
4
71
3
72
24
73
20
40
0
40
0
40
0
40
0
40
0.125
40
0.125
40
0.25
40
0.25
40
0.375
40
0.375
40
0.5
40
0.5
40
0.625
40
0.625
40
0.75
40
0.75
40
0.8125
40
0.8125
40
0.875
40
0.875
40
1
40
1
40
1
40
1
41
1
10
4.0595724218953
20
-1.50298304342303
30
0
41
1
10
4.05959411674789
20
-1.47447115431703
30
0
41
1
10
4.05960664330149
20
-1.43737562257442
30
0
41
1
10
4.05961991068287
20
-1.34609513859388
30
0
41
1
10
4.05962054970675
20
-1.29149549550621
30
0
41
1
10
4.05961668453654
20
-1.16924576622304
30
0
41
1
10
4.05961226432896
20
-1.10120824980416
30
0
41
1
10
4.05960469318242
20
-0.950948541978477
30
0
41
1
10
4.05960167057913
20
-0.869984967260109
30
0
41
1
10
4.05960191392052
20
-0.699896141615
30
0
41
1
10
4.05960517511778
20
-0.609822054291129
30
0
41
1
10
4.05962073427781
20
-0.422187693576518
30
0
41
1
10
4.05963283567684
20
-0.326643747711756
30
0
41
1
10
4.0596573090786
20
-0.180820236201953
30
0
41
1
10
4.05966650765868
20
-0.131791648089347
30
0
41
1
10
4.05968679895409
20
-0.0328726582688432
30
0
41
1
10
4.05969792205846
20
0.017109007816515
30
0
41
1
10
4.0597328580713
20
0.165198771914533
30
0
41
1
10
4.05975848423617
20
0.262500887945578
30
0
41
1
10
4.05978408295283
20
0.358392494014851
30
0
0
SPLINE
5
E3
100
AcDbEntity
8
1
62
256
6
ByLayer
370
18
48
1
60
0
100
AcDbSpline
70
4
71
3
72
20
73
16
40
0
40
0
40
0
40
0
40
0.25
40
0.25
40
0.375
40
0.375
40
0.5
40
0.5
40
0.625
40
0.625
40
0.75
40
0.75
40
0.875
40
0.875
40
1
40
1
40
1
40
1
41
1
10
29.4552849610985
20
-1.49659226941944
30
0
41
1
10
29.411920486273
20
-1.49658705200616
30
0
41
1
10
29.372964622607
20
-1.48418856230259
30
0
41
1
10
29.3217999813583
20
-1.44515613648329
30
0
41
1
10
29.3060013433549
20
-1.4286450681976
30
0
41
1
10
29.2778614591504
20
-1.38939542508814
30
0
41
1
10
29.2653908060373
20
-1.36657830123931
30
0
41
1
10
29.24371734843
20
-1.31442117949152
30
0
41
1
10
29.234513522056
20
-1.28508322134311
30
0
41
1
10
29.2195882706638
20
-1.2194561674377
30
0
41
1
10
29.2139594174333
20
-1.18339943750277
30
0
41
1
10
29.2065831629077
20
-1.10648884953576
30
0
41
1
10
29.2047822286958
20
-1.06541724124989
30
0
41
1
10
29.2049709981083
20
-0.978018865441186
30
0
41
1
10
29.2069810279418
20
-0.931457374851334
30
0
41
1
10
29.2109303526677
20
-0.882693481348099
30
0
0
SPLINE
5
E4
100
AcDbEntity
8
1
62
256
6
ByLayer
370
18
48
1
60
0
100
AcDbSpline
70
4
71
3
72
8
73
4
40
0
40
0
40
0
40
0
40
1
40
1
40
1
40
1
41
1
10
29.4652814329214
20
-1.49550810337945
30
0
41
1
10
29.4618235577129
20
-1.49623008434224
30
0
41
1
10
29.4584897749281
20
-1.49659248885885
30
0
41
1
10
29.4552849610984
20
-1.49659226941944
30
0
0
SPLINE
5
E5
100
AcDbEntity
8
SK1
62
256
6
ByLayer
370
18
48
1
60
0
100
AcDbSpline
70
4
71
3
72
14
73
10
40
0
40
0
40
0
40
0
40
0.124999999999999
40
0.124999999999999
40
0.249999999999998
40
0.249999999999998
40
0.500000000000001
40
0.500000000000001
40
1
40
1
40
1
40
1
41
1
10
-35.3
20
-2.28761869977731
30
0
41
1
10
-35.3
20
-2.28060991994036
30
0
41
1
10
-35.3017593723636
20
-2.27130537837502
30
0
41
1
10
-35.306935341198
20
-2.25185501029773
30
0
41
1
10
-35.3102739075535
20
-2.24180747228763
30
0
41
1
10
-35.3215583577555
20
-2.21111991672979
30
0
41
1
10
-35.3303095934912
20
-2.19109430533751
30
0
41
1
10
-35.358391202053
20
-2.13170763619709
30
0
41
1
10
-35.378655954467
20
-2.09494059243894
30
0
41
1
10
-35.4
20
-2.06067261098298
30
0
0
SPLINE
5
E6
100
AcDbEntity
8
SK1
62
256
6
ByLayer
370
18
48
1
60
0
100
AcDbSpline
70
4
71
3
72
8
73
4
40
0
40
0
40
0
40
0
40
1
40
1
40
1
40
1
41
1
10
-36
20
-1.7494807393436
30
0
41
1
10
-35.8061051740419
20
-2.08133639713765
30
0
41
1
10
-35.6037763127274
20
-2.40918762022565
30
0
41
1
10
-35.4
20
-2.73635160115393
30
0
0
SPLINE
5
E7
100
AcDbEntity
8
SK1
62
256
6
ByLayer
370
18
48
1
60
0
100
AcDbSpline
70
4
71
3
72
8
73
4
40
0
40
0
40
0
40
0
40
1
40
1
40
1
40
1
41
1
10
-35.4
20
-2.06067261098298
30
0
41
1
10
-35.603768278691
20
-1.73352152874392
30
0
41
1
10
-35.8060928139637
20
-1.4056785615378
30
0
41
1
10
-36
20
-1.07380174917265
30
0
0
SPLINE
5
E8
100
AcDbEntity
8
SK1
62
256
6
ByLayer
370
18
48
1
60
0
100
AcDbSpline
70
4
71
3
72
14
73
10
40
0
40
0
40
0
40
0
40
0.500000000000002
40
0.500000000000002
40
0.750000000000001
40
0.750000000000001
40
0.875000000000001
40
0.875000000000001
40
1
40
1
40
1
40
1
41
1
10
-35.4
20
-2.73635160115438
30
0
41
1
10
-35.3787677796886
20
-2.77044004660738
30
0
41
1
10
-35.3584290958894
20
-2.80184467327857
30
0
41
1
10
-35.3303626450498
20
-2.84207814019953
30
0
41
1
10
-35.3215171954454
20
-2.85418959860778
30
0
41
1
10
-35.3102812516991
20
-2.86771077769424
30
0
41
1
10
-35.3068890218584
20
-2.8714081249918
30
0
41
1
10
-35.3017585680987
20
-2.87551599076292
30
0
41
1
10
-35.3
20
-2.87590547883207
30
0
41
1
10
-35.3
20
-2.87320715792546
30
0
0
LINE
5
76
100
AcDbEntity
8
81
62
256
6
ByLayer
370
18
48
1
60
0
100
AcDbLine
10
30
20
0
30
0
11
35
21
0
31
0
39
0
210
0
220
0
230
1
0
LINE
5
77
100
AcDbEntity
8
1
62
256
6
ByLayer
370
18
48
1
60
0
100
AcDbLine
10
2.110178
20
1.56856
30
0
11
1.591609
21
1.568249
31
0
39
0
210
0
220
0
230
1
0
LINE
5
79
100
AcDbEntity
8
1
62
256
6
ByLayer
370
18
48
1
60
0
100
AcDbLine
10
4.696821
20
1.570112
30
0
11
3.779552
21
1.569562
31
0
39
0
210
0
220
0
230
1
0
LINE
5
7A
100
AcDbEntity
8
1
62
256
6
ByLayer
370
18
48
1
60
0
100
AcDbLine
10
12.856569
20
1.575008
30
0
11
12.520763
21
1.574807
31
0
39
0
210
0
220
0
230
1
0
LINE
5
7B
100
AcDbEntity
8
1
62
256
6
ByLayer
370
18
48
1
60
0
100
AcDbLine
10
21.016767
20
1.579904
30
0
11
20.680991
21
1.579703
31
0
39
0
210
0
220
0
230
1
0
LINE
5
7C
100
AcDbEntity
8
1
62
256
6
ByLayer
370
18
48
1
60
0
100
AcDbLine
10
29.17654
20
1.5848
30
0
11
28.844368
21
1.584601
31
0
39
0
210
0
220
0
230
1
0
LINE
5
7D
100
AcDbEntity
8
1
62
256
6
ByLayer
370
18
48
1
60
0
100
AcDbLine
10
28.844368
20
-1.584601
30
0
11
29.176456
21
-1.5848
31
0
39
0
210
0
220
0
230
1
0
LINE
5
7E
100
AcDbEntity
8
1
62
256
6
ByLayer
370
18
48
1
60
0
100
AcDbLine
10
20.680991
20
-1.579703
30
0
11
21.016212
21
-1.579904
31
0
39
0
210
0
220
0
230
1
0
LINE
5
7F
100
AcDbEntity
8
1
62
256
6
ByLayer
370
18
48
1
60
0
100
AcDbLine
10
12.520763
20
-1.574807
30
0
11
12.8555
21
-1.575008
31
0
39
0
210
0
220
0
230
1
0
LINE
5
80
100
AcDbEntity
8
1
62
256
6
ByLayer
370
18
48
1
60
0
100
AcDbLine
10
3.779552
20
-1.569562
30
0
11
4.69602
21
-1.570112
31
0
39
0
210
0
220
0
230
1
0
LINE
5
81
100
AcDbEntity
8
1
62
256
6
ByLayer
370
18
48
1
60
0
100
AcDbLine
10
1.591609
20
-1.568249
30
0
11
2.110178
21
-1.56856
31
0
39
0
210
0
220
0
230
1
0
LINE
5
82
100
AcDbEntity
8
SK1
62
256
6
ByLayer
370
18
48
1
60
0
100
AcDbLine
10
-35.278312
20
3
30
0
11
-36
21
1.75
31
0
39
0
210
0
220
0
230
1
0
LINE
5
84
100
AcDbEntity
8
SK1
62
256
6
ByLayer
370
18
48
1
60
0
100
AcDbLine
10
-36
20
-1.75
30
0
11
-35.278312
21
-3
31
0
39
0
210
0
220
0
230
1
0
LINE
5
85
100
AcDbEntity
8
SK1
62
256
6
ByLayer
370
18
48
1
60
0
100
AcDbLine
10
0
20
3
30
0
11
-35.278312
21
3
31
0
39
0
210
0
220
0
230
1
0
LINE
5
86
100
AcDbEntity
8
SK1
62
256
6
ByLayer
370
18
48
1
60
0
100
AcDbLine
10
-35.278312
20
-3
30
0
11
0
21
-3
31
0
39
0
210
0
220
0
230
1
0
LINE
5
87
100
AcDbEntity
8
SK4
62
256
6
ByLayer
370
18
48
0.05
60
0
100
AcDbLine
10
35
20
0
30
0
11
-41
21
0
31
0
39
0
210
0
220
0
230
1
0
LINE
5
89
100
AcDbEntity
8
4
62
256
6
ByLayer
370
18
48
0.05
60
0
100
AcDbLine
10
30
20
0
30
0
11
0
21
0
31
0
39
0
210
0
220
0
230
1
0
LINE
5
8B
100
AcDbEntity
8
80
62
256
6
ByLayer
370
18
48
1
60
0
100
AcDbLine
10
0
20
0
30
0
11
-5
21
0
31
0
39
0
210
0
220
0
230
1
0
LINE
5
8C
100
AcDbEntity
8
1
62
256
6
ByLayer
370
13
48
1
60
0
100
AcDbLine
10
29.720868
20
0.376407
30
0
11
29.939923
21
0.246434
31
0
39
0
210
0
220
0
230
1
0
LINE
5
8D
100
AcDbEntity
8
1
62
256
6
ByLayer
370
13
48
1
60
0
100
AcDbLine
10
29.530961
20
0.041078
30
0
11
29.89569
21
-0.175328
31
0
39
0
210
0
220
0
230
1
0
LINE
5
8E
100
AcDbEntity
8
1
62
256
6
ByLayer
370
18
48
1
60
0
100
AcDbLine
10
29.997658
20
0.016352
30
0
11
30
21
0
31
0
39
0
210
0
220
0
230
1
0
LINE
5
8F
100
AcDbEntity
8
1
62
256
6
ByLayer
370
18
48
1
60
0
100
AcDbLine
10
29.939923
20
-0.246434
30
0
11
29.914524
21
-0.376407
31
0
39
0
210
0
220
0
230
1
0
LINE
5
90
100
AcDbEntity
8
1
62
256
6
ByLayer
370
18
48
1
60
0
100
AcDbLine
10
29.21093
20
-0.882693
30
0
11
29.664097
21
-0.414566
31
0
39
0
210
0
220
0
230
1
0
LINE
5
91
100
AcDbEntity
8
1
62
256
6
ByLayer
370
13
48
1
60
0
100
AcDbLine
10
1.591609
20
1.568249
30
0
11
1.591609
21
-1.568249
31
0
39
0
210
0
220
0
230
1
0
LINE
5
92
100
AcDbEntity
8
1
62
256
6
ByLayer
370
18
48
1
60
0
100
AcDbLine
10
0
20
-3
30
0
11
0
21
3
31
0
39
0
210
0
220
0
230
1
0
LINE
5
93
100
AcDbEntity
8
1
62
256
6
ByLayer
370
13
48
1
60
0
100
AcDbLine
10
29.914524
20
0.376407
30
0
11
29.720868
21
0.376407
31
0
39
0
210
0
220
0
230
1
0
LINE
5
94
100
AcDbEntity
8
1
62
256
6
ByLayer
370
18
48
1
60
0
100
AcDbLine
10
29.939923
20
0.246434
30
0
11
29.914524
21
0.376407
31
0
39
0
210
0
220
0
230
1
0
LINE
5
95
100
AcDbEntity
8
1
62
256
6
ByLayer
370
18
48
1
60
0
100
AcDbLine
10
29.834509
20
-0.238528
30
0
11
29.89569
21
-0.175328
31
0
39
0
210
0
220
0
230
1
0
LINE
5
96
100
AcDbEntity
8
1
62
256
6
ByLayer
370
18
48
1
60
0
100
AcDbLine
10
30
20
0
30
0
11
29.455285
21
-1.496592
31
0
39
0
210
0
220
0
230
1
0
LINE
5
97
100
AcDbEntity
8
1
62
256
6
ByLayer
370
13
48
1
60
0
100
AcDbLine
10
0.795565
20
2.284125
30
0
11
0.795565
21
-2.284125
31
0
39
0
210
0
220
0
230
1
0
LINE
5
98
100
AcDbEntity
8
1
62
256
6
ByLayer
370
18
48
1
60
0
100
AcDbLine
10
30
20
0
30
0
11
29.997658
21
-0.016352
31
0
39
0
210
0
220
0
230
1
0
LINE
5
99
100
AcDbEntity
8
SK1
62
256
6
ByLayer
370
18
48
1
60
0
100
AcDbLine
10
0
20
-3
30
0
11
0
21
3
31
0
39
0
210
0
220
0
230
1
0
LINE
5
9A
100
AcDbEntity
8
SK1
62
256
6
ByLayer
370
18
48
1
60
0
100
AcDbLine
10
-35.3
20
-2.873207
30
0
11
-35.3
21
-2.287619
31
0
39
0
210
0
220
0
230
1
0
LINE
5
9B
100
AcDbEntity
8
SK1
62
256
6
ByLayer
370
18
48
1
60
0
100
AcDbLine
10
-36
20
1.75
30
0
11
-36
21
-1.073802
31
0
39
0
210
0
220
0
230
1
0
LINE
5
9C
100
AcDbEntity
8
SK1
62
256
6
ByLayer
370
13
48
1
60
0
100
AcDbLine
10
-35.4
20
-2.060646
30
0
11
-35.4
21
-2.736352
31
0
39
0
210
0
220
0
230
1
0
LINE
5
9D
100
AcDbEntity
8
SK1
62
256
6
ByLayer
370
18
48
1
60
0
100
AcDbLine
10
-36
20
-1.75
30
0
11
-36
21
-1.749481
31
0
39
0
210
0
220
0
230
1
0
LINE
5
9E
100
AcDbEntity
8
SK1
62
256
6
ByLayer
370
18
48
1
60
0
100
AcDbLine
10
-35.278312
20
3
30
0
11
-35.278312
21
-3
31
0
39
0
210
0
220
0
230
1
0
LINE
5
9F
100
AcDbEntity
8
SK1
62
256
6
ByLayer
370
18
48
1
60
0
100
AcDbLine
10
-36
20
-1.07379
30
0
11
-36
21
-1.749481
31
0
39
0
210
0
220
0
230
1
0
MTEXT
5
E9
100
AcDbEntity
8
SK6
62
256
6
ByLayer
370
13
48
1
60
0
100
AcDbMText
10
-0.870831
20
33.967694
30
0
210
0
220
0
230
1
1
\W0.7415;R840-0317-50-A1A1220
40
3.5
41
0
44
1.084337
50
0
71
8
72
5
7
iso_b_vert
0
DIMENSION
5
F6
100
AcDbEntity
8
SK2
62
256
6
ByLayer
370
13
48
1
60
0
100
AcDbDimension
2
DimnDraft3D1
10
29.47
20
-11.798398
30
0
11
13.720059
21
-11.798398
31
0
70
32
71
5
72
1
41
1
210
0
220
0
230
1
3
Standard
100
AcDbAlignedDimension
13
0
23
-1.5875
33
0
14
29.47
24
-3.1725
34
0
50
0
100
AcDbRotatedDimension
1001
ACAD
1000
DSTYLE
1002
{
1070
   279
1070
     0
1070
   172
1070
     1
1070
   173
1070
     1
1070
   340
1005
EA
1070
   271
1070
     2
1070
   272
1070
     2
1070
    77
1070
     1
1070
    73
1070
     0
1070
   171
1070
     3
1070
   274
1070
     4
1070
   177
1070
    35
1070
   176
1070
    35
1070
   178
1070
    35
1070
    48
1040
-0.005
1070
    41
1041
3.5
1070
   147
1041
1.75
1070
    42
1041
1.5875
1070
    44
1041
2.0
1070
   140
1041
3.5
1070
   343
1005
0
1070
   344
1005
0
1002
}
0
DIMENSION
5
100
100
AcDbEntity
8
SK2
62
256
6
ByLayer
370
13
48
1
60
0
100
AcDbDimension
2
DimnDraft3D2
10
30
20
-31.692985
30
0
11
-2.1887
21
-31.692985
31
0
70
32
71
5
72
1
41
1
210
0
220
0
230
1
3
Standard
100
AcDbAlignedDimension
13
-36
23
-4.5875
33
0
14
30
24
-1.5875
34
0
50
0
100
AcDbRotatedDimension
1001
ACAD
1000
DSTYLE
1002
{
1070
   279
1070
     0
1070
   172
1070
     1
1070
   173
1070
     1
1070
   340
1005
EA
1070
   271
1070
     2
1070
   272
1070
     2
1070
    77
1070
     1
1070
    73
1070
     0
1070
   171
1070
     3
1070
   274
1070
     4
1070
   177
1070
    35
1070
   176
1070
    35
1070
   178
1070
    35
1070
    48
1040
-0.005
1070
    41
1041
3.5
1070
   147
1041
1.75
1070
    42
1041
1.5875
1070
    44
1041
2.0
1070
   140
1041
3.5
1070
   343
1005
0
1070
   344
1005
0
1002
}
0
DIMENSION
5
10A
100
AcDbEntity
8
SK2
62
256
6
ByLayer
370
13
48
1
60
0
100
AcDbDimension
2
DimnDraft3D3
10
30
20
13.194119
30
0
11
21.81
21
13.194119
31
0
70
32
71
5
72
1
41
1
210
0
220
0
230
1
3
Standard
100
AcDbAlignedDimension
13
13.62
23
3.1725
33
0
14
30
24
1.5875
34
0
50
0
100
AcDbRotatedDimension
1001
ACAD
1000
DSTYLE
1002
{
1070
   279
1070
     0
1070
   172
1070
     1
1070
   173
1070
     1
1070
   340
1005
EA
1070
   271
1070
     2
1070
   272
1070
     2
1070
    77
1070
     1
1070
    73
1070
     0
1070
   171
1070
     3
1070
   274
1070
     4
1070
   177
1070
    35
1070
   176
1070
    35
1070
   178
1070
    35
1070
    48
1040
-0.005
1070
    41
1041
3.5
1070
   147
1041
1.75
1070
    42
1041
1.5875
1070
    44
1041
2.0
1070
   140
1041
3.5
1070
   343
1005
0
1070
   344
1005
0
1002
}
0
DIMENSION
5
114
100
AcDbEntity
8
SK2
62
256
6
ByLayer
370
13
48
1
60
0
100
AcDbDimension
2
DimnDraft3D4
10
29.47
20
-14.387503
30
0
11
39.981425
21
-14.387503
31
0
70
32
71
5
72
1
41
1
210
0
220
0
230
1
3
Standard
100
AcDbAlignedDimension
13
30
23
-1.5875
33
0
14
29.47
24
-3.1725
34
0
50
0
100
AcDbRotatedDimension
1001
ACAD
1000
DSTYLE
1002
{
1070
   279
1070
     0
1070
   172
1070
     1
1070
   173
1070
     1
1070
   340
1005
EA
1070
   271
1070
     2
1070
   272
1070
     2
1070
    77
1070
     1
1070
    73
1070
     0
1070
   171
1070
     3
1070
   274
1070
     4
1070
   177
1070
    35
1070
   176
1070
    35
1070
   178
1070
    35
1070
    48
1040
-0.005
1070
    41
1041
3.5
1070
   147
1041
1.75
1070
    42
1041
1.5875
1070
    44
1041
2.0
1070
   140
1041
3.5
1070
   343
1005
0
1070
   344
1005
0
1002
}
0
DIMENSION
5
11E
100
AcDbEntity
8
SK2
62
256
6
ByLayer
370
13
48
1
60
0
100
AcDbDimension
2
DimnDraft3D5
10
29.47
20
-21.343428
30
0
11
-5.269324
21
-21.343428
31
0
70
32
71
5
72
1
41
1
210
0
220
0
230
1
3
Standard
100
AcDbAlignedDimension
13
-36
23
-4.5875
33
0
14
29.47
24
-3.1725
34
0
50
0
100
AcDbRotatedDimension
1001
ACAD
1000
DSTYLE
1002
{
1070
   279
1070
     0
1070
   172
1070
     1
1070
   173
1070
     1
1070
   340
1005
EA
1070
   271
1070
     2
1070
   272
1070
     2
1070
    77
1070
     1
1070
    73
1070
     0
1070
   171
1070
     3
1070
   274
1070
     4
1070
   177
1070
    35
1070
   176
1070
    35
1070
   178
1070
    35
1070
    48
1040
-0.005
1070
    41
1041
3.5
1070
   147
1041
1.75
1070
    42
1041
1.5875
1070
    44
1041
2.0
1070
   140
1041
3.5
1070
   343
1005
0
1070
   344
1005
0
1002
}
0
DIMENSION
5
129
100
AcDbEntity
8
SK2
62
256
6
ByLayer
370
13
48
1
60
0
100
AcDbDimension
2
DimnDraft3D6
10
-46.625163
20
3
30
0
11
-47.250163
21
21.47418
31
0
70
33
71
5
72
1
41
1
210
0
220
0
230
1
3
Standard
100
AcDbAlignedDimension
13
-37.5875
23
-3
33
0
14
-37.5875
24
3
34
0
1001
ACAD
1000
DSTYLE
1002
{
1070
   279
1070
     0
1070
    74
1070
     0
1070
   173
1070
     1
1070
   340
1005
EA
1070
   271
1070
     3
1070
   272
1070
     2
1070
    77
1070
     1
1070
    73
1070
     0
1070
   171
1070
     3
1070
   274
1070
     4
1070
   177
1070
    35
1070
   176
1070
    35
1070
   178
1070
    35
1070
    48
1040
-0.005
1070
    41
1041
3.5
1070
   147
1041
1.75
1070
    42
1041
1.5875
1070
    44
1041
2.0
1070
   140
1041
3.5
1070
   343
1005
0
1070
   344
1005
0
1002
}
0
DIMENSION
5
134
100
AcDbEntity
8
2
62
256
6
ByLayer
370
13
48
1
60
0
100
AcDbDimension
2
DimnDraft3D7
10
44.083343
20
1.585
30
0
11
39.458343
21
18.652266
31
0
70
33
71
5
72
1
41
1
210
0
220
0
230
1
3
Standard
100
AcDbAlignedDimension
13
31.0575
23
-1.585
33
0
14
31.0575
24
1.585
34
0
1001
ACAD
1000
DSTYLE
1002
{
1070
   279
1070
     0
1070
    74
1070
     0
1070
   173
1070
     1
1070
   340
1005
EA
1070
   271
1070
     3
1070
   272
1070
     2
1070
    77
1070
     1
1070
    73
1070
     0
1070
   171
1070
     3
1070
   274
1070
     4
1070
   177
1070
    35
1070
   176
1070
    35
1070
   178
1070
    35
1070
    48
1040
-0.005
1070
    41
1041
3.5
1070
   147
1041
1.75
1070
    42
1041
1.5875
1070
    44
1041
2.0
1070
   140
1041
3.5
1070
   343
1005
0
1070
   344
1005
0
1002
}
0
ENDSEC
0
SECTION
2
OBJECTS
0
DICTIONARY
5
19f
330
0
100
AcDbDictionary
280
0
281
1
3
ACAD_GROUP
350
1a0
3
ACAD_MLINESTYLE
350
1a1
0
DICTIONARY
5
1a0
330
0
100
AcDbDictionary
280
0
281
1
0
DICTIONARY
5
1a1
330
0
100
AcDbDictionary
280
0
281
1
3
Standard
350
18
0
MLINESTYLE
5
18
330
1a1
100
AcDbMlineStyle
2
Standard
70
0
3

62
256
51
90
52
90
71
2
49
-0.5
62
256
6
ByLayer
49
0.5
62
256
6
ByLayer
0
RASTERVARIABLES
5
18d
330

100
AcDbRasterVariables
90
0
70
1
71
1
72
1
0
ENDSEC
0
EOF
