0
SECTION
2
HEADER
9
$ACADVER
1
AC1015
9
$DWGCODEPAGE
3
ANSI_1252
9
$HANDSEED
5
195
9
$ANGBASE
50
0
9
$ANGDIR
70
0
9
$ATTMODE
70
1
9
$AUNITS
70
0
9
$AUPREC
70
0
9
$CECOLOR
62
256
9
$CELTSCALE
40
1
9
$CELTYPE
6
ByLayer
9
$CELWEIGHT
370
18
9
$CLAYER
8
0
9
$CMLJUST
70
0
9
$CMLSCALE
40
1
9
$CMLSTYLE
2
Standard
9
$DIMSTYLE
2
Standard
9
$TEXTSIZE
40
0.2
9
$TEXTSTYLE
7
Standard
9
$LUNITS
70
2
9
$LUPREC
70
4
9
$EXTNAMES
290
1
9
$INSUNITS
70
4
9
$LTSCALE
40
1
9
$LWDISPLAY
290
1
9
$PDMODE
70
0
9
$PDSIZE
40
0
9
$PLINEGEN
70
0
0
ENDSEC
0
SECTION
2
CLASSES
0
CLASS
1
RASTERVARIABLES
2
AcDbRasterVariables
3
ISM
90
0
280
0
281
0
0
ENDSEC
0
SECTION
2
TABLES
0
TABLE
2
VPORT
5
18b
100
AcDbSymbolTable
0
VPORT
5
1
100
AcDbSymbolTableRecord
100
AcDbViewportTableRecord
2
*Active
70
0
10
0
20
0
11
1
21
1
12
-1
22
1
13
0
23
0
14
0.5
24
0.5
15
10
25
10
16
0
26
0
36
1
17
0
27
0
37
0
0
ENDTAB
0
TABLE
2
LTYPE
5
18c
100
AcDbSymbolTable
0
LTYPE
5
14
100
AcDbSymbolTableRecord
100
AcDbLinetypeTableRecord
70
0
2
ByBlock
3

72
65
73
0
40
0
0
LTYPE
5
15
100
AcDbSymbolTableRecord
100
AcDbLinetypeTableRecord
70
0
2
ByLayer
3

72
65
73
0
40
0
0
LTYPE
5
16
100
AcDbSymbolTableRecord
100
AcDbLinetypeTableRecord
70
0
2
CONTINUOUS
3
Solid line
72
65
73
0
40
0
0
LTYPE
5
6A
100
AcDbSymbolTableRecord
100
AcDbLinetypeTableRecord
70
0
2
CENTER
3
____ _ ____ _ ____ _ ____
72
65
73
4
40
47.5
49
22
74
0
49
-8.5
74
0
49
8.5
74
0
49
-8.5
74
0
0
LTYPE
5
6B
100
AcDbSymbolTableRecord
100
AcDbLinetypeTableRecord
70
0
2
DASHED
3
__ __ __ __ __ __ __ __ __
72
65
73
2
40
25.72
49
12.86
74
0
49
-12.86
74
0
0
ENDTAB
0
TABLE
2
LAYER
5
18d
100
AcDbSymbolTable
0
LAYER
5
10
100
AcDbSymbolTableRecord
100
AcDbLayerTableRecord
2
0
70
0
62
7
6
CONTINUOUS
290
1
370
-3
390
0
0
LAYER
5
6D
100
AcDbSymbolTableRecord
100
AcDbLayerTableRecord
2
81
70
0
62
-3
6
CONTINUOUS
290
1
370
-3
390
0
0
LAYER
5
6F
100
AcDbSymbolTableRecord
100
AcDbLayerTableRecord
2
80
70
0
62
-6
6
CONTINUOUS
290
1
370
-3
390
0
0
LAYER
5
74
100
AcDbSymbolTableRecord
100
AcDbLayerTableRecord
2
2
70
0
62
7
6
CONTINUOUS
290
1
370
-3
390
0
0
LAYER
5
78
100
AcDbSymbolTableRecord
100
AcDbLayerTableRecord
2
1
70
0
62
4
6
CONTINUOUS
290
1
370
-3
390
0
0
LAYER
5
88
100
AcDbSymbolTableRecord
100
AcDbLayerTableRecord
2
4
70
0
62
-2
6
CENTER
290
1
370
-3
390
0
0
LAYER
5
177
100
AcDbSymbolTableRecord
100
AcDbLayerTableRecord
2
SK2
70
0
62
7
6
CONTINUOUS
290
1
370
-3
390
0
0
LAYER
5
178
100
AcDbSymbolTableRecord
100
AcDbLayerTableRecord
2
SK1
70
0
62
4
6
CONTINUOUS
290
1
370
-3
390
0
0
LAYER
5
179
100
AcDbSymbolTableRecord
100
AcDbLayerTableRecord
2
SK4
70
0
62
2
6
CENTER
290
1
370
-3
390
0
0
LAYER
5
17a
100
AcDbSymbolTableRecord
100
AcDbLayerTableRecord
2
SK6
70
0
62
5
6
CONTINUOUS
290
1
370
-3
390
0
0
ENDTAB
0
TABLE
2
STYLE
5
18e
100
AcDbSymbolTable
0
STYLE
5
11
100
AcDbSymbolTableRecord
100
AcDbTextStyleTableRecord
2
Standard
3
txt
70
0
71
0
40
0
41
1
42
0
50
0
0
STYLE
5
D3
100
AcDbSymbolTableRecord
100
AcDbTextStyleTableRecord
2
iso_b_vert
3
simplex.shx
70
0
71
0
40
0
41
1
42
0
50
0
0
STYLE
5
D4
100
AcDbSymbolTableRecord
100
AcDbTextStyleTableRecord
2
DWGDirectTextStyle
3
simplex
70
0
71
0
40
0
41
1
42
0
50
0
0
ENDTAB
0
TABLE
2
DIMSTYLE
5
18f
100
AcDbSymbolTable
100
AcDbDimStyleTable
0
DIMSTYLE
105
27
100
AcDbSymbolTableRecord
100
AcDbDimStyleTableRecord
2
Standard
70
0
3
<>
41
0.18
42
0.0625
44
0.18
140
0.18
147
0.09
73
0
74
0
77
1
271
2
275
0
278
52
280
0
340
11
0
ENDTAB
0
TABLE
2
VIEW
5
190
100
AcDbSymbolTable
0
ENDTAB
0
TABLE
2
UCS
5
191
100
AcDbSymbolTable
0
ENDTAB
0
TABLE
2
APPID
5
192
100
AcDbSymbolTable
0
APPID
5
12
100
AcDbSymbolTableRecord
100
AcDbRegAppTableRecord
2
ACAD
70
0
0
ENDTAB
0
TABLE
2
BLOCK_RECORD
5
193
100
AcDbSymbolTable
0
BLOCK_RECORD
5
1F
100
AcDbSymbolTableRecord
100
AcDbBlockTableRecord
2
*Model_Space
340
0
70
0
0
BLOCK_RECORD
5
1B
100
AcDbSymbolTableRecord
100
AcDbBlockTableRecord
2
*Paper_Space
340
0
70
0
0
BLOCK_RECORD
5
23
100
AcDbSymbolTableRecord
100
AcDbBlockTableRecord
2
*Paper_Space0
340
0
70
0
0
BLOCK_RECORD
5
D6
100
AcDbSymbolTableRecord
100
AcDbBlockTableRecord
2
DimnDraft3D1
340
0
70
0
0
BLOCK_RECORD
5
E0
100
AcDbSymbolTableRecord
100
AcDbBlockTableRecord
2
DimnDraft3D2
340
0
70
0
0
BLOCK_RECORD
5
EA
100
AcDbSymbolTableRecord
100
AcDbBlockTableRecord
2
DimnDraft3D3
340
0
70
0
0
BLOCK_RECORD
5
F4
100
AcDbSymbolTableRecord
100
AcDbBlockTableRecord
2
DimnDraft3D4
340
0
70
0
0
BLOCK_RECORD
5
FE
100
AcDbSymbolTableRecord
100
AcDbBlockTableRecord
2
DimnDraft3D5
340
0
70
0
0
BLOCK_RECORD
5
108
100
AcDbSymbolTableRecord
100
AcDbBlockTableRecord
2
DimnDraft3D6
340
0
70
0
0
BLOCK_RECORD
5
113
100
AcDbSymbolTableRecord
100
AcDbBlockTableRecord
2
DimnDraft3D7
340
0
70
0
0
ENDTAB
0
ENDSEC
0
SECTION
2
BLOCKS
0
BLOCK
5
20
100
AcDbEntity
8
0
100
AcDbBlockBegin
2
*Model_Space
70
0
10
0
20
0
30
0
3
*Model_Space
0
ENDBLK
5
21
100
AcDbEntity
8
0
100
AcDbBlockEnd
0
BLOCK
5
1C
100
AcDbEntity
8
0
100
AcDbBlockBegin
2
*Paper_Space
70
0
10
0
20
0
30
0
3
*Paper_Space
0
ENDBLK
5
1D
100
AcDbEntity
8
0
100
AcDbBlockEnd
0
BLOCK
5
24
100
AcDbEntity
8
0
100
AcDbBlockBegin
2
*Paper_Space0
70
0
10
0
20
0
30
0
3
*Paper_Space0
0
ENDBLK
5
25
100
AcDbEntity
8
0
100
AcDbBlockEnd
0
BLOCK
5
DD
100
AcDbEntity
8
0
100
AcDbBlockBegin
2
DimnDraft3D1
70
0
10
0
20
0
30
0
3
DimnDraft3D1
0
MTEXT
5
D7
100
AcDbEntity
8
SK2
62
256
6
ByLayer
370
13
48
1
60
0
100
AcDbMText
10
7.097164
20
-10.888398
30
0
210
0
220
0
230
1
1
\W0.7581;25,48
40
3.5
41
0
44
1.084337
50
0
71
7
72
5
7
iso_b_vert
0
LINE
5
D8
100
AcDbEntity
8
SK2
62
256
6
ByLayer
370
13
48
1
60
0
100
AcDbLine
10
0
20
-1.5875
30
0
11
0
21
-13.763398
31
0
39
0
210
0
220
0
230
1
0
LINE
5
D9
100
AcDbEntity
8
SK2
62
256
6
ByLayer
370
13
48
1
60
0
100
AcDbLine
10
25.48
20
-3.1375
30
0
11
25.48
21
-13.763398
31
0
39
0
210
0
220
0
230
1
0
LINE
5
DA
100
AcDbEntity
8
SK2
62
256
6
ByLayer
370
13
48
1
60
0
100
AcDbLine
10
0
20
-11.763398
30
0
11
25.48
21
-11.763398
31
0
39
0
210
0
220
0
230
1
0
SOLID
5
DB
100
AcDbEntity
8
SK2
62
256
6
ByLayer
370
13
48
1
60
0
100
AcDbTrace
10
0
20
-11.763398
30
0
11
3.499998
21
-11.302615
31
0
12
3.500002
22
-12.224182
32
0
13
0
23
-11.763398
33
0
39
0
210
0
220
0
230
1
0
SOLID
5
DC
100
AcDbEntity
8
SK2
62
256
6
ByLayer
370
13
48
1
60
0
100
AcDbTrace
10
25.48
20
-11.763398
30
0
11
21.980002
21
-12.224182
31
0
12
21.979998
22
-11.302615
32
0
13
25.48
23
-11.763398
33
0
39
0
210
0
220
0
230
1
0
ENDBLK
5
DE
100
AcDbEntity
8
0
100
AcDbBlockEnd
0
BLOCK
5
E7
100
AcDbEntity
8
0
100
AcDbBlockBegin
2
DimnDraft3D2
70
0
10
0
20
0
30
0
3
DimnDraft3D2
0
MTEXT
5
E1
100
AcDbEntity
8
SK2
62
256
6
ByLayer
370
13
48
1
60
0
100
AcDbMText
10
-8.627384
20
-30.817985
30
0
210
0
220
0
230
1
1
\W0.7317;62,00
40
3.5
41
0
44
1.084337
50
0
71
7
72
5
7
iso_b_vert
0
LINE
5
E2
100
AcDbEntity
8
SK2
62
256
6
ByLayer
370
13
48
1
60
0
100
AcDbLine
10
-36
20
-4.5875
30
0
11
-36
21
-33.692985
31
0
39
0
210
0
220
0
230
1
0
LINE
5
E3
100
AcDbEntity
8
SK2
62
256
6
ByLayer
370
13
48
1
60
0
100
AcDbLine
10
26
20
-1.5875
30
0
11
26
21
-33.692985
31
0
39
0
210
0
220
0
230
1
0
LINE
5
E4
100
AcDbEntity
8
SK2
62
256
6
ByLayer
370
13
48
1
60
0
100
AcDbLine
10
-36
20
-31.692985
30
0
11
26
21
-31.692985
31
0
39
0
210
0
220
0
230
1
0
SOLID
5
E5
100
AcDbEntity
8
SK2
62
256
6
ByLayer
370
13
48
1
60
0
100
AcDbTrace
10
-36
20
-31.692985
30
0
11
-32.500002
21
-31.232202
31
0
12
-32.499998
22
-32.153769
32
0
13
-36
23
-31.692985
33
0
39
0
210
0
220
0
230
1
0
SOLID
5
E6
100
AcDbEntity
8
SK2
62
256
6
ByLayer
370
13
48
1
60
0
100
AcDbTrace
10
26
20
-31.692985
30
0
11
22.500002
21
-32.153769
31
0
12
22.499998
22
-31.232202
32
0
13
26
23
-31.692985
33
0
39
0
210
0
220
0
230
1
0
ENDBLK
5
E8
100
AcDbEntity
8
0
100
AcDbBlockEnd
0
BLOCK
5
F1
100
AcDbEntity
8
0
100
AcDbBlockBegin
2
DimnDraft3D3
70
0
10
0
20
0
30
0
3
DimnDraft3D3
0
MTEXT
5
EB
100
AcDbEntity
8
SK2
62
256
6
ByLayer
370
13
48
1
60
0
100
AcDbMText
10
17.949211
20
14.034119
30
0
210
0
220
0
230
1
1
\W0.7150;9,82
40
3.5
41
0
44
1.084337
50
0
71
7
72
5
7
iso_b_vert
0
LINE
5
EC
100
AcDbEntity
8
SK2
62
256
6
ByLayer
370
13
48
1
60
0
100
AcDbLine
10
16.18
20
3.1375
30
0
11
16.18
21
15.159119
31
0
39
0
210
0
220
0
230
1
0
LINE
5
ED
100
AcDbEntity
8
SK2
62
256
6
ByLayer
370
13
48
1
60
0
100
AcDbLine
10
26
20
1.5875
30
0
11
26
21
15.159119
31
0
39
0
210
0
220
0
230
1
0
LINE
5
EE
100
AcDbEntity
8
SK2
62
256
6
ByLayer
370
13
48
1
60
0
100
AcDbLine
10
16.18
20
13.159119
30
0
11
26
21
13.159119
31
0
39
0
210
0
220
0
230
1
0
SOLID
5
EF
100
AcDbEntity
8
SK2
62
256
6
ByLayer
370
13
48
1
60
0
100
AcDbTrace
10
16.18
20
13.159119
30
0
11
19.679998
21
13.619903
31
0
12
19.680002
22
12.698335
32
0
13
16.18
23
13.159119
33
0
39
0
210
0
220
0
230
1
0
SOLID
5
F0
100
AcDbEntity
8
SK2
62
256
6
ByLayer
370
13
48
1
60
0
100
AcDbTrace
10
26
20
13.159119
30
0
11
22.500002
21
12.698335
31
0
12
22.499998
22
13.619903
32
0
13
26
23
13.159119
33
0
39
0
210
0
220
0
230
1
0
ENDBLK
5
F2
100
AcDbEntity
8
0
100
AcDbBlockEnd
0
BLOCK
5
FB
100
AcDbEntity
8
0
100
AcDbBlockBegin
2
DimnDraft3D4
70
0
10
0
20
0
30
0
3
DimnDraft3D4
0
MTEXT
5
F5
100
AcDbEntity
8
SK2
62
256
6
ByLayer
370
13
48
1
60
0
100
AcDbMText
10
32.840636
20
-13.477503
30
0
210
0
220
0
230
1
1
\W0.7150;0,52
40
3.5
41
0
44
1.084337
50
0
71
7
72
5
7
iso_b_vert
0
LINE
5
F6
100
AcDbEntity
8
SK2
62
256
6
ByLayer
370
13
48
1
60
0
100
AcDbLine
10
26
20
-1.5875
30
0
11
26
21
-16.352503
31
0
39
0
210
0
220
0
230
1
0
LINE
5
F7
100
AcDbEntity
8
SK2
62
256
6
ByLayer
370
13
48
1
60
0
100
AcDbLine
10
25.48
20
-3.1375
30
0
11
25.48
21
-16.352503
31
0
39
0
210
0
220
0
230
1
0
LINE
5
F8
100
AcDbEntity
8
SK2
62
256
6
ByLayer
370
13
48
1
60
0
100
AcDbLine
10
16.73
20
-14.352503
30
0
11
39.997215
21
-14.352503
31
0
39
0
210
0
220
0
230
1
0
SOLID
5
F9
100
AcDbEntity
8
SK2
62
256
6
ByLayer
370
13
48
1
60
0
100
AcDbTrace
10
26
20
-14.352503
30
0
11
29.499998
21
-13.891719
31
0
12
29.500002
22
-14.813287
32
0
13
26
23
-14.352503
33
0
39
0
210
0
220
0
230
1
0
SOLID
5
FA
100
AcDbEntity
8
SK2
62
256
6
ByLayer
370
13
48
1
60
0
100
AcDbTrace
10
25.48
20
-14.352503
30
0
11
21.980002
21
-14.813287
31
0
12
21.979998
22
-13.891719
32
0
13
25.48
23
-14.352503
33
0
39
0
210
0
220
0
230
1
0
ENDBLK
5
FC
100
AcDbEntity
8
0
100
AcDbBlockEnd
0
BLOCK
5
105
100
AcDbEntity
8
0
100
AcDbBlockBegin
2
DimnDraft3D5
70
0
10
0
20
0
30
0
3
DimnDraft3D5
0
MTEXT
5
FF
100
AcDbEntity
8
SK2
62
256
6
ByLayer
370
13
48
1
60
0
100
AcDbMText
10
-11.454718
20
-20.468428
30
0
210
0
220
0
230
1
1
\W0.6977;61,48
40
3.5
41
0
44
1.084337
50
0
71
7
72
5
7
iso_b_vert
0
LINE
5
100
100
AcDbEntity
8
SK2
62
256
6
ByLayer
370
13
48
1
60
0
100
AcDbLine
10
-36
20
-4.5875
30
0
11
-36
21
-23.343428
31
0
39
0
210
0
220
0
230
1
0
LINE
5
101
100
AcDbEntity
8
SK2
62
256
6
ByLayer
370
13
48
1
60
0
100
AcDbLine
10
25.48
20
-3.1375
30
0
11
25.48
21
-23.343428
31
0
39
0
210
0
220
0
230
1
0
LINE
5
102
100
AcDbEntity
8
SK2
62
256
6
ByLayer
370
13
48
1
60
0
100
AcDbLine
10
-36
20
-21.343428
30
0
11
25.48
21
-21.343428
31
0
39
0
210
0
220
0
230
1
0
SOLID
5
103
100
AcDbEntity
8
SK2
62
256
6
ByLayer
370
13
48
1
60
0
100
AcDbTrace
10
-36
20
-21.343428
30
0
11
-32.500002
21
-20.882645
31
0
12
-32.499998
22
-21.804212
32
0
13
-36
23
-21.343428
33
0
39
0
210
0
220
0
230
1
0
SOLID
5
104
100
AcDbEntity
8
SK2
62
256
6
ByLayer
370
13
48
1
60
0
100
AcDbTrace
10
25.48
20
-21.343428
30
0
11
21.980002
21
-21.804212
31
0
12
21.979998
22
-20.882645
32
0
13
25.48
23
-21.343428
33
0
39
0
210
0
220
0
230
1
0
ENDBLK
5
106
100
AcDbEntity
8
0
100
AcDbBlockEnd
0
BLOCK
5
110
100
AcDbEntity
8
0
100
AcDbBlockBegin
2
DimnDraft3D6
70
0
10
0
20
0
30
0
3
DimnDraft3D6
0
MTEXT
5
109
100
AcDbEntity
8
SK2
62
256
6
ByLayer
370
13
48
1
60
0
100
AcDbMText
10
-46.375163
20
22.34918
30
0
210
0
220
0
230
1
1
\W0.7317;6,000
40
3.5
41
0
44
1.084337
50
90
71
7
72
5
7
iso_b_vert
0
MTEXT
5
10A
100
AcDbEntity
8
SK2
62
256
6
ByLayer
370
13
48
1
60
0
100
AcDbMText
10
-46.375163
20
17.126524
30
0
210
0
220
0
230
1
1
%%c
40
3.5
41
0
44
1.084337
50
90
71
7
72
5
7
iso_b_vert
0
LINE
5
10B
100
AcDbEntity
8
SK2
62
256
6
ByLayer
370
13
48
1
60
0
100
AcDbLine
10
-37.5875
20
-3
30
0
11
-46.625163
21
-3
31
0
39
0
210
0
220
0
230
1
0
LINE
5
10C
100
AcDbEntity
8
SK2
62
256
6
ByLayer
370
13
48
1
60
0
100
AcDbLine
10
-37.5875
20
3
30
0
11
-46.625163
21
3
31
0
39
0
210
0
220
0
230
1
0
LINE
5
10D
100
AcDbEntity
8
SK2
62
256
6
ByLayer
370
13
48
1
60
0
100
AcDbLine
10
-44.625163
20
32.121549
30
0
11
-44.625163
21
-11.75
31
0
39
0
210
0
220
0
230
1
0
SOLID
5
10E
100
AcDbEntity
8
SK2
62
256
6
ByLayer
370
13
48
1
60
0
100
AcDbTrace
10
-44.625163
20
-3
30
0
11
-44.164379
21
-6.499998
31
0
12
-45.085946
22
-6.500002
32
0
13
-44.625163
23
-3
33
0
39
0
210
0
220
0
230
1
0
SOLID
5
10F
100
AcDbEntity
8
SK2
62
256
6
ByLayer
370
13
48
1
60
0
100
AcDbTrace
10
-44.625163
20
3
30
0
11
-45.085946
21
6.499998
31
0
12
-44.164379
22
6.500002
32
0
13
-44.625163
23
3
33
0
39
0
210
0
220
0
230
1
0
ENDBLK
5
111
100
AcDbEntity
8
0
100
AcDbBlockEnd
0
BLOCK
5
11B
100
AcDbEntity
8
0
100
AcDbBlockBegin
2
DimnDraft3D7
70
0
10
0
20
0
30
0
3
DimnDraft3D7
0
MTEXT
5
114
100
AcDbEntity
8
2
62
256
6
ByLayer
370
13
48
1
60
0
100
AcDbMText
10
36.333343
20
19.492266
30
0
210
0
220
0
230
1
1
\W0.6713;3,100
40
3.5
41
0
44
1.084337
50
90
71
7
72
5
7
iso_b_vert
0
MTEXT
5
115
100
AcDbEntity
8
2
62
256
6
ByLayer
370
13
48
1
60
0
100
AcDbMText
10
36.333343
20
14.26961
30
0
210
0
220
0
230
1
1
%%c
40
3.5
41
0
44
1.084337
50
90
71
7
72
5
7
iso_b_vert
0
LINE
5
116
100
AcDbEntity
8
2
62
256
6
ByLayer
370
13
48
1
60
0
100
AcDbLine
10
27.0675
20
-1.55
30
0
11
40.083343
21
-1.55
31
0
39
0
210
0
220
0
230
1
0
LINE
5
117
100
AcDbEntity
8
2
62
256
6
ByLayer
370
13
48
1
60
0
100
AcDbLine
10
27.0675
20
1.55
30
0
11
40.083343
21
1.55
31
0
39
0
210
0
220
0
230
1
0
LINE
5
118
100
AcDbEntity
8
2
62
256
6
ByLayer
370
13
48
1
60
0
100
AcDbLine
10
38.083343
20
28.389635
30
0
11
38.083343
21
-10.3
31
0
39
0
210
0
220
0
230
1
0
SOLID
5
119
100
AcDbEntity
8
2
62
256
6
ByLayer
370
13
48
1
60
0
100
AcDbTrace
10
38.083343
20
-1.55
30
0
11
38.544126
21
-5.049998
31
0
12
37.622559
22
-5.050002
32
0
13
38.083343
23
-1.55
33
0
39
0
210
0
220
0
230
1
0
SOLID
5
11A
100
AcDbEntity
8
2
62
256
6
ByLayer
370
13
48
1
60
0
100
AcDbTrace
10
38.083343
20
1.55
30
0
11
37.622559
21
5.049998
31
0
12
38.544126
22
5.050002
32
0
13
38.083343
23
1.55
33
0
39
0
210
0
220
0
230
1
0
ENDBLK
5
11C
100
AcDbEntity
8
0
100
AcDbBlockEnd
0
ENDSEC
0
SECTION
2
ENTITIES
0
ARC
5
99
100
AcDbEntity
8
1
62
256
6
ByLayer
370
18
48
1
60
0
100
AcDbCircle
39
0
10
0
20
2.2
30
0
40
0.799999999999999
210
0
220
0
230
1
100
AcDbArc
50
4.86325
51
90
0
ARC
5
9A
100
AcDbEntity
8
1
62
256
6
ByLayer
370
18
48
1
60
0
100
AcDbCircle
39
0
10
-1.59424
20
2.335645
30
0
40
0.799999999999999
210
0
220
0
230
-1
100
AcDbArc
50
269.965623
51
355.13675
0
ARC
5
9B
100
AcDbEntity
8
1
62
256
6
ByLayer
370
18
48
1
60
0
100
AcDbCircle
39
0
10
-1.59424
20
-2.335645
30
0
40
0.799999999999999
210
0
220
0
230
-1
100
AcDbArc
50
4.86325
51
90.034377
0
ARC
5
9C
100
AcDbEntity
8
1
62
256
6
ByLayer
370
18
48
1
60
0
100
AcDbCircle
39
0
10
0
20
-2.2
30
0
40
0.799999999999999
210
0
220
0
230
1
100
AcDbArc
50
270
51
355.13675
0
ELLIPSE
5
9D
100
AcDbEntity
8
1
62
256
6
ByLayer
370
13
48
1
60
0
100
AcDbEllipse
10
25.796788
20
0.710106
30
0
11
1.0916096958329
21
-0.751604317012438
31
0
210
0
220
0
230
-1
40
0.533762
41
1.44484622734423
42
1.70478716813112
0
ELLIPSE
5
9E
100
AcDbEntity
8
1
62
256
6
ByLayer
370
18
48
1
60
0
100
AcDbEllipse
10
26.067813
20
-0.04207
30
0
11
0.133321008216628
21
-0.425213611868752
31
0
210
0
220
0
230
-1
40
0.112798
41
1.74303659669219
42
2.3495039358166
0
ELLIPSE
5
9F
100
AcDbEntity
8
1
62
256
6
ByLayer
370
18
48
1
60
0
100
AcDbEllipse
10
26.00015
20
-0.000339
30
0
11
0.57784723157898
21
-1.5479148515361
31
0
210
0
220
0
230
-1
40
0.148387
41
-2.98000424640793
42
-2.83109799208624
0
ELLIPSE
5
A0
100
AcDbEntity
8
1
62
256
6
ByLayer
370
18
48
1
60
0
100
AcDbEllipse
10
26.00015
20
0.000339
30
0
11
0.577847235390888
21
1.5479148629973
31
0
210
0
220
0
230
-1
40
0.148387
41
2.8310979932598
42
2.98000424702155
0
ELLIPSE
5
A1
100
AcDbEntity
8
1
62
256
6
ByLayer
370
13
48
1
60
0
100
AcDbEllipse
10
25.986695
20
0.833303
30
0
11
1.14854267902288
21
-0.427774062194496
31
0
210
0
220
0
230
-1
40
0.427258
41
1.63922536950383
42
1.89721902212761
0
ELLIPSE
5
A2
100
AcDbEntity
8
1
62
256
6
ByLayer
370
18
48
1
60
0
100
AcDbEllipse
10
25.670061
20
-0.833303
30
0
11
0.242650761228545
21
0.650003496072531
31
0
210
0
220
0
230
-1
40
0.148387
41
0.730060677419734
42
1.43700444811962
0
ELLIPSE
5
A3
100
AcDbEntity
8
1
62
256
6
ByLayer
370
13
48
1
60
0
100
AcDbEllipse
10
8.172453
20
-1.482981
30
0
11
-0.0352727924515806
21
0.0935725927431089
31
0
210
0
220
0
230
1
40
0.569945
41
0.357303593910674
42
1.24410169764493
0
ELLIPSE
5
A4
100
AcDbEntity
8
1
62
256
6
ByLayer
370
18
48
1
60
0
100
AcDbEllipse
10
25.861177
20
0.080533
30
0
11
0.0727819104915969
21
0.301917195721388
31
0
210
0
220
0
230
-1
40
0.478434
41
1.66996513722015
42
2.45976119973419
0
ELLIPSE
5
A5
100
AcDbEntity
8
1
62
256
6
ByLayer
370
18
48
1
60
0
100
AcDbEllipse
10
25.670061
20
0.833303
30
0
11
0.242650761236634
21
-0.650003496088747
31
0
210
0
220
0
230
-1
40
0.148387
41
-1.43700444810196
42
-0.73006067741751
0
ELLIPSE
5
A6
100
AcDbEntity
8
1
62
256
6
ByLayer
370
13
48
1
60
0
100
AcDbEllipse
10
25.72582
20
0.160845
30
0
11
0.153082081612424
21
0.25800363619377
31
0
210
0
220
0
230
1
40
0.454519
41
0.917105603404839
42
2.3133690050003
0
ELLIPSE
5
A7
100
AcDbEntity
8
1
62
256
6
ByLayer
370
13
48
1
60
0
100
AcDbEllipse
10
8.250167
20
-1.477177
30
0
11
0.0181836648670991
21
0.098332875133401
31
0
210
0
220
0
230
1
40
0.487155
41
0.360613613845786
42
1.77562845573686
0
ELLIPSE
5
A8
100
AcDbEntity
8
1
62
256
6
ByLayer
370
18
48
1
60
0
100
AcDbEllipse
10
26.067813
20
0.04207
30
0
11
0.133321008202193
21
0.425213611832988
31
0
210
0
220
0
230
-1
40
0.112798
41
-2.34950393580857
42
-1.74303659664004
0
POINT
5
6C
100
AcDbEntity
8
81
62
256
6
ByLayer
370
18
48
1
60
0
100
AcDbPoint
10
26
20
0
30
0
39
0
210
0
220
0
230
1
50
360
0
POINT
5
6E
100
AcDbEntity
8
80
62
256
6
ByLayer
370
18
48
1
60
0
100
AcDbPoint
10
0
20
0
30
0
39
0
210
0
220
0
230
1
50
360
0
POINT
5
70
100
AcDbEntity
8
SK2
62
256
6
ByLayer
370
18
48
1
60
1
100
AcDbPoint
10
-36
20
-3
30
0
39
0
210
0
220
0
230
1
50
360
0
POINT
5
72
100
AcDbEntity
8
SK2
62
256
6
ByLayer
370
18
48
1
60
1
100
AcDbPoint
10
-36
20
3
30
0
39
0
210
0
220
0
230
1
50
360
0
POINT
5
73
100
AcDbEntity
8
2
62
256
6
ByLayer
370
18
48
1
60
1
100
AcDbPoint
10
25.48
20
-1.55
30
0
39
0
210
0
220
0
230
1
50
360
0
POINT
5
75
100
AcDbEntity
8
2
62
256
6
ByLayer
370
18
48
1
60
1
100
AcDbPoint
10
25.48
20
1.55
30
0
39
0
210
0
220
0
230
1
50
360
0
SPLINE
5
A9
100
AcDbEntity
8
1
62
256
6
ByLayer
370
18
48
1
60
0
100
AcDbSpline
70
4
71
3
72
17
73
13
40
0
40
0
40
0
40
0
40
0.185664337300901
40
0.315801105975216
40
0.416332887547549
40
0.526361795094082
40
0.632476081732097
40
0.715883090840606
40
0.794906350718941
40
0.870699415663916
40
0.944418797194223
40
1
40
1
40
1
40
1
41
1
10
21.0786669344909
20
1.46046216012201
30
0
41
1
10
20.8822046676933
20
1.45900268244924
30
0
41
1
10
20.548031147946
20
1.457579261441
30
0
41
1
10
20.1074181005988
20
1.45974036078363
30
0
41
1
10
19.7469098763438
20
1.46051635309865
30
0
41
1
10
19.4117507722611
20
1.45730392006328
30
0
41
1
10
19.0947307475582
20
1.458592771231
30
0
41
1
10
18.8105195405591
20
1.45922078659012
30
0
41
1
10
18.5583975749854
20
1.45911915707112
30
0
41
1
10
18.3165303731238
20
1.45855862171868
30
0
41
1
10
18.0994700648425
20
1.45831381516254
30
0
41
1
10
17.9626304162645
20
1.45827567653686
30
0
41
1
10
17.9038093008741
20
1.45826833300293
30
0
0
SPLINE
5
AA
100
AcDbEntity
8
1
62
256
6
ByLayer
370
18
48
1
60
0
100
AcDbSpline
70
4
71
3
72
17
73
13
40
0
40
0
40
0
40
0
40
0.138256602020128
40
0.227929975319872
40
0.294645845212328
40
0.368521651739142
40
0.444261214286555
40
0.519143491621041
40
0.626263002835981
40
0.725491756999963
40
0.832644199194825
40
1
40
1
40
1
40
1
41
1
10
9.0449723160994
20
-1.45334421087136
30
0
41
1
10
9.22353803307229
20
-1.4534655334046
30
0
41
1
10
9.51793523386911
20
-1.45368158395738
30
0
41
1
10
9.898527957829
20
-1.45326304636583
30
0
41
1
10
10.1959818929257
20
-1.4539519555137
30
0
41
1
10
10.4754327821708
20
-1.45425970480099
30
0
41
1
10
10.7654315415722
20
-1.45376206208169
30
0
41
1
10
11.0983712689363
20
-1.45399671946927
30
0
41
1
10
11.4616717263733
20
-1.45550678341567
30
0
41
1
10
11.8665843753835
20
-1.45348898733309
30
0
41
1
10
12.3492805698149
20
-1.45671099333265
30
0
41
1
10
12.7038220408831
20
-1.45577125951692
30
0
41
1
10
12.9199697794404
20
-1.45488817472412
30
0
0
SPLINE
5
AB
100
AcDbEntity
8
1
62
256
6
ByLayer
370
18
48
1
60
0
100
AcDbSpline
70
4
71
3
72
19
73
15
40
0
40
0
40
0
40
0
40
0.123101122586399
40
0.206917979647263
40
0.260456632667242
40
0.312957497388357
40
0.366784278242442
40
0.422943193876439
40
0.481740810837014
40
0.568725014616305
40
0.658969787264517
40
0.741384028212912
40
0.84798364892994
40
1
40
1
40
1
40
1
41
1
10
17.2040451357492
20
-1.45825387274829
30
0
41
1
10
17.3629798816025
20
-1.45830714644603
30
0
41
1
10
17.6301455790074
20
-1.45841478663527
30
0
41
1
10
17.9664835511853
20
-1.45813430347974
30
0
41
1
10
18.2116549341849
20
-1.45849100579903
30
0
41
1
10
18.4181007143691
20
-1.45871233677491
30
0
41
1
10
18.6279295896791
20
-1.45926821232311
30
0
41
1
10
18.8458908921875
20
-1.45910040337455
30
0
41
1
10
19.1066696553179
20
-1.45856424315022
30
0
41
1
10
19.4114602501757
20
-1.45729734037417
30
0
41
1
10
19.7467641658717
20
-1.4605169059501
30
0
41
1
10
20.1073215886712
20
-1.45974055636935
30
0
41
1
10
20.5477079704717
20
-1.45757881527783
30
0
41
1
10
20.8816230448067
20
-1.45900295887165
30
0
41
1
10
21.0778971702191
20
-1.46046261388059
30
0
0
SPLINE
5
AC
100
AcDbEntity
8
1
62
256
6
ByLayer
370
18
48
1
60
0
100
AcDbSpline
70
4
71
2
72
6
73
3
40
0
40
0
40
0
40
1
40
1
40
1
41
1
10
25.1975917266664
20
-1.45993611549253
30
0
41
1
10
25.321992702954
20
-1.46079274546824
30
0
41
1
10
25.4466273653517
20
-1.46174707364287
30
0
0
SPLINE
5
AD
100
AcDbEntity
8
1
62
256
6
ByLayer
370
18
48
1
60
0
100
AcDbSpline
70
4
71
3
72
17
73
13
40
0
40
0
40
0
40
0
40
0.165513670307409
40
0.282374989732961
40
0.372944146855937
40
0.470135841895775
40
0.572894881575731
40
0.66215112523787
40
0.752452411797913
40
0.840540643420689
40
0.920060457189117
40
1
40
1
40
1
40
1
41
1
10
12.9191929667098
20
1.45489023924583
30
0
41
1
10
12.7398741746965
20
1.4560211699341
30
0
41
1
10
12.4339384007872
20
1.45717196449155
30
0
41
1
10
12.0296706319491
20
1.45368868505122
30
0
41
1
10
11.6997224123622
20
1.45450094999484
30
0
41
1
10
11.3848250441259
20
1.45529488731276
30
0
41
1
10
11.0713976927332
20
1.45394531318956
30
0
41
1
10
10.7654243249961
20
1.4537702876861
30
0
41
1
10
10.4753556616615
20
1.45425774895838
30
0
41
1
10
10.1958362141121
20
1.4539519477608
30
0
41
1
10
9.92754377740323
20
1.45333052641197
30
0
41
1
10
9.75473216340077
20
1.45343541324109
30
0
41
1
10
9.66810082432852
20
1.45348498642471
30
0
0
SPLINE
5
AE
100
AcDbEntity
8
1
62
256
6
ByLayer
370
18
48
1
60
0
100
AcDbSpline
70
4
71
3
72
10
73
6
40
0
40
0
40
0
40
0
40
0.0397039627948348
40
0.51991893544573
40
1
40
1
40
1
40
1
41
1
10
13.3528200877088
20
-0.429119388887841
30
0
41
1
10
13.3530991518373
20
-0.429341828482819
30
0
41
1
10
13.3576226640554
20
-0.432690938438896
30
0
41
1
10
13.3865709073228
20
-0.450016393221404
30
0
41
1
10
13.4391859556226
20
-0.481546187060957
30
0
41
1
10
13.4726166959406
20
-0.501398521002557
30
0
0
SPLINE
5
AF
100
AcDbEntity
8
1
62
256
6
ByLayer
370
18
48
1
60
0
100
AcDbSpline
70
4
71
3
72
10
73
6
40
0
40
0
40
0
40
0
40
0.120714890467733
40
0.553111779628425
40
1
40
1
40
1
40
1
41
1
10
21.4973592834816
20
-0.423543609625625
30
0
41
1
10
21.4973247625715
20
-0.423670309141983
30
0
41
1
10
21.5010403662254
20
-0.425982745223621
30
0
41
1
10
21.5363070758538
20
-0.446728544916937
30
0
41
1
10
21.589188318022
20
-0.477096547200887
30
0
41
1
10
21.6232500031089
20
-0.496602239256504
30
0
0
SPLINE
5
B0
100
AcDbEntity
8
1
62
256
6
ByLayer
370
18
48
1
60
0
100
AcDbSpline
70
4
71
3
72
18
73
14
40
0
40
0
40
0
40
0
40
0.25
40
0.25
40
0.375
40
0.375
40
0.5
40
0.5
40
0.625
40
0.625
40
0.75
40
0.75
40
1
40
1
40
1
40
1
41
1
10
25.4675123044669
20
-1.46299791961465
30
0
41
1
10
25.4252023658266
20
-1.46298871069101
30
0
41
1
10
25.3872068762375
20
-1.45088800067577
30
0
41
1
10
25.3373102710146
20
-1.41284820867358
30
0
41
1
10
25.3218881546453
20
-1.39674662070362
30
0
41
1
10
25.2944204893316
20
-1.35847365375611
30
0
41
1
10
25.2822479864545
20
-1.33622803216409
30
0
41
1
10
25.2610885548442
20
-1.28539322842693
30
0
41
1
10
25.2521006747643
20
-1.25680594073657
30
0
41
1
10
25.2375136415357
20
-1.19288325857389
30
0
41
1
10
25.2319958104083
20
-1.15772186399389
30
0
41
1
10
25.221122571804
20
-1.04528329218897
30
0
41
1
10
25.2211823091951
20
-0.959798577160029
30
0
41
1
10
25.2287881117553
20
-0.864756777485923
30
0
0
SPLINE
5
B1
100
AcDbEntity
8
1
62
256
6
ByLayer
370
18
48
1
60
0
100
AcDbSpline
70
4
71
3
72
16
73
12
40
0
40
0
40
0
40
0
40
0.250000000000014
40
0.250000000000014
40
0.500000000000028
40
0.500000000000028
40
0.625000000000021
40
0.625000000000021
40
0.750000000000014
40
0.750000000000014
40
1
40
1
40
1
40
1
41
1
10
25.2533781624389
20
0.233076198776615
30
0
41
1
10
25.2561846550688
20
0.258041969514295
30
0
41
1
10
25.2614148343498
20
0.284454930661127
30
0
41
1
10
25.2790742106092
20
0.338880266359354
30
0
41
1
10
25.2911140524038
20
0.366213879542869
30
0
41
1
10
25.3136530437219
20
0.405961963952279
30
0
41
1
10
25.3218740995551
20
0.419228353697861
30
0
41
1
10
25.3403831485622
20
0.44424033091326
30
0
41
1
10
25.3512881591149
20
0.455512759536731
30
0
41
1
10
25.3872805837013
20
0.484558308056336
30
0
41
1
10
25.4156457845603
20
0.49765574751234
30
0
41
1
10
25.4452881215542
20
0.505660176604835
30
0
0
SPLINE
5
B2
100
AcDbEntity
8
1
62
256
6
ByLayer
370
18
48
1
60
0
100
AcDbSpline
70
4
71
3
72
8
73
4
40
0
40
0
40
0
40
0
40
1
40
1
40
1
40
1
41
1
10
25.4766879405806
20
-1.46206174148395
30
0
41
1
10
25.4735202965736
20
-1.46268643979354
30
0
41
1
10
25.4704604282518
20
-1.46299931475622
30
0
41
1
10
25.4675123044669
20
-1.46299791961465
30
0
0
SPLINE
5
B3
100
AcDbEntity
8
1
62
256
6
ByLayer
370
18
48
1
60
0
100
AcDbSpline
70
4
71
3
72
12
73
8
40
0
40
0
40
0
40
0
40
0.250000000000001
40
0.250000000000001
40
0.500000000000001
40
0.500000000000001
40
1
40
1
40
1
40
1
41
1
10
25.4667841529299
20
-1.5412068029147
30
0
41
1
10
25.4711857299629
20
-1.52903296739964
30
0
41
1
10
25.4751061441995
20
-1.51671456848848
30
0
41
1
10
25.4807886448031
20
-1.49491351598641
30
0
41
1
10
25.4824407101502
20
-1.48588039250373
30
0
41
1
10
25.4841799938286
20
-1.46570731122515
30
0
41
1
10
25.4813458291127
20
-1.46114314864636
30
0
41
1
10
25.4766879405793
20
-1.46206174148423
30
0
0
SPLINE
5
B4
100
AcDbEntity
8
1
62
256
6
ByLayer
370
18
48
1
60
0
100
AcDbSpline
70
4
71
3
72
16
73
12
40
0
40
0
40
0
40
0
40
0.249999999999997
40
0.249999999999997
40
0.499999999999995
40
0.499999999999995
40
0.749999999999993
40
0.749999999999993
40
0.874999999999996
40
0.874999999999996
40
1
40
1
40
1
40
1
41
1
10
25.7980197237258
20
-0.782281989546107
30
0
41
1
10
25.7755799505039
20
-0.843047300978725
30
0
41
1
10
25.7529343774413
20
-0.903664817384907
30
0
41
1
10
25.7071929944526
20
-1.02457651287639
30
0
41
1
10
25.6843094194911
20
-1.08508819146147
30
0
41
1
10
25.6380904902133
20
-1.20536037581598
30
0
41
1
10
25.6147002856432
20
-1.26498835584636
30
0
41
1
10
25.5794499360895
20
-1.35413161455608
30
0
41
1
10
25.56767581594
20
-1.3837437638046
30
0
41
1
10
25.5439771814617
20
-1.44217873112422
30
0
41
1
10
25.5320524756162
20
-1.47101051050129
30
0
41
1
10
25.5201110385126
20
-1.49975668917247
30
0
0
SPLINE
5
B5
100
AcDbEntity
8
1
62
256
6
ByLayer
370
18
48
1
60
0
100
AcDbSpline
70
4
71
3
72
16
73
12
40
0
40
0
40
0
40
0
40
0.249999999999998
40
0.249999999999998
40
0.499999999999995
40
0.499999999999995
40
0.749999999999993
40
0.749999999999993
40
0.874999999999996
40
0.874999999999996
40
1
40
1
40
1
40
1
41
1
10
25.7980197237258
20
0.782281989546107
30
0
41
1
10
25.775579950504
20
0.843047300978753
30
0
41
1
10
25.7529343774413
20
0.903664817384907
30
0
41
1
10
25.7071929944527
20
1.02457651287639
30
0
41
1
10
25.6843094194911
20
1.08508819146147
30
0
41
1
10
25.6380904902132
20
1.20536037581598
30
0
41
1
10
25.6147002856432
20
1.26498835584636
30
0
41
1
10
25.5794499360896
20
1.35413161455608
30
0
41
1
10
25.5676758159401
20
1.3837437638046
30
0
41
1
10
25.5439771814617
20
1.44217873112422
30
0
41
1
10
25.5320524756163
20
1.47101051050129
30
0
41
1
10
25.5201110385126
20
1.4997566891725
30
0
0
SPLINE
5
B6
100
AcDbEntity
8
1
62
256
6
ByLayer
370
18
48
1
60
0
100
AcDbSpline
70
4
71
3
72
58
73
54
40
0
40
0
40
0
40
0
40
0.0219988557181344
40
0.0219988557181344
40
0.0709380678428067
40
0.0709380678428067
40
0.119877279967479
40
0.119877279967479
40
0.168816492092151
40
0.168816492092151
40
0.193286098154487
40
0.193286098154487
40
0.217755704216823
40
0.217755704216823
40
0.266694916341497
40
0.266694916341497
40
0.315634128466171
40
0.315634128466171
40
0.340103734528508
40
0.340103734528508
40
0.364573340590845
40
0.364573340590845
40
0.413512552715518
40
0.413512552715518
40
0.462451764840192
40
0.462451764840192
40
0.511390976964866
40
0.511390976964866
40
0.56033018908954
40
0.56033018908954
40
0.609269401214214
40
0.609269401214214
40
0.658208613338887
40
0.658208613338887
40
0.682678219401224
40
0.682678219401224
40
0.707147825463561
40
0.707147825463561
40
0.756087037588235
40
0.756087037588235
40
0.780556643650572
40
0.780556643650572
40
0.805026249712909
40
0.805026249712909
40
0.853965461837583
40
0.853965461837583
40
0.902904673962256
40
0.902904673962256
40
0.95184388608693
40
0.95184388608693
40
0.976313492149267
40
0.976313492149267
40
1
40
1
40
1
40
1
41
1
10
22.8812718179817
20
-1.11347139515928
30
0
41
1
10
22.8079185098896
20
-1.13999485937674
30
0
41
1
10
22.7345499756832
20
-1.16515180948929
30
0
41
1
10
22.4982126930465
20
-1.24180666782092
30
0
41
1
10
22.3356994069754
20
-1.2883251711454
30
0
41
1
10
22.0094031620556
20
-1.36512819030159
30
0
41
1
10
21.8460759442295
20
-1.39517525169637
30
0
41
1
10
21.5202797339648
20
-1.43869882407046
30
0
41
1
10
21.3573848987383
20
-1.45313349424455
30
0
41
1
10
21.1126447787933
20
-1.4607745699671
30
0
41
1
10
21.0309194308509
20
-1.46123444355973
30
0
41
1
10
20.8678258942692
20
-1.45740324195637
30
0
41
1
10
20.7863877043156
20
-1.45271868644016
30
0
41
1
10
20.5422154972697
20
-1.43251389962884
30
0
41
1
10
20.3791606074121
20
-1.41258116988547
30
0
41
1
10
20.0525004777841
20
-1.35588833255312
30
0
41
1
10
19.8900943523642
20
-1.31964635616095
30
0
41
1
10
19.6458496169018
20
-1.250796258566
30
0
41
1
10
19.5643644074753
20
-1.2258148189382
30
0
41
1
10
19.401321543278
20
-1.17341177562454
30
0
41
1
10
19.3196804965083
20
-1.14558575809428
30
0
41
1
10
19.0751316336837
20
-1.05774741240069
30
0
41
1
10
18.9124215198715
20
-0.993173892437056
30
0
41
1
10
18.5868916116348
20
-0.851310296684829
30
0
41
1
10
18.4231997539184
20
-0.774340775784736
30
0
41
1
10
18.097455055214
20
-0.612870999738618
30
0
41
1
10
17.9346990167701
20
-0.528121372721444
30
0
41
1
10
17.6083005274276
20
-0.354022913950558
30
0
41
1
10
17.4452149762833
20
-0.264018235173381
30
0
41
1
10
17.119552157154
20
-0.0829007526511987
30
0
41
1
10
16.9570101755993
20
0.0092330187025027
30
0
41
1
10
16.6303465138582
20
0.1919110503365
30
0
41
1
10
16.4674786427331
20
0.282354327422183
30
0
41
1
10
16.2234207159331
20
0.415260327906992
30
0
41
1
10
16.1419933040723
20
0.45891768789798
30
0
41
1
10
15.9788367683943
20
0.544437762034534
30
0
41
1
10
15.8970669045173
20
0.586406823361813
30
0
41
1
10
15.6523323925834
20
0.710123299521712
30
0
41
1
10
15.4893897537079
20
0.789032590825769
30
0
41
1
10
15.2447227915741
20
0.899975586676703
30
0
41
1
10
15.1632094618205
20
0.935887714568963
30
0
41
1
10
14.9997967429952
20
1.0045255174636
30
0
41
1
10
14.9182289913512
20
1.03657815510874
30
0
41
1
10
14.6735450235962
20
1.12879565616728
30
0
41
1
10
14.510859846099
20
1.18472412609228
30
0
41
1
10
14.1843210442268
20
1.28193681840338
30
0
41
1
10
14.0208982581185
20
1.32361784223832
30
0
41
1
10
13.6951709164274
20
1.38993441924674
30
0
41
1
10
13.5321441257797
20
1.41584497014412
30
0
41
1
10
13.2870439878078
20
1.43962342008652
30
0
41
1
10
13.2054988423639
20
1.44501291151104
30
0
41
1
10
13.0449150508075
20
1.45273149802574
30
0
41
1
10
12.965932608453
20
1.45483023791005
30
0
41
1
10
12.8869835867113
20
1.45497804810577
30
0
0
SPLINE
5
B7
100
AcDbEntity
8
1
62
256
6
ByLayer
370
18
48
1
60
0
100
AcDbSpline
70
4
71
3
72
8
73
4
40
0
40
0
40
0
40
0
40
1
40
1
40
1
40
1
41
1
10
25.46678415293
20
1.54120680291336
30
0
41
1
10
25.3743454549017
20
1.54704347325
30
0
41
1
10
25.2817559341143
20
1.54989530564694
30
0
41
1
10
25.1891484609209
20
1.54978743764372
30
0
0
SPLINE
5
B8
100
AcDbEntity
8
1
62
256
6
ByLayer
370
18
48
1
60
0
100
AcDbSpline
70
4
71
3
72
40
73
36
40
0
40
0
40
0
40
0
40
0.108717894176611
40
0.108717894176611
40
0.138917261252612
40
0.138917261252612
40
0.169116628328612
40
0.169116628328612
40
0.229515362480611
40
0.229515362480611
40
0.350312830784611
40
0.350312830784611
40
0.410711564936609
40
0.410711564936609
40
0.471110299088608
40
0.471110299088608
40
0.531509033240607
40
0.531509033240607
40
0.561708400316607
40
0.561708400316607
40
0.591907767392606
40
0.591907767392606
40
0.712705235696602
40
0.712705235696602
40
0.773103969848601
40
0.773103969848601
40
0.833502704000601
40
0.833502704000601
40
0.893901438152599
40
0.893901438152599
40
0.924100805228599
40
0.924100805228599
40
0.954300172304598
40
0.954300172304598
40
1
40
1
40
1
40
1
41
1
10
17.8072233762402
20
-1.47689551040517
30
0
41
1
10
17.4832672380123
20
-1.53347975790885
30
0
41
1
10
17.1624052002994
20
-1.55493367658155
30
0
41
1
10
16.7496377348505
20
-1.53663852984178
30
0
41
1
10
16.6597200186609
20
-1.52989075922389
30
0
41
1
10
16.4792218441294
20
-1.51083080373272
30
0
41
1
10
16.388367872597
20
-1.49847302794706
30
0
41
1
10
16.1167868158419
20
-1.45340838056529
30
0
41
1
10
15.9372231979579
20
-1.41279968495584
30
0
41
1
10
15.39990694965
20
-1.26212783492593
30
0
41
1
10
15.0433212520525
20
-1.12346489361059
30
0
41
1
10
14.4993557888105
20
-0.868900789216667
30
0
41
1
10
14.3189870757529
20
-0.777627517601076
30
0
41
1
10
13.9601745447765
20
-0.586349905139599
30
0
41
1
10
13.7814020426294
20
-0.486213935775822
30
0
41
1
10
13.4231668104302
20
-0.280141088013295
30
0
41
1
10
13.2437916588463
20
-0.174053373113168
30
0
41
1
10
12.9726374735166
20
-0.013126223408193
30
0
41
1
10
12.8816857709637
20
0.0409475556658379
30
0
41
1
10
12.7008153922171
20
0.148087772995723
30
0
41
1
10
12.6107092609065
20
0.201256720044029
30
0
41
1
10
12.1612633043932
20
0.464207566493343
30
0
41
1
10
11.8053604929517
20
0.665582140952523
30
0
41
1
10
11.2643692833731
20
0.933804882935334
30
0
41
1
10
11.0822683165736
20
1.01800046135512
30
0
41
1
10
10.7221060442454
20
1.16875789854538
30
0
41
1
10
10.5430250587964
20
1.23567654082035
30
0
41
1
10
10.1848893088827
20
1.35092721642951
30
0
41
1
10
10.0058689495202
20
1.39930339243293
30
0
41
1
10
9.7361217679404
20
1.45673757816172
30
0
41
1
10
9.64597499140419
20
1.47333814456783
30
0
41
1
10
9.46492711946158
20
1.50120528470452
30
0
41
1
10
9.37398876158989
20
1.51246109650433
30
0
41
1
10
9.14652447332938
20
1.53363599188586
30
0
41
1
10
9.01008276403704
20
1.53999641904585
30
0
41
1
10
8.87368744609569
20
1.53999141131033
30
0
0
SPLINE
5
B9
100
AcDbEntity
8
1
62
256
6
ByLayer
370
18
48
1
60
0
100
AcDbSpline
70
4
71
3
72
8
73
4
40
0
40
0
40
0
40
0
40
1
40
1
40
1
40
1
41
1
10
8.48038081977896
20
0.185623972088734
30
0
41
1
10
8.40342783183166
20
0.228200217059282
30
0
41
1
10
8.32673639597837
20
0.271009547300622
30
0
41
1
10
8.25020399973161
20
0.313847195191841
30
0
0
SPLINE
5
BA
100
AcDbEntity
8
1
62
256
6
ByLayer
370
18
48
1
60
0
100
AcDbSpline
70
4
71
3
72
10
73
6
40
0
40
0
40
0
40
0
40
0.5
40
0.5
40
1
40
1
40
1
40
1
41
1
10
8.25020399958791
20
0.313847195272615
30
0
41
1
10
8.21534063036967
20
0.333361346248125
30
0
41
1
10
8.18133718980968
20
0.353308380249473
30
0
41
1
10
8.11571122498822
20
0.394984431681394
30
0
41
1
10
8.08582144322523
20
0.415646297395767
30
0
41
1
10
8.06085317864662
20
0.436014862886225
30
0
0
SPLINE
5
BB
100
AcDbEntity
8
1
62
256
6
ByLayer
370
18
48
1
60
0
100
AcDbSpline
70
4
71
3
72
8
73
4
40
0
40
0
40
0
40
0
40
1
40
1
40
1
40
1
41
1
10
8.1995662680406
20
-1.48850522459156
30
0
41
1
10
8.1687259880465
20
-1.48382671305322
30
0
41
1
10
8.1378250912382
20
-1.47893205956817
30
0
41
1
10
8.11062309355407
20
-1.4719919617053
30
0
0
SPLINE
5
BC
100
AcDbEntity
8
1
62
256
6
ByLayer
370
18
48
1
60
0
100
AcDbSpline
70
4
71
3
72
20
73
16
40
0
40
0
40
0
40
0
40
0.124999999999999
40
0.124999999999999
40
0.249999999999998
40
0.249999999999998
40
0.374999999999997
40
0.374999999999997
40
0.499999999999996
40
0.499999999999996
40
0.624999999999995
40
0.624999999999995
40
0.749999999999994
40
0.749999999999994
40
1
40
1
40
1
40
1
41
1
10
24.1280146799789
20
0.551571759016184
30
0
41
1
10
24.1441040053904
20
0.480636027022541
30
0
41
1
10
24.1669345854244
20
0.409471376206824
30
0
41
1
10
24.2244932565348
20
0.266738060134742
30
0
41
1
10
24.259027738868
20
0.195923237815862
30
0
41
1
10
24.3354636221377
20
0.059380083169259
30
0
41
1
10
24.3778578175514
20
-0.007339734004546
30
0
41
1
10
24.4685186288507
20
-0.136443691778709
30
0
41
1
10
24.5162162193836
20
-0.198081788314397
30
0
41
1
10
24.6154212110852
20
-0.316668301228901
30
0
41
1
10
24.6669367644448
20
-0.373606682681697
30
0
41
1
10
24.7732541501254
20
-0.483438205887097
30
0
41
1
10
24.8282768450052
20
-0.536516873896602
30
0
41
1
10
24.99591535231
20
-0.688597364631676
30
0
41
1
10
25.1109591007035
20
-0.780639153619205
30
0
41
1
10
25.2287881117552
20
-0.864756777485923
30
0
0
SPLINE
5
BD
100
AcDbEntity
8
1
62
256
6
ByLayer
370
18
48
1
60
0
100
AcDbSpline
70
4
71
3
72
63
73
59
40
0
40
0
40
0
40
0
40
0.0725368722590079
40
0.0725368722590079
40
0.164792982996096
40
0.164792982996096
40
0.21092103836464
40
0.21092103836464
40
0.257049093733184
40
0.257049093733184
40
0.349305204470272
40
0.349305204470272
40
0.44156131520736
40
0.44156131520736
40
0.487689370575904
40
0.487689370575904
40
0.493455377496972
40
0.496338380957506
40
0.497779882687773
40
0.497779882687773
40
0.49814025812034
40
0.49814025812034
40
0.498500633552907
40
0.498500633552907
40
0.49922138441804
40
0.49922138441804
40
0.504987391339108
40
0.504987391339108
40
0.510753398260175
40
0.510753398260175
40
0.533817425944446
40
0.533817425944446
40
0.626073536681528
40
0.626073536681528
40
0.718329647418611
40
0.718329647418611
40
0.764457702787152
40
0.764457702787152
40
0.787521730471422
40
0.787521730471422
40
0.79328773739249
40
0.79328773739249
40
0.796170740853024
40
0.796170740853024
40
0.796891491718157
40
0.796891491718157
40
0.797612242583291
40
0.797612242583291
40
0.799053744313557
40
0.810585758155693
40
0.810585758155693
40
0.856713813524235
40
0.856713813524235
40
0.902841868892776
40
0.902841868892776
40
0.995097979629859
40
0.995097979629859
40
1
40
1
40
1
40
1
41
1
10
10.4595531353725
20
1.13564977341213
30
0
41
1
10
10.3588826367429
20
1.14935867652551
30
0
41
1
10
10.2577292538566
20
1.15788811851084
30
0
41
1
10
10.0291765782081
20
1.16169952366644
30
0
41
1
10
9.901698585905
20
1.15279024526069
30
0
41
1
10
9.70915433283761
20
1.11934334515001
30
0
41
1
10
9.64436393276858
20
1.10475218273297
30
0
41
1
10
9.51576955864505
20
1.06923243102949
30
0
41
1
10
9.45210421718315
20
1.04839198137529
30
0
41
1
10
9.26212636969026
20
0.977686482207474
30
0
41
1
10
9.13683351482052
20
0.919601964883697
30
0
41
1
10
8.88385722263638
20
0.788915240474267
30
0
41
1
10
8.75554343891994
20
0.715963525049688
30
0
41
1
10
8.56380102864151
20
0.605599416781615
30
0
41
1
10
8.49967211520834
20
0.568469578524713
30
0
41
1
10
8.42743304280668
20
0.527145807949182
30
0
41
1
10
8.4153903993807
20
0.520267237665621
30
0
41
1
10
8.40133872175704
20
0.512262424993764
30
0
41
1
10
8.39531597017199
20
0.508836347661259
30
0
41
1
10
8.3928064078309
20
0.507409472696907
30
0
41
1
10
8.39243237477564
20
0.506946240791052
30
0
41
1
10
8.39300024717252
20
0.506062578794655
30
0
41
1
10
8.39338374206218
20
0.505686520813953
30
0
41
1
10
8.39453785852174
20
0.504591695637259
30
0
41
1
10
8.39536969535794
20
0.50392410865669
30
0
41
1
10
8.40297064734688
20
0.498032872727492
30
0
41
1
10
8.41033738383405
20
0.49354855315832
30
0
41
1
10
8.42492536084762
20
0.484431788670207
30
0
41
1
10
8.4322869958722
20
0.479967966737149
30
0
41
1
10
8.46922459623448
20
0.45783257441397
30
0
41
1
10
8.49915152292704
20
0.440665540513322
30
0
41
1
10
8.64902423569848
20
0.355307635281832
30
0
41
1
10
8.77015579049188
20
0.289005517952603
30
0
41
1
10
9.0120148720498
20
0.156721513020841
30
0
41
1
10
9.13317977966187
20
0.0912937031199021
30
0
41
1
10
9.31435673290989
20
-0.0068538410535552
30
0
41
1
10
9.37467648522289
20
-0.0395521588037013
30
0
41
1
10
9.4646681151448
20
-0.0887800407785733
30
0
41
1
10
9.49463758197453
20
-0.10519246164796
30
0
41
1
10
9.53156080745794
20
-0.125974887247253
30
0
41
1
10
9.5389205107615
20
-0.13014355661906
30
0
41
1
10
9.54978048045646
20
-0.136479722413498
30
0
41
1
10
9.55339437369372
20
-0.138600487386668
30
0
41
1
10
9.55770315978552
20
-0.141332532012456
30
0
41
1
10
9.5585544655857
20
-0.141882668108934
30
0
41
1
10
9.56017247139945
20
-0.143013217774524
30
0
41
1
10
9.56142802519469
20
-0.143868565384281
30
0
41
1
10
9.55881386717033
20
-0.144178178534133
30
0
41
1
10
9.54312905646597
20
-0.14600034872862
30
0
41
1
10
9.52744693921073
20
-0.147502095335881
30
0
41
1
10
9.45775398893028
20
-0.152894708360577
30
0
41
1
10
9.40210921407569
20
-0.1530928451146
30
0
41
1
10
9.29054839550651
20
-0.145074092370464
30
0
41
1
10
9.23425426215601
20
-0.136780923209272
30
0
41
1
10
9.06554378609815
20
-0.0996772641363179
30
0
41
1
10
8.95305451407262
20
-0.0587359857001388
30
0
41
1
10
8.82928681363177
20
-0.0014029624927616
30
0
41
1
10
8.82302913309971
20
0.0015274761177011
30
0
41
1
10
8.81675993513272
20
0.0044937400610081
30
0
0
SPLINE
5
BE
100
AcDbEntity
8
1
62
256
6
ByLayer
370
18
48
1
60
0
100
AcDbSpline
70
4
71
3
72
16
73
12
40
0
40
0
40
0
40
0
40
0.249999999999994
40
0.249999999999994
40
0.499999999999988
40
0.499999999999988
40
0.749999999999981
40
0.749999999999981
40
0.874999999999991
40
0.874999999999991
40
1
40
1
40
1
40
1
41
1
10
25.4452881215549
20
0.505660176603243
30
0
41
1
10
25.4838933012144
20
0.516084875008545
30
0
41
1
10
25.5220969154895
20
0.527864566464274
30
0
41
1
10
25.5971779562936
20
0.556083293050193
30
0
41
1
10
25.6341240563421
20
0.572493001370049
30
0
41
1
10
25.703062249255
20
0.61350482618181
30
0
41
1
10
25.7351950784498
20
0.637956654136957
30
0
41
1
10
25.7720271562217
20
0.685752931720714
30
0
41
1
10
25.7820551314384
20
0.703348962387821
30
0
41
1
10
25.795361046784
20
0.74164812397234
30
0
41
1
10
25.7984015852282
20
0.761779601375679
30
0
41
1
10
25.7980197237258
20
0.782281989546107
30
0
0
SPLINE
5
BF
100
AcDbEntity
8
1
62
256
6
ByLayer
370
18
48
1
60
0
100
AcDbSpline
70
4
71
3
72
24
73
20
40
0
40
0
40
0
40
0
40
0.249999999999995
40
0.249999999999995
40
0.49999999999999
40
0.49999999999999
40
0.624999999999992
40
0.624999999999992
40
0.687499999999994
40
0.687499999999994
40
0.749999999999995
40
0.749999999999995
40
0.812499999999996
40
0.812499999999996
40
0.874999999999997
40
0.874999999999997
40
0.937499999999999
40
0.937499999999999
40
1
40
1
40
1
40
1
41
1
10
24.128014679979
20
0.551571759016184
30
0
41
1
10
24.2269296703065
20
0.475118722591418
30
0
41
1
10
24.3271988044264
20
0.404495658368546
30
0
41
1
10
24.5317172109044
20
0.280737587660639
30
0
41
1
10
24.6345373269634
20
0.228188941300289
30
0
41
1
10
24.78767205081
20
0.167111875097362
30
0
41
1
10
24.8386318869682
20
0.149649538066456
30
0
41
1
10
24.9149259617353
20
0.128416402325257
30
0
41
1
10
24.9403331204798
20
0.122162681087445
30
0
41
1
10
24.9910949913077
20
0.111441041598908
30
0
41
1
10
25.0165357570187
20
0.106685533222702
30
0
41
1
10
25.0666014994714
20
0.100456703634762
30
0
41
1
10
25.0910636490172
20
0.0994321003641119
30
0
41
1
10
25.1373768758434
20
0.103954057745966
30
0
41
1
10
25.1596611752191
20
0.10957664572544
30
0
41
1
10
25.199022049664
20
0.129569877789123
30
0
41
1
10
25.2161997587143
20
0.144223965876961
30
0
41
1
10
25.2417910050048
20
0.1823681377019
30
0
41
1
10
25.2503589926156
20
0.206218511418371
30
0
41
1
10
25.2533781624389
20
0.233076198776615
30
0
0
SPLINE
5
C0
100
AcDbEntity
8
1
62
256
6
ByLayer
370
18
48
1
60
0
100
AcDbSpline
70
4
71
3
72
14
73
10
40
0
40
0
40
0
40
0
40
0.0609169128316215
40
0.0609169128316215
40
0.248358689706513
40
0.248358689706513
40
0.998125797206068
40
0.998125797206068
40
1
40
1
40
1
40
1
41
1
10
17.2294154648354
20
-1.45828054252914
30
0
41
1
10
17.2001837572196
20
-1.45828702616507
30
0
41
1
10
17.1709290752944
20
-1.45801549211765
30
0
41
1
10
17.0515476929768
20
-1.45577696629735
30
0
41
1
10
16.960932593665
20
-1.4514194851559
30
0
41
1
10
16.5094005346278
20
-1.41667441790838
30
0
41
1
10
16.1533108673221
20
-1.34759045932827
30
0
41
1
10
15.7942984210679
20
-1.24201565848793
30
0
41
1
10
15.7934032179994
20
-1.24175218751088
30
0
41
1
10
15.7925080022015
20
-1.24148849431833
30
0
0
SPLINE
5
C1
100
AcDbEntity
8
1
62
256
6
ByLayer
370
13
48
1
60
0
100
AcDbSpline
70
4
71
3
72
24
73
20
40
0
40
0
40
0
40
0
40
0.10562102972539
40
0.10562102972539
40
0.211772757214748
40
0.211772757214748
40
0.424076212193463
40
0.424076212193463
40
0.477152075938142
40
0.477152075938142
40
0.530227939682821
40
0.530227939682821
40
0.636379667172179
40
0.636379667172179
40
0.742531394661537
40
0.742531394661537
40
0.848683122150894
40
0.848683122150894
40
1
40
1
40
1
40
1
41
1
10
15.7925080022085
20
-1.24148849432044
30
0
41
1
10
15.6143395218269
20
-1.1890074997734
30
0
41
1
10
15.4356668339811
20
-1.12772451918957
30
0
41
1
10
15.0745157224894
20
-0.988407996418772
30
0
41
1
10
14.8947852101426
20
-0.911297091066842
30
0
41
1
10
14.3575306200357
20
-0.663094255510345
30
0
41
1
10
14.0014156500351
20
-0.475252367104673
30
0
41
1
10
13.5499495249554
20
-0.226778720475551
30
0
41
1
10
13.4592853383742
20
-0.176346450399706
30
0
41
1
10
13.2790220146246
20
-0.0756362516349895
30
0
41
1
10
13.1891692501633
20
-0.0252473684360552
30
0
41
1
10
12.9201531123134
20
0.125505506518948
30
0
41
1
10
12.7414896638314
20
0.225392744495849
30
0
41
1
10
12.383768617595
20
0.420735173576162
30
0
41
1
10
12.204741486961
20
0.516226735037975
30
0
41
1
10
11.8444602962769
20
0.699538603267428
30
0
41
1
10
11.6629382924267
20
0.787401697694349
30
0
41
1
10
11.2270890889573
20
0.983040019589311
30
0
41
1
10
10.9728507470885
20
1.08467397166729
30
0
41
1
10
10.7177298342835
20
1.16956935145987
30
0
0
SPLINE
5
C2
100
AcDbEntity
8
1
62
256
6
ByLayer
370
18
48
1
60
0
100
AcDbSpline
70
4
71
3
72
34
73
30
40
0
40
0
40
0
40
0
40
0.0639280256337599
40
0.0639280256337599
40
0.12785605126752
40
0.12785605126752
40
0.25571210253504
40
0.25571210253504
40
0.319640128168799
40
0.319640128168799
40
0.383568153802559
40
0.383568153802559
40
0.447496179436319
40
0.447496179436319
40
0.479460192253199
40
0.479460192253199
40
0.511424205070079
40
0.511424205070079
40
0.639280256337602
40
0.639280256337602
40
0.671244269154483
40
0.671244269154483
40
0.703208281971364
40
0.703208281971364
40
0.767136307605126
40
0.767136307605126
40
0.894992358872649
40
0.894992358872649
40
1
40
1
40
1
40
1
41
1
10
25.46678415293
20
-1.54120680291336
30
0
41
1
10
25.2858213529656
20
-1.5526329721381
30
0
41
1
10
25.1052792062259
20
-1.55263925394462
30
0
41
1
10
24.7431013467527
20
-1.53020204931147
30
0
41
1
10
24.56206015698
20
-1.50770927028142
30
0
41
1
10
24.0235220493372
20
-1.40916953871482
30
0
41
1
10
23.6679365058657
20
-1.3018080624548
30
0
41
1
10
23.1273746413791
20
-1.087910138073
30
0
41
1
10
22.9455757793286
20
-1.00738977503224
30
0
41
1
10
22.5860724594547
20
-0.834733572006144
30
0
41
1
10
22.4072601877296
20
-0.742386424529826
30
0
41
1
10
22.0495769324423
20
-0.548736223913181
30
0
41
1
10
21.8707238193306
20
-0.447409474694098
30
0
41
1
10
21.601107917398
20
-0.290689283934256
30
0
41
1
10
21.5110046526291
20
-0.237673228140835
30
0
41
1
10
21.3300252966612
20
-0.130580398679086
30
0
41
1
10
21.2392873866293
20
-0.0766055302941027
30
0
41
1
10
20.7883927607605
20
0.191762778739133
30
0
41
1
10
20.4328732003381
20
0.404605425575539
30
0
41
1
10
19.9841738799732
20
0.650413164986333
30
0
41
1
10
19.8942218766495
20
0.698569667694898
30
0
41
1
10
19.7137029340506
20
0.792550908895805
30
0
41
1
10
19.6228694231783
20
0.838513886397379
30
0
41
1
10
19.3516908610334
20
0.971300456483903
30
0
41
1
10
19.1722783917745
20
1.05254876982011
30
0
41
1
10
18.6350694383901
20
1.27140922776155
30
0
41
1
10
18.2787002485547
20
1.38462220119675
30
0
41
1
10
17.6183479166534
20
1.515670953289
30
0
41
1
10
17.3240951422751
20
1.54511693589083
30
0
41
1
10
17.0301052306219
20
1.54491038227764
30
0
0
SPLINE
5
C3
100
AcDbEntity
8
1
62
256
6
ByLayer
370
18
48
1
60
0
100
AcDbSpline
70
4
71
3
72
12
73
8
40
0
40
0
40
0
40
0
40
0.24740424847718
40
0.24740424847718
40
0.62370212423859
40
0.62370212423859
40
1
40
1
40
1
40
1
41
1
10
9.64168924433298
20
-1.47317845754551
30
0
41
1
10
9.52350663880344
20
-1.49360852402432
30
0
41
1
10
9.40494029097036
20
-1.50951986494283
30
0
41
1
10
9.10431630757043
20
-1.53765494762592
30
0
41
1
10
8.92316233431649
20
-1.54345651988103
30
0
41
1
10
8.56191946724084
20
-1.53265228319799
30
0
41
1
10
8.38128539645564
20
-1.51607225832765
30
0
41
1
10
8.19956626804066
20
-1.48850522459156
30
0
0
SPLINE
5
C4
100
AcDbEntity
8
1
62
256
6
ByLayer
370
18
48
1
60
0
100
AcDbSpline
70
4
71
3
72
36
73
32
40
0
40
0
40
0
40
0
40
0.0784900860302907
40
0.0784900860302907
40
0.156980172060581
40
0.156980172060581
40
0.235470258090872
40
0.235470258090872
40
0.313960344121163
40
0.313960344121163
40
0.392450430151453
40
0.392450430151453
40
0.470940516181744
40
0.470940516181744
40
0.549430602212035
40
0.549430602212035
40
0.588675645227179
40
0.588675645227179
40
0.627920688242323
40
0.627920688242323
40
0.706410774272611
40
0.706410774272611
40
0.745655817287755
40
0.745655817287755
40
0.784900860302899
40
0.784900860302899
40
0.86339094633319
40
0.86339094633319
40
0.94188103236348
40
0.94188103236348
40
1
40
1
40
1
40
1
41
1
10
8.48038139620843
20
0.185623627844649
30
0
41
1
10
8.64370924417551
20
0.0947109639547534
30
0
41
1
10
8.80679347792804
20
0.0037218742770051
30
0
41
1
10
9.13250843273408
20
-0.178425768939206
30
0
41
1
10
9.29575249537044
20
-0.269258047327725
30
0
41
1
10
9.6223766437401
20
-0.44604302377752
30
0
41
1
10
9.78499872567346
20
-0.532298294337977
30
0
41
1
10
10.1111256474721
20
-0.697476617576854
30
0
41
1
10
10.2745017974326
20
-0.777559792352122
30
0
41
1
10
10.6005955530979
20
-0.925466356340053
30
0
41
1
10
10.7633792347155
20
-0.993746532990656
30
0
41
1
10
11.089209226938
20
-1.11946934126348
30
0
41
1
10
11.2528483990856
20
-1.17677349172956
30
0
41
1
10
11.5783687401195
20
-1.27507861996321
30
0
41
1
10
11.7409832115111
20
-1.31628106913382
30
0
41
1
10
11.9856420297003
20
-1.36699798433278
30
0
41
1
10
12.0672953743366
20
-1.38209379413431
30
0
41
1
10
12.2302289538315
20
-1.40894563431161
30
0
41
1
10
12.3116110113924
20
-1.42051364386006
30
0
41
1
10
12.5557825562411
20
-1.44681087361565
30
0
41
1
10
12.7182738398257
20
-1.45510705689105
30
0
41
1
10
12.9632851501731
20
-1.45492411249677
30
0
41
1
10
13.0448685256284
20
-1.45276917520985
30
0
41
1
10
13.2078305568234
20
-1.44486431344635
30
0
41
1
10
13.2891736892323
20
-1.43945726766344
30
0
41
1
10
13.5332254161151
20
-1.41565780478106
30
0
41
1
10
13.6967050925481
20
-1.38967880225047
30
0
41
1
10
14.0227855761587
20
-1.32317626051636
30
0
41
1
10
14.1854828605808
20
-1.28161451418984
30
0
41
1
10
14.4690796950237
20
-1.19714478199558
30
0
41
1
10
14.5899245763619
20
-1.15703011508353
30
0
41
1
10
14.7106982910769
20
-1.1136799591979
30
0
0
SPLINE
5
C5
100
AcDbEntity
8
1
62
256
6
ByLayer
370
18
48
1
60
0
100
AcDbSpline
70
4
71
3
72
20
73
16
40
0
40
0
40
0
40
0
40
0.0470133270564691
40
0.0470133270564691
40
0.205844439213724
40
0.205844439213724
40
0.364675551370979
40
0.364675551370979
40
0.523506663528234
40
0.523506663528234
40
0.68233777568549
40
0.68233777568549
40
0.841168887842745
40
0.841168887842745
40
1
40
1
40
1
40
1
41
1
10
21.0503454945997
20
1.4604980364322
30
0
41
1
10
21.0984966008703
20
1.46050152899997
30
0
41
1
10
21.1466347278062
20
1.45971910337133
30
0
41
1
10
21.3573939830509
20
1.45311367594033
30
0
41
1
10
21.5208938798513
20
1.4386354947855
30
0
41
1
10
21.8466733342627
20
1.39507666047675
30
0
41
1
10
22.0091250330091
20
1.36518117706666
30
0
41
1
10
22.3352150026901
20
1.28845163894883
30
0
41
1
10
22.4983471169358
20
1.24176214232492
30
0
41
1
10
22.8240988440009
20
1.13610799128446
30
0
41
1
10
22.9866784159432
20
1.07671544480303
30
0
41
1
10
23.3130828901125
20
0.943637241120541
30
0
41
1
10
23.4761986591201
20
0.871295346742585
30
0
41
1
10
23.8016490840131
20
0.717530379425256
30
0
41
1
10
23.9649989961578
20
0.636584561894779
30
0
41
1
10
24.1280146799652
20
0.551571759023346
30
0
0
SPLINE
5
C6
100
AcDbEntity
8
1
62
256
6
ByLayer
370
18
48
1
60
0
100
AcDbSpline
70
4
71
3
72
36
73
32
40
0
40
0
40
0
40
0
40
0.0755209972272458
40
0.0755209972272458
40
0.113281495840869
40
0.113281495840869
40
0.151041994454492
40
0.151041994454492
40
0.226562991681737
40
0.226562991681737
40
0.302083988908983
40
0.302083988908983
40
0.377604986136229
40
0.377604986136229
40
0.453125983363474
40
0.453125983363474
40
0.52864698059072
40
0.52864698059072
40
0.604167977817966
40
0.604167977817966
40
0.679688975045212
40
0.679688975045212
40
0.755209972272458
40
0.755209972272458
40
0.830730969499703
40
0.830730969499703
40
0.906251966726949
40
0.906251966726949
40
0.981772963954195
40
0.981772963954195
40
1
40
1
40
1
40
1
41
1
10
10.4592792342722
20
1.13568705921725
30
0
41
1
10
10.6161623005175
20
1.07215849562738
30
0
41
1
10
10.7734032488841
20
1.00370224083511
30
0
41
1
10
11.0087205216658
20
0.892556304401893
30
0
41
1
10
11.0869540411723
20
0.853907693591481
30
0
41
1
10
11.2439458184055
20
0.774685329990461
30
0
41
1
10
11.3227792583502
20
0.734114063292736
30
0
41
1
10
11.5586427333794
20
0.609714105979975
30
0
41
1
10
11.7148826557517
20
0.522255613237974
30
0
41
1
10
12.0289141113306
20
0.343880177918663
30
0
41
1
10
12.1865119345389
20
0.252133025005207
30
0
41
1
10
12.4998218388622
20
0.0661709746354404
30
0
41
1
10
12.6569986910711
20
-0.0262979812155777
30
0
41
1
10
12.970904186312
20
-0.212735426086823
30
0
41
1
10
13.1280845256997
20
-0.305093267837748
30
0
41
1
10
13.4419454003355
20
-0.484675736937618
30
0
41
1
10
13.5983710797503
20
-0.573309807166169
30
0
41
1
10
13.9131380499621
20
-0.74178424803074
30
0
41
1
10
14.0696716913061
20
-0.822618616073129
30
0
41
1
10
14.3831188882844
20
-0.974384559492705
30
0
41
1
10
14.5409073113794
20
-1.0448950755536
30
0
41
1
10
14.8543929832701
20
-1.17512282687699
30
0
41
1
10
15.0112395321598
20
-1.23347539444663
30
0
41
1
10
15.3251013497448
20
-1.33688260990252
30
0
41
1
10
15.4821287928843
20
-1.38192992406363
30
0
41
1
10
15.7960973824533
20
-1.45542604573186
30
0
41
1
10
15.9523510684976
20
-1.48471199237793
30
0
41
1
10
16.2666690103212
20
-1.52643983069305
30
0
41
1
10
16.4238783927527
20
-1.53902361178982
30
0
41
1
10
16.6182249855258
20
-1.54418082495445
30
0
41
1
10
16.656057066464
20
-1.54469188881558
30
0
41
1
10
16.6939200719845
20
-1.54471135831275
30
0
0
SPLINE
5
C7
100
AcDbEntity
8
1
62
256
6
ByLayer
370
18
48
1
60
0
100
AcDbSpline
70
4
71
3
72
22
73
18
40
0
40
0
40
0
40
0
40
0.114891252857211
40
0.114891252857211
40
0.203402127571493
40
0.203402127571493
40
0.291913002285775
40
0.291913002285775
40
0.468934751714339
40
0.468934751714339
40
0.557445626428617
40
0.557445626428617
40
0.645956501142896
40
0.645956501142896
40
0.822978250571448
40
0.822978250571448
40
1
40
1
40
1
40
1
41
1
10
22.8631003947135
20
1.11483705898877
30
0
41
1
10
22.9649567294959
20
1.15689520315976
30
0
41
1
10
23.0667587862699
20
1.19622996574941
30
0
41
1
10
23.2466580383558
20
1.26130710134069
30
0
41
1
10
23.3247773749143
20
1.28812118910051
30
0
41
1
10
23.4816752187258
20
1.33779165012538
30
0
41
1
10
23.5604303052856
20
1.36077056622969
30
0
41
1
10
23.7959547734725
20
1.42409264745845
30
0
41
1
10
23.9519682538812
20
1.45902585978553
30
0
41
1
10
24.1872757512828
20
1.49880311670932
30
0
41
1
10
24.2658475934049
20
1.5100467835239
30
0
41
1
10
24.4229555853822
20
1.52848643741711
30
0
41
1
10
24.501150816709
20
1.53566082682059
30
0
41
1
10
24.7360114723511
20
1.55070957797454
30
0
41
1
10
24.8928934054194
20
1.55231515610859
30
0
41
1
10
25.2062633599047
20
1.53856239479768
30
0
41
1
10
25.3634579952167
20
1.52321557940846
30
0
41
1
10
25.5201110385126
20
1.49975668917236
30
0
0
SPLINE
5
C8
100
AcDbEntity
8
1
62
256
6
ByLayer
370
18
48
1
60
0
100
AcDbSpline
70
4
71
3
72
56
73
52
40
0
40
0
40
0
40
0
40
0.0459229696313387
40
0.0459229696313387
40
0.092263010137022
40
0.092263010137022
40
0.138603050642705
40
0.138603050642705
40
0.184943091148389
40
0.184943091148389
40
0.231283131654072
40
0.231283131654072
40
0.254453151906914
40
0.254453151906914
40
0.277623172159757
40
0.277623172159757
40
0.323963212665442
40
0.323963212665442
40
0.370303253171127
40
0.370303253171127
40
0.416643293676811
40
0.416643293676811
40
0.462983334182496
40
0.462983334182496
40
0.509323374688181
40
0.509323374688181
40
0.555663415193866
40
0.555663415193866
40
0.602003455699551
40
0.602003455699551
40
0.648343496205235
40
0.648343496205235
40
0.69468353671092
40
0.69468353671092
40
0.741023577216605
40
0.741023577216605
40
0.78736361772229
40
0.78736361772229
40
0.833703658227975
40
0.833703658227975
40
0.856873678480818
40
0.856873678480818
40
0.880043698733661
40
0.880043698733661
40
0.926383739239348
40
0.926383739239348
40
0.949553759492191
40
0.949553759492191
40
0.972723779745034
40
0.972723779745034
40
1
40
1
40
1
40
1
41
1
10
14.7018823357312
20
1.11176542716237
30
0
41
1
10
14.8572162991284
20
1.17617266096872
30
0
41
1
10
15.0126519459303
20
1.23394073864239
30
0
41
1
10
15.3251013497448
20
1.33688260990252
30
0
41
1
10
15.4821287928843
20
1.38192992406363
30
0
41
1
10
15.7960973824534
20
1.45542604573188
30
0
41
1
10
15.9523510684976
20
1.48471199237793
30
0
41
1
10
16.2666690103213
20
1.52643983069305
30
0
41
1
10
16.4238783927527
20
1.53902361178982
30
0
41
1
10
16.7369995960785
20
1.54733264756391
30
0
41
1
10
16.89435143807
20
1.54304715557544
30
0
41
1
10
17.1299479975259
20
1.52396285612002
30
0
41
1
10
17.2081463345032
20
1.51544138624783
30
0
41
1
10
17.3648713488558
20
1.49440933030016
30
0
41
1
10
17.4433437413316
20
1.48190823650634
30
0
41
1
10
17.6787377161142
20
1.43835273820517
30
0
41
1
10
17.8356070906427
20
1.40075316622929
30
0
41
1
10
18.1495954431536
20
1.31164388372054
30
0
41
1
10
18.3061649888495
20
1.25971381642464
30
0
41
1
10
18.6196254102577
20
1.1419631419289
30
0
41
1
10
18.7773777703642
20
1.07709594916267
30
0
41
1
10
19.0905064353664
20
0.935177041188922
30
0
41
1
10
19.2471916999854
20
0.859099685932108
30
0
41
1
10
19.5616451742101
20
0.69794475299301
30
0
41
1
10
19.7180138719615
20
0.612403422027029
30
0
41
1
10
20.031749596871
20
0.437584209709598
30
0
41
1
10
20.1885640196256
20
0.346433130307844
30
0
41
1
10
20.5024520907539
20
0.161957923316493
30
0
41
1
10
20.6594148493797
20
0.0693808235096185
30
0
41
1
10
20.972403087922
20
-0.118097676041401
30
0
41
1
10
21.1300509865597
20
-0.211020090778362
30
0
41
1
10
21.4435576505596
20
-0.394265657721434
30
0
41
1
10
21.5998017731499
20
-0.484454745574141
30
0
41
1
10
21.9139386049603
20
-0.657686409624631
30
0
41
1
10
22.0706642230496
20
-0.742208531189107
30
0
41
1
10
22.3841717449848
20
-0.90027745303837
30
0
41
1
10
22.5408603140273
20
-0.97478541512146
30
0
41
1
10
22.8547979004637
20
-1.11359922003123
30
0
41
1
10
23.0118073951593
20
-1.17635173341233
30
0
41
1
10
23.2466580383559
20
-1.26130710134072
30
0
41
1
10
23.3247773749143
20
-1.28812118910051
30
0
41
1
10
23.4816752187258
20
-1.33779165012538
30
0
41
1
10
23.5604303052856
20
-1.36077056622972
30
0
41
1
10
23.7959547734725
20
-1.42409264745845
30
0
41
1
10
23.9519682538813
20
-1.45902585978553
30
0
41
1
10
24.1872757512828
20
-1.49880311670932
30
0
41
1
10
24.2658475934049
20
-1.51004678352393
30
0
41
1
10
24.4229555853823
20
-1.52848643741711
30
0
41
1
10
24.501150816709
20
-1.53566082682059
30
0
41
1
10
24.6715986193875
20
-1.54658230943437
30
0
41
1
10
24.7638663034848
20
-1.5495679335215
30
0
41
1
10
24.8561377448793
20
-1.54962272588639
30
0
0
SPLINE
5
C9
100
AcDbEntity
8
1
62
256
6
ByLayer
370
13
48
1
60
0
100
AcDbSpline
70
4
71
3
72
10
73
6
40
0
40
0
40
0
40
0
40
0.5
40
0.5
40
1
40
1
40
1
40
1
41
1
10
8.12075543329073
20
-1.40234885104041
30
0
41
1
10
8.1404904456856
20
-1.39327073625887
30
0
41
1
10
8.16182919594812
20
-1.38696227651161
30
0
41
1
10
8.20535571860839
20
-1.38021958956014
30
0
41
1
10
8.22759582970852
20
-1.37967845036763
30
0
41
1
10
8.25027826667667
20
-1.3820433431535
30
0
0
SPLINE
5
CA
100
AcDbEntity
8
1
62
256
6
ByLayer
370
13
48
1
60
0
100
AcDbSpline
70
4
71
3
72
8
73
4
40
0
40
0
40
0
40
0
40
1
40
1
40
1
40
1
41
1
10
8.06074874060366
20
-1.44055133001197
30
0
41
1
10
8.07767571789464
20
-1.42590261691052
30
0
41
1
10
8.09753066335304
20
-1.41303225589743
30
0
41
1
10
8.12075543329073
20
-1.40234885104041
30
0
0
SPLINE
5
CB
100
AcDbEntity
8
1
62
256
6
ByLayer
370
18
48
1
60
0
100
AcDbSpline
70
4
71
3
72
10
73
6
40
0
40
0
40
0
40
0
40
0.5
40
0.5
40
1
40
1
40
1
40
1
41
1
10
8.11062309355447
20
-1.47199196170538
30
0
41
1
10
8.09637749378595
20
-1.46835745450278
30
0
41
1
10
8.08427080733151
20
-1.46398053004089
30
0
41
1
10
8.06636301431826
20
-1.45339086768297
30
0
41
1
10
8.06074577931713
20
-1.44724010720208
30
0
41
1
10
8.06074874060323
20
-1.44055133001203
30
0
0
SPLINE
5
CC
100
AcDbEntity
8
1
62
256
6
ByLayer
370
18
48
1
60
0
100
AcDbSpline
70
4
71
3
72
28
73
24
40
0
40
0
40
0
40
0
40
0.139990776650752
40
0.139990776650752
40
0.580132577558936
40
0.580132577558936
40
0.690168027785985
40
0.690168027785985
40
0.703922459064361
40
0.703922459064361
40
0.717676890342738
40
0.717676890342738
40
0.731431321621114
40
0.731431321621114
40
0.745185752899491
40
0.745185752899491
40
0.800203478012988
40
0.800203478012988
40
0.910238928239975
40
0.910238928239975
40
0.965256653353469
40
0.965256653353469
40
1
40
1
40
1
40
1
41
1
10
8.08398559780844
20
-1.53951335243053
30
0
41
1
10
7.98485119728841
20
-1.53927195372739
30
0
41
1
10
7.88492486026138
20
-1.5378680347489
30
0
41
1
10
7.46909807751905
20
-1.52876824006395
30
0
41
1
10
7.14855599836557
20
-1.51438885454013
30
0
41
1
10
6.7402726370357
20
-1.49998727531187
30
0
41
1
10
6.65839927210905
20
-1.49727129515466
30
0
41
1
10
6.56604061000254
20
-1.49452780632282
30
0
41
1
10
6.55577545891583
20
-1.49422729003837
30
0
41
1
10
6.53524109803558
20
-1.49363533630881
30
0
41
1
10
6.52501080658948
20
-1.49324362997538
30
0
41
1
10
6.50418162967691
20
-1.49339818168187
30
0
41
1
10
6.49426386123668
20
-1.49399090405927
30
0
41
1
10
6.47565023669151
20
-1.49606986590686
30
0
41
1
10
6.46637414212785
20
-1.49710990448193
30
0
41
1
10
6.42022778037017
20
-1.50229987867871
30
0
41
1
10
6.38393094752945
20
-1.50643611141734
30
0
41
1
10
6.27800515317904
20
-1.51846738222108
30
0
41
1
10
6.21166268557315
20
-1.52603686776286
30
0
41
1
10
6.12414811257258
20
-1.53427348087033
30
0
41
1
10
6.09759574298477
20
-1.53641557902512
30
0
41
1
10
6.06057925038257
20
-1.53821503253286
30
0
41
1
10
6.04780679553249
20
-1.53848028449914
30
0
41
1
10
6.03711987094749
20
-1.53819616096916
30
0
0
SPLINE
5
CD
100
AcDbEntity
8
1
62
256
6
ByLayer
370
13
48
1
60
0
100
AcDbSpline
70
4
71
3
72
22
73
18
40
0
40
0
40
0
40
0
40
0.125
40
0.125
40
0.25
40
0.25
40
0.375
40
0.375
40
0.5
40
0.5
40
0.625
40
0.625
40
0.75
40
0.75
40
0.875
40
0.875
40
1
40
1
40
1
40
1
41
1
10
8.2502782666767
20
-1.3820433431535
30
0
41
1
10
8.25027194250623
20
-1.35431963392406
30
0
41
1
10
8.25025809631509
20
-1.31902626503455
30
0
41
1
10
8.25022205435758
20
-1.23359325420446
30
0
41
1
10
8.25019977696451
20
-1.18326377475859
30
0
41
1
10
8.25015443905124
20
-1.0699534255732
30
0
41
1
10
8.25013138525657
20
-1.00682108647726
30
0
41
1
10
8.25009143970311
20
-0.871382052215779
30
0
41
1
10
8.25007434455557
20
-0.798659892283155
30
0
41
1
10
8.25005044378409
20
-0.642887206042587
30
0
41
1
10
8.25004397483283
20
-0.561377597442117
30
0
41
1
10
8.25004396477058
20
-0.394182021465212
30
0
41
1
10
8.25005034659674
20
-0.308061160100578
30
0
41
1
10
8.25007630451381
20
-0.130554859061164
30
0
41
1
10
8.25009562209709
20
-0.0411673323093567
30
0
41
1
10
8.25014380987722
20
0.137012042951284
30
0
41
1
10
8.2501730490014
20
0.22688260203654
30
0
41
1
10
8.25020399958802
20
0.31384719524462
30
0
0
SPLINE
5
CE
100
AcDbEntity
8
1
62
256
6
ByLayer
370
18
48
1
60
0
100
AcDbSpline
70
4
71
3
72
26
73
22
40
0
40
0
40
0
40
0
40
0.125
40
0.125
40
0.25
40
0.25
40
0.375
40
0.375
40
0.4375
40
0.4375
40
0.5
40
0.5
40
0.625
40
0.625
40
0.75
40
0.75
40
0.8125
40
0.8125
40
0.875
40
0.875
40
1
40
1
40
1
40
1
41
1
10
8.06074874060366
20
-1.440551330012
30
0
41
1
10
8.06076376609136
20
-1.40661265102827
30
0
41
1
10
8.06076736852518
20
-1.36464331926234
30
0
41
1
10
8.06075995795266
20
-1.26475404079412
30
0
41
1
10
8.06074875702285
20
-1.20630048177853
30
0
41
1
10
8.06072108929391
20
-1.07773588836352
30
0
41
1
10
8.06070462458808
20
-1.00723982300866
30
0
41
1
10
8.06068203311764
20
-0.892008653246052
30
0
41
1
10
8.06067483636033
20
-0.851884239222187
30
0
41
1
10
8.06066230404528
20
-0.770067535686565
30
0
41
1
10
8.06065692752762
20
-0.728194203216503
30
0
41
1
10
8.06064448344591
20
-0.599734298232818
30
0
41
1
10
8.06064113954841
20
-0.510333328058579
30
0
41
1
10
8.06064858014537
20
-0.323697974435021
30
0
41
1
10
8.06065928994246
20
-0.229234401416079
30
0
41
1
10
8.06068582082381
20
-0.0863350024894203
30
0
41
1
10
8.06069639620071
20
-0.0384746698135814
30
0
41
1
10
8.06072084457358
20
0.0577083655652473
30
0
41
1
10
8.06073480556441
20
0.106287772784384
30
0
41
1
10
8.06078038677663
20
0.25029486020938
30
0
41
1
10
8.06081571685877
20
0.344186972328629
30
0
41
1
10
8.06085317865362
20
0.436014862884349
30
0
0
SPLINE
5
CF
100
AcDbEntity
8
1
62
256
6
ByLayer
370
18
48
1
60
0
100
AcDbSpline
70
4
71
3
72
54
73
50
40
0
40
0
40
0
40
0
40
0.0624999999999865
40
0.0624999999999865
40
0.124999999999973
40
0.124999999999973
40
0.249999999999948
40
0.249999999999948
40
0.312499999999936
40
0.312499999999936
40
0.374999999999924
40
0.374999999999924
40
0.499999999999901
40
0.499999999999901
40
0.531249999999897
40
0.531249999999897
40
0.535156249999897
40
0.535156249999897
40
0.539062499999897
40
0.539062499999897
40
0.542968749999896
40
0.542968749999896
40
0.546874999999896
40
0.546874999999896
40
0.5624999999999
40
0.5624999999999
40
0.593749999999908
40
0.593749999999908
40
0.609374999999912
40
0.609374999999912
40
0.624999999999915
40
0.624999999999915
40
0.640624999999919
40
0.640624999999919
40
0.656249999999923
40
0.656249999999923
40
0.671874999999927
40
0.671874999999927
40
0.687499999999931
40
0.687499999999931
40
0.718749999999938
40
0.718749999999938
40
0.749999999999946
40
0.749999999999946
40
0.81249999999996
40
0.81249999999996
40
0.874999999999973
40
0.874999999999973
40
1
40
1
40
1
40
1
41
1
10
10.4598351653439
20
1.13545746750486
30
0
41
1
10
10.3177896459102
20
1.19256396975598
30
0
41
1
10
10.174113907902
20
1.24319688587707
30
0
41
1
10
9.88519768594946
20
1.33155117829156
30
0
41
1
10
9.74050574054598
20
1.36911445615749
30
0
41
1
10
9.30429092749498
20
1.46356937250565
30
0
41
1
10
9.01059073253853
20
1.50190292025459
30
0
41
1
10
8.55957048189322
20
1.53152002929753
30
0
41
1
10
8.40748935492923
20
1.53681504666369
30
0
41
1
10
8.09903847705624
20
1.54061900142716
30
0
41
1
10
7.94232460222045
20
1.53912414880506
30
0
41
1
10
7.46909807754207
20
1.52876824006478
30
0
41
1
10
7.14855599839134
20
1.51438885454118
30
0
41
1
10
6.74027263706469
20
1.49998727531286
30
0
41
1
10
6.65839927213864
20
1.4972712951556
30
0
41
1
10
6.5660406100329
20
1.4945278063237
30
0
41
1
10
6.5557754589463
20
1.49422729003925
30
0
41
1
10
6.53524109806617
20
1.49363533630967
30
0
41
1
10
6.52501080662026
20
1.49324362997598
30
0
41
1
10
6.50418162970846
20
1.49339818168082
30
0
41
1
10
6.49426386126467
20
1.49399090405618
30
0
41
1
10
6.47565023671922
20
1.49606986590376
30
0
41
1
10
6.46637414215553
20
1.49710990447883
30
0
41
1
10
6.42022778039711
20
1.50229987867564
30
0
41
1
10
6.38393094755571
20
1.50643611141436
30
0
41
1
10
6.27800515320311
20
1.51846738221837
30
0
41
1
10
6.21166268559514
20
1.52603686776047
30
0
41
1
10
6.12414811258998
20
1.53427348086885
30
0
41
1
10
6.09759574300142
20
1.53641557902395
30
0
41
1
10
6.05221831657605
20
1.5386214760023
30
0
41
1
10
6.03342976839394
20
1.53864300512805
30
0
41
1
10
6.00786382858027
20
1.53558511121466
30
0
41
1
10
6.00076934272036
20
1.53241669434317
30
0
41
1
10
5.99930384649446
20
1.5227307338667
30
0
41
1
10
6.00474033186629
20
1.51619335565283
30
0
41
1
10
6.0251053291872
20
1.50051382957395
30
0
41
1
10
6.03973681010942
20
1.49151018491261
30
0
41
1
10
6.07528583072698
20
1.47157393568645
30
0
41
1
10
6.09624790905474
20
1.46063701525216
30
0
41
1
10
6.16412662648486
20
1.42636618688948
30
0
41
1
10
6.21650924609477
20
1.40124625712284
30
0
41
1
10
6.32924603095705
20
1.34743332492698
30
0
41
1
10
6.38860928110165
20
1.3192540415188
30
0
41
1
10
6.57182315671983
20
1.23152224719459
30
0
41
1
10
6.70086501567721
20
1.16871198583155
30
0
41
1
10
6.96639715984972
20
1.03531843359548
30
0
41
1
10
7.10096502191726
20
0.965759544087859
30
0
41
1
10
7.50712767532258
20
0.749860193517975
30
0
41
1
10
7.78146315015013
20
0.595704047997572
30
0
41
1
10
8.06085317864728
20
0.43601486288415
30
0
0
SPLINE
5
D0
100
AcDbEntity
8
1
62
256
6
ByLayer
370
13
48
1
60
0
100
AcDbSpline
70
4
71
3
72
30
73
26
40
0
40
0
40
0
40
0
40
0.16131975076917
40
0.16131975076917
40
0.201649688461462
40
0.201649688461462
40
0.241979626153753
40
0.241979626153753
40
0.322639501538336
40
0.322639501538336
40
0.483959252307504
40
0.483959252307504
40
0.564619127692088
40
0.564619127692088
40
0.645279003076672
40
0.645279003076672
40
0.725938878461255
40
0.725938878461255
40
0.766268816153547
40
0.766268816153547
40
0.806598753845839
40
0.806598753845839
40
0.967918504615005
40
0.967918504615005
40
1
40
1
40
1
40
1
41
1
10
25.4766879405806
20
-1.46206174148395
30
0
41
1
10
25.1176877463442
20
-1.46934751812611
30
0
41
1
10
24.7620914434079
20
-1.43413387834653
30
0
41
1
10
24.3138093740915
20
-1.34092257707914
30
0
41
1
10
24.223962863695
20
-1.31982241165247
30
0
41
1
10
24.0436566122488
20
-1.27273202853664
30
0
41
1
10
23.953050495285
20
-1.24668258105388
30
0
41
1
10
23.6830033826149
20
-1.16251012833948
30
0
41
1
10
23.5043855406504
20
-1.09812451548933
30
0
41
1
10
22.9702182399402
20
-0.883961257327087
30
0
41
1
10
22.6164194000038
20
-0.712848034088722
30
0
41
1
10
22.0778707431218
20
-0.43015358233427
30
0
41
1
10
21.8963023889722
20
-0.331075910030961
30
0
41
1
10
21.5368797510705
20
-0.131436800213095
30
0
41
1
10
21.3581874164265
20
-0.0304677607234964
30
0
41
1
10
21.0008343430829
20
0.170113982892787
30
0
41
1
10
20.8221933261974
20
0.269762056065048
30
0
41
1
10
20.5531957964071
20
0.41630505535781
30
0
41
1
10
20.4633304189325
20
0.464619366341822
30
0
41
1
10
20.2829071489261
20
0.559649896691042
30
0
41
1
10
20.1922903952275
20
0.606411174948931
30
0
41
1
10
19.7418192016667
20
0.832831035891928
30
0
41
1
10
19.3862941660988
20
0.992586364462369
30
0
41
1
10
18.9567989045027
20
1.14690648242856
30
0
41
1
10
18.8853632807492
20
1.17128556510079
30
0
41
1
10
18.8137890042304
20
1.19434567439302
30
0
0
SPLINE
5
D1
100
AcDbEntity
8
1
62
256
6
ByLayer
370
18
48
1
60
0
100
AcDbSpline
70
4
71
3
72
10
73
6
40
0
40
0
40
0
40
0
40
0.340153851769281
40
0.340153851769281
40
1
40
1
40
1
40
1
41
1
10
9.06892684592225
20
-1.45335409274381
30
0
41
1
10
8.97664030836819
20
-1.45334661044907
30
0
41
1
10
8.88428384197661
20
-1.4505818109744
30
0
41
1
10
8.61226875361731
20
-1.43446018286986
30
0
41
1
10
8.43147123408269
20
-1.413412363454
30
0
41
1
10
8.25027826667659
20
-1.38204334315347
30
0
0
LINE
5
76
100
AcDbEntity
8
81
62
256
6
ByLayer
370
18
48
1
60
0
100
AcDbLine
10
26
20
0
30
0
11
31
21
0
31
0
39
0
210
0
220
0
230
1
0
LINE
5
77
100
AcDbEntity
8
1
62
256
6
ByLayer
370
18
48
1
60
0
100
AcDbLine
10
6.048269
20
1.538317
30
0
11
1.59472
21
1.535645
31
0
39
0
210
0
220
0
230
1
0
LINE
5
79
100
AcDbEntity
8
1
62
256
6
ByLayer
370
18
48
1
60
0
100
AcDbLine
10
8.870651
20
1.54001
30
0
11
8.089073
21
1.539541
31
0
39
0
210
0
220
0
230
1
0
LINE
5
7A
100
AcDbEntity
8
1
62
256
6
ByLayer
370
18
48
1
60
0
100
AcDbLine
10
17.030451
20
1.544906
30
0
11
16.694021
21
1.544704
31
0
39
0
210
0
220
0
230
1
0
LINE
5
7B
100
AcDbEntity
8
1
62
256
6
ByLayer
370
18
48
1
60
0
100
AcDbLine
10
25.191245
20
1.549803
30
0
11
24.85663
21
1.549602
31
0
39
0
210
0
220
0
230
1
0
LINE
5
7C
100
AcDbEntity
8
1
62
256
6
ByLayer
370
18
48
1
60
0
100
AcDbLine
10
24.85663
20
-1.549602
30
0
11
25.191118
21
-1.549803
31
0
39
0
210
0
220
0
230
1
0
LINE
5
7D
100
AcDbEntity
8
1
62
256
6
ByLayer
370
18
48
1
60
0
100
AcDbLine
10
16.694021
20
-1.544704
30
0
11
17.031107
21
-1.544907
31
0
39
0
210
0
220
0
230
1
0
LINE
5
7E
100
AcDbEntity
8
1
62
256
6
ByLayer
370
18
48
1
60
0
100
AcDbLine
10
8.089073
20
-1.539541
30
0
11
8.871735
21
-1.540011
31
0
39
0
210
0
220
0
230
1
0
LINE
5
7F
100
AcDbEntity
8
1
62
256
6
ByLayer
370
18
48
1
60
0
100
AcDbLine
10
1.59472
20
-1.535645
30
0
11
6.048269
21
-1.538317
31
0
39
0
210
0
220
0
230
1
0
LINE
5
80
100
AcDbEntity
8
SK1
62
256
6
ByLayer
370
18
48
1
60
0
100
AcDbLine
10
-35.278312
20
3
30
0
11
-36
21
1.75
31
0
39
0
210
0
220
0
230
1
0
LINE
5
82
100
AcDbEntity
8
SK1
62
256
6
ByLayer
370
18
48
1
60
0
100
AcDbLine
10
-36
20
-1.75
30
0
11
-35.278312
21
-3
31
0
39
0
210
0
220
0
230
1
0
LINE
5
83
100
AcDbEntity
8
SK1
62
256
6
ByLayer
370
18
48
1
60
0
100
AcDbLine
10
0
20
3
30
0
11
-35.278312
21
3
31
0
39
0
210
0
220
0
230
1
0
LINE
5
84
100
AcDbEntity
8
SK1
62
256
6
ByLayer
370
18
48
1
60
0
100
AcDbLine
10
-35.278312
20
-3
30
0
11
0
21
-3
31
0
39
0
210
0
220
0
230
1
0
LINE
5
85
100
AcDbEntity
8
SK4
62
256
6
ByLayer
370
18
48
0.05
60
0
100
AcDbLine
10
31
20
0
30
0
11
-41
21
0
31
0
39
0
210
0
220
0
230
1
0
LINE
5
87
100
AcDbEntity
8
4
62
256
6
ByLayer
370
18
48
0.05
60
0
100
AcDbLine
10
26
20
0
30
0
11
0
21
0
31
0
39
0
210
0
220
0
230
1
0
LINE
5
89
100
AcDbEntity
8
80
62
256
6
ByLayer
370
18
48
1
60
0
100
AcDbLine
10
0
20
0
30
0
11
-5
21
0
31
0
39
0
210
0
220
0
230
1
0
LINE
5
8A
100
AcDbEntity
8
1
62
256
6
ByLayer
370
18
48
1
60
0
100
AcDbLine
10
25.940032
20
0.245878
30
0
11
25.915194
21
0.372977
31
0
39
0
210
0
220
0
230
1
0
LINE
5
8B
100
AcDbEntity
8
1
62
256
6
ByLayer
370
18
48
1
60
0
100
AcDbLine
10
0
20
-3
30
0
11
0
21
3
31
0
39
0
210
0
220
0
230
1
0
LINE
5
8C
100
AcDbEntity
8
1
62
256
6
ByLayer
370
13
48
1
60
0
100
AcDbLine
10
0.79712
20
2.267822
30
0
11
0.79712
21
-2.267822
31
0
39
0
210
0
220
0
230
1
0
LINE
5
8D
100
AcDbEntity
8
1
62
256
6
ByLayer
370
13
48
1
60
0
100
AcDbLine
10
25.72582
20
0.372977
30
0
11
25.940032
21
0.245878
31
0
39
0
210
0
220
0
230
1
0
LINE
5
8E
100
AcDbEntity
8
1
62
256
6
ByLayer
370
18
48
1
60
0
100
AcDbLine
10
26
20
0
30
0
11
25.467512
21
-1.462998
31
0
39
0
210
0
220
0
230
1
0
LINE
5
8F
100
AcDbEntity
8
1
62
256
6
ByLayer
370
18
48
1
60
0
100
AcDbLine
10
26
20
0
30
0
11
25.997709
21
-0.015991
31
0
39
0
210
0
220
0
230
1
0
LINE
5
90
100
AcDbEntity
8
1
62
256
6
ByLayer
370
13
48
1
60
0
100
AcDbLine
10
25.915194
20
0.372977
30
0
11
25.72582
21
0.372977
31
0
39
0
210
0
220
0
230
1
0
LINE
5
91
100
AcDbEntity
8
1
62
256
6
ByLayer
370
18
48
1
60
0
100
AcDbLine
10
25.228788
20
-0.864757
30
0
11
25.895701
21
-0.175826
31
0
39
0
210
0
220
0
230
1
0
LINE
5
92
100
AcDbEntity
8
1
62
256
6
ByLayer
370
13
48
1
60
0
100
AcDbLine
10
1.59472
20
1.535645
30
0
11
1.59472
21
-1.535645
31
0
39
0
210
0
220
0
230
1
0
LINE
5
93
100
AcDbEntity
8
1
62
256
6
ByLayer
370
13
48
1
60
0
100
AcDbLine
10
25.535914
20
0.037647
30
0
11
25.895701
21
-0.175826
31
0
39
0
210
0
220
0
230
1
0
LINE
5
94
100
AcDbEntity
8
1
62
256
6
ByLayer
370
18
48
1
60
0
100
AcDbLine
10
25.997709
20
0.015991
30
0
11
26
21
0
31
0
39
0
210
0
220
0
230
1
0
LINE
5
95
100
AcDbEntity
8
1
62
256
6
ByLayer
370
18
48
1
60
0
100
AcDbLine
10
25.940032
20
-0.245878
30
0
11
25.915194
21
-0.372977
31
0
39
0
210
0
220
0
230
1
0
LINE
5
96
100
AcDbEntity
8
SK1
62
256
6
ByLayer
370
18
48
1
60
0
100
AcDbLine
10
-35.278312
20
3
30
0
11
-35.278312
21
-3
31
0
39
0
210
0
220
0
230
1
0
LINE
5
97
100
AcDbEntity
8
SK1
62
256
6
ByLayer
370
18
48
1
60
0
100
AcDbLine
10
0
20
-3
30
0
11
0
21
3
31
0
39
0
210
0
220
0
230
1
0
LINE
5
98
100
AcDbEntity
8
SK1
62
256
6
ByLayer
370
18
48
1
60
0
100
AcDbLine
10
-36
20
1.75
30
0
11
-36
21
-1.75
31
0
39
0
210
0
220
0
230
1
0
MTEXT
5
D2
100
AcDbEntity
8
SK6
62
256
6
ByLayer
370
13
48
1
60
0
100
AcDbMText
10
-2.870831
20
33.932694
30
0
210
0
220
0
230
1
1
\W0.7542;R840-0310-30-A0A1220
40
3.5
41
0
44
1.084337
50
0
71
8
72
5
7
iso_b_vert
0
DIMENSION
5
DF
100
AcDbEntity
8
SK2
62
256
6
ByLayer
370
13
48
1
60
0
100
AcDbDimension
2
DimnDraft3D1
10
25.48
20
-11.763398
30
0
11
11.730059
21
-11.763398
31
0
70
32
71
5
72
1
41
1
210
0
220
0
230
1
3
Standard
100
AcDbAlignedDimension
13
0
23
-1.5875
33
0
14
25.48
24
-3.1375
34
0
50
0
100
AcDbRotatedDimension
1001
ACAD
1000
DSTYLE
1002
{
1070
   279
1070
     0
1070
   172
1070
     1
1070
   173
1070
     1
1070
   340
1005
D3
1070
   271
1070
     2
1070
   272
1070
     2
1070
    77
1070
     1
1070
    73
1070
     0
1070
   171
1070
     3
1070
   274
1070
     4
1070
   177
1070
    35
1070
   176
1070
    35
1070
   178
1070
    35
1070
    48
1040
-0.005
1070
    41
1041
3.5
1070
   147
1041
1.75
1070
    42
1041
1.5875
1070
    44
1041
2.0
1070
   140
1041
3.5
1070
   343
1005
0
1070
   344
1005
0
1002
}
0
DIMENSION
5
E9
100
AcDbEntity
8
SK2
62
256
6
ByLayer
370
13
48
1
60
0
100
AcDbDimension
2
DimnDraft3D2
10
26
20
-31.692985
30
0
11
-4.1787
21
-31.692985
31
0
70
32
71
5
72
1
41
1
210
0
220
0
230
1
3
Standard
100
AcDbAlignedDimension
13
-36
23
-4.5875
33
0
14
26
24
-1.5875
34
0
50
0
100
AcDbRotatedDimension
1001
ACAD
1000
DSTYLE
1002
{
1070
   279
1070
     0
1070
   172
1070
     1
1070
   173
1070
     1
1070
   340
1005
D3
1070
   271
1070
     2
1070
   272
1070
     2
1070
    77
1070
     1
1070
    73
1070
     0
1070
   171
1070
     3
1070
   274
1070
     4
1070
   177
1070
    35
1070
   176
1070
    35
1070
   178
1070
    35
1070
    48
1040
-0.005
1070
    41
1041
3.5
1070
   147
1041
1.75
1070
    42
1041
1.5875
1070
    44
1041
2.0
1070
   140
1041
3.5
1070
   343
1005
0
1070
   344
1005
0
1002
}
0
DIMENSION
5
F3
100
AcDbEntity
8
SK2
62
256
6
ByLayer
370
13
48
1
60
0
100
AcDbDimension
2
DimnDraft3D3
10
26
20
13.159119
30
0
11
21.09
21
13.159119
31
0
70
32
71
5
72
1
41
1
210
0
220
0
230
1
3
Standard
100
AcDbAlignedDimension
13
16.18
23
3.1375
33
0
14
26
24
1.5875
34
0
50
0
100
AcDbRotatedDimension
1001
ACAD
1000
DSTYLE
1002
{
1070
   279
1070
     0
1070
   172
1070
     1
1070
   173
1070
     1
1070
   340
1005
D3
1070
   271
1070
     2
1070
   272
1070
     2
1070
    77
1070
     1
1070
    73
1070
     0
1070
   171
1070
     3
1070
   274
1070
     4
1070
   177
1070
    35
1070
   176
1070
    35
1070
   178
1070
    35
1070
    48
1040
-0.005
1070
    41
1041
3.5
1070
   147
1041
1.75
1070
    42
1041
1.5875
1070
    44
1041
2.0
1070
   140
1041
3.5
1070
   343
1005
0
1070
   344
1005
0
1002
}
0
DIMENSION
5
FD
100
AcDbEntity
8
SK2
62
256
6
ByLayer
370
13
48
1
60
0
100
AcDbDimension
2
DimnDraft3D4
10
25.48
20
-14.352503
30
0
11
35.981425
21
-14.352503
31
0
70
32
71
5
72
1
41
1
210
0
220
0
230
1
3
Standard
100
AcDbAlignedDimension
13
26
23
-1.5875
33
0
14
25.48
24
-3.1375
34
0
50
0
100
AcDbRotatedDimension
1001
ACAD
1000
DSTYLE
1002
{
1070
   279
1070
     0
1070
   172
1070
     1
1070
   173
1070
     1
1070
   340
1005
D3
1070
   271
1070
     2
1070
   272
1070
     2
1070
    77
1070
     1
1070
    73
1070
     0
1070
   171
1070
     3
1070
   274
1070
     4
1070
   177
1070
    35
1070
   176
1070
    35
1070
   178
1070
    35
1070
    48
1040
-0.005
1070
    41
1041
3.5
1070
   147
1041
1.75
1070
    42
1041
1.5875
1070
    44
1041
2.0
1070
   140
1041
3.5
1070
   343
1005
0
1070
   344
1005
0
1002
}
0
DIMENSION
5
107
100
AcDbEntity
8
SK2
62
256
6
ByLayer
370
13
48
1
60
0
100
AcDbDimension
2
DimnDraft3D5
10
25.48
20
-21.343428
30
0
11
-7.259324
21
-21.343428
31
0
70
32
71
5
72
1
41
1
210
0
220
0
230
1
3
Standard
100
AcDbAlignedDimension
13
-36
23
-4.5875
33
0
14
25.48
24
-3.1375
34
0
50
0
100
AcDbRotatedDimension
1001
ACAD
1000
DSTYLE
1002
{
1070
   279
1070
     0
1070
   172
1070
     1
1070
   173
1070
     1
1070
   340
1005
D3
1070
   271
1070
     2
1070
   272
1070
     2
1070
    77
1070
     1
1070
    73
1070
     0
1070
   171
1070
     3
1070
   274
1070
     4
1070
   177
1070
    35
1070
   176
1070
    35
1070
   178
1070
    35
1070
    48
1040
-0.005
1070
    41
1041
3.5
1070
   147
1041
1.75
1070
    42
1041
1.5875
1070
    44
1041
2.0
1070
   140
1041
3.5
1070
   343
1005
0
1070
   344
1005
0
1002
}
0
DIMENSION
5
112
100
AcDbEntity
8
SK2
62
256
6
ByLayer
370
13
48
1
60
0
100
AcDbDimension
2
DimnDraft3D6
10
-46.625163
20
3
30
0
11
-47.250163
21
21.47418
31
0
70
33
71
5
72
1
41
1
210
0
220
0
230
1
3
Standard
100
AcDbAlignedDimension
13
-37.5875
23
-3
33
0
14
-37.5875
24
3
34
0
1001
ACAD
1000
DSTYLE
1002
{
1070
   279
1070
     0
1070
    74
1070
     0
1070
   173
1070
     1
1070
   340
1005
D3
1070
   271
1070
     3
1070
   272
1070
     2
1070
    77
1070
     1
1070
    73
1070
     0
1070
   171
1070
     3
1070
   274
1070
     4
1070
   177
1070
    35
1070
   176
1070
    35
1070
   178
1070
    35
1070
    48
1040
-0.005
1070
    41
1041
3.5
1070
   147
1041
1.75
1070
    42
1041
1.5875
1070
    44
1041
2.0
1070
   140
1041
3.5
1070
   343
1005
0
1070
   344
1005
0
1002
}
0
DIMENSION
5
11D
100
AcDbEntity
8
2
62
256
6
ByLayer
370
13
48
1
60
0
100
AcDbDimension
2
DimnDraft3D7
10
40.083343
20
1.55
30
0
11
35.458343
21
18.617266
31
0
70
33
71
5
72
1
41
1
210
0
220
0
230
1
3
Standard
100
AcDbAlignedDimension
13
27.0675
23
-1.55
33
0
14
27.0675
24
1.55
34
0
1001
ACAD
1000
DSTYLE
1002
{
1070
   279
1070
     0
1070
    74
1070
     0
1070
   173
1070
     1
1070
   340
1005
D3
1070
   271
1070
     3
1070
   272
1070
     2
1070
    77
1070
     1
1070
    73
1070
     0
1070
   171
1070
     3
1070
   274
1070
     4
1070
   177
1070
    35
1070
   176
1070
    35
1070
   178
1070
    35
1070
    48
1040
-0.005
1070
    41
1041
3.5
1070
   147
1041
1.75
1070
    42
1041
1.5875
1070
    44
1041
2.0
1070
   140
1041
3.5
1070
   343
1005
0
1070
   344
1005
0
1002
}
0
ENDSEC
0
SECTION
2
OBJECTS
0
DICTIONARY
5
188
330
0
100
AcDbDictionary
280
0
281
1
3
ACAD_GROUP
350
189
3
ACAD_MLINESTYLE
350
18a
0
DICTIONARY
5
189
330
0
100
AcDbDictionary
280
0
281
1
0
DICTIONARY
5
18a
330
0
100
AcDbDictionary
280
0
281
1
3
Standard
350
18
0
MLINESTYLE
5
18
330
18a
100
AcDbMlineStyle
2
Standard
70
0
3

62
256
51
90
52
90
71
2
49
-0.5
62
256
6
ByLayer
49
0.5
62
256
6
ByLayer
0
RASTERVARIABLES
5
176
330

100
AcDbRasterVariables
90
0
70
1
71
1
72
1
0
ENDSEC
0
EOF
