0
SECTION
2
HEADER
9
$ACADVER
1
AC1015
9
$DWGCODEPAGE
3
ANSI_1252
9
$HANDSEED
5
1a1
9
$ANGBASE
50
0
9
$ANGDIR
70
0
9
$ATTMODE
70
1
9
$AUNITS
70
0
9
$AUPREC
70
0
9
$CECOLOR
62
256
9
$CELTSCALE
40
1
9
$CELTYPE
6
ByLayer
9
$CELWEIGHT
370
18
9
$CLAYER
8
0
9
$CMLJUST
70
0
9
$CMLSCALE
40
1
9
$CMLSTYLE
2
Standard
9
$DIMSTYLE
2
Standard
9
$TEXTSIZE
40
0.2
9
$TEXTSTYLE
7
Standard
9
$LUNITS
70
2
9
$LUPREC
70
4
9
$EXTNAMES
290
1
9
$INSUNITS
70
4
9
$LTSCALE
40
1
9
$LWDISPLAY
290
1
9
$PDMODE
70
0
9
$PDSIZE
40
0
9
$PLINEGEN
70
0
0
ENDSEC
0
SECTION
2
CLASSES
0
CLASS
1
RASTERVARIABLES
2
AcDbRasterVariables
3
ISM
90
0
280
0
281
0
0
ENDSEC
0
SECTION
2
TABLES
0
TABLE
2
VPORT
5
197
100
AcDbSymbolTable
0
VPORT
5
1
100
AcDbSymbolTableRecord
100
AcDbViewportTableRecord
2
*Active
70
0
10
0
20
0
11
1
21
1
12
-1
22
1
13
0
23
0
14
0.5
24
0.5
15
10
25
10
16
0
26
0
36
1
17
0
27
0
37
0
0
ENDTAB
0
TABLE
2
LTYPE
5
198
100
AcDbSymbolTable
0
LTYPE
5
14
100
AcDbSymbolTableRecord
100
AcDbLinetypeTableRecord
70
0
2
ByBlock
3

72
65
73
0
40
0
0
LTYPE
5
15
100
AcDbSymbolTableRecord
100
AcDbLinetypeTableRecord
70
0
2
ByLayer
3

72
65
73
0
40
0
0
LTYPE
5
16
100
AcDbSymbolTableRecord
100
AcDbLinetypeTableRecord
70
0
2
CONTINUOUS
3
Solid line
72
65
73
0
40
0
0
LTYPE
5
6A
100
AcDbSymbolTableRecord
100
AcDbLinetypeTableRecord
70
0
2
CENTER
3
____ _ ____ _ ____ _ ____
72
65
73
4
40
47.5
49
22
74
0
49
-8.5
74
0
49
8.5
74
0
49
-8.5
74
0
0
LTYPE
5
6B
100
AcDbSymbolTableRecord
100
AcDbLinetypeTableRecord
70
0
2
DASHED
3
__ __ __ __ __ __ __ __ __
72
65
73
2
40
25.72
49
12.86
74
0
49
-12.86
74
0
0
ENDTAB
0
TABLE
2
LAYER
5
199
100
AcDbSymbolTable
0
LAYER
5
10
100
AcDbSymbolTableRecord
100
AcDbLayerTableRecord
2
0
70
0
62
7
6
CONTINUOUS
290
1
370
-3
390
0
0
LAYER
5
6D
100
AcDbSymbolTableRecord
100
AcDbLayerTableRecord
2
81
70
0
62
-3
6
CONTINUOUS
290
1
370
-3
390
0
0
LAYER
5
6F
100
AcDbSymbolTableRecord
100
AcDbLayerTableRecord
2
80
70
0
62
-6
6
CONTINUOUS
290
1
370
-3
390
0
0
LAYER
5
74
100
AcDbSymbolTableRecord
100
AcDbLayerTableRecord
2
2
70
0
62
7
6
CONTINUOUS
290
1
370
-3
390
0
0
LAYER
5
78
100
AcDbSymbolTableRecord
100
AcDbLayerTableRecord
2
1
70
0
62
4
6
CONTINUOUS
290
1
370
-3
390
0
0
LAYER
5
8A
100
AcDbSymbolTableRecord
100
AcDbLayerTableRecord
2
4
70
0
62
-2
6
CENTER
290
1
370
-3
390
0
0
LAYER
5
183
100
AcDbSymbolTableRecord
100
AcDbLayerTableRecord
2
SK2
70
0
62
7
6
CONTINUOUS
290
1
370
-3
390
0
0
LAYER
5
184
100
AcDbSymbolTableRecord
100
AcDbLayerTableRecord
2
SK1
70
0
62
4
6
CONTINUOUS
290
1
370
-3
390
0
0
LAYER
5
185
100
AcDbSymbolTableRecord
100
AcDbLayerTableRecord
2
SK4
70
0
62
2
6
CENTER
290
1
370
-3
390
0
0
LAYER
5
186
100
AcDbSymbolTableRecord
100
AcDbLayerTableRecord
2
SK6
70
0
62
5
6
CONTINUOUS
290
1
370
-3
390
0
0
ENDTAB
0
TABLE
2
STYLE
5
19a
100
AcDbSymbolTable
0
STYLE
5
11
100
AcDbSymbolTableRecord
100
AcDbTextStyleTableRecord
2
Standard
3
txt
70
0
71
0
40
0
41
1
42
0
50
0
0
STYLE
5
DF
100
AcDbSymbolTableRecord
100
AcDbTextStyleTableRecord
2
iso_b_vert
3
simplex.shx
70
0
71
0
40
0
41
1
42
0
50
0
0
STYLE
5
E0
100
AcDbSymbolTableRecord
100
AcDbTextStyleTableRecord
2
DWGDirectTextStyle
3
simplex
70
0
71
0
40
0
41
1
42
0
50
0
0
ENDTAB
0
TABLE
2
DIMSTYLE
5
19b
100
AcDbSymbolTable
100
AcDbDimStyleTable
0
DIMSTYLE
105
27
100
AcDbSymbolTableRecord
100
AcDbDimStyleTableRecord
2
Standard
70
0
3
<>
41
0.18
42
0.0625
44
0.18
140
0.18
147
0.09
73
0
74
0
77
1
271
2
275
0
278
52
280
0
340
11
0
ENDTAB
0
TABLE
2
VIEW
5
19c
100
AcDbSymbolTable
0
ENDTAB
0
TABLE
2
UCS
5
19d
100
AcDbSymbolTable
0
ENDTAB
0
TABLE
2
APPID
5
19e
100
AcDbSymbolTable
0
APPID
5
12
100
AcDbSymbolTableRecord
100
AcDbRegAppTableRecord
2
ACAD
70
0
0
ENDTAB
0
TABLE
2
BLOCK_RECORD
5
19f
100
AcDbSymbolTable
0
BLOCK_RECORD
5
1F
100
AcDbSymbolTableRecord
100
AcDbBlockTableRecord
2
*Model_Space
340
0
70
0
0
BLOCK_RECORD
5
1B
100
AcDbSymbolTableRecord
100
AcDbBlockTableRecord
2
*Paper_Space
340
0
70
0
0
BLOCK_RECORD
5
23
100
AcDbSymbolTableRecord
100
AcDbBlockTableRecord
2
*Paper_Space0
340
0
70
0
0
BLOCK_RECORD
5
E2
100
AcDbSymbolTableRecord
100
AcDbBlockTableRecord
2
DimnDraft3D1
340
0
70
0
0
BLOCK_RECORD
5
EC
100
AcDbSymbolTableRecord
100
AcDbBlockTableRecord
2
DimnDraft3D2
340
0
70
0
0
BLOCK_RECORD
5
F6
100
AcDbSymbolTableRecord
100
AcDbBlockTableRecord
2
DimnDraft3D3
340
0
70
0
0
BLOCK_RECORD
5
100
100
AcDbSymbolTableRecord
100
AcDbBlockTableRecord
2
DimnDraft3D4
340
0
70
0
0
BLOCK_RECORD
5
10A
100
AcDbSymbolTableRecord
100
AcDbBlockTableRecord
2
DimnDraft3D5
340
0
70
0
0
BLOCK_RECORD
5
114
100
AcDbSymbolTableRecord
100
AcDbBlockTableRecord
2
DimnDraft3D6
340
0
70
0
0
BLOCK_RECORD
5
11F
100
AcDbSymbolTableRecord
100
AcDbBlockTableRecord
2
DimnDraft3D7
340
0
70
0
0
ENDTAB
0
ENDSEC
0
SECTION
2
BLOCKS
0
BLOCK
5
20
100
AcDbEntity
8
0
100
AcDbBlockBegin
2
*Model_Space
70
0
10
0
20
0
30
0
3
*Model_Space
0
ENDBLK
5
21
100
AcDbEntity
8
0
100
AcDbBlockEnd
0
BLOCK
5
1C
100
AcDbEntity
8
0
100
AcDbBlockBegin
2
*Paper_Space
70
0
10
0
20
0
30
0
3
*Paper_Space
0
ENDBLK
5
1D
100
AcDbEntity
8
0
100
AcDbBlockEnd
0
BLOCK
5
24
100
AcDbEntity
8
0
100
AcDbBlockBegin
2
*Paper_Space0
70
0
10
0
20
0
30
0
3
*Paper_Space0
0
ENDBLK
5
25
100
AcDbEntity
8
0
100
AcDbBlockEnd
0
BLOCK
5
E9
100
AcDbEntity
8
0
100
AcDbBlockBegin
2
DimnDraft3D1
70
0
10
0
20
0
30
0
3
DimnDraft3D1
0
MTEXT
5
E3
100
AcDbEntity
8
SK2
62
256
6
ByLayer
370
13
48
1
60
0
100
AcDbMText
10
9.301375
20
-10.838398
30
0
210
0
220
0
230
1
1
\W0.7317;29,50
40
3.5
41
0
44
1.084337
50
0
71
7
72
5
7
iso_b_vert
0
LINE
5
E4
100
AcDbEntity
8
SK2
62
256
6
ByLayer
370
13
48
1
60
0
100
AcDbLine
10
0
20
-1.5875
30
0
11
0
21
-13.713398
31
0
39
0
210
0
220
0
230
1
0
LINE
5
E5
100
AcDbEntity
8
SK2
62
256
6
ByLayer
370
13
48
1
60
0
100
AcDbLine
10
29.5
20
-3.0875
30
0
11
29.5
21
-13.713398
31
0
39
0
210
0
220
0
230
1
0
LINE
5
E6
100
AcDbEntity
8
SK2
62
256
6
ByLayer
370
13
48
1
60
0
100
AcDbLine
10
0
20
-11.713398
30
0
11
29.5
21
-11.713398
31
0
39
0
210
0
220
0
230
1
0
SOLID
5
E7
100
AcDbEntity
8
SK2
62
256
6
ByLayer
370
13
48
1
60
0
100
AcDbTrace
10
0
20
-11.713398
30
0
11
3.499998
21
-11.252615
31
0
12
3.500002
22
-12.174182
32
0
13
0
23
-11.713398
33
0
39
0
210
0
220
0
230
1
0
SOLID
5
E8
100
AcDbEntity
8
SK2
62
256
6
ByLayer
370
13
48
1
60
0
100
AcDbTrace
10
29.5
20
-11.713398
30
0
11
26.000002
21
-12.174182
31
0
12
25.999998
22
-11.252615
32
0
13
29.5
23
-11.713398
33
0
39
0
210
0
220
0
230
1
0
ENDBLK
5
EA
100
AcDbEntity
8
0
100
AcDbBlockEnd
0
BLOCK
5
F3
100
AcDbEntity
8
0
100
AcDbBlockBegin
2
DimnDraft3D2
70
0
10
0
20
0
30
0
3
DimnDraft3D2
0
MTEXT
5
ED
100
AcDbEntity
8
SK2
62
256
6
ByLayer
370
13
48
1
60
0
100
AcDbMText
10
-6.607384
20
-30.817985
30
0
210
0
220
0
230
1
1
\W0.7317;66,00
40
3.5
41
0
44
1.084337
50
0
71
7
72
5
7
iso_b_vert
0
LINE
5
EE
100
AcDbEntity
8
SK2
62
256
6
ByLayer
370
13
48
1
60
0
100
AcDbLine
10
-36
20
-4.5875
30
0
11
-36
21
-33.692985
31
0
39
0
210
0
220
0
230
1
0
LINE
5
EF
100
AcDbEntity
8
SK2
62
256
6
ByLayer
370
13
48
1
60
0
100
AcDbLine
10
30
20
-1.5875
30
0
11
30
21
-33.692985
31
0
39
0
210
0
220
0
230
1
0
LINE
5
F0
100
AcDbEntity
8
SK2
62
256
6
ByLayer
370
13
48
1
60
0
100
AcDbLine
10
-36
20
-31.692985
30
0
11
30
21
-31.692985
31
0
39
0
210
0
220
0
230
1
0
SOLID
5
F1
100
AcDbEntity
8
SK2
62
256
6
ByLayer
370
13
48
1
60
0
100
AcDbTrace
10
-36
20
-31.692985
30
0
11
-32.500002
21
-31.232202
31
0
12
-32.499998
22
-32.153769
32
0
13
-36
23
-31.692985
33
0
39
0
210
0
220
0
230
1
0
SOLID
5
F2
100
AcDbEntity
8
SK2
62
256
6
ByLayer
370
13
48
1
60
0
100
AcDbTrace
10
30
20
-31.692985
30
0
11
26.500002
21
-32.153769
31
0
12
26.499998
22
-31.232202
32
0
13
30
23
-31.692985
33
0
39
0
210
0
220
0
230
1
0
ENDBLK
5
F4
100
AcDbEntity
8
0
100
AcDbBlockEnd
0
BLOCK
5
FD
100
AcDbEntity
8
0
100
AcDbBlockBegin
2
DimnDraft3D3
70
0
10
0
20
0
30
0
3
DimnDraft3D3
0
MTEXT
5
F7
100
AcDbEntity
8
SK2
62
256
6
ByLayer
370
13
48
1
60
0
100
AcDbMText
10
18.238816
20
13.984119
30
0
210
0
220
0
230
1
1
\W0.6713;15,50
40
3.5
41
0
44
1.084337
50
0
71
7
72
5
7
iso_b_vert
0
LINE
5
F8
100
AcDbEntity
8
SK2
62
256
6
ByLayer
370
13
48
1
60
0
100
AcDbLine
10
14.5
20
3.0875
30
0
11
14.5
21
15.109119
31
0
39
0
210
0
220
0
230
1
0
LINE
5
F9
100
AcDbEntity
8
SK2
62
256
6
ByLayer
370
13
48
1
60
0
100
AcDbLine
10
30
20
1.5875
30
0
11
30
21
15.109119
31
0
39
0
210
0
220
0
230
1
0
LINE
5
FA
100
AcDbEntity
8
SK2
62
256
6
ByLayer
370
13
48
1
60
0
100
AcDbLine
10
14.5
20
13.109119
30
0
11
30
21
13.109119
31
0
39
0
210
0
220
0
230
1
0
SOLID
5
FB
100
AcDbEntity
8
SK2
62
256
6
ByLayer
370
13
48
1
60
0
100
AcDbTrace
10
14.5
20
13.109119
30
0
11
17.999998
21
13.569903
31
0
12
18.000002
22
12.648335
32
0
13
14.5
23
13.109119
33
0
39
0
210
0
220
0
230
1
0
SOLID
5
FC
100
AcDbEntity
8
SK2
62
256
6
ByLayer
370
13
48
1
60
0
100
AcDbTrace
10
30
20
13.109119
30
0
11
26.500002
21
12.648335
31
0
12
26.499998
22
13.569903
32
0
13
30
23
13.109119
33
0
39
0
210
0
220
0
230
1
0
ENDBLK
5
FE
100
AcDbEntity
8
0
100
AcDbBlockEnd
0
BLOCK
5
107
100
AcDbEntity
8
0
100
AcDbBlockBegin
2
DimnDraft3D4
70
0
10
0
20
0
30
0
3
DimnDraft3D4
0
MTEXT
5
101
100
AcDbEntity
8
SK2
62
256
6
ByLayer
370
13
48
1
60
0
100
AcDbMText
10
36.840636
20
-13.427503
30
0
210
0
220
0
230
1
1
\W0.7150;0,50
40
3.5
41
0
44
1.084337
50
0
71
7
72
5
7
iso_b_vert
0
LINE
5
102
100
AcDbEntity
8
SK2
62
256
6
ByLayer
370
13
48
1
60
0
100
AcDbLine
10
30
20
-1.5875
30
0
11
30
21
-16.302503
31
0
39
0
210
0
220
0
230
1
0
LINE
5
103
100
AcDbEntity
8
SK2
62
256
6
ByLayer
370
13
48
1
60
0
100
AcDbLine
10
29.5
20
-3.0875
30
0
11
29.5
21
-16.302503
31
0
39
0
210
0
220
0
230
1
0
LINE
5
104
100
AcDbEntity
8
SK2
62
256
6
ByLayer
370
13
48
1
60
0
100
AcDbLine
10
20.75
20
-14.302503
30
0
11
43.997215
21
-14.302503
31
0
39
0
210
0
220
0
230
1
0
SOLID
5
105
100
AcDbEntity
8
SK2
62
256
6
ByLayer
370
13
48
1
60
0
100
AcDbTrace
10
30
20
-14.302503
30
0
11
33.499998
21
-13.841719
31
0
12
33.500002
22
-14.763287
32
0
13
30
23
-14.302503
33
0
39
0
210
0
220
0
230
1
0
SOLID
5
106
100
AcDbEntity
8
SK2
62
256
6
ByLayer
370
13
48
1
60
0
100
AcDbTrace
10
29.5
20
-14.302503
30
0
11
26.000002
21
-14.763287
31
0
12
25.999998
22
-13.841719
32
0
13
29.5
23
-14.302503
33
0
39
0
210
0
220
0
230
1
0
ENDBLK
5
108
100
AcDbEntity
8
0
100
AcDbBlockEnd
0
BLOCK
5
111
100
AcDbEntity
8
0
100
AcDbBlockBegin
2
DimnDraft3D5
70
0
10
0
20
0
30
0
3
DimnDraft3D5
0
MTEXT
5
10B
100
AcDbEntity
8
SK2
62
256
6
ByLayer
370
13
48
1
60
0
100
AcDbMText
10
-9.688008
20
-20.468428
30
0
210
0
220
0
230
1
1
\W0.7317;65,50
40
3.5
41
0
44
1.084337
50
0
71
7
72
5
7
iso_b_vert
0
LINE
5
10C
100
AcDbEntity
8
SK2
62
256
6
ByLayer
370
13
48
1
60
0
100
AcDbLine
10
-36
20
-4.5875
30
0
11
-36
21
-23.343428
31
0
39
0
210
0
220
0
230
1
0
LINE
5
10D
100
AcDbEntity
8
SK2
62
256
6
ByLayer
370
13
48
1
60
0
100
AcDbLine
10
29.5
20
-3.0875
30
0
11
29.5
21
-23.343428
31
0
39
0
210
0
220
0
230
1
0
LINE
5
10E
100
AcDbEntity
8
SK2
62
256
6
ByLayer
370
13
48
1
60
0
100
AcDbLine
10
-36
20
-21.343428
30
0
11
29.5
21
-21.343428
31
0
39
0
210
0
220
0
230
1
0
SOLID
5
10F
100
AcDbEntity
8
SK2
62
256
6
ByLayer
370
13
48
1
60
0
100
AcDbTrace
10
-36
20
-21.343428
30
0
11
-32.500002
21
-20.882645
31
0
12
-32.499998
22
-21.804212
32
0
13
-36
23
-21.343428
33
0
39
0
210
0
220
0
230
1
0
SOLID
5
110
100
AcDbEntity
8
SK2
62
256
6
ByLayer
370
13
48
1
60
0
100
AcDbTrace
10
29.5
20
-21.343428
30
0
11
26.000002
21
-21.804212
31
0
12
25.999998
22
-20.882645
32
0
13
29.5
23
-21.343428
33
0
39
0
210
0
220
0
230
1
0
ENDBLK
5
112
100
AcDbEntity
8
0
100
AcDbBlockEnd
0
BLOCK
5
11C
100
AcDbEntity
8
0
100
AcDbBlockBegin
2
DimnDraft3D6
70
0
10
0
20
0
30
0
3
DimnDraft3D6
0
MTEXT
5
115
100
AcDbEntity
8
SK2
62
256
6
ByLayer
370
13
48
1
60
0
100
AcDbMText
10
-46.375163
20
22.34918
30
0
210
0
220
0
230
1
1
\W0.7317;6,000
40
3.5
41
0
44
1.084337
50
90
71
7
72
5
7
iso_b_vert
0
MTEXT
5
116
100
AcDbEntity
8
SK2
62
256
6
ByLayer
370
13
48
1
60
0
100
AcDbMText
10
-46.375163
20
17.126524
30
0
210
0
220
0
230
1
1
%%c
40
3.5
41
0
44
1.084337
50
90
71
7
72
5
7
iso_b_vert
0
LINE
5
117
100
AcDbEntity
8
SK2
62
256
6
ByLayer
370
13
48
1
60
0
100
AcDbLine
10
-37.5875
20
-3
30
0
11
-46.625163
21
-3
31
0
39
0
210
0
220
0
230
1
0
LINE
5
118
100
AcDbEntity
8
SK2
62
256
6
ByLayer
370
13
48
1
60
0
100
AcDbLine
10
-37.5875
20
3
30
0
11
-46.625163
21
3
31
0
39
0
210
0
220
0
230
1
0
LINE
5
119
100
AcDbEntity
8
SK2
62
256
6
ByLayer
370
13
48
1
60
0
100
AcDbLine
10
-44.625163
20
32.121549
30
0
11
-44.625163
21
-11.75
31
0
39
0
210
0
220
0
230
1
0
SOLID
5
11A
100
AcDbEntity
8
SK2
62
256
6
ByLayer
370
13
48
1
60
0
100
AcDbTrace
10
-44.625163
20
-3
30
0
11
-44.164379
21
-6.499998
31
0
12
-45.085946
22
-6.500002
32
0
13
-44.625163
23
-3
33
0
39
0
210
0
220
0
230
1
0
SOLID
5
11B
100
AcDbEntity
8
SK2
62
256
6
ByLayer
370
13
48
1
60
0
100
AcDbTrace
10
-44.625163
20
3
30
0
11
-45.085946
21
6.499998
31
0
12
-44.164379
22
6.500002
32
0
13
-44.625163
23
3
33
0
39
0
210
0
220
0
230
1
0
ENDBLK
5
11D
100
AcDbEntity
8
0
100
AcDbBlockEnd
0
BLOCK
5
127
100
AcDbEntity
8
0
100
AcDbBlockBegin
2
DimnDraft3D7
70
0
10
0
20
0
30
0
3
DimnDraft3D7
0
MTEXT
5
120
100
AcDbEntity
8
2
62
256
6
ByLayer
370
13
48
1
60
0
100
AcDbMText
10
40.333343
20
19.442266
30
0
210
0
220
0
230
1
1
\W0.7317;3,000
40
3.5
41
0
44
1.084337
50
90
71
7
72
5
7
iso_b_vert
0
MTEXT
5
121
100
AcDbEntity
8
2
62
256
6
ByLayer
370
13
48
1
60
0
100
AcDbMText
10
40.333343
20
14.21961
30
0
210
0
220
0
230
1
1
%%c
40
3.5
41
0
44
1.084337
50
90
71
7
72
5
7
iso_b_vert
0
LINE
5
122
100
AcDbEntity
8
2
62
256
6
ByLayer
370
13
48
1
60
0
100
AcDbLine
10
31.0875
20
-1.5
30
0
11
44.083343
21
-1.5
31
0
39
0
210
0
220
0
230
1
0
LINE
5
123
100
AcDbEntity
8
2
62
256
6
ByLayer
370
13
48
1
60
0
100
AcDbLine
10
31.0875
20
1.5
30
0
11
44.083343
21
1.5
31
0
39
0
210
0
220
0
230
1
0
LINE
5
124
100
AcDbEntity
8
2
62
256
6
ByLayer
370
13
48
1
60
0
100
AcDbLine
10
42.083343
20
29.214635
30
0
11
42.083343
21
-10.25
31
0
39
0
210
0
220
0
230
1
0
SOLID
5
125
100
AcDbEntity
8
2
62
256
6
ByLayer
370
13
48
1
60
0
100
AcDbTrace
10
42.083343
20
-1.5
30
0
11
42.544126
21
-4.999998
31
0
12
41.622559
22
-5.000002
32
0
13
42.083343
23
-1.5
33
0
39
0
210
0
220
0
230
1
0
SOLID
5
126
100
AcDbEntity
8
2
62
256
6
ByLayer
370
13
48
1
60
0
100
AcDbTrace
10
42.083343
20
1.5
30
0
11
41.622559
21
4.999998
31
0
12
42.544126
22
5.000002
32
0
13
42.083343
23
1.5
33
0
39
0
210
0
220
0
230
1
0
ENDBLK
5
128
100
AcDbEntity
8
0
100
AcDbBlockEnd
0
ENDSEC
0
SECTION
2
ENTITIES
0
ARC
5
9B
100
AcDbEntity
8
1
62
256
6
ByLayer
370
18
48
1
60
0
100
AcDbCircle
39
0
10
0
20
2.2
30
0
40
0.799999999999995
210
0
220
0
230
1
100
AcDbArc
50
2.982066
51
90
0
ARC
5
9C
100
AcDbEntity
8
1
62
256
6
ByLayer
370
18
48
1
60
0
100
AcDbCircle
39
0
10
0
20
-2.2
30
0
40
0.799999999999995
210
0
220
0
230
1
100
AcDbArc
50
270
51
357.017934
0
ARC
5
9D
100
AcDbEntity
8
1
62
256
6
ByLayer
370
18
48
1
60
0
100
AcDbCircle
39
0
10
-1.597833
20
2.283237
30
0
40
0.800000000000002
210
0
220
0
230
-1
100
AcDbArc
50
269.965623
51
357.017934
0
ARC
5
9E
100
AcDbEntity
8
1
62
256
6
ByLayer
370
18
48
1
60
0
100
AcDbCircle
39
0
10
-1.597833
20
-2.283237
30
0
40
0.800000000000002
210
0
220
0
230
-1
100
AcDbArc
50
2.982066
51
90.034377
0
ELLIPSE
5
9F
100
AcDbEntity
8
1
62
256
6
ByLayer
370
13
48
1
60
0
100
AcDbEllipse
10
4.174386
20
-1.457051
30
0
11
0.0372950625600878
21
-0.092785119004284
31
0
210
0
220
0
230
1
40
0.54197
41
-2.84375979705517
42
-1.95266694042749
0
ELLIPSE
5
A0
100
AcDbEntity
8
1
62
256
6
ByLayer
370
13
48
1
60
0
100
AcDbEllipse
10
29.991321
20
0.811589
30
0
11
1.12380548769252
21
-0.41229317131901
31
0
210
0
220
0
230
-1
40
0.423877
41
1.6427611934277
42
1.90343165516617
0
ELLIPSE
5
A1
100
AcDbEntity
8
1
62
256
6
ByLayer
370
13
48
1
60
0
100
AcDbEllipse
10
4.250215
20
-1.44902
30
0
11
0.0148589892247363
21
0.098889890480368
31
0
210
0
220
0
230
1
40
0.482202
41
0.299199584453974
42
1.69291373595937
0
ELLIPSE
5
A2
100
AcDbEntity
8
1
62
256
6
ByLayer
370
18
48
1
60
0
100
AcDbEllipse
10
29.861194
20
0.079821
30
0
11
0.0727819104929127
21
0.301917195714478
31
0
210
0
220
0
230
-1
40
0.478434
41
1.66930418950857
42
2.45976119972953
0
ELLIPSE
5
A3
100
AcDbEntity
8
1
62
256
6
ByLayer
370
18
48
1
60
0
100
AcDbEllipse
10
29.679311
20
0.811589
30
0
11
0.234823317324856
21
-0.629035641374434
31
0
210
0
220
0
230
-1
40
0.148387
41
-1.44075987869202
42
-0.730060677419412
0
ELLIPSE
5
A4
100
AcDbEntity
8
1
62
256
6
ByLayer
370
18
48
1
60
0
100
AcDbEllipse
10
30.067968
20
-0.042865
30
0
11
0.133321008198142
21
-0.425213611822843
31
0
210
0
220
0
230
-1
40
0.112798
41
1.74369754431909
42
2.34950393580785
0
ELLIPSE
5
A5
100
AcDbEntity
8
1
62
256
6
ByLayer
370
13
48
1
60
0
100
AcDbEllipse
10
29.736207
20
0.15398
30
0
11
0.153082081612417
21
0.258003636193774
31
0
210
0
220
0
230
1
40
0.454519
41
0.917105603404764
42
2.31336900500031
0
ELLIPSE
5
A6
100
AcDbEntity
8
1
62
256
6
ByLayer
370
18
48
1
60
0
100
AcDbEllipse
10
30.000145
20
-0.000328
30
0
11
0.559207003617684
21
-1.49798213034996
31
0
210
0
220
0
230
-1
40
0.148387
41
-2.9816036387993
42
-2.83059712143933
0
ELLIPSE
5
A7
100
AcDbEntity
8
1
62
256
6
ByLayer
370
18
48
1
60
0
100
AcDbEllipse
10
29.679311
20
-0.811589
30
0
11
0.234823317304587
21
0.629035641333625
31
0
210
0
220
0
230
-1
40
0.148387
41
0.730060677418901
42
1.44075987873393
0
ELLIPSE
5
A8
100
AcDbEntity
8
1
62
256
6
ByLayer
370
18
48
1
60
0
100
AcDbEllipse
10
30.000145
20
0.000328
30
0
11
0.559206997859036
21
1.49798211313087
31
0
210
0
220
0
230
-1
40
0.148387
41
2.83059711961395
42
2.98160363785415
0
ELLIPSE
5
A9
100
AcDbEntity
8
1
62
256
6
ByLayer
370
13
48
1
60
0
100
AcDbEllipse
10
29.801414
20
0.688391
30
0
11
1.06750474991994
21
-0.735007376290345
31
0
210
0
220
0
230
-1
40
0.533762
41
1.44484622735443
42
1.70250411700211
0
ELLIPSE
5
AA
100
AcDbEntity
8
1
62
256
6
ByLayer
370
18
48
1
60
0
100
AcDbEllipse
10
30.067968
20
0.042865
30
0
11
0.133321008266169
21
0.425213611991113
31
0
210
0
220
0
230
-1
40
0.112798
41
-2.34950393585264
42
-1.74369754457129
0
POINT
5
6C
100
AcDbEntity
8
81
62
256
6
ByLayer
370
18
48
1
60
0
100
AcDbPoint
10
30
20
0
30
0
39
0
210
0
220
0
230
1
50
360
0
POINT
5
6E
100
AcDbEntity
8
80
62
256
6
ByLayer
370
18
48
1
60
0
100
AcDbPoint
10
0
20
0
30
0
39
0
210
0
220
0
230
1
50
360
0
POINT
5
70
100
AcDbEntity
8
SK2
62
256
6
ByLayer
370
18
48
1
60
1
100
AcDbPoint
10
-36
20
-3
30
0
39
0
210
0
220
0
230
1
50
360
0
POINT
5
72
100
AcDbEntity
8
SK2
62
256
6
ByLayer
370
18
48
1
60
1
100
AcDbPoint
10
-36
20
3
30
0
39
0
210
0
220
0
230
1
50
360
0
POINT
5
73
100
AcDbEntity
8
2
62
256
6
ByLayer
370
18
48
1
60
1
100
AcDbPoint
10
29.5
20
-1.5
30
0
39
0
210
0
220
0
230
1
50
360
0
POINT
5
75
100
AcDbEntity
8
2
62
256
6
ByLayer
370
18
48
1
60
1
100
AcDbPoint
10
29.5
20
1.5
30
0
39
0
210
0
220
0
230
1
50
360
0
SPLINE
5
AB
100
AcDbEntity
8
1
62
256
6
ByLayer
370
18
48
1
60
0
100
AcDbSpline
70
4
71
3
72
15
73
11
40
0
40
0
40
0
40
0
40
0.140106177381843
40
0.24730157480871
40
0.321451896520671
40
0.444578608838565
40
0.61691511949794
40
0.786753040488714
40
0.901903598327694
40
1
40
1
40
1
40
1
41
1
10
16.9061924425769
20
1.40861851753928
30
0
41
1
10
16.7544210283316
20
1.40735287979976
30
0
41
1
10
16.4865259083448
20
1.40605569910943
30
0
41
1
10
16.1382880249022
20
1.40623636857003
30
0
41
1
10
15.8084558896108
20
1.40835308798967
30
0
41
1
10
15.4080423883666
20
1.40588049780393
30
0
41
1
10
14.9039649175839
20
1.4073824425798
30
0
41
1
10
14.4085405153396
20
1.4051771839577
30
0
41
1
10
13.9935292680249
20
1.40672253222388
30
0
41
1
10
13.7625193856371
20
1.40580465531787
30
0
41
1
10
13.6562534996319
20
1.40550507610305
30
0
0
SPLINE
5
AC
100
AcDbEntity
8
1
62
256
6
ByLayer
370
18
48
1
60
0
100
AcDbSpline
70
4
71
3
72
16
73
12
40
0
40
0
40
0
40
0
40
0.151423263028923
40
0.257123931950971
40
0.351583036302788
40
0.457648825045417
40
0.553065769058671
40
0.645110784030571
40
0.726411941051998
40
0.831363957419246
40
1
40
1
40
1
40
1
41
1
10
4.90946792547572
20
-1.40039875831783
30
0
41
1
10
5.10311629201323
20
-1.40037132218916
30
0
41
1
10
5.43195572173212
20
-1.40038744184767
30
0
41
1
10
5.88164508649845
20
-1.40173942929744
30
0
41
1
10
6.27332881226562
20
-1.40106231375356
30
0
41
1
10
6.65186033215224
20
-1.40068327067416
30
0
41
1
10
7.02728942988517
20
-1.40206599678052
30
0
41
1
10
7.37105179932899
20
-1.4034405229313
30
0
41
1
10
7.72701036527874
20
-1.4017575707775
30
0
41
1
10
8.18092678164896
20
-1.40135227883101
30
0
41
1
10
8.53085975506531
20
-1.40208770443209
30
0
41
1
10
8.74655406920434
20
-1.40303640377496
30
0
0
SPLINE
5
AD
100
AcDbEntity
8
1
62
256
6
ByLayer
370
18
48
1
60
0
100
AcDbSpline
70
4
71
3
72
10
73
6
40
0
40
0
40
0
40
0
40
0.276158306742329
40
0.6217833380693
40
1
40
1
40
1
40
1
41
1
10
25.5386217202805
20
-0.426105352927976
30
0
41
1
10
25.540631610274
20
-0.42787418736458
30
0
41
1
10
25.5518827488202
20
-0.434908067902285
30
0
41
1
10
25.6110346487436
20
-0.464477045136959
30
0
41
1
10
25.667668837014
20
-0.496196443464839
30
0
41
1
10
25.7028668153338
20
-0.516033895962579
30
0
0
SPLINE
5
AE
100
AcDbEntity
8
1
62
256
6
ByLayer
370
18
48
1
60
0
100
AcDbSpline
70
4
71
3
72
16
73
12
40
0
40
0
40
0
40
0
40
0.167672980143232
40
0.28642934293262
40
0.365638229877605
40
0.445381571079045
40
0.535162106753074
40
0.649421007646283
40
0.776455831390346
40
0.889596617338139
40
1
40
1
40
1
40
1
41
1
10
8.74609950771435
20
1.40303643886006
30
0
41
1
10
8.56703674170925
20
1.40273141095912
30
0
41
1
10
8.26114981622291
20
1.40249514922982
30
0
41
1
10
7.87067003680076
20
1.40122315365122
30
0
41
1
10
7.57409458446949
20
1.40259803294003
30
0
41
1
10
7.30846167280549
20
1.40325267573439
30
0
41
1
10
7.00539930326516
20
1.40196182099862
30
0
41
1
10
6.65183879792971
20
1.40069109454504
30
0
41
1
10
6.27331704056891
20
1.40106043138664
30
0
41
1
10
5.89891410925716
20
1.40170996566735
30
0
41
1
10
5.66018358934124
20
1.40106828451062
30
0
41
1
10
5.54228384114478
20
1.40082754273308
30
0
0
SPLINE
5
AF
100
AcDbEntity
8
1
62
256
6
ByLayer
370
18
48
1
60
0
100
AcDbSpline
70
4
71
3
72
16
73
12
40
0
40
0
40
0
40
0
40
0.143631485679944
40
0.236182717124656
40
0.333717503990988
40
0.477583962218531
40
0.623504278751584
40
0.727761096546165
40
0.790559242430572
40
0.881343489803893
40
1
40
1
40
1
40
1
41
1
10
13.0687342292917
20
-1.40517547737215
30
0
41
1
10
13.252424153369
20
-1.40502798383122
30
0
41
1
10
13.5544861533718
20
-1.40489903412572
30
0
41
1
10
13.9813076949428
20
-1.40676761647677
30
0
41
1
10
14.4084474975178
20
-1.4051774991506
30
0
41
1
10
14.9038345566485
20
-1.40738206536705
30
0
41
1
10
15.4078315725522
20
-1.40587957486326
30
0
41
1
10
15.8081369185487
20
-1.40835428583222
30
0
41
1
10
16.1379094597666
20
-1.40623790356966
30
0
41
1
10
16.4861110192419
20
-1.40605423835777
30
0
41
1
10
16.7539783067597
20
-1.40735139953549
30
0
41
1
10
16.9057339471993
20
-1.40861721404829
30
0
0
SPLINE
5
B0
100
AcDbEntity
8
1
62
256
6
ByLayer
370
18
48
1
60
0
100
AcDbSpline
70
4
71
3
72
10
73
6
40
0
40
0
40
0
40
0
40
0.124088356877776
40
0.502147322864518
40
1
40
1
40
1
40
1
41
1
10
9.20250961956808
20
-0.41962861164464
30
0
41
1
10
9.20229000737103
20
-0.419825616748596
30
0
41
1
10
9.2048107971718
20
-0.422003940101291
30
0
41
1
10
9.26521070388472
20
-0.449794922379368
30
0
41
1
10
9.34024331152435
20
-0.49151264030084
30
0
41
1
10
9.39612511390894
20
-0.522635273166173
30
0
0
SPLINE
5
B1
100
AcDbEntity
8
1
62
256
6
ByLayer
370
18
48
1
60
0
100
AcDbSpline
70
4
71
1
72
4
73
2
40
0
40
0
40
1
40
1
41
1
10
29.3148469149067
20
-1.41435357175476
30
0
41
1
10
29.473408868303
20
-1.41454976996957
30
0
0
SPLINE
5
B2
100
AcDbEntity
8
1
62
256
6
ByLayer
370
18
48
1
60
0
100
AcDbSpline
70
4
71
3
72
15
73
11
40
0
40
0
40
0
40
0
40
0.211457749681759
40
0.371496588716026
40
0.510408050921844
40
0.646056928371662
40
0.746217817063705
40
0.82895891376363
40
0.978653745414975
40
1
40
1
40
1
40
1
41
1
10
25.0681628873932
20
1.41211408525083
30
0
41
1
10
24.8434340215899
20
1.41192164003743
30
0
41
1
10
24.4486233395102
20
1.41148866152733
30
0
41
1
10
23.9061921182354
20
1.41273026700699
30
0
41
1
10
23.4443182717181
20
1.41034525136189
30
0
41
1
10
23.0460867481405
20
1.41133690488411
30
0
41
1
10
22.7075365210787
20
1.41059152884327
30
0
41
1
10
22.3540869854722
20
1.41130569554372
30
0
41
1
10
22.0844260187274
20
1.41054220772418
30
0
41
1
10
21.9026845185411
20
1.41029851402971
30
0
41
1
10
21.8800028595204
20
1.41027193277793
30
0
0
SPLINE
5
B3
100
AcDbEntity
8
1
62
256
6
ByLayer
370
18
48
1
60
0
100
AcDbSpline
70
4
71
3
72
10
73
6
40
0
40
0
40
0
40
0
40
0.37932018306783
40
0.734575985255082
40
1
40
1
40
1
40
1
41
1
10
4.68183618007606
20
-0.0156771593853477
30
0
41
1
10
4.67540220512132
20
-0.0133236496625955
30
0
41
1
10
4.66240059901824
20
-0.0082555808724294
30
0
41
1
10
4.64347212426313
20
-0.0001461169399875
30
0
41
1
10
4.63075820979921
20
0.0057396011207231
30
0
41
1
10
4.62516611905659
20
0.0083979137094161
30
0
0
SPLINE
5
B4
100
AcDbEntity
8
1
62
256
6
ByLayer
370
18
48
1
60
0
100
AcDbSpline
70
4
71
3
72
12
73
8
40
0
40
0
40
0
40
0
40
0.0498339517624359
40
0.195701756077894
40
0.377364364663917
40
0.649156171430408
40
1
40
1
40
1
40
1
41
1
10
17.3634842079643
20
-0.420172321128945
30
0
41
1
10
17.3632912378605
20
-0.420222383350222
30
0
41
1
10
17.362793931271
20
-0.420528447365569
30
0
41
1
10
17.3638886410547
20
-0.422004612152591
30
0
41
1
10
17.3907423446879
20
-0.433966053974132
30
0
41
1
10
17.4668950674422
20
-0.473432980905329
30
0
41
1
10
17.5358990103009
20
-0.511311053350823
30
0
41
1
10
17.5811171997588
20
-0.536675103347051
30
0
0
SPLINE
5
B5
100
AcDbEntity
8
1
62
256
6
ByLayer
370
18
48
1
60
0
100
AcDbSpline
70
4
71
3
72
9
73
5
40
0
40
0
40
0
40
0
40
0.436307539411589
40
1
40
1
40
1
40
1
41
1
10
4.64370901083595
20
7.66714218514E-05
30
0
41
1
10
4.64946514242618
20
0.0026352425822438
30
0
41
1
10
4.66208826566032
20
0.0079914936527246
30
0
41
1
10
4.67403028536449
20
0.012670837785322
30
0
41
1
10
4.68046722399078
20
0.0150324200575653
30
0
0
SPLINE
5
B6
100
AcDbEntity
8
1
62
256
6
ByLayer
370
18
48
1
60
0
100
AcDbSpline
70
4
71
3
72
17
73
13
40
0
40
0
40
0
40
0
40
0.187012023633853
40
0.319148657988001
40
0.416423127612637
40
0.493275196735098
40
0.53883675310121
40
0.582331167242142
40
0.631179297050655
40
0.715578428564746
40
0.838542969997702
40
1
40
1
40
1
40
1
41
1
10
21.2292837668442
20
-1.41022245094328
30
0
41
1
10
21.4685971664
20
-1.41015204515287
30
0
41
1
10
21.8770143624836
20
-1.40997431177229
30
0
41
1
10
22.4099553367241
20
-1.41150062123117
30
0
41
1
10
22.8019118452046
20
-1.41014662622845
30
0
41
1
10
23.0830685683804
20
-1.41155711063561
30
0
41
1
10
23.2953998174301
20
-1.41138869145919
30
0
41
1
10
23.4718884267713
20
-1.41075901858693
30
0
41
1
10
23.6980869093949
20
-1.41035434879879
30
0
41
1
10
24.0259797637987
20
-1.41357884102533
30
0
41
1
10
24.497993877744
20
-1.41086840079768
30
0
41
1
10
24.8619887052105
20
-1.41172330830159
30
0
41
1
10
25.0686163739818
20
-1.41211479956496
30
0
0
SPLINE
5
B7
100
AcDbEntity
8
1
62
256
6
ByLayer
370
18
48
1
60
0
100
AcDbSpline
70
4
71
3
72
16
73
12
40
0
40
0
40
0
40
0
40
0.25
40
0.25
40
0.5
40
0.5
40
0.75
40
0.75
40
0.875
40
0.875
40
1
40
1
40
1
40
1
41
1
10
29.8023130768837
20
0.764572286446793
30
0
41
1
10
29.7807371374756
20
0.822766023246572
30
0
41
1
10
29.7591096019515
20
0.880918816959365
30
0
41
1
10
29.7154837583294
20
0.996930185073211
30
0
41
1
10
29.6933596447315
20
1.05477500085036
30
0
41
1
10
29.6488505838438
20
1.16979738909183
30
0
41
1
10
29.6265879201327
20
1.22728064507018
30
0
41
1
10
29.592787199288
20
1.31210840921787
30
0
41
1
10
29.5814420521899
20
1.34011557212946
30
0
41
1
10
29.5586609240894
20
1.39581787936194
30
0
41
1
10
29.5472524220287
20
1.42360741509682
30
0
41
1
10
29.5357829730677
20
1.45118759545866
30
0
0
SPLINE
5
B8
100
AcDbEntity
8
1
62
256
6
ByLayer
370
13
48
1
60
0
100
AcDbSpline
70
4
71
3
72
10
73
6
40
0
40
0
40
0
40
0
40
0.5
40
0.5
40
1
40
1
40
1
40
1
41
1
10
4.25035878176857
20
-1.35241121101379
30
0
41
1
10
4.22827198018553
20
-1.35053940365853
30
0
41
1
10
4.20660683092885
20
-1.35145706750595
30
0
41
1
10
4.16417862044173
20
-1.35872316604616
30
0
41
1
10
4.14333490830205
20
-1.36517795754679
30
0
41
1
10
4.12397582370426
20
-1.37428242537311
30
0
0
SPLINE
5
B9
100
AcDbEntity
8
1
62
256
6
ByLayer
370
18
48
1
60
0
100
AcDbSpline
70
4
71
3
72
64
73
60
40
0
40
0
40
0
40
0
40
0.0230873412585604
40
0.0230873412585604
40
0.0586077776546339
40
0.0586077776546339
40
0.0941282140507075
40
0.0941282140507075
40
0.129648650446781
40
0.129648650446781
40
0.165169086842855
40
0.165169086842855
40
0.200689523238928
40
0.200689523238928
40
0.236209959635001
40
0.236209959635001
40
0.271730396031075
40
0.271730396031075
40
0.307250832427148
40
0.307250832427148
40
0.342771268823222
40
0.342771268823222
40
0.378291705219295
40
0.378291705219295
40
0.413812141615369
40
0.413812141615369
40
0.449332578011442
40
0.449332578011442
40
0.484853014407516
40
0.484853014407516
40
0.520373450803589
40
0.520373450803589
40
0.555893887199663
40
0.555893887199663
40
0.591414323595736
40
0.591414323595736
40
0.62693475999181
40
0.62693475999181
40
0.662455196387883
40
0.662455196387883
40
0.697975632783956
40
0.697975632783956
40
0.73349606918003
40
0.73349606918003
40
0.769016505576103
40
0.769016505576103
40
0.804536941972177
40
0.804536941972177
40
0.840057378368251
40
0.840057378368251
40
0.875577814764324
40
0.875577814764324
40
0.911098251160397
40
0.911098251160397
40
0.946618687556471
40
0.946618687556471
40
0.982139123952544
40
0.982139123952544
40
1
40
1
40
1
40
1
41
1
10
10.5519358739457
20
1.07159904491559
30
0
41
1
10
10.6303138404995
20
1.10266160787899
30
0
41
1
10
10.7085850572238
20
1.13232849369609
30
0
41
1
10
10.9069792701345
20
1.20406369845227
30
0
41
1
10
11.0273657744087
20
1.24380378658247
30
0
41
1
10
11.2692920405655
20
1.31444535922279
30
0
41
1
10
11.3899398632591
20
1.34558587663179
30
0
41
1
10
11.6304009111711
20
1.39950109644104
30
0
41
1
10
11.7505421658252
20
1.42198968851193
30
0
41
1
10
11.9921082764143
20
1.4573923694515
30
0
41
1
10
12.1132139576248
20
1.47050348613047
30
0
41
1
10
12.3529564981167
20
1.48722547885143
30
0
41
1
10
12.4722295070003
20
1.490754340542
30
0
41
1
10
12.7111537358138
20
1.48841998847962
30
0
41
1
10
12.8304937118536
20
1.48262810980978
30
0
41
1
10
13.0684612372588
20
1.46153814779174
30
0
41
1
10
13.1873467274872
20
1.44622268914443
30
0
41
1
10
13.4266336150165
20
1.40684808881497
30
0
41
1
10
13.5467574873145
20
1.38274179439196
30
0
41
1
10
13.7873887246985
20
1.32488329474651
30
0
41
1
10
13.9079816984886
20
1.29121087959183
30
0
41
1
10
14.149125436238
20
1.21684967363893
30
0
41
1
10
14.2697646071463
20
1.17593033237444
30
0
41
1
10
14.5104463081077
20
1.08570773959477
30
0
41
1
10
14.6309231263869
20
1.03644691077653
30
0
41
1
10
14.8723637626969
20
0.93287772094294
30
0
41
1
10
14.9930652850644
20
0.878384628693965
30
0
41
1
10
15.2336245334722
20
0.762802241030272
30
0
41
1
10
15.3536529643695
20
0.701897213478617
30
0
41
1
10
15.595263436816
20
0.577035986327928
30
0
41
1
10
15.7162369628809
20
0.513053893648561
30
0
41
1
10
15.9568742320046
20
0.380961811409918
30
0
41
1
10
16.0767946530952
20
0.312982492396344
30
0
41
1
10
16.3179330041536
20
0.176746329120562
30
0
41
1
10
16.4392744546689
20
0.108108789114851
30
0
41
1
10
16.6795129359729
20
-0.0300686780666126
30
0
41
1
10
16.7987478256795
20
-0.0995621319007967
30
0
41
1
10
17.0375261636238
20
-0.235665195870894
30
0
41
1
10
17.1569868007443
20
-0.30245206410504
30
0
41
1
10
17.3951218795479
20
-0.435125169384435
30
0
41
1
10
17.5138275257691
20
-0.500928228041573
30
0
41
1
10
17.7525824129446
20
-0.627959948793659
30
0
41
1
10
17.8726232147368
20
-0.689233136070897
30
0
41
1
10
18.1130874426515
20
-0.808783361056527
30
0
41
1
10
18.233661155436
20
-0.867113494236207
30
0
41
1
10
18.4745333737706
20
-0.976215469967258
30
0
41
1
10
18.5952090319014
20
-1.0271704821109
30
0
41
1
10
18.8360356981178
20
-1.12323158149664
30
0
41
1
10
18.9562854748069
20
-1.16838105592709
30
0
41
1
10
19.1975226218221
20
-1.25003723157241
30
0
41
1
10
19.3182733051493
20
-1.28644833797739
30
0
41
1
10
19.5590591178845
20
-1.35147346791157
30
0
41
1
10
19.6789947117637
20
-1.3800589716852
30
0
41
1
10
19.9200455202098
20
-1.42774857429183
30
0
41
1
10
20.041171811643
20
-1.44684172055437
30
0
41
1
10
20.2821015281185
20
-1.47587758059731
30
0
41
1
10
20.401991653625
20
-1.48579599272816
30
0
41
1
10
20.5828259070456
20
-1.49332439894582
30
0
41
1
10
20.6435432802278
20
-1.49462276661549
30
0
41
1
10
20.7042968718682
20
-1.49470634194711
30
0
0
SPLINE
5
BA
100
AcDbEntity
8
1
62
256
6
ByLayer
370
18
48
1
60
0
100
AcDbSpline
70
4
71
3
72
20
73
16
40
0
40
0
40
0
40
0
40
0.0537935070001311
40
0.0537935070001311
40
0.188965863142968
40
0.188965863142968
40
0.324138219285805
40
0.324138219285805
40
0.45931057542864
40
0.45931057542864
40
0.594482931571477
40
0.594482931571477
40
0.729655287714314
40
0.729655287714314
40
1
40
1
40
1
40
1
41
1
10
26.8694755807731
20
1.07512064511664
30
0
41
1
10
26.917417130821
20
1.09445727891776
30
0
41
1
10
26.9653221207275
20
1.11327538545001
30
0
41
1
10
27.1333535621116
20
1.17731017436103
30
0
41
1
10
27.2536169832911
20
1.21903910785636
30
0
41
1
10
27.4945094200005
20
1.29436242047058
30
0
41
1
10
27.6148283543361
20
1.32830922296756
30
0
41
1
10
27.8556410417854
20
1.38764384693533
30
0
41
1
10
27.9759601784683
20
1.41262114699199
30
0
41
1
10
28.2168202716413
20
1.45331349953528
30
0
41
1
10
28.336975504251
20
1.46921408629055
30
0
41
1
10
28.5774196008275
20
1.49151859195527
30
0
41
1
10
28.6981106522378
20
1.49778553036543
30
0
41
1
10
29.0586722731433
20
1.50220640248787
30
0
41
1
10
29.2962624442316
20
1.48579610368242
30
0
41
1
10
29.5357829730579
20
1.45118759546011
30
0
0
SPLINE
5
BB
100
AcDbEntity
8
1
62
256
6
ByLayer
370
18
48
1
60
0
100
AcDbSpline
70
4
71
3
72
38
73
34
40
0
40
0
40
0
40
0
40
0.0468033786839529
40
0.0468033786839529
40
0.0936067573679058
40
0.0936067573679058
40
0.187213514735808
40
0.187213514735808
40
0.28082027210371
40
0.28082027210371
40
0.327623650787661
40
0.327623650787661
40
0.374427029471612
40
0.374427029471612
40
0.468033786839516
40
0.468033786839516
40
0.514837165523468
40
0.514837165523468
40
0.56164054420742
40
0.56164054420742
40
0.655247301575326
40
0.655247301575326
40
0.702050680259278
40
0.702050680259278
40
0.74885405894323
40
0.74885405894323
40
0.842460816311132
40
0.842460816311132
40
0.889264194995083
40
0.889264194995083
40
0.936067573679034
40
0.936067573679034
40
1
40
1
40
1
40
1
41
1
10
29.4834905452706
20
-1.49174301942546
30
0
41
1
10
29.3509675513052
20
-1.4996991344955
30
0
41
1
10
29.2186653113832
20
-1.50175553472212
30
0
41
1
10
28.9537868115219
20
-1.49417946264748
30
0
41
1
10
28.8208217904422
20
-1.48448971405153
30
0
41
1
10
28.4243198524294
20
-1.43843432425612
30
0
41
1
10
28.1628131087036
20
-1.38521214968822
30
0
41
1
10
27.6392119163377
20
-1.23884061678658
30
0
41
1
10
27.3772077520217
20
-1.14564656125194
30
0
41
1
10
26.9794798056288
20
-0.979446706626646
30
0
41
1
10
26.8471559190344
20
-0.920087798686723
30
0
41
1
10
26.5840533734345
20
-0.795550829715012
30
0
41
1
10
26.4529729789756
20
-0.730265834517525
30
0
41
1
10
26.0600748219328
20
-0.52711936461651
30
0
41
1
10
25.7985649214445
20
-0.382039610974175
30
0
41
1
10
25.4029224613959
20
-0.156386215989812
30
0
41
1
10
25.2698771404706
20
-0.0796329647528751
30
0
41
1
10
25.0055428844546
20
0.0726804584585068
30
0
41
1
10
24.8740273088853
20
0.148387601880586
30
0
41
1
10
24.4806180102063
20
0.372783335567362
30
0
41
1
10
24.219436840001
20
0.517992799994033
30
0
41
1
10
23.8250971091152
20
0.722106205022413
30
0
41
1
10
23.6932514802523
20
0.787906231409835
30
0
41
1
10
23.4280249959311
20
0.913756042079513
30
0
41
1
10
23.2957338575719
20
0.973055969542202
30
0
41
1
10
22.9009098449108
20
1.13797496677017
30
0
41
1
10
22.6397810085106
20
1.23140596486687
30
0
41
1
10
22.2464086923509
20
1.34182901857608
30
0
41
1
10
22.1150313719263
20
1.37371882642034
30
0
41
1
10
21.8510930512877
20
1.42693994033991
30
0
41
1
10
21.7179648586067
20
1.4482671621268
30
0
41
1
10
21.4052049476213
20
1.48482712247829
30
0
41
1
10
21.2258980279385
20
1.49518044170847
30
0
41
1
10
21.0469042586894
20
1.49489258195638
30
0
0
SPLINE
5
BC
100
AcDbEntity
8
1
62
256
6
ByLayer
370
18
48
1
60
0
100
AcDbSpline
70
4
71
3
72
36
73
32
40
0
40
0
40
0
40
0
40
0.0077078485118157
40
0.0077078485118157
40
0.095300492345422
40
0.095300492345422
40
0.182893136179028
40
0.182893136179028
40
0.270485780012635
40
0.270485780012635
40
0.314282101929439
40
0.314282101929439
40
0.358078423846242
40
0.358078423846242
40
0.44567106767985
40
0.44567106767985
40
0.489467389596653
40
0.489467389596653
40
0.533263711513457
40
0.533263711513457
40
0.620856355347061
40
0.620856355347061
40
0.664652677263864
40
0.664652677263864
40
0.708448999180668
40
0.708448999180668
40
0.883634286847875
40
0.883634286847875
40
0.971226930681479
40
0.971226930681479
40
1
40
1
40
1
40
1
41
1
10
13.7589811628176
20
-1.40813887274311
30
0
41
1
10
13.7359180913054
20
-1.41246494694281
30
0
41
1
10
13.7128558831697
20
-1.41662551532858
30
0
41
1
10
13.4277027677622
20
-1.46600987604006
30
0
41
1
10
13.1651785356721
20
-1.48969921971613
30
0
41
1
10
12.6338470750762
20
-1.49032310549907
30
0
41
1
10
12.3708202471557
20
-1.46722897585443
30
0
41
1
10
11.8465176348504
20
-1.37760561190805
30
0
41
1
10
11.5846225981341
20
-1.31124695962109
30
0
41
1
10
11.1882603574853
20
-1.18165433779129
30
0
41
1
10
11.0550114664937
20
-1.13327702111141
30
0
41
1
10
10.7904645238946
20
-1.02891349080204
30
0
41
1
10
10.658807739971
20
-0.972859131503526
30
0
41
1
10
10.2647147667185
20
-0.794608787739293
30
0
41
1
10
10.0034065122896
20
-0.661916628211031
30
0
41
1
10
9.60848502972544
20
-0.449833027168637
30
0
41
1
10
9.47633698905722
20
-0.37700265654766
30
0
41
1
10
9.21039526829381
20
-0.22803347161846
30
0
41
1
10
9.0780626486503
20
-0.152658614578996
30
0
41
1
10
8.68298216821472
20
0.0735427356733283
30
0
41
1
10
8.42128995392193
20
0.224042424036014
30
0
41
1
10
8.02743064662013
20
0.442542430992319
30
0
41
1
10
7.89588466335397
20
0.514096860030435
30
0
41
1
10
7.63150967363495
20
0.653304410090726
30
0
41
1
10
7.49817454923732
20
0.72114861565521
30
0
41
1
10
6.83645052287076
20
1.04230487137676
30
0
41
1
10
6.31808571313326
20
1.24528292619868
30
0
41
1
10
5.52010471837784
20
1.42482566286907
30
0
41
1
10
5.25673493507247
20
1.46275972191788
30
0
41
1
10
4.90720617472354
20
1.48267033965954
30
0
41
1
10
4.82076771079957
20
1.48513191033626
30
0
41
1
10
4.73421393391234
20
1.48512065705128
30
0
0
SPLINE
5
BD
100
AcDbEntity
8
1
62
256
6
ByLayer
370
18
48
1
60
0
100
AcDbSpline
70
4
71
3
72
10
73
6
40
0
40
0
40
0
40
0
40
0.5
40
0.5
40
1
40
1
40
1
40
1
41
1
10
4.06288726274178
20
0.321503523286026
30
0
41
1
10
4.08745298596767
20
0.304164481987186
30
0
41
1
10
4.11763743412553
20
0.28545726979948
30
0
41
1
10
4.18199972183635
20
0.247816684896179
30
0
41
1
10
4.21636884923009
20
0.228728720626321
30
0
41
1
10
4.25066871112165
20
0.210082237681348
30
0
0
SPLINE
5
BE
100
AcDbEntity
8
1
62
256
6
ByLayer
370
18
48
1
60
0
100
AcDbSpline
70
4
71
3
72
18
73
14
40
0
40
0
40
0
40
0
40
0.25
40
0.25
40
0.5
40
0.5
40
0.625
40
0.625
40
0.75
40
0.75
40
0.875
40
0.875
40
1
40
1
40
1
40
1
41
1
10
29.4591770482101
20
0.495973142427857
30
0
41
1
10
29.4967576088767
20
0.506258730117821
30
0
41
1
10
29.5339210100002
20
0.517846018279812
30
0
41
1
10
29.6068574167069
20
0.54552420724815
30
0
41
1
10
29.642478227485
20
0.561476699542339
30
0
41
1
10
29.6925164476635
20
0.591397000888804
30
0
41
1
10
29.7084564547342
20
0.602292756069176
30
0
41
1
10
29.7382137674433
20
0.62678248522397
30
0
41
1
10
29.7521998793991
20
0.640568650353742
30
0
41
1
10
29.7758997567981
20
0.671269651283438
30
0
41
1
10
29.7857524572747
20
0.688464956457238
30
0
41
1
10
29.7989464303349
20
0.725176640341971
30
0
41
1
10
29.8023098471781
20
0.744774054382532
30
0
41
1
10
29.8023130768837
20
0.764572286446793
30
0
0
SPLINE
5
BF
100
AcDbEntity
8
1
62
256
6
ByLayer
370
13
48
1
60
0
100
AcDbSpline
70
4
71
3
72
8
73
4
40
0
40
0
40
0
40
0
40
1
40
1
40
1
40
1
41
1
10
4.06252643581431
20
-1.41462431386759
30
0
41
1
10
4.07990096555537
20
-1.39903970763996
30
0
41
1
10
4.10023755652685
20
-1.38544639796069
30
0
41
1
10
4.12397582370426
20
-1.37428242537311
30
0
0
SPLINE
5
C0
100
AcDbEntity
8
1
62
256
6
ByLayer
370
18
48
1
60
0
100
AcDbSpline
70
4
71
3
72
60
73
56
40
0
40
0
40
0
40
0
40
0.0172670497308949
40
0.0172670497308949
40
0.0544020325158548
40
0.0544020325158548
40
0.0915370153008145
40
0.0915370153008145
40
0.128671998085774
40
0.128671998085774
40
0.165806980870734
40
0.165806980870734
40
0.240076946440654
40
0.240076946440654
40
0.277211929225614
40
0.277211929225614
40
0.314346912010573
40
0.314346912010573
40
0.351481894795533
40
0.351481894795533
40
0.388616877580493
40
0.388616877580493
40
0.425751860365452
40
0.425751860365452
40
0.462886843150412
40
0.462886843150412
40
0.500021825935372
40
0.500021825935372
40
0.537156808720332
40
0.537156808720332
40
0.574291791505292
40
0.574291791505292
40
0.611426774290252
40
0.611426774290252
40
0.648561757075212
40
0.648561757075212
40
0.685696739860172
40
0.685696739860172
40
0.722831722645132
40
0.722831722645132
40
0.759966705430091
40
0.759966705430091
40
0.797101688215051
40
0.797101688215051
40
0.834236671000011
40
0.834236671000011
40
0.871371653784971
40
0.871371653784971
40
0.90850663656993
40
0.90850663656993
40
0.94564161935489
40
0.94564161935489
40
0.98277660213985
40
0.98277660213985
40
1
40
1
40
1
40
1
41
1
10
8.71831684056195
20
1.403032252445
30
0
41
1
10
8.77583595743266
20
1.40302403963324
30
0
41
1
10
8.83337845957709
20
1.40202775720286
30
0
41
1
10
9.01487309401307
20
1.3960241232775
30
0
41
1
10
9.13879063741396
20
1.38724878548675
30
0
41
1
10
9.38611360247532
20
1.35895551435834
30
0
41
1
10
9.50954264410726
20
1.33996683283775
30
0
41
1
10
9.75688870029072
20
1.2934080299577
30
0
41
1
10
9.88110519962942
20
1.26594965930181
30
0
41
1
10
10.1286639084158
20
1.20362816639539
30
0
41
1
10
10.2519998466939
20
1.16870171414124
30
0
41
1
10
10.6225205031558
20
1.04944708697695
30
0
41
1
10
10.8709679888751
20
0.952764558842574
30
0
41
1
10
11.241852123722
20
0.792833007252284
30
0
41
1
10
11.3655908172939
20
0.7375992299595
30
0
41
1
10
11.6133803942992
20
0.620783946351594
30
0
41
1
10
11.7373226464207
20
0.559267525314681
30
0
41
1
10
11.9846760104884
20
0.433832840019335
30
0
41
1
10
12.1084065980701
20
0.370079865828899
30
0
41
1
10
12.3558976917404
20
0.239543759063707
30
0
41
1
10
12.4799973641503
20
0.172534004292203
30
0
41
1
10
12.7273520734664
20
0.0389819464912762
30
0
41
1
10
12.8507130481608
20
-0.0275127785089069
30
0
41
1
10
13.0964215450428
20
-0.160269684187
30
0
41
1
10
13.2187244806197
20
-0.226270854926724
30
0
41
1
10
13.4636849569883
20
-0.355565291579296
30
0
41
1
10
13.5863321143013
20
-0.419235400019005
30
0
41
1
10
13.8315888327735
20
-0.544738291280737
30
0
41
1
10
13.9542855024063
20
-0.606117739380124
30
0
41
1
10
14.2012188566665
20
-0.723738611151703
30
0
41
1
10
14.3257615664754
20
-0.78013080519986
30
0
41
1
10
14.5737532050473
20
-0.887587477750401
30
0
41
1
10
14.697389030114
20
-0.938844968691967
30
0
41
1
10
14.9449223589487
20
-1.03582255198774
30
0
41
1
10
15.0689309503122
20
-1.08022256933066
30
0
41
1
10
15.3174544145712
20
-1.16113590569754
30
0
41
1
10
15.4412309861311
20
-1.19779425298444
30
0
41
1
10
15.6889254232579
20
-1.26394015178818
30
0
41
1
10
15.812853433735
20
-1.29229114426192
30
0
41
1
10
16.0609382474597
20
-1.33902981708951
30
0
41
1
10
16.185181449064
20
-1.35806884987517
30
0
41
1
10
16.4332773389206
20
-1.38714741432335
30
0
41
1
10
16.557334163634
20
-1.39724107596379
30
0
41
1
10
16.8051271231034
20
-1.40920831219643
30
0
41
1
10
16.9290910988084
20
-1.41020168080766
30
0
41
1
10
17.1776074247392
20
-1.40090621965442
30
0
41
1
10
17.301689881213
20
-1.39112603281421
30
0
41
1
10
17.5494896017268
20
-1.36219584630757
30
0
41
1
10
17.673282462775
20
-1.34273975109963
30
0
41
1
10
17.9215836316615
20
-1.29724269215788
30
0
41
1
10
18.0459616981525
20
-1.27049492992435
30
0
41
1
10
18.2935900875828
20
-1.20662677358459
30
0
41
1
10
18.4171624920608
20
-1.16986757788609
30
0
41
1
10
18.5985680742234
20
-1.11120883720963
30
0
41
1
10
18.6561428033743
20
-1.09187432989563
30
0
41
1
10
18.7137257661336
20
-1.07173919299899
30
0
0
SPLINE
5
C1
100
AcDbEntity
8
1
62
256
6
ByLayer
370
18
48
1
60
0
100
AcDbSpline
70
4
71
3
72
20
73
16
40
0
40
0
40
0
40
0
40
0.0519235415215136
40
0.0519235415215136
40
0.170433098831328
40
0.170433098831328
40
0.288942656141142
40
0.288942656141142
40
0.525961770760764
40
0.525961770760764
40
0.644471328070573
40
0.644471328070573
40
0.762980885380382
40
0.762980885380382
40
1
40
1
40
1
40
1
41
1
10
25.058577257631
20
1.41201073509834
30
0
41
1
10
25.1129518790269
20
1.41187448300036
30
0
41
1
10
25.1673411623237
20
1.41078799092355
30
0
41
1
10
25.3457488782502
20
1.40405577839533
30
0
41
1
10
25.4695283376557
20
1.39457431702337
30
0
41
1
10
25.7169456835373
20
1.36664201451663
30
0
41
1
10
25.8407711139477
20
1.34807769823075
30
0
41
1
10
26.2136604033053
20
1.27681394266125
30
0
41
1
10
26.4605159155847
20
1.21027519967996
30
0
41
1
10
26.8327645979418
20
1.09047477456929
30
0
41
1
10
26.9569881116061
20
1.04660380540119
30
0
41
1
10
27.204460364269
20
0.951064785793307
30
0
41
1
10
27.3281399853622
20
0.899784739831944
30
0
41
1
10
27.6998152220002
20
0.738032278988896
30
0
41
1
10
27.9478010326815
20
0.617845903288838
30
0
41
1
10
28.1954406782321
20
0.491998406406083
30
0
0
SPLINE
5
C2
100
AcDbEntity
8
1
62
256
6
ByLayer
370
18
48
1
60
0
100
AcDbSpline
70
4
71
3
72
10
73
6
40
0
40
0
40
0
40
0
40
0.5
40
0.5
40
1
40
1
40
1
40
1
41
1
10
4.11382276162448
20
-1.44123104849075
30
0
41
1
10
4.09923972442456
20
-1.43826939758685
30
0
41
1
10
4.0867958224043
20
-1.43464804114868
30
0
41
1
10
4.06835189521175
20
-1.42571625895371
30
0
41
1
10
4.06251938067985
20
-1.42044306127948
30
0
41
1
10
4.06252643581357
20
-1.41462431386762
30
0
0
SPLINE
5
C3
100
AcDbEntity
8
1
62
256
6
ByLayer
370
18
48
1
60
0
100
AcDbSpline
70
4
71
3
72
8
73
4
40
0
40
0
40
0
40
0
40
1
40
1
40
1
40
1
41
1
10
29.4930187933842
20
-1.41424000896887
30
0
41
1
10
29.4902544813797
20
-1.41473799619098
30
0
41
1
10
29.4875763188011
20
-1.41498728259
30
0
41
1
10
29.4849871668183
20
-1.4149861298965
30
0
0
SPLINE
5
C4
100
AcDbEntity
8
1
62
256
6
ByLayer
370
18
48
1
60
0
100
AcDbSpline
70
4
71
3
72
16
73
12
40
0
40
0
40
0
40
0
40
0.249999999999975
40
0.249999999999975
40
0.49999999999995
40
0.49999999999995
40
0.624999999999962
40
0.624999999999962
40
0.749999999999975
40
0.749999999999975
40
1
40
1
40
1
40
1
41
1
10
29.2723008438636
20
0.220059853033007
30
0
41
1
10
29.2749876474759
20
0.245087658488444
30
0
41
1
10
29.2809512078711
20
0.271090369535102
30
0
41
1
10
29.2980075325555
20
0.325759168284378
30
0
41
1
10
29.3088454472689
20
0.353805207467985
30
0
41
1
10
29.3294007661862
20
0.394669595935341
30
0
41
1
10
29.3368725951775
20
0.408418541931127
30
0
41
1
10
29.3549298582569
20
0.433708249949461
30
0
41
1
10
29.3656851141494
20
0.445147190009578
30
0
41
1
10
29.40119736578
20
0.474510689076737
30
0
41
1
10
29.4295723430842
20
0.487870501455831
30
0
41
1
10
29.4591770482101
20
0.495973142427857
30
0
0
SPLINE
5
C5
100
AcDbEntity
8
1
62
256
6
ByLayer
370
18
48
1
60
0
100
AcDbSpline
70
4
71
3
72
22
73
18
40
0
40
0
40
0
40
0
40
0.125
40
0.125
40
0.25
40
0.25
40
0.375
40
0.375
40
0.5
40
0.5
40
0.625
40
0.625
40
0.75
40
0.75
40
0.875
40
0.875
40
1
40
1
40
1
40
1
41
1
10
4.06252643581431
20
-1.41462431386756
30
0
41
1
10
4.0625602052655
20
-1.38677283545979
30
0
41
1
10
4.06258557774794
20
-1.35117096006525
30
0
41
1
10
4.06262503175574
20
-1.26461072286213
30
0
41
1
10
4.06263912367922
20
-1.21307442192949
30
0
41
1
10
4.06266047941509
20
-1.09824967382795
30
0
41
1
10
4.06266796163624
20
-1.03471842382263
30
0
41
1
10
4.06268186306858
20
-0.895308871959799
30
0
41
1
10
4.06268830116133
20
-0.81931815197882
30
0
41
1
10
4.06270381249249
20
-0.661080606021841
30
0
41
1
10
4.06271294124235
20
-0.578116801006644
30
0
41
1
10
4.06273653866481
20
-0.404287113564692
30
0
41
1
10
4.06275088209006
20
-0.314683619569934
30
0
41
1
10
4.06278424527619
20
-0.134402955477867
30
0
41
1
10
4.06280338997323
20
-0.0429203485479661
30
0
41
1
10
4.06284480756054
20
0.141794417895596
30
0
41
1
10
4.0628664739917
20
0.232461532596403
30
0
41
1
10
4.06288726274164
20
0.321503523286083
30
0
0
SPLINE
5
C6
100
AcDbEntity
8
1
62
256
6
ByLayer
370
18
48
1
60
0
100
AcDbSpline
70
4
71
3
72
24
73
20
40
0
40
0
40
0
40
0
40
0.25
40
0.25
40
0.375
40
0.375
40
0.5
40
0.5
40
0.625
40
0.625
40
0.6875
40
0.6875
40
0.75
40
0.75
40
0.875
40
0.875
40
0.9375
40
0.9375
40
1
40
1
40
1
40
1
41
1
10
28.1954406782321
20
0.491998406406083
30
0
41
1
10
28.2906191199834
20
0.423027741368287
30
0
41
1
10
28.3867066794743
20
0.359383354486084
30
0
41
1
10
28.5329089337952
20
0.276049712832503
30
0
41
1
10
28.5819773961057
20
0.250230861011147
30
0
41
1
10
28.6808806372446
20
0.203082801285717
30
0
41
1
10
28.7308880390302
20
0.181713891555376
30
0
41
1
10
28.8299290637584
20
0.144872598197708
30
0
41
1
10
28.8791471863056
20
0.129268214642991
30
0
41
1
10
28.9524659599571
20
0.110596642714285
30
0
41
1
10
28.9768213226665
20
0.105157235235112
30
0
41
1
10
29.0253527824302
20
0.0959479846130762
30
0
41
1
10
29.049652429369
20
0.0918039132718036
30
0
41
1
10
29.1211895677147
20
0.0848061961264079
30
0
41
1
10
29.1670557757418
20
0.0883900708091119
30
0
41
1
10
29.2225467268407
20
0.118326638185721
30
0
41
1
10
29.2386762417516
20
0.132835566581519
30
0
41
1
10
29.2621652618899
20
0.170744904666861
30
0
41
1
10
29.2695097919345
20
0.194060965579666
30
0
41
1
10
29.2723008438647
20
0.220059853032467
30
0
0
SPLINE
5
C7
100
AcDbEntity
8
1
62
256
6
ByLayer
370
18
48
1
60
0
100
AcDbSpline
70
4
71
3
72
16
73
12
40
0
40
0
40
0
40
0
40
0.125
40
0.125
40
0.25
40
0.25
40
0.5
40
0.5
40
0.75
40
0.75
40
1
40
1
40
1
40
1
41
1
10
28.1954406782318
20
0.491998406405912
30
0
41
1
10
28.2132465428387
20
0.424574803652064
30
0
41
1
10
28.2369942238047
20
0.357367701709307
30
0
41
1
10
28.2947599205495
20
0.223327716025096
30
0
41
1
10
28.3288661381405
20
0.156584325922552
30
0
41
1
10
28.4405314481446
20
-0.0358144213563776
30
0
41
1
10
28.5295220654557
20
-0.157705520854051
30
0
41
1
10
28.7189364591179
20
-0.380625890733427
30
0
41
1
10
28.8201032145905
20
-0.482971038517121
30
0
41
1
10
29.0323540728263
20
-0.67366703601121
30
0
41
1
10
29.14192714658
20
-0.760587785152438
30
0
41
1
10
29.253596578582
20
-0.839858895041914
30
0
0
SPLINE
5
C8
100
AcDbEntity
8
1
62
256
6
ByLayer
370
18
48
1
60
0
100
AcDbSpline
70
4
71
3
72
12
73
8
40
0
40
0
40
0
40
0
40
0.250000000000002
40
0.250000000000002
40
0.500000000000005
40
0.500000000000005
40
1
40
1
40
1
40
1
41
1
10
29.4834905452705
20
-1.49174301942659
30
0
41
1
10
29.4877434878935
20
-1.47981003300222
30
0
41
1
10
29.4915014462685
20
-1.46783188684236
30
0
41
1
10
29.4969614679021
20
-1.44661377293605
30
0
41
1
10
29.4985527055976
20
-1.4378341223771
30
0
41
1
10
29.5002637981092
20
-1.41806070034977
30
0
41
1
10
29.497553890825
20
-1.41342301704466
30
0
41
1
10
29.4930187933814
20
-1.41424000896939
30
0
0
SPLINE
5
C9
100
AcDbEntity
8
1
62
256
6
ByLayer
370
18
48
1
60
0
100
AcDbSpline
70
4
71
3
72
16
73
12
40
0
40
0
40
0
40
0
40
0.25
40
0.25
40
0.5
40
0.5
40
0.750000000000001
40
0.750000000000001
40
0.875
40
0.875
40
1
40
1
40
1
40
1
41
1
10
29.8023130768837
20
-0.764572286446793
30
0
41
1
10
29.7807371374756
20
-0.822766023246601
30
0
41
1
10
29.7591096019515
20
-0.880918816959394
30
0
41
1
10
29.7154837583294
20
-0.996930185073211
30
0
41
1
10
29.6933596447314
20
-1.05477500085036
30
0
41
1
10
29.6488505838438
20
-1.16979738909183
30
0
41
1
10
29.6265879201328
20
-1.22728064507018
30
0
41
1
10
29.592787199288
20
-1.31210840921787
30
0
41
1
10
29.5814420521899
20
-1.34011557212946
30
0
41
1
10
29.5586609240894
20
-1.39581787936194
30
0
41
1
10
29.5472524220287
20
-1.42360741509682
30
0
41
1
10
29.5357829730677
20
-1.45118759545866
30
0
0
SPLINE
5
CA
100
AcDbEntity
8
1
62
256
6
ByLayer
370
18
48
1
60
0
100
AcDbSpline
70
4
71
3
72
14
73
10
40
0
40
0
40
0
40
0
40
0.264392960020652
40
0.264392960020652
40
0.508304523617307
40
0.508304523617307
40
0.752216087213963
40
0.752216087213963
40
1
40
1
40
1
40
1
41
1
10
21.2593378315285
20
-1.41023863652197
30
0
41
1
10
21.117357033172
20
-1.41042113297169
30
0
41
1
10
20.9751500346663
20
-1.40427458106927
30
0
41
1
10
20.7005375543431
20
-1.3803179710838
30
0
41
1
10
20.5677341628714
20
-1.36335901531763
30
0
41
1
10
20.3038509604712
20
-1.31914156496765
30
0
41
1
10
20.1724957923401
20
-1.29183615629847
30
0
41
1
10
19.9083068937241
20
-1.22739460162586
30
0
41
1
10
19.7754218964815
20
-1.19005821863848
30
0
41
1
10
19.6424625308119
20
-1.14818386643489
30
0
0
SPLINE
5
CB
100
AcDbEntity
8
1
62
256
6
ByLayer
370
13
48
1
60
0
100
AcDbSpline
70
4
71
3
72
26
73
22
40
0
40
0
40
0
40
0
40
0.0776359459447864
40
0.0776359459447864
40
0.156524326801205
40
0.156524326801205
40
0.235412707657623
40
0.235412707657623
40
0.39318946937046
40
0.39318946937046
40
0.472077850226878
40
0.472077850226878
40
0.550966231083297
40
0.550966231083297
40
0.708742992796137
40
0.708742992796137
40
0.866519754508978
40
0.866519754508978
40
0.945408135365399
40
0.945408135365399
40
1
40
1
40
1
40
1
41
1
10
19.6424625308131
20
-1.14818386643529
30
0
41
1
10
19.5136589239741
20
-1.10761833296794
30
0
41
1
10
19.3847855249532
20
-1.06279407324038
30
0
41
1
10
19.1242249018841
20
-0.96442993989649
30
0
41
1
10
18.9924979641865
20
-0.91085542554103
30
0
41
1
10
18.7274477601067
20
-0.796485754976231
30
0
41
1
10
18.5955228819462
20
-0.736261957401467
30
0
41
1
10
18.2016356185328
20
-0.548364913814936
30
0
41
1
10
17.9407088331066
20
-0.413982842452214
30
0
41
1
10
17.5483453325703
20
-0.205083441362604
30
0
41
1
10
17.4173666716525
20
-0.134309470039142
30
0
41
1
10
17.1542415274961
20
0.0081443970239263
30
0
41
1
10
17.0216020006626
20
0.0800998031716063
30
0
41
1
10
16.624910133616
20
0.293734895482004
30
0
41
1
10
16.3632097265797
20
0.432429951313423
30
0
41
1
10
15.8395138766762
20
0.69235729984976
30
0
41
1
10
15.5774668262131
20
0.813436036663035
30
0
41
1
10
15.1806704386325
20
0.975942182028888
30
0
41
1
10
15.0480928690603
20
1.0265988590514
30
0
41
1
10
14.8243277854784
20
1.10465422030865
30
0
41
1
10
14.7328559904105
20
1.13453109980932
30
0
41
1
10
14.6413435691662
20
1.16232875931979
30
0
0
SPLINE
5
CC
100
AcDbEntity
8
1
62
256
6
ByLayer
370
13
48
1
60
0
100
AcDbSpline
70
4
71
3
72
10
73
6
40
0
40
0
40
0
40
0
40
0.418978418521082
40
0.418978418521082
40
1
40
1
40
1
40
1
41
1
10
4.93416491283435
20
-1.40040539150223
30
0
41
1
10
4.83896972527509
20
-1.40044241375273
30
0
41
1
10
4.74346212620029
20
-1.39766507010947
30
0
41
1
10
4.51523307705156
20
-1.3842362062328
30
0
41
1
10
4.38284278473742
20
-1.37100266428578
30
0
41
1
10
4.25035878176814
20
-1.35241121101373
30
0
0
SPLINE
5
CD
100
AcDbEntity
8
1
62
256
6
ByLayer
370
18
48
1
60
0
100
AcDbSpline
70
4
71
3
72
22
73
18
40
0
40
0
40
0
40
0
40
0.539234707759424
40
0.539234707759424
40
0.674908309469039
40
0.674908309469039
40
0.708826709896445
40
0.708826709896445
40
0.725785910110149
40
0.725785910110149
40
0.742745110323853
40
0.742745110323853
40
0.810581911178666
40
0.810581911178666
40
0.946255512888303
40
0.946255512888303
40
1
40
1
40
1
40
1
41
1
10
3.79316487710401
20
-1.48451758715055
30
0
41
1
10
3.48281700737323
20
-1.4836837210018
30
0
41
1
10
3.1681751699447
20
-1.47461004169153
30
0
41
1
10
2.76782795319812
20
-1.4645555022116
30
0
41
1
10
2.68699010599408
20
-1.46258202070072
30
0
41
1
10
2.58577037048809
20
-1.46031456113798
30
0
41
1
10
2.56551505504052
20
-1.45987086083429
30
0
41
1
10
2.53511490844482
20
-1.45922216158817
30
0
41
1
10
2.52503775029561
20
-1.45892170938379
30
0
41
1
10
2.50448585299421
20
-1.45890326582597
30
0
41
1
10
2.49416028480044
20
-1.45916952591745
30
0
41
1
10
2.44770425155502
20
-1.46300373085958
30
0
41
1
10
2.41104869748284
20
-1.46599764155889
30
0
41
1
10
2.30393308739025
20
-1.47439695617362
30
0
41
1
10
2.23624025933145
20
-1.47933373427148
30
0
41
1
10
2.15139378648541
20
-1.48293056057949
30
0
41
1
10
2.12852773518648
20
-1.48355159397627
30
0
41
1
10
2.10776038080428
20
-1.48354368094658
30
0
0
SPLINE
5
CE
100
AcDbEntity
8
1
62
256
6
ByLayer
370
18
48
1
60
0
100
AcDbSpline
70
4
71
3
72
8
73
4
40
0
40
0
40
0
40
0
40
1
40
1
40
1
40
1
41
1
10
4.250668711163
20
0.210082237658867
30
0
41
1
10
4.31124376002921
20
0.177151737263756
30
0
41
1
10
4.3719356933035
20
0.144330748387404
30
0
41
1
10
4.43279148752137
20
0.111708818258848
30
0
0
SPLINE
5
CF
100
AcDbEntity
8
1
62
256
6
ByLayer
370
13
48
1
60
0
100
AcDbSpline
70
4
71
3
72
22
73
18
40
0
40
0
40
0
40
0
40
0.125
40
0.125
40
0.25
40
0.25
40
0.375
40
0.375
40
0.5
40
0.5
40
0.625
40
0.625
40
0.75
40
0.75
40
0.875
40
0.875
40
1
40
1
40
1
40
1
41
1
10
4.2503587817686
20
-1.35241121101379
30
0
41
1
10
4.25038180400821
20
-1.33025557292788
30
0
41
1
10
4.25039862992824
20
-1.30079732725292
30
0
41
1
10
4.25042480875021
20
-1.22757936178363
30
0
41
1
10
4.25043413650826
20
-1.1835891391201
30
0
41
1
10
4.25044939946883
20
-1.08315920436419
30
0
41
1
10
4.25045542057504
20
-1.02645972231591
30
0
41
1
10
4.25046799607065
20
-0.903789975467134
30
0
41
1
10
4.25047459520215
20
-0.837448014899508
30
0
41
1
10
4.25049140594427
20
-0.694493099258608
30
0
41
1
10
4.25050155788679
20
-0.618738553186404
30
0
41
1
10
4.25052612064621
20
-0.462899069196396
30
0
41
1
10
4.25054059178797
20
-0.382236371000374
30
0
41
1
10
4.25057381316205
20
-0.215229163564601
30
0
41
1
10
4.25059235435646
20
-0.12999917831047
30
0
41
1
10
4.25063077943565
20
0.0412020547141481
30
0
41
1
10
4.25065047429626
20
0.126450998807655
30
0
41
1
10
4.25066871112165
20
0.210082237658213
30
0
0
SPLINE
5
D0
100
AcDbEntity
8
1
62
256
6
ByLayer
370
13
48
1
60
0
100
AcDbSpline
70
4
71
3
72
26
73
22
40
0
40
0
40
0
40
0
40
0.117068505865466
40
0.117068505865466
40
0.234137011730933
40
0.234137011730933
40
0.468274023461871
40
0.468274023461871
40
0.526808276394606
40
0.526808276394606
40
0.585342529327341
40
0.585342529327341
40
0.702411035192809
40
0.702411035192809
40
0.760945288125544
40
0.760945288125544
40
0.819479541058279
40
0.819479541058279
40
0.936548046923751
40
0.936548046923751
40
1
40
1
40
1
40
1
41
1
10
29.4930187933842
20
-1.41424000896887
30
0
41
1
10
29.2300611167924
20
-1.41885029820855
30
0
41
1
10
28.9690895270418
20
-1.40154122954397
30
0
41
1
10
28.4463550154093
20
-1.32532220272316
30
0
41
1
10
28.1843094776132
20
-1.26629230119889
30
0
41
1
10
27.3898121397762
20
-1.03119916276179
30
0
41
1
10
26.8739525791146
20
-0.804624783527942
30
0
41
1
10
26.2192478148505
20
-0.475620280925227
30
0
41
1
10
26.0878324711989
20
-0.407537118966189
30
0
41
1
10
25.8233440148782
20
-0.267872504393267
30
0
41
1
10
25.6910054999763
20
-0.196704748253126
30
0
41
1
10
25.296729132509
20
0.0171077057121067
30
0
41
1
10
25.0356277575296
20
0.160253834278876
30
0
41
1
10
24.6429089306652
20
0.369024302988805
30
0
41
1
10
24.5118032549562
20
0.437588893168311
30
0
41
1
10
24.2484500234516
20
0.571280026128477
30
0
41
1
10
24.1156914798254
20
0.636643721809151
30
0
41
1
10
23.7196459324275
20
0.823449390235254
30
0
41
1
10
23.458313518623
20
0.936093609410023
30
0
41
1
10
23.0547624328793
20
1.08535047360283
30
0
41
1
10
22.9128892985287
20
1.13320738361443
30
0
41
1
10
22.7705305618795
20
1.17590524123909
30
0
0
SPLINE
5
D1
100
AcDbEntity
8
1
62
256
6
ByLayer
370
18
48
1
60
0
100
AcDbSpline
70
4
71
3
72
14
73
10
40
0
40
0
40
0
40
0
40
0.0999115581426053
40
0.0999115581426053
40
0.354173371746061
40
0.354173371746061
40
0.608435185349515
40
0.608435185349515
40
1
40
1
40
1
40
1
41
1
10
13.0964680705241
20
-1.40521049414545
30
0
41
1
10
13.0448745462931
20
-1.40526068972247
30
0
41
1
10
12.9932281421708
20
-1.40447617355005
30
0
41
1
10
12.809888952229
20
-1.39870298630089
30
0
41
1
10
12.6772956489322
20
-1.38905736324756
30
0
41
1
10
12.4126583058748
20
-1.35909897981944
30
0
41
1
10
12.2810359739366
20
-1.33883630448347
30
0
41
1
10
11.9475942242062
20
-1.27486088543284
30
0
41
1
10
11.7462076284663
20
-1.2243459483602
30
0
41
1
10
11.5444161632323
20
-1.16307589743823
30
0
0
SPLINE
5
D2
100
AcDbEntity
8
1
62
256
6
ByLayer
370
13
48
1
60
0
100
AcDbSpline
70
4
71
3
72
28
73
24
40
0
40
0
40
0
40
0
40
0.0325475055121858
40
0.0325475055121858
40
0.103303933278149
40
0.103303933278149
40
0.174060361044113
40
0.174060361044113
40
0.315573216576042
40
0.315573216576042
40
0.386329644342009
40
0.386329644342009
40
0.457086072107975
40
0.457086072107975
40
0.740111783171843
40
0.740111783171843
40
0.810868210937808
40
0.810868210937808
40
0.881624638703774
40
0.881624638703774
40
0.952381066469739
40
0.952381066469739
40
1
40
1
40
1
40
1
41
1
10
11.5444161633974
20
-1.16307589748831
30
0
41
1
10
11.4841418759837
20
-1.14477478324403
30
0
41
1
10
11.4238314664164
20
-1.12551410577837
30
0
41
1
10
11.2321948499657
20
-1.06141838496478
30
0
41
1
10
11.1005971864267
20
-1.01321199819847
30
0
41
1
10
10.8360582131055
20
-0.908889520459581
30
0
41
1
10
10.7033802543822
20
-0.852856406522619
30
0
41
1
10
10.3082548904653
20
-0.676840774235188
30
0
41
1
10
10.0469881560318
20
-0.547853123921982
30
0
41
1
10
9.65389293489378
20
-0.344747353858395
30
0
41
1
10
9.52265191327623
20
-0.275467912595872
30
0
41
1
10
9.25916422345713
20
-0.134770427137283
30
0
41
1
10
9.12644316608814
20
-0.0630544615771385
30
0
41
1
10
8.46516624363645
20
0.294232657089822
30
0
41
1
10
7.94672453360536
20
0.573230837203482
30
0
41
1
10
7.28483320302692
20
0.865188563037378
30
0
41
1
10
7.15209055635751
20
0.92048631592624
30
0
41
1
10
6.88752665003975
20
1.02319654115991
30
0
41
1
10
6.75535758654391
20
1.07069902992996
30
0
41
1
10
6.49057415340823
20
1.15728025204371
30
0
41
1
10
6.35782193476896
20
1.19636155603109
30
0
41
1
10
6.13719024115275
20
1.25330330614921
30
0
41
1
10
6.04866414114957
20
1.27397498834532
30
0
41
1
10
5.96027000185444
20
1.29235159723012
30
0
0
SPLINE
5
D3
100
AcDbEntity
8
1
62
256
6
ByLayer
370
18
48
1
60
0
100
AcDbSpline
70
4
71
3
72
52
73
48
40
0
40
0
40
0
40
0
40
0.0624999999999917
40
0.0624999999999917
40
0.124999999999983
40
0.124999999999983
40
0.249999999999967
40
0.249999999999967
40
0.312499999999959
40
0.312499999999959
40
0.37499999999995
40
0.37499999999995
40
0.499999999999934
40
0.499999999999934
40
0.531249999999928
40
0.531249999999928
40
0.539062499999926
40
0.539062499999926
40
0.542968749999927
40
0.542968749999927
40
0.546874999999927
40
0.546874999999927
40
0.562499999999928
40
0.562499999999928
40
0.593749999999933
40
0.593749999999933
40
0.609374999999935
40
0.609374999999935
40
0.624999999999937
40
0.624999999999937
40
0.64062499999994
40
0.64062499999994
40
0.656249999999942
40
0.656249999999942
40
0.671874999999945
40
0.671874999999945
40
0.687499999999947
40
0.687499999999947
40
0.718749999999952
40
0.718749999999952
40
0.749999999999956
40
0.749999999999956
40
0.812499999999968
40
0.812499999999968
40
0.874999999999979
40
0.874999999999979
40
1
40
1
40
1
40
1
41
1
10
6.45703731447708
20
1.03699838230409
30
0
41
1
10
6.31554941169935
20
1.09513359552
30
0
41
1
10
6.17238534127048
20
1.14716707442651
30
0
41
1
10
5.88479395457165
20
1.23894022543078
30
0
41
1
10
5.74074474289969
20
1.27857262881855
30
0
41
1
10
5.30657102321203
20
1.38016284914031
30
0
41
1
10
5.01438525602066
20
1.4245297457548
30
0
41
1
10
4.56663800872349
20
1.46392970875257
30
0
41
1
10
4.41581471779784
20
1.4725979687876
30
0
41
1
10
4.11031693448825
20
1.4830804857059
30
0
41
1
10
3.95527968431401
20
1.48489882775843
30
0
41
1
10
3.48685424035259
20
1.48380019624307
30
0
41
1
10
3.17022742038995
20
1.47466158303425
30
0
41
1
10
2.7678279531672
20
1.46455550221086
30
0
41
1
10
2.68699010596251
20
1.46258202069998
30
0
41
1
10
2.58577037045566
20
1.46031456113727
30
0
41
1
10
2.56551505500789
20
1.4598708608336
30
0
41
1
10
2.53511490841194
20
1.45922216158749
30
0
41
1
10
2.52503775026264
20
1.45892170938316
30
0
41
1
10
2.50448585296022
20
1.45890326582656
30
0
41
1
10
2.49416028476986
20
1.45916952591998
30
0
41
1
10
2.4477042515253
20
1.463003730862
30
0
41
1
10
2.41104869745379
20
1.46599764156122
30
0
41
1
10
2.30393308736404
20
1.47439695617555
30
0
41
1
10
2.23624025930735
20
1.47933373427301
30
0
41
1
10
2.14508138450401
20
1.48319815701254
30
0
41
1
10
2.11661938804676
20
1.48384980774955
30
0
41
1
10
2.06712687206192
20
1.4829573776662
30
0
41
1
10
2.04568362910288
20
1.48136455000918
30
0
41
1
10
2.01460294286298
20
1.47498402901584
30
0
41
1
10
2.00460041620153
20
1.47011027356976
30
0
41
1
10
1.99795071296174
20
1.45665453407813
30
0
41
1
10
2.00120891441677
20
1.4482426435838
30
0
41
1
10
2.01851984956662
20
1.42849898980788
30
0
41
1
10
2.03215372246746
20
1.41752650122629
30
0
41
1
10
2.06628829194318
20
1.39376316312436
30
0
41
1
10
2.08688946200499
20
1.38094545983543
30
0
41
1
10
2.15411615923273
20
1.34140901046413
30
0
41
1
10
2.2067556655208
20
1.31310418110084
30
0
41
1
10
2.3198650306696
20
1.25370677232641
30
0
41
1
10
2.37947863242317
20
1.22312200959865
30
0
41
1
10
2.56377920650027
20
1.12881512156161
30
0
41
1
10
2.69429353339621
20
1.0623044826888
30
0
41
1
10
2.96104007769662
20
0.923839309511123
30
0
41
1
10
3.09609938463299
20
0.852590327216404
30
0
41
1
10
3.5045394226934
20
0.633174642956391
30
0
41
1
10
3.78096123508763
20
0.479004771990475
30
0
41
1
10
4.06288726237938
20
0.321503523488502
30
0
0
SPLINE
5
D4
100
AcDbEntity
8
1
62
256
6
ByLayer
370
18
48
1
60
0
100
AcDbSpline
70
4
71
3
72
38
73
34
40
0
40
0
40
0
40
0
40
0.059273387308196
40
0.059273387308196
40
0.118546774616392
40
0.118546774616392
40
0.237093549232786
40
0.237093549232786
40
0.296366936540983
40
0.296366936540983
40
0.355640323849178
40
0.355640323849178
40
0.414913711157374
40
0.414913711157374
40
0.47418709846557
40
0.47418709846557
40
0.533460485773766
40
0.533460485773766
40
0.592733873081962
40
0.592733873081962
40
0.652007260390158
40
0.652007260390158
40
0.711280647698354
40
0.711280647698354
40
0.77055403500655
40
0.77055403500655
40
0.829827422314746
40
0.829827422314746
40
0.889100809622942
40
0.889100809622942
40
0.948374196931138
40
0.948374196931138
40
1
40
1
40
1
40
1
41
1
10
6.45848020762077
20
1.03640528393865
30
0
41
1
10
6.57887091529136
20
0.986282407193556
30
0
41
1
10
6.69933993048343
20
0.933861109810891
30
0
41
1
10
6.93972970813815
20
0.823791847065934
30
0
41
1
10
7.05945377913963
20
0.765834081158033
30
0
41
1
10
7.41796397097824
20
0.584159284179634
30
0
41
1
10
7.65814404827839
20
0.456031389023195
30
0
41
1
10
8.01991569349914
20
0.252498577433585
30
0
41
1
10
8.14031855064377
20
0.184084896300504
30
0
41
1
10
8.38075569994425
20
0.0478400569101893
30
0
41
1
10
8.50052523972073
20
-0.0207458910837488
30
0
41
1
10
8.73950397787428
20
-0.158229586083479
30
0
41
1
10
8.85908247086849
20
-0.226473194196501
30
0
41
1
10
9.09930563330107
20
-0.360419254813763
30
0
41
1
10
9.21956726246512
20
-0.426794040539164
30
0
41
1
10
9.46059488010559
20
-0.557956320082525
30
0
41
1
10
9.58118773242711
20
-0.621805674242069
30
0
41
1
10
9.82248096408784
20
-0.743837010587015
30
0
41
1
10
9.94297174283926
20
-0.802742908710286
30
0
41
1
10
10.1836866287697
20
-0.916113373207281
30
0
41
1
10
10.3044610598698
20
-0.970105274881661
30
0
41
1
10
10.5459777516619
20
-1.07030052002395
30
0
41
1
10
10.6664975694775
20
-1.11711053694793
30
0
41
1
10
10.906979270134
20
-1.20406369845213
30
0
41
1
10
11.0273657744082
20
-1.24380378658231
30
0
41
1
10
11.269292040565
20
-1.31444535922265
30
0
41
1
10
11.3899398632586
20
-1.34558587663165
30
0
41
1
10
11.6304009111706
20
-1.39950109644096
30
0
41
1
10
11.7505421658247
20
-1.42198968851184
30
0
41
1
10
11.9921082764138
20
-1.45739236945144
30
0
41
1
10
12.1132139576243
20
-1.47050348613044
30
0
41
1
10
12.3374904402661
20
-1.48614672450824
30
0
41
1
10
12.4414418102244
20
-1.48976329811521
30
0
41
1
10
12.5454595713075
20
-1.48980412606761
30
0
0
SPLINE
5
D5
100
AcDbEntity
8
1
62
256
6
ByLayer
370
18
48
1
60
0
100
AcDbSpline
70
4
71
3
72
66
73
62
40
0
40
0
40
0
40
0
40
0.0010999587150992
40
0.0010999587150992
40
0.0365835456724566
40
0.0365835456724566
40
0.0720671326298139
40
0.0720671326298139
40
0.107550719587171
40
0.107550719587171
40
0.143034306544528
40
0.143034306544528
40
0.178517893501886
40
0.178517893501886
40
0.214001480459243
40
0.214001480459243
40
0.2494850674166
40
0.2494850674166
40
0.284968654373957
40
0.284968654373957
40
0.320452241331315
40
0.320452241331315
40
0.355935828288672
40
0.355935828288672
40
0.391419415246029
40
0.391419415246029
40
0.426903002203387
40
0.426903002203387
40
0.462386589160744
40
0.462386589160744
40
0.497870176118101
40
0.497870176118101
40
0.533353763075458
40
0.533353763075458
40
0.568837350032816
40
0.568837350032816
40
0.604320936990173
40
0.604320936990173
40
0.63980452394753
40
0.63980452394753
40
0.675288110904887
40
0.675288110904887
40
0.710771697862245
40
0.710771697862245
40
0.746255284819602
40
0.746255284819602
40
0.781738871776959
40
0.781738871776959
40
0.817222458734316
40
0.817222458734316
40
0.852706045691674
40
0.852706045691674
40
0.888189632649031
40
0.888189632649031
40
0.923673219606388
40
0.923673219606388
40
0.959156806563745
40
0.959156806563745
40
0.994640393521103
40
0.994640393521103
40
1
40
1
40
1
40
1
41
1
10
18.7044235144097
20
1.07072587184857
30
0
41
1
10
18.7081567067223
20
1.07222041541152
30
0
41
1
10
18.7118896619055
20
1.07371212872877
30
0
41
1
10
18.8360356981173
20
1.12323158149647
30
0
41
1
10
18.9562854748064
20
1.16838105592694
30
0
41
1
10
19.1975226218216
20
1.25003723157226
30
0
41
1
10
19.3182733051489
20
1.28644833797728
30
0
41
1
10
19.5590591178841
20
1.35147346791146
30
0
41
1
10
19.6789947117633
20
1.38005897168509
30
0
41
1
10
19.9200455202093
20
1.42774857429174
30
0
41
1
10
20.0411718116426
20
1.44684172055432
30
0
41
1
10
20.2821015281181
20
1.47587758059729
30
0
41
1
10
20.4019916536245
20
1.48579599272813
30
0
41
1
10
20.64264934085
20
1.49581493988316
30
0
41
1
10
20.7638165084578
20
1.49599702804178
30
0
41
1
10
21.0050628466487
20
1.48679724285944
30
0
41
1
10
21.1249911777035
20
1.47730422401469
30
0
41
1
10
21.3654309420492
20
1.44891316831337
30
0
41
1
10
21.4861483657971
20
1.43020127585419
30
0
41
1
10
21.7277366065498
20
1.38340236539699
30
0
41
1
10
21.8478868500933
20
1.35519428365293
30
0
41
1
10
22.0883107216221
20
1.29053639700047
30
0
41
1
10
22.2088997153265
20
1.25435981890808
30
0
41
1
10
22.4500636525472
20
1.17372233607685
30
0
41
1
10
22.5705653319426
20
1.12887899366009
30
0
41
1
10
22.8111488274198
20
1.03279829367958
30
0
41
1
10
22.9316984817785
20
0.981900034089733
30
0
41
1
10
23.172633042903
20
0.8736505085744
30
0
41
1
10
23.2930166716098
20
0.815780601817977
30
0
41
1
10
23.5337421282136
20
0.695624903408486
30
0
41
1
10
23.6538696213208
20
0.634094299733107
30
0
41
1
10
23.8931399229886
20
0.507385376930841
30
0
41
1
10
24.0120200195341
20
0.441751791924446
30
0
41
1
10
24.2497866522405
20
0.30846051815476
30
0
41
1
10
24.3689849803654
20
0.241353889974249
30
0
41
1
10
24.6076190595025
20
0.105579572767027
30
0
41
1
10
24.7267662289359
20
0.0363875723567162
30
0
41
1
10
24.966064744349
20
-0.102286064581847
30
0
41
1
10
25.0868806203094
20
-0.171331958912191
30
0
41
1
10
25.3282501966261
20
-0.307843173088088
30
0
41
1
10
25.4483128929577
20
-0.375784166209826
30
0
41
1
10
25.6884236603031
20
-0.50888428493792
30
0
41
1
10
25.8088416443687
20
-0.573441902911554
30
0
41
1
10
26.0503307238628
20
-0.698745912779771
30
0
41
1
10
26.1707495003289
20
-0.759859270598668
30
0
41
1
10
26.4109198897816
20
-0.876668979117284
30
0
41
1
10
26.5312178766128
20
-0.931922227538081
30
0
41
1
10
26.7723133616185
20
-1.03617295005719
30
0
41
1
10
26.8929587578838
20
-1.08569856633554
30
0
41
1
10
27.1333535621113
20
-1.17731017436088
30
0
41
1
10
27.2536169832908
20
-1.21903910785625
30
0
41
1
10
27.4945094200002
20
-1.29436242047049
30
0
41
1
10
27.6148283543357
20
-1.32830922296748
30
0
41
1
10
27.855641041785
20
-1.38764384693525
30
0
41
1
10
27.975960178468
20
-1.41262114699191
30
0
41
1
10
28.216820271641
20
-1.45331349953523
30
0
41
1
10
28.3369755042507
20
-1.46921408629049
30
0
41
1
10
28.5774196008272
20
-1.49151859195524
30
0
41
1
10
28.6981106522375
20
-1.49778553036543
30
0
41
1
10
28.8364514955315
20
-1.49948173745474
30
0
41
1
10
28.8545892515865
20
-1.49959391236035
30
0
41
1
10
28.8727131581892
20
-1.49959617850871
30
0
0
SPLINE
5
D6
100
AcDbEntity
8
1
62
256
6
ByLayer
370
18
48
1
60
0
100
AcDbSpline
70
4
71
3
72
62
73
58
40
0
40
0
40
0
40
0
40
0.0656574628699684
40
0.0656574628699684
40
0.155241059027607
40
0.155241059027607
40
0.244824655185246
40
0.244824655185246
40
0.334408251342885
40
0.334408251342885
40
0.379200049421705
40
0.379200049421705
40
0.423991847500524
40
0.423991847500524
40
0.468783645579344
40
0.468783645579344
40
0.479981595099049
40
0.479981595099049
40
0.485580569858901
40
0.486980313548865
40
0.487680185393846
40
0.487680185393846
40
0.488030121316337
40
0.488030121316337
40
0.488380057238827
40
0.488380057238827
40
0.491179544618754
40
0.491179544618754
40
0.513575443658164
40
0.513575443658164
40
0.603159039815806
40
0.603159039815806
40
0.692742635973447
40
0.692742635973447
40
0.737534434052268
40
0.737534434052268
40
0.759930333091678
40
0.759930333091678
40
0.771128282611384
40
0.771128282611384
40
0.77392776999131
40
0.77392776999131
40
0.775327513681273
40
0.775327513681273
40
0.776027385526255
40
0.776027385526255
40
0.776377321448746
40
0.776377321448746
40
0.776727257371236
40
0.78232623213109
40
0.82711803020992
40
0.82711803020992
40
0.87190982828875
40
0.87190982828875
40
0.961493424446409
40
0.961493424446409
40
1
40
1
40
1
40
1
41
1
10
6.45704118349346
20
1.03700411635373
30
0
41
1
10
6.36351798872761
20
1.05092189042014
30
0
41
1
10
6.26959870215592
20
1.06066096543555
30
0
41
1
10
6.04830631594646
20
1.0709294887171
30
0
41
1
10
5.92103215812108
20
1.06684318487242
30
0
41
1
10
5.66510796922861
20
1.03437466799522
30
0
41
1
10
5.53557430379948
20
1.00542746211096
30
0
41
1
10
5.28183635579927
20
0.9259391115867
30
0
41
1
10
5.15646871370714
20
0.875487862537483
30
0
41
1
10
4.96744261288336
20
0.788334711716288
30
0
41
1
10
4.9042686279609
20
0.757385465089612
30
0
41
1
10
4.77703492832111
20
0.692573249096455
30
0
41
1
10
4.71289555195642
20
0.658661980318527
30
0
41
1
10
4.58523550495136
20
0.589990532855865
30
0
41
1
10
4.5214611390943
20
0.555104039575156
30
0
41
1
10
4.44148453212273
20
0.511409213591861
30
0
41
1
10
4.42547561925804
20
0.502665354754356
30
0
41
1
10
4.40143931023258
20
0.489554978126222
30
0
41
1
10
4.39142360027137
20
0.4840957370117
30
0
41
1
10
4.3804050871521
20
0.478097025375377
30
0
41
1
10
4.37739995550959
20
0.476461591369827
30
0
41
1
10
4.3758973749818
20
0.475643973610033
30
0
41
1
10
4.37531632138172
20
0.475259857993507
30
0
41
1
10
4.37585471874962
20
0.474311018020842
30
0
41
1
10
4.37625033929058
20
0.473932928711975
30
0
41
1
10
4.37978813822502
20
0.47055391832933
30
0
41
1
10
4.38353219060377
20
0.468216048521072
30
0
41
1
10
4.41624290149306
20
0.446312784692111
30
0
41
1
10
4.44692269926296
20
0.429071598052445
30
0
41
1
10
4.5988282255561
20
0.34107879682449
30
0
41
1
10
4.72195812497009
20
0.273336061042272
30
0
41
1
10
4.96773919609478
20
0.137850619633212
30
0
41
1
10
5.09082820060041
20
0.0707821796523831
30
0
41
1
10
5.27504713445535
20
-0.029768333569308
30
0
41
1
10
5.33638603222255
20
-0.0632796214994187
30
0
41
1
10
5.42802840075899
20
-0.113711338792257
30
0
41
1
10
5.45852711382514
20
-0.130540355346284
30
0
41
1
10
5.50395926434948
20
-0.1559770946632
30
0
41
1
10
5.51908207408988
20
-0.164469051062611
30
0
41
1
10
5.53764267963612
20
-0.17529244061302
30
0
41
1
10
5.5413381259454
20
-0.177467763835466
30
0
41
1
10
5.54677934525878
20
-0.180786762000054
30
0
41
1
10
5.54858066397958
20
-0.181900330533466
30
0
41
1
10
5.55118256455944
20
-0.183618568675001
30
0
41
1
10
5.55204914825316
20
-0.184196292671743
30
0
41
1
10
5.55318259945798
20
-0.18511236163306
30
0
41
1
10
5.55377539754824
20
-0.185599920152867
30
0
41
1
10
5.55287211514659
20
-0.185730126114862
30
0
41
1
10
5.54519416282301
20
-0.186832690382857
30
0
41
1
10
5.4796917838803
20
-0.195632071977343
30
0
41
1
10
5.4146331533174
20
-0.199196710499933
30
0
41
1
10
5.29875122498444
20
-0.197103169939453
30
0
41
1
10
5.24030835565648
20
-0.19180073694983
30
0
41
1
10
5.0647792498967
20
-0.163448695547601
30
0
41
1
10
4.94791524752409
20
-0.12813717299278
30
0
41
1
10
4.77476964583101
20
-0.0582971429516874
30
0
41
1
10
4.72173059123125
20
-0.0346952675505179
30
0
41
1
10
4.6686966346258
20
-0.0094583097489362
30
0
0
SPLINE
5
D7
100
AcDbEntity
8
1
62
256
6
ByLayer
370
18
48
1
60
0
100
AcDbSpline
70
4
71
3
72
8
73
4
40
0
40
0
40
0
40
0
40
1
40
1
40
1
40
1
41
1
10
29.4834905452706
20
1.49174301942546
30
0
41
1
10
29.3922266180431
20
1.49722211618473
30
0
41
1
10
29.3008051464743
20
1.49987505622749
30
0
41
1
10
29.2094044499543
20
1.49974987559969
30
0
0
SPLINE
5
D8
100
AcDbEntity
8
1
62
256
6
ByLayer
370
18
48
1
60
0
100
AcDbSpline
70
4
71
3
72
38
73
34
40
0
40
0
40
0
40
0
40
0.0323460936167772
40
0.0323460936167772
40
0.120242718155408
40
0.120242718155408
40
0.164191030424724
40
0.164191030424724
40
0.20813934269404
40
0.20813934269404
40
0.296035967232671
40
0.296035967232671
40
0.383932591771302
40
0.383932591771302
40
0.559725840848565
40
0.559725840848565
40
0.603674153117882
40
0.603674153117882
40
0.647622465387198
40
0.647622465387198
40
0.735519089925832
40
0.735519089925832
40
0.77946740219515
40
0.77946740219515
40
0.823415714464468
40
0.823415714464468
40
0.911312339003104
40
0.911312339003104
40
0.955260651272421
40
0.955260651272421
40
0.999208963541738
40
0.999208963541738
40
1
40
1
40
1
40
1
41
1
10
21.8767451828307
20
-1.42058327672328
30
0
41
1
10
21.7793221905387
20
-1.4380528778573
30
0
41
1
10
21.6822830476018
20
-1.45244455574453
30
0
41
1
10
21.3223935347286
20
-1.49448995723398
30
0
41
1
10
21.061097949665
20
-1.5025267520079
30
0
41
1
10
20.667511137629
20
-1.48026089943326
30
0
41
1
10
20.5359997483424
20
-1.46712323829911
30
0
41
1
10
20.2715903411939
20
-1.42943348457092
30
0
41
1
10
20.1383705778442
20
-1.40476737540314
30
0
41
1
10
19.7422246007621
20
-1.31524791450636
30
0
41
1
10
19.4805051467568
20
-1.23496090054243
30
0
41
1
10
18.9564444901157
20
-1.03906713998279
30
0
41
1
10
18.6934061998137
20
-0.923675894937702
30
0
41
1
10
17.8967738342465
20
-0.535132962363463
30
0
41
1
10
17.3784191866251
20
-0.233558236034355
30
0
41
1
10
16.7171124003772
20
0.145877487717939
30
0
41
1
10
16.583918303905
20
0.2221186128738
30
0
41
1
10
16.3197986647282
20
0.370963218247823
30
0
41
1
10
16.1883309073345
20
0.443806839961581
30
0
41
1
10
15.7946015339251
20
0.655875588627509
30
0
41
1
10
15.5329818089287
20
0.788614082834528
30
0
41
1
10
15.1380440101387
20
0.968603975966687
30
0
41
1
10
15.0056646204127
20
1.02532812131855
30
0
41
1
10
14.7399361360938
20
1.13052800394195
30
0
41
1
10
14.6079100094396
20
1.17860355785197
30
0
41
1
10
14.2133307370932
20
1.30844041440858
30
0
41
1
10
13.951711529825
20
1.3752975384088
30
0
41
1
10
13.5577955197668
20
1.44346046417311
30
0
41
1
10
13.4261488499832
20
1.46076039872997
30
0
41
1
10
13.1615155067594
20
1.48403336645779
30
0
41
1
10
13.0282472678986
20
1.48995693814163
30
0
41
1
10
12.8937789042358
20
1.49001488072739
30
0
41
1
10
12.891401549889
20
1.49001403421454
30
0
41
1
10
12.8890243746095
20
1.49001131759283
30
0
0
SPLINE
5
D9
100
AcDbEntity
8
1
62
256
6
ByLayer
370
18
48
1
60
0
100
AcDbSpline
70
4
71
3
72
8
73
4
40
0
40
0
40
0
40
0
40
1
40
1
40
1
40
1
41
1
10
5.49826795219852
20
-1.42125312222046
30
0
41
1
10
5.06624342924599
20
-1.49281029771569
30
0
41
1
10
4.63845502648036
20
-1.50480788165731
30
0
41
1
10
4.20107547533266
20
-1.45395413159923
30
0
0
SPLINE
5
DA
100
AcDbEntity
8
1
62
256
6
ByLayer
370
18
48
1
60
0
100
AcDbSpline
70
4
71
3
72
8
73
4
40
0
40
0
40
0
40
0
40
1
40
1
40
1
40
1
41
1
10
4.20107547533254
20
-1.4539541315992
30
0
41
1
10
4.1708116616914
20
-1.45043538361324
30
0
41
1
10
4.14060977142086
20
-1.44667118902464
30
0
41
1
10
4.11382276162277
20
-1.44123104849041
30
0
0
SPLINE
5
DB
100
AcDbEntity
8
1
62
256
6
ByLayer
370
18
48
1
60
0
100
AcDbSpline
70
4
71
3
72
60
73
56
40
0
40
0
40
0
40
0
40
0.0160094633283473
40
0.0160094633283473
40
0.0902840940986683
40
0.0902840940986683
40
0.127421409483829
40
0.127421409483829
40
0.164558724868989
40
0.164558724868989
40
0.20169604025415
40
0.20169604025415
40
0.23883335563931
40
0.23883335563931
40
0.275970671024471
40
0.275970671024471
40
0.313107986409631
40
0.313107986409631
40
0.350245301794792
40
0.350245301794792
40
0.387382617179952
40
0.387382617179952
40
0.424519932565112
40
0.424519932565112
40
0.461657247950273
40
0.461657247950273
40
0.498794563335433
40
0.498794563335433
40
0.535931878720594
40
0.535931878720594
40
0.573069194105754
40
0.573069194105754
40
0.610206509490915
40
0.610206509490915
40
0.647343824876075
40
0.647343824876075
40
0.684481140261236
40
0.684481140261236
40
0.721618455646396
40
0.721618455646396
40
0.758755771031557
40
0.758755771031557
40
0.795893086416717
40
0.795893086416717
40
0.833030401801877
40
0.833030401801877
40
0.870167717187038
40
0.870167717187038
40
0.907305032572198
40
0.907305032572198
40
0.944442347957359
40
0.944442347957359
40
0.981579663342519
40
0.981579663342519
40
1
40
1
40
1
40
1
41
1
10
26.8693007207208
20
-1.07652998327708
30
0
41
1
10
26.815809645387
20
-1.09520578804594
30
0
41
1
10
26.7622970863719
20
-1.11315211982264
30
0
41
1
10
26.4606938981943
20
-1.21022322037436
30
0
41
1
10
26.2137696030844
20
-1.27678572056683
30
0
41
1
10
25.8409278385541
20
-1.34805141942783
30
0
41
1
10
25.7171670012931
20
-1.36661123772629
30
0
41
1
10
25.4697821226038
20
-1.39455144574941
30
0
41
1
10
25.3460041816616
20
-1.40403986505723
30
0
41
1
10
25.0978653621376
20
-1.41341592652262
30
0
41
1
10
24.9736652597101
20
-1.41307870553885
30
0
41
1
10
24.7260670825762
20
-1.40270018291895
30
0
41
1
10
24.6022615662457
20
-1.39300477161419
30
0
41
1
10
24.3543481821692
20
-1.36486926457258
30
0
41
1
10
24.2302022839032
20
-1.34609539734859
30
0
41
1
10
23.9823249842052
20
-1.29874020518173
30
0
41
1
10
23.8585724683418
20
-1.27008003716992
30
0
41
1
10
23.6108808918379
20
-1.20386110733713
30
0
41
1
10
23.4871347735603
20
-1.16759416833409
30
0
41
1
10
23.2391144509589
20
-1.08710129087748
30
0
41
1
10
23.1150981364395
20
-1.04281759082775
30
0
41
1
10
22.8675086273286
20
-0.946811795853193
30
0
41
1
10
22.7439301707186
20
-0.895786174651619
30
0
41
1
10
22.4963773522021
20
-0.787968414959494
30
0
41
1
10
22.3720749090285
20
-0.73112587345193
30
0
41
1
10
22.1242892094581
20
-0.61258369726491
30
0
41
1
10
22.0007454565496
20
-0.550908377063195
30
0
41
1
10
21.7533786153564
20
-0.424813233080044
30
0
41
1
10
21.6293269729979
20
-0.360354478088823
30
0
41
1
10
21.3811255588247
20
-0.228738358744209
30
0
41
1
10
21.2575244062117
20
-0.1617497536092
30
0
41
1
10
21.0102095418061
20
-0.0274649231935769
30
0
41
1
10
20.8863686068685
20
0.0396158872977992
30
0
41
1
10
20.6383291277589
20
0.173535219917028
30
0
41
1
10
20.5143667143986
20
0.240660906966184
30
0
41
1
10
20.2670560146951
20
0.371919840688946
30
0
41
1
10
20.1433397943477
20
0.435871688204088
30
0
41
1
10
19.8957079968413
20
0.561253282590371
30
0
41
1
10
19.7715941989686
20
0.623058274643427
30
0
41
1
10
19.5245329177818
20
0.740589275254337
30
0
41
1
10
19.401526301683
20
0.795788891190199
30
0
41
1
10
19.1560046660898
20
0.901815169389408
30
0
41
1
10
19.0337172647968
20
0.952464081873728
30
0
41
1
10
18.7890519198532
20
1.04626121656378
30
0
41
1
10
18.6665603546238
20
1.08917491832631
30
0
41
1
10
18.4212691686496
20
1.1685867071082
30
0
41
1
10
18.2986085302427
20
1.20518888602862
30
0
41
1
10
18.0519356471776
20
1.26909140628845
30
0
41
1
10
17.9275336886546
20
1.29603678767998
30
0
41
1
10
17.679679959091
20
1.34167756588371
30
0
41
1
10
17.5560714792898
20
1.3612514217503
30
0
41
1
10
17.308547726771
20
1.39049208627822
30
0
41
1
10
17.1844688413946
20
1.40044808642048
30
0
41
1
10
16.998750464634
20
1.40768785108048
30
0
41
1
10
16.9373257899818
20
1.40871418453219
30
0
41
1
10
16.8759587468257
20
1.40843265008925
30
0
0
SPLINE
5
DC
100
AcDbEntity
8
1
62
256
6
ByLayer
370
18
48
1
60
0
100
AcDbSpline
70
4
71
3
72
36
73
32
40
0
40
0
40
0
40
0
40
0.0275916097282188
40
0.0275916097282188
40
0.088367134120205
40
0.088367134120205
40
0.149142658512191
40
0.149142658512191
40
0.209918182904177
40
0.209918182904177
40
0.270693707296163
40
0.270693707296163
40
0.331469231688149
40
0.331469231688149
40
0.392244756080135
40
0.392244756080135
40
0.51379580486411
40
0.51379580486411
40
0.574571329256097
40
0.574571329256097
40
0.635346853648083
40
0.635346853648083
40
0.696122378040069
40
0.696122378040069
40
0.756897902432055
40
0.756897902432055
40
0.817673426824041
40
0.817673426824041
40
0.878448951216027
40
0.878448951216027
40
1
40
1
40
1
40
1
41
1
10
10.5445767774491
20
-1.07206367705041
30
0
41
1
10
10.4884420977983
20
-1.09175155561343
30
0
41
1
10
10.4323471984722
20
-1.11064744607424
30
0
41
1
10
10.2528174911296
20
-1.16845649415384
30
0
41
1
10
10.1293602944911
20
-1.20344308773792
30
0
41
1
10
9.88134854691347
20
-1.26589812850671
30
0
41
1
10
9.75741655200721
20
-1.29329539784535
30
0
41
1
10
9.5101894285738
20
-1.33985829620599
30
0
41
1
10
9.38669378428415
20
-1.35887927771427
30
0
41
1
10
9.13896329027153
20
-1.38723886935907
30
0
41
1
10
9.01475397232844
20
-1.39602551451298
30
0
41
1
10
8.76744143428053
20
-1.40421142505889
30
0
41
1
10
8.64394666588197
20
-1.40412093754614
30
0
41
1
10
8.39643258916425
20
-1.39394335569989
30
0
41
1
10
8.2723179658679
20
-1.38332977769318
30
0
41
1
10
7.90063303557434
20
-1.33736859300146
30
0
41
1
10
7.65319117985794
20
-1.29202306557241
30
0
41
1
10
7.28116020277446
20
-1.19496902185867
30
0
41
1
10
7.15732658756241
20
-1.15768443109914
30
0
41
1
10
6.90968678920279
20
-1.07604556528548
30
0
41
1
10
6.78591589553591
20
-1.03157767567933
30
0
41
1
10
6.53825966990331
20
-0.93578411342088
30
0
41
1
10
6.41407487824387
20
-0.88473495165033
30
0
41
1
10
6.16617444235359
20
-0.777849660390757
30
0
41
1
10
6.04244431269376
20
-0.72165476910132
30
0
41
1
10
5.79507825676274
20
-0.603766832812909
30
0
41
1
10
5.67102976887492
20
-0.542134744815797
30
0
41
1
10
5.42284387268194
20
-0.416237416433205
30
0
41
1
10
5.29911556329981
20
-0.351992099780972
30
0
41
1
10
4.92864324678931
20
-0.155837156169412
30
0
41
1
10
4.68151894579495
20
-0.0226929574201904
30
0
41
1
10
4.4333154808977
20
0.111425674307441
30
0
0
SPLINE
5
DD
100
AcDbEntity
8
1
62
256
6
ByLayer
370
18
48
1
60
0
100
AcDbSpline
70
4
71
3
72
18
73
14
40
0
40
0
40
0
40
0
40
0.25
40
0.25
40
0.375
40
0.375
40
0.5
40
0.5
40
0.625
40
0.625
40
0.75
40
0.75
40
1
40
1
40
1
40
1
41
1
10
29.4849871668124
20
-1.4149861298965
30
0
41
1
10
29.4441604504495
20
-1.41497214783652
30
0
41
1
10
29.4075023424001
20
-1.40332803437093
30
0
41
1
10
29.3593458431784
20
-1.36680478310649
30
0
41
1
10
29.3444322111281
20
-1.35132857286783
30
0
41
1
10
29.317856748845
20
-1.31453475379678
30
0
41
1
10
29.3060740977173
20
-1.29315277849108
30
0
41
1
10
29.2855739207269
20
-1.24430968230069
30
0
41
1
10
29.2768555334833
20
-1.21685026981604
30
0
41
1
10
29.2626724915082
20
-1.1554782294304
30
0
41
1
10
29.2572674207517
20
-1.12162278839406
30
0
41
1
10
29.2465506844635
20
-1.01344464338592
30
0
41
1
10
29.246436176122
20
-0.931397121078447
30
0
41
1
10
29.253596578582
20
-0.839858895041914
30
0
0
LINE
5
76
100
AcDbEntity
8
81
62
256
6
ByLayer
370
18
48
1
60
0
100
AcDbLine
10
30
20
0
30
0
11
35
21
0
31
0
39
0
210
0
220
0
230
1
0
LINE
5
77
100
AcDbEntity
8
1
62
256
6
ByLayer
370
18
48
1
60
0
100
AcDbLine
10
2.11403
20
1.483547
30
0
11
1.598313
21
1.483238
31
0
39
0
210
0
220
0
230
1
0
LINE
5
79
100
AcDbEntity
8
1
62
256
6
ByLayer
370
18
48
1
60
0
100
AcDbLine
10
4.732223
20
1.485118
30
0
11
3.787963
21
1.484551
31
0
39
0
210
0
220
0
230
1
0
LINE
5
7A
100
AcDbEntity
8
1
62
256
6
ByLayer
370
18
48
1
60
0
100
AcDbLine
10
12.892002
20
1.490014
30
0
11
12.546053
21
1.489806
31
0
39
0
210
0
220
0
230
1
0
LINE
5
7B
100
AcDbEntity
8
1
62
256
6
ByLayer
370
18
48
1
60
0
100
AcDbLine
10
21.050645
20
1.494909
30
0
11
20.708522
21
1.494704
31
0
39
0
210
0
220
0
230
1
0
LINE
5
7C
100
AcDbEntity
8
1
62
256
6
ByLayer
370
18
48
1
60
0
100
AcDbLine
10
29.211821
20
1.499806
30
0
11
28.869652
21
1.4996
31
0
39
0
210
0
220
0
230
1
0
LINE
5
7D
100
AcDbEntity
8
1
62
256
6
ByLayer
370
18
48
1
60
0
100
AcDbLine
10
28.869652
20
-1.4996
30
0
11
29.211784
21
-1.499806
31
0
39
0
210
0
220
0
230
1
0
LINE
5
7E
100
AcDbEntity
8
1
62
256
6
ByLayer
370
18
48
1
60
0
100
AcDbLine
10
20.708522
20
-1.494704
30
0
11
21.051919
21
-1.49491
31
0
39
0
210
0
220
0
230
1
0
LINE
5
7F
100
AcDbEntity
8
1
62
256
6
ByLayer
370
18
48
1
60
0
100
AcDbLine
10
12.546053
20
-1.489806
30
0
11
12.891428
21
-1.490013
31
0
39
0
210
0
220
0
230
1
0
LINE
5
80
100
AcDbEntity
8
1
62
256
6
ByLayer
370
18
48
1
60
0
100
AcDbLine
10
3.787963
20
-1.484551
30
0
11
4.731951
21
-1.485118
31
0
39
0
210
0
220
0
230
1
0
LINE
5
81
100
AcDbEntity
8
1
62
256
6
ByLayer
370
18
48
1
60
0
100
AcDbLine
10
1.598313
20
-1.483238
30
0
11
2.11403
21
-1.483547
31
0
39
0
210
0
220
0
230
1
0
LINE
5
82
100
AcDbEntity
8
SK1
62
256
6
ByLayer
370
18
48
1
60
0
100
AcDbLine
10
-35.278312
20
3
30
0
11
-36
21
1.75
31
0
39
0
210
0
220
0
230
1
0
LINE
5
84
100
AcDbEntity
8
SK1
62
256
6
ByLayer
370
18
48
1
60
0
100
AcDbLine
10
-36
20
-1.75
30
0
11
-35.278312
21
-3
31
0
39
0
210
0
220
0
230
1
0
LINE
5
85
100
AcDbEntity
8
SK1
62
256
6
ByLayer
370
18
48
1
60
0
100
AcDbLine
10
0
20
3
30
0
11
-35.278312
21
3
31
0
39
0
210
0
220
0
230
1
0
LINE
5
86
100
AcDbEntity
8
SK1
62
256
6
ByLayer
370
18
48
1
60
0
100
AcDbLine
10
-35.278312
20
-3
30
0
11
0
21
-3
31
0
39
0
210
0
220
0
230
1
0
LINE
5
87
100
AcDbEntity
8
SK4
62
256
6
ByLayer
370
18
48
0.05
60
0
100
AcDbLine
10
35
20
0
30
0
11
-41
21
0
31
0
39
0
210
0
220
0
230
1
0
LINE
5
89
100
AcDbEntity
8
4
62
256
6
ByLayer
370
18
48
0.05
60
0
100
AcDbLine
10
30
20
0
30
0
11
0
21
0
31
0
39
0
210
0
220
0
230
1
0
LINE
5
8B
100
AcDbEntity
8
80
62
256
6
ByLayer
370
18
48
1
60
0
100
AcDbLine
10
0
20
0
30
0
11
-5
21
0
31
0
39
0
210
0
220
0
230
1
0
LINE
5
8C
100
AcDbEntity
8
1
62
256
6
ByLayer
370
13
48
1
60
0
100
AcDbLine
10
1.598313
20
1.483238
30
0
11
1.598313
21
-1.483238
31
0
39
0
210
0
220
0
230
1
0
LINE
5
8D
100
AcDbEntity
8
1
62
256
6
ByLayer
370
18
48
1
60
0
100
AcDbLine
10
30
20
0
30
0
11
29.484987
21
-1.414986
31
0
39
0
210
0
220
0
230
1
0
LINE
5
8E
100
AcDbEntity
8
1
62
256
6
ByLayer
370
18
48
1
60
0
100
AcDbLine
10
29.940187
20
-0.245083
30
0
11
29.916536
21
-0.366112
31
0
39
0
210
0
220
0
230
1
0
LINE
5
8F
100
AcDbEntity
8
1
62
256
6
ByLayer
370
18
48
1
60
0
100
AcDbLine
10
29.940187
20
0.245083
30
0
11
29.916536
21
0.366112
31
0
39
0
210
0
220
0
230
1
0
LINE
5
90
100
AcDbEntity
8
1
62
256
6
ByLayer
370
13
48
1
60
0
100
AcDbLine
10
29.5463
20
0.030782
30
0
11
29.895718
21
-0.176539
31
0
39
0
210
0
220
0
230
1
0
LINE
5
91
100
AcDbEntity
8
1
62
256
6
ByLayer
370
18
48
1
60
0
100
AcDbLine
10
29.997783
20
0.015475
30
0
11
30
21
0
31
0
39
0
210
0
220
0
230
1
0
LINE
5
92
100
AcDbEntity
8
1
62
256
6
ByLayer
370
18
48
1
60
0
100
AcDbLine
10
0
20
-3
30
0
11
0
21
3
31
0
39
0
210
0
220
0
230
1
0
LINE
5
93
100
AcDbEntity
8
1
62
256
6
ByLayer
370
13
48
1
60
0
100
AcDbLine
10
29.736207
20
0.366112
30
0
11
29.940187
21
0.245083
31
0
39
0
210
0
220
0
230
1
0
LINE
5
94
100
AcDbEntity
8
1
62
256
6
ByLayer
370
18
48
1
60
0
100
AcDbLine
10
29.253597
20
-0.839859
30
0
11
29.895718
21
-0.176539
31
0
39
0
210
0
220
0
230
1
0
LINE
5
95
100
AcDbEntity
8
1
62
256
6
ByLayer
370
13
48
1
60
0
100
AcDbLine
10
0.798917
20
2.241619
30
0
11
0.798917
21
-2.241619
31
0
39
0
210
0
220
0
230
1
0
LINE
5
96
100
AcDbEntity
8
1
62
256
6
ByLayer
370
18
48
1
60
0
100
AcDbLine
10
30
20
0
30
0
11
29.997783
21
-0.015475
31
0
39
0
210
0
220
0
230
1
0
LINE
5
97
100
AcDbEntity
8
1
62
256
6
ByLayer
370
13
48
1
60
0
100
AcDbLine
10
29.916536
20
0.366112
30
0
11
29.736207
21
0.366112
31
0
39
0
210
0
220
0
230
1
0
LINE
5
98
100
AcDbEntity
8
SK1
62
256
6
ByLayer
370
18
48
1
60
0
100
AcDbLine
10
0
20
-3
30
0
11
0
21
3
31
0
39
0
210
0
220
0
230
1
0
LINE
5
99
100
AcDbEntity
8
SK1
62
256
6
ByLayer
370
18
48
1
60
0
100
AcDbLine
10
-36
20
1.75
30
0
11
-36
21
-1.75
31
0
39
0
210
0
220
0
230
1
0
LINE
5
9A
100
AcDbEntity
8
SK1
62
256
6
ByLayer
370
18
48
1
60
0
100
AcDbLine
10
-35.278312
20
3
30
0
11
-35.278312
21
-3
31
0
39
0
210
0
220
0
230
1
0
MTEXT
5
DE
100
AcDbEntity
8
SK6
62
256
6
ByLayer
370
13
48
1
60
0
100
AcDbMText
10
-0.870831
20
33.882694
30
0
210
0
220
0
230
1
1
\W0.7670;R840-0300-50-A0A1220
40
3.5
41
0
44
1.084337
50
0
71
8
72
5
7
iso_b_vert
0
DIMENSION
5
EB
100
AcDbEntity
8
SK2
62
256
6
ByLayer
370
13
48
1
60
0
100
AcDbDimension
2
DimnDraft3D1
10
29.5
20
-11.713398
30
0
11
13.750059
21
-11.713398
31
0
70
32
71
5
72
1
41
1
210
0
220
0
230
1
3
Standard
100
AcDbAlignedDimension
13
0
23
-1.5875
33
0
14
29.5
24
-3.0875
34
0
50
0
100
AcDbRotatedDimension
1001
ACAD
1000
DSTYLE
1002
{
1070
   279
1070
     0
1070
   172
1070
     1
1070
   173
1070
     1
1070
   340
1005
DF
1070
   271
1070
     2
1070
   272
1070
     2
1070
    77
1070
     1
1070
    73
1070
     0
1070
   171
1070
     3
1070
   274
1070
     4
1070
   177
1070
    35
1070
   176
1070
    35
1070
   178
1070
    35
1070
    48
1040
-0.005
1070
    41
1041
3.5
1070
   147
1041
1.75
1070
    42
1041
1.5875
1070
    44
1041
2.0
1070
   140
1041
3.5
1070
   343
1005
0
1070
   344
1005
0
1002
}
0
DIMENSION
5
F5
100
AcDbEntity
8
SK2
62
256
6
ByLayer
370
13
48
1
60
0
100
AcDbDimension
2
DimnDraft3D2
10
30
20
-31.692985
30
0
11
-2.1587
21
-31.692985
31
0
70
32
71
5
72
1
41
1
210
0
220
0
230
1
3
Standard
100
AcDbAlignedDimension
13
-36
23
-4.5875
33
0
14
30
24
-1.5875
34
0
50
0
100
AcDbRotatedDimension
1001
ACAD
1000
DSTYLE
1002
{
1070
   279
1070
     0
1070
   172
1070
     1
1070
   173
1070
     1
1070
   340
1005
DF
1070
   271
1070
     2
1070
   272
1070
     2
1070
    77
1070
     1
1070
    73
1070
     0
1070
   171
1070
     3
1070
   274
1070
     4
1070
   177
1070
    35
1070
   176
1070
    35
1070
   178
1070
    35
1070
    48
1040
-0.005
1070
    41
1041
3.5
1070
   147
1041
1.75
1070
    42
1041
1.5875
1070
    44
1041
2.0
1070
   140
1041
3.5
1070
   343
1005
0
1070
   344
1005
0
1002
}
0
DIMENSION
5
FF
100
AcDbEntity
8
SK2
62
256
6
ByLayer
370
13
48
1
60
0
100
AcDbDimension
2
DimnDraft3D3
10
30
20
13.109119
30
0
11
22.25
21
13.109119
31
0
70
32
71
5
72
1
41
1
210
0
220
0
230
1
3
Standard
100
AcDbAlignedDimension
13
14.5
23
3.0875
33
0
14
30
24
1.5875
34
0
50
0
100
AcDbRotatedDimension
1001
ACAD
1000
DSTYLE
1002
{
1070
   279
1070
     0
1070
   172
1070
     1
1070
   173
1070
     1
1070
   340
1005
DF
1070
   271
1070
     2
1070
   272
1070
     2
1070
    77
1070
     1
1070
    73
1070
     0
1070
   171
1070
     3
1070
   274
1070
     4
1070
   177
1070
    35
1070
   176
1070
    35
1070
   178
1070
    35
1070
    48
1040
-0.005
1070
    41
1041
3.5
1070
   147
1041
1.75
1070
    42
1041
1.5875
1070
    44
1041
2.0
1070
   140
1041
3.5
1070
   343
1005
0
1070
   344
1005
0
1002
}
0
DIMENSION
5
109
100
AcDbEntity
8
SK2
62
256
6
ByLayer
370
13
48
1
60
0
100
AcDbDimension
2
DimnDraft3D4
10
29.5
20
-14.302503
30
0
11
39.981425
21
-14.302503
31
0
70
32
71
5
72
1
41
1
210
0
220
0
230
1
3
Standard
100
AcDbAlignedDimension
13
30
23
-1.5875
33
0
14
29.5
24
-3.0875
34
0
50
0
100
AcDbRotatedDimension
1001
ACAD
1000
DSTYLE
1002
{
1070
   279
1070
     0
1070
   172
1070
     1
1070
   173
1070
     1
1070
   340
1005
DF
1070
   271
1070
     2
1070
   272
1070
     2
1070
    77
1070
     1
1070
    73
1070
     0
1070
   171
1070
     3
1070
   274
1070
     4
1070
   177
1070
    35
1070
   176
1070
    35
1070
   178
1070
    35
1070
    48
1040
-0.005
1070
    41
1041
3.5
1070
   147
1041
1.75
1070
    42
1041
1.5875
1070
    44
1041
2.0
1070
   140
1041
3.5
1070
   343
1005
0
1070
   344
1005
0
1002
}
0
DIMENSION
5
113
100
AcDbEntity
8
SK2
62
256
6
ByLayer
370
13
48
1
60
0
100
AcDbDimension
2
DimnDraft3D5
10
29.5
20
-21.343428
30
0
11
-5.239324
21
-21.343428
31
0
70
32
71
5
72
1
41
1
210
0
220
0
230
1
3
Standard
100
AcDbAlignedDimension
13
-36
23
-4.5875
33
0
14
29.5
24
-3.0875
34
0
50
0
100
AcDbRotatedDimension
1001
ACAD
1000
DSTYLE
1002
{
1070
   279
1070
     0
1070
   172
1070
     1
1070
   173
1070
     1
1070
   340
1005
DF
1070
   271
1070
     2
1070
   272
1070
     2
1070
    77
1070
     1
1070
    73
1070
     0
1070
   171
1070
     3
1070
   274
1070
     4
1070
   177
1070
    35
1070
   176
1070
    35
1070
   178
1070
    35
1070
    48
1040
-0.005
1070
    41
1041
3.5
1070
   147
1041
1.75
1070
    42
1041
1.5875
1070
    44
1041
2.0
1070
   140
1041
3.5
1070
   343
1005
0
1070
   344
1005
0
1002
}
0
DIMENSION
5
11E
100
AcDbEntity
8
SK2
62
256
6
ByLayer
370
13
48
1
60
0
100
AcDbDimension
2
DimnDraft3D6
10
-46.625163
20
3
30
0
11
-47.250163
21
21.47418
31
0
70
33
71
5
72
1
41
1
210
0
220
0
230
1
3
Standard
100
AcDbAlignedDimension
13
-37.5875
23
-3
33
0
14
-37.5875
24
3
34
0
1001
ACAD
1000
DSTYLE
1002
{
1070
   279
1070
     0
1070
    74
1070
     0
1070
   173
1070
     1
1070
   340
1005
DF
1070
   271
1070
     3
1070
   272
1070
     2
1070
    77
1070
     1
1070
    73
1070
     0
1070
   171
1070
     3
1070
   274
1070
     4
1070
   177
1070
    35
1070
   176
1070
    35
1070
   178
1070
    35
1070
    48
1040
-0.005
1070
    41
1041
3.5
1070
   147
1041
1.75
1070
    42
1041
1.5875
1070
    44
1041
2.0
1070
   140
1041
3.5
1070
   343
1005
0
1070
   344
1005
0
1002
}
0
DIMENSION
5
129
100
AcDbEntity
8
2
62
256
6
ByLayer
370
13
48
1
60
0
100
AcDbDimension
2
DimnDraft3D7
10
44.083343
20
1.5
30
0
11
39.458343
21
18.567266
31
0
70
33
71
5
72
1
41
1
210
0
220
0
230
1
3
Standard
100
AcDbAlignedDimension
13
31.0875
23
-1.5
33
0
14
31.0875
24
1.5
34
0
1001
ACAD
1000
DSTYLE
1002
{
1070
   279
1070
     0
1070
    74
1070
     0
1070
   173
1070
     1
1070
   340
1005
DF
1070
   271
1070
     3
1070
   272
1070
     2
1070
    77
1070
     1
1070
    73
1070
     0
1070
   171
1070
     3
1070
   274
1070
     4
1070
   177
1070
    35
1070
   176
1070
    35
1070
   178
1070
    35
1070
    48
1040
-0.005
1070
    41
1041
3.5
1070
   147
1041
1.75
1070
    42
1041
1.5875
1070
    44
1041
2.0
1070
   140
1041
3.5
1070
   343
1005
0
1070
   344
1005
0
1002
}
0
ENDSEC
0
SECTION
2
OBJECTS
0
DICTIONARY
5
194
330
0
100
AcDbDictionary
280
0
281
1
3
ACAD_GROUP
350
195
3
ACAD_MLINESTYLE
350
196
0
DICTIONARY
5
195
330
0
100
AcDbDictionary
280
0
281
1
0
DICTIONARY
5
196
330
0
100
AcDbDictionary
280
0
281
1
3
Standard
350
18
0
MLINESTYLE
5
18
330
196
100
AcDbMlineStyle
2
Standard
70
0
3

62
256
51
90
52
90
71
2
49
-0.5
62
256
6
ByLayer
49
0.5
62
256
6
ByLayer
0
RASTERVARIABLES
5
182
330

100
AcDbRasterVariables
90
0
70
1
71
1
72
1
0
ENDSEC
0
EOF
