0
SECTION
2
HEADER
9
$ACADVER
1
AC1015
9
$DWGCODEPAGE
3
ANSI_1252
9
$HANDSEED
5
1cc
9
$ANGBASE
50
0
9
$ANGDIR
70
0
9
$ATTMODE
70
1
9
$AUNITS
70
0
9
$AUPREC
70
0
9
$CECOLOR
62
256
9
$CELTSCALE
40
1
9
$CELTYPE
6
ByLayer
9
$CELWEIGHT
370
18
9
$CLAYER
8
0
9
$CMLJUST
70
0
9
$CMLSCALE
40
1
9
$CMLSTYLE
2
Standard
9
$DIMSTYLE
2
Standard
9
$TEXTSIZE
40
0.2
9
$TEXTSTYLE
7
Standard
9
$LUNITS
70
2
9
$LUPREC
70
4
9
$EXTNAMES
290
1
9
$INSUNITS
70
4
9
$LTSCALE
40
1
9
$LWDISPLAY
290
1
9
$PDMODE
70
0
9
$PDSIZE
40
0
9
$PLINEGEN
70
0
0
ENDSEC
0
SECTION
2
CLASSES
0
CLASS
1
RASTERVARIABLES
2
AcDbRasterVariables
3
ISM
90
0
280
0
281
0
0
ENDSEC
0
SECTION
2
TABLES
0
TABLE
2
VPORT
5
1c2
100
AcDbSymbolTable
0
VPORT
5
1
100
AcDbSymbolTableRecord
100
AcDbViewportTableRecord
2
*Active
70
0
10
0
20
0
11
1
21
1
12
-1
22
1
13
0
23
0
14
0.5
24
0.5
15
10
25
10
16
0
26
0
36
1
17
0
27
0
37
0
0
ENDTAB
0
TABLE
2
LTYPE
5
1c3
100
AcDbSymbolTable
0
LTYPE
5
14
100
AcDbSymbolTableRecord
100
AcDbLinetypeTableRecord
70
0
2
ByBlock
3

72
65
73
0
40
0
0
LTYPE
5
15
100
AcDbSymbolTableRecord
100
AcDbLinetypeTableRecord
70
0
2
ByLayer
3

72
65
73
0
40
0
0
LTYPE
5
16
100
AcDbSymbolTableRecord
100
AcDbLinetypeTableRecord
70
0
2
CONTINUOUS
3
Solid line
72
65
73
0
40
0
0
LTYPE
5
6A
100
AcDbSymbolTableRecord
100
AcDbLinetypeTableRecord
70
0
2
CENTER
3
____ _ ____ _ ____ _ ____
72
65
73
4
40
47.5
49
22
74
0
49
-8.5
74
0
49
8.5
74
0
49
-8.5
74
0
0
LTYPE
5
6B
100
AcDbSymbolTableRecord
100
AcDbLinetypeTableRecord
70
0
2
DASHED
3
__ __ __ __ __ __ __ __ __
72
65
73
2
40
25.72
49
12.86
74
0
49
-12.86
74
0
0
ENDTAB
0
TABLE
2
LAYER
5
1c4
100
AcDbSymbolTable
0
LAYER
5
10
100
AcDbSymbolTableRecord
100
AcDbLayerTableRecord
2
0
70
0
62
7
6
CONTINUOUS
290
1
370
-3
390
0
0
LAYER
5
6D
100
AcDbSymbolTableRecord
100
AcDbLayerTableRecord
2
80
70
0
62
-6
6
CONTINUOUS
290
1
370
-3
390
0
0
LAYER
5
6F
100
AcDbSymbolTableRecord
100
AcDbLayerTableRecord
2
81
70
0
62
-3
6
CONTINUOUS
290
1
370
-3
390
0
0
LAYER
5
71
100
AcDbSymbolTableRecord
100
AcDbLayerTableRecord
2
1
70
0
62
4
6
CONTINUOUS
290
1
370
-3
390
0
0
LAYER
5
A7
100
AcDbSymbolTableRecord
100
AcDbLayerTableRecord
2
4
70
0
62
-2
6
CENTER
290
1
370
-3
390
0
0
LAYER
5
13B
100
AcDbSymbolTableRecord
100
AcDbLayerTableRecord
2
2
70
0
62
7
6
CONTINUOUS
290
1
370
-3
390
0
0
LAYER
5
1ae
100
AcDbSymbolTableRecord
100
AcDbLayerTableRecord
2
SK1
70
0
62
4
6
CONTINUOUS
290
1
370
-3
390
0
0
LAYER
5
1af
100
AcDbSymbolTableRecord
100
AcDbLayerTableRecord
2
SK4
70
0
62
2
6
CENTER
290
1
370
-3
390
0
0
LAYER
5
1b0
100
AcDbSymbolTableRecord
100
AcDbLayerTableRecord
2
SK6
70
0
62
5
6
CONTINUOUS
290
1
370
-3
390
0
0
LAYER
5
1b1
100
AcDbSymbolTableRecord
100
AcDbLayerTableRecord
2
SK2
70
0
62
7
6
CONTINUOUS
290
1
370
-3
390
0
0
ENDTAB
0
TABLE
2
STYLE
5
1c5
100
AcDbSymbolTable
0
STYLE
5
11
100
AcDbSymbolTableRecord
100
AcDbTextStyleTableRecord
2
Standard
3
txt
70
0
71
0
40
0
41
1
42
0
50
0
0
STYLE
5
11F
100
AcDbSymbolTableRecord
100
AcDbTextStyleTableRecord
2
iso_b_vert
3
simplex.shx
70
0
71
0
40
0
41
1
42
0
50
0
0
STYLE
5
120
100
AcDbSymbolTableRecord
100
AcDbTextStyleTableRecord
2
DWGDirectTextStyle
3
simplex
70
0
71
0
40
0
41
1
42
0
50
0
0
ENDTAB
0
TABLE
2
DIMSTYLE
5
1c6
100
AcDbSymbolTable
100
AcDbDimStyleTable
0
DIMSTYLE
105
27
100
AcDbSymbolTableRecord
100
AcDbDimStyleTableRecord
2
Standard
70
0
3
<>
41
0.18
42
0.0625
44
0.18
140
0.18
147
0.09
73
0
74
0
77
1
271
2
275
0
278
52
280
0
340
11
0
ENDTAB
0
TABLE
2
VIEW
5
1c7
100
AcDbSymbolTable
0
ENDTAB
0
TABLE
2
UCS
5
1c8
100
AcDbSymbolTable
0
ENDTAB
0
TABLE
2
APPID
5
1c9
100
AcDbSymbolTable
0
APPID
5
12
100
AcDbSymbolTableRecord
100
AcDbRegAppTableRecord
2
ACAD
70
0
0
ENDTAB
0
TABLE
2
BLOCK_RECORD
5
1ca
100
AcDbSymbolTable
0
BLOCK_RECORD
5
1F
100
AcDbSymbolTableRecord
100
AcDbBlockTableRecord
2
*Model_Space
340
0
70
0
0
BLOCK_RECORD
5
1B
100
AcDbSymbolTableRecord
100
AcDbBlockTableRecord
2
*Paper_Space
340
0
70
0
0
BLOCK_RECORD
5
23
100
AcDbSymbolTableRecord
100
AcDbBlockTableRecord
2
*Paper_Space0
340
0
70
0
0
BLOCK_RECORD
5
122
100
AcDbSymbolTableRecord
100
AcDbBlockTableRecord
2
DimnDraft3D1
340
0
70
0
0
BLOCK_RECORD
5
132
100
AcDbSymbolTableRecord
100
AcDbBlockTableRecord
2
_CLOSED
340
0
70
0
0
BLOCK_RECORD
5
139
100
AcDbSymbolTableRecord
100
AcDbBlockTableRecord
2
DimnDraft3D2
340
0
70
0
0
BLOCK_RECORD
5
147
100
AcDbSymbolTableRecord
100
AcDbBlockTableRecord
2
DimnDraft3D3
340
0
70
0
0
ENDTAB
0
ENDSEC
0
SECTION
2
BLOCKS
0
BLOCK
5
20
100
AcDbEntity
8
0
100
AcDbBlockBegin
2
*Model_Space
70
0
10
0
20
0
30
0
3
*Model_Space
0
ENDBLK
5
21
100
AcDbEntity
8
0
100
AcDbBlockEnd
0
BLOCK
5
1C
100
AcDbEntity
8
0
100
AcDbBlockBegin
2
*Paper_Space
70
0
10
0
20
0
30
0
3
*Paper_Space
0
ENDBLK
5
1D
100
AcDbEntity
8
0
100
AcDbBlockEnd
0
BLOCK
5
24
100
AcDbEntity
8
0
100
AcDbBlockBegin
2
*Paper_Space0
70
0
10
0
20
0
30
0
3
*Paper_Space0
0
ENDBLK
5
25
100
AcDbEntity
8
0
100
AcDbBlockEnd
0
BLOCK
5
12F
100
AcDbEntity
8
0
100
AcDbBlockBegin
2
DimnDraft3D1
70
0
10
0
20
0
30
0
3
DimnDraft3D1
0
MTEXT
5
123
100
AcDbEntity
8
SK2
62
256
6
ByLayer
370
18
48
1
60
0
100
AcDbMText
10
-16.347768
20
-4.137089
30
0
210
0
220
0
230
1
1
%%c
40
3
41
0
44
1.084337
50
90
71
7
72
5
7
iso_b_vert
0
MTEXT
5
125
100
AcDbEntity
8
SK2
62
256
6
ByLayer
370
18
48
1
60
0
100
AcDbMText
10
-16.347768
20
3.339474
30
0
210
0
220
0
230
1
1
\W0.7183;40
40
3
41
0
44
1.084337
50
90
71
7
72
5
7
iso_b_vert
0
LINE
5
126
100
AcDbEntity
8
SK2
62
256
6
ByLayer
370
13
48
1
60
0
100
AcDbLine
10
-1.274981
20
20
30
0
11
-16.847768
21
20
31
0
39
0
210
0
220
0
230
1
0
LINE
5
127
100
AcDbEntity
8
SK2
62
256
6
ByLayer
370
13
48
1
60
0
100
AcDbLine
10
-1.274981
20
-20
30
0
11
-16.847768
21
-20
31
0
39
0
210
0
220
0
230
1
0
LINE
5
128
100
AcDbEntity
8
SK2
62
256
6
ByLayer
370
13
48
1
60
0
100
AcDbLine
10
-14.847768
20
20
30
0
11
-14.847768
21
-20
31
0
39
0
210
0
220
0
230
1
0
LINE
5
129
100
AcDbEntity
8
SK2
62
256
6
ByLayer
370
13
48
1
60
0
100
AcDbLine
10
-14.847768
20
20
30
0
11
-14.429771
21
16.825002
31
0
39
0
210
0
220
0
230
1
0
LINE
5
12A
100
AcDbEntity
8
SK2
62
256
6
ByLayer
370
13
48
1
60
0
100
AcDbLine
10
-14.847768
20
20
30
0
11
-15.265764
21
16.824998
31
0
39
0
210
0
220
0
230
1
0
LINE
5
12B
100
AcDbEntity
8
SK2
62
256
6
ByLayer
370
13
48
1
60
0
100
AcDbLine
10
-14.429771
20
16.825002
30
0
11
-15.265764
21
16.824998
31
0
39
0
210
0
220
0
230
1
0
LINE
5
12C
100
AcDbEntity
8
SK2
62
256
6
ByLayer
370
13
48
1
60
0
100
AcDbLine
10
-14.847768
20
-20
30
0
11
-15.265764
21
-16.825002
31
0
39
0
210
0
220
0
230
1
0
LINE
5
12D
100
AcDbEntity
8
SK2
62
256
6
ByLayer
370
13
48
1
60
0
100
AcDbLine
10
-14.847768
20
-20
30
0
11
-14.429771
21
-16.824998
31
0
39
0
210
0
220
0
230
1
0
LINE
5
12E
100
AcDbEntity
8
SK2
62
256
6
ByLayer
370
13
48
1
60
0
100
AcDbLine
10
-15.265764
20
-16.825002
30
0
11
-14.429771
21
-16.824998
31
0
39
0
210
0
220
0
230
1
0
ENDBLK
5
130
100
AcDbEntity
8
0
100
AcDbBlockEnd
0
BLOCK
5
133
100
AcDbEntity
8
0
100
AcDbBlockBegin
2
_CLOSED
70
0
10
0
20
0
30
0
3
_CLOSED
0
LINE
5
135
100
AcDbEntity
8
0
62
256
6
ByLayer
370
-2
48
1
60
0
100
AcDbLine
10
-1
20
0.166667
30
0
11
0
21
0
31
0
39
0
210
0
220
0
230
1
0
LINE
5
136
100
AcDbEntity
8
0
62
256
6
ByLayer
370
-2
48
1
60
0
100
AcDbLine
10
0
20
0
30
0
11
-1
21
-0.166667
31
0
39
0
210
0
220
0
230
1
0
LINE
5
137
100
AcDbEntity
8
0
62
256
6
ByLayer
370
-2
48
1
60
0
100
AcDbLine
10
-1
20
0.166667
30
0
11
-1
21
-0.166667
31
0
39
0
210
0
220
0
230
1
0
LINE
5
138
100
AcDbEntity
8
0
62
256
6
ByLayer
370
-2
48
1
60
0
100
AcDbLine
10
0
20
0
30
0
11
-1
21
0
31
0
39
0
210
0
220
0
230
1
0
ENDBLK
5
134
100
AcDbEntity
8
0
100
AcDbBlockEnd
0
BLOCK
5
144
100
AcDbEntity
8
0
100
AcDbBlockBegin
2
DimnDraft3D2
70
0
10
0
20
0
30
0
3
DimnDraft3D2
0
MTEXT
5
13A
100
AcDbEntity
8
2
62
256
6
ByLayer
370
18
48
1
60
0
100
AcDbMText
10
53.292006
20
9.717908
30
0
210
0
220
0
230
1
1
\W0.7150;25.8
40
3
41
0
44
1.084337
50
90
71
7
72
5
7
iso_b_vert
0
LINE
5
13C
100
AcDbEntity
8
2
62
256
6
ByLayer
370
13
48
1
60
0
100
AcDbLine
10
46.051456
20
24.820027
30
0
11
56.042006
21
24.820027
31
0
39
0
210
0
220
0
230
1
0
LINE
5
13D
100
AcDbEntity
8
2
62
256
6
ByLayer
370
13
48
1
60
0
100
AcDbLine
10
54.042006
20
24.820027
30
0
11
54.042006
21
0
31
0
39
0
210
0
220
0
230
1
0
LINE
5
13E
100
AcDbEntity
8
2
62
256
6
ByLayer
370
13
48
1
60
0
100
AcDbLine
10
54.042006
20
24.820027
30
0
11
54.460003
21
21.645028
31
0
39
0
210
0
220
0
230
1
0
LINE
5
13F
100
AcDbEntity
8
2
62
256
6
ByLayer
370
13
48
1
60
0
100
AcDbLine
10
54.042006
20
24.820027
30
0
11
53.624009
21
21.645025
31
0
39
0
210
0
220
0
230
1
0
LINE
5
140
100
AcDbEntity
8
2
62
256
6
ByLayer
370
13
48
1
60
0
100
AcDbLine
10
54.460003
20
21.645028
30
0
11
53.624009
21
21.645025
31
0
39
0
210
0
220
0
230
1
0
LINE
5
141
100
AcDbEntity
8
2
62
256
6
ByLayer
370
13
48
1
60
0
100
AcDbLine
10
54.042006
20
0
30
0
11
53.624009
21
3.174998
31
0
39
0
210
0
220
0
230
1
0
LINE
5
142
100
AcDbEntity
8
2
62
256
6
ByLayer
370
13
48
1
60
0
100
AcDbLine
10
54.042006
20
0
30
0
11
54.460003
21
3.175002
31
0
39
0
210
0
220
0
230
1
0
LINE
5
143
100
AcDbEntity
8
2
62
256
6
ByLayer
370
13
48
1
60
0
100
AcDbLine
10
53.624009
20
3.174998
30
0
11
54.460003
21
3.175002
31
0
39
0
210
0
220
0
230
1
0
ENDBLK
5
145
100
AcDbEntity
8
0
100
AcDbBlockEnd
0
BLOCK
5
152
100
AcDbEntity
8
0
100
AcDbBlockBegin
2
DimnDraft3D3
70
0
10
0
20
0
30
0
3
DimnDraft3D3
0
MTEXT
5
148
100
AcDbEntity
8
2
62
256
6
ByLayer
370
18
48
1
60
0
100
AcDbMText
10
19.017833
20
47.07712
30
0
210
0
220
0
230
1
1
\W0.7836;44.2
40
3
41
0
44
1.084337
50
0
71
7
72
5
7
iso_b_vert
0
LINE
5
149
100
AcDbEntity
8
2
62
256
6
ByLayer
370
13
48
1
60
0
100
AcDbLine
10
44.051456
20
26.820027
30
0
11
44.051456
21
48.32712
31
0
39
0
210
0
220
0
230
1
0
LINE
5
14A
100
AcDbEntity
8
2
62
256
6
ByLayer
370
13
48
1
60
0
100
AcDbLine
10
0
20
2
30
0
11
0
21
48.32712
31
0
39
0
210
0
220
0
230
1
0
LINE
5
14B
100
AcDbEntity
8
2
62
256
6
ByLayer
370
13
48
1
60
0
100
AcDbLine
10
44.051456
20
46.32712
30
0
11
0
21
46.32712
31
0
39
0
210
0
220
0
230
1
0
LINE
5
14C
100
AcDbEntity
8
2
62
256
6
ByLayer
370
13
48
1
60
0
100
AcDbLine
10
44.051456
20
46.32712
30
0
11
40.876457
21
45.909124
31
0
39
0
210
0
220
0
230
1
0
LINE
5
14D
100
AcDbEntity
8
2
62
256
6
ByLayer
370
13
48
1
60
0
100
AcDbLine
10
44.051456
20
46.32712
30
0
11
40.876454
21
46.745117
31
0
39
0
210
0
220
0
230
1
0
LINE
5
14E
100
AcDbEntity
8
2
62
256
6
ByLayer
370
13
48
1
60
0
100
AcDbLine
10
40.876457
20
45.909124
30
0
11
40.876454
21
46.745117
31
0
39
0
210
0
220
0
230
1
0
LINE
5
14F
100
AcDbEntity
8
2
62
256
6
ByLayer
370
13
48
1
60
0
100
AcDbLine
10
0
20
46.32712
30
0
11
3.174998
21
46.745117
31
0
39
0
210
0
220
0
230
1
0
LINE
5
150
100
AcDbEntity
8
2
62
256
6
ByLayer
370
13
48
1
60
0
100
AcDbLine
10
0
20
46.32712
30
0
11
3.175002
21
45.909124
31
0
39
0
210
0
220
0
230
1
0
LINE
5
151
100
AcDbEntity
8
2
62
256
6
ByLayer
370
13
48
1
60
0
100
AcDbLine
10
3.174998
20
46.745117
30
0
11
3.175002
21
45.909124
31
0
39
0
210
0
220
0
230
1
0
ENDBLK
5
153
100
AcDbEntity
8
0
100
AcDbBlockEnd
0
ENDSEC
0
SECTION
2
ENTITIES
0
ELLIPSE
5
AB
100
AcDbEntity
8
1
62
256
6
ByLayer
370
18
48
1
60
0
100
AcDbEllipse
10
10.028583
20
0
30
0
11
-0.00435779527918825
21
19.999999999216
31
0
210
0
220
0
230
1
40
0.000231
41
0.139054281699321
42
1.01598524355338
0
ELLIPSE
5
AC
100
AcDbEntity
8
1
62
256
6
ByLayer
370
18
48
1
60
0
100
AcDbEllipse
10
10.028583
20
0
30
0
11
-0.00435779527829882
21
19.9999999811116
31
0
210
0
220
0
230
1
40
0.000231
41
2.12560730901687
42
2.65347842029813
0
ELLIPSE
5
AD
100
AcDbEntity
8
1
62
256
6
ByLayer
370
18
48
1
60
0
100
AcDbEllipse
10
10.024141
20
9.8995
30
0
11
-0.0011439212608665
21
5.24999999996686
31
0
210
0
220
0
230
1
40
0.000231
41
0.814103196405302
42
3.14159260331278
0
ELLIPSE
5
AE
100
AcDbEntity
8
1
62
256
6
ByLayer
370
18
48
1
60
0
100
AcDbEllipse
10
10.028455
20
-9.899495
30
0
11
-0.00114392126083817
21
5.24999999985824
31
0
210
0
220
0
230
1
40
0.000231
41
-0.536823287850383
42
-5.02843363023379E-08
0
ELLIPSE
5
AF
100
AcDbEntity
8
1
62
256
6
ByLayer
370
18
48
1
60
0
100
AcDbEllipse
10
10.024141
20
9.8995
30
0
11
-0.00114392126070433
21
5.24999999947402
31
0
210
0
220
0
230
1
40
0.000231
41
0
42
0.814103196462356
0
ELLIPSE
5
B0
100
AcDbEntity
8
1
62
256
6
ByLayer
370
18
48
1
60
0
100
AcDbEllipse
10
10.024141
20
9.8995
30
0
11
-0.00114392126086323
21
5.24999999999999
31
0
210
0
220
0
230
1
40
0.000231
41
3.14159260330546
42
-5.02814068319269E-08
0
ELLIPSE
5
B1
100
AcDbEntity
8
1
62
256
6
ByLayer
370
18
48
1
60
0
100
AcDbEllipse
10
10.028455
20
-9.899495
30
0
11
-0.00114392123453602
21
5.2499998893157
31
0
210
0
220
0
230
1
40
0.000231
41
3.14159260330546
42
-2.95382931521386
0
ELLIPSE
5
B2
100
AcDbEntity
8
1
62
256
6
ByLayer
370
18
48
1
60
0
100
AcDbEllipse
10
10.028455
20
-9.899495
30
0
11
-0.00114392126086323
21
5.24999999999999
31
0
210
0
220
0
230
1
40
0.000231
41
0
42
3.14159260330692
0
POINT
5
6C
100
AcDbEntity
8
80
62
256
6
ByLayer
370
18
48
1
60
0
100
AcDbPoint
10
0
20
0
30
0
39
0
210
0
220
0
230
1
50
360
0
POINT
5
6E
100
AcDbEntity
8
81
62
256
6
ByLayer
370
18
48
1
60
0
100
AcDbPoint
10
44.051456
20
24.820027
30
0
39
0
210
0
220
0
230
1
50
360
0
SPLINE
5
B3
100
AcDbEntity
8
1
62
256
6
ByLayer
370
18
48
1
60
0
100
AcDbSpline
70
4
71
1
72
4
73
2
40
0
40
0
40
1
40
1
41
1
10
-0.274980947161675
20
-18.998769497268
30
0
41
1
10
0.417769052838333
20
-19.683107055122
30
0
0
SPLINE
5
B4
100
AcDbEntity
8
1
62
256
6
ByLayer
370
18
48
1
60
0
100
AcDbSpline
70
4
71
3
72
11
73
7
40
0
40
0
40
0
40
0
40
0.42283901728122
40
0.684702508398879
40
0.903370402207791
40
1
40
1
40
1
40
1
41
1
10
0.417769052838333
20
-19.6729077812289
30
0
41
1
10
0.43572410633393
20
-19.6913248640228
30
0
41
1
10
0.460209231497223
20
-19.7167940727756
30
0
41
1
10
0.485333226180508
20
-19.7437531201139
30
0
41
1
10
0.493911592504766
20
-19.7536916046947
30
0
41
1
10
0.494991223090361
20
-19.7555096192509
30
0
41
1
10
0.495019035767837
20
-19.7557660562034
30
0
0
SPLINE
5
B5
100
AcDbEntity
8
1
62
256
6
ByLayer
370
18
48
1
60
0
100
AcDbSpline
70
4
71
1
72
4
73
2
40
0
40
0
40
1
40
1
41
1
10
0.417769052838333
20
-19.6729077812289
30
0
41
1
10
-0.274980947161672
20
-18.9565809532923
30
0
0
SPLINE
5
B6
100
AcDbEntity
8
1
62
256
6
ByLayer
370
18
48
1
60
0
100
AcDbSpline
70
4
71
1
72
4
73
2
40
0
40
0
40
1
40
1
41
1
10
-0.27498094716168
20
-18.9223286987072
30
0
41
1
10
0.417769052838334
20
-19.5787156401549
30
0
0
SPLINE
5
B7
100
AcDbEntity
8
1
62
256
6
ByLayer
370
18
48
1
60
0
100
AcDbSpline
70
4
71
3
72
11
73
7
40
0
40
0
40
0
40
0
40
0.411791784385978
40
0.687490884599834
40
0.910922312001297
40
1
40
1
40
1
40
1
41
1
10
0.417769052838333
20
-19.5479384538136
30
0
41
1
10
0.435177939415124
20
-19.5666249681397
30
0
41
1
10
0.459798683321233
20
-19.5940646378784
30
0
41
1
10
0.485224034964496
20
-19.6247592282636
30
0
41
1
10
0.493956064038716
20
-19.6375853563174
30
0
41
1
10
0.494983702461867
20
-19.6408431178963
30
0
41
1
10
0.495018918815258
20
-19.6415244059369
30
0
0
SPLINE
5
B8
100
AcDbEntity
8
1
62
256
6
ByLayer
370
18
48
1
60
0
100
AcDbSpline
70
4
71
1
72
4
73
2
40
0
40
0
40
1
40
1
41
1
10
0.417769052838333
20
-19.5479384538136
30
0
41
1
10
-0.274980947161677
20
-18.7949642316001
30
0
0
SPLINE
5
B9
100
AcDbEntity
8
1
62
256
6
ByLayer
370
18
48
1
60
0
100
AcDbSpline
70
4
71
1
72
4
73
2
40
0
40
0
40
1
40
1
41
1
10
-0.274980947161677
20
-18.7258058398969
30
0
41
1
10
0.417769052838334
20
-19.3578797623268
30
0
0
SPLINE
5
BA
100
AcDbEntity
8
1
62
256
6
ByLayer
370
18
48
1
60
0
100
AcDbSpline
70
4
71
3
72
11
73
7
40
0
40
0
40
0
40
0
40
0.399216662303987
40
0.690058339665864
40
0.918466692212944
40
1
40
1
40
1
40
1
41
1
10
0.417769052838333
20
-19.3059704500817
30
0
41
1
10
0.434603642669536
20
-19.324975789687
30
0
41
1
10
0.459398771628099
20
-19.3546101717481
30
0
41
1
10
0.485145229144832
20
-19.3892856133593
30
0
41
1
10
0.494022259102294
20
-19.4052493698003
30
0
41
1
10
0.494982488320693
20
-19.4099962413194
30
0
41
1
10
0.495018882937631
20
-19.4110452215799
30
0
0
SPLINE
5
BB
100
AcDbEntity
8
1
62
256
6
ByLayer
370
18
48
1
60
0
100
AcDbSpline
70
4
71
1
72
4
73
2
40
0
40
0
40
1
40
1
41
1
10
0.417769052838333
20
-19.3059704500817
30
0
41
1
10
-0.274980947161679
20
-18.5107914335267
30
0
0
SPLINE
5
BC
100
AcDbEntity
8
1
62
256
6
ByLayer
370
18
48
1
60
0
100
AcDbSpline
70
4
71
1
72
4
73
2
40
0
40
0
40
1
40
1
41
1
10
-0.274980947161671
20
-18.4053548003051
30
0
41
1
10
0.417769052838335
20
-19.0165431050797
30
0
0
SPLINE
5
BD
100
AcDbEntity
8
1
62
256
6
ByLayer
370
18
48
1
60
0
100
AcDbSpline
70
4
71
3
72
11
73
7
40
0
40
0
40
0
40
0
40
0.471601006281035
40
0.750733544058596
40
0.972302776862794
40
1
40
1
40
1
40
1
41
1
10
0.417769052838333
20
-18.9425207468482
30
0
41
1
10
0.438035269800054
20
-18.9666539916736
30
0
41
1
10
0.464263201783254
20
-19.0009288277505
30
0
41
1
10
0.488860299842506
20
-19.039849740675
30
0
41
1
10
0.494728477047287
20
-19.054912240133
30
0
41
1
10
0.495013700843064
20
-19.059625114291
30
0
41
1
10
0.495018930867123
20
-19.0601248367504
30
0
0
SPLINE
5
BE
100
AcDbEntity
8
1
62
256
6
ByLayer
370
18
48
1
60
0
100
AcDbSpline
70
4
71
1
72
4
73
2
40
0
40
0
40
1
40
1
41
1
10
0.417769052838333
20
-18.9425207468482
30
0
41
1
10
-0.274980947161676
20
-18.0982904862291
30
0
0
SPLINE
5
BF
100
AcDbEntity
8
1
62
256
6
ByLayer
370
18
48
1
60
0
100
AcDbSpline
70
4
71
1
72
4
73
2
40
0
40
0
40
1
40
1
41
1
10
-0.274980947161685
20
-17.9543411546264
30
0
41
1
10
0.417769052838328
20
-18.5480541955755
30
0
0
SPLINE
5
C0
100
AcDbEntity
8
1
62
256
6
ByLayer
370
18
48
1
60
0
100
AcDbSpline
70
4
71
3
72
12
73
8
40
0
40
0
40
0
40
0
40
0.290159870716211
40
0.523091784654943
40
0.757492236289122
40
0.960807541083635
40
1
40
1
40
1
40
1
41
1
10
0.417769052838327
20
-18.5480541955755
30
0
41
1
10
0.42991046594161
20
-18.5585933804816
30
0
41
1
10
0.449840581024949
20
-18.574150988373
30
0
41
1
10
0.475556378854451
20
-18.5897081423536
30
0
41
1
10
0.490787346802198
20
-18.5927962984328
30
0
41
1
10
0.494762238541133
20
-18.5872056610337
30
0
41
1
10
0.495024555882928
20
-18.5827045515181
30
0
41
1
10
0.495018952983833
20
-18.5819274230138
30
0
0
SPLINE
5
C1
100
AcDbEntity
8
1
62
256
6
ByLayer
370
18
48
1
60
0
100
AcDbSpline
70
4
71
1
72
4
73
2
40
0
40
0
40
1
40
1
41
1
10
0.417769052838329
20
-18.4504116341647
30
0
41
1
10
-0.274980947161681
20
-17.5484141036258
30
0
0
SPLINE
5
C2
100
AcDbEntity
8
1
62
256
6
ByLayer
370
18
48
1
60
0
100
AcDbSpline
70
4
71
1
72
4
73
2
40
0
40
0
40
1
40
1
41
1
10
-0.274980947161682
20
-17.3625933336097
30
0
41
1
10
0.417769052838328
20
-17.9424557186763
30
0
0
SPLINE
5
C3
100
AcDbEntity
8
1
62
256
6
ByLayer
370
18
48
1
60
0
100
AcDbSpline
70
4
71
3
72
12
73
8
40
0
40
0
40
0
40
0
40
0.267371396409718
40
0.488927419680071
40
0.711771557157306
40
0.907341400719602
40
1
40
1
40
1
40
1
41
1
10
0.417769052838328
20
-17.9424557186763
30
0
41
1
10
0.429014041258902
20
-17.9520250685358
30
0
41
1
10
0.447959477839151
20
-17.9662102654667
30
0
41
1
10
0.473052001474996
20
-17.9799157580017
30
0
41
1
10
0.488814334940573
20
-17.9816451440202
30
0
41
1
10
0.49435533969216
20
-17.97466207223
30
0
41
1
10
0.49505652893038
20
-17.9684327247418
30
0
41
1
10
0.495018346453403
20
-17.9661533222891
30
0
0
SPLINE
5
C4
100
AcDbEntity
8
1
62
256
6
ByLayer
370
18
48
1
60
0
100
AcDbSpline
70
4
71
1
72
4
73
2
40
0
40
0
40
1
40
1
41
1
10
0.41776905283833
20
-17.8189866910402
30
0
41
1
10
-0.274980947161681
20
-16.8477166577768
30
0
0
SPLINE
5
C5
100
AcDbEntity
8
1
62
256
6
ByLayer
370
18
48
1
60
0
100
AcDbSpline
70
4
71
1
72
4
73
2
40
0
40
0
40
1
40
1
41
1
10
-0.274980947161678
20
-16.6150813491811
30
0
41
1
10
0.417769052838328
20
-17.1852587990788
30
0
0
SPLINE
5
C6
100
AcDbEntity
8
1
62
256
6
ByLayer
370
18
48
1
60
0
100
AcDbSpline
70
4
71
3
72
12
73
8
40
0
40
0
40
0
40
0
40
0.244178870315341
40
0.452817936347631
40
0.662581387792233
40
0.848648226101395
40
1
40
1
40
1
40
1
41
1
10
0.417769052838329
20
-17.1852587990788
30
0
41
1
10
0.428109139952612
20
-17.1939428060001
30
0
41
1
10
0.445987085987392
20
-17.2068817456337
30
0
41
1
10
0.470294841179046
20
-17.2189718957528
30
0
41
1
10
0.486451558039971
20
-17.2195675444991
30
0
41
1
10
0.493835330498279
20
-17.2110429414187
30
0
41
1
10
0.495131123787151
20
-17.2026815968936
30
0
41
1
10
0.495017682745678
20
-17.1981876816922
30
0
0
SPLINE
5
C7
100
AcDbEntity
8
1
62
256
6
ByLayer
370
18
48
1
60
0
100
AcDbSpline
70
4
71
1
72
4
73
2
40
0
40
0
40
1
40
1
41
1
10
0.417769052838329
20
-17.0327591399871
30
0
41
1
10
-0.27498094716168
20
-15.9763661578326
30
0
0
SPLINE
5
C8
100
AcDbEntity
8
1
62
256
6
ByLayer
370
18
48
1
60
0
100
AcDbSpline
70
4
71
1
72
4
73
2
40
0
40
0
40
1
40
1
41
1
10
-0.27498094716168
20
-15.6895573300047
30
0
41
1
10
0.417769052838328
20
-16.2552921464356
30
0
0
SPLINE
5
C9
100
AcDbEntity
8
1
62
256
6
ByLayer
370
18
48
1
60
0
100
AcDbSpline
70
4
71
3
72
12
73
8
40
0
40
0
40
0
40
0
40
0.220415298198537
40
0.444403441332542
40
0.63933718614956
40
0.814232281042785
40
1
40
1
40
1
40
1
41
1
10
0.417769052838328
20
-16.2552921464356
30
0
41
1
10
0.427210760179843
20
-16.2631989962499
30
0
41
1
10
0.445084268785054
20
-16.2758355015428
30
0
41
1
10
0.469522810731452
20
-16.2865135421359
30
0
41
1
10
0.485623015559069
20
-16.2844130448586
30
0
41
1
10
0.493593685298325
20
-16.2734519385628
30
0
41
1
10
0.495209784369645
20
-16.2629984992168
30
0
41
1
10
0.495017466611259
20
-16.2565244318501
30
0
0
SPLINE
5
CA
100
AcDbEntity
8
1
62
256
6
ByLayer
370
18
48
1
60
0
100
AcDbSpline
70
4
71
1
72
4
73
2
40
0
40
0
40
1
40
1
41
1
10
0.417769052838329
20
-16.0690224079176
30
0
41
1
10
-0.27498094716168
20
-14.9044622391262
30
0
0
SPLINE
5
CB
100
AcDbEntity
8
1
62
256
6
ByLayer
370
18
48
1
60
0
100
AcDbSpline
70
4
71
1
72
4
73
2
40
0
40
0
40
1
40
1
41
1
10
-0.274980947161678
20
-14.5520957316498
30
0
41
1
10
0.417769052838328
20
-15.1207118066784
30
0
0
SPLINE
5
CC
100
AcDbEntity
8
1
62
256
6
ByLayer
370
18
48
1
60
0
100
AcDbSpline
70
4
71
3
72
13
73
9
40
0
40
0
40
0
40
0
40
0.196412695547984
40
0.396089685891044
40
0.574517288733734
40
0.735509001278956
40
0.993202051078307
40
1
40
1
40
1
40
1
41
1
10
0.417769052838328
20
-15.1207118066784
30
0
41
1
10
0.426246985596054
20
-15.1278710154394
30
0
41
1
10
0.44252816444434
20
-15.1392764392277
30
0
41
1
10
0.465553000931105
20
-15.1488517882924
30
0
41
1
10
0.481831841262985
20
-15.1465153743715
30
0
41
1
10
0.492706585399915
20
-15.1341637754524
30
0
41
1
10
0.494985792780587
20
-15.1195181660566
30
0
41
1
10
0.49501933850006
20
-15.1094831013062
30
0
41
1
10
0.495019037633931
20
-15.10922412036
30
0
0
SPLINE
5
CD
100
AcDbEntity
8
1
62
256
6
ByLayer
370
18
48
1
60
0
100
AcDbSpline
70
4
71
1
72
4
73
2
40
0
40
0
40
1
40
1
41
1
10
0.417769052838329
20
-14.893356853695
30
0
41
1
10
-0.274980947161676
20
-13.5846131216882
30
0
0
SPLINE
5
CE
100
AcDbEntity
8
1
62
256
6
ByLayer
370
18
48
1
60
0
100
AcDbSpline
70
4
71
1
72
4
73
2
40
0
40
0
40
1
40
1
41
1
10
-0.274980947161685
20
-13.147804803643
30
0
41
1
10
0.417769052838327
20
-13.7308895675145
30
0
0
SPLINE
5
CF
100
AcDbEntity
8
1
62
256
6
ByLayer
370
18
48
1
60
0
100
AcDbSpline
70
4
71
3
72
13
73
9
40
0
40
0
40
0
40
0
40
0.168325436698785
40
0.339594211223451
40
0.496028140506282
40
0.636716544527464
40
0.869579567596664
40
1
40
1
40
1
40
1
41
1
10
0.417769052838327
20
-13.7308895675145
30
0
41
1
10
0.42524079381829
20
-13.7373791359493
30
0
41
1
10
0.439820733124389
20
-13.747729303562
30
0
41
1
10
0.461165780194081
20
-13.7565211418733
30
0
41
1
10
0.477275026603203
20
-13.7542874299881
30
0
41
1
10
0.489365228240467
20
-13.7424571042855
30
0
41
1
10
0.494286116291214
20
-13.7237005455213
30
0
41
1
10
0.495147974808313
20
-13.7083359935601
30
0
41
1
10
0.495014400966707
20
-13.7024102783317
30
0
0
SPLINE
5
D0
100
AcDbEntity
8
1
62
256
6
ByLayer
370
18
48
1
60
0
100
AcDbSpline
70
4
71
1
72
4
73
2
40
0
40
0
40
1
40
1
41
1
10
0.417769052838328
20
-13.4503039220997
30
0
41
1
10
-0.274980947161681
20
-11.9348411256433
30
0
0
SPLINE
5
D1
100
AcDbEntity
8
1
62
256
6
ByLayer
370
18
48
1
60
0
100
AcDbSpline
70
4
71
1
72
4
73
2
40
0
40
0
40
1
40
1
41
1
10
-0.274980947161681
20
-11.3783149950375
30
0
41
1
10
0.417769052838328
20
-11.9974468571414
30
0
0
SPLINE
5
D2
100
AcDbEntity
8
1
62
256
6
ByLayer
370
18
48
1
60
0
100
AcDbSpline
70
4
71
3
72
13
73
9
40
0
40
0
40
0
40
0
40
0.140458412591928
40
0.283607451864956
40
0.415587000826212
40
0.532105805580507
40
0.730517680509327
40
1
40
1
40
1
40
1
41
1
10
0.417769052838328
20
-11.9974468571414
30
0
41
1
10
0.424187455742239
20
-12.0033813759717
30
0
41
1
10
0.436953136393636
20
-12.0129089322955
30
0
41
1
10
0.456326335839109
20
-12.0213176249477
30
0
41
1
10
0.471810602823897
20
-12.0195004062484
30
0
41
1
10
0.484485192432943
20
-12.0087470906603
30
0
41
1
10
0.493295353470825
20
-11.9850084491623
30
0
41
1
10
0.495658478449332
20
-11.962705361067
30
0
41
1
10
0.495014683355142
20
-11.9479548972792
30
0
0
SPLINE
5
D3
100
AcDbEntity
8
1
62
256
6
ByLayer
370
18
48
1
60
0
100
AcDbSpline
70
4
71
1
72
4
73
2
40
0
40
0
40
1
40
1
41
1
10
0.417769052838331
20
-11.6408450218271
30
0
41
1
10
-0.274980947161678
20
-9.78974727573433
30
0
0
SPLINE
5
D4
100
AcDbEntity
8
1
62
256
6
ByLayer
370
18
48
1
60
0
100
AcDbSpline
70
4
71
1
72
4
73
2
40
0
40
0
40
1
40
1
41
1
10
-0.274980947161677
20
-9.03146350808623
30
0
41
1
10
0.417769052838328
20
-9.73858993204796
30
0
0
SPLINE
5
D5
100
AcDbEntity
8
1
62
256
6
ByLayer
370
18
48
1
60
0
100
AcDbSpline
70
4
71
3
72
14
73
10
40
0
40
0
40
0
40
0
40
0.129429267888701
40
0.221097663797353
40
0.313281854945327
40
0.396940868620652
40
0.537368325949868
40
0.805640009240472
40
1
40
1
40
1
40
1
41
1
10
0.417769052838328
20
-9.73858993204796
30
0
41
1
10
0.424119582498445
20
-9.74535148228447
30
0
41
1
10
0.435072232651098
20
-9.75422181224287
30
0
41
1
10
0.451622828463514
20
-9.76174967204781
30
0
41
1
10
0.464601002214435
20
-9.76109457934958
30
0
41
1
10
0.476612178721473
20
-9.75296685267098
30
0
41
1
10
0.488765244260704
20
-9.73080464306008
30
0
41
1
10
0.494177736894598
20
-9.69502253737939
30
0
41
1
10
0.495360693748382
20
-9.6662829946238
30
0
41
1
10
0.494993055987051
20
-9.65357904105439
30
0
0
SPLINE
5
D6
100
AcDbEntity
8
1
62
256
6
ByLayer
370
18
48
1
60
0
100
AcDbSpline
70
4
71
2
72
6
73
3
40
0
40
0
40
0
40
1
40
1
40
1
41
1
10
0.417769052838313
20
-9.25245210998372
30
0
41
1
10
0.0230907318831662
20
-7.98794826539794
30
0
41
1
10
-0.274980947161681
20
-6.68863743606645
30
0
0
SPLINE
5
D7
100
AcDbEntity
8
1
62
256
6
ByLayer
370
18
48
1
60
0
100
AcDbSpline
70
4
71
1
72
4
73
2
40
0
40
0
40
1
40
1
41
1
10
-0.27498094716168
20
-5.40079754013152
30
0
41
1
10
0.417769052838328
20
-6.42195738379196
30
0
0
SPLINE
5
D8
100
AcDbEntity
8
1
62
256
6
ByLayer
370
18
48
1
60
0
100
AcDbSpline
70
4
71
3
72
15
73
11
40
0
40
0
40
0
40
0
40
0.083537972617845
40
0.136085681651603
40
0.178778134045194
40
0.221570240555054
40
0.276151717808921
40
0.370325690451893
40
0.653257150767187
40
1
40
1
40
1
40
1
41
1
10
0.417769052838328
20
-6.42195738379196
30
0
41
1
10
0.42231349128823
20
-6.42880230136648
30
0
41
1
10
0.430354025179038
20
-6.43795341909686
30
0
41
1
10
0.44245113448035
20
-6.44710392819629
30
0
41
1
10
0.452290788031047
20
-6.44988716769627
30
0
41
1
10
0.461509647643906
20
-6.44773291361342
30
0
41
1
10
0.471440070800439
20
-6.43848978805187
30
0
41
1
10
0.485828027641782
20
-6.40706023583718
30
0
41
1
10
0.493654576324354
20
-6.34149045908665
30
0
41
1
10
0.496443456823223
20
-6.28411129506535
30
0
41
1
10
0.494912553115882
20
-6.25068582796399
30
0
0
SPLINE
5
D9
100
AcDbEntity
8
1
62
256
6
ByLayer
370
18
48
1
60
0
100
AcDbSpline
70
4
71
3
72
10
73
6
40
0
40
0
40
0
40
0
40
0.443378987617607
40
0.881217574318698
40
1
40
1
40
1
40
1
41
1
10
0.417769052838331
20
5.58627490129946
30
0
41
1
10
0.436721223729003
20
5.68712993326974
30
0
41
1
10
0.467055797389841
20
5.8864964875609
30
0
41
1
10
0.491528783267265
20
6.11313242749412
30
0
41
1
10
0.494674046670067
20
6.23641466382585
30
0
41
1
10
0.495008049660129
20
6.2626526691103
30
0
0
SPLINE
5
DA
100
AcDbEntity
8
1
62
256
6
ByLayer
370
18
48
1
60
0
100
AcDbSpline
70
4
71
1
72
4
73
2
40
0
40
0
40
1
40
1
41
1
10
0.417769052838328
20
6.42195738379196
30
0
41
1
10
-0.27498094716168
20
5.40079754013152
30
0
0
SPLINE
5
DB
100
AcDbEntity
8
1
62
256
6
ByLayer
370
18
48
1
60
0
100
AcDbSpline
70
4
71
2
72
6
73
3
40
0
40
0
40
0
40
1
40
1
40
1
41
1
10
-0.274980947161681
20
6.68863743606645
30
0
41
1
10
0.0230881528181094
20
7.98794667408765
30
0
41
1
10
0.417769052838331
20
9.25245210998371
30
0
0
SPLINE
5
DC
100
AcDbEntity
8
1
62
256
6
ByLayer
370
18
48
1
60
0
100
AcDbSpline
70
4
71
2
72
6
73
3
40
0
40
0
40
0
40
1
40
1
40
1
41
1
10
0.417769052838331
20
9.25245210998371
30
0
41
1
10
0.487220615828637
20
9.46115354192762
30
0
41
1
10
0.495005724114992
20
9.65504309770563
30
0
0
SPLINE
5
DD
100
AcDbEntity
8
1
62
256
6
ByLayer
370
18
48
1
60
0
100
AcDbSpline
70
4
71
1
72
4
73
2
40
0
40
0
40
1
40
1
41
1
10
0.417769052838328
20
9.73858993204797
30
0
41
1
10
-0.274980947161677
20
9.03146350808624
30
0
0
SPLINE
5
DE
100
AcDbEntity
8
1
62
256
6
ByLayer
370
18
48
1
60
0
100
AcDbSpline
70
4
71
1
72
4
73
2
40
0
40
0
40
1
40
1
41
1
10
-0.274980947161678
20
9.78974727573433
30
0
41
1
10
0.417769052838333
20
11.6408450218271
30
0
0
SPLINE
5
DF
100
AcDbEntity
8
1
62
256
6
ByLayer
370
18
48
1
60
0
100
AcDbSpline
70
4
71
2
72
6
73
3
40
0
40
0
40
0
40
1
40
1
40
1
41
1
10
0.417769052838333
20
11.6408450218271
30
0
41
1
10
0.490143340510963
20
11.8067040250854
30
0
41
1
10
0.495017580341233
20
11.9486022409847
30
0
0
SPLINE
5
E0
100
AcDbEntity
8
1
62
256
6
ByLayer
370
18
48
1
60
0
100
AcDbSpline
70
4
71
1
72
4
73
2
40
0
40
0
40
1
40
1
41
1
10
0.417769052838328
20
11.9974468571414
30
0
41
1
10
-0.274980947161681
20
11.3783149950375
30
0
0
SPLINE
5
E1
100
AcDbEntity
8
1
62
256
6
ByLayer
370
18
48
1
60
0
100
AcDbSpline
70
4
71
1
72
4
73
2
40
0
40
0
40
1
40
1
41
1
10
-0.274980947161681
20
11.9348411256433
30
0
41
1
10
0.417769052838328
20
13.4503039220997
30
0
0
SPLINE
5
E2
100
AcDbEntity
8
1
62
256
6
ByLayer
370
18
48
1
60
0
100
AcDbSpline
70
4
71
2
72
6
73
3
40
0
40
0
40
0
40
1
40
1
40
1
41
1
10
0.417769052838328
20
13.4503039220997
30
0
41
1
10
0.487828043903082
20
13.5883977468308
30
0
41
1
10
0.495018122658739
20
13.7031049620542
30
0
0
SPLINE
5
E3
100
AcDbEntity
8
1
62
256
6
ByLayer
370
18
48
1
60
0
100
AcDbSpline
70
4
71
1
72
4
73
2
40
0
40
0
40
1
40
1
41
1
10
0.417769052838327
20
13.7308895675145
30
0
41
1
10
-0.274980947161685
20
13.147804803643
30
0
0
SPLINE
5
E4
100
AcDbEntity
8
1
62
256
6
ByLayer
370
18
48
1
60
0
100
AcDbSpline
70
4
71
1
72
4
73
2
40
0
40
0
40
1
40
1
41
1
10
-0.274980947161676
20
13.5846131216882
30
0
41
1
10
0.417769052838329
20
14.893356853695
30
0
0
SPLINE
5
E5
100
AcDbEntity
8
1
62
256
6
ByLayer
370
18
48
1
60
0
100
AcDbSpline
70
4
71
3
72
10
73
6
40
0
40
0
40
0
40
0
40
0.581207995193012
40
0.840987758236407
40
1
40
1
40
1
40
1
41
1
10
0.417769052838329
20
14.893356853695
30
0
41
1
10
0.443453948114778
20
14.9389494405673
30
0
41
1
10
0.471226019902128
20
15.001213929127
30
0
41
1
10
0.49196653360045
20
15.0725518361314
30
0
41
1
10
0.494663456190024
20
15.0986147475395
30
0
41
1
10
0.495013209330121
20
15.1081403263394
30
0
0
SPLINE
5
E6
100
AcDbEntity
8
1
62
256
6
ByLayer
370
18
48
1
60
0
100
AcDbSpline
70
4
71
1
72
4
73
2
40
0
40
0
40
1
40
1
41
1
10
0.417769052838328
20
15.1207118066784
30
0
41
1
10
-0.274980947161678
20
14.5520957316498
30
0
0
SPLINE
5
E7
100
AcDbEntity
8
1
62
256
6
ByLayer
370
18
48
1
60
0
100
AcDbSpline
70
4
71
1
72
4
73
2
40
0
40
0
40
1
40
1
41
1
10
-0.27498094716168
20
14.9044622391262
30
0
41
1
10
0.417769052838329
20
16.0690224079176
30
0
0
SPLINE
5
E8
100
AcDbEntity
8
1
62
256
6
ByLayer
370
18
48
1
60
0
100
AcDbSpline
70
4
71
3
72
10
73
6
40
0
40
0
40
0
40
0
40
0.611067211161561
40
0.863475031845136
40
1
40
1
40
1
40
1
41
1
10
0.417769052838329
20
16.0690224079176
30
0
41
1
10
0.444989872662871
20
16.1122915907623
30
0
41
1
10
0.47304712302539
20
16.1684906505594
30
0
41
1
10
0.49259922325039
20
16.2296202629347
30
0
41
1
10
0.49476869993414
20
16.2495010646213
30
0
41
1
10
0.495014172909478
20
16.2561550999891
30
0
0
SPLINE
5
E9
100
AcDbEntity
8
1
62
256
6
ByLayer
370
18
48
1
60
0
100
AcDbSpline
70
4
71
1
72
4
73
2
40
0
40
0
40
1
40
1
41
1
10
0.417769052838328
20
16.2552921464356
30
0
41
1
10
-0.27498094716168
20
15.6895573300047
30
0
0
SPLINE
5
EA
100
AcDbEntity
8
1
62
256
6
ByLayer
370
18
48
1
60
0
100
AcDbSpline
70
4
71
1
72
4
73
2
40
0
40
0
40
1
40
1
41
1
10
-0.27498094716168
20
15.9763661578326
30
0
41
1
10
0.417769052838329
20
17.0327591399871
30
0
0
SPLINE
5
EB
100
AcDbEntity
8
1
62
256
6
ByLayer
370
18
48
1
60
0
100
AcDbSpline
70
4
71
3
72
10
73
6
40
0
40
0
40
0
40
0
40
0.566339247675561
40
0.835361484083272
40
1
40
1
40
1
40
1
41
1
10
0.417769052838329
20
17.0327591399871
30
0
41
1
10
0.442785201531566
20
17.069230810085
30
0
41
1
10
0.470576790646864
20
17.1182569308298
30
0
41
1
10
0.492023568902185
20
17.1729418502093
30
0
41
1
10
0.494726090431314
20
17.191670849693
30
0
41
1
10
0.495018322919192
20
17.1982880588623
30
0
0
SPLINE
5
EC
100
AcDbEntity
8
1
62
256
6
ByLayer
370
18
48
1
60
0
100
AcDbSpline
70
4
71
1
72
4
73
2
40
0
40
0
40
1
40
1
41
1
10
0.417769052838328
20
17.1852587990788
30
0
41
1
10
-0.274980947161678
20
16.6150813491811
30
0
0
SPLINE
5
ED
100
AcDbEntity
8
1
62
256
6
ByLayer
370
18
48
1
60
0
100
AcDbSpline
70
4
71
1
72
4
73
2
40
0
40
0
40
1
40
1
41
1
10
-0.274980947161681
20
16.8477166577768
30
0
41
1
10
0.41776905283833
20
17.8189866910402
30
0
0
SPLINE
5
EE
100
AcDbEntity
8
1
62
256
6
ByLayer
370
18
48
1
60
0
100
AcDbSpline
70
4
71
3
72
10
73
6
40
0
40
0
40
0
40
0
40
0.530125663831069
40
0.806889801644592
40
1
40
1
40
1
40
1
41
1
10
0.41776905283833
20
17.8189866910402
30
0
41
1
10
0.440965525133958
20
17.8503493402849
30
0
41
1
10
0.468283492972052
20
17.8934804143754
30
0
41
1
10
0.491345498082808
20
17.9427388473026
30
0
41
1
10
0.494647597830854
20
17.9599239234867
30
0
41
1
10
0.495018936045673
20
17.9662812767757
30
0
0
SPLINE
5
EF
100
AcDbEntity
8
1
62
256
6
ByLayer
370
18
48
1
60
0
100
AcDbSpline
70
4
71
1
72
4
73
2
40
0
40
0
40
1
40
1
41
1
10
0.417769052838328
20
17.9424557186763
30
0
41
1
10
-0.274980947161682
20
17.3625933336097
30
0
0
SPLINE
5
F0
100
AcDbEntity
8
1
62
256
6
ByLayer
370
18
48
1
60
0
100
AcDbSpline
70
4
71
1
72
4
73
2
40
0
40
0
40
1
40
1
41
1
10
-0.274980947161681
20
17.5484141036258
30
0
41
1
10
0.417769052838329
20
18.4504116341647
30
0
0
SPLINE
5
F1
100
AcDbEntity
8
1
62
256
6
ByLayer
370
18
48
1
60
0
100
AcDbSpline
70
4
71
3
72
11
73
7
40
0
40
0
40
0
40
0
40
0.498918827255265
40
0.77825078803488
40
0.99837207200476
40
1
40
1
40
1
40
1
41
1
10
0.417769052838329
20
18.4504116341647
30
0
41
1
10
0.439407629706696
20
18.4777746933585
30
0
41
1
10
0.466292087044939
20
18.5161964701585
30
0
41
1
10
0.490317730730936
20
18.5602207397339
30
0
41
1
10
0.495003001387578
20
18.5766424711502
30
0
41
1
10
0.495019028696342
20
18.5819460325399
30
0
41
1
10
0.495019051817441
20
18.5819848845437
30
0
0
SPLINE
5
F2
100
AcDbEntity
8
1
62
256
6
ByLayer
370
18
48
1
60
0
100
AcDbSpline
70
4
71
1
72
4
73
2
40
0
40
0
40
1
40
1
41
1
10
0.417769052838328
20
18.5480541955755
30
0
41
1
10
-0.274980947161685
20
17.9543411546264
30
0
0
SPLINE
5
F3
100
AcDbEntity
8
1
62
256
6
ByLayer
370
18
48
1
60
0
100
AcDbSpline
70
4
71
1
72
4
73
2
40
0
40
0
40
1
40
1
41
1
10
-0.274980947161676
20
18.0982904862291
30
0
41
1
10
0.417769052838333
20
18.9425207468482
30
0
0
SPLINE
5
F4
100
AcDbEntity
8
1
62
256
6
ByLayer
370
18
48
1
60
0
100
AcDbSpline
70
4
71
3
72
11
73
7
40
0
40
0
40
0
40
0
40
0.312204579200633
40
0.554778069572313
40
0.799010020663223
40
1
40
1
40
1
40
1
41
1
10
0.417769052838335
20
19.0165431050797
30
0
41
1
10
0.430808109449647
20
19.0281494554445
30
0
41
1
10
0.451657354096234
20
19.0452134913141
30
0
41
1
10
0.477850379326307
20
19.0628860798562
30
0
41
1
10
0.492275488574621
20
19.0674031674607
30
0
41
1
10
0.495004129630077
20
19.0633605763595
30
0
41
1
10
0.49501904082595
20
19.0601616441359
30
0
0
SPLINE
5
F5
100
AcDbEntity
8
1
62
256
6
ByLayer
370
18
48
1
60
0
100
AcDbSpline
70
4
71
1
72
4
73
2
40
0
40
0
40
1
40
1
41
1
10
0.417769052838335
20
19.0165431050797
30
0
41
1
10
-0.274980947161671
20
18.4053548003051
30
0
0
SPLINE
5
F6
100
AcDbEntity
8
1
62
256
6
ByLayer
370
18
48
1
60
0
100
AcDbSpline
70
4
71
1
72
4
73
2
40
0
40
0
40
1
40
1
41
1
10
-0.274980947161679
20
18.5107914335267
30
0
41
1
10
0.417769052838333
20
19.3059704500817
30
0
0
SPLINE
5
F7
100
AcDbEntity
8
1
62
256
6
ByLayer
370
18
48
1
60
0
100
AcDbSpline
70
4
71
3
72
11
73
7
40
0
40
0
40
0
40
0
40
0.333404280919799
40
0.583873542321487
40
0.836195172456426
40
1
40
1
40
1
40
1
41
1
10
0.417769052838334
20
19.3578797623268
30
0
41
1
10
0.431716278777989
20
19.370667450623
30
0
41
1
10
0.453430697270204
20
19.389408553339
30
0
41
1
10
0.47997166348978
20
19.4094083216302
30
0
41
1
10
0.492876370840708
20
19.4153453775065
30
0
41
1
10
0.495003092980699
20
19.4129051235066
30
0
41
1
10
0.495018912131052
20
19.4110492405548
30
0
0
SPLINE
5
F8
100
AcDbEntity
8
1
62
256
6
ByLayer
370
18
48
1
60
0
100
AcDbSpline
70
4
71
1
72
4
73
2
40
0
40
0
40
1
40
1
41
1
10
0.417769052838334
20
19.3578797623268
30
0
41
1
10
-0.274980947161677
20
18.7258058398969
30
0
0
SPLINE
5
F9
100
AcDbEntity
8
1
62
256
6
ByLayer
370
18
48
1
60
0
100
AcDbSpline
70
4
71
1
72
4
73
2
40
0
40
0
40
1
40
1
41
1
10
-0.274980947161677
20
18.7949642316001
30
0
41
1
10
0.417769052838333
20
19.5479384538136
30
0
0
SPLINE
5
FA
100
AcDbEntity
8
1
62
256
6
ByLayer
370
18
48
1
60
0
100
AcDbSpline
70
4
71
3
72
11
73
7
40
0
40
0
40
0
40
0
40
0.354830793406261
40
0.612263346045275
40
0.828866243973873
40
1
40
1
40
1
40
1
41
1
10
0.417769052838334
20
19.5787156401549
30
0
41
1
10
0.432644497461445
20
19.5928206169178
30
0
41
1
10
0.455180619597516
20
19.6134267737041
30
0
41
1
10
0.480628530692741
20
19.6349036379262
30
0
41
1
10
0.492797023264304
20
19.6430720545514
30
0
41
1
10
0.494966507675676
20
19.6426666977659
30
0
41
1
10
0.495018976326913
20
19.6415301624391
30
0
0
SPLINE
5
FB
100
AcDbEntity
8
1
62
256
6
ByLayer
370
18
48
1
60
0
100
AcDbSpline
70
4
71
1
72
4
73
2
40
0
40
0
40
1
40
1
41
1
10
0.417769052838334
20
19.5787156401549
30
0
41
1
10
-0.27498094716168
20
18.9223286987072
30
0
0
SPLINE
5
FC
100
AcDbEntity
8
1
62
256
6
ByLayer
370
18
48
1
60
0
100
AcDbSpline
70
4
71
1
72
4
73
2
40
0
40
0
40
1
40
1
41
1
10
-0.274980947161672
20
18.9565809532923
30
0
41
1
10
0.417769052838333
20
19.6729077812289
30
0
0
SPLINE
5
FD
100
AcDbEntity
8
1
62
256
6
ByLayer
370
18
48
1
60
0
100
AcDbSpline
70
4
71
3
72
11
73
7
40
0
40
0
40
0
40
0
40
0.433066977586316
40
0.682518433299619
40
0.933821894363661
40
1
40
1
40
1
40
1
41
1
10
0.417769052838333
20
19.683107055122
30
0
41
1
10
0.436250599282237
20
19.7013066340392
30
0
41
1
10
0.460631573857435
20
19.7249771680993
30
0
41
1
10
0.486490579631586
20
19.7493248184384
30
0
41
1
10
0.494297970185596
20
19.7559172239669
30
0
41
1
10
0.495012587557779
20
19.7559150791634
30
0
41
1
10
0.495019052488882
20
19.7557692277595
30
0
0
SPLINE
5
FE
100
AcDbEntity
8
1
62
256
6
ByLayer
370
18
48
1
60
0
100
AcDbSpline
70
4
71
1
72
4
73
2
40
0
40
0
40
1
40
1
41
1
10
0.417769052838333
20
19.6831070551219
30
0
41
1
10
-0.274980947161675
20
18.998769497268
30
0
0
SPLINE
5
FF
100
AcDbEntity
8
1
62
256
6
ByLayer
370
18
48
1
60
0
100
AcDbSpline
70
4
71
3
72
13
73
9
40
0
40
0
40
0
40
0
40
0.199131582083089
40
0.39960144878056
40
0.604506662782528
40
0.707777966654108
40
0.811050407618142
40
1
40
1
40
1
40
1
41
1
10
0.417769052838332
20
-5.58627490129946
30
0
41
1
10
0.28312976124423
20
-4.85376548100869
30
0
41
1
10
0.066300284552523
20
-3.37677572278425
30
0
41
1
10
-0.103411137307885
20
-1.11418873365946
30
0
41
1
10
-0.101722440997362
20
0.796231821071228
30
0
41
1
10
-0.0122875865617507
20
2.33645826676754
30
0
41
1
10
0.129645399984663
20
3.81159037635307
30
0
41
1
10
0.290285156703381
20
4.89161363618701
30
0
41
1
10
0.417769052838331
20
5.58627490129946
30
0
0
SPLINE
5
100
100
AcDbEntity
8
1
62
256
6
ByLayer
370
18
48
1
60
0
100
AcDbSpline
70
4
71
3
72
12
73
8
40
0
40
0
40
0
40
0
40
0.078896234157816
40
0.174855325788811
40
0.319415619274978
40
0.575467975297674
40
1
40
1
40
1
40
1
41
1
10
5.9
20
10.5356537528527
30
0
41
1
10
5.87401822415026
20
10.5350096732059
30
0
41
1
10
5.81951418978735
20
10.5272269047559
30
0
41
1
10
5.73009623691374
20
10.4816695128181
30
0
41
1
10
5.62676621382843
20
10.3776850023976
30
0
41
1
10
5.52663662742725
20
10.1656603432305
30
0
41
1
10
5.49482236376875
20
9.98301121162458
30
0
41
1
10
5.5
20
9.86103442849684
30
0
0
SPLINE
5
101
100
AcDbEntity
8
1
62
256
6
ByLayer
370
18
48
1
60
0
100
AcDbSpline
70
4
71
3
72
13
73
9
40
0
40
0
40
0
40
0
40
0.266635528384617
40
0.532216692218781
40
0.760345697724156
40
0.858989892785693
40
0.958531783544995
40
1
40
1
40
1
40
1
41
1
10
5.5
20
-9.86103442849684
30
0
41
1
10
5.4985537585961
20
-9.93579688086775
30
0
41
1
10
5.51270711605932
20
-10.081490961046
30
0
41
1
10
5.5742482721234
20
-10.2841904269631
30
0
41
1
10
5.66783994141579
20
-10.4281053807446
30
0
41
1
10
5.76983993106122
20
-10.5056810050226
30
0
41
1
10
5.84213415401896
20
-10.5321971282224
30
0
41
1
10
5.88660124172425
20
-10.535546133925
30
0
41
1
10
5.89999999999994
20
-10.535653752853
30
0
0
SPLINE
5
102
100
AcDbEntity
8
1
62
256
6
ByLayer
370
18
48
1
60
0
100
AcDbSpline
70
4
71
2
72
6
73
3
40
0
40
0
40
0
40
1
40
1
40
1
41
1
10
0.494912553115882
20
-6.25068582796399
30
0
41
1
10
0.483788078588969
20
-5.92266220926748
30
0
41
1
10
0.417769052838332
20
-5.58627490129946
30
0
0
SPLINE
5
103
100
AcDbEntity
8
1
62
256
6
ByLayer
370
18
48
1
60
0
100
AcDbSpline
70
4
71
3
72
16
73
12
40
0
40
0
40
0
40
0
40
0.245424512705523
40
0.513537548399953
40
0.613905550253211
40
0.714927859217337
40
0.764850960303833
40
0.815224948437945
40
0.859663544878831
40
0.920931653658485
40
1
40
1
40
1
40
1
41
1
10
0.495008049660129
20
6.2626526691103
30
0
41
1
10
0.49543143387719
20
6.28494489493824
30
0
41
1
10
0.494020919762095
20
6.33040117278339
30
0
41
1
10
0.489134722168983
20
6.38394903223232
30
0
41
1
10
0.479571413608808
20
6.42097631435352
30
0
41
1
10
0.471417369188871
20
6.43845856052273
30
0
41
1
10
0.461466606748287
20
6.44770953878183
30
0
41
1
10
0.452321886288705
20
6.44999132457414
30
0
41
1
10
0.441662514001094
20
6.44677015918914
30
0
41
1
10
0.42976346578226
20
6.43726335782408
30
0
41
1
10
0.421883224073053
20
6.42810188140019
30
0
41
1
10
0.417769052838328
20
6.42195738379196
30
0
0
SPLINE
5
104
100
AcDbEntity
8
1
62
256
6
ByLayer
370
18
48
1
60
0
100
AcDbSpline
70
4
71
2
72
6
73
3
40
0
40
0
40
0
40
1
40
1
40
1
41
1
10
0.494993055987051
20
-9.65357904105439
30
0
41
1
10
0.486322176617886
20
-9.45984790029309
30
0
41
1
10
0.417769052838313
20
-9.25245210998372
30
0
0
SPLINE
5
105
100
AcDbEntity
8
1
62
256
6
ByLayer
370
18
48
1
60
0
100
AcDbSpline
70
4
71
3
72
15
73
11
40
0
40
0
40
0
40
0
40
0.154282132172354
40
0.45082140623466
40
0.565701934529986
40
0.681642758962966
40
0.766566505710872
40
0.851374482503405
40
0.977712737632986
40
1
40
1
40
1
40
1
41
1
10
0.495005724114992
20
9.65504309770563
30
0
41
1
10
0.49521841193456
20
9.66498506294828
30
0
41
1
10
0.494307387566052
20
9.69291721229642
30
0
41
1
10
0.489856448339017
20
9.72681410748857
30
0
41
1
10
0.477937084491507
20
9.75110874346997
30
0
41
1
10
0.466720731144996
20
9.76064775125209
30
0
41
1
10
0.453181989961635
20
9.76182240670307
30
0
41
1
10
0.43780346321145
20
9.75604257885286
30
0
41
1
10
0.425917829106047
20
9.74658305167823
30
0
41
1
10
0.418825676153843
20
9.73966148602652
30
0
41
1
10
0.417769052838328
20
9.73858993204797
30
0
0
SPLINE
5
106
100
AcDbEntity
8
1
62
256
6
ByLayer
370
18
48
1
60
0
100
AcDbSpline
70
4
71
3
72
10
73
6
40
0
40
0
40
0
40
0
40
0.0542736119902496
40
0.500893555108739
40
1
40
1
40
1
40
1
41
1
10
0.495014683355142
20
-11.9479548972792
30
0
41
1
10
0.494945616977142
20
-11.9429110157562
30
0
41
1
10
0.493598290636832
20
-11.8960659754344
30
0
41
1
10
0.471936727720343
20
-11.7920392203061
30
0
41
1
10
0.43989305319405
20
-11.6941142478677
30
0
41
1
10
0.417769052838331
20
-11.6408450218271
30
0
0
SPLINE
5
107
100
AcDbEntity
8
1
62
256
6
ByLayer
370
18
48
1
60
0
100
AcDbSpline
70
4
71
3
72
14
73
10
40
0
40
0
40
0
40
0
40
0.0763083836267671
40
0.344097953859543
40
0.500861673393739
40
0.627625067937062
40
0.75498412800676
40
0.871653194952332
40
1
40
1
40
1
40
1
41
1
10
0.495017580341233
20
11.9486022409847
30
0
41
1
10
0.495056777911373
20
11.9525675820299
30
0
41
1
10
0.49465142811323
20
11.9699874272685
30
0
41
1
10
0.49141474579059
20
11.9939317955484
30
0
41
1
10
0.480614199815814
20
12.0133598129568
30
0
41
1
10
0.467491756979993
20
12.0210093665306
30
0
41
1
10
0.45180140838702
20
12.0198004425434
30
0
41
1
10
0.434587028570337
20
12.0111492221705
30
0
41
1
10
0.4235686769317
20
12.0027702882316
30
0
41
1
10
0.417769052838328
20
11.9974468571414
30
0
0
SPLINE
5
108
100
AcDbEntity
8
1
62
256
6
ByLayer
370
18
48
1
60
0
100
AcDbSpline
70
4
71
3
72
10
73
6
40
0
40
0
40
0
40
0
40
0.170920425244164
40
0.658761055849317
40
1
40
1
40
1
40
1
41
1
10
0.495014400966707
20
-13.7024102783317
30
0
41
1
10
0.49452233517792
20
-13.6896779296128
30
0
41
1
10
0.490071227091851
20
-13.6395495167214
30
0
41
1
10
0.462734691000458
20
-13.5520301789515
30
0
41
1
10
0.432413212852834
20
-13.4804229663601
30
0
41
1
10
0.417769052838328
20
-13.4503039220997
30
0
0
SPLINE
5
109
100
AcDbEntity
8
1
62
256
6
ByLayer
370
18
48
1
60
0
100
AcDbSpline
70
4
71
3
72
14
73
10
40
0
40
0
40
0
40
0
40
0.0453074356774603
40
0.251783831469047
40
0.459987649943324
40
0.604438291225321
40
0.749126080379476
40
0.927314222315359
40
1
40
1
40
1
40
1
41
1
10
0.495018122658739
20
13.7031049620542
30
0
41
1
10
0.495031475094569
20
13.7051136979986
30
0
41
1
10
0.494846984954426
20
13.716065324138
30
0
41
1
10
0.492448247972764
20
13.7346466155561
30
0
41
1
10
0.482895991265124
20
13.7511796285662
30
0
41
1
10
0.467651328646951
20
13.7565479270909
30
0
41
1
10
0.449050547236253
20
13.7525715516043
30
0
41
1
10
0.431653668257298
20
13.742016303831
30
0
41
1
10
0.420899530822437
20
13.7335522361894
30
0
41
1
10
0.417769052838327
20
13.7308895675145
30
0
0
SPLINE
5
10A
100
AcDbEntity
8
1
62
256
6
ByLayer
370
18
48
1
60
0
100
AcDbSpline
70
4
71
3
72
13
73
9
40
0
40
0
40
0
40
0
40
0.155858711417268
40
0.347841262511577
40
0.541464699896244
40
0.710020123666761
40
0.90825345558542
40
1
40
1
40
1
40
1
41
1
10
0.495013209330121
20
15.1081403263394
30
0
41
1
10
0.495194621508985
20
15.1143648336918
30
0
41
1
10
0.494073971973232
20
15.1267485906751
30
0
41
1
10
0.487836540524189
20
15.1422799500832
30
0
41
1
10
0.473781447505148
20
15.1491629699408
30
0
41
1
10
0.453211492762798
20
15.1447958264635
30
0
41
1
10
0.433822438599082
20
15.1332661310907
30
0
41
1
10
0.421662331722986
20
15.1239437502493
30
0
41
1
10
0.417769052838328
20
15.1207118066784
30
0
0
SPLINE
5
10B
100
AcDbEntity
8
1
62
256
6
ByLayer
370
18
48
1
60
0
100
AcDbSpline
70
4
71
3
72
10
73
6
40
0
40
0
40
0
40
0
40
0.276420945672554
40
0.77526493607605
40
1
40
1
40
1
40
1
41
1
10
0.495019037633931
20
-15.10922412036
30
0
41
1
10
0.493944074812423
20
-15.0920430992382
30
0
41
1
10
0.486458955566985
20
-15.0419639949221
30
0
41
1
10
0.455062800857166
20
-14.9651257429629
30
0
41
1
10
0.427269230624782
20
-14.9105679026682
30
0
41
1
10
0.417769052838329
20
-14.893356853695
30
0
0
SPLINE
5
10C
100
AcDbEntity
8
1
62
256
6
ByLayer
370
18
48
1
60
0
100
AcDbSpline
70
4
71
3
72
13
73
9
40
0
40
0
40
0
40
0
40
0.16803748341885
40
0.360930911742835
40
0.554966676106419
40
0.729663579215292
40
0.967572054914977
40
1
40
1
40
1
40
1
41
1
10
0.495014172909478
20
16.2561550999891
30
0
41
1
10
0.495206804519077
20
16.2620290203778
30
0
41
1
10
0.493811621516541
20
16.2727364415057
30
0
41
1
10
0.486262784230974
20
16.2842902095197
30
0
41
1
10
0.470983460602162
20
16.28630830541
30
0
41
1
10
0.448775003231556
20
16.2779796805984
30
0
41
1
10
0.430266186233731
20
16.2653348246003
30
0
41
1
10
0.41911226892807
20
16.256392043379
30
0
41
1
10
0.417769052838328
20
16.2552921464356
30
0
0
SPLINE
5
10D
100
AcDbEntity
8
1
62
256
6
ByLayer
370
18
48
1
60
0
100
AcDbSpline
70
4
71
3
72
11
73
7
40
0
40
0
40
0
40
0
40
0.0599837416736161
40
0.362758206800483
40
0.863270556300798
40
1
40
1
40
1
40
1
41
1
10
0.495017466611259
20
-16.2565244318501
30
0
41
1
10
0.494965892060067
20
-16.2536539493641
30
0
41
1
10
0.49399461706865
20
-16.2358518307365
30
0
41
1
10
0.47948579176532
20
-16.1841538742432
30
0
41
1
10
0.448628602924953
20
-16.1210656732893
30
0
41
1
10
0.423446250462283
20
-16.0782777042278
30
0
41
1
10
0.417769052838329
20
-16.0690224079176
30
0
0
SPLINE
5
10E
100
AcDbEntity
8
1
62
256
6
ByLayer
370
18
48
1
60
0
100
AcDbSpline
70
4
71
3
72
13
73
9
40
0
40
0
40
0
40
0
40
0.0726146449598372
40
0.283052480026011
40
0.494760050330099
40
0.681987535447496
40
0.932773272247788
40
1
40
1
40
1
40
1
41
1
10
0.495018322919192
20
17.1982880588624
30
0
41
1
10
0.495047168052519
20
17.2003905409443
30
0
41
1
10
0.494552255637107
20
17.207966298821
30
0
41
1
10
0.489978890494959
20
17.2179411758544
30
0
41
1
10
0.475682512513313
20
17.2201097481201
30
0
41
1
10
0.453623463855364
20
17.2115406895927
30
0
41
1
10
0.433361910363019
20
17.1977771957174
30
0
41
1
10
0.420515137483969
20
17.1875288092864
30
0
41
1
10
0.417769052838329
20
17.1852587990788
30
0
0
SPLINE
5
10F
100
AcDbEntity
8
1
62
256
6
ByLayer
370
18
48
1
60
0
100
AcDbSpline
70
4
71
3
72
11
73
7
40
0
40
0
40
0
40
0
40
0.0820022554050375
40
0.373619092603621
40
0.834811089050268
40
1
40
1
40
1
40
1
41
1
10
0.495017682745678
20
-17.1981876816922
30
0
41
1
10
0.494936464333443
20
-17.1949738269857
30
0
41
1
10
0.493646905419611
20
-17.1796699655206
30
0
41
1
10
0.478955798685511
20
-17.1359807059018
30
0
41
1
10
0.449011294809037
20
-17.0808840588202
30
0
41
1
10
0.424597750904737
20
-17.0429076714705
30
0
41
1
10
0.417769052838329
20
-17.0327591399871
30
0
0
SPLINE
5
110
100
AcDbEntity
8
1
62
256
6
ByLayer
370
18
48
1
60
0
100
AcDbSpline
70
4
71
3
72
13
73
9
40
0
40
0
40
0
40
0
40
0.033085634992458
40
0.246520333618831
40
0.460945513735787
40
0.655964724959745
40
0.924629958170997
40
1
40
1
40
1
40
1
41
1
10
0.495018936045673
20
17.9662812767757
30
0
41
1
10
0.49502394675299
20
17.9670800208936
30
0
41
1
10
0.494814783588755
20
17.9727798487069
30
0
41
1
10
0.491278752100114
20
17.9806148862647
30
0
41
1
10
0.477662685456479
20
17.9811322483292
30
0
41
1
10
0.455672243719358
20
17.9711825131067
30
0
41
1
10
0.434544839639315
20
17.9561873384766
30
0
41
1
10
0.420818935457869
20
17.9450166897916
30
0
41
1
10
0.417769052838328
20
17.9424557186763
30
0
0
SPLINE
5
111
100
AcDbEntity
8
1
62
256
6
ByLayer
370
18
48
1
60
0
100
AcDbSpline
70
4
71
3
72
11
73
7
40
0
40
0
40
0
40
0
40
0.132921445010832
40
0.429667440620965
40
0.880771563620676
40
1
40
1
40
1
40
1
41
1
10
0.495018346453403
20
-17.9661533222891
30
0
41
1
10
0.494834912190327
20
-17.9618756330729
30
0
41
1
10
0.492617161853119
20
-17.9468360489268
30
0
41
1
10
0.474637013593233
20
-17.9049990160609
30
0
41
1
10
0.445106976983508
20
-17.8574363969747
30
0
41
1
10
0.422651819618511
20
-17.825695098823
30
0
41
1
10
0.41776905283833
20
-17.8189866910402
30
0
0
SPLINE
5
112
100
AcDbEntity
8
1
62
256
6
ByLayer
370
18
48
1
60
0
100
AcDbSpline
70
4
71
3
72
12
73
8
40
0
40
0
40
0
40
0
40
0.212183470973312
40
0.427043249940321
40
0.628176297405364
40
0.912012634131666
40
1
40
1
40
1
40
1
41
1
10
0.495019051817441
20
18.5819848845437
30
0
41
1
10
0.495057378206594
20
18.5863645890252
30
0
41
1
10
0.492379523108432
20
18.5920239525331
30
0
41
1
10
0.47967113344954
20
18.5910923070897
30
0
41
1
10
0.457984023416297
20
18.579733875812
30
0
41
1
10
0.436000066061619
20
18.5633629647877
30
0
41
1
10
0.42130977847427
20
18.5510948051392
30
0
41
1
10
0.417769052838328
20
18.5480541955755
30
0
0
SPLINE
5
113
100
AcDbEntity
8
1
62
256
6
ByLayer
370
18
48
1
60
0
100
AcDbSpline
70
4
71
3
72
11
73
7
40
0
40
0
40
0
40
0
40
0.180993155005783
40
0.479541370494509
40
0.920006777768646
40
1
40
1
40
1
40
1
41
1
10
0.495018952983833
20
-18.5819274230138
30
0
41
1
10
0.494709255257345
20
-18.5772206602719
30
0
41
1
10
0.491524133417352
20
-18.5629082406968
30
0
41
1
10
0.470528130479626
20
-18.5229359494775
30
0
41
1
10
0.441663033829108
20
-18.4814521478297
30
0
41
1
10
0.421020487437859
20
-18.4545773736153
30
0
41
1
10
0.417769052838329
20
-18.4504116341647
30
0
0
SPLINE
5
114
100
AcDbEntity
8
1
62
256
6
ByLayer
370
18
48
1
60
0
100
AcDbSpline
70
4
71
3
72
12
73
8
40
0
40
0
40
0
40
0
40
0.0072421353738753
40
0.189453657886103
40
0.473090870230858
40
0.881595506647758
40
1
40
1
40
1
40
1
41
1
10
0.49501904082595
20
19.0601616441359
30
0
41
1
10
0.495018706893824
20
19.0600320351238
30
0
41
1
10
0.494960457826092
20
19.0565958361154
30
0
41
1
10
0.491122324062468
20
19.0444124322721
30
0
41
1
10
0.471495034747835
20
19.0112834455396
30
0
41
1
10
0.443188338275647
20
18.9735590895504
30
0
41
1
10
0.422574567300315
20
18.9482954604475
30
0
41
1
10
0.417769052838333
20
18.9425207468482
30
0
0
SPLINE
5
115
100
AcDbEntity
8
1
62
256
6
ByLayer
370
18
48
1
60
0
100
AcDbSpline
70
4
71
3
72
12
73
8
40
0
40
0
40
0
40
0
40
0.181147915943626
40
0.394488150877205
40
0.599897991709944
40
0.896296704530398
40
1
40
1
40
1
40
1
41
1
10
0.495018930867123
20
-19.0601248367504
30
0
41
1
10
0.495033986722568
20
-19.0630189989822
30
0
41
1
10
0.492861395006724
20
-19.0668730807922
30
0
41
1
10
0.481642940804189
20
-19.0644710797826
30
0
41
1
10
0.460457259683006
20
-19.0517070064978
30
0
41
1
10
0.437650185691583
20
-19.0337642309515
30
0
41
1
10
0.421939268060938
20
-19.0202248464301
30
0
41
1
10
0.417769052838335
20
-19.0165431050797
30
0
0
SPLINE
5
116
100
AcDbEntity
8
1
62
256
6
ByLayer
370
18
48
1
60
0
100
AcDbSpline
70
4
71
3
72
12
73
8
40
0
40
0
40
0
40
0
40
0.0454074334748668
40
0.234823877653508
40
0.519276506188335
40
0.921711529061569
40
1
40
1
40
1
40
1
41
1
10
0.495018912131052
20
19.4110492405548
30
0
41
1
10
0.495008820763464
20
19.4104779548234
30
0
41
1
10
0.494589683296382
20
19.4071785261176
30
0
41
1
10
0.488902505774232
20
19.3952279105863
30
0
41
1
10
0.467395179727206
20
19.3646154507786
30
0
41
1
10
0.439841439019907
20
19.3312351407098
30
0
41
1
10
0.420920330861543
20
19.3095479932011
30
0
41
1
10
0.417769052838333
20
19.3059704500817
30
0
0
SPLINE
5
117
100
AcDbEntity
8
1
62
256
6
ByLayer
370
18
48
1
60
0
100
AcDbSpline
70
4
71
3
72
12
73
8
40
0
40
0
40
0
40
0
40
0.12352147898696
40
0.337093941524866
40
0.544237776038546
40
0.842442227735379
40
1
40
1
40
1
40
1
41
1
10
0.495018882937631
20
-19.4110452215799
30
0
41
1
10
0.495027486205694
20
-19.4124509088467
30
0
41
1
10
0.493726589283282
20
-19.41487077529
30
0
41
1
10
0.485317651188373
20
-19.4123303627552
30
0
41
1
10
0.46582134602547
20
-19.3992253327917
30
0
41
1
10
0.441799290716189
20
-19.3794004559437
30
0
41
1
10
0.424135544480011
20
-19.363688635391
30
0
41
1
10
0.417769052838334
20
-19.3578797623268
30
0
0
SPLINE
5
118
100
AcDbEntity
8
1
62
256
6
ByLayer
370
18
48
1
60
0
100
AcDbSpline
70
4
71
3
72
12
73
8
40
0
40
0
40
0
40
0
40
0.0438492450024288
40
0.237280652004037
40
0.505860339967546
40
0.878274151086574
40
1
40
1
40
1
40
1
41
1
10
0.495018976326913
20
19.6415301624391
30
0
41
1
10
0.49501193101306
20
19.6412070271447
30
0
41
1
10
0.494617384743076
20
19.6391124574557
30
0
41
1
10
0.489172876901149
20
19.6300653956302
30
0
41
1
10
0.468922499909918
20
19.6046473159082
30
0
41
1
10
0.441882537617686
20
19.5741061794874
30
0
41
1
10
0.422671231638606
20
19.5532174725772
30
0
41
1
10
0.417769052838333
20
19.5479384538136
30
0
0
SPLINE
5
119
100
AcDbEntity
8
1
62
256
6
ByLayer
370
18
48
1
60
0
100
AcDbSpline
70
4
71
3
72
12
73
8
40
0
40
0
40
0
40
0
40
0.1451622459556
40
0.353177511462482
40
0.566952553683334
40
0.895820493934326
40
1
40
1
40
1
40
1
41
1
10
0.495018918815258
20
-19.6415244059369
30
0
41
1
10
0.494997865852517
20
-19.6425064416464
30
0
41
1
10
0.493330697726306
20
-19.6431952140161
30
0
41
1
10
0.483664000906467
20
-19.6371202612249
30
0
41
1
10
0.4627084907672
20
-19.6200221417885
30
0
41
1
10
0.438866643828806
20
-19.5984968452795
30
0
41
1
10
0.421947919872097
20
-19.5826624416902
30
0
41
1
10
0.417769052838334
20
-19.5787156401549
30
0
0
SPLINE
5
11A
100
AcDbEntity
8
1
62
256
6
ByLayer
370
18
48
1
60
0
100
AcDbSpline
70
4
71
3
72
11
73
7
40
0
40
0
40
0
40
0
40
0.146302833198314
40
0.347026151045505
40
0.636103503983957
40
1
40
1
40
1
40
1
41
1
10
0.495019052488882
20
19.7557692277595
30
0
41
1
10
0.494944132903728
20
19.7553442764
30
0
41
1
10
0.493166267257286
20
19.7527524306197
30
0
41
1
10
0.482143259540043
20
19.740257650052
30
0
41
1
10
0.456813432464708
20
19.7132522411279
30
0
41
1
10
0.433011052830204
20
19.6885443395079
30
0
41
1
10
0.417769052838333
20
19.6729077812289
30
0
0
SPLINE
5
11B
100
AcDbEntity
8
1
62
256
6
ByLayer
370
18
48
1
60
0
100
AcDbSpline
70
4
71
3
72
12
73
8
40
0
40
0
40
0
40
0
40
0.126362371637192
40
0.329740758925816
40
0.595531285914318
40
0.95770386151067
40
1
40
1
40
1
40
1
41
1
10
0.495019035767837
20
-19.7557660562034
30
0
41
1
10
0.494988141209193
20
-19.7560292168173
30
0
41
1
10
0.493577086946363
20
-19.7553559864295
30
0
41
1
10
0.484047170198813
20
-19.7470555552896
30
0
41
1
10
0.460580191342835
20
-19.7249127240365
30
0
41
1
10
0.435426981544692
20
-19.7004401780682
30
0
41
1
10
0.419456232681574
20
-19.6847647909613
30
0
41
1
10
0.417769052838333
20
-19.683107055122
30
0
0
SPLINE
5
11C
100
AcDbEntity
8
1
62
256
6
ByLayer
370
18
48
1
60
0
100
AcDbSpline
70
4
71
1
72
4
73
2
40
0
40
0
40
1
40
1
41
0.500004047945697
10
-0.274981
20
-19
30
0
41
0.500004047945697
10
-0.274981
20
-18.9987694444331
30
0
0
SPLINE
5
11D
100
AcDbEntity
8
1
62
256
6
ByLayer
370
18
48
1
60
0
100
AcDbSpline
70
4
71
2
72
6
73
3
40
0
40
0
40
0
40
1
40
1
40
1
41
0.500004047945697
10
-0.274981
20
18.9987694444331
30
0
41
0.499995952054303
10
-0.274981
20
19.0000110011
30
0
41
0.500004047945697
10
-0.274981
20
18.999995249525
30
0
0
LINE
5
70
100
AcDbEntity
8
1
62
256
6
ByLayer
370
18
48
1
60
0
100
AcDbLine
10
0.725019
20
20
30
0
11
-0.274981
21
19
31
0
39
0
210
0
220
0
230
1
0
LINE
5
72
100
AcDbEntity
8
1
62
256
6
ByLayer
370
18
48
1
60
0
100
AcDbLine
10
-0.274981
20
-19
30
0
11
0.725019
21
-20
31
0
39
0
210
0
220
0
230
1
0
LINE
5
73
100
AcDbEntity
8
1
62
256
6
ByLayer
370
18
48
1
60
0
100
AcDbLine
10
0.725019
20
-20
30
0
11
10.030681
21
-20
31
0
39
0
210
0
220
0
230
1
0
LINE
5
74
100
AcDbEntity
8
1
62
256
6
ByLayer
370
18
48
1
60
0
100
AcDbLine
10
10.024225
20
20
30
0
11
0.725019
21
20
31
0
39
0
210
0
220
0
230
1
0
LINE
5
75
100
AcDbEntity
8
1
62
256
6
ByLayer
370
18
48
1
60
0
100
AcDbLine
10
5.9
20
10.535654
30
0
11
10.022364
21
10.535654
31
0
39
0
210
0
220
0
230
1
0
LINE
5
76
100
AcDbEntity
8
1
62
256
6
ByLayer
370
18
48
1
60
0
100
AcDbLine
10
10.026955
20
-10.535654
30
0
11
5.9
21
-10.535654
31
0
39
0
210
0
220
0
230
1
0
LINE
5
77
100
AcDbEntity
8
1
62
256
6
ByLayer
370
18
48
1
60
0
100
AcDbLine
10
0.417769
20
6.421957
30
0
11
0.417769
21
5.586275
31
0
39
0
210
0
220
0
230
1
0
LINE
5
78
100
AcDbEntity
8
1
62
256
6
ByLayer
370
18
48
1
60
0
100
AcDbLine
10
0.417769
20
-5.586275
30
0
11
0.417769
21
-6.421957
31
0
39
0
210
0
220
0
230
1
0
LINE
5
79
100
AcDbEntity
8
1
62
256
6
ByLayer
370
18
48
1
60
0
100
AcDbLine
10
5.9
20
-10.535654
30
0
11
5.9
21
10.535654
31
0
39
0
210
0
220
0
230
1
0
LINE
5
7A
100
AcDbEntity
8
1
62
256
6
ByLayer
370
18
48
1
60
0
100
AcDbLine
10
0.417769
20
9.73859
30
0
11
0.417769
21
9.252452
31
0
39
0
210
0
220
0
230
1
0
LINE
5
7B
100
AcDbEntity
8
1
62
256
6
ByLayer
370
18
48
1
60
0
100
AcDbLine
10
0.417769
20
-9.252452
30
0
11
0.417769
21
-9.73859
31
0
39
0
210
0
220
0
230
1
0
LINE
5
7C
100
AcDbEntity
8
1
62
256
6
ByLayer
370
18
48
1
60
0
100
AcDbLine
10
10.022364
20
10.535654
30
0
11
10.026955
21
-10.535654
31
0
39
0
210
0
220
0
230
1
0
LINE
5
7D
100
AcDbEntity
8
1
62
256
6
ByLayer
370
18
48
1
60
0
100
AcDbLine
10
0.417769
20
11.997447
30
0
11
0.417769
21
11.640845
31
0
39
0
210
0
220
0
230
1
0
LINE
5
7E
100
AcDbEntity
8
1
62
256
6
ByLayer
370
18
48
1
60
0
100
AcDbLine
10
0.417769
20
-11.640845
30
0
11
0.417769
21
-11.997447
31
0
39
0
210
0
220
0
230
1
0
LINE
5
7F
100
AcDbEntity
8
1
62
256
6
ByLayer
370
18
48
1
60
0
100
AcDbLine
10
0.417769
20
13.73089
30
0
11
0.417769
21
13.450304
31
0
39
0
210
0
220
0
230
1
0
LINE
5
80
100
AcDbEntity
8
1
62
256
6
ByLayer
370
18
48
1
60
0
100
AcDbLine
10
0.417769
20
-13.450304
30
0
11
0.417769
21
-13.73089
31
0
39
0
210
0
220
0
230
1
0
LINE
5
81
100
AcDbEntity
8
1
62
256
6
ByLayer
370
18
48
1
60
0
100
AcDbLine
10
0.417769
20
15.120712
30
0
11
0.417769
21
14.893357
31
0
39
0
210
0
220
0
230
1
0
LINE
5
82
100
AcDbEntity
8
1
62
256
6
ByLayer
370
18
48
1
60
0
100
AcDbLine
10
0.417769
20
-14.893357
30
0
11
0.417769
21
-15.120712
31
0
39
0
210
0
220
0
230
1
0
LINE
5
83
100
AcDbEntity
8
1
62
256
6
ByLayer
370
18
48
1
60
0
100
AcDbLine
10
0.417769
20
16.255292
30
0
11
0.417769
21
16.069022
31
0
39
0
210
0
220
0
230
1
0
LINE
5
84
100
AcDbEntity
8
1
62
256
6
ByLayer
370
18
48
1
60
0
100
AcDbLine
10
0.417769
20
-16.069022
30
0
11
0.417769
21
-16.255292
31
0
39
0
210
0
220
0
230
1
0
LINE
5
85
100
AcDbEntity
8
1
62
256
6
ByLayer
370
18
48
1
60
0
100
AcDbLine
10
0.417769
20
17.185259
30
0
11
0.417769
21
17.032759
31
0
39
0
210
0
220
0
230
1
0
LINE
5
86
100
AcDbEntity
8
1
62
256
6
ByLayer
370
18
48
1
60
0
100
AcDbLine
10
0.417769
20
-17.032759
30
0
11
0.417769
21
-17.185259
31
0
39
0
210
0
220
0
230
1
0
LINE
5
87
100
AcDbEntity
8
1
62
256
6
ByLayer
370
18
48
1
60
0
100
AcDbLine
10
0.417769
20
17.942456
30
0
11
0.417769
21
17.818987
31
0
39
0
210
0
220
0
230
1
0
LINE
5
88
100
AcDbEntity
8
1
62
256
6
ByLayer
370
18
48
1
60
0
100
AcDbLine
10
0.417769
20
-17.818987
30
0
11
0.417769
21
-17.942456
31
0
39
0
210
0
220
0
230
1
0
LINE
5
89
100
AcDbEntity
8
1
62
256
6
ByLayer
370
18
48
1
60
0
100
AcDbLine
10
0.417769
20
18.548054
30
0
11
0.417769
21
18.450412
31
0
39
0
210
0
220
0
230
1
0
LINE
5
8A
100
AcDbEntity
8
1
62
256
6
ByLayer
370
18
48
1
60
0
100
AcDbLine
10
0.417769
20
-18.450412
30
0
11
0.417769
21
-18.548054
31
0
39
0
210
0
220
0
230
1
0
LINE
5
8B
100
AcDbEntity
8
1
62
256
6
ByLayer
370
18
48
1
60
0
100
AcDbLine
10
0.417769
20
-18.942521
30
0
11
0.417769
21
-19.016543
31
0
39
0
210
0
220
0
230
1
0
LINE
5
8C
100
AcDbEntity
8
1
62
256
6
ByLayer
370
18
48
1
60
0
100
AcDbLine
10
0.417769
20
19.016543
30
0
11
0.417769
21
18.942521
31
0
39
0
210
0
220
0
230
1
0
LINE
5
8D
100
AcDbEntity
8
1
62
256
6
ByLayer
370
18
48
1
60
0
100
AcDbLine
10
0.417769
20
19.35788
30
0
11
0.417769
21
19.30597
31
0
39
0
210
0
220
0
230
1
0
LINE
5
8E
100
AcDbEntity
8
1
62
256
6
ByLayer
370
18
48
1
60
0
100
AcDbLine
10
0.417769
20
-19.30597
30
0
11
0.417769
21
-19.35788
31
0
39
0
210
0
220
0
230
1
0
LINE
5
8F
100
AcDbEntity
8
1
62
256
6
ByLayer
370
18
48
1
60
0
100
AcDbLine
10
0.417769
20
19.578716
30
0
11
0.417769
21
19.547938
31
0
39
0
210
0
220
0
230
1
0
LINE
5
90
100
AcDbEntity
8
1
62
256
6
ByLayer
370
18
48
1
60
0
100
AcDbLine
10
0.417769
20
-19.547938
30
0
11
0.417769
21
-19.578716
31
0
39
0
210
0
220
0
230
1
0
LINE
5
91
100
AcDbEntity
8
1
62
256
6
ByLayer
370
18
48
1
60
0
100
AcDbLine
10
5.5
20
9.861034
30
0
11
5.5
21
-9.861034
31
0
39
0
210
0
220
0
230
1
0
LINE
5
92
100
AcDbEntity
8
1
62
256
6
ByLayer
370
18
48
1
60
0
100
AcDbLine
10
0.725019
20
-20
30
0
11
0.725019
21
20
31
0
39
0
210
0
220
0
230
1
0
LINE
5
93
100
AcDbEntity
8
1
62
256
6
ByLayer
370
18
48
1
60
0
100
AcDbLine
10
-0.274981
20
-18.998769
30
0
11
-0.274981
21
11.934841
31
0
39
0
210
0
220
0
230
1
0
LINE
5
94
100
AcDbEntity
8
1
62
256
6
ByLayer
370
18
48
1
60
0
100
AcDbLine
10
-0.274981
20
11.951431
30
0
11
-0.274981
21
18.998769
31
0
39
0
210
0
220
0
230
1
0
LINE
5
95
100
AcDbEntity
8
80
62
256
6
ByLayer
370
18
48
1
60
0
100
AcDbLine
10
0
20
0
30
0
11
-12.497654
21
0
31
0
39
0
210
0
220
0
230
1
0
LINE
5
96
100
AcDbEntity
8
SK1
62
256
6
ByLayer
370
18
48
1
60
0
100
AcDbLine
10
-3.729184
20
-2.999966
30
0
11
-3.729184
21
2.999966
31
0
39
0
210
0
220
0
230
1
0
LINE
5
98
100
AcDbEntity
8
SK1
62
256
6
ByLayer
370
18
48
1
60
0
100
AcDbLine
10
-0.274981
20
-2.999966
30
0
11
-3.729184
21
-2.999966
31
0
39
0
210
0
220
0
230
1
0
LINE
5
99
100
AcDbEntity
8
SK1
62
256
6
ByLayer
370
18
48
1
60
0
100
AcDbLine
10
-0.274981
20
2.999966
30
0
11
-3.729184
21
2.999966
31
0
39
0
210
0
220
0
230
1
0
LINE
5
9A
100
AcDbEntity
8
1
62
256
6
ByLayer
370
18
48
1
60
0
100
AcDbLine
10
10.030681
20
-20
30
0
11
10.029805
21
-15.057222
31
0
39
0
210
0
220
0
230
1
0
LINE
5
9B
100
AcDbEntity
8
1
62
256
6
ByLayer
370
18
48
1
60
0
100
AcDbLine
10
10.028092
20
-5.387972
30
0
11
10.023593
21
20
31
0
39
0
210
0
220
0
230
1
0
LINE
5
9C
100
AcDbEntity
8
1
62
256
6
ByLayer
370
18
48
1
60
0
100
AcDbLine
10
10.030681
20
-20
30
0
11
11.598997
21
-21.568316
31
0
39
0
210
0
220
0
230
1
0
LINE
5
9D
100
AcDbEntity
8
1
62
256
6
ByLayer
370
18
48
1
60
0
100
AcDbLine
10
41.745919
20
-19.172246
30
0
11
43.754336
21
19.150638
31
0
39
0
210
0
220
0
230
1
0
LINE
5
9E
100
AcDbEntity
8
1
62
256
6
ByLayer
370
18
48
1
60
0
100
AcDbLine
10
11.777939
20
24.820027
30
0
11
26.236797
21
24.820027
31
0
39
0
210
0
220
0
230
1
0
LINE
5
9F
100
AcDbEntity
8
1
62
256
6
ByLayer
370
18
48
1
60
0
100
AcDbLine
10
10.023593
20
20
30
0
11
11.777939
21
24.820027
31
0
39
0
210
0
220
0
230
1
0
LINE
5
A0
100
AcDbEntity
8
1
62
256
6
ByLayer
370
18
48
1
60
0
100
AcDbLine
10
11.598997
20
-21.568316
30
0
11
41.745919
21
-19.172246
31
0
39
0
210
0
220
0
230
1
0
LINE
5
A1
100
AcDbEntity
8
1
62
256
6
ByLayer
370
18
48
1
60
0
100
AcDbLine
10
44.051456
20
24.820027
30
0
11
34.087075
21
25.936725
31
0
39
0
210
0
220
0
230
1
0
LINE
5
A2
100
AcDbEntity
8
1
62
256
6
ByLayer
370
18
48
1
60
0
100
AcDbLine
10
44.051456
20
24.820027
30
0
11
44.051456
21
19.150638
31
0
39
0
210
0
220
0
230
1
0
LINE
5
A3
100
AcDbEntity
8
1
62
256
6
ByLayer
370
18
48
1
60
0
100
AcDbLine
10
44.051456
20
19.150638
30
0
11
26.236797
21
19.150638
31
0
39
0
210
0
220
0
230
1
0
LINE
5
A4
100
AcDbEntity
8
1
62
256
6
ByLayer
370
18
48
1
60
0
100
AcDbLine
10
26.236797
20
19.150638
30
0
11
26.236797
21
24.864652
31
0
39
0
210
0
220
0
230
1
0
LINE
5
A5
100
AcDbEntity
8
1
62
256
6
ByLayer
370
18
48
1
60
0
100
AcDbLine
10
26.236797
20
24.864652
30
0
11
34.087075
21
25.936725
31
0
39
0
210
0
220
0
230
1
0
LINE
5
A6
100
AcDbEntity
8
4
62
256
6
ByLayer
370
13
48
0.05
60
0
100
AcDbLine
10
0
20
0
30
0
11
42.750127
21
-0.010804
31
0
39
0
210
0
220
0
230
1
0
LINE
5
A8
100
AcDbEntity
8
SK4
62
256
6
ByLayer
370
13
48
0.05
60
0
100
AcDbLine
10
63.218621
20
0
30
0
11
-18.459615
21
0
31
0
39
0
210
0
220
0
230
1
0
LINE
5
AA
100
AcDbEntity
8
81
62
256
6
ByLayer
370
18
48
1
60
0
100
AcDbLine
10
56.54911
20
24.820027
30
0
11
44.051456
21
24.820027
31
0
39
0
210
0
220
0
230
1
0
MTEXT
5
11E
100
AcDbEntity
8
SK6
62
256
6
ByLayer
370
18
48
1
60
0
100
AcDbMText
10
-4.316428
20
-38.258598
30
0
210
0
220
0
230
1
1
\W0.7642;R566.39KF-404527-24
40
3
41
0
44
1.084337
50
0
71
7
72
5
7
iso_b_vert
0
DIMENSION
5
131
100
AcDbEntity
8
SK2
62
256
6
ByLayer
370
13
48
1
60
0
100
AcDbDimension
2
DimnDraft3D1
10
-20
20
14.847768
30
0
11
-6.410526
21
14.847768
31
0
70
32
71
5
72
1
41
1
210
0
220
0
230
1
3
Standard
100
AcDbAlignedDimension
13
20
23
1.274981
33
0
14
-20
24
1.274981
34
0
50
0
100
AcDbRotatedDimension
1001
ACAD
1000
DSTYLE
1002
{
1070
   279
1070
     0
1070
   172
1070
     1
1070
   173
1070
     1
1070
   340
1005
11F
1070
    77
1070
     1
1070
    73
1070
     0
1070
   171
1070
     3
1070
   274
1070
     4
1070
   177
1070
     9
1070
   176
1070
     9
1070
   178
1070
     9
1070
    78
1070
     8
1070
    41
1041
3.175
1070
   147
1041
1.5
1070
    42
1041
2.0
1070
    44
1041
2.0
1070
   140
1041
3.0
1070
   343
1005
132
1070
   344
1005
132
1002
}
0
DIMENSION
5
146
100
AcDbEntity
8
2
62
256
6
ByLayer
370
13
48
1
60
0
100
AcDbDimension
2
DimnDraft3D2
10
0
20
-54.042006
30
0
11
8.967908
21
-54.042006
31
0
70
32
71
5
72
1
41
1
210
0
220
0
230
1
3
Standard
100
AcDbAlignedDimension
13
24.820027
23
-46.051456
33
0
14
0
24
-54.042006
34
0
50
0
100
AcDbRotatedDimension
1001
ACAD
1000
DSTYLE
1002
{
1070
   279
1070
     0
1070
   172
1070
     1
1070
   173
1070
     1
1070
   340
1005
11F
1070
    77
1070
     1
1070
    73
1070
     0
1070
   171
1070
     3
1070
   274
1070
     4
1070
   177
1070
     9
1070
   176
1070
     9
1070
   178
1070
     9
1070
    78
1070
     8
1070
    41
1041
3.175
1070
   147
1041
1.5
1070
    42
1041
2.0
1070
    44
1041
2.0
1070
   140
1041
3.0
1070
   343
1005
132
1070
   344
1005
132
1002
}
0
DIMENSION
5
154
100
AcDbEntity
8
2
62
256
6
ByLayer
370
13
48
1
60
0
100
AcDbDimension
2
DimnDraft3D3
10
-46.32712
20
0
30
0
11
-46.32712
21
18.267833
31
0
70
32
71
5
72
1
41
1
210
0
220
0
230
1
3
Standard
100
AcDbAlignedDimension
13
-26.820027
23
44.051456
33
0
14
-2
24
0
34
0
50
90
100
AcDbRotatedDimension
1001
ACAD
1000
DSTYLE
1002
{
1070
    74
1070
     0
1070
   279
1070
     0
1070
   172
1070
     1
1070
   173
1070
     1
1070
   340
1005
11F
1070
    77
1070
     1
1070
    73
1070
     0
1070
   171
1070
     3
1070
   274
1070
     4
1070
   177
1070
     9
1070
   176
1070
     9
1070
   178
1070
     9
1070
    78
1070
     8
1070
    41
1041
3.175
1070
   147
1041
1.5
1070
    42
1041
2.0
1070
    44
1041
2.0
1070
   140
1041
3.0
1070
   343
1005
132
1070
   344
1005
132
1002
}
0
ENDSEC
0
SECTION
2
OBJECTS
0
DICTIONARY
5
1bf
330
0
100
AcDbDictionary
280
0
281
1
3
ACAD_GROUP
350
1c0
3
ACAD_MLINESTYLE
350
1c1
0
DICTIONARY
5
1c0
330
0
100
AcDbDictionary
280
0
281
1
0
DICTIONARY
5
1c1
330
0
100
AcDbDictionary
280
0
281
1
3
Standard
350
18
0
MLINESTYLE
5
18
330
1c1
100
AcDbMlineStyle
2
Standard
70
0
3

62
256
51
90
52
90
71
2
49
-0.5
62
256
6
ByLayer
49
0.5
62
256
6
ByLayer
0
RASTERVARIABLES
5
1ad
330

100
AcDbRasterVariables
90
0
70
1
71
1
72
1
0
ENDSEC
0
EOF
