0
SECTION
2
HEADER
9
$ACADVER
1
AC1015
9
$DWGCODEPAGE
3
ANSI_1252
9
$HANDSEED
5
202
9
$ANGBASE
50
0
9
$ANGDIR
70
0
9
$ATTMODE
70
1
9
$AUNITS
70
0
9
$AUPREC
70
0
9
$CECOLOR
62
256
9
$CELTSCALE
40
1
9
$CELTYPE
6
ByLayer
9
$CELWEIGHT
370
18
9
$CLAYER
8
0
9
$CMLJUST
70
0
9
$CMLSCALE
40
1
9
$CMLSTYLE
2
Standard
9
$DIMSTYLE
2
Standard
9
$TEXTSIZE
40
0.2
9
$TEXTSTYLE
7
Standard
9
$LUNITS
70
2
9
$LUPREC
70
4
9
$EXTNAMES
290
1
9
$INSUNITS
70
4
9
$LTSCALE
40
1
9
$LWDISPLAY
290
1
9
$PDMODE
70
0
9
$PDSIZE
40
0
9
$PLINEGEN
70
0
0
ENDSEC
0
SECTION
2
CLASSES
0
CLASS
1
RASTERVARIABLES
2
AcDbRasterVariables
3
ISM
90
0
280
0
281
0
0
ENDSEC
0
SECTION
2
TABLES
0
TABLE
2
VPORT
5
1f8
100
AcDbSymbolTable
0
VPORT
5
1
100
AcDbSymbolTableRecord
100
AcDbViewportTableRecord
2
*Active
70
0
10
0
20
0
11
1
21
1
12
-1
22
1
13
0
23
0
14
0.5
24
0.5
15
10
25
10
16
0
26
0
36
1
17
0
27
0
37
0
0
ENDTAB
0
TABLE
2
LTYPE
5
1f9
100
AcDbSymbolTable
0
LTYPE
5
14
100
AcDbSymbolTableRecord
100
AcDbLinetypeTableRecord
70
0
2
ByBlock
3

72
65
73
0
40
0
0
LTYPE
5
15
100
AcDbSymbolTableRecord
100
AcDbLinetypeTableRecord
70
0
2
ByLayer
3

72
65
73
0
40
0
0
LTYPE
5
16
100
AcDbSymbolTableRecord
100
AcDbLinetypeTableRecord
70
0
2
CONTINUOUS
3
Solid line
72
65
73
0
40
0
0
LTYPE
5
6A
100
AcDbSymbolTableRecord
100
AcDbLinetypeTableRecord
70
0
2
CENTER
3
____ _ ____ _ ____ _ ____
72
65
73
4
40
47.5
49
22
74
0
49
-8.5
74
0
49
8.5
74
0
49
-8.5
74
0
0
LTYPE
5
6B
100
AcDbSymbolTableRecord
100
AcDbLinetypeTableRecord
70
0
2
DASHED
3
__ __ __ __ __ __ __ __ __
72
65
73
2
40
25.72
49
12.86
74
0
49
-12.86
74
0
0
ENDTAB
0
TABLE
2
LAYER
5
1fa
100
AcDbSymbolTable
0
LAYER
5
10
100
AcDbSymbolTableRecord
100
AcDbLayerTableRecord
2
0
70
0
62
7
6
CONTINUOUS
290
1
370
-3
390
0
0
LAYER
5
6D
100
AcDbSymbolTableRecord
100
AcDbLayerTableRecord
2
80
70
0
62
-6
6
CONTINUOUS
290
1
370
-3
390
0
0
LAYER
5
6F
100
AcDbSymbolTableRecord
100
AcDbLayerTableRecord
2
81
70
0
62
-3
6
CONTINUOUS
290
1
370
-3
390
0
0
LAYER
5
71
100
AcDbSymbolTableRecord
100
AcDbLayerTableRecord
2
1
70
0
62
4
6
CONTINUOUS
290
1
370
-3
390
0
0
LAYER
5
D3
100
AcDbSymbolTableRecord
100
AcDbLayerTableRecord
2
4
70
0
62
-2
6
CENTER
290
1
370
-3
390
0
0
LAYER
5
161
100
AcDbSymbolTableRecord
100
AcDbLayerTableRecord
2
2
70
0
62
7
6
CONTINUOUS
290
1
370
-3
390
0
0
LAYER
5
1e4
100
AcDbSymbolTableRecord
100
AcDbLayerTableRecord
2
SK1
70
0
62
4
6
CONTINUOUS
290
1
370
-3
390
0
0
LAYER
5
1e5
100
AcDbSymbolTableRecord
100
AcDbLayerTableRecord
2
SK4
70
0
62
2
6
CENTER
290
1
370
-3
390
0
0
LAYER
5
1e6
100
AcDbSymbolTableRecord
100
AcDbLayerTableRecord
2
SK6
70
0
62
5
6
CONTINUOUS
290
1
370
-3
390
0
0
LAYER
5
1e7
100
AcDbSymbolTableRecord
100
AcDbLayerTableRecord
2
SK2
70
0
62
7
6
CONTINUOUS
290
1
370
-3
390
0
0
ENDTAB
0
TABLE
2
STYLE
5
1fb
100
AcDbSymbolTable
0
STYLE
5
11
100
AcDbSymbolTableRecord
100
AcDbTextStyleTableRecord
2
Standard
3
txt
70
0
71
0
40
0
41
1
42
0
50
0
0
STYLE
5
15C
100
AcDbSymbolTableRecord
100
AcDbTextStyleTableRecord
2
blockfont
3
simplex.shx
70
0
71
0
40
0
41
1
42
0
50
0
0
STYLE
5
15D
100
AcDbSymbolTableRecord
100
AcDbTextStyleTableRecord
2
DWGDirectTextStyle
3
simplex
70
0
71
0
40
0
41
1
42
0
50
0
0
ENDTAB
0
TABLE
2
DIMSTYLE
5
1fc
100
AcDbSymbolTable
100
AcDbDimStyleTable
0
DIMSTYLE
105
27
100
AcDbSymbolTableRecord
100
AcDbDimStyleTableRecord
2
Standard
70
0
3
<>
41
0.18
42
0.0625
44
0.18
140
0.18
147
0.09
73
0
74
0
77
1
271
2
275
0
278
52
280
0
340
11
0
ENDTAB
0
TABLE
2
VIEW
5
1fd
100
AcDbSymbolTable
0
ENDTAB
0
TABLE
2
UCS
5
1fe
100
AcDbSymbolTable
0
ENDTAB
0
TABLE
2
APPID
5
1ff
100
AcDbSymbolTable
0
APPID
5
12
100
AcDbSymbolTableRecord
100
AcDbRegAppTableRecord
2
ACAD
70
0
0
ENDTAB
0
TABLE
2
BLOCK_RECORD
5
200
100
AcDbSymbolTable
0
BLOCK_RECORD
5
1F
100
AcDbSymbolTableRecord
100
AcDbBlockTableRecord
2
*Model_Space
340
0
70
0
0
BLOCK_RECORD
5
1B
100
AcDbSymbolTableRecord
100
AcDbBlockTableRecord
2
*Paper_Space
340
0
70
0
0
BLOCK_RECORD
5
23
100
AcDbSymbolTableRecord
100
AcDbBlockTableRecord
2
*Paper_Space0
340
0
70
0
0
BLOCK_RECORD
5
15F
100
AcDbSymbolTableRecord
100
AcDbBlockTableRecord
2
DimnDraft3D1
340
0
70
0
0
BLOCK_RECORD
5
16A
100
AcDbSymbolTableRecord
100
AcDbBlockTableRecord
2
DimnDraft3D2
340
0
70
0
0
BLOCK_RECORD
5
176
100
AcDbSymbolTableRecord
100
AcDbBlockTableRecord
2
DimnDraft3D3
340
0
70
0
0
BLOCK_RECORD
5
181
100
AcDbSymbolTableRecord
100
AcDbBlockTableRecord
2
DimnDraft3D44
340
0
70
0
0
ENDTAB
0
ENDSEC
0
SECTION
2
BLOCKS
0
BLOCK
5
20
100
AcDbEntity
8
0
100
AcDbBlockBegin
2
*Model_Space
70
0
10
0
20
0
30
0
3
*Model_Space
0
ENDBLK
5
21
100
AcDbEntity
8
0
100
AcDbBlockEnd
0
BLOCK
5
1C
100
AcDbEntity
8
0
100
AcDbBlockBegin
2
*Paper_Space
70
0
10
0
20
0
30
0
3
*Paper_Space
0
ENDBLK
5
1D
100
AcDbEntity
8
0
100
AcDbBlockEnd
0
BLOCK
5
24
100
AcDbEntity
8
0
100
AcDbBlockBegin
2
*Paper_Space0
70
0
10
0
20
0
30
0
3
*Paper_Space0
0
ENDBLK
5
25
100
AcDbEntity
8
0
100
AcDbBlockEnd
0
BLOCK
5
167
100
AcDbEntity
8
0
100
AcDbBlockBegin
2
DimnDraft3D1
70
0
10
0
20
0
30
0
3
DimnDraft3D1
0
MTEXT
5
160
100
AcDbEntity
8
2
62
256
6
ByLayer
370
13
48
1
60
0
100
AcDbMText
10
7.236458
20
28.513407
30
0
210
0
220
0
230
1
1
\W1.1795;20
40
3.5
41
0
44
0.903614
50
0
71
7
72
5
7
blockfont
0
LINE
5
162
100
AcDbEntity
8
2
62
256
6
ByLayer
370
13
48
1
60
0
100
AcDbLine
10
0
20
1.5875
30
0
11
0
21
31.068616
31
0
39
0
210
0
220
0
230
1
0
LINE
5
163
100
AcDbEntity
8
2
62
256
6
ByLayer
370
13
48
1
60
0
100
AcDbLine
10
20
20
13.5875
30
0
11
20
21
31.068616
31
0
39
0
210
0
220
0
230
1
0
LINE
5
164
100
AcDbEntity
8
2
62
256
6
ByLayer
370
13
48
1
60
0
100
AcDbLine
10
0
20
27.893616
30
0
11
20
21
27.893616
31
0
39
0
210
0
220
0
230
1
0
SOLID
5
165
100
AcDbEntity
8
2
62
256
6
ByLayer
370
13
48
1
60
0
100
AcDbTrace
10
0
20
27.893616
30
0
11
3.174997
21
28.744354
31
0
12
3.175003
22
27.042877
32
0
13
0
23
27.893616
33
0
39
0
210
0
220
0
230
1
0
SOLID
5
166
100
AcDbEntity
8
2
62
256
6
ByLayer
370
13
48
1
60
0
100
AcDbTrace
10
20
20
27.893616
30
0
11
16.825003
21
27.042877
31
0
12
16.824997
22
28.744354
32
0
13
20
23
27.893616
33
0
39
0
210
0
220
0
230
1
0
ENDBLK
5
168
100
AcDbEntity
8
0
100
AcDbBlockEnd
0
BLOCK
5
173
100
AcDbEntity
8
0
100
AcDbBlockBegin
2
DimnDraft3D2
70
0
10
0
20
0
30
0
3
DimnDraft3D2
0
MTEXT
5
16B
100
AcDbEntity
8
SK2
62
256
6
ByLayer
370
13
48
1
60
0
100
AcDbMText
10
-14.604081
20
1.298662
30
0
210
0
220
0
230
1
1
\W1.1795;16
40
3.175
41
0
44
0.903614
50
90
71
7
72
5
7
blockfont
0
MTEXT
5
16D
100
AcDbEntity
8
SK2
62
256
6
ByLayer
370
13
48
1
60
0
100
AcDbMText
10
-14.604081
20
-5.820283
30
0
210
0
220
0
230
1
1
%%c
40
3.175
41
0
44
0.903614
50
90
71
7
72
5
7
blockfont
0
LINE
5
16E
100
AcDbEntity
8
SK2
62
256
6
ByLayer
370
13
48
1
60
0
100
AcDbLine
10
2.223106
20
8
30
0
11
-16.423092
21
8
31
0
39
0
210
0
220
0
230
1
0
LINE
5
16F
100
AcDbEntity
8
SK2
62
256
6
ByLayer
370
13
48
1
60
0
100
AcDbLine
10
2.223106
20
-8
30
0
11
-16.423092
21
-8
31
0
39
0
210
0
220
0
230
1
0
LINE
5
170
100
AcDbEntity
8
SK2
62
256
6
ByLayer
370
13
48
1
60
0
100
AcDbLine
10
-13.248092
20
8
30
0
11
-13.248092
21
-8.226338
31
0
39
0
210
0
220
0
230
1
0
SOLID
5
171
100
AcDbEntity
8
SK2
62
256
6
ByLayer
370
13
48
1
60
0
100
AcDbTrace
10
-13.248092
20
8
30
0
11
-12.830095
21
4.825002
31
0
12
-13.666088
22
4.824998
32
0
13
-13.248092
23
8
33
0
39
0
210
0
220
0
230
1
0
SOLID
5
172
100
AcDbEntity
8
SK2
62
256
6
ByLayer
370
13
48
1
60
0
100
AcDbTrace
10
-13.248092
20
-8
30
0
11
-13.666088
21
-4.825002
31
0
12
-12.830095
22
-4.824998
32
0
13
-13.248092
23
-8
33
0
39
0
210
0
220
0
230
1
0
ENDBLK
5
174
100
AcDbEntity
8
0
100
AcDbBlockEnd
0
BLOCK
5
17E
100
AcDbEntity
8
0
100
AcDbBlockBegin
2
DimnDraft3D3
70
0
10
0
20
0
30
0
3
DimnDraft3D3
0
MTEXT
5
177
100
AcDbEntity
8
SK2
62
256
6
ByLayer
370
13
48
1
60
0
100
AcDbMText
10
25.228948
20
2.858393
30
0
210
0
220
0
230
1
1
\W1.4729;90%%d
40
3.175
41
0
44
0.903614
50
53.4904589145213
71
7
72
5
7
blockfont
0
LINE
5
178
100
AcDbEntity
8
SK2
62
256
6
ByLayer
370
13
48
1
60
0
100
AcDbLine
10
21.5875
20
12
30
0
11
33.378907
21
12
31
0
39
0
210
0
220
0
230
1
0
LINE
5
179
100
AcDbEntity
8
SK2
62
256
6
ByLayer
370
13
48
1
60
0
100
AcDbLine
10
20
20
11.232089
30
0
11
20
21
25.378907
31
0
39
0
210
0
220
0
230
1
0
ARC
5
17A
100
AcDbEntity
8
SK2
62
256
6
ByLayer
370
13
48
1
60
0
100
AcDbCircle
39
0
10
20
20
12
30
0
40
10.2039068373421
210
0
220
0
230
1
100
AcDbArc
50
297.247773
51
0
0
ARC
5
17B
100
AcDbEntity
8
SK2
62
256
6
ByLayer
370
13
48
1
60
0
100
AcDbCircle
39
0
10
20
20
12
30
0
40
10.2039068373421
210
0
220
0
230
1
100
AcDbArc
50
0
51
90
0
SOLID
5
17C
100
AcDbEntity
8
SK2
62
256
6
ByLayer
370
13
48
1
60
0
100
AcDbTrace
10
30.203907
20
12
30
0
11
29.542382
21
15.133324
31
0
12
30.375887
22
15.197777
32
0
13
30.203907
23
12
33
0
39
0
210
0
220
0
230
1
0
SOLID
5
17D
100
AcDbEntity
8
SK2
62
256
6
ByLayer
370
13
48
1
60
0
100
AcDbTrace
10
20
20
22.203907
30
0
11
23.197774
21
22.375887
31
0
12
23.133327
22
21.542382
32
0
13
20
23
22.203907
33
0
39
0
210
0
220
0
230
1
0
ENDBLK
5
17F
100
AcDbEntity
8
0
100
AcDbBlockEnd
0
BLOCK
5
182
100
AcDbEntity
8
0
100
AcDbBlockBegin
2
DimnDraft3D44
70
0
10
0
20
0
30
0
3
DimnDraft3D44
0
LINE
5
184
100
AcDbEntity
8
2
62
256
6
ByLayer
370
25
48
1
60
0
100
AcDbLine
10
21.5875
20
12
30
0
11
43.839224
21
12
31
0
39
0
210
0
220
0
230
1
0
LINE
5
185
100
AcDbEntity
8
2
62
256
6
ByLayer
370
25
48
1
60
0
100
AcDbLine
10
25.5875
20
0
30
0
11
43.839224
21
0
31
0
39
0
210
0
220
0
230
1
0
LINE
5
186
100
AcDbEntity
8
2
62
256
6
ByLayer
370
25
48
1
60
0
100
AcDbLine
10
40.664224
20
12
30
0
11
40.664224
21
0
31
0
39
0
210
0
220
0
230
1
0
SOLID
5
187
100
AcDbEntity
8
2
62
256
6
ByLayer
370
25
48
1
60
0
100
AcDbTrace
10
40.664224
20
12
30
0
11
41.514962
21
8.825003
31
0
12
39.813485
22
8.824997
32
0
13
40.664224
23
12
33
0
39
0
210
0
220
0
230
1
0
SOLID
5
188
100
AcDbEntity
8
2
62
256
6
ByLayer
370
25
48
1
60
0
100
AcDbTrace
10
40.664224
20
0
30
0
11
39.813485
21
3.174997
31
0
12
41.514962
22
3.175003
32
0
13
40.664224
23
0
33
0
39
0
210
0
220
0
230
1
0
MTEXT
5
189
100
AcDbEntity
8
2
62
256
6
ByLayer
370
13
48
1
60
0
100
AcDbMText
10
40.044432
20
3.735817
30
0
210
0
220
0
230
1
1
\W1.1795;12
40
3.5
41
0
44
0.903614
50
90
71
7
72
5
7
blockfont
0
ENDBLK
5
183
100
AcDbEntity
8
0
100
AcDbBlockEnd
0
ENDSEC
0
SECTION
2
ENTITIES
0
ARC
5
D8
100
AcDbEntity
8
1
62
256
6
ByLayer
370
18
48
1
60
0
100
AcDbCircle
39
0
10
12.76989
20
-11
30
0
40
8
210
0
220
0
230
1
100
AcDbArc
50
107.591076
51
143.657731
0
ARC
5
D9
100
AcDbEntity
8
1
62
256
6
ByLayer
370
18
48
1
60
0
100
AcDbCircle
39
0
10
16.76989
20
0
30
0
40
2.99999999998569
210
0
220
0
230
1
100
AcDbArc
50
347.363719
51
0
0
ARC
5
DA
100
AcDbEntity
8
1
62
256
6
ByLayer
370
18
48
1
60
0
100
AcDbCircle
39
0
10
-6.471835
20
8.4
30
0
40
0.4
210
0
220
0
230
-1
100
AcDbArc
50
195
51
270
0
ARC
5
DB
100
AcDbEntity
8
1
62
256
6
ByLayer
370
18
48
1
60
0
100
AcDbCircle
39
0
10
-12.76989
20
-11
30
0
40
8
210
0
220
0
230
-1
100
AcDbArc
50
36.027353
51
36.342269
0
ELLIPSE
5
DC
100
AcDbEntity
8
1
62
256
6
ByLayer
370
18
48
1
60
0
100
AcDbEllipse
10
16.837467
20
6.761431
30
0
11
-1.29725038537144
21
0.0845070272441239
31
0
210
0
220
0
230
1
40
0.965789
41
0
42
6.28318530717959
0
ELLIPSE
5
DD
100
AcDbEntity
8
1
62
256
6
ByLayer
370
18
48
1
60
0
100
AcDbEllipse
10
6.019822
20
-3.358757
30
0
11
-0.000886743244810447
21
2.74999999999939
31
0
210
0
220
0
230
1
40
0.000529
41
0.37839628179543
42
2.23960313948526
0
ELLIPSE
5
DE
100
AcDbEntity
8
1
62
256
6
ByLayer
370
18
48
1
60
0
100
AcDbEllipse
10
32.266447
20
-3.358757
30
0
11
-163.105064552147
21
0.711941196174897
31
0
210
0
220
0
230
1
40
0.016285
41
-1.48990103355173
42
-1.41641835594062
0
ELLIPSE
5
DF
100
AcDbEntity
8
1
62
256
6
ByLayer
370
18
48
1
60
0
100
AcDbEllipse
10
6.017656
20
3.3588
30
0
11
-0.000886743244810547
21
2.7499999999997
31
0
210
0
220
0
230
1
40
0.000529
41
-1.70624880917108E-07
42
2.91469077757948
0
ELLIPSE
5
E0
100
AcDbEntity
8
1
62
256
6
ByLayer
370
18
48
1
60
0
100
AcDbEllipse
10
-70.855875
20
3.3588
30
0
11
-163.105064227232
21
0.711941192358939
31
0
210
0
220
0
230
1
40
0.016285
41
2.06986778572621
42
2.10728068617496
0
ELLIPSE
5
E1
100
AcDbEntity
8
1
62
256
6
ByLayer
370
18
48
1
60
0
100
AcDbEllipse
10
19.596085
20
1.741776
30
0
11
-0.201899082916593
21
0.0131523501519133
31
0
210
0
220
0
230
1
40
0.965789
41
1.63362806020192
42
2.30235771536525
0
ELLIPSE
5
E2
100
AcDbEntity
8
1
62
256
6
ByLayer
370
18
48
1
60
0
100
AcDbEllipse
10
19.649609
20
2.56341
30
0
11
-0.201899082918303
21
0.0131523501470555
31
0
210
0
220
0
230
1
40
0.965789
41
3.14159265358979
42
-2.55516214461116
0
ELLIPSE
5
E3
100
AcDbEntity
8
1
62
256
6
ByLayer
370
18
48
1
60
0
100
AcDbEllipse
10
19.649609
20
2.56341
30
0
11
-0.201899082916539
21
0.0131523501482181
31
0
210
0
220
0
230
1
40
0.965789
41
1.633628060183
42
3.14159265358979
0
ELLIPSE
5
E4
100
AcDbEntity
8
1
62
256
6
ByLayer
370
18
48
1
60
0
100
AcDbEllipse
10
19.511549
20
3.756222
30
0
11
-0.294601118044352
21
0.0191912563598407
31
0
210
0
220
0
230
1
40
0.965789
41
-1.50796459339824
42
0
0
ELLIPSE
5
E5
100
AcDbEntity
8
1
62
256
6
ByLayer
370
18
48
1
60
0
100
AcDbEllipse
10
12.910728
20
4.929422
30
0
11
-0.294601118043932
21
0.0191912563612597
31
0
210
0
220
0
230
1
40
0.965789
41
-2.19266936167564
42
-1.50796459339307
0
ELLIPSE
5
E6
100
AcDbEntity
8
1
62
256
6
ByLayer
370
18
48
1
60
0
100
AcDbEllipse
10
-70.855819
20
3.358801
30
0
11
-163.104993001833
21
0.711941679571937
31
0
210
0
220
0
230
1
40
0.016285
41
-2.08474202627462
42
-2.06971958088589
0
ELLIPSE
5
E7
100
AcDbEntity
8
1
62
256
6
ByLayer
370
18
48
1
60
0
100
AcDbEllipse
10
11.333764
20
5.455332
30
0
11
-1.99576982492377
21
0.13001081017447
31
0
210
0
220
0
230
1
40
0.965789
41
0
42
0.136479843172322
0
ELLIPSE
5
E8
100
AcDbEntity
8
1
62
256
6
ByLayer
370
18
48
1
60
0
100
AcDbEllipse
10
16.837467
20
6.761431
30
0
11
-1.03281088373796
21
0.0672805947670428
31
0
210
0
220
0
230
1
40
0.965789
41
1.11088726425318
42
2.15722683578998
0
ELLIPSE
5
E9
100
AcDbEntity
8
1
62
256
6
ByLayer
370
18
48
1
60
0
100
AcDbEllipse
10
16.837467
20
6.761431
30
0
11
-1.03281088373789
21
0.0672805947651046
31
0
210
0
220
0
230
1
40
0.965789
41
2.15722683578799
42
-3.07961889985473
0
ELLIPSE
5
EA
100
AcDbEntity
8
1
62
256
6
ByLayer
370
18
48
1
60
0
100
AcDbEllipse
10
16.837467
20
6.761431
30
0
11
-1.03281088373679
21
0.0672805947741143
31
0
210
0
220
0
230
1
40
0.965789
41
0.061973753743483
42
1.11088726426039
0
ELLIPSE
5
EB
100
AcDbEntity
8
1
62
256
6
ByLayer
370
18
48
1
60
0
100
AcDbEllipse
10
6.017656
20
3.3588
30
0
11
-0.000886743242413039
21
2.74999999016327
31
0
210
0
220
0
230
1
40
0.000529
41
-0.296691356844866
42
-1.70624881527413E-07
0
ELLIPSE
5
EC
100
AcDbEntity
8
1
62
256
6
ByLayer
370
18
48
1
60
0
100
AcDbEllipse
10
11.826468
20
6.236619
30
0
11
-0.201899082916573
21
0.0131523501499741
31
0
210
0
220
0
230
1
40
0.965789
41
0
42
1.63362806019199
0
ELLIPSE
5
ED
100
AcDbEntity
8
1
62
256
6
ByLayer
370
18
48
1
60
0
100
AcDbEllipse
10
16.834535
20
6.716422
30
0
11
-1.72135147289673
21
0.112134324612335
31
0
210
0
220
0
230
1
40
0.965789
41
3.14159265358979
42
0
0
ELLIPSE
5
EE
100
AcDbEntity
8
1
62
256
6
ByLayer
370
18
48
1
60
0
100
AcDbEllipse
10
16.834535
20
6.716422
30
0
11
-1.72135147289672
21
0.112134324613914
31
0
210
0
220
0
230
1
40
0.965789
41
2.15722683579119
42
3.14159265358979
0
ELLIPSE
5
EF
100
AcDbEntity
8
1
62
256
6
ByLayer
370
18
48
1
60
0
100
AcDbEllipse
10
11.261111
20
4.340057
30
0
11
-0.555770206135372
21
2.35434145708194
31
0
210
0
220
0
230
1
40
0.808663
41
-0.551155286929449
42
-0.476135134439909
0
ELLIPSE
5
F0
100
AcDbEntity
8
1
62
256
6
ByLayer
370
18
48
1
60
0
100
AcDbEllipse
10
11.827444
20
13.033728
30
0
11
-1.9094358615864
21
-9.13291909904897
31
0
210
0
220
0
230
1
40
0.163436
41
0.829796620531957
42
0.908895000827158
0
ELLIPSE
5
F1
100
AcDbEntity
8
1
62
256
6
ByLayer
370
18
48
1
60
0
100
AcDbEllipse
10
17.832436
20
7.062587
30
0
11
-0.421107432790913
21
0.0274322811446826
31
0
210
0
220
0
230
1
40
0.965789
41
0.653343831295612
42
1.36351670887051
0
ELLIPSE
5
F2
100
AcDbEntity
8
1
62
256
6
ByLayer
370
18
48
1
60
0
100
AcDbEllipse
10
17.670488
20
6.498236
30
0
11
-0.184608708685994
21
0.0120260000396868
31
0
210
0
220
0
230
1
40
0.965789
41
-2.34785863368269
42
-1.77807594465356
0
ELLIPSE
5
F3
100
AcDbEntity
8
1
62
256
6
ByLayer
370
18
48
1
60
0
100
AcDbEllipse
10
15.807755
20
7.072555
30
0
11
-0.421107432789222
21
0.0274322811314114
31
0
210
0
220
0
230
1
40
0.965789
41
1.90549689365743
42
2.68039662151239
0
ELLIPSE
5
F4
100
AcDbEntity
8
1
62
256
6
ByLayer
370
18
48
1
60
0
100
AcDbEllipse
10
15.97073
20
6.507062
30
0
11
-0.184608708689837
21
0.0120260001057637
31
0
210
0
220
0
230
1
40
0.965789
41
-1.23609575947304
42
-0.7921453827853
0
ELLIPSE
5
F5
100
AcDbEntity
8
1
62
256
6
ByLayer
370
18
48
1
60
0
100
AcDbEllipse
10
16.837467
20
6.761431
30
0
11
-1.03281088373889
21
0.0672805947626369
31
0
210
0
220
0
230
1
40
0.965789
41
-3.07961889985708
42
-2.03070538934102
0
ELLIPSE
5
F6
100
AcDbEntity
8
1
62
256
6
ByLayer
370
18
48
1
60
0
100
AcDbEllipse
10
16.837467
20
6.761431
30
0
11
-1.032810883738
21
0.067280594766577
31
0
210
0
220
0
230
1
40
0.965789
41
-0.984365817800322
42
0.0619737537364194
0
ELLIPSE
5
F7
100
AcDbEntity
8
1
62
256
6
ByLayer
370
18
48
1
60
0
100
AcDbEllipse
10
16.820609
20
6.502649
30
0
11
-0.746417914038472
21
0.0486240433838263
31
0
210
0
220
0
230
1
40
0.965789
41
3.13273204633462
42
-2.59289349648885
0
ELLIPSE
5
F8
100
AcDbEntity
8
1
62
256
6
ByLayer
370
18
48
1
60
0
100
AcDbEllipse
10
16.820609
20
6.502649
30
0
11
-0.746417979943337
21
0.0486237049219003
31
0
210
0
220
0
230
1
40
0.965789
41
-2.5928939527358
42
-2.51743125150803
0
ELLIPSE
5
F9
100
AcDbEntity
8
1
62
256
6
ByLayer
370
18
48
1
60
0
100
AcDbEllipse
10
16.820609
20
6.502649
30
0
11
-0.746417914056699
21
0.0486240434073508
31
0
210
0
220
0
230
1
40
0.965789
41
-0.461196031977031
42
0.0996691350186021
0
ELLIPSE
5
FA
100
AcDbEntity
8
1
62
256
6
ByLayer
370
18
48
1
60
0
100
AcDbEllipse
10
15.807755
20
7.072555
30
0
11
-0.421107432766167
21
0.0274322810625256
31
0
210
0
220
0
230
1
40
0.965789
41
2.68039662134252
42
3.14159265339009
0
ELLIPSE
5
FB
100
AcDbEntity
8
1
62
256
6
ByLayer
370
18
48
1
60
0
100
AcDbEllipse
10
16.820609
20
6.502649
30
0
11
-0.746417914044491
21
0.0486240433681658
31
0
210
0
220
0
230
1
40
0.965789
41
-1.50753560356782
42
-0.461196032031116
0
ELLIPSE
5
FC
100
AcDbEntity
8
1
62
256
6
ByLayer
370
18
48
1
60
0
100
AcDbEllipse
10
16.820609
20
6.502649
30
0
11
-0.746417914044641
21
0.0486240433671437
31
0
210
0
220
0
230
1
40
0.965789
41
-2.51743079267869
42
-1.50753560356926
0
ELLIPSE
5
FD
100
AcDbEntity
8
1
62
256
6
ByLayer
370
18
48
1
60
0
100
AcDbEllipse
10
17.832436
20
7.062587
30
0
11
-0.421107432773971
21
0.0274322811969204
31
0
210
0
220
0
230
1
40
0.965789
41
1.05869767999785E-10
42
0.519517186793326
0
ELLIPSE
5
FE
100
AcDbEntity
8
1
62
256
6
ByLayer
370
18
48
1
60
0
100
AcDbEllipse
10
11.324155
20
5.307827
30
0
11
-1.99576982357301
21
0.130010811334593
31
0
210
0
220
0
230
1
40
0.965789
41
-1.76437788431113
42
-1.58781656730627
0
ELLIPSE
5
FF
100
AcDbEntity
8
1
62
256
6
ByLayer
370
18
48
1
60
0
100
AcDbEllipse
10
11.296228
20
4.879126
30
0
11
-0.555770181669729
21
2.35434149362865
31
0
210
0
220
0
230
1
40
0.808663
41
-0.378672184263936
42
-0.282443067160834
0
ELLIPSE
5
100
100
AcDbEntity
8
1
62
256
6
ByLayer
370
18
48
1
60
0
100
AcDbEllipse
10
17.244917
20
7.212188
30
0
11
-0.184608708687472
21
0.0120260000308318
31
0
210
0
220
0
230
1
40
0.965789
41
-2.52838198291566
42
-0.732635875715684
0
ELLIPSE
5
101
100
AcDbEntity
8
1
62
256
6
ByLayer
370
18
48
1
60
0
100
AcDbEllipse
10
16.820108
20
7.632784
30
0
11
-0.421107432789514
21
0.0274322811421552
31
0
210
0
220
0
230
1
40
0.965789
41
1.63405704999904
42
2.40895677785296
0
ELLIPSE
5
102
100
AcDbEntity
8
1
62
256
6
ByLayer
370
18
48
1
60
0
100
AcDbEllipse
10
16.820108
20
7.632784
30
0
11
-0.421107432790609
21
0.0274322811476067
31
0
210
0
220
0
230
1
40
0.965789
41
0.859157322160587
42
1.63405705001208
0
ELLIPSE
5
103
100
AcDbEntity
8
1
62
256
6
ByLayer
370
18
48
1
60
0
100
AcDbEllipse
10
16.39567
20
7.215542
30
0
11
-0.184608708687472
21
0.0120260000308735
31
0
210
0
220
0
230
1
40
0.965789
41
-2.28243533142042
42
-0.471049474159478
0
ELLIPSE
5
104
100
AcDbEntity
8
1
62
256
6
ByLayer
370
18
48
1
60
0
100
AcDbEllipse
10
11.942342
20
14.7975
30
0
11
-1.90943624292205
21
-9.13292263720837
31
0
210
0
220
0
230
1
40
0.163436
41
0.636104451724814
42
0.659225135576575
0
ELLIPSE
5
105
100
AcDbEntity
8
1
62
256
6
ByLayer
370
18
48
1
60
0
100
AcDbEllipse
10
11.333764
20
5.455332
30
0
11
-1.99576982364839
21
0.130010811145437
31
0
210
0
220
0
230
1
40
0.965789
41
-1.51470813941291
42
-4.59820115832807E-16
0
ELLIPSE
5
106
100
AcDbEntity
8
1
62
256
6
ByLayer
370
18
48
1
60
0
100
AcDbEllipse
10
16.837467
20
6.761431
30
0
11
-1.032810883738
21
0.0672805947674319
31
0
210
0
220
0
230
1
40
0.965789
41
-2.03070538933619
42
-0.984365817799467
0
ELLIPSE
5
107
100
AcDbEntity
8
1
62
256
6
ByLayer
370
18
48
1
60
0
100
AcDbEllipse
10
14.704817
20
-0.34
30
0
11
-0.167069788609985
21
-9.89999491186596
31
0
210
0
220
0
230
1
40
0.062716
41
3.12233152209024
42
-3.14053428227824
0
ELLIPSE
5
108
100
AcDbEntity
8
1
62
256
6
ByLayer
370
18
48
1
60
0
100
AcDbEllipse
10
178.34928
20
-0.340006
30
0
11
-587.178416818169
21
2.56299062565199
31
0
210
0
220
0
230
1
40
0.016285
41
-1.2886062699828
42
-1.27494856918684
0
ELLIPSE
5
109
100
AcDbEntity
8
1
62
256
6
ByLayer
370
18
48
1
60
0
100
AcDbEllipse
10
16.809498
20
6.332073
30
0
11
-1.82090010187709
21
0.118619239780599
31
0
210
0
220
0
230
1
40
0.965789
41
2.77291779003014
42
-2.78126171589947
0
ELLIPSE
5
10A
100
AcDbEntity
8
1
62
256
6
ByLayer
370
18
48
1
60
0
100
AcDbEllipse
10
16.825451
20
6.576974
30
0
11
-1.92685733812668
21
0.125521632064886
31
0
210
0
220
0
230
1
40
0.965789
41
0.263455571010787
42
2.87813708257903
0
ELLIPSE
5
10B
100
AcDbEntity
8
1
62
256
6
ByLayer
370
18
48
1
60
0
100
AcDbEllipse
10
16.825451
20
6.576974
30
0
11
-1.92685733812665
21
0.12552163206514
31
0
210
0
220
0
230
1
40
0.965789
41
2.87813708257915
42
-1.50796459339764
0
ELLIPSE
5
10C
100
AcDbEntity
8
1
62
256
6
ByLayer
370
18
48
1
60
0
100
AcDbEllipse
10
16.825451
20
6.576974
30
0
11
-1.9268573381267
21
0.125521632065486
31
0
210
0
220
0
230
1
40
0.965789
41
-1.50796459339745
42
0.263455571011079
0
ELLIPSE
5
10D
100
AcDbEntity
8
1
62
256
6
ByLayer
370
18
48
1
60
0
100
AcDbEllipse
10
16.834674
20
6.718551
30
0
11
-0.746417829623324
21
0.0486244768143029
31
0
210
0
220
0
230
1
40
0.965789
41
-2.59289291221361
42
-2.51743020504056
0
ELLIPSE
5
10E
100
AcDbEntity
8
1
62
256
6
ByLayer
370
18
48
1
60
0
100
AcDbEllipse
10
19.000276
20
10.930894
30
0
11
-0.201899082916577
21
0.0131523501500731
31
0
210
0
220
0
230
1
40
0.965789
41
-2.5551621445931
42
-0.460767042200779
0
ELLIPSE
5
10F
100
AcDbEntity
8
1
62
256
6
ByLayer
370
18
48
1
60
0
100
AcDbEllipse
10
18.000553
20
10.223647
30
0
11
-0.294601118044353
21
0.0191912563598167
31
0
210
0
220
0
230
1
40
0.965789
41
0.58643050899481
42
2.68082561138847
0
ELLIPSE
5
110
100
AcDbEntity
8
1
62
256
6
ByLayer
370
18
48
1
60
0
100
AcDbEllipse
10
11.826468
20
6.236619
30
0
11
-0.201899082931131
21
0.0131523502190403
31
0
210
0
220
0
230
1
40
0.965789
41
-0.460767041854617
42
3.24108295432347E-10
0
ELLIPSE
5
111
100
AcDbEntity
8
1
62
256
6
ByLayer
370
18
48
1
60
0
100
AcDbEllipse
10
11.772944
20
5.414985
30
0
11
-0.201899082916562
21
0.0131523501500703
31
0
210
0
220
0
230
1
40
0.965789
41
0
42
1.63362806019248
0
ELLIPSE
5
112
100
AcDbEntity
8
1
62
256
6
ByLayer
370
18
48
1
60
0
100
AcDbEllipse
10
16.811965
20
6.369949
30
0
11
-1.87103420967279
21
0.121885135452875
31
0
210
0
220
0
230
1
40
0.965789
41
2.93306504057004
42
-2.77489189201082
0
ELLIPSE
5
113
100
AcDbEntity
8
1
62
256
6
ByLayer
370
18
48
1
60
0
100
AcDbEllipse
10
16.811965
20
6.369949
30
0
11
-1.87103420977522
21
0.12188513486172
31
0
210
0
220
0
230
1
40
0.965789
41
-2.77489189232279
42
-2.62212641584127
0
ELLIPSE
5
114
100
AcDbEntity
8
1
62
256
6
ByLayer
370
18
48
1
60
0
100
AcDbEllipse
10
16.834535
20
6.716422
30
0
11
-1.72135147289669
21
0.112134324612647
31
0
210
0
220
0
230
1
40
0.965789
41
0
42
2.15722683579047
0
ELLIPSE
5
115
100
AcDbEntity
8
1
62
256
6
ByLayer
370
18
48
1
60
0
100
AcDbEllipse
10
16.822295
20
6.528527
30
0
11
-1.7213514728967
21
0.112134324612589
31
0
210
0
220
0
230
1
40
0.965789
41
0
42
2.15722683579043
0
ELLIPSE
5
116
100
AcDbEntity
8
1
62
256
6
ByLayer
370
18
48
1
60
0
100
AcDbEllipse
10
16.822295
20
6.528527
30
0
11
-1.72135147289632
21
0.112134324607357
31
0
210
0
220
0
230
1
40
0.965789
41
2.15722683578728
42
3.14159265358979
0
ELLIPSE
5
117
100
AcDbEntity
8
1
62
256
6
ByLayer
370
18
48
1
60
0
100
AcDbEllipse
10
12.964251
20
5.751055
30
0
11
-0.294601118049937
21
0.0191912563871428
31
0
210
0
220
0
230
1
40
0.965789
41
2.68082561148196
42
3.14159265358979
0
ELLIPSE
5
118
100
AcDbEntity
8
1
62
256
6
ByLayer
370
18
48
1
60
0
100
AcDbEllipse
10
12.964251
20
5.751055
30
0
11
-0.294601118044456
21
0.0191912563593012
31
0
210
0
220
0
230
1
40
0.965789
41
3.14159265358979
42
-1.50796459340015
0
ELLIPSE
5
119
100
AcDbEntity
8
1
62
256
6
ByLayer
370
18
48
1
60
0
100
AcDbEllipse
10
11.324155
20
5.307827
30
0
11
-1.99576982753055
21
0.130010828040149
31
0
210
0
220
0
230
1
40
0.965789
41
2.86287602298845
42
2.94643776921703
0
ELLIPSE
5
11A
100
AcDbEntity
8
1
62
256
6
ByLayer
370
18
48
1
60
0
100
AcDbEllipse
10
16.811965
20
6.369949
30
0
11
-1.87103420966453
21
0.121885135397685
31
0
210
0
220
0
230
1
40
0.965789
41
-0.519466238086945
42
-0.312099687374546
0
ELLIPSE
5
11B
100
AcDbEntity
8
1
62
256
6
ByLayer
370
18
48
1
60
0
100
AcDbEllipse
10
16.811965
20
6.369949
30
0
11
-1.87103420967645
21
0.121885135454343
31
0
210
0
220
0
230
1
40
0.965789
41
-0.312099687344549
42
0.208527613058162
0
ELLIPSE
5
11C
100
AcDbEntity
8
1
62
256
6
ByLayer
370
18
48
1
60
0
100
AcDbEllipse
10
11.278975
20
4.61429
30
0
11
-1.99576982364839
21
0.130010811145133
31
0
210
0
220
0
230
1
40
0.965789
41
-1.74300912299241
42
-0.210086620011619
0
ELLIPSE
5
11D
100
AcDbEntity
8
1
62
256
6
ByLayer
370
18
48
1
60
0
100
AcDbEllipse
10
11.333764
20
5.455332
30
0
11
-1.99576982376726
21
0.13001081240912
31
0
210
0
220
0
230
1
40
0.965789
41
2.57684916765356
42
2.79356427849227
0
ELLIPSE
5
11E
100
AcDbEntity
8
1
62
256
6
ByLayer
370
18
48
1
60
0
100
AcDbEllipse
10
16.834674
20
6.718551
30
0
11
-0.746417867520208
21
0.0486242830542309
31
0
210
0
220
0
230
1
40
0.965789
41
0.548699480081936
42
0.624162185756595
0
ELLIPSE
5
11F
100
AcDbEntity
8
1
62
256
6
ByLayer
370
18
48
1
60
0
100
AcDbEllipse
10
19.596085
20
1.741776
30
0
11
-0.201899082917321
21
0.013152350158731
31
0
210
0
220
0
230
1
40
0.965789
41
2.30235771540005
42
3.14159265358979
0
ELLIPSE
5
120
100
AcDbEntity
8
1
62
256
6
ByLayer
370
18
48
1
60
0
100
AcDbEllipse
10
19.511549
20
3.756222
30
0
11
-0.29460111802996
21
0.0191912564049879
31
0
210
0
220
0
230
1
40
0.965789
41
1.49863154833926E-10
42
0.586430509156695
0
ELLIPSE
5
121
100
AcDbEntity
8
1
62
256
6
ByLayer
370
18
48
1
60
0
100
AcDbEllipse
10
6.020517
20
0
30
0
11
-0.00257961671216949
21
7.99999999998953
31
0
210
0
220
0
230
1
40
0.000529
41
0.264362441306979
42
2.35363697994174
0
ELLIPSE
5
122
100
AcDbEntity
8
1
62
256
6
ByLayer
370
18
48
1
60
0
100
AcDbEllipse
10
16.788579
20
6.010963
30
0
11
-1.24735613978024
21
0.0812567569657341
31
0
210
0
220
0
230
1
40
0.965789
41
0.993106088549755
42
2.15722683579049
0
ELLIPSE
5
123
100
AcDbEntity
8
1
62
256
6
ByLayer
370
18
48
1
60
0
100
AcDbEllipse
10
16.809498
20
6.332073
30
0
11
-1.82090010187793
21
0.118619239780692
31
0
210
0
220
0
230
1
40
0.965789
41
-0.360330937694272
42
0.368674863510911
0
ELLIPSE
5
124
100
AcDbEntity
8
1
62
256
6
ByLayer
370
18
48
1
60
0
100
AcDbEllipse
10
16.820609
20
6.502649
30
0
11
-0.746417914043048
21
0.0486240433179297
31
0
210
0
220
0
230
1
40
0.965789
41
2.142764218521
42
2.56180094133399
0
ELLIPSE
5
125
100
AcDbEntity
8
1
62
256
6
ByLayer
370
18
48
1
60
0
100
AcDbEllipse
10
16.820609
20
6.502649
30
0
11
-0.746417914019814
21
0.0486240435192237
31
0
210
0
220
0
230
1
40
0.965789
41
0.742151806172309
42
1.14038560125832
0
ELLIPSE
5
126
100
AcDbEntity
8
1
62
256
6
ByLayer
370
18
48
1
60
0
100
AcDbEllipse
10
17.064328
20
-0.341427
30
0
11
-7.21430942360242
21
8.21760927857645
31
0
210
0
220
0
230
1
40
0.765633
41
-0.628166600797861
42
-0.623797080226333
0
POINT
5
6C
100
AcDbEntity
8
80
62
256
6
ByLayer
370
18
48
1
60
0
100
AcDbPoint
10
0
20
0
30
0
39
0
210
0
220
0
230
1
50
360
0
POINT
5
6E
100
AcDbEntity
8
81
62
256
6
ByLayer
370
18
48
1
60
0
100
AcDbPoint
10
20
20
12
30
0
39
0
210
0
220
0
230
1
50
360
0
SPLINE
5
127
100
AcDbEntity
8
1
62
256
6
ByLayer
370
18
48
1
60
0
100
AcDbSpline
70
4
71
2
72
6
73
3
40
0
40
0
40
0
40
1
40
1
40
1
41
1
10
-0.221234
20
-7.14142842854285
30
0
41
1
10
0.153500380114316
20
-7.52184629532355
30
0
41
1
10
0.528766
20
-7.90174031463955
30
0
0
SPLINE
5
128
100
AcDbEntity
8
1
62
256
6
ByLayer
370
18
48
1
60
0
100
AcDbSpline
70
4
71
1
72
4
73
2
40
0
40
0
40
1
40
1
41
1
10
6.3
20
-6.23624800011832
30
0
41
1
10
6.29999999999824
20
-5.66442022599318
30
0
0
SPLINE
5
129
100
AcDbEntity
8
1
62
256
6
ByLayer
370
18
48
1
60
0
100
AcDbSpline
70
4
71
2
72
6
73
3
40
0
40
0
40
0
40
1
40
1
40
1
41
1
10
6.01933509252847
20
-5.64236926989373
30
0
41
1
10
6.00984421150878
20
-5.98993652627559
30
0
41
1
10
6.3
20
-6.23624800011832
30
0
0
SPLINE
5
12A
100
AcDbEntity
8
1
62
256
6
ByLayer
370
18
48
1
60
0
100
AcDbSpline
70
4
71
3
72
10
73
6
40
0
40
0
40
0
40
0
40
0.47101649301651
40
0.944619552518846
40
1
40
1
40
1
40
1
41
1
10
6.0192305832374
20
-5.06389590147852
30
0
41
1
10
6.01421707238646
20
-5.18514984617652
30
0
41
1
10
6.05063463007013
20
-5.40148398818739
30
0
41
1
10
6.1871602646596
20
-5.5834161642105
30
0
41
1
10
6.2890149662008
20
-5.65692778064228
30
0
41
1
10
6.29999999999824
20
-5.66442022599318
30
0
0
SPLINE
5
12B
100
AcDbEntity
8
1
62
256
6
ByLayer
370
18
48
1
60
0
100
AcDbSpline
70
4
71
2
72
6
73
3
40
0
40
0
40
0
40
1
40
1
40
1
41
1
10
12.769890313382
20
-3
30
0
41
1
10
11.532382994317
20
-3.00108339010594
30
0
41
1
10
10.3521188988508
20
-3.37409799518276
30
0
0
SPLINE
5
12C
100
AcDbEntity
8
1
62
256
6
ByLayer
370
18
48
1
60
0
100
AcDbSpline
70
4
71
1
72
4
73
2
40
0
40
0
40
1
40
1
41
1
10
15.1930055414475
20
-3
30
0
41
1
10
16.7698903133819
20
-3.00000000000003
30
0
0
SPLINE
5
12D
100
AcDbEntity
8
1
62
256
6
ByLayer
370
18
48
1
60
0
100
AcDbSpline
70
4
71
3
72
19
73
15
40
0
40
0
40
0
40
0
40
0.0843098987499756
40
0.170939878824245
40
0.255289976976079
40
0.331352270975151
40
0.409664732620239
40
0.484570784321845
40
0.561747730136746
40
0.635485976680104
40
0.710975455276619
40
0.792869968460058
40
0.876650492121686
40
1
40
1
40
1
40
1
41
1
10
19.6972256101015
20
-0.656283521490747
30
0
41
1
10
19.6922782157916
20
-0.682734403761034
30
0
41
1
10
19.6736211945057
20
-0.756754088467591
30
0
41
1
10
19.6242192106767
20
-0.932170088916018
30
0
41
1
10
19.5423819075979
20
-1.15570034682202
30
0
41
1
10
19.4230824571399
20
-1.41047620476927
30
0
41
1
10
19.2637596185957
20
-1.67838561071921
30
0
41
1
10
19.0553746450023
20
-1.95408505112699
30
0
41
1
10
18.8051520823236
20
-2.21433330478034
30
0
41
1
10
18.5138754286149
20
-2.45058068410349
30
0
41
1
10
18.1826403265814
20
-2.65659862844052
30
0
41
1
10
17.8083576010541
20
-2.82517538040339
30
0
41
1
10
17.3332323732898
20
-2.96271233824497
30
0
41
1
10
16.9831884586362
20
-2.99955066847154
30
0
41
1
10
16.769890313382
20
-3
30
0
0
SPLINE
5
12E
100
AcDbEntity
8
1
62
256
6
ByLayer
370
18
48
1
60
0
100
AcDbSpline
70
4
71
3
72
10
73
6
40
0
40
0
40
0
40
0
40
0.222299623986933
40
0.712022453393512
40
1
40
1
40
1
40
1
41
1
10
7.19797152904803
20
-0.624629545844896
30
0
41
1
10
7.13702891410058
20
-0.624344806249525
30
0
41
1
10
6.94604437711404
20
-0.622894348286301
30
0
41
1
10
6.68265419609273
20
-0.612721171791135
30
0
41
1
10
6.51135207973005
20
-0.609808866379407
30
0
41
1
10
6.45095935746901
20
-0.60878492993833
30
0
0
SPLINE
5
12F
100
AcDbEntity
8
1
62
256
6
ByLayer
370
18
48
1
60
0
100
AcDbSpline
70
4
71
2
72
6
73
3
40
0
40
0
40
0
40
1
40
1
40
1
41
1
10
6.01819299690605
20
0.679287829182701
30
0
41
1
10
6.01621712254812
20
0.606103768718166
30
0
41
1
10
6.17956755532134
20
0.60880654917548
30
0
0
SPLINE
5
130
100
AcDbEntity
8
1
62
256
6
ByLayer
370
18
48
1
60
0
100
AcDbSpline
70
4
71
3
72
14
73
10
40
0
40
0
40
0
40
0
40
0.122223650028374
40
0.24885275298658
40
0.37866696315153
40
0.505612292756557
40
0.6359183576745
40
0.817516054655993
40
1
40
1
40
1
40
1
41
1
10
12.952440836318
20
4.31391701106601
30
0
41
1
10
13.0141122990214
20
4.17083648571891
30
0
41
1
10
13.1220750731122
20
3.87490754228273
30
0
41
1
10
13.2468817505142
20
3.41072085892254
30
0
41
1
10
13.2854605475603
20
2.92502557906316
30
0
41
1
10
13.2183855141419
20
2.43864788316581
30
0
41
1
10
13.0563431472305
20
1.90726487068336
30
0
41
1
10
12.808740294668
20
1.33174243548761
30
0
41
1
10
12.608223821697
20
0.916720903293089
30
0
41
1
10
12.5
20
0.71184257235076
30
0
0
SPLINE
5
131
100
AcDbEntity
8
1
62
256
6
ByLayer
370
18
48
1
60
0
100
AcDbSpline
70
4
71
3
72
18
73
14
40
0
40
0
40
0
40
0
40
0.127549340962878
40
0.194127749057397
40
0.262497952652656
40
0.329150760297986
40
0.398131667614771
40
0.521381171593365
40
0.648390485562643
40
0.715390549162933
40
0.784229914370271
40
0.905836554869666
40
1
40
1
40
1
40
1
41
1
10
9.33946856604407
20
5.32188641503415
30
0
41
1
10
9.33901777426741
20
5.17702121174254
30
0
41
1
10
9.36517108350708
20
4.94217228894242
30
0
41
1
10
9.44885370932586
20
4.5882682656108
30
0
41
1
10
9.55338088489548
20
4.311229190414
30
0
41
1
10
9.70371045327963
20
4.03773669020705
30
0
41
1
10
9.95244134934066
20
3.71804444116778
30
0
41
1
10
10.3538677595188
20
3.39997657768159
30
0
41
1
10
10.8313400349415
20
3.22482612610856
30
0
41
1
10
11.2442829217086
20
3.17678335258217
30
0
41
1
10
11.6507269278296
20
3.1956632914553
30
0
41
1
10
12.0910885265849
20
3.32123775570657
30
0
41
1
10
12.3799483677243
20
3.49657396358479
30
0
41
1
10
12.5
20
3.58902613504335
30
0
0
SPLINE
5
132
100
AcDbEntity
8
1
62
256
6
ByLayer
370
18
48
1
60
0
100
AcDbSpline
70
4
71
3
72
11
73
7
40
0
40
0
40
0
40
0
40
0.0903482868550567
40
0.391121347967164
40
0.69613062313167
40
1
40
1
40
1
40
1
41
1
10
17.3548937470808
20
5.89337895897773
30
0
41
1
10
17.3598080913946
20
5.8961042656051
30
0
41
1
10
17.380310256142
20
5.90854468038477
30
0
41
1
10
17.4119765297814
20
5.93668463364032
30
0
41
1
10
17.4383504007871
20
5.98071609681711
30
0
41
1
10
17.4454120154522
20
6.01068712270438
30
0
41
1
10
17.446339446016
20
6.02613331323912
30
0
0
SPLINE
5
133
100
AcDbEntity
8
1
62
256
6
ByLayer
370
18
48
1
60
0
100
AcDbSpline
70
4
71
3
72
11
73
7
40
0
40
0
40
0
40
0
40
0.284737382921487
40
0.571425505645867
40
0.831498054963927
40
1
40
1
40
1
40
1
41
1
10
17.131902202907
20
5.90378661165703
30
0
41
1
10
17.1478612116708
20
5.89161563265719
30
0
41
1
10
17.1835655991163
20
5.87341630583165
30
0
41
1
10
17.249451269127
20
5.86282420702015
30
0
41
1
10
17.3097258642926
20
5.87243620324804
30
0
41
1
10
17.3423192324533
20
5.88652500442049
30
0
41
1
10
17.3548937470808
20
5.89337895897773
30
0
0
SPLINE
5
134
100
AcDbEntity
8
1
62
256
6
ByLayer
370
18
48
1
60
0
100
AcDbSpline
70
4
71
3
72
12
73
8
40
0
40
0
40
0
40
0
40
0.0653589438502565
40
0.289730938852752
40
0.517150356856028
40
0.759049137700715
40
1
40
1
40
1
40
1
41
1
10
16.3208099446435
20
5.89746290228831
30
0
41
1
10
16.3255825307435
20
5.89479063008513
30
0
41
1
10
16.3470261132774
20
5.88379871213622
30
0
41
1
10
16.3892275599249
20
5.87057073942286
30
0
41
1
10
16.4461180981156
20
5.8679497700695
30
0
41
1
10
16.4994452322589
20
5.8801637375866
30
0
41
1
10
16.5284806080139
20
5.89606005498581
30
0
41
1
10
16.5414862665535
20
5.90611836195447
30
0
0
SPLINE
5
135
100
AcDbEntity
8
1
62
256
6
ByLayer
370
18
48
1
60
0
100
AcDbSpline
70
4
71
3
72
11
73
7
40
0
40
0
40
0
40
0
40
0.153796253590601
40
0.492055544649082
40
0.79886425268571
40
1
40
1
40
1
40
1
41
1
10
16.2277077702224
20
6.05097618025956
30
0
41
1
10
16.2271048566926
20
6.04251291989418
30
0
41
1
10
16.227902348041
20
6.01543443254275
30
0
41
1
10
16.2429284902941
20
5.9690640317822
30
0
41
1
10
16.2793810361197
20
5.92478941260716
30
0
41
1
10
16.3081644365691
20
5.90466558527727
30
0
41
1
10
16.3208099446435
20
5.89746290228831
30
0
0
SPLINE
5
136
100
AcDbEntity
8
1
62
256
6
ByLayer
370
18
48
1
60
0
100
AcDbSpline
70
4
71
3
72
13
73
9
40
0
40
0
40
0
40
0
40
0.119475297772585
40
0.305851773616514
40
0.507536989998828
40
0.729662661961546
40
0.949836689336208
40
1
40
1
40
1
40
1
41
1
10
7.1968920214196
20
5.35059437337503
30
0
41
1
10
7.11936858732868
20
5.35225651166144
30
0
41
1
10
6.92688896435346
20
5.36844357008929
30
0
41
1
10
6.62236726750028
20
5.45541858147402
30
0
41
1
10
6.32129153972566
20
5.61370870115886
30
0
41
1
10
6.096390700738
20
5.80079214365624
30
0
41
1
10
6.02053574628482
20
5.92629625222942
30
0
41
1
10
6.0167246129939
20
5.97922305770221
30
0
41
1
10
6.01723378650264
20
5.98864996779987
30
0
0
SPLINE
5
137
100
AcDbEntity
8
1
62
256
6
ByLayer
370
18
48
1
60
0
100
AcDbSpline
70
4
71
2
72
6
73
3
40
0
40
0
40
0
40
1
40
1
40
1
41
1
10
17.4270264800127
20
6.18536001846685
30
0
41
1
10
17.4237399363183
20
6.12619240252492
30
0
41
1
10
17.440444676157
20
6.07453186561465
30
0
0
SPLINE
5
138
100
AcDbEntity
8
1
62
256
6
ByLayer
370
18
48
1
60
0
100
AcDbSpline
70
4
71
2
72
6
73
3
40
0
40
0
40
0
40
1
40
1
40
1
41
1
10
17.446339446016
20
6.02613331323912
30
0
41
1
10
17.4479438601401
20
6.05126015477436
30
0
41
1
10
17.440444676157
20
6.07453186561495
30
0
0
SPLINE
5
139
100
AcDbEntity
8
1
62
256
6
ByLayer
370
18
48
1
60
0
100
AcDbSpline
70
4
71
1
72
4
73
2
40
0
40
0
40
1
40
1
41
1
10
16.2329455286827
20
6.07981597706837
30
0
41
1
10
16.2449020533662
20
6.14573906015858
30
0
0
SPLINE
5
13A
100
AcDbEntity
8
1
62
256
6
ByLayer
370
18
48
1
60
0
100
AcDbSpline
70
4
71
1
72
4
73
2
40
0
40
0
40
1
40
1
41
1
10
16.2329455286827
20
6.07981597706835
30
0
41
1
10
16.2277077702224
20
6.05097618025956
30
0
0
SPLINE
5
13B
100
AcDbEntity
8
1
62
256
6
ByLayer
370
18
48
1
60
0
100
AcDbSpline
70
4
71
3
72
11
73
7
40
0
40
0
40
0
40
0
40
0.284741728902634
40
0.571429304116668
40
0.831501419361914
40
1
40
1
40
1
40
1
41
1
10
17.7358719933677
20
6.56708309753961
30
0
41
1
10
17.7574217694299
20
6.575575495859
30
0
41
1
10
17.7962995220556
20
6.59854228273392
30
0
41
1
10
17.8441147438359
20
6.65094717159984
30
0
41
1
10
17.8681793465324
20
6.70749786463568
30
0
41
1
10
17.8722049007177
20
6.7420796838007
30
0
41
1
10
17.8723198270948
20
6.7560576562192
30
0
0
SPLINE
5
13C
100
AcDbEntity
8
1
62
256
6
ByLayer
370
18
48
1
60
0
100
AcDbSpline
70
4
71
3
72
12
73
8
40
0
40
0
40
0
40
0
40
0.0671993428668203
40
0.290898191896908
40
0.517747882845664
40
0.759126557988768
40
1
40
1
40
1
40
1
41
1
10
17.8723198270948
20
6.7560576562192
30
0
41
1
10
17.8723191207878
20
6.76154260268491
30
0
41
1
10
17.8712393111206
20
6.7849039444518
30
0
41
1
10
17.8604563137362
20
6.82503648617316
30
0
41
1
10
17.8303952006391
20
6.86853680015133
30
0
41
1
10
17.7870051352392
20
6.89910313103897
30
0
41
1
10
17.7536116806237
20
6.90901975795072
30
0
41
1
10
17.7355531834186
20
6.91134857906145
30
0
0
SPLINE
5
13D
100
AcDbEntity
8
1
62
256
6
ByLayer
370
18
48
1
60
0
100
AcDbSpline
70
4
71
3
72
11
73
7
40
0
40
0
40
0
40
0
40
0.284741728902628
40
0.571429304116665
40
0.831501419361915
40
1
40
1
40
1
40
1
41
1
10
15.936771439782
20
6.92060860817598
30
0
41
1
10
15.915602551881
20
6.91796314744281
30
0
41
1
10
15.8774025862862
20
6.9054009330137
30
0
41
1
10
15.8303715835269
20
6.86503443267448
30
0
41
1
10
15.8066900696168
20
6.8143644585788
30
0
41
1
10
15.8027284556284
20
6.78076417252199
30
0
41
1
10
15.8026147452536
20
6.76680486670887
30
0
0
SPLINE
5
13E
100
AcDbEntity
8
1
62
256
6
ByLayer
370
18
48
1
60
0
100
AcDbSpline
70
4
71
3
72
12
73
8
40
0
40
0
40
0
40
0
40
0.0671993428668714
40
0.290898191897142
40
0.51774788284608
40
0.75912655798937
40
1
40
1
40
1
40
1
41
1
10
15.8026147452536
20
6.76680486670887
30
0
41
1
10
15.8026153913797
20
6.76131899641993
30
0
41
1
10
15.8036776500804
20
6.73768823329349
30
0
41
1
10
15.8142892128811
20
6.69492403374472
30
0
41
1
10
15.8438642638699
20
6.64396227806354
30
0
41
1
10
15.8865323953561
20
6.60231368481293
30
0
41
1
10
15.9193412116222
20
6.58342239213244
30
0
41
1
10
15.937079078459
20
6.57617163869624
30
0
0
SPLINE
5
13F
100
AcDbEntity
8
1
62
256
6
ByLayer
370
18
48
1
60
0
100
AcDbSpline
70
4
71
3
72
12
73
8
40
0
40
0
40
0
40
0
40
0.065358943850239
40
0.289730938852739
40
0.517150356856037
40
0.75904913770073
40
1
40
1
40
1
40
1
41
1
10
17.3541246277049
20
7.62539962063977
30
0
41
1
10
17.349351986789
20
7.62807105137709
30
0
41
1
10
17.3278914977477
20
7.63880344092785
30
0
41
1
10
17.2855211637971
20
7.64943885860761
30
0
41
1
10
17.2281468313203
20
7.64463319913881
30
0
41
1
10
17.1741003750348
20
7.62137706203492
30
0
41
1
10
17.144482219963
20
7.59653461650815
30
0
41
1
10
17.1311571665962
20
7.58157334376106
30
0
0
SPLINE
5
140
100
AcDbEntity
8
1
62
256
6
ByLayer
370
18
48
1
60
0
100
AcDbSpline
70
4
71
3
72
11
73
7
40
0
40
0
40
0
40
0
40
0.153796253590606
40
0.492055544649077
40
0.798864252685696
40
1
40
1
40
1
40
1
41
1
10
17.4455042504141
20
7.44544379765317
30
0
41
1
10
17.4462641176308
20
7.45631642251145
30
0
41
1
10
17.4459380882349
20
7.49063222751134
30
0
41
1
10
17.4315518386193
20
7.54682549150081
30
0
41
1
10
17.3954872081745
20
7.59705492169599
30
0
41
1
10
17.3667688667575
20
7.61817745715279
30
0
41
1
10
17.3541246277049
20
7.62539962063977
30
0
0
SPLINE
5
141
100
AcDbEntity
8
1
62
256
6
ByLayer
370
18
48
1
60
0
100
AcDbSpline
70
4
71
3
72
11
73
7
40
0
40
0
40
0
40
0
40
0.266855810335294
40
0.533030396939823
40
0.821209483887949
40
1
40
1
40
1
40
1
41
1
10
6.85820553532404
20
8.26352071519671
30
0
41
1
10
6.84324681795932
20
8.21116506628493
30
0
41
1
10
6.80132252160797
20
8.11844574639717
30
0
41
1
10
6.69129916043315
20
8.00760320574519
30
0
41
1
10
6.57421424530503
20
7.95087301825311
30
0
41
1
10
6.5005315127323
20
7.93514291716391
30
0
41
1
10
6.47183520481217
20
7.93223728332761
30
0
0
SPLINE
5
142
100
AcDbEntity
8
1
62
256
6
ByLayer
370
18
48
1
60
0
100
AcDbSpline
70
4
71
3
72
11
73
7
40
0
40
0
40
0
40
0
40
0.0283891209681767
40
0.35516050897316
40
0.703064591143201
40
1
40
1
40
1
40
1
41
1
10
6.47183520480841
20
7.93223728332823
30
0
41
1
10
6.463206612896
20
7.93128047799979
30
0
41
1
10
6.35674043774121
20
7.91894334920618
30
0
41
1
10
6.17849068423597
20
7.8860615072318
30
0
41
1
10
6.04038694140264
20
7.81495487037906
30
0
41
1
10
6.01461308944096
20
7.75352932054269
30
0
41
1
10
6.01692061925854
20
7.72207394136175
30
0
0
SPLINE
5
143
100
AcDbEntity
8
1
62
256
6
ByLayer
370
18
48
1
60
0
100
AcDbSpline
70
4
71
1
72
4
73
2
40
0
40
0
40
1
40
1
41
1
10
7.19613303460492
20
9.55169126291649
30
0
41
1
10
7.19682119141802
20
9.55428601893655
30
0
0
SPLINE
5
144
100
AcDbEntity
8
1
62
256
6
ByLayer
370
18
48
1
60
0
100
AcDbSpline
70
4
71
1
72
4
73
2
40
0
40
0
40
1
40
1
41
1
10
7.19613303460492
20
9.55169126291649
30
0
41
1
10
6.85820553532404
20
8.26352071519671
30
0
0
SPLINE
5
145
100
AcDbEntity
8
1
62
256
6
ByLayer
370
18
48
1
60
0
100
AcDbSpline
70
4
71
1
72
4
73
2
40
0
40
0
40
1
40
1
41
1
10
17.4396867331944
20
7.40770424068656
30
0
41
1
10
17.4455042504141
20
7.44544379765317
30
0
0
SPLINE
5
146
100
AcDbEntity
8
1
62
256
6
ByLayer
370
18
48
1
60
0
100
AcDbSpline
70
4
71
1
72
4
73
2
40
0
40
0
40
1
40
1
41
1
10
17.4264377183764
20
7.32194040139343
30
0
41
1
10
17.4396867331944
20
7.40770424068654
30
0
0
SPLINE
5
147
100
AcDbEntity
8
1
62
256
6
ByLayer
370
18
48
1
60
0
100
AcDbSpline
70
4
71
3
72
10
73
6
40
0
40
0
40
0
40
0
40
0.214860562090412
40
0.743174258837724
40
1
40
1
40
1
40
1
41
1
10
17.4678017232821
20
7.10039091918143
30
0
41
1
10
17.4606013307964
20
7.11504060536054
30
0
41
1
10
17.4388314553145
20
7.16652140234581
30
0
41
1
10
17.4247162208598
20
7.24350822459642
30
0
41
1
10
17.4250546723239
20
7.30247213231045
30
0
41
1
10
17.4264377183764
20
7.32194040139343
30
0
0
SPLINE
5
148
100
AcDbEntity
8
1
62
256
6
ByLayer
370
18
48
1
60
0
100
AcDbSpline
70
4
71
3
72
10
73
6
40
0
40
0
40
0
40
0
40
0.240543521840783
40
0.624573479331121
40
1
40
1
40
1
40
1
41
1
10
17.7355531834186
20
6.91134857906145
30
0
41
1
10
17.7134021052298
20
6.91411361347538
30
0
41
1
10
17.6576674085342
20
6.92664916552229
30
0
41
1
10
17.5716374789501
20
6.9679978030664
30
0
41
1
10
17.5194410686874
20
7.02144778041087
30
0
41
1
10
17.4960140686733
20
7.05306092501677
30
0
0
SPLINE
5
149
100
AcDbEntity
8
1
62
256
6
ByLayer
370
18
48
1
60
0
100
AcDbSpline
70
4
71
1
72
4
73
2
40
0
40
0
40
1
40
1
41
1
10
7.19682119141802
20
9.55428601893655
30
0
41
1
10
7.19676674019255
20
9.55999999999999
30
0
0
SPLINE
5
14A
100
AcDbEntity
8
1
62
256
6
ByLayer
370
18
48
1
60
0
100
AcDbSpline
70
4
71
3
72
12
73
8
40
0
40
0
40
0
40
0
40
0.0881000431286442
40
0.284570800301582
40
0.508030371730252
40
0.730226654678942
40
1
40
1
40
1
40
1
41
1
10
17.4270264800127
20
6.18536001846685
30
0
41
1
10
17.4278040237468
20
6.19839832892958
30
0
41
1
10
17.433139565501
20
6.24082130381196
30
0
41
1
10
17.4586487152511
20
6.32055439271366
30
0
41
1
10
17.5220774417437
20
6.41864756785349
30
0
41
1
10
17.618626137383
20
6.50833784401242
30
0
41
1
10
17.6922011597933
20
6.5498719308967
30
0
41
1
10
17.7358719933677
20
6.56708309753961
30
0
0
SPLINE
5
14B
100
AcDbEntity
8
1
62
256
6
ByLayer
370
18
48
1
60
0
100
AcDbSpline
70
4
71
2
72
6
73
3
40
0
40
0
40
0
40
1
40
1
40
1
41
1
10
12.952440836318
20
4.31391701106601
30
0
41
1
10
12.7805311898661
20
3.93545919689628
30
0
41
1
10
12.5
20
3.58902613504335
30
0
0
SPLINE
5
14C
100
AcDbEntity
8
1
62
256
6
ByLayer
370
18
48
1
60
0
100
AcDbSpline
70
4
71
3
72
10
73
6
40
0
40
0
40
0
40
0
40
0.214860562090405
40
0.743174258837721
40
1
40
1
40
1
40
1
41
1
10
16.2015461562529
20
6.3367114055538
30
0
41
1
10
16.2087835946148
20
6.32263040317302
30
0
41
1
10
16.2307576770516
20
6.2742843460973
30
0
41
1
10
16.2456017294671
20
6.20848546183722
30
0
41
1
10
16.2460124945872
20
6.16102262727941
30
0
41
1
10
16.2449020533662
20
6.14573906015858
30
0
0
SPLINE
5
14D
100
AcDbEntity
8
1
62
256
6
ByLayer
370
18
48
1
60
0
100
AcDbSpline
70
4
71
3
72
10
73
6
40
0
40
0
40
0
40
0
40
0.240543521600685
40
0.624573479125118
40
1
40
1
40
1
40
1
41
1
10
15.937079078459
20
6.57617163869624
30
0
41
1
10
15.9588281039339
20
6.56723477425223
30
0
41
1
10
16.0136032595734
20
6.53996950064771
30
0
41
1
10
16.0982864683328
20
6.47794762240373
30
0
41
1
10
16.1500262709136
20
6.41748835201355
30
0
41
1
10
16.1733338108617
20
6.38404139971846
30
0
0
SPLINE
5
14E
100
AcDbEntity
8
1
62
256
6
ByLayer
370
18
48
1
60
0
100
AcDbSpline
70
4
71
2
72
6
73
3
40
0
40
0
40
0
40
1
40
1
40
1
41
1
10
-0.221234
20
7.14142842854285
30
0
41
1
10
0.153500380113216
20
7.52184629532462
30
0
41
1
10
0.528766
20
7.90174031463955
30
0
0
SPLINE
5
14F
100
AcDbEntity
8
1
62
256
6
ByLayer
370
18
48
1
60
0
100
AcDbSpline
70
4
71
3
72
13
73
9
40
0
40
0
40
0
40
0
40
0.213200576248764
40
0.388802612258402
40
0.565403034445741
40
0.720673981466797
40
0.926679409772581
40
1
40
1
40
1
40
1
41
1
10
16.5407412302427
20
7.58390509405855
30
0
41
1
10
16.5720023087606
20
7.54694289186683
30
0
41
1
10
16.6371462840868
20
7.49269956086076
30
0
41
1
10
16.7567560704084
20
7.4427831265029
30
0
41
1
10
16.8757050530336
20
7.43705909253214
30
0
41
1
10
16.995005884516
20
7.47089231874549
30
0
41
1
10
17.0770175846124
20
7.52594384629999
30
0
41
1
10
17.1203605334111
20
7.56943344984445
30
0
41
1
10
17.1311571665962
20
7.58157334376106
30
0
0
SPLINE
5
150
100
AcDbEntity
8
1
62
256
6
ByLayer
370
18
48
1
60
0
100
AcDbSpline
70
4
71
3
72
11
73
7
40
0
40
0
40
0
40
0
40
0.168501945036073
40
0.428574494354128
40
0.715262617078514
40
1
40
1
40
1
40
1
41
1
10
16.3200408252675
20
7.62948356395034
30
0
41
1
10
16.3326141238123
20
7.63631885066688
30
0
41
1
10
16.36514354995
20
7.64942609069905
30
0
41
1
10
16.4250350496377
20
7.65315726526427
30
0
41
1
10
16.4901364996204
20
7.63052676246906
30
0
41
1
10
16.5251631034977
20
7.60192291635348
30
0
41
1
10
16.5407412302427
20
7.58390509405855
30
0
0
SPLINE
5
151
100
AcDbEntity
8
1
62
256
6
ByLayer
370
18
48
1
60
0
100
AcDbSpline
70
4
71
3
72
11
73
7
40
0
40
0
40
0
40
0
40
0.303869376868336
40
0.608878652032846
40
0.909651713144944
40
1
40
1
40
1
40
1
41
1
10
16.2272259655502
20
7.47571149778666
30
0
41
1
10
16.2284100261721
20
7.49509716475022
30
0
41
1
10
16.2359160773493
20
7.53189064618201
30
0
41
1
10
16.2627700444311
20
7.58329196770065
30
0
41
1
10
16.2946066235138
20
7.61404624557642
30
0
41
1
10
16.3151264207815
20
7.62675733363089
30
0
41
1
10
16.3200408252676
20
7.62948356395034
30
0
0
SPLINE
5
152
100
AcDbEntity
8
1
62
256
6
ByLayer
370
18
48
1
60
0
100
AcDbSpline
70
4
71
2
72
6
73
3
40
0
40
0
40
0
40
1
40
1
40
1
41
1
10
16.2321987569927
20
7.41315984010063
30
0
41
1
10
16.225201078223
20
7.44413005664622
30
0
41
1
10
16.2272259655502
20
7.47571149778666
30
0
0
SPLINE
5
153
100
AcDbEntity
8
1
62
256
6
ByLayer
370
18
48
1
60
0
100
AcDbSpline
70
4
71
2
72
6
73
3
40
0
40
0
40
0
40
1
40
1
40
1
41
1
10
16.2436154953832
20
7.27160771165626
30
0
41
1
10
16.247776546332
20
7.34419971264465
30
0
41
1
10
16.2321987569927
20
7.413159840101
30
0
0
SPLINE
5
154
100
AcDbEntity
8
1
62
256
6
ByLayer
370
18
48
1
60
0
100
AcDbSpline
70
4
71
3
72
12
73
8
40
0
40
0
40
0
40
0
40
0.269773345321057
40
0.491969628269751
40
0.715429199698418
40
0.911899956871358
40
1
40
1
40
1
40
1
41
1
10
15.936771439782
20
6.92060860817598
30
0
41
1
10
15.979629825193
20
6.92534804640224
30
0
41
1
10
16.0519979670962
20
6.94835555326189
30
0
41
1
10
16.1473084432184
20
7.01903817055274
30
0
41
1
10
16.2105993571485
20
7.11501581275174
30
0
41
1
10
16.236764788291
20
7.20482334536685
30
0
41
1
10
16.2426471346705
20
7.25564020811732
30
0
41
1
10
16.2436154953832
20
7.27160771165626
30
0
0
SPLINE
5
155
100
AcDbEntity
8
1
62
256
6
ByLayer
370
18
48
1
60
0
100
AcDbSpline
70
4
71
3
72
12
73
8
40
0
40
0
40
0
40
0
40
0.0948883239663668
40
0.377210687176684
40
0.651685808901198
40
0.920443359092199
40
1
40
1
40
1
40
1
41
1
10
15.5313323698156
20
5.42662618258684
30
0
41
1
10
15.5427057006348
20
5.40560416151977
30
0
41
1
10
15.5906633040376
20
5.32303121506824
30
0
41
1
10
15.6926106589602
20
5.18543015465942
30
0
41
1
10
15.856409170738
20
5.02837188330681
30
0
41
1
10
16.0038495959587
20
4.92730208793887
30
0
41
1
10
16.0931324014548
20
4.87913583759276
30
0
41
1
10
16.1139204346388
20
4.86852250069148
30
0
0
SPLINE
5
156
100
AcDbEntity
8
1
62
256
6
ByLayer
370
18
48
1
60
0
100
AcDbSpline
70
4
71
3
72
12
73
8
40
0
40
0
40
0
40
0
40
0.149531921471812
40
0.403009711212336
40
0.666307170136505
40
0.94144876460973
40
1
40
1
40
1
40
1
41
1
10
17.2990495559172
20
4.78704532969851
30
0
41
1
10
17.345236411337
20
4.80317562923277
30
0
41
1
10
17.4655249728646
20
4.85157085579304
30
0
41
1
10
17.6478059191337
20
4.95578391644497
30
0
41
1
10
17.8309404346101
20
5.10756941238896
30
0
41
1
10
17.9406608753634
20
5.23849600285525
30
0
41
1
10
17.9917580504705
20
5.31513590365896
30
0
41
1
10
18.0004145566108
20
5.32872136127194
30
0
0
SPLINE
5
157
100
AcDbEntity
8
1
62
256
6
ByLayer
370
18
48
1
60
0
100
AcDbSpline
70
4
71
3
72
13
73
9
40
0
40
0
40
0
40
0
40
0.0733205902274168
40
0.279326018533198
40
0.434596965554261
40
0.611197387741601
40
0.78679942375124
40
1
40
1
40
1
40
1
41
1
10
16.5414862665535
20
5.90611836195447
30
0
41
1
10
16.5520199451375
20
5.91422169265521
30
0
41
1
10
16.5944113688841
20
5.9431046264254
30
0
41
1
10
16.6751119270067
20
5.97802907714134
30
0
41
1
10
16.793545591453
20
5.99855059652618
30
0
41
1
10
16.9126290975858
20
5.99489160587329
30
0
41
1
10
17.0334780816462
20
5.96399784686639
30
0
41
1
10
17.0998286821852
20
5.92827717691494
30
0
41
1
10
17.131902202907
20
5.90378661165703
30
0
0
SPLINE
5
158
100
AcDbEntity
8
1
62
256
6
ByLayer
370
18
48
1
60
0
100
AcDbSpline
70
4
71
3
72
11
73
7
40
0
40
0
40
0
40
0
40
0.200391753464828
40
0.531474456008831
40
0.861465023348551
40
1
40
1
40
1
40
1
41
1
10
6.01846084657051
20
-0.803297078266942
30
0
41
1
10
6.01664348673587
20
-0.774171201934539
30
0
41
1
10
6.0281261610921
20
-0.705858014761915
30
0
41
1
10
6.1107853484544
20
-0.633019878416369
30
0
41
1
10
6.27961067154955
20
-0.610706989942707
30
0
41
1
10
6.40956150844046
20
-0.608277593815717
30
0
41
1
10
6.45095935746901
20
-0.60878492993833
30
0
0
SPLINE
5
159
100
AcDbEntity
8
1
62
256
6
ByLayer
370
18
48
1
60
0
100
AcDbSpline
70
4
71
3
72
17
73
13
40
0
40
0
40
0
40
0
40
0.0299239275568861
40
0.145495881659486
40
0.259992107559716
40
0.371625738223758
40
0.482396734054191
40
0.5985929404046
40
0.713902130939324
40
0.826725700515653
40
0.938774939772513
40
1
40
1
40
1
40
1
41
1
10
6.3
20
-6.29462867216563
30
0
41
1
10
6.27778866469996
20
-6.32522480581624
30
0
41
1
10
6.17208680239467
20
-6.47261776374073
30
0
41
1
10
6.0038085906017
20
-6.72589778161242
30
0
41
1
10
5.82230126789447
20
-7.0292745079567
30
0
41
1
10
5.67805628717626
20
-7.29445802638532
30
0
41
1
10
5.56368834764091
20
-7.52312611660533
30
0
41
1
10
5.4760395700727
20
-7.71199606852849
30
0
41
1
10
5.41318566296675
20
-7.8560584932954
30
0
41
1
10
5.37315699254418
20
-7.95200747741755
30
0
41
1
10
5.35636046546462
20
-7.99343049846027
30
0
41
1
10
5.35368344406504
20
-7.99998694154526
30
0
41
1
10
5.35369183447693
20
-7.9999999797523
30
0
0
SPLINE
5
15A
100
AcDbEntity
8
1
62
256
6
ByLayer
370
18
48
1
60
0
100
AcDbSpline
70
4
71
3
72
11
73
7
40
0
40
0
40
0
40
0
40
0.241015582937439
40
0.583202714665035
40
0.907057865334088
40
1
40
1
40
1
40
1
41
1
10
7.19773478140594
20
0.685801369854744
30
0
41
1
10
7.09383518007582
20
0.684149161081579
30
0
41
1
10
6.85421244907272
20
0.676368546761897
30
0
41
1
10
6.51013118765891
20
0.637365704434582
30
0
41
1
10
6.29030572157623
20
0.611754319667694
30
0
41
1
10
6.19867720376749
20
0.60904138032324
30
0
41
1
10
6.17956755532134
20
0.60880654917548
30
0
0
INSERT
5
18A
100
AcDbEntity
8
2
62
256
6
ByLayer
370
25
48
1
60
0
100
AcDbBlockReference
2
DimnDraft3D44
10
0
20
0
30
0
41
1
42
1
43
1
50
0
210
0
220
0
230
1
0
LINE
5
70
100
AcDbEntity
8
1
62
256
6
ByLayer
370
18
48
1
60
0
100
AcDbLine
10
0.528766
20
-7.90174
30
0
11
0.528766
21
7.90174
31
0
39
0
210
0
220
0
230
1
0
LINE
5
72
100
AcDbEntity
8
1
62
256
6
ByLayer
370
18
48
1
60
0
100
AcDbLine
10
3.640416
20
-7.90174
30
0
11
0.528766
21
-7.90174
31
0
39
0
210
0
220
0
230
1
0
LINE
5
73
100
AcDbEntity
8
1
62
256
6
ByLayer
370
18
48
1
60
0
100
AcDbLine
10
6.3
20
-6.236248
30
0
11
6.3
21
-6.294629
31
0
39
0
210
0
220
0
230
1
0
LINE
5
74
100
AcDbEntity
8
1
62
256
6
ByLayer
370
18
48
1
60
0
100
AcDbLine
10
6.019335
20
-5.642369
30
0
11
6.019231
21
-5.063896
31
0
39
0
210
0
220
0
230
1
0
LINE
5
75
100
AcDbEntity
8
1
62
256
6
ByLayer
370
18
48
1
60
0
100
AcDbLine
10
6.3
20
-3.374098
30
0
11
10.352119
21
-3.374098
31
0
39
0
210
0
220
0
230
1
0
LINE
5
76
100
AcDbEntity
8
1
62
256
6
ByLayer
370
18
48
1
60
0
100
AcDbLine
10
15.193006
20
-3
30
0
11
12.76989
21
-3
31
0
39
0
210
0
220
0
230
1
0
LINE
5
77
100
AcDbEntity
8
SK1
62
256
6
ByLayer
370
18
48
1
60
0
100
AcDbLine
10
-1.621
20
0
30
0
11
-1.621
21
-2
31
0
39
0
210
0
220
0
230
1
0
LINE
5
79
100
AcDbEntity
8
SK1
62
256
6
ByLayer
370
18
48
1
60
0
100
AcDbLine
10
-1.621
20
-2
30
0
11
-0.221234
21
-2
31
0
39
0
210
0
220
0
230
1
0
LINE
5
7A
100
AcDbEntity
8
SK1
62
256
6
ByLayer
370
18
48
1
60
0
100
AcDbLine
10
-2.121
20
-1.866025
30
0
11
-1.621
21
-2
31
0
39
0
210
0
220
0
230
1
0
LINE
5
7B
100
AcDbEntity
8
1
62
256
6
ByLayer
370
18
48
1
60
0
100
AcDbLine
10
19.697226
20
-0.656284
30
0
11
19.097957
21
-0.653668
31
0
39
0
210
0
220
0
230
1
0
LINE
5
7C
100
AcDbEntity
8
1
62
256
6
ByLayer
370
18
48
1
60
0
100
AcDbLine
10
7.197972
20
-0.62463
30
0
11
7.197735
21
0.685801
31
0
39
0
210
0
220
0
230
1
0
LINE
5
7D
100
AcDbEntity
8
1
62
256
6
ByLayer
370
18
48
1
60
0
100
AcDbLine
10
6.018461
20
-0.803297
30
0
11
6.018193
21
0.679288
31
0
39
0
210
0
220
0
230
1
0
LINE
5
7E
100
AcDbEntity
8
1
62
256
6
ByLayer
370
18
48
1
60
0
100
AcDbLine
10
12.5
20
3.589026
30
0
11
12.5
21
0.711843
31
0
39
0
210
0
220
0
230
1
0
LINE
5
7F
100
AcDbEntity
8
1
62
256
6
ByLayer
370
18
48
1
60
0
100
AcDbLine
10
19.596085
20
1.546344
30
0
11
19.649609
21
2.367977
31
0
39
0
210
0
220
0
230
1
0
LINE
5
80
100
AcDbEntity
8
1
62
256
6
ByLayer
370
18
48
1
60
0
100
AcDbLine
10
19.053236
20
1.548712
30
0
11
19.596085
21
1.546344
31
0
39
0
210
0
220
0
230
1
0
LINE
5
81
100
AcDbEntity
8
SK1
62
256
6
ByLayer
370
18
48
1
60
0
100
AcDbLine
10
-0.221234
20
2
30
0
11
-1.621
21
2
31
0
39
0
210
0
220
0
230
1
0
LINE
5
82
100
AcDbEntity
8
SK1
62
256
6
ByLayer
370
18
48
1
60
0
100
AcDbLine
10
-1.621
20
2
30
0
11
-1.621
21
0
31
0
39
0
210
0
220
0
230
1
0
LINE
5
83
100
AcDbEntity
8
SK1
62
256
6
ByLayer
370
18
48
1
60
0
100
AcDbLine
10
-1.621
20
2
30
0
11
-2.121
21
1.866025
31
0
39
0
210
0
220
0
230
1
0
LINE
5
84
100
AcDbEntity
8
1
62
256
6
ByLayer
370
18
48
1
60
0
100
AcDbLine
10
18.000553
20
2.375173
30
0
11
19.649609
21
2.367977
31
0
39
0
210
0
220
0
230
1
0
LINE
5
85
100
AcDbEntity
8
1
62
256
6
ByLayer
370
18
48
1
60
0
100
AcDbLine
10
17.985802
20
2.148739
30
0
11
18.000553
21
2.375173
31
0
39
0
210
0
220
0
230
1
0
LINE
5
86
100
AcDbEntity
8
1
62
256
6
ByLayer
370
18
48
1
60
0
100
AcDbLine
10
13.396495
20
4.963209
30
0
11
18.000553
21
2.375173
31
0
39
0
210
0
220
0
230
1
0
LINE
5
87
100
AcDbEntity
8
1
62
256
6
ByLayer
370
18
48
1
60
0
100
AcDbLine
10
19.797984
20
1.728624
30
0
11
19.851508
21
2.550258
31
0
39
0
210
0
220
0
230
1
0
LINE
5
88
100
AcDbEntity
8
1
62
256
6
ByLayer
370
18
48
1
60
0
100
AcDbLine
10
19.665921
20
3.218847
30
0
11
19.491451
21
3.219608
31
0
39
0
210
0
220
0
230
1
0
LINE
5
89
100
AcDbEntity
8
1
62
256
6
ByLayer
370
18
48
1
60
0
100
AcDbLine
10
19.721508
20
3.311616
30
0
11
19.665921
21
3.218847
31
0
39
0
210
0
220
0
230
1
0
LINE
5
8A
100
AcDbEntity
8
1
62
256
6
ByLayer
370
18
48
1
60
0
100
AcDbLine
10
19.665921
20
3.218847
30
0
11
19.719445
21
4.04048
31
0
39
0
210
0
220
0
230
1
0
LINE
5
8B
100
AcDbEntity
8
1
62
256
6
ByLayer
370
18
48
1
60
0
100
AcDbLine
10
19.46131
20
3.270173
30
0
11
19.511549
21
4.041388
31
0
39
0
210
0
220
0
230
1
0
LINE
5
8C
100
AcDbEntity
8
1
62
256
6
ByLayer
370
18
48
1
60
0
100
AcDbLine
10
19.719445
20
4.04048
30
0
11
19.511549
21
4.041388
31
0
39
0
210
0
220
0
230
1
0
LINE
5
8D
100
AcDbEntity
8
1
62
256
6
ByLayer
370
18
48
1
60
0
100
AcDbLine
10
20
20
9.644589
30
0
11
20
21
4.508701
31
0
39
0
210
0
220
0
230
1
0
LINE
5
8E
100
AcDbEntity
8
1
62
256
6
ByLayer
370
18
48
1
60
0
100
AcDbLine
10
19.946476
20
3.687067
30
0
11
20
21
4.508701
31
0
39
0
210
0
220
0
230
1
0
LINE
5
8F
100
AcDbEntity
8
1
62
256
6
ByLayer
370
18
48
1
60
0
100
AcDbLine
10
20
20
4.508701
30
0
11
19.719445
21
4.04048
31
0
39
0
210
0
220
0
230
1
0
LINE
5
90
100
AcDbEntity
8
1
62
256
6
ByLayer
370
18
48
1
60
0
100
AcDbLine
10
12.910728
20
5.214588
30
0
11
11.772944
21
5.219553
31
0
39
0
210
0
220
0
230
1
0
LINE
5
91
100
AcDbEntity
8
1
62
256
6
ByLayer
370
18
48
1
60
0
100
AcDbLine
10
12.910728
20
5.214588
30
0
11
12.964251
21
6.036221
31
0
39
0
210
0
220
0
230
1
0
LINE
5
92
100
AcDbEntity
8
1
62
256
6
ByLayer
370
18
48
1
60
0
100
AcDbLine
10
13.11594
20
5.433878
30
0
11
13.219888
21
5.607357
31
0
39
0
210
0
220
0
230
1
0
LINE
5
93
100
AcDbEntity
8
1
62
256
6
ByLayer
370
18
48
1
60
0
100
AcDbLine
10
13.396495
20
4.963209
30
0
11
13.11594
21
5.433878
31
0
39
0
210
0
220
0
230
1
0
LINE
5
94
100
AcDbEntity
8
1
62
256
6
ByLayer
370
18
48
1
60
0
100
AcDbLine
10
13.062416
20
4.612244
30
0
11
13.11594
21
5.433878
31
0
39
0
210
0
220
0
230
1
0
LINE
5
95
100
AcDbEntity
8
1
62
256
6
ByLayer
370
18
48
1
60
0
100
AcDbLine
10
6.017234
20
5.98865
30
0
11
6.016921
21
7.722074
31
0
39
0
210
0
220
0
230
1
0
LINE
5
96
100
AcDbEntity
8
1
62
256
6
ByLayer
370
18
48
1
60
0
100
AcDbLine
10
11.772944
20
5.219553
30
0
11
11.826468
21
6.041186
31
0
39
0
210
0
220
0
230
1
0
LINE
5
97
100
AcDbEntity
8
1
62
256
6
ByLayer
370
18
48
1
60
0
100
AcDbLine
10
12.964251
20
6.036221
30
0
11
11.826468
21
6.041186
31
0
39
0
210
0
220
0
230
1
0
LINE
5
98
100
AcDbEntity
8
1
62
256
6
ByLayer
370
18
48
1
60
0
100
AcDbLine
10
17.43418
20
5.978369
30
0
11
17.440445
21
6.074532
31
0
39
0
210
0
220
0
230
1
0
LINE
5
99
100
AcDbEntity
8
1
62
256
6
ByLayer
370
18
48
1
60
0
100
AcDbLine
10
16.229246
20
6.023032
30
0
11
16.232946
21
6.079816
31
0
39
0
210
0
220
0
230
1
0
LINE
5
9A
100
AcDbEntity
8
1
62
256
6
ByLayer
370
18
48
1
60
0
100
AcDbLine
10
18.543647
20
6.416393
30
0
11
18.555887
21
6.604288
31
0
39
0
210
0
220
0
230
1
0
LINE
5
9B
100
AcDbEntity
8
1
62
256
6
ByLayer
370
18
48
1
60
0
100
AcDbLine
10
11.639791
20
6.638528
30
0
11
11.926105
21
6.79377
31
0
39
0
210
0
220
0
230
1
0
LINE
5
9C
100
AcDbEntity
8
1
62
256
6
ByLayer
370
18
48
1
60
0
100
AcDbLine
10
17.719846
20
6.670237
30
0
11
17.735553
21
6.911349
31
0
39
0
210
0
220
0
230
1
0
LINE
5
9D
100
AcDbEntity
8
1
62
256
6
ByLayer
370
18
48
1
60
0
100
AcDbLine
10
15.921059
20
6.679412
30
0
11
15.936771
21
6.920609
31
0
39
0
210
0
220
0
230
1
0
LINE
5
9E
100
AcDbEntity
8
1
62
256
6
ByLayer
370
18
48
1
60
0
100
AcDbLine
10
17.48195
20
6.837159
30
0
11
17.496014
21
7.053061
31
0
39
0
210
0
220
0
230
1
0
LINE
5
9F
100
AcDbEntity
8
1
62
256
6
ByLayer
370
18
48
1
60
0
100
AcDbLine
10
17.467802
20
7.100391
30
0
11
17.453737
21
6.884489
31
0
39
0
210
0
220
0
230
1
0
LINE
5
A0
100
AcDbEntity
8
1
62
256
6
ByLayer
370
18
48
1
60
0
100
AcDbLine
10
11.483666
20
7.232826
30
0
11
14.951618
21
9.113179
31
0
39
0
210
0
220
0
230
1
0
LINE
5
A1
100
AcDbEntity
8
1
62
256
6
ByLayer
370
18
48
1
60
0
100
AcDbLine
10
17.115445
20
7.340376
30
0
11
17.131157
21
7.581573
31
0
39
0
210
0
220
0
230
1
0
LINE
5
A2
100
AcDbEntity
8
1
62
256
6
ByLayer
370
18
48
1
60
0
100
AcDbLine
10
16.525029
20
7.342708
30
0
11
16.540741
21
7.583905
31
0
39
0
210
0
220
0
230
1
0
LINE
5
A3
100
AcDbEntity
8
1
62
256
6
ByLayer
370
18
48
1
60
0
100
AcDbLine
10
14.883814
20
9.304637
30
0
11
11.347249
21
7.387081
31
0
39
0
210
0
220
0
230
1
0
LINE
5
A4
100
AcDbEntity
8
1
62
256
6
ByLayer
370
18
48
1
60
0
100
AcDbLine
10
6.471835
20
7.932237
30
0
11
6.471835
21
8
31
0
39
0
210
0
220
0
230
1
0
LINE
5
A5
100
AcDbEntity
8
1
62
256
6
ByLayer
370
18
48
1
60
0
100
AcDbLine
10
6.858206
20
8.296472
30
0
11
6.858206
21
8.263521
31
0
39
0
210
0
220
0
230
1
0
LINE
5
A6
100
AcDbEntity
8
1
62
256
6
ByLayer
370
18
48
1
60
0
100
AcDbLine
10
7.196767
20
9.56
30
0
11
6.858206
21
8.296472
31
0
39
0
210
0
220
0
230
1
0
LINE
5
A7
100
AcDbEntity
8
1
62
256
6
ByLayer
370
18
48
1
60
0
100
AcDbLine
10
11.293092
20
7.26544
30
0
11
14.853318
21
9.195825
31
0
39
0
210
0
220
0
230
1
0
LINE
5
A8
100
AcDbEntity
8
1
62
256
6
ByLayer
370
18
48
1
60
0
100
AcDbLine
10
14.853318
20
9.195825
30
0
11
14.951618
21
9.113179
31
0
39
0
210
0
220
0
230
1
0
LINE
5
A9
100
AcDbEntity
8
1
62
256
6
ByLayer
370
18
48
1
60
0
100
AcDbLine
10
14.883814
20
9.304637
30
0
11
14.853318
21
9.195825
31
0
39
0
210
0
220
0
230
1
0
LINE
5
AA
100
AcDbEntity
8
1
62
256
6
ByLayer
370
18
48
1
60
0
100
AcDbLine
10
14.951618
20
9.546208
30
0
11
15.257248
21
9.544874
31
0
39
0
210
0
220
0
230
1
0
LINE
5
AB
100
AcDbEntity
8
1
62
256
6
ByLayer
370
18
48
1
60
0
100
AcDbLine
10
14.951618
20
9.546208
30
0
11
14.951618
21
9.113179
31
0
39
0
210
0
220
0
230
1
0
LINE
5
AC
100
AcDbEntity
8
1
62
256
6
ByLayer
370
18
48
1
60
0
100
AcDbLine
10
14.951618
20
9.546208
30
0
11
14.924562
21
9.553451
31
0
39
0
210
0
220
0
230
1
0
LINE
5
AD
100
AcDbEntity
8
1
62
256
6
ByLayer
370
18
48
1
60
0
100
AcDbLine
10
7.196892
20
5.350594
30
0
11
7.196133
21
9.551691
31
0
39
0
210
0
220
0
230
1
0
LINE
5
AE
100
AcDbEntity
8
1
62
256
6
ByLayer
370
18
48
1
60
0
100
AcDbLine
10
14.883814
20
9.304637
30
0
11
14.883814
21
9.557956
31
0
39
0
210
0
220
0
230
1
0
LINE
5
AF
100
AcDbEntity
8
1
62
256
6
ByLayer
370
18
48
1
60
0
100
AcDbLine
10
19.175472
20
11.027846
30
0
11
20
21
9.644589
31
0
39
0
210
0
220
0
230
1
0
LINE
5
B0
100
AcDbEntity
8
1
62
256
6
ByLayer
370
18
48
1
60
0
100
AcDbLine
10
18.256189
20
10.079948
30
0
11
18.825081
21
11.029375
31
0
39
0
210
0
220
0
230
1
0
LINE
5
B1
100
AcDbEntity
8
1
62
256
6
ByLayer
370
18
48
1
60
0
100
AcDbLine
10
17.640969
20
10.256565
30
0
11
17.744916
21
10.082179
31
0
39
0
210
0
220
0
230
1
0
LINE
5
B2
100
AcDbEntity
8
1
62
256
6
ByLayer
370
18
48
1
60
0
100
AcDbLine
10
17.079858
20
10.259014
30
0
11
17.640969
21
10.256565
31
0
39
0
210
0
220
0
230
1
0
LINE
5
B3
100
AcDbEntity
8
1
62
256
6
ByLayer
370
18
48
1
60
0
100
AcDbLine
10
12.475801
20
7.711161
30
0
11
17.079858
21
10.259014
31
0
39
0
210
0
220
0
230
1
0
LINE
5
B4
100
AcDbEntity
8
1
62
256
6
ByLayer
370
18
48
1
60
0
100
AcDbLine
10
11.651273
20
6.3351
30
0
11
12.475801
21
7.711161
31
0
39
0
210
0
220
0
230
1
0
LINE
5
B5
100
AcDbEntity
8
1
62
256
6
ByLayer
370
18
48
1
60
0
100
AcDbLine
10
11.571045
20
5.428138
30
0
11
11.624569
21
6.249771
31
0
39
0
210
0
220
0
230
1
0
LINE
5
B6
100
AcDbEntity
8
1
62
256
6
ByLayer
370
18
48
1
60
0
100
AcDbLine
10
7.196767
20
9.56
30
0
11
14.871229
21
9.56
31
0
39
0
210
0
220
0
230
1
0
LINE
5
B7
100
AcDbEntity
8
1
62
256
6
ByLayer
370
18
48
1
60
0
100
AcDbLine
10
13.062416
20
4.612244
30
0
11
13.102127
21
4.545624
31
0
39
0
210
0
220
0
230
1
0
LINE
5
B8
100
AcDbEntity
8
1
62
256
6
ByLayer
370
18
48
1
60
0
100
AcDbLine
10
15.100944
20
6.640662
30
0
11
15.113184
21
6.828557
31
0
39
0
210
0
220
0
230
1
0
LINE
5
B9
100
AcDbEntity
8
1
62
256
6
ByLayer
370
18
48
1
60
0
100
AcDbLine
10
19.760281
20
1.151268
30
0
11
13.257691
21
4.806507
31
0
39
0
210
0
220
0
230
1
0
LINE
5
BA
100
AcDbEntity
8
1
62
256
6
ByLayer
370
18
48
1
60
0
100
AcDbLine
10
19.760281
20
0.969568
30
0
11
19.760281
21
1.151268
31
0
39
0
210
0
220
0
230
1
0
LINE
5
BB
100
AcDbEntity
8
1
62
256
6
ByLayer
370
18
48
1
60
0
100
AcDbLine
10
3.810606
20
-8
30
0
11
5.360885
21
-8
31
0
39
0
210
0
220
0
230
1
0
LINE
5
BC
100
AcDbEntity
8
1
62
256
6
ByLayer
370
18
48
1
60
0
100
AcDbLine
10
3.640416
20
-7.90174
30
0
11
3.810606
21
-8
31
0
39
0
210
0
220
0
230
1
0
LINE
5
BD
100
AcDbEntity
8
1
62
256
6
ByLayer
370
18
48
1
60
0
100
AcDbLine
10
19.76989
20
0.964167
30
0
11
13.167058
21
4.675755
31
0
39
0
210
0
220
0
230
1
0
LINE
5
BE
100
AcDbEntity
8
1
62
256
6
ByLayer
370
18
48
1
60
0
100
AcDbLine
10
19.76989
20
0
30
0
11
19.76989
21
0.964167
31
0
39
0
210
0
220
0
230
1
0
LINE
5
BF
100
AcDbEntity
8
1
62
256
6
ByLayer
370
18
48
1
60
0
100
AcDbLine
10
3.810606
20
8
30
0
11
6.471835
21
8
31
0
39
0
210
0
220
0
230
1
0
LINE
5
C0
100
AcDbEntity
8
1
62
256
6
ByLayer
370
18
48
1
60
0
100
AcDbLine
10
3.640416
20
7.90174
30
0
11
3.810606
21
8
31
0
39
0
210
0
220
0
230
1
0
LINE
5
C1
100
AcDbEntity
8
1
62
256
6
ByLayer
370
18
48
1
60
0
100
AcDbLine
10
0.528766
20
7.90174
30
0
11
3.640416
21
7.90174
31
0
39
0
210
0
220
0
230
1
0
LINE
5
C2
100
AcDbEntity
8
1
62
256
6
ByLayer
370
18
48
1
60
0
100
AcDbLine
10
-0.221234
20
-7.141428
30
0
11
-0.221234
21
7.141428
31
0
39
0
210
0
220
0
230
1
0
LINE
5
C3
100
AcDbEntity
8
1
62
256
6
ByLayer
370
18
48
1
60
0
100
AcDbLine
10
19.721508
20
1.173063
30
0
11
19.721508
21
1.587891
31
0
39
0
210
0
220
0
230
1
0
LINE
5
C4
100
AcDbEntity
8
1
62
256
6
ByLayer
370
18
48
1
60
0
100
AcDbLine
10
19.824805
20
2.660362
30
0
11
19.255913
21
3.614754
31
0
39
0
210
0
220
0
230
1
0
LINE
5
C5
100
AcDbEntity
8
1
62
256
6
ByLayer
370
18
48
1
60
0
100
AcDbLine
10
19.721508
20
3.311616
30
0
11
19.946476
21
3.687067
31
0
39
0
210
0
220
0
230
1
0
LINE
5
C6
100
AcDbEntity
8
1
62
256
6
ByLayer
370
18
48
1
60
0
100
AcDbLine
10
19.721508
20
2.833656
30
0
11
19.721508
21
3.311616
31
0
39
0
210
0
220
0
230
1
0
LINE
5
C7
100
AcDbEntity
8
SK1
62
256
6
ByLayer
370
18
48
1
60
0
100
AcDbLine
10
-2.121
20
0
30
0
11
-2.121
21
-1.866025
31
0
39
0
210
0
220
0
230
1
0
LINE
5
C8
100
AcDbEntity
8
SK1
62
256
6
ByLayer
370
18
48
1
60
0
100
AcDbLine
10
-2.121
20
1.866025
30
0
11
-2.121
21
0
31
0
39
0
210
0
220
0
230
1
0
LINE
5
C9
100
AcDbEntity
8
1
62
256
6
ByLayer
370
18
48
1
60
0
100
AcDbLine
10
15.257248
20
9.250394
30
0
11
15.257248
21
9.544874
31
0
39
0
210
0
220
0
230
1
0
LINE
5
CA
100
AcDbEntity
8
1
62
256
6
ByLayer
370
18
48
1
60
0
100
AcDbLine
10
11.805447
20
6.592404
30
0
11
11.784642
21
6.581123
31
0
39
0
210
0
220
0
230
1
0
LINE
5
CB
100
AcDbEntity
8
1
62
256
6
ByLayer
370
18
48
1
60
0
100
AcDbLine
10
13.396495
20
4.963209
30
0
11
13.381745
21
4.736774
31
0
39
0
210
0
220
0
230
1
0
LINE
5
CC
100
AcDbEntity
8
1
62
256
6
ByLayer
370
18
48
1
60
0
100
AcDbLine
10
17.412357
20
5.960175
30
0
11
17.427109
21
6.186639
31
0
39
0
210
0
220
0
230
1
0
LINE
5
CD
100
AcDbEntity
8
1
62
256
6
ByLayer
370
18
48
1
60
0
100
AcDbLine
10
16.244985
20
6.147005
30
0
11
16.235675
21
6.004079
31
0
39
0
210
0
220
0
230
1
0
LINE
5
CE
100
AcDbEntity
8
1
62
256
6
ByLayer
370
18
48
1
60
0
100
AcDbLine
10
11.831308
20
7.174305
30
0
11
12.309468
21
7.433567
31
0
39
0
210
0
220
0
230
1
0
LINE
5
CF
100
AcDbEntity
8
1
62
256
6
ByLayer
370
18
48
1
60
0
100
AcDbLine
10
17.411329
20
7.090019
30
0
11
17.426424
21
7.321745
31
0
39
0
210
0
220
0
230
1
0
LINE
5
D0
100
AcDbEntity
8
1
62
256
6
ByLayer
370
18
48
1
60
0
100
AcDbLine
10
6.3
20
-3.374098
30
0
11
6.3
21
-5.677862
31
0
39
0
210
0
220
0
230
1
0
LINE
5
D1
100
AcDbEntity
8
1
62
256
6
ByLayer
370
18
48
1
60
0
100
AcDbLine
10
16.243615
20
7.271587
30
0
11
16.228862
21
7.045123
31
0
39
0
210
0
220
0
230
1
0
LINE
5
D2
100
AcDbEntity
8
4
62
256
6
ByLayer
370
18
48
0.05
60
0
100
AcDbLine
10
0
20
0
30
0
11
20
21
0
31
0
39
0
210
0
220
0
230
1
0
LINE
5
D4
100
AcDbEntity
8
SK4
62
256
6
ByLayer
370
18
48
0.05
60
0
100
AcDbLine
10
-6
20
0
30
0
11
24
21
0
31
0
39
0
210
0
220
0
230
1
0
LINE
5
D6
100
AcDbEntity
8
80
62
256
6
ByLayer
370
18
48
1
60
0
100
AcDbLine
10
0
20
0
30
0
11
-2
21
0
31
0
39
0
210
0
220
0
230
1
0
LINE
5
D7
100
AcDbEntity
8
81
62
256
6
ByLayer
370
18
48
1
60
0
100
AcDbLine
10
20
20
12
30
0
11
22
21
12
31
0
39
0
210
0
220
0
230
1
0
MTEXT
5
15B
100
AcDbEntity
8
SK6
62
256
6
ByLayer
370
18
48
1
60
0
100
AcDbMText
10
-28.90315
20
-28.857024
30
0
210
0
220
0
230
1
1
\W1.1563;R566.0KFC-162012-11
40
3.5
41
0
44
0.903614
50
0
71
7
72
5
7
blockfont
0
DIMENSION
5
169
100
AcDbEntity
8
2
62
256
6
ByLayer
370
13
48
1
60
0
100
AcDbDimension
2
DimnDraft3D1
10
20
20
27.893616
30
0
11
6.361458
21
27.893616
31
0
70
32
71
5
72
1
41
1
210
0
220
0
230
1
3
Standard
100
AcDbAlignedDimension
13
0
23
1.5875
33
0
14
20
24
13.5875
34
0
50
0
100
AcDbRotatedDimension
1001
ACAD
1000
DSTYLE
1002
{
1070
   279
1070
     0
1070
   173
1070
     1
1070
   340
1005
15C
1070
   271
1070
     1
1070
   272
1070
     2
1070
    77
1070
     1
1070
    73
1070
     0
1070
   171
1070
     3
1070
   274
1070
     4
1070
   177
1070
     7
1070
   176
1070
     7
1070
   178
1070
     7
1070
    78
1070
     8
1070
    48
1040
-0.005
1070
    41
1041
3.175
1070
   147
1041
1.75
1070
    42
1041
1.5875
1070
    44
1041
3.175
1070
   140
1041
3.5
1070
   343
1005
0
1070
   344
1005
0
1002
}
0
DIMENSION
5
175
100
AcDbEntity
8
SK2
62
256
6
ByLayer
370
13
48
1
60
0
100
AcDbDimension
2
DimnDraft3D2
10
-16.423092
20
-8
30
0
11
-15.629342
21
0.504912
31
0
70
33
71
5
72
1
41
1
210
0
220
0
230
1
3
Standard
100
AcDbAlignedDimension
13
2.223106
23
8
33
0
14
2.223106
24
-8
34
0
1001
ACAD
1000
DSTYLE
1002
{
1070
   279
1070
     0
1070
    74
1070
     0
1070
   173
1070
     1
1070
   340
1005
15C
1070
   271
1070
     1
1070
   272
1070
     2
1070
    77
1070
     1
1070
    73
1070
     0
1070
   171
1070
     3
1070
   274
1070
     4
1070
   177
1070
     7
1070
   176
1070
     7
1070
   178
1070
     7
1070
    78
1070
     8
1070
    48
1040
-0.005
1070
    41
1041
3.175
1070
   147
1041
1.5875
1070
    42
1041
1.5875
1070
    44
1041
3.175
1070
   140
1041
3.175
1070
   343
1005
0
1070
   344
1005
0
1002
}
0
DIMENSION
5
180
100
AcDbEntity
8
SK2
62
256
6
ByLayer
370
13
48
1
60
0
100
AcDbDimension
2
DimnDraft3D3
10
20
20
4.508701
30
0
11
25.649539
21
7.818105
31
0
70
34
71
5
72
1
41
1
210
0
220
0
230
1
3
Standard
100
AcDb2LineAngularDimension
13
20
23
12
33
0
14
21
24
12
34
0
15
20
25
9.644589
35
0
16
27.215252
26
19.215252
36
0
40
0
0
ENDSEC
0
SECTION
2
OBJECTS
0
DICTIONARY
5
1f5
330
0
100
AcDbDictionary
280
0
281
1
3
ACAD_GROUP
350
1f6
3
ACAD_MLINESTYLE
350
1f7
0
DICTIONARY
5
1f6
330
0
100
AcDbDictionary
280
0
281
1
0
DICTIONARY
5
1f7
330
0
100
AcDbDictionary
280
0
281
1
3
Standard
350
18
0
MLINESTYLE
5
18
330
1f7
100
AcDbMlineStyle
2
Standard
70
0
3

62
256
51
90
52
90
71
2
49
-0.5
62
256
6
ByLayer
49
0.5
62
256
6
ByLayer
0
RASTERVARIABLES
5
1e3
330

100
AcDbRasterVariables
90
0
70
1
71
1
72
1
0
ENDSEC
0
EOF
