0
SECTION
2
HEADER
9
$ACADVER
1
AC1015
9
$DWGCODEPAGE
3
ANSI_1252
9
$HANDSEED
5
1a6
9
$ANGBASE
50
0
9
$ANGDIR
70
0
9
$ATTMODE
70
1
9
$AUNITS
70
0
9
$AUPREC
70
0
9
$CECOLOR
62
256
9
$CELTSCALE
40
1
9
$CELTYPE
6
ByLayer
9
$CELWEIGHT
370
-1
9
$CLAYER
8
0
9
$CMLJUST
70
0
9
$CMLSCALE
40
1
9
$CMLSTYLE
2
Standard
9
$DIMSTYLE
2
Standard
9
$TEXTSIZE
40
0.2
9
$TEXTSTYLE
7
Standard
9
$LUNITS
70
2
9
$LUPREC
70
4
9
$EXTNAMES
290
1
9
$INSUNITS
70
4
9
$LTSCALE
40
1
9
$LWDISPLAY
290
0
9
$PDMODE
70
0
9
$PDSIZE
40
0
9
$PLINEGEN
70
0
0
ENDSEC
0
SECTION
2
CLASSES
0
CLASS
1
RASTERVARIABLES
2
AcDbRasterVariables
3
ISM
90
0
280
0
281
0
0
ENDSEC
0
SECTION
2
TABLES
0
TABLE
2
VPORT
5
19c
100
AcDbSymbolTable
0
VPORT
5
1
100
AcDbSymbolTableRecord
100
AcDbViewportTableRecord
2
*Active
70
0
10
0
20
0
11
1
21
1
12
-1
22
1
13
0
23
0
14
0.5
24
0.5
15
10
25
10
16
0
26
0
36
1
17
0
27
0
37
0
0
ENDTAB
0
TABLE
2
LTYPE
5
19d
100
AcDbSymbolTable
0
LTYPE
5
14
100
AcDbSymbolTableRecord
100
AcDbLinetypeTableRecord
70
0
2
ByBlock
3

72
65
73
0
40
0
0
LTYPE
5
15
100
AcDbSymbolTableRecord
100
AcDbLinetypeTableRecord
70
0
2
ByLayer
3

72
65
73
0
40
0
0
LTYPE
5
16
100
AcDbSymbolTableRecord
100
AcDbLinetypeTableRecord
70
0
2
CONTINUOUS
3
Solid line
72
65
73
0
40
0
0
LTYPE
5
3C
100
AcDbSymbolTableRecord
100
AcDbLinetypeTableRecord
70
0
2
DASHED
3
__ __ __ __ __ __ __ __ __
72
65
73
2
40
25.72
49
12.86
74
0
49
-12.86
74
0
0
LTYPE
5
3D
100
AcDbSymbolTableRecord
100
AcDbLinetypeTableRecord
70
0
2
HIDDEN
3
_ _ _ _ _ _ _ _ _ _ _ _ _ _ _
72
65
73
2
40
0.5
49
0.25
74
0
49
-0.25
74
0
0
LTYPE
5
3E
100
AcDbSymbolTableRecord
100
AcDbLinetypeTableRecord
70
0
2
PHANTOM
3
____ _ _ ____ _ _ _____ _ _ ____
72
65
73
6
40
50.5
49
18
74
0
49
-6.5
74
0
49
6.5
74
0
49
-6.5
74
0
49
6.5
74
0
49
-6.5
74
0
0
LTYPE
5
3F
100
AcDbSymbolTableRecord
100
AcDbLinetypeTableRecord
70
0
2
CENTER
3
____ _ ____ _ ____ _ ____
72
65
73
4
40
47.5
49
22
74
0
49
-8.5
74
0
49
8.5
74
0
49
-8.5
74
0
0
LTYPE
5
40
100
AcDbSymbolTableRecord
100
AcDbLinetypeTableRecord
70
0
2
DOT
3
.........................
72
65
73
2
40
10
49
0
74
0
49
-10
74
0
0
LTYPE
5
41
100
AcDbSymbolTableRecord
100
AcDbLinetypeTableRecord
70
0
2
DASHDOT
3
_._._._._._._._._._._._._._._._.
72
65
73
4
40
70
49
31
74
0
49
-13
74
0
49
13
74
0
49
-13
74
0
0
ENDTAB
0
TABLE
2
LAYER
5
19e
100
AcDbSymbolTable
0
LAYER
5
10
100
AcDbSymbolTableRecord
100
AcDbLayerTableRecord
2
0
70
0
62
7
6
CONTINUOUS
290
1
370
-3
390
0
0
LAYER
5
43
100
AcDbSymbolTableRecord
100
AcDbLayerTableRecord
2
80
70
0
62
-6
6
CONTINUOUS
290
1
370
-3
390
0
0
LAYER
5
45
100
AcDbSymbolTableRecord
100
AcDbLayerTableRecord
2
81
70
0
62
-3
6
CONTINUOUS
290
1
370
-3
390
0
0
LAYER
5
47
100
AcDbSymbolTableRecord
100
AcDbLayerTableRecord
2
2
70
0
62
7
6
CONTINUOUS
290
1
370
-3
390
0
0
LAYER
5
58
100
AcDbSymbolTableRecord
100
AcDbLayerTableRecord
2
1
70
0
62
4
6
CONTINUOUS
290
1
370
-3
390
0
0
LAYER
5
DD
100
AcDbSymbolTableRecord
100
AcDbLayerTableRecord
2
4
70
0
62
-2
6
CENTER
290
1
370
-3
390
0
0
LAYER
5
188
100
AcDbSymbolTableRecord
100
AcDbLayerTableRecord
2
SK1
70
0
62
4
6
CONTINUOUS
290
1
370
-3
390
0
0
LAYER
5
189
100
AcDbSymbolTableRecord
100
AcDbLayerTableRecord
2
SK4
70
0
62
2
6
CENTER
290
1
370
-3
390
0
0
LAYER
5
18a
100
AcDbSymbolTableRecord
100
AcDbLayerTableRecord
2
SK6
70
0
62
5
6
CONTINUOUS
290
1
370
-3
390
0
0
LAYER
5
18b
100
AcDbSymbolTableRecord
100
AcDbLayerTableRecord
2
SK2
70
0
62
7
6
CONTINUOUS
290
1
370
-3
390
0
0
ENDTAB
0
TABLE
2
STYLE
5
19f
100
AcDbSymbolTable
0
STYLE
5
11
100
AcDbSymbolTableRecord
100
AcDbTextStyleTableRecord
2
Standard
3
txt
70
0
71
0
40
0
41
1
42
0
50
0
0
STYLE
5
11E
100
AcDbSymbolTableRecord
100
AcDbTextStyleTableRecord
2
DEFAULT
3
simplex.shx
70
0
71
0
40
0
41
1
42
0
50
0
0
STYLE
5
11F
100
AcDbSymbolTableRecord
100
AcDbTextStyleTableRecord
2
DWGDirectTextStyle
3
SIMPLEX
70
0
71
0
40
0
41
1
42
0
50
0
0
ENDTAB
0
TABLE
2
DIMSTYLE
5
1a0
100
AcDbSymbolTable
100
AcDbDimStyleTable
0
DIMSTYLE
105
27
100
AcDbSymbolTableRecord
100
AcDbDimStyleTableRecord
2
Standard
70
0
3
<>
41
0.18
42
0.0625
44
0.18
140
0.18
147
0.09
73
0
74
0
77
1
271
2
275
0
278
52
280
0
340
11
0
ENDTAB
0
TABLE
2
VIEW
5
1a1
100
AcDbSymbolTable
0
ENDTAB
0
TABLE
2
UCS
5
1a2
100
AcDbSymbolTable
0
ENDTAB
0
TABLE
2
APPID
5
1a3
100
AcDbSymbolTable
0
APPID
5
12
100
AcDbSymbolTableRecord
100
AcDbRegAppTableRecord
2
ACAD
70
0
0
ENDTAB
0
TABLE
2
BLOCK_RECORD
5
1a4
100
AcDbSymbolTable
0
BLOCK_RECORD
5
1F
100
AcDbSymbolTableRecord
100
AcDbBlockTableRecord
2
*Model_Space
340
0
70
0
0
BLOCK_RECORD
5
1B
100
AcDbSymbolTableRecord
100
AcDbBlockTableRecord
2
*Paper_Space
340
0
70
0
0
BLOCK_RECORD
5
23
100
AcDbSymbolTableRecord
100
AcDbBlockTableRecord
2
*Paper_Space0
340
0
70
0
0
BLOCK_RECORD
5
122
100
AcDbSymbolTableRecord
100
AcDbBlockTableRecord
2
DimnDraft3D1
340
0
70
0
0
BLOCK_RECORD
5
12D
100
AcDbSymbolTableRecord
100
AcDbBlockTableRecord
2
DimnDraft3D2
340
0
70
0
0
BLOCK_RECORD
5
137
100
AcDbSymbolTableRecord
100
AcDbBlockTableRecord
2
DimnDraft3D3
340
0
70
0
0
BLOCK_RECORD
5
141
100
AcDbSymbolTableRecord
100
AcDbBlockTableRecord
2
DimnDraft3D4
340
0
70
0
0
ENDTAB
0
ENDSEC
0
SECTION
2
BLOCKS
0
BLOCK
5
20
100
AcDbEntity
8
0
100
AcDbBlockBegin
2
*Model_Space
70
0
10
0
20
0
30
0
3
*Model_Space
0
ENDBLK
5
21
100
AcDbEntity
8
0
100
AcDbBlockEnd
0
BLOCK
5
1C
100
AcDbEntity
8
0
100
AcDbBlockBegin
2
*Paper_Space
70
0
10
0
20
0
30
0
3
*Paper_Space
0
ENDBLK
5
1D
100
AcDbEntity
8
0
100
AcDbBlockEnd
0
BLOCK
5
24
100
AcDbEntity
8
0
100
AcDbBlockBegin
2
*Paper_Space0
70
0
10
0
20
0
30
0
3
*Paper_Space0
0
ENDBLK
5
25
100
AcDbEntity
8
0
100
AcDbBlockEnd
0
BLOCK
5
12A
100
AcDbEntity
8
0
100
AcDbBlockBegin
2
DimnDraft3D1
70
0
10
0
20
0
30
0
3
DimnDraft3D1
0
MTEXT
5
123
100
AcDbEntity
8
SK2
62
256
6
ByLayer
370
-1
48
1
60
0
100
AcDbMText
10
-12.140789
20
44.125019
30
0
210
0
220
0
230
1
1
\W01.000;\fsimplex.shx,bigfont.shx;58.0\P
40
3.5
41
0
44
1.084337
50
0
71
7
72
5
7
DEFAULT
0
LINE
5
125
100
AcDbEntity
8
SK2
62
256
6
ByLayer
370
-1
48
1
60
0
100
AcDbLine
10
20
20
21.5
30
0
11
20
21
45.250019
31
0
39
0
210
0
220
0
230
1
0
LINE
5
126
100
AcDbEntity
8
SK2
62
256
6
ByLayer
370
-1
48
1
60
0
100
AcDbLine
10
-38
20
9
30
0
11
-38
21
45.250019
31
0
39
0
210
0
220
0
230
1
0
LINE
5
127
100
AcDbEntity
8
SK2
62
256
6
ByLayer
370
-1
48
1
60
0
100
AcDbLine
10
20
20
43.250019
30
0
11
-38
21
43.250019
31
0
39
0
210
0
220
0
230
1
0
SOLID
5
128
100
AcDbEntity
8
SK2
62
256
6
ByLayer
370
-1
48
1
60
0
100
AcDbTrace
10
20
20
43.250019
30
0
11
16.825002
21
42.832023
31
0
12
16.824998
22
43.668016
32
0
13
20
23
43.250019
33
0
39
0
210
0
220
0
230
1
0
SOLID
5
129
100
AcDbEntity
8
SK2
62
256
6
ByLayer
370
-1
48
1
60
0
100
AcDbTrace
10
-38
20
43.250019
30
0
11
-34.825002
21
43.668016
31
0
12
-34.824998
22
42.832023
32
0
13
-38
23
43.250019
33
0
39
0
210
0
220
0
230
1
0
ENDBLK
5
12B
100
AcDbEntity
8
0
100
AcDbBlockEnd
0
BLOCK
5
134
100
AcDbEntity
8
0
100
AcDbBlockBegin
2
DimnDraft3D2
70
0
10
0
20
0
30
0
3
DimnDraft3D2
0
MTEXT
5
12E
100
AcDbEntity
8
2
62
256
6
ByLayer
370
-1
48
1
60
0
100
AcDbMText
10
6.859211
20
29.125019
30
0
210
0
220
0
230
1
1
\W01.000;\fsimplex.shx,bigfont.shx;20.0\P
40
3.5
41
0
44
1.084337
50
0
71
7
72
5
7
DEFAULT
0
LINE
5
12F
100
AcDbEntity
8
2
62
256
6
ByLayer
370
-1
48
1
60
0
100
AcDbLine
10
20
20
21.5
30
0
11
20
21
30.250019
31
0
39
0
210
0
220
0
230
1
0
LINE
5
130
100
AcDbEntity
8
2
62
256
6
ByLayer
370
-1
48
1
60
0
100
AcDbLine
10
0
20
21.5
30
0
11
0
21
30.250019
31
0
39
0
210
0
220
0
230
1
0
LINE
5
131
100
AcDbEntity
8
2
62
256
6
ByLayer
370
-1
48
1
60
0
100
AcDbLine
10
20
20
28.250019
30
0
11
0
21
28.250019
31
0
39
0
210
0
220
0
230
1
0
SOLID
5
132
100
AcDbEntity
8
2
62
256
6
ByLayer
370
-1
48
1
60
0
100
AcDbTrace
10
20
20
28.250019
30
0
11
16.825002
21
27.832023
31
0
12
16.824998
22
28.668016
32
0
13
20
23
28.250019
33
0
39
0
210
0
220
0
230
1
0
SOLID
5
133
100
AcDbEntity
8
2
62
256
6
ByLayer
370
-1
48
1
60
0
100
AcDbTrace
10
0
20
28.250019
30
0
11
3.174998
21
28.668016
31
0
12
3.175002
22
27.832023
32
0
13
0
23
28.250019
33
0
39
0
210
0
220
0
230
1
0
ENDBLK
5
135
100
AcDbEntity
8
0
100
AcDbBlockEnd
0
BLOCK
5
13E
100
AcDbEntity
8
0
100
AcDbBlockBegin
2
DimnDraft3D3
70
0
10
0
20
0
30
0
3
DimnDraft3D3
0
MTEXT
5
138
100
AcDbEntity
8
SK2
62
256
6
ByLayer
370
-1
48
1
60
0
100
AcDbMText
10
-46.166869
20
-26.372368
30
0
210
0
220
0
230
1
1
\W01.000;\fsimplex.shx,bigfont.shx;%%c 16.0\P
40
3.5
41
0
44
1.084337
50
90
71
7
72
5
7
DEFAULT
0
LINE
5
139
100
AcDbEntity
8
SK2
62
256
6
ByLayer
370
-1
48
1
60
0
100
AcDbLine
10
-39
20
-8
30
0
11
-47.291869
21
-8
31
0
39
0
210
0
220
0
230
1
0
LINE
5
13A
100
AcDbEntity
8
SK2
62
256
6
ByLayer
370
-1
48
1
60
0
100
AcDbLine
10
-5.4
20
8
30
0
11
-47.291869
21
8
31
0
39
0
210
0
220
0
230
1
0
LINE
5
13B
100
AcDbEntity
8
SK2
62
256
6
ByLayer
370
-1
48
1
60
0
100
AcDbLine
10
-45.291869
20
8
30
0
11
-45.291869
21
-27.247368
31
0
39
0
210
0
220
0
230
1
0
SOLID
5
13C
100
AcDbEntity
8
SK2
62
256
6
ByLayer
370
-1
48
1
60
0
100
AcDbTrace
10
-45.291869
20
-8
30
0
11
-45.709865
21
-4.825002
31
0
12
-44.873872
22
-4.824998
32
0
13
-45.291869
23
-8
33
0
39
0
210
0
220
0
230
1
0
SOLID
5
13D
100
AcDbEntity
8
SK2
62
256
6
ByLayer
370
-1
48
1
60
0
100
AcDbTrace
10
-45.291869
20
8
30
0
11
-44.873872
21
4.825002
31
0
12
-45.709865
22
4.824998
32
0
13
-45.291869
23
8
33
0
39
0
210
0
220
0
230
1
0
ENDBLK
5
13F
100
AcDbEntity
8
0
100
AcDbBlockEnd
0
BLOCK
5
148
100
AcDbEntity
8
0
100
AcDbBlockBegin
2
DimnDraft3D4
70
0
10
0
20
0
30
0
3
DimnDraft3D4
0
MTEXT
5
142
100
AcDbEntity
8
2
62
256
6
ByLayer
370
-1
48
1
60
0
100
AcDbMText
10
3.728947
20
-31.887871
30
0
210
0
220
0
230
1
1
\W01.000;\fsimplex.shx,bigfont.shx;28.3 / 30.3\P
40
3.5
41
0
44
1.084337
50
0
71
7
72
5
7
DEFAULT
0
LINE
5
143
100
AcDbEntity
8
2
62
256
6
ByLayer
370
-1
48
1
60
0
100
AcDbLine
10
0
20
-21.5
30
0
11
0
21
-34.762871
31
0
39
0
210
0
220
0
230
1
0
LINE
5
144
100
AcDbEntity
8
2
62
256
6
ByLayer
370
-1
48
1
60
0
100
AcDbLine
10
30.3
20
18.129024
30
0
11
30.3
21
-34.762871
31
0
39
0
210
0
220
0
230
1
0
LINE
5
145
100
AcDbEntity
8
2
62
256
6
ByLayer
370
-1
48
1
60
0
100
AcDbLine
10
-8.75
20
-32.762871
30
0
11
39.05
21
-32.762871
31
0
39
0
210
0
220
0
230
1
0
SOLID
5
146
100
AcDbEntity
8
2
62
256
6
ByLayer
370
-1
48
1
60
0
100
AcDbTrace
10
0
20
-32.762871
30
0
11
-3.174998
21
-33.180867
31
0
12
-3.175002
22
-32.344874
32
0
13
0
23
-32.762871
33
0
39
0
210
0
220
0
230
1
0
SOLID
5
147
100
AcDbEntity
8
2
62
256
6
ByLayer
370
-1
48
1
60
0
100
AcDbTrace
10
30.3
20
-32.762871
30
0
11
33.474998
21
-32.344874
31
0
12
33.475002
22
-33.180867
32
0
13
30.3
23
-32.762871
33
0
39
0
210
0
220
0
230
1
0
ENDBLK
5
149
100
AcDbEntity
8
0
100
AcDbBlockEnd
0
ENDSEC
0
SECTION
2
ENTITIES
0
ARC
5
E0
100
AcDbEntity
8
1
62
256
6
ByLayer
370
-1
48
1
60
0
100
AcDbCircle
39
0
10
3.5
20
-18
30
0
40
1.5
210
0
220
0
230
1
100
AcDbArc
50
270
51
0
0
ARC
5
E1
100
AcDbEntity
8
1
62
256
6
ByLayer
370
-1
48
1
60
0
100
AcDbCircle
39
0
10
9.5
20
18
30
0
40
1.5
210
0
220
0
230
1
100
AcDbArc
50
90
51
180
0
ARC
5
E2
100
AcDbEntity
8
1
62
256
6
ByLayer
370
-1
48
1
60
0
100
AcDbCircle
39
0
10
-7.2
20
-15.3
30
0
40
0.8
210
0
220
0
230
-1
100
AcDbArc
50
90
51
180
0
ARC
5
E3
100
AcDbEntity
8
1
62
256
6
ByLayer
370
-1
48
1
60
0
100
AcDbCircle
39
0
10
9.5
20
-18
30
0
40
1.5
210
0
220
0
230
1
100
AcDbArc
50
180
51
270
0
ARC
5
E4
100
AcDbEntity
8
1
62
256
6
ByLayer
370
-1
48
1
60
0
100
AcDbCircle
39
0
10
-5.8
20
-15.3
30
0
40
0.8
210
0
220
0
230
-1
100
AcDbArc
50
0
51
90
0
ARC
5
E5
100
AcDbEntity
8
1
62
256
6
ByLayer
370
-1
48
1
60
0
100
AcDbCircle
39
0
10
-5.8
20
15.3
30
0
40
0.8
210
0
220
0
230
-1
100
AcDbArc
50
270
51
0
0
ARC
5
E6
100
AcDbEntity
8
1
62
256
6
ByLayer
370
-1
48
1
60
0
100
AcDbCircle
39
0
10
3.5
20
18
30
0
40
1.5
210
0
220
0
230
1
100
AcDbArc
50
0
51
90
0
ARC
5
E7
100
AcDbEntity
8
SK1
62
256
6
ByLayer
370
-1
48
1
60
0
100
AcDbCircle
39
0
10
1.114326
20
-8.15
30
0
40
0.4
210
0
220
0
230
-1
100
AcDbArc
50
75
51
90
0
ARC
5
E8
100
AcDbEntity
8
1
62
256
6
ByLayer
370
-1
48
1
60
0
100
AcDbCircle
39
0
10
-17.4
20
8.05
30
0
40
0.4
210
0
220
0
230
-1
100
AcDbArc
50
0
51
90
0
ARC
5
E9
100
AcDbEntity
8
SK1
62
256
6
ByLayer
370
-1
48
1
60
0
100
AcDbCircle
39
0
10
1.114326
20
8.15
30
0
40
0.4
210
0
220
0
230
-1
100
AcDbArc
50
270
51
285
0
ARC
5
EA
100
AcDbEntity
8
1
62
256
6
ByLayer
370
-1
48
1
60
0
100
AcDbCircle
39
0
10
-7.2
20
15.3
30
0
40
0.8
210
0
220
0
230
-1
100
AcDbArc
50
180
51
270
0
ARC
5
EB
100
AcDbEntity
8
SK1
62
256
6
ByLayer
370
-1
48
1
60
0
100
AcDbCircle
39
0
10
0.275
20
8.15
30
0
40
0.4
210
0
220
0
230
-1
100
AcDbArc
50
226.566505
51
270
0
ARC
5
EC
100
AcDbEntity
8
SK1
62
256
6
ByLayer
370
-1
48
1
60
0
100
AcDbCircle
39
0
10
0.275
20
-8.15
30
0
40
0.4
210
0
220
0
230
-1
100
AcDbArc
50
90
51
133.433495
0
ELLIPSE
5
ED
100
AcDbEntity
8
1
62
256
6
ByLayer
370
-1
48
1
60
0
100
AcDbEllipse
10
19.049983
20
19.389519
30
0
11
2.63523430815366
21
0.208368753688434
31
0
210
0
220
0
230
-1
40
0.682595
41
1.46617186157289
42
1.69456212652585
0
ELLIPSE
5
EE
100
AcDbEntity
8
1
62
256
6
ByLayer
370
-1
48
1
60
0
100
AcDbEllipse
10
11
20
-18.126909
30
0
11
1.65000000000018
21
0
31
0
210
0
220
0
230
1
40
0.048236
41
0
42
6.28318530717959
0
ELLIPSE
5
EF
100
AcDbEntity
8
1
62
256
6
ByLayer
370
-1
48
1
60
0
100
AcDbEllipse
10
16.113103
20
0
30
0
11
5.2302603979586E-15
21
1.65000000000001
31
0
210
0
220
0
230
1
40
0.416655
41
0
42
6.28318530717959
0
ELLIPSE
5
F0
100
AcDbEntity
8
1
62
256
6
ByLayer
370
-1
48
1
60
0
100
AcDbEllipse
10
18.838547
20
19.474945
30
0
11
0.0642374250484118
21
2.1310764439715
31
0
210
0
220
0
230
-1
40
0.016371
41
-2.96101252725245
42
-2.72373624333303
0
ELLIPSE
5
F1
100
AcDbEntity
8
1
62
256
6
ByLayer
370
-1
48
1
60
0
100
AcDbEllipse
10
62.56083
20
0
30
0
11
49.1136186582189
21
-19.2423686932096
31
0
210
0
220
0
230
-1
40
0.064327
41
2.88159070890881
42
-3.06371522372158
0
ELLIPSE
5
F2
100
AcDbEntity
8
1
62
256
6
ByLayer
370
-1
48
1
60
0
100
AcDbEllipse
10
18.969329
20
17.25613
30
0
11
0.196801316841167
21
-0.0747685935109097
31
0
210
0
220
0
230
-1
40
0.176102
41
2.00668878704022
42
3.06261298451355
0
ELLIPSE
5
F3
100
AcDbEntity
8
1
62
256
6
ByLayer
370
-1
48
1
60
0
100
AcDbEllipse
10
24.667683
20
15.5
30
0
11
11.4598443543578
21
-4.48988602867785
31
0
210
0
220
0
230
-1
40
0.064327
41
1.96496157207923
42
2.23229497931334
0
ELLIPSE
5
F4
100
AcDbEntity
8
1
62
256
6
ByLayer
370
-1
48
1
60
0
100
AcDbEllipse
10
17.749091
20
13
30
0
11
7.94524827303663
21
-2.94420193173789
31
0
210
0
220
0
230
-1
40
0.436617
41
1.1269470158268
42
1.2732146208522
0
ELLIPSE
5
F5
100
AcDbEntity
8
1
62
256
6
ByLayer
370
-1
48
1
60
0
100
AcDbEllipse
10
18.590349
20
13
30
0
11
0.13764424836423
21
-4.54999932887557
31
0
210
0
220
0
230
-1
40
0.017444
41
-0.60206171811939
42
-0.44408039763551
0
ELLIPSE
5
F6
100
AcDbEntity
8
1
62
256
6
ByLayer
370
-1
48
1
60
0
100
AcDbEllipse
10
17.749091
20
13
30
0
11
7.94895886378427
21
2.79452024402256
31
0
210
0
220
0
230
-1
40
0.45172
41
1.44484108964118
42
1.59110869466168
0
ELLIPSE
5
F7
100
AcDbEntity
8
1
62
256
6
ByLayer
370
-1
48
1
60
0
100
AcDbEllipse
10
16.113103
20
0
30
0
11
4.75478217996234E-15
21
1.5
31
0
210
0
220
0
230
1
40
0.416655
41
0
42
6.28318530717959
0
ELLIPSE
5
F8
100
AcDbEntity
8
1
62
256
6
ByLayer
370
-1
48
1
60
0
100
AcDbEllipse
10
17.384557
20
17.903138
30
0
11
1.25826381689173
21
-0.450520724520053
31
0
210
0
220
0
230
-1
40
0.101028
41
-2.87410335884504
42
-2.538031088808
0
ELLIPSE
5
F9
100
AcDbEntity
8
1
62
256
6
ByLayer
370
-1
48
1
60
0
100
AcDbEllipse
10
17.384557
20
17.903138
30
0
11
1.25826381705418
21
-0.450520724586022
31
0
210
0
220
0
230
-1
40
0.101028
41
0.153268975554274
42
2.52405843176842
0
ELLIPSE
5
FA
100
AcDbEntity
8
1
62
256
6
ByLayer
370
-1
48
1
60
0
100
AcDbEllipse
10
11
20
-18.126909
30
0
11
1.5
21
0
31
0
210
0
220
0
230
1
40
0.048236
41
0
42
6.28318530717959
0
POINT
5
42
100
AcDbEntity
8
80
62
256
6
ByLayer
370
-1
48
1
60
0
100
AcDbPoint
10
0
20
0
30
0
39
0
210
0
220
0
230
1
50
360
0
POINT
5
44
100
AcDbEntity
8
81
62
256
6
ByLayer
370
-1
48
1
60
0
100
AcDbPoint
10
30.300131
20
21.994532
30
0
39
0
210
0
220
0
230
1
50
360
0
SPLINE
5
FB
100
AcDbEntity
8
1
62
256
6
ByLayer
370
-1
48
1
60
0
100
AcDbSpline
70
4
71
3
72
8
73
4
40
0
40
0
40
0
40
0
40
1
40
1
40
1
40
1
41
1
10
30.0885689012593
20
21.9941342648106
30
0
41
0.979892672642243
10
28.95848683122
20
21.926761223058
30
0
41
0.979892672642243
10
27.7978034121899
20
21.8881303102991
30
0
41
1
10
26.6765333685647
20
21.8805718197608
30
0
0
SPLINE
5
FC
100
AcDbEntity
8
1
62
256
6
ByLayer
370
-1
48
1
60
0
100
AcDbSpline
70
4
71
3
72
12
73
8
40
0
40
0
40
0
40
0
40
0.249999999999995
40
0.249999999999995
40
0.499999999999991
40
0.499999999999991
40
1
40
1
40
1
40
1
41
1
10
19.9656516492528
20
8.65937792061811
30
0
41
1
10
19.9857179517831
20
8.65747619547034
30
0
41
1
10
20.0040802244861
20
8.65479570734144
30
0
41
1
10
20.0375113283958
20
8.64804608144132
30
0
41
1
10
20.0518810204037
20
8.64410618345735
30
0
41
1
10
20.0874623189638
20
8.63107569215686
30
0
41
1
10
20.1000000000012
20
8.62113146511913
30
0
41
1
10
20.1000000000013
20
8.61169830398057
30
0
0
SPLINE
5
FD
100
AcDbEntity
8
1
62
256
6
ByLayer
370
-1
48
1
60
0
100
AcDbSpline
70
4
71
3
72
10
73
6
40
0
40
0
40
0
40
0
40
0.119999480538362
40
0.119999480538362
40
1
40
1
40
1
40
1
41
1
10
19.157344401666
20
9.466542502908
30
0
41
1
10
19.1567598174527
20
9.4652307432988
30
0
41
1
10
19.15620920278
20
9.46391363291994
30
0
41
1
10
19.1519082803289
20
9.45289914248585
30
0
41
1
10
19.15
20
9.44310972134107
30
0
41
1
10
19.15
20
9.43322754719054
30
0
0
SPLINE
5
FE
100
AcDbEntity
8
1
62
256
6
ByLayer
370
-1
48
1
60
0
100
AcDbSpline
70
4
71
3
72
12
73
8
40
0
40
0
40
0
40
0
40
0.111039824524011
40
0.111039824524011
40
0.407359883016005
40
0.407359883016005
40
1
40
1
40
1
40
1
41
1
10
20.0013076288849
20
16.1862959620376
30
0
41
1
10
20.0080369244522
20
16.1834039756827
30
0
41
1
10
20.014531968431
20
16.1802161429029
30
0
41
1
10
20.0375113283958
20
16.1674414912174
30
0
41
1
10
20.0518810204036
20
16.1564013915392
30
0
41
1
10
20.0874623189637
20
16.1187002502034
30
0
41
1
10
20.1000000000012
20
16.0883191365738
30
0
41
1
10
20.1000000000013
20
16.0570565024907
30
0
0
SPLINE
5
FF
100
AcDbEntity
8
1
62
256
6
ByLayer
370
-1
48
1
60
0
100
AcDbSpline
70
4
71
3
72
8
73
4
40
0
40
0
40
0
40
0
40
1
40
1
40
1
40
1
41
1
10
19.2346585428383
20
17.5234750896754
30
0
41
0.993685858888279
10
19.4604272899654
20
17.6404248980186
30
0
41
0.993685858888279
10
19.7059409083226
20
17.7335198988424
30
0
41
1
10
19.9665487750164
20
17.8009966472308
30
0
0
SPLINE
5
100
100
AcDbEntity
8
1
62
256
6
ByLayer
370
-1
48
1
60
0
100
AcDbSpline
70
4
71
3
72
14
73
10
40
0
40
0
40
0
40
0
40
0.25
40
0.25
40
0.5
40
0.5
40
0.75
40
0.75
40
1
40
1
40
1
40
1
41
1
10
19.15
20
8.83534963203979
30
0
41
1
10
19.15
20
8.82916730754368
30
0
41
1
10
19.1519329566839
20
8.82319196576049
30
0
41
1
10
19.1595188546194
20
8.81162677736947
30
0
41
1
10
19.1652671039797
20
8.80601165586472
30
0
41
1
10
19.1800002360819
20
8.79572164454527
30
0
41
1
10
19.1891121953942
20
8.79092791655816
30
0
41
1
10
19.2103894997556
20
8.78230620106029
30
0
41
1
10
19.2223559330062
20
8.77853643189698
30
0
41
1
10
19.2356838294253
20
8.77529115488537
30
0
0
SPLINE
5
101
100
AcDbEntity
8
1
62
256
6
ByLayer
370
-1
48
1
60
0
100
AcDbSpline
70
4
71
3
72
20
73
16
40
0
40
0
40
0
40
0
40
0.124999999999996
40
0.124999999999996
40
0.249999999999993
40
0.249999999999993
40
0.374999999999989
40
0.374999999999989
40
0.499999999999986
40
0.499999999999986
40
0.624999999999982
40
0.624999999999982
40
0.749999999999978
40
0.749999999999978
40
1
40
1
40
1
40
1
41
1
10
30.0885689012593
20
19.936024196206
30
0
41
1
10
30.1018979742854
20
19.9352295457843
30
0
41
1
10
30.1150855710307
20
19.9356892399723
30
0
41
1
10
30.1411849490612
20
19.939059886401
30
0
41
1
10
30.1542114345627
20
19.9420106756694
30
0
41
1
10
30.1794133025349
20
19.9503990301892
30
0
41
1
10
30.1914550731775
20
19.9557650540264
30
0
41
1
10
30.2144104748883
20
19.9688711417877
30
0
41
1
10
30.2254414701184
20
19.9767301905304
30
0
41
1
10
30.2454289880916
20
19.9943816424851
30
0
41
1
10
30.2544456158268
20
20.0041648755969
30
0
41
1
10
30.2704560588042
20
20.0257200194489
30
0
41
1
10
30.2774226118187
20
20.0375396154377
30
0
41
1
10
30.2940839130075
20
20.0743074264587
30
0
41
1
10
30.3000000000004
20
20.1015417070441
30
0
41
1
10
30.3000000000004
20
20.1290239123348
30
0
0
SPLINE
5
102
100
AcDbEntity
8
1
62
256
6
ByLayer
370
-1
48
1
60
0
100
AcDbSpline
70
4
71
3
72
14
73
10
40
0
40
0
40
0
40
0
40
0.125112722921523
40
0.125112722921523
40
0.416741815281015
40
0.416741815281015
40
0.708370907640508
40
0.708370907640508
40
1
40
1
40
1
40
1
41
1
10
20.0014226054245
20
13.9112132992828
30
0
41
1
10
20.0097611463458
20
13.9058969096979
30
0
41
1
10
20.0176328498947
20
13.8999620754675
30
0
41
1
10
20.0422923800412
20
13.8783309047818
30
0
41
1
10
20.0564293931646
20
13.8606071038787
30
0
41
1
10
20.0787723595907
20
13.8217938147106
30
0
41
1
10
20.0868425825456
20
13.8009770565551
30
0
41
1
10
20.0974940205529
20
13.7575726929146
30
0
41
1
10
20.1000000000005
20
13.735407674405
30
0
41
1
10
20.1000000000005
20
13.71280347163
30
0
0
SPLINE
5
103
100
AcDbEntity
8
1
62
256
6
ByLayer
370
-1
48
1
60
0
100
AcDbSpline
70
4
71
3
72
8
73
4
40
0
40
0
40
0
40
0
40
1
40
1
40
1
40
1
41
1
10
19.1499999999999
20
17.4035798012195
30
0
41
0.9252618736541
10
19.15
20
17.4522267556022
30
0
41
0.9252618736541
10
19.1804989485495
20
17.4954200366505
30
0
41
1
10
19.2346585428383
20
17.5234750896754
30
0
0
SPLINE
5
104
100
AcDbEntity
8
1
62
256
6
ByLayer
370
-1
48
1
60
0
100
AcDbSpline
70
4
71
3
72
14
73
10
40
0
40
0
40
0
40
0
40
0.2895492127764
40
0.2895492127764
40
0.5790984255528
40
0.5790984255528
40
0.868647638329201
40
0.868647638329201
40
1
40
1
40
1
40
1
41
1
10
20.1
20
12.2770831508133
30
0
41
1
10
20.1
20
12.2546503676766
30
0
41
1
10
20.0974983375136
20
12.2327483709015
30
0
41
1
10
20.0870250946736
20
12.1900437505572
30
0
41
1
10
20.0789034283862
20
12.1690976595851
30
0
41
1
10
20.0568980478647
20
12.1308489287904
30
0
41
1
10
20.0426695463906
20
12.1130049723082
30
0
41
1
10
20.0180213093326
20
12.0913048523339
30
0
41
1
10
20.0096955307961
20
12.0850646373145
30
0
41
1
10
20.0008239803946
20
12.07948919927
30
0
0
SPLINE
5
105
100
AcDbEntity
8
1
62
256
6
ByLayer
370
-1
48
1
60
0
100
AcDbSpline
70
4
71
3
72
20
73
16
40
0
40
0
40
0
40
0
40
0.124999999999983
40
0.124999999999983
40
0.249999999999967
40
0.249999999999967
40
0.499999999999962
40
0.499999999999962
40
0.624999999999971
40
0.624999999999971
40
0.749999999999981
40
0.749999999999981
40
0.87499999999999
40
0.87499999999999
40
1
40
1
40
1
40
1
41
1
10
30.3
20
21.8011345486817
30
0
41
1
10
30.3
20
21.8148637555597
30
0
41
1
10
30.2985691992735
20
21.8283410472358
30
0
41
1
10
30.2929112227043
20
21.8548035338412
30
0
41
1
10
30.2886022273542
20
21.8679188133114
30
0
41
1
10
30.2719323488302
20
21.9047922844262
30
0
41
1
10
30.2554579592659
20
21.9268990099356
30
0
41
1
10
30.2255520847252
20
21.9533410097287
30
0
41
1
10
30.2145528676931
20
21.9611981533709
30
0
41
1
10
30.1914888835057
20
21.9743819120877
30
0
41
1
10
30.1794249998761
20
21.979753246174
30
0
41
1
10
30.1542629152684
20
21.9881329356608
30
0
41
1
10
30.1412064674587
20
21.9910951847259
30
0
41
1
10
30.1150830801673
20
21.9944701531474
30
0
41
1
10
30.1018920638208
20
21.9949285628632
30
0
41
1
10
30.0885689012593
20
21.9941342648106
30
0
0
SPLINE
5
106
100
AcDbEntity
8
1
62
256
6
ByLayer
370
-1
48
1
60
0
100
AcDbSpline
70
4
71
3
72
8
73
4
40
0
40
0
40
0
40
0
40
1
40
1
40
1
40
1
41
1
10
19.9665487750164
20
17.8009966472308
30
0
41
0.877544051322076
10
20.0493088220538
20
17.8224249292754
30
0
41
0.877544051322076
10
20.1
20
17.87499464564
30
0
41
1
10
20.1
20
17.9393933728571
30
0
0
SPLINE
5
107
100
AcDbEntity
8
1
62
256
6
ByLayer
370
-1
48
1
60
0
100
AcDbSpline
70
4
71
3
72
10
73
6
40
0
40
0
40
0
40
0
40
0.5
40
0.5
40
1
40
1
40
1
40
1
41
1
10
19.2356838294253
20
8.77529115488537
30
0
41
1
10
19.3487803716811
20
8.74775270492037
30
0
41
1
10
19.4661548552105
20
8.72504899955169
30
0
41
1
10
19.7094093464015
20
8.68703590255816
30
0
41
1
10
19.8352889293792
20
8.6717326662091
30
0
41
1
10
19.9656516492528
20
8.65937792061811
30
0
0
SPLINE
5
108
100
AcDbEntity
8
1
62
256
6
ByLayer
370
-1
48
1
60
0
100
AcDbSpline
70
4
71
3
72
16
73
12
40
0
40
0
40
0
40
0
40
0.293168261789229
40
0.293168261789229
40
0.586336523578459
40
0.586336523578459
40
0.732920654473075
40
0.732920654473075
40
0.879504785367691
40
0.879504785367691
40
1
40
1
40
1
40
1
41
1
10
20.1
20
9.93658561908086
30
0
41
1
10
20.1
20
9.92103792981464
30
0
41
1
10
20.096982531839
20
9.90596487565421
30
0
41
1
10
20.0848885494936
20
9.87674206220638
30
0
41
1
10
20.075879470275
20
9.86295536676542
30
0
41
1
10
20.0583579908435
20
9.84427292412596
30
0
41
1
10
20.05175287124
20
9.83829353078281
30
0
41
1
10
20.0374897294475
20
9.82729858121428
30
0
41
1
10
20.0298226646735
20
9.82225340046421
30
0
41
1
10
20.0148772385502
20
9.81387391822423
30
0
41
1
10
20.0077461687759
20
9.81039189131394
30
0
41
1
10
20.0002990472093
20
9.80724676766613
30
0
0
SPLINE
5
109
100
AcDbEntity
8
1
62
256
6
ByLayer
370
-1
48
1
60
0
100
AcDbSpline
70
4
71
3
72
8
73
4
40
0
40
0
40
0
40
0
40
1
40
1
40
1
40
1
41
1
10
26.6765333685647
20
20.0495866412558
30
0
41
0.979892672642243
10
27.7978034121899
20
20.0420281507175
30
0
41
0.979892672642243
10
28.95848683122
20
20.0033972379586
30
0
41
1
10
30.0885689012593
20
19.936024196206
30
0
0
SPLINE
5
10A
100
AcDbEntity
8
SK1
62
256
6
ByLayer
370
-1
48
1
60
0
100
AcDbSpline
70
4
71
3
72
20
73
16
40
0
40
0
40
0
40
0
40
0.125065671835922
40
0.125065671835922
40
0.250131343671844
40
0.250131343671844
40
0.500262687343686
40
0.500262687343686
40
0.750394031015528
40
0.750394031015528
40
0.875459702851449
40
0.875459702851449
40
0.937992538769409
40
0.937992538769409
40
1
40
1
40
1
40
1
41
1
10
-37
20
7.39999999999995
30
0
41
1
10
-37.0462290133418
20
7.39999999999995
30
0
41
1
10
-37.0905686226932
20
7.39999999999995
30
0
41
1
10
-37.1742983186543
20
7.39999999999995
30
0
41
1
10
-37.2137677339873
20
7.39999999999995
30
0
41
1
10
-37.324466818967
20
7.39999999999995
30
0
41
1
10
-37.3879856935272
20
7.39999999999995
30
0
41
1
10
-37.4916454220976
20
7.39999999999995
30
0
41
1
10
-37.5317774023736
20
7.39999999999995
30
0
41
1
10
-37.5724378952621
20
7.39999999999995
30
0
41
1
10
-37.5827372479533
20
7.39999999999995
30
0
41
1
10
-37.5930849349654
20
7.39999999999995
30
0
41
1
10
-37.5956843913952
20
7.39999999999995
30
0
41
1
10
-37.5991245738814
20
7.39999999999995
30
0
41
1
10
-37.5999818995878
20
7.39999999999995
30
0
41
1
10
-37.599997999996
20
7.39999999999992
30
0
0
SPLINE
5
10B
100
AcDbEntity
8
1
62
256
6
ByLayer
370
-1
48
1
60
0
100
AcDbSpline
70
4
71
3
72
38
73
34
40
0
40
0
40
0
40
0
40
0.25
40
0.25
40
0.375
40
0.375
40
0.5
40
0.5
40
0.5625
40
0.5625
40
0.625
40
0.625
40
0.6875
40
0.6875
40
0.749999999999999
40
0.749999999999999
40
0.812499999999999
40
0.812499999999999
40
0.843749999999999
40
0.843749999999999
40
0.874999999999998
40
0.874999999999998
40
0.906249999999998
40
0.906249999999998
40
0.921874999999998
40
0.921874999999998
40
0.937499999999999
40
0.937499999999999
40
0.953124999999999
40
0.953124999999999
40
0.968749999999999
40
0.968749999999999
40
1
40
1
40
1
40
1
41
1
10
8.05505128751594
20
-18.2282040310075
30
0
41
1
10
8.06645480171284
20
-18.2061297925668
30
0
41
1
10
8.08401502039962
20
-18.1840803799214
30
0
41
1
10
8.13015903662529
20
-18.1510861157373
30
0
41
1
10
8.14891006947153
20
-18.1401016153569
30
0
41
1
10
8.19624268160382
20
-18.1181722544932
30
0
41
1
10
8.22478217682874
20
-18.1072272243135
30
0
41
1
10
8.27857046036576
20
-18.0908539500363
30
0
41
1
10
8.29837412313071
20
-18.0853969931488
30
0
41
1
10
8.34247579261506
20
-18.0745353801848
30
0
41
1
10
8.36674212328592
20
-18.0691361033164
30
0
41
1
10
8.42084495594517
20
-18.0584168209281
30
0
41
1
10
8.45066973291551
20
-18.0530966485447
30
0
41
1
10
8.51756720340489
20
-18.0425594517933
30
0
41
1
10
8.55461048399945
20
-18.0373420088383
30
0
41
1
10
8.63872861902115
20
-18.0270498862902
30
0
41
1
10
8.68601727866033
20
-18.0219502581378
30
0
41
1
10
8.76700439721185
20
-18.0145966571328
30
0
41
1
10
8.79569849903203
20
-18.0121930211264
30
0
41
1
10
8.85740825722533
20
-18.0075067761795
30
0
41
1
10
8.89054822998108
20
-18.0052156316362
30
0
41
1
10
8.96193526954673
20
-18.000838717157
30
0
41
1
10
9.00006119411975
20
-17.9987571369718
30
0
41
1
10
9.06223548277472
20
-17.995853819485
30
0
41
1
10
9.0839007420048
20
-17.9949190718746
30
0
41
1
10
9.1286580766988
20
-17.9931620846646
30
0
41
1
10
9.15173694892724
20
-17.9923395203189
30
0
41
1
10
9.19950657889464
20
-17.9908231418909
30
0
41
1
10
9.22419611627407
20
-17.9901292303316
30
0
41
1
10
9.27547679082093
20
-17.9888932985674
30
0
41
1
10
9.30221246814125
20
-17.9883487978661
30
0
41
1
10
9.38492906027184
20
-17.9870086345964
30
0
41
1
10
9.44159034166381
20
-17.9865302432909
30
0
41
1
10
9.5
20
-17.9865302432909
30
0
0
SPLINE
5
10C
100
AcDbEntity
8
1
62
256
6
ByLayer
370
-1
48
1
60
0
100
AcDbSpline
70
4
71
3
72
28
73
24
40
0
40
0
40
0
40
0
40
0.0625000000000013
40
0.0625000000000013
40
0.125000000000002
40
0.125000000000002
40
0.250000000000004
40
0.250000000000004
40
0.312500000000005
40
0.312500000000005
40
0.375000000000006
40
0.375000000000006
40
0.500000000000005
40
0.500000000000005
40
0.562500000000005
40
0.562500000000005
40
0.625000000000005
40
0.625000000000005
40
0.750000000000003
40
0.750000000000003
40
0.875000000000002
40
0.875000000000002
40
1
40
1
40
1
40
1
41
1
10
9.50000000000006
20
-19.4472524678813
30
0
41
1
10
9.46095227185035
20
-19.4472524678813
30
0
41
1
10
9.42178380892773
20
-19.4456660117922
30
0
41
1
10
9.34319849236988
20
-19.4392292432371
30
0
41
1
10
9.30413070617092
20
-19.4343969450431
30
0
41
1
10
9.18871837712729
20
-19.415364313717
30
0
41
1
10
9.1136664409305
20
-19.3966177128237
30
0
41
1
10
9.00382626987934
20
-19.35972053799
30
0
41
1
10
8.96755273168685
20
-19.3458998063439
30
0
41
1
10
8.89647978698832
20
-19.3155282161989
30
0
41
1
10
8.86189358302386
20
-19.2990813853585
30
0
41
1
10
8.7608347979197
20
-19.24615813853
30
0
41
1
10
8.69704751407704
20
-19.206118249324
30
0
41
1
10
8.60645623475068
20
-19.1393042960403
30
0
41
1
10
8.57700891917082
20
-19.1158077646441
30
0
41
1
10
8.52051150185758
20
-19.06718538456
30
0
41
1
10
8.49341773622342
20
-19.0420424624753
30
0
41
1
10
8.41541738793376
20
-18.9642509215747
30
0
41
1
10
8.36777592878008
20
-18.9092509245634
30
0
41
1
10
8.28069040065316
20
-18.793347581244
30
0
41
1
10
8.24125340219027
20
-18.7323249895728
30
0
41
1
10
8.17182234264402
20
-18.6071990768331
30
0
41
1
10
8.14157540128267
20
-18.5427892493102
30
0
41
1
10
8.11560106532227
20
-18.4766135505687
30
0
0
SPLINE
5
10D
100
AcDbEntity
8
1
62
256
6
ByLayer
370
-1
48
1
60
0
100
AcDbSpline
70
4
71
3
72
16
73
12
40
0
40
0
40
0
40
0
40
0.249999999999991
40
0.249999999999991
40
0.374999999999994
40
0.374999999999994
40
0.499999999999996
40
0.499999999999996
40
0.749999999999998
40
0.749999999999998
40
1
40
1
40
1
40
1
41
1
10
8.05417629074032
20
-18.2625017453481
30
0
41
1
10
8.05414793002996
20
-18.2664714632337
30
0
41
1
10
8.0552664462449
20
-18.2744517799394
30
0
41
1
10
8.05876383630317
20
-18.2922108585649
30
0
41
1
10
8.06025465805402
20
-18.2991689886093
30
0
41
1
10
8.063860692638
20
-18.3147296762467
30
0
41
1
10
8.06597353679541
20
-18.3233304926537
30
0
41
1
10
8.07333550051993
20
-18.3514956169155
30
0
41
1
10
8.07971846590215
20
-18.3737830325802
30
0
41
1
10
8.09535763908573
20
-18.4223152531273
30
0
41
1
10
8.10459331799066
20
-18.4485687384725
30
0
41
1
10
8.11560106532352
20
-18.4766135505682
30
0
0
SPLINE
5
10E
100
AcDbEntity
8
1
62
256
6
ByLayer
370
-1
48
1
60
0
100
AcDbSpline
70
4
71
3
72
8
73
4
40
0
40
0
40
0
40
0
40
1
40
1
40
1
40
1
41
1
10
8.05417629074029
20
-18.2625017453493
30
0
41
1
10
8.05425796838784
20
-18.2510691255505
30
0
41
1
10
8.05454789834724
20
-18.2396364986359
30
0
41
1
10
8.05505128751554
20
-18.2282040310066
30
0
0
SPLINE
5
10F
100
AcDbEntity
8
1
62
256
6
ByLayer
370
-1
48
1
60
0
100
AcDbSpline
70
4
71
3
72
27
73
23
40
0
40
0
40
0
40
0
40
0.125000000000001
40
0.125000000000001
40
0.250000000000003
40
0.250000000000003
40
0.375000000000004
40
0.375000000000004
40
0.500000000000006
40
0.500000000000006
40
0.625000000000007
40
0.625000000000007
40
0.750000000000008
40
0.750000000000008
40
0.812500000000006
40
0.812500000000006
40
0.875000000000004
40
0.937500000000002
40
0.937500000000002
40
0.968750000000001
40
0.968750000000001
40
1
40
1
40
1
40
1
41
1
10
5.80000000000001
20
-12.0933866224478
30
0
41
1
10
5.74362216098652
20
-12.0933866224478
30
0
41
1
10
5.68841691015837
20
-12.096554763956
30
0
41
1
10
5.58021825752058
20
-12.1088562796554
30
0
41
1
10
5.52684134116458
20
-12.1181524102033
30
0
41
1
10
5.42728785196272
20
-12.1416899756937
30
0
41
1
10
5.38031653773777
20
-12.1560191688933
30
0
41
1
10
5.29278184985043
20
-12.1892399114391
30
0
41
1
10
5.25327869463973
20
-12.2077002985017
30
0
41
1
10
5.18199700635472
20
-12.2479309866324
30
0
41
1
10
5.15011670151037
20
-12.2698698838239
30
0
41
1
10
5.09594115164475
20
-12.3153637494173
30
0
41
1
10
5.07331296946444
20
-12.3390672313047
30
0
41
1
10
5.04583588136509
20
-12.3759878783429
30
0
41
1
10
5.03776436187414
20
-12.3885408915162
30
0
41
1
10
5.02403283861924
20
-12.4136805967689
30
0
41
1
10
5.0126277013045
20
-12.4389563360232
30
0
41
1
10
5.0057594897101
20
-12.4644939730884
30
0
41
1
10
5.00231111579856
20
-12.4837448056941
30
0
41
1
10
5.00144591037818
20
-12.4901780497567
30
0
41
1
10
5.0002898075146
20
-12.5030774301643
30
0
41
1
10
5
20
-12.509590727689
30
0
41
1
10
5
20
-12.5159897730863
30
0
0
SPLINE
5
110
100
AcDbEntity
8
1
62
256
6
ByLayer
370
-1
48
1
60
0
100
AcDbSpline
70
4
71
3
72
27
73
23
40
0
40
0
40
0
40
0
40
0.125
40
0.125
40
0.1875
40
0.1875
40
0.25
40
0.25
40
0.375000000000001
40
0.375000000000001
40
0.500000000000001
40
0.500000000000001
40
0.624999999999999
40
0.624999999999999
40
0.687499999999999
40
0.687499999999999
40
0.749999999999999
40
0.812499999999999
40
0.812499999999999
40
0.875
40
0.875
40
1
40
1
40
1
40
1
41
1
10
8.00000000000003
20
-13.0418556961807
30
0
41
1
10
8.00000000000003
20
-12.984743076931
30
0
41
1
10
7.99559332171214
20
-12.9278328482705
30
0
41
1
10
7.98225410828425
20
-12.8427765648148
30
0
41
1
10
7.97664545499504
20
-12.8143520734017
30
0
41
1
10
7.96327025875934
20
-12.7584159171754
30
0
41
1
10
7.95551165699368
20
-12.7308767243409
30
0
41
1
10
7.92904256553064
20
-12.649537902852
30
0
41
1
10
7.90717017585624
20
-12.5970044625579
30
0
41
1
10
7.85437799590389
20
-12.4955606293206
30
0
41
1
10
7.82312946622915
20
-12.4463409538174
30
0
41
1
10
7.75300086706454
20
-12.3558572068892
30
0
41
1
10
7.71397209690565
20
-12.314124655269
30
0
41
1
10
7.64870205830243
20
-12.2574804183139
30
0
41
1
10
7.62576443480492
20
-12.2395943158053
30
0
41
1
10
7.57869642699109
20
-12.2068745819611
30
0
41
1
10
7.53016428998134
20
-12.1769508745776
30
0
41
1
10
7.4786236751645
20
-12.1527724139787
30
0
41
1
10
7.42548446174234
20
-12.131646774137
30
0
41
1
10
7.39792736395827
20
-12.1225628968802
30
0
41
1
10
7.31396399451245
20
-12.100690202511
30
0
41
1
10
7.25731824828353
20
-12.093386622447
30
0
41
1
10
7.19999999999015
20
-12.0933866224479
30
0
0
SPLINE
5
111
100
AcDbEntity
8
1
62
256
6
ByLayer
370
-1
48
1
60
0
100
AcDbSpline
70
4
71
3
72
28
73
24
40
0
40
0
40
0
40
0
40
0.0625000000000005
40
0.0625000000000005
40
0.125000000000001
40
0.125000000000001
40
0.187500000000002
40
0.187500000000002
40
0.250000000000002
40
0.250000000000002
40
0.375000000000001
40
0.375000000000001
40
0.500000000000001
40
0.500000000000001
40
0.562499999999999
40
0.562499999999999
40
0.624999999999998
40
0.624999999999998
40
0.749999999999999
40
0.749999999999999
40
0.874999999999999
40
0.874999999999999
40
1
40
1
40
1
40
1
41
1
10
7.19999999999996
20
12.0933866224478
30
0
41
1
10
7.22856621692415
20
12.0933866224478
30
0
41
1
10
7.25709280714364
20
12.0952160041404
30
0
41
1
10
7.31406605925329
20
12.102564688845
30
0
41
1
10
7.34265828964465
20
12.1081339141098
30
0
41
1
10
7.39863005791449
20
12.1227779800903
30
0
41
1
10
7.42621526854026
20
12.131891563585
30
0
41
1
10
7.47987998062189
20
12.153319331879
30
0
41
1
10
7.5057750440773
20
12.1655411602851
30
0
41
1
10
7.58088293318735
20
12.2063530846132
30
0
41
1
10
7.6275435654519
20
12.2390492253613
30
0
41
1
10
7.71451163710958
20
12.3146627129854
30
0
41
1
10
7.75365161493699
20
12.3566113612583
30
0
41
1
10
7.80605186077099
20
12.4243501938414
30
0
41
1
10
7.82249552649958
20
12.4477749358289
30
0
41
1
10
7.85338618952534
20
12.4962737941305
30
0
41
1
10
7.86778061612767
20
12.5212875141814
30
0
41
1
10
7.90737389312488
20
12.597450913029
30
0
41
1
10
7.92927284841142
20
12.6501062301079
30
0
41
1
10
7.96460334124987
20
12.7589565360674
30
0
41
1
10
7.9779733201577
20
12.8153087921896
30
0
41
1
10
7.99558692217488
20
12.9279653148869
30
0
41
1
10
8
20
12.9847042594055
30
0
41
1
10
8
20
13.0418556961807
30
0
0
SPLINE
5
112
100
AcDbEntity
8
1
62
256
6
ByLayer
370
-1
48
1
60
0
100
AcDbSpline
70
4
71
3
72
30
73
26
40
0
40
0
40
0
40
0
40
0.0625000000000015
40
0.0625000000000015
40
0.125000000000003
40
0.125000000000003
40
0.250000000000002
40
0.250000000000002
40
0.375000000000001
40
0.375000000000001
40
0.4375
40
0.4375
40
0.5
40
0.5
40
0.624999999999995
40
0.624999999999995
40
0.687499999999995
40
0.687499999999995
40
0.749999999999995
40
0.749999999999995
40
0.874999999999997
40
0.874999999999997
40
0.937499999999999
40
0.937499999999999
40
1
40
1
40
1
40
1
41
1
10
8
20
-16.1245154965972
30
0
41
1
10
8
20
-16.1762217454198
30
0
41
1
10
8.00215117157612
20
-16.2282366925727
30
0
41
1
10
8.01086505556685
20
-16.3321248374137
30
0
41
1
10
8.01737719540989
20
-16.3835208480503
30
0
41
1
10
8.04325950724777
20
-16.5360951343528
30
0
41
1
10
8.06892047212284
20
-16.6356736760676
30
0
41
1
10
8.13772938548328
20
-16.8303838603676
30
0
41
1
10
8.18135273977373
20
-16.9261078005438
30
0
41
1
10
8.25869326796158
20
-17.0609946011894
30
0
41
1
10
8.28650567343635
20
-17.1046899557238
30
0
41
1
10
8.34632024377999
20
-17.1894687264567
30
0
41
1
10
8.37848708627664
20
-17.2307376470949
30
0
41
1
10
8.48037987949334
20
-17.3489531672682
30
0
41
1
10
8.55502972014068
20
-17.4200510251817
30
0
41
1
10
8.67739680660645
20
-17.514772953237
30
0
41
1
10
8.71992956773974
20
-17.5443460525859
30
0
41
1
10
8.80870074951284
20
-17.5992401263427
30
0
41
1
10
8.85424943976983
20
-17.6241238461479
30
0
41
1
10
8.99375258564692
20
-17.6908730193147
30
0
41
1
10
9.09078071365678
20
-17.7250782698547
30
0
41
1
10
9.24271767407231
20
-17.7600352985026
30
0
41
1
10
9.2943697615635
20
-17.7688737252699
30
0
41
1
10
9.39710425126819
20
-17.7805217119246
30
0
41
1
10
9.4485254268408
20
-17.7834192437787
30
0
41
1
10
9.5
20
-17.7834192437787
30
0
0
SPLINE
5
113
100
AcDbEntity
8
1
62
256
6
ByLayer
370
-1
48
1
60
0
100
AcDbSpline
70
4
71
3
72
30
73
26
40
0
40
0
40
0
40
0
40
0.0625000000000008
40
0.0625000000000008
40
0.125000000000002
40
0.187500000000002
40
0.187500000000002
40
0.250000000000003
40
0.250000000000003
40
0.375000000000007
40
0.375000000000007
40
0.437500000000006
40
0.437500000000006
40
0.500000000000006
40
0.562500000000005
40
0.562500000000005
40
0.625000000000005
40
0.625000000000005
40
0.750000000000002
40
0.750000000000002
40
0.8125
40
0.8125
40
0.874999999999999
40
0.874999999999999
40
1
40
1
40
1
40
1
41
1
10
9.49999999999997
20
17.7834192437787
30
0
41
1
10
9.44817990264403
20
17.7834192437787
30
0
41
1
10
9.39574712464116
20
17.7804242223384
30
0
41
1
10
9.29273717524183
20
17.7686305822742
30
0
41
1
10
9.19104036420492
20
17.7510896268659
30
0
41
1
10
9.09189974068948
20
17.7223608056672
30
0
41
1
10
8.99404365615331
20
17.6880098422812
30
0
41
1
10
8.94556946532316
20
17.6679022620231
30
0
41
1
10
8.80535123221318
20
17.6005542601667
30
0
41
1
10
8.71775786479674
20
17.5461070299771
30
0
41
1
10
8.59478572377265
20
17.4507789664157
30
0
41
1
10
8.55507858535998
20
17.4165529212532
30
0
41
1
10
8.4800420340955
20
17.3449576059687
30
0
41
1
10
8.40899918841177
20
17.2699721740333
30
0
41
1
10
8.34559560800471
20
17.1885020376317
30
0
41
1
10
8.28595053549668
20
17.1038414356454
30
0
41
1
10
8.25788870751558
20
17.0596919842514
30
0
41
1
10
8.18051048872729
20
16.9244328328973
30
0
41
1
10
8.13780278561563
20
16.8305562444238
30
0
41
1
10
8.08618644239178
20
16.6845492016632
30
0
41
1
10
8.07107029039759
20
16.6350085302297
30
0
41
1
10
8.04504036395866
20
16.5341739494264
30
0
41
1
10
8.0342443448738
20
16.4832917506438
30
0
41
1
10
8.00849588698475
20
16.3304648037669
30
0
41
1
10
7.99999999999997
20
16.2278486006054
30
0
41
1
10
7.99999999999997
20
16.124515496597
30
0
0
SPLINE
5
114
100
AcDbEntity
8
1
62
256
6
ByLayer
370
-1
48
1
60
0
100
AcDbSpline
70
4
71
3
72
34
73
30
40
0
40
0
40
0
40
0
40
0.25
40
0.25
40
0.374999999999999
40
0.374999999999999
40
0.499999999999998
40
0.499999999999998
40
0.562499999999997
40
0.562499999999997
40
0.624999999999998
40
0.624999999999998
40
0.687499999999998
40
0.687499999999998
40
0.749999999999998
40
0.749999999999998
40
0.812499999999999
40
0.812499999999999
40
0.874999999999999
40
0.874999999999999
40
0.90625
40
0.90625
40
0.9375
40
0.9375
40
0.953125
40
0.953125
40
0.96875
40
0.96875
40
1
40
1
40
1
40
1
41
1
10
18.7765338490789
20
19.5
30
0
41
1
10
18.3105950896463
20
19.5
30
0
41
1
10
17.8475136323063
20
19.5000425171143
30
0
41
1
10
17.1574921022661
20
19.4997961284571
30
0
41
1
10
16.9282606462135
20
19.4996553475028
30
0
41
1
10
16.4715656351359
20
19.4990686556663
30
0
41
1
10
16.2440972188003
20
19.4986264410112
30
0
41
1
10
15.9045369242602
20
19.4974763110098
30
0
41
1
10
15.7916258437515
20
19.4970103089923
30
0
41
1
10
15.5664475741404
20
19.4958397715559
30
0
41
1
10
15.4540858055571
20
19.4951345058672
30
0
41
1
10
15.231761227056
20
19.4933923181048
30
0
41
1
10
15.1216199172029
20
19.4923556856794
30
0
41
1
10
14.903865929902
20
19.4898012311242
30
0
41
1
10
14.795981043763
20
19.4882806260387
30
0
41
1
10
14.5849160383495
20
19.4845406368175
30
0
41
1
10
14.4818837168011
20
19.4823295371641
30
0
41
1
10
14.2827245971106
20
19.4768458045514
30
0
41
1
10
14.1865269573615
20
19.4735867711753
30
0
41
1
10
14.050298867907
20
19.4673366317173
30
0
41
1
10
14.0064191844794
20
19.4650254717661
30
0
41
1
10
13.9239723285179
20
19.4598742231795
30
0
41
1
10
13.8852123530517
20
19.4570279210874
30
0
41
1
10
13.8319725967452
20
19.452199857672
30
0
41
1
10
13.8149818541832
20
19.4504883665813
30
0
41
1
10
13.7833801439645
20
19.4468917051693
30
0
41
1
10
13.7687502396665
20
19.4450066486109
30
0
41
1
10
13.7287605562204
20
19.4390576435668
30
0
41
1
10
13.7072538284995
20
19.4347035662876
30
0
41
1
10
13.6923691450191
20
19.4298371239418
30
0
0
SPLINE
5
115
100
AcDbEntity
8
1
62
256
6
ByLayer
370
-1
48
1
60
0
100
AcDbSpline
70
4
71
3
72
14
73
10
40
0
40
0
40
0
40
0
40
0.25
40
0.25
40
0.5
40
0.5
40
0.75
40
0.75
40
1
40
1
40
1
40
1
41
1
10
18.865806965357
20
17.5787588293465
30
0
41
1
10
18.8507424770176
20
17.578846302859
30
0
41
1
10
18.8370428600868
20
17.5776779171416
30
0
41
1
10
18.8123954495588
20
17.5730084589243
30
0
41
1
10
18.8015335116089
20
17.5694711017145
30
0
41
1
10
18.7839980722898
20
17.5604982358399
30
0
41
1
10
18.777076153665
20
17.5549227973405
30
0
41
1
10
18.767951421706
20
17.5423596986116
30
0
41
1
10
18.7656265772449
20
17.5353808429642
30
0
41
1
10
18.7656785283658
20
17.5276513387014
30
0
0
SPLINE
5
116
100
AcDbEntity
8
1
62
256
6
ByLayer
370
-1
48
1
60
0
100
AcDbSpline
70
4
71
3
72
24
73
20
40
0
40
0
40
0
40
0
40
0.125000000000001
40
0.125000000000001
40
0.250000000000003
40
0.250000000000003
40
0.375000000000004
40
0.375000000000004
40
0.500000000000005
40
0.500000000000005
40
0.56250000000001
40
0.56250000000001
40
0.625000000000015
40
0.625000000000015
40
0.75000000000001
40
0.75000000000001
40
0.875000000000005
40
0.875000000000005
40
1
40
1
40
1
40
1
41
1
10
16.9999999999998
20
17.7604675849176
30
0
41
1
10
16.9999999999998
20
17.7657264404796
30
0
41
1
10
17.0018261623697
20
17.7702818888196
30
0
41
1
10
17.0097744914311
20
17.7777380364397
30
0
41
1
10
17.0158817805296
20
17.7805789431526
30
0
41
1
10
17.0326805104116
20
17.7840849526567
30
0
41
1
10
17.0435138282837
20
17.7847769706403
30
0
41
1
10
17.0704277525078
20
17.7835066429842
30
0
41
1
10
17.0862703472239
20
17.7815785760021
30
0
41
1
10
17.1143216654476
20
17.7763628877386
30
0
41
1
10
17.1243882056796
20
17.7742282683147
30
0
41
1
10
17.145378128616
20
17.7692690498116
30
0
41
1
10
17.1563767743529
20
17.766431588975
30
0
41
1
10
17.1909286546806
20
17.7568137585776
30
0
41
1
10
17.2164148600613
20
17.7487804451402
30
0
41
1
10
17.2681914824954
20
17.7307858956844
30
0
41
1
10
17.2951687636724
20
17.7206016316518
30
0
41
1
10
17.3481666688363
20
17.699237997003
30
0
41
1
10
17.3744644419597
20
17.6879640085382
30
0
41
1
10
17.3999999999999
20
17.6764547488143
30
0
0
SPLINE
5
117
100
AcDbEntity
8
1
62
256
6
ByLayer
370
-1
48
1
60
0
100
AcDbSpline
70
4
71
3
72
42
73
38
40
0
40
0
40
0
40
0
40
0.0625
40
0.0625
40
0.0937499999999994
40
0.0937499999999994
40
0.124999999999999
40
0.124999999999999
40
0.156249999999998
40
0.156249999999998
40
0.187499999999998
40
0.187499999999998
40
0.218749999999997
40
0.218749999999997
40
0.249999999999997
40
0.249999999999997
40
0.281249999999996
40
0.281249999999996
40
0.312499999999996
40
0.312499999999996
40
0.374999999999996
40
0.374999999999996
40
0.437499999999997
40
0.437499999999997
40
0.499999999999997
40
0.499999999999997
40
0.624999999999994
40
0.624999999999994
40
0.687499999999994
40
0.687499999999994
40
0.749999999999994
40
0.749999999999994
40
0.874999999999997
40
0.874999999999997
40
0.937499999999998
40
0.937499999999998
40
1
40
1
40
1
40
1
41
1
10
18.6211219105818
20
17.4384917459969
30
0
41
1
10
18.6397378266295
20
17.4429555830133
30
0
41
1
10
18.6527942873085
20
17.4530261169468
30
0
41
1
10
18.6615220299645
20
17.4780250398948
30
0
41
1
10
18.6625171774441
20
17.4879845726369
30
0
41
1
10
18.6600583961902
20
17.5107285103164
30
0
41
1
10
18.6566363125558
20
17.5235704818909
30
0
41
1
10
18.6444694370884
20
17.5523155336272
30
0
41
1
10
18.6355769077244
20
17.5683604542559
30
0
41
1
10
18.6124010690232
20
17.6018371278468
30
0
41
1
10
18.5980603665947
20
17.6194454743536
30
0
41
1
10
18.5634564118438
20
17.6559428295307
30
0
41
1
10
18.5437962299939
20
17.6741930786206
30
0
41
1
10
18.5001667930998
20
17.7103577751294
30
0
41
1
10
18.4759662823374
20
17.7284105767113
30
0
41
1
10
18.4253616122449
20
17.762818645759
30
0
41
1
10
18.3988451506148
20
17.7793015335626
30
0
41
1
10
18.343829568804
20
17.8109887017638
30
0
41
1
10
18.3151807086723
20
17.8262651216531
30
0
41
1
10
18.2278537945612
20
17.8698604377634
30
0
41
1
10
18.1682793560094
20
17.8958197352233
30
0
41
1
10
18.0473858526016
20
17.9437363912621
30
0
41
1
10
17.9858644950229
20
17.965729731315
30
0
41
1
10
17.8624606252431
20
18.0066343333851
30
0
41
1
10
17.800978418431
20
18.0254207138675
30
0
41
1
10
17.617156593389
20
18.0783785245807
30
0
41
1
10
17.4954278406305
20
18.1092251395335
30
0
41
1
10
17.3143882553664
20
18.1520192583075
30
0
41
1
10
17.2543049814495
20
18.1656761357031
30
0
41
1
10
17.1347762751622
20
18.192075647221
30
0
41
1
10
17.075286955648
20
18.2048247454686
30
0
41
1
10
16.899744122703
20
18.2416714550808
30
0
41
1
10
16.7859220148085
20
18.2645331857815
30
0
41
1
10
16.6227957834142
20
18.2969380459729
30
0
41
1
10
16.5696103182588
20
18.3074360917843
30
0
41
1
10
16.467416620138
20
18.3276533699934
30
0
41
1
10
16.4188873256273
20
18.3372787083671
30
0
41
1
10
16.374437525061
20
18.3462111589217
30
0
0
SPLINE
5
118
100
AcDbEntity
8
1
62
256
6
ByLayer
370
-1
48
1
60
0
100
AcDbSpline
70
4
71
3
72
14
73
10
40
0
40
0
40
0
40
0
40
0.25
40
0.25
40
0.5
40
0.5
40
0.75
40
0.75
40
1
40
1
40
1
40
1
41
1
10
18.7487426298603
20
8.89235424981058
30
0
41
1
10
18.748693580446
20
8.88469829050763
30
0
41
1
10
18.7509639004238
20
8.87730368444267
30
0
41
1
10
18.7600096281164
20
8.8630038153257
30
0
41
1
10
18.7668437499334
20
8.85614437708909
30
0
41
1
10
18.7843657824627
20
8.84367575778847
30
0
41
1
10
18.7953130971726
20
8.83789652707279
30
0
41
1
10
18.8202007648583
20
8.82793274249147
30
0
41
1
10
18.8342592592865
20
8.82365820532542
30
0
41
1
10
18.8497208607199
20
8.82017210678268
30
0
0
SPLINE
5
119
100
AcDbEntity
8
1
62
256
6
ByLayer
370
-1
48
1
60
0
100
AcDbSpline
70
4
71
3
72
14
73
10
40
0
40
0
40
0
40
0
40
0.25
40
0.25
40
0.5
40
0.5
40
0.75
40
0.75
40
1
40
1
40
1
40
1
41
1
10
18.8497208607199
20
9.35327710965043
30
0
41
1
10
18.8342609671251
20
9.34800095364233
30
0
41
1
10
18.8203122424894
20
9.34164452813741
30
0
41
1
10
18.7953353024496
20
9.32690615667732
30
0
41
1
10
18.7844357511925
20
9.31853324604731
30
0
41
1
10
18.7668932671484
20
9.30074572208184
30
0
41
1
10
18.7600290223717
20
9.2910858817086
30
0
41
1
10
18.7509956876365
20
9.27151956597001
30
0
41
1
10
18.74869358616
20
9.26147572127223
30
0
41
1
10
18.7487426298603
20
9.25138811349035
30
0
0
SPLINE
5
11A
100
AcDbEntity
8
1
62
256
6
ByLayer
370
-1
48
1
60
0
100
AcDbSpline
70
4
71
3
72
26
73
22
40
0
40
0
40
0
40
0
40
0.0625000000000011
40
0.0625000000000011
40
0.125000000000002
40
0.125000000000002
40
0.250000000000002
40
0.250000000000002
40
0.375000000000003
40
0.375000000000003
40
0.500000000000003
40
0.500000000000003
40
0.562500000000002
40
0.562500000000002
40
0.625000000000002
40
0.625000000000002
40
0.750000000000002
40
0.750000000000002
40
0.875000000000001
40
0.875000000000001
40
1
40
1
40
1
40
1
41
1
10
5
20
-13.8473824241262
30
0
41
1
10
5
20
-13.9032842525246
30
0
41
1
10
4.9981399989276
20
-13.9595547783885
30
0
41
1
10
4.9906248098913
20
-14.0715637716123
30
0
41
1
10
4.98499582509686
20
-14.1271208747227
30
0
41
1
10
4.96249765701126
20
-14.2924507105104
30
0
41
1
10
4.94006109610831
20
-14.4008924495434
30
0
41
1
10
4.87934053913645
20
-14.613987279353
30
0
41
1
10
4.84101311712607
20
-14.718801617621
30
0
41
1
10
4.74613253032891
20
-14.9233723071532
30
0
41
1
10
4.69083984920252
20
-15.0204448881829
30
0
41
1
10
4.59503016718821
20
-15.1575096437551
30
0
41
1
10
4.56093548657066
20
-15.2017652397397
30
0
41
1
10
4.48803665693654
20
-15.2871500774151
30
0
41
1
10
4.44905427610581
20
-15.3284116265567
30
0
41
1
10
4.32705677106651
20
-15.4443715409857
30
0
41
1
10
4.23843991229518
20
-15.5122165414521
30
0
41
1
10
4.04454107271448
20
-15.6262627831459
30
0
41
1
10
3.93892052937329
20
-15.6719254499659
30
0
41
1
10
3.72343561443489
20
-15.7323883655624
30
0
41
1
10
3.61288399594889
20
-15.7480157480236
30
0
41
1
10
3.5
20
-15.7480157480236
30
0
0
SPLINE
5
11B
100
AcDbEntity
8
1
62
256
6
ByLayer
370
-1
48
1
60
0
100
AcDbSpline
70
4
71
3
72
32
73
28
40
0
40
0
40
0
40
0
40
0.124999999999999
40
0.124999999999999
40
0.187499999999998
40
0.187499999999998
40
0.249999999999997
40
0.249999999999997
40
0.312499999999996
40
0.312499999999996
40
0.374999999999996
40
0.374999999999996
40
0.437499999999995
40
0.437499999999995
40
0.499999999999994
40
0.499999999999994
40
0.624999999999995
40
0.624999999999995
40
0.687499999999995
40
0.687499999999995
40
0.749999999999996
40
0.749999999999996
40
0.874999999999997
40
0.874999999999997
40
0.937499999999998
40
0.937499999999998
40
1
40
1
40
1
40
1
41
1
10
3.49999999999997
20
15.7480157480236
30
0
41
1
10
3.61293525621977
20
15.7480157480236
30
0
41
1
10
3.72331398750197
20
15.7324104007101
30
0
41
1
10
3.88492156805307
20
15.687083054856
30
0
41
1
10
3.93841764228958
20
15.6681246908276
30
0
41
1
10
4.0413721196266
20
15.6239733487112
30
0
41
1
10
4.09113517551253
20
15.598735055383
30
0
41
1
10
4.18744612762697
20
15.5423265834943
30
0
41
1
10
4.23402538761854
20
15.5111300638392
30
0
41
1
10
4.32392593738535
20
15.4430686344263
30
0
41
1
10
4.36654807335407
20
15.4067428482178
30
0
41
1
10
4.44756089144926
20
15.3299199228525
30
0
41
1
10
4.48594953768091
20
15.2894207767175
30
0
41
1
10
4.55874391534195
20
15.2044961404479
30
0
41
1
10
4.59328702713901
20
15.1598610705762
30
0
41
1
10
4.68994434704524
20
15.0220011162306
30
0
41
1
10
4.74515116233329
20
14.9250892500231
30
0
41
1
10
4.81588420737927
20
14.7731732493552
30
0
41
1
10
4.83746660238876
20
14.721336236534
30
0
41
1
10
4.87653327389006
20
14.6159461091079
30
0
41
1
10
4.89388908963346
20
14.5627673959376
30
0
41
1
10
4.9398704018127
20
14.401879463605
30
0
41
1
10
4.9624522024497
20
14.292827877813
30
0
41
1
10
4.98504404692261
20
14.1267449055608
30
0
41
1
10
4.99069217199855
20
14.0707997795462
30
0
41
1
10
4.99816843012559
20
13.9588879454462
30
0
41
1
10
5
20
13.9030692652691
30
0
41
1
10
5
20
13.8473824241262
30
0
0
SPLINE
5
11C
100
AcDbEntity
8
1
62
256
6
ByLayer
370
-1
48
1
60
0
100
AcDbSpline
70
4
71
3
72
27
73
23
40
0
40
0
40
0
40
0
40
0.0312499999999989
40
0.0312499999999989
40
0.0624999999999979
40
0.124999999999998
40
0.124999999999998
40
0.249999999999997
40
0.249999999999997
40
0.374999999999997
40
0.374999999999997
40
0.499999999999997
40
0.499999999999997
40
0.624999999999996
40
0.624999999999996
40
0.687499999999997
40
0.687499999999997
40
0.749999999999997
40
0.749999999999997
40
0.874999999999998
40
0.874999999999998
40
1
40
1
40
1
40
1
41
1
10
4.99999999999997
20
12.5159897730863
30
0
41
1
10
4.99999999999994
20
12.5095897119106
30
0
41
1
10
5.00029067560442
20
12.5030591074598
30
0
41
1
10
5.00144969753404
20
12.4901444656849
30
0
41
1
10
5.00405189421781
20
12.4708301887934
30
0
41
1
10
5.00920617131604
20
12.4516864631591
30
0
41
1
10
5.02289731852676
20
12.4136264332048
30
0
41
1
10
5.03650210003048
20
12.3885536214182
30
0
41
1
10
5.07329393255014
20
12.3390688887478
30
0
41
1
10
5.09605675986035
20
12.3152671565115
30
0
41
1
10
5.1499926834066
20
12.2699735390015
30
0
41
1
10
5.1812053793733
20
12.2484131239845
30
0
41
1
10
5.25311197653087
20
12.2077595095619
30
0
41
1
10
5.29286258668822
20
12.1892397248783
30
0
41
1
10
5.35753101407198
20
12.1646516959556
30
0
41
1
10
5.37997221969036
20
12.1569691033599
30
0
41
1
10
5.42671869873422
20
12.1426906386362
30
0
41
1
10
5.45112560870217
20
12.1360705110589
30
0
41
1
10
5.52671500324993
20
12.1181499437267
30
0
41
1
10
5.57892458480796
20
12.1090562203113
30
0
41
1
10
5.68701331201754
20
12.0966627888161
30
0
41
1
10
5.74343899674352
20
12.0933866224478
30
0
41
1
10
5.79999999999996
20
12.0933866224478
30
0
0
LINE
5
46
100
AcDbEntity
8
2
62
256
6
ByLayer
370
-1
48
1
60
0
100
AcDbLine
10
59.882135
20
18.819532
30
0
11
60.718128
21
18.819532
31
0
39
0
210
0
220
0
230
1
0
LINE
5
48
100
AcDbEntity
8
2
62
256
6
ByLayer
370
-1
48
1
60
0
100
AcDbLine
10
60.300131
20
21.994532
30
0
11
60.300131
21
-24.071913
31
0
39
0
210
0
220
0
230
1
0
LINE
5
49
100
AcDbEntity
8
2
62
256
6
ByLayer
370
-1
48
1
60
0
100
AcDbLine
10
60.222786
20
20.819532
30
0
11
60.091133
21
18.819532
31
0
39
0
210
0
220
0
230
1
0
LINE
5
4A
100
AcDbEntity
8
2
62
256
6
ByLayer
370
-1
48
1
60
0
100
AcDbLine
10
60.300131
20
21.994532
30
0
11
59.882135
21
18.819532
31
0
39
0
210
0
220
0
230
1
0
LINE
5
4B
100
AcDbEntity
8
2
62
256
6
ByLayer
370
-1
48
1
60
0
100
AcDbLine
10
60.300131
20
21.994532
30
0
11
60.718128
21
18.819532
31
0
39
0
210
0
220
0
230
1
0
LINE
5
4C
100
AcDbEntity
8
2
62
256
6
ByLayer
370
-1
48
1
60
0
100
AcDbLine
10
60.377477
20
20.819532
30
0
11
60.50913
21
18.819532
31
0
39
0
210
0
220
0
230
1
0
LINE
5
4D
100
AcDbEntity
8
2
62
256
6
ByLayer
370
-1
48
1
60
0
100
AcDbLine
10
59.882135
20
18.819532
30
0
11
60.718128
21
18.819532
31
0
39
0
210
0
220
0
230
1
0
LINE
5
4E
100
AcDbEntity
8
2
62
256
6
ByLayer
370
-1
48
1
60
0
100
AcDbLine
10
60.222786
20
20.819532
30
0
11
60.091133
21
18.819532
31
0
39
0
210
0
220
0
230
1
0
LINE
5
4F
100
AcDbEntity
8
2
62
256
6
ByLayer
370
-1
48
1
60
0
100
AcDbLine
10
60.300131
20
21.994532
30
0
11
59.882135
21
18.819532
31
0
39
0
210
0
220
0
230
1
0
LINE
5
50
100
AcDbEntity
8
2
62
256
6
ByLayer
370
-1
48
1
60
0
100
AcDbLine
10
60.300131
20
21.994532
30
0
11
60.718128
21
18.819532
31
0
39
0
210
0
220
0
230
1
0
LINE
5
51
100
AcDbEntity
8
2
62
256
6
ByLayer
370
-1
48
1
60
0
100
AcDbLine
10
60.377477
20
20.819532
30
0
11
60.50913
21
18.819532
31
0
39
0
210
0
220
0
230
1
0
LINE
5
52
100
AcDbEntity
8
2
62
256
6
ByLayer
370
-1
48
1
60
0
100
AcDbLine
10
32.300131
20
21.994532
30
0
11
62.300131
21
21.994532
31
0
39
0
210
0
220
0
230
1
0
LINE
5
53
100
AcDbEntity
8
80
62
256
6
ByLayer
370
-1
48
1
60
0
100
AcDbLine
10
0
20
0
30
0
11
-2.5
21
0
31
0
39
0
210
0
220
0
230
1
0
LINE
5
54
100
AcDbEntity
8
81
62
256
6
ByLayer
370
-1
48
1
60
0
100
AcDbLine
10
30.300131
20
21.994532
30
0
11
37.733166
21
21.994532
31
0
39
0
210
0
220
0
230
1
0
LINE
5
55
100
AcDbEntity
8
SK1
62
256
6
ByLayer
370
-1
48
1
60
0
100
AcDbLine
10
-0.275
20
7.75
30
0
11
-1.114326
21
7.75
31
0
39
0
210
0
220
0
230
1
0
LINE
5
57
100
AcDbEntity
8
1
62
256
6
ByLayer
370
-1
48
1
60
0
100
AcDbLine
10
17.4
20
8.45
30
0
11
20
21
8.45
31
0
39
0
210
0
220
0
230
1
0
LINE
5
59
100
AcDbEntity
8
1
62
256
6
ByLayer
370
-1
48
1
60
0
100
AcDbLine
10
9.5
20
-19.5
30
0
11
12.2
21
-19.5
31
0
39
0
210
0
220
0
230
1
0
LINE
5
5A
100
AcDbEntity
8
1
62
256
6
ByLayer
370
-1
48
1
60
0
100
AcDbLine
10
24.949999
20
10.776846
30
0
11
25
21
11.075638
31
0
39
0
210
0
220
0
230
1
0
LINE
5
5B
100
AcDbEntity
8
1
62
256
6
ByLayer
370
-1
48
1
60
0
100
AcDbLine
10
25
20
14.924362
30
0
11
24.949999
21
15.223154
31
0
39
0
210
0
220
0
230
1
0
LINE
5
5C
100
AcDbEntity
8
1
62
256
6
ByLayer
370
-1
48
1
60
0
100
AcDbLine
10
9.468555
20
-18.097284
30
0
11
9.50175
21
-18.130403
31
0
39
0
210
0
220
0
230
1
0
LINE
5
5D
100
AcDbEntity
8
1
62
256
6
ByLayer
370
-1
48
1
60
0
100
AcDbLine
10
12.49825
20
-18.130403
30
0
11
12.531445
21
-18.097284
31
0
39
0
210
0
220
0
230
1
0
LINE
5
5E
100
AcDbEntity
8
1
62
256
6
ByLayer
370
-1
48
1
60
0
100
AcDbLine
10
0
20
-19.5
30
0
11
3.5
21
-19.5
31
0
39
0
210
0
220
0
230
1
0
LINE
5
5F
100
AcDbEntity
8
1
62
256
6
ByLayer
370
-1
48
1
60
0
100
AcDbLine
10
3.5
20
19.5
30
0
11
0
21
19.5
31
0
39
0
210
0
220
0
230
1
0
LINE
5
60
100
AcDbEntity
8
1
62
256
6
ByLayer
370
-1
48
1
60
0
100
AcDbLine
10
5.8
20
-14.5
30
0
11
7.2
21
-14.5
31
0
39
0
210
0
220
0
230
1
0
LINE
5
61
100
AcDbEntity
8
1
62
256
6
ByLayer
370
-1
48
1
60
0
100
AcDbLine
10
7.2
20
14.5
30
0
11
5.8
21
14.5
31
0
39
0
210
0
220
0
230
1
0
LINE
5
62
100
AcDbEntity
8
SK1
62
256
6
ByLayer
370
-1
48
1
60
0
100
AcDbLine
10
-37.6
20
7.4
30
0
11
-38
21
7
31
0
39
0
210
0
220
0
230
1
0
LINE
5
63
100
AcDbEntity
8
SK1
62
256
6
ByLayer
370
-1
48
1
60
0
100
AcDbLine
10
-38
20
-7
30
0
11
-37
21
-8
31
0
39
0
210
0
220
0
230
1
0
LINE
5
64
100
AcDbEntity
8
SK1
62
256
6
ByLayer
370
-1
48
1
60
0
100
AcDbLine
10
-2.1
20
8
30
0
11
-3.4
21
8
31
0
39
0
210
0
220
0
230
1
0
LINE
5
65
100
AcDbEntity
8
SK1
62
256
6
ByLayer
370
-1
48
1
60
0
100
AcDbLine
10
-37
20
-8
30
0
11
-2.1
21
-8
31
0
39
0
210
0
220
0
230
1
0
LINE
5
66
100
AcDbEntity
8
SK1
62
256
6
ByLayer
370
-1
48
1
60
0
100
AcDbLine
10
-2.1
20
-8
30
0
11
-1.217854
21
-7.76363
31
0
39
0
210
0
220
0
230
1
0
LINE
5
67
100
AcDbEntity
8
SK1
62
256
6
ByLayer
370
-1
48
1
60
0
100
AcDbLine
10
-2.1
20
-8
30
0
11
-2.1
21
8
31
0
39
0
210
0
220
0
230
1
0
LINE
5
68
100
AcDbEntity
8
SK1
62
256
6
ByLayer
370
-1
48
1
60
0
100
AcDbLine
10
-1.217854
20
7.76363
30
0
11
-2.1
21
8
31
0
39
0
210
0
220
0
230
1
0
LINE
5
69
100
AcDbEntity
8
1
62
256
6
ByLayer
370
-1
48
1
60
0
100
AcDbLine
10
18.776534
20
19.5
30
0
11
9.5
21
19.5
31
0
39
0
210
0
220
0
230
1
0
LINE
5
6A
100
AcDbEntity
8
SK1
62
256
6
ByLayer
370
-1
48
1
60
0
100
AcDbLine
10
-1.114326
20
-7.75
30
0
11
-0.275
21
-7.75
31
0
39
0
210
0
220
0
230
1
0
LINE
5
6B
100
AcDbEntity
8
1
62
256
6
ByLayer
370
-1
48
1
60
0
100
AcDbLine
10
24.95
20
20.109879
30
0
11
26.676533
21
20.049587
31
0
39
0
210
0
220
0
230
1
0
LINE
5
6C
100
AcDbEntity
8
1
62
256
6
ByLayer
370
-1
48
1
60
0
100
AcDbLine
10
20.1
20
9.936586
30
0
11
20.1
21
16.057057
31
0
39
0
210
0
220
0
230
1
0
LINE
5
6D
100
AcDbEntity
8
1
62
256
6
ByLayer
370
-1
48
1
60
0
100
AcDbLine
10
30.3
20
21.801135
30
0
11
30.3
21
20.129024
31
0
39
0
210
0
220
0
230
1
0
LINE
5
6E
100
AcDbEntity
8
1
62
256
6
ByLayer
370
-1
48
1
60
0
100
AcDbLine
10
24.95
20
16.552632
30
0
11
20.000077
21
16.552632
31
0
39
0
210
0
220
0
230
1
0
LINE
5
6F
100
AcDbEntity
8
1
62
256
6
ByLayer
370
-1
48
1
60
0
100
AcDbLine
10
24.95
20
16.971122
30
0
11
24.95
21
16.552632
31
0
39
0
210
0
220
0
230
1
0
LINE
5
70
100
AcDbEntity
8
1
62
256
6
ByLayer
370
-1
48
1
60
0
100
AcDbLine
10
24.95
20
18.677866
30
0
11
24.95
21
20.109879
31
0
39
0
210
0
220
0
230
1
0
LINE
5
71
100
AcDbEntity
8
1
62
256
6
ByLayer
370
-1
48
1
60
0
100
AcDbLine
10
20.1
20
17.939393
30
0
11
20.1
21
17.97209
31
0
39
0
210
0
220
0
230
1
0
LINE
5
72
100
AcDbEntity
8
1
62
256
6
ByLayer
370
-1
48
1
60
0
100
AcDbLine
10
20.1
20
18.677866
30
0
11
24.95
21
18.677866
31
0
39
0
210
0
220
0
230
1
0
LINE
5
73
100
AcDbEntity
8
1
62
256
6
ByLayer
370
-1
48
1
60
0
100
AcDbLine
10
19.15
20
17.124834
30
0
11
19.15
21
17.40358
31
0
39
0
210
0
220
0
230
1
0
LINE
5
74
100
AcDbEntity
8
1
62
256
6
ByLayer
370
-1
48
1
60
0
100
AcDbLine
10
20.1
20
8.5
30
0
11
20.1
21
8.611698
31
0
39
0
210
0
220
0
230
1
0
LINE
5
75
100
AcDbEntity
8
1
62
256
6
ByLayer
370
-1
48
1
60
0
100
AcDbLine
10
20.1
20
18.677866
30
0
11
20.1
21
21.650914
31
0
39
0
210
0
220
0
230
1
0
LINE
5
76
100
AcDbEntity
8
1
62
256
6
ByLayer
370
-1
48
1
60
0
100
AcDbLine
10
19.15
20
9.433228
30
0
11
19.15
21
9.458652
31
0
39
0
210
0
220
0
230
1
0
LINE
5
77
100
AcDbEntity
8
1
62
256
6
ByLayer
370
-1
48
1
60
0
100
AcDbLine
10
19.472444
20
16.971122
30
0
11
24.95
21
16.971122
31
0
39
0
210
0
220
0
230
1
0
LINE
5
78
100
AcDbEntity
8
1
62
256
6
ByLayer
370
-1
48
1
60
0
100
AcDbLine
10
24.95
20
8.5
30
0
11
24.95
21
16.552632
31
0
39
0
210
0
220
0
230
1
0
LINE
5
79
100
AcDbEntity
8
1
62
256
6
ByLayer
370
-1
48
1
60
0
100
AcDbLine
10
24.95
20
18.677866
30
0
11
24.95
21
17.97209
31
0
39
0
210
0
220
0
230
1
0
LINE
5
7A
100
AcDbEntity
8
1
62
256
6
ByLayer
370
-1
48
1
60
0
100
AcDbLine
10
24.95
20
17.97209
30
0
11
20.1
21
17.97209
31
0
39
0
210
0
220
0
230
1
0
LINE
5
7B
100
AcDbEntity
8
1
62
256
6
ByLayer
370
-1
48
1
60
0
100
AcDbLine
10
20.1
20
21.650914
30
0
11
26.676533
21
21.880572
31
0
39
0
210
0
220
0
230
1
0
LINE
5
7C
100
AcDbEntity
8
1
62
256
6
ByLayer
370
-1
48
1
60
0
100
AcDbLine
10
19.15
20
9.433228
30
0
11
19.15
21
8.83535
31
0
39
0
210
0
220
0
230
1
0
LINE
5
7D
100
AcDbEntity
8
1
62
256
6
ByLayer
370
-1
48
1
60
0
100
AcDbLine
10
24.95
20
16.971122
30
0
11
24.95
21
17.97209
31
0
39
0
210
0
220
0
230
1
0
LINE
5
7E
100
AcDbEntity
8
1
62
256
6
ByLayer
370
-1
48
1
60
0
100
AcDbLine
10
20.1
20
17.97209
30
0
11
20.1
21
18.677866
31
0
39
0
210
0
220
0
230
1
0
LINE
5
7F
100
AcDbEntity
8
1
62
256
6
ByLayer
370
-1
48
1
60
0
100
AcDbLine
10
24.95
20
8.5
30
0
11
20.1
21
8.5
31
0
39
0
210
0
220
0
230
1
0
LINE
5
80
100
AcDbEntity
8
1
62
256
6
ByLayer
370
-1
48
1
60
0
100
AcDbLine
10
26.676533
20
21.880572
30
0
11
26.676533
21
20.049587
31
0
39
0
210
0
220
0
230
1
0
LINE
5
81
100
AcDbEntity
8
1
62
256
6
ByLayer
370
-1
48
1
60
0
100
AcDbLine
10
15.632005
20
0
30
0
11
16.594214
21
0
31
0
39
0
210
0
220
0
230
1
0
LINE
5
82
100
AcDbEntity
8
1
62
256
6
ByLayer
370
-1
48
1
60
0
100
AcDbLine
10
25
20
11.075638
30
0
11
25
21
14.924362
31
0
39
0
210
0
220
0
230
1
0
LINE
5
83
100
AcDbEntity
8
1
62
256
6
ByLayer
370
-1
48
1
60
0
100
AcDbLine
10
11.972903
20
-18.099646
30
0
11
11.972903
21
-18.156908
31
0
39
0
210
0
220
0
230
1
0
LINE
5
84
100
AcDbEntity
8
1
62
256
6
ByLayer
370
-1
48
1
60
0
100
AcDbLine
10
10.947847
20
-18.073856
30
0
11
10.947847
21
-18.18255
31
0
39
0
210
0
220
0
230
1
0
LINE
5
85
100
AcDbEntity
8
1
62
256
6
ByLayer
370
-1
48
1
60
0
100
AcDbLine
10
3.5
20
-15.748016
30
0
11
3.5
21
-19.5
31
0
39
0
210
0
220
0
230
1
0
LINE
5
86
100
AcDbEntity
8
1
62
256
6
ByLayer
370
-1
48
1
60
0
100
AcDbLine
10
5
20
-13.847382
30
0
11
5
21
-18
31
0
39
0
210
0
220
0
230
1
0
LINE
5
87
100
AcDbEntity
8
1
62
256
6
ByLayer
370
-1
48
1
60
0
100
AcDbLine
10
0
20
-15.748016
30
0
11
0
21
-19.5
31
0
39
0
210
0
220
0
230
1
0
LINE
5
88
100
AcDbEntity
8
1
62
256
6
ByLayer
370
-1
48
1
60
0
100
AcDbLine
10
3.5
20
19.5
30
0
11
3.5
21
15.748016
31
0
39
0
210
0
220
0
230
1
0
LINE
5
89
100
AcDbEntity
8
1
62
256
6
ByLayer
370
-1
48
1
60
0
100
AcDbLine
10
5
20
18
30
0
11
5
21
13.847382
31
0
39
0
210
0
220
0
230
1
0
LINE
5
8A
100
AcDbEntity
8
1
62
256
6
ByLayer
370
-1
48
1
60
0
100
AcDbLine
10
0
20
19.5
30
0
11
0
21
15.748016
31
0
39
0
210
0
220
0
230
1
0
LINE
5
8B
100
AcDbEntity
8
1
62
256
6
ByLayer
370
-1
48
1
60
0
100
AcDbLine
10
5.8
20
14.5
30
0
11
5.8
21
12.093387
31
0
39
0
210
0
220
0
230
1
0
LINE
5
8C
100
AcDbEntity
8
1
62
256
6
ByLayer
370
-1
48
1
60
0
100
AcDbLine
10
5.8
20
-14.5
30
0
11
5.8
21
-12.093387
31
0
39
0
210
0
220
0
230
1
0
LINE
5
8D
100
AcDbEntity
8
SK1
62
256
6
ByLayer
370
-1
48
1
60
0
100
AcDbLine
10
-0.275
20
-7.75
30
0
11
-0.275
21
7.75
31
0
39
0
210
0
220
0
230
1
0
LINE
5
8E
100
AcDbEntity
8
1
62
256
6
ByLayer
370
-1
48
1
60
0
100
AcDbLine
10
7.2
20
-14.5
30
0
11
7.2
21
-12.093387
31
0
39
0
210
0
220
0
230
1
0
LINE
5
8F
100
AcDbEntity
8
1
62
256
6
ByLayer
370
-1
48
1
60
0
100
AcDbLine
10
7.2
20
12.093387
30
0
11
7.2
21
14.5
31
0
39
0
210
0
220
0
230
1
0
LINE
5
90
100
AcDbEntity
8
SK1
62
256
6
ByLayer
370
-1
48
1
60
0
100
AcDbLine
10
-38
20
7
30
0
11
-38
21
-7
31
0
39
0
210
0
220
0
230
1
0
LINE
5
91
100
AcDbEntity
8
SK1
62
256
6
ByLayer
370
-1
48
1
60
0
100
AcDbLine
10
-37
20
-8
30
0
11
-37
21
7.4
31
0
39
0
210
0
220
0
230
1
0
LINE
5
92
100
AcDbEntity
8
SK1
62
256
6
ByLayer
370
-1
48
1
60
0
100
AcDbLine
10
-4
20
7.4
30
0
11
-3.4
21
8
31
0
39
0
210
0
220
0
230
1
0
LINE
5
93
100
AcDbEntity
8
SK1
62
256
6
ByLayer
370
-1
48
1
60
0
100
AcDbLine
10
-1.217854
20
-7.76363
30
0
11
-1.217854
21
7.76363
31
0
39
0
210
0
220
0
230
1
0
LINE
5
94
100
AcDbEntity
8
1
62
256
6
ByLayer
370
-1
48
1
60
0
100
AcDbLine
10
9.5
20
19.5
30
0
11
9.5
21
17.783419
31
0
39
0
210
0
220
0
230
1
0
LINE
5
95
100
AcDbEntity
8
1
62
256
6
ByLayer
370
-1
48
1
60
0
100
AcDbLine
10
8
20
16.124515
30
0
11
8
21
18
31
0
39
0
210
0
220
0
230
1
0
LINE
5
96
100
AcDbEntity
8
1
62
256
6
ByLayer
370
-1
48
1
60
0
100
AcDbLine
10
9.5
20
-19.5
30
0
11
9.5
21
-19.447252
31
0
39
0
210
0
220
0
230
1
0
LINE
5
97
100
AcDbEntity
8
1
62
256
6
ByLayer
370
-1
48
1
60
0
100
AcDbLine
10
8
20
-18
30
0
11
8
21
-16.124515
31
0
39
0
210
0
220
0
230
1
0
LINE
5
98
100
AcDbEntity
8
SK1
62
256
6
ByLayer
370
-1
48
1
60
0
100
AcDbLine
10
-1.114326
20
-7.75
30
0
11
-1.114326
21
7.75
31
0
39
0
210
0
220
0
230
1
0
LINE
5
99
100
AcDbEntity
8
1
62
256
6
ByLayer
370
-1
48
1
60
0
100
AcDbLine
10
17.4
20
13
30
0
11
17.4
21
8.45
31
0
39
0
210
0
220
0
230
1
0
LINE
5
9A
100
AcDbEntity
8
1
62
256
6
ByLayer
370
-1
48
1
60
0
100
AcDbLine
10
20
20
8.45
30
0
11
20
21
8.602803
31
0
39
0
210
0
220
0
230
1
0
LINE
5
9B
100
AcDbEntity
8
1
62
256
6
ByLayer
370
-1
48
1
60
0
100
AcDbLine
10
20
20
19.005688
30
0
11
20
21
17.820038
31
0
39
0
210
0
220
0
230
1
0
LINE
5
9C
100
AcDbEntity
8
1
62
256
6
ByLayer
370
-1
48
1
60
0
100
AcDbLine
10
12.2
20
-19.5
30
0
11
12.262862
21
-19.447252
31
0
39
0
210
0
220
0
230
1
0
LINE
5
9D
100
AcDbEntity
8
1
62
256
6
ByLayer
370
-1
48
1
60
0
100
AcDbLine
10
18.853223
20
17.266679
30
0
11
18.865807
21
17.578759
31
0
39
0
210
0
220
0
230
1
0
LINE
5
9E
100
AcDbEntity
8
1
62
256
6
ByLayer
370
-1
48
1
60
0
100
AcDbLine
10
18.828639
20
9.343003
30
0
11
18.849721
21
8.820172
31
0
39
0
210
0
220
0
230
1
0
LINE
5
9F
100
AcDbEntity
8
1
62
256
6
ByLayer
370
-1
48
1
60
0
100
AcDbLine
10
20
20
8.654331
30
0
11
20
21
8.602803
31
0
39
0
210
0
220
0
230
1
0
LINE
5
A0
100
AcDbEntity
8
1
62
256
6
ByLayer
370
-1
48
1
60
0
100
AcDbLine
10
14.245741
20
-17.783419
30
0
11
14.003683
21
-17.98653
31
0
39
0
210
0
220
0
230
1
0
LINE
5
A1
100
AcDbEntity
8
1
62
256
6
ByLayer
370
-1
48
1
60
0
100
AcDbLine
10
14.003683
20
-17.98653
30
0
11
9.5
21
-17.98653
31
0
39
0
210
0
220
0
230
1
0
LINE
5
A2
100
AcDbEntity
8
1
62
256
6
ByLayer
370
-1
48
1
60
0
100
AcDbLine
10
14.003683
20
-17.98653
30
0
11
13.715667
21
-18.228204
31
0
39
0
210
0
220
0
230
1
0
LINE
5
A3
100
AcDbEntity
8
1
62
256
6
ByLayer
370
-1
48
1
60
0
100
AcDbLine
10
8.055051
20
-18.228204
30
0
11
13.715667
21
-18.228204
31
0
39
0
210
0
220
0
230
1
0
LINE
5
A4
100
AcDbEntity
8
1
62
256
6
ByLayer
370
-1
48
1
60
0
100
AcDbLine
10
9.5
20
-19.447252
30
0
11
12.262862
21
-19.447252
31
0
39
0
210
0
220
0
230
1
0
LINE
5
A5
100
AcDbEntity
8
1
62
256
6
ByLayer
370
-1
48
1
60
0
100
AcDbLine
10
13.715667
20
-18.228204
30
0
11
13.674793
21
-18.262502
31
0
39
0
210
0
220
0
230
1
0
LINE
5
A6
100
AcDbEntity
8
1
62
256
6
ByLayer
370
-1
48
1
60
0
100
AcDbLine
10
8.115601
20
-18.476614
30
0
11
13.419624
21
-18.476614
31
0
39
0
210
0
220
0
230
1
0
LINE
5
A7
100
AcDbEntity
8
1
62
256
6
ByLayer
370
-1
48
1
60
0
100
AcDbLine
10
13.674793
20
-18.262502
30
0
11
8.054176
21
-18.262502
31
0
39
0
210
0
220
0
230
1
0
LINE
5
A8
100
AcDbEntity
8
1
62
256
6
ByLayer
370
-1
48
1
60
0
100
AcDbLine
10
15.239293
20
-16.94973
30
0
11
17
21
-15.472322
31
0
39
0
210
0
220
0
230
1
0
LINE
5
A9
100
AcDbEntity
8
1
62
256
6
ByLayer
370
-1
48
1
60
0
100
AcDbLine
10
17
20
17.616936
30
0
11
17
21
-15.472322
31
0
39
0
210
0
220
0
230
1
0
LINE
5
AA
100
AcDbEntity
8
1
62
256
6
ByLayer
370
-1
48
1
60
0
100
AcDbLine
10
5.8
20
12.093387
30
0
11
7.2
21
12.093387
31
0
39
0
210
0
220
0
230
1
0
LINE
5
AB
100
AcDbEntity
8
1
62
256
6
ByLayer
370
-1
48
1
60
0
100
AcDbLine
10
7.2
20
-12.093387
30
0
11
5.8
21
-12.093387
31
0
39
0
210
0
220
0
230
1
0
LINE
5
AC
100
AcDbEntity
8
1
62
256
6
ByLayer
370
-1
48
1
60
0
100
AcDbLine
10
5.8
20
-12.093387
30
0
11
5.8
21
12.093387
31
0
39
0
210
0
220
0
230
1
0
LINE
5
AD
100
AcDbEntity
8
1
62
256
6
ByLayer
370
-1
48
1
60
0
100
AcDbLine
10
8
20
-13.041856
30
0
11
8
21
-16.124515
31
0
39
0
210
0
220
0
230
1
0
LINE
5
AE
100
AcDbEntity
8
1
62
256
6
ByLayer
370
-1
48
1
60
0
100
AcDbLine
10
14.245741
20
-17.783419
30
0
11
9.5
21
-17.783419
31
0
39
0
210
0
220
0
230
1
0
LINE
5
AF
100
AcDbEntity
8
1
62
256
6
ByLayer
370
-1
48
1
60
0
100
AcDbLine
10
8
20
16.124515
30
0
11
8
21
13.041856
31
0
39
0
210
0
220
0
230
1
0
LINE
5
B0
100
AcDbEntity
8
1
62
256
6
ByLayer
370
-1
48
1
60
0
100
AcDbLine
10
14.245741
20
-17.783419
30
0
11
15.239293
21
-16.94973
31
0
39
0
210
0
220
0
230
1
0
LINE
5
B1
100
AcDbEntity
8
1
62
256
6
ByLayer
370
-1
48
1
60
0
100
AcDbLine
10
9.5
20
17.783419
30
0
11
14.77973
21
17.783419
31
0
39
0
210
0
220
0
230
1
0
LINE
5
B2
100
AcDbEntity
8
1
62
256
6
ByLayer
370
-1
48
1
60
0
100
AcDbLine
10
15.239293
20
-16.94973
30
0
11
15.239293
21
17.597744
31
0
39
0
210
0
220
0
230
1
0
LINE
5
B3
100
AcDbEntity
8
1
62
256
6
ByLayer
370
-1
48
1
60
0
100
AcDbLine
10
20
20
19.5
30
0
11
18.776534
21
19.5
31
0
39
0
210
0
220
0
230
1
0
LINE
5
B4
100
AcDbEntity
8
1
62
256
6
ByLayer
370
-1
48
1
60
0
100
AcDbLine
10
18.769088
20
17.37871
30
0
11
18.772103
21
17.327931
31
0
39
0
210
0
220
0
230
1
0
LINE
5
B5
100
AcDbEntity
8
1
62
256
6
ByLayer
370
-1
48
1
60
0
100
AcDbLine
10
18.8743
20
17.256282
30
0
11
20
21
16.719548
31
0
39
0
210
0
220
0
230
1
0
LINE
5
B6
100
AcDbEntity
8
1
62
256
6
ByLayer
370
-1
48
1
60
0
100
AcDbLine
10
20
20
16.719548
30
0
11
20
21
16.543641
31
0
39
0
210
0
220
0
230
1
0
LINE
5
B7
100
AcDbEntity
8
1
62
256
6
ByLayer
370
-1
48
1
60
0
100
AcDbLine
10
17
20
17.760468
30
0
11
17
21
17.616936
31
0
39
0
210
0
220
0
230
1
0
LINE
5
B8
100
AcDbEntity
8
1
62
256
6
ByLayer
370
-1
48
1
60
0
100
AcDbLine
10
17
20
17.616936
30
0
11
15.239293
21
17.597744
31
0
39
0
210
0
220
0
230
1
0
LINE
5
B9
100
AcDbEntity
8
1
62
256
6
ByLayer
370
-1
48
1
60
0
100
AcDbLine
10
18.776534
20
19.5
30
0
11
20
21
19.005688
31
0
39
0
210
0
220
0
230
1
0
LINE
5
BA
100
AcDbEntity
8
1
62
256
6
ByLayer
370
-1
48
1
60
0
100
AcDbLine
10
13.692369
20
19.429837
30
0
11
16.374438
21
18.346211
31
0
39
0
210
0
220
0
230
1
0
LINE
5
BB
100
AcDbEntity
8
1
62
256
6
ByLayer
370
-1
48
1
60
0
100
AcDbLine
10
18.621122
20
17.438492
30
0
11
18.769088
21
17.37871
31
0
39
0
210
0
220
0
230
1
0
LINE
5
BC
100
AcDbEntity
8
1
62
256
6
ByLayer
370
-1
48
1
60
0
100
AcDbLine
10
14.77973
20
17.783419
30
0
11
15.239293
21
17.597744
31
0
39
0
210
0
220
0
230
1
0
LINE
5
BD
100
AcDbEntity
8
1
62
256
6
ByLayer
370
-1
48
1
60
0
100
AcDbLine
10
20
20
16.543641
30
0
11
20
21
15.5
31
0
39
0
210
0
220
0
230
1
0
LINE
5
BE
100
AcDbEntity
8
1
62
256
6
ByLayer
370
-1
48
1
60
0
100
AcDbLine
10
17.4
20
15.5
30
0
11
17.4
21
13
31
0
39
0
210
0
220
0
230
1
0
LINE
5
BF
100
AcDbEntity
8
1
62
256
6
ByLayer
370
-1
48
1
60
0
100
AcDbLine
10
17.4
20
17.676455
30
0
11
17.4
21
15.5
31
0
39
0
210
0
220
0
230
1
0
LINE
5
C0
100
AcDbEntity
8
1
62
256
6
ByLayer
370
-1
48
1
60
0
100
AcDbLine
10
9.5
20
-17.783419
30
0
11
9.5
21
-17.98653
31
0
39
0
210
0
220
0
230
1
0
LINE
5
C1
100
AcDbEntity
8
SK1
62
256
6
ByLayer
370
-1
48
1
60
0
100
AcDbLine
10
-4
20
7.4
30
0
11
-37
21
7.4
31
0
39
0
210
0
220
0
230
1
0
LINE
5
C2
100
AcDbEntity
8
1
62
256
6
ByLayer
370
-1
48
1
60
0
100
AcDbLine
10
0
20
-15.748016
30
0
11
3.5
21
-15.748016
31
0
39
0
210
0
220
0
230
1
0
LINE
5
C3
100
AcDbEntity
8
1
62
256
6
ByLayer
370
-1
48
1
60
0
100
AcDbLine
10
0
20
-15.748016
30
0
11
0
21
15.748016
31
0
39
0
210
0
220
0
230
1
0
LINE
5
C4
100
AcDbEntity
8
1
62
256
6
ByLayer
370
-1
48
1
60
0
100
AcDbLine
10
5
20
13.847382
30
0
11
5
21
-13.847382
31
0
39
0
210
0
220
0
230
1
0
LINE
5
C5
100
AcDbEntity
8
1
62
256
6
ByLayer
370
-1
48
1
60
0
100
AcDbLine
10
3.5
20
15.748016
30
0
11
0
21
15.748016
31
0
39
0
210
0
220
0
230
1
0
LINE
5
C6
100
AcDbEntity
8
1
62
256
6
ByLayer
370
-1
48
1
60
0
100
AcDbLine
10
17.4
20
15.5
30
0
11
20
21
15.5
31
0
39
0
210
0
220
0
230
1
0
LINE
5
C7
100
AcDbEntity
8
1
62
256
6
ByLayer
370
-1
48
1
60
0
100
AcDbLine
10
17.4
20
13
30
0
11
20
21
13
31
0
39
0
210
0
220
0
230
1
0
LINE
5
C8
100
AcDbEntity
8
1
62
256
6
ByLayer
370
-1
48
1
60
0
100
AcDbLine
10
17
20
13
30
0
11
17.4
21
13
31
0
39
0
210
0
220
0
230
1
0
LINE
5
C9
100
AcDbEntity
8
1
62
256
6
ByLayer
370
-1
48
1
60
0
100
AcDbLine
10
17
20
15.5
30
0
11
17.4
21
15.5
31
0
39
0
210
0
220
0
230
1
0
LINE
5
CA
100
AcDbEntity
8
1
62
256
6
ByLayer
370
-1
48
1
60
0
100
AcDbLine
10
20
20
13
30
0
11
20
21
9.788795
31
0
39
0
210
0
220
0
230
1
0
LINE
5
CB
100
AcDbEntity
8
1
62
256
6
ByLayer
370
-1
48
1
60
0
100
AcDbLine
10
20
20
15.5
30
0
11
20
21
13
31
0
39
0
210
0
220
0
230
1
0
LINE
5
CC
100
AcDbEntity
8
1
62
256
6
ByLayer
370
-1
48
1
60
0
100
AcDbLine
10
10.947847
20
-18.18255
30
0
11
9.974944
21
-18.152551
31
0
39
0
210
0
220
0
230
1
0
LINE
5
CD
100
AcDbEntity
8
1
62
256
6
ByLayer
370
-1
48
1
60
0
100
AcDbLine
10
11.972903
20
-18.156908
30
0
11
10.947847
21
-18.18255
31
0
39
0
210
0
220
0
230
1
0
LINE
5
CE
100
AcDbEntity
8
1
62
256
6
ByLayer
370
-1
48
1
60
0
100
AcDbLine
10
12.025056
20
-18.101267
30
0
11
11.972903
21
-18.156908
31
0
39
0
210
0
220
0
230
1
0
LINE
5
CF
100
AcDbEntity
8
1
62
256
6
ByLayer
370
-1
48
1
60
0
100
AcDbLine
10
11.052153
20
-18.071267
30
0
11
12.025056
21
-18.101267
31
0
39
0
210
0
220
0
230
1
0
LINE
5
D0
100
AcDbEntity
8
1
62
256
6
ByLayer
370
-1
48
1
60
0
100
AcDbLine
10
10.027097
20
-18.096909
30
0
11
11.052153
21
-18.071267
31
0
39
0
210
0
220
0
230
1
0
LINE
5
D1
100
AcDbEntity
8
1
62
256
6
ByLayer
370
-1
48
1
60
0
100
AcDbLine
10
9.974944
20
-18.152551
30
0
11
10.027097
21
-18.096909
31
0
39
0
210
0
220
0
230
1
0
LINE
5
D2
100
AcDbEntity
8
1
62
256
6
ByLayer
370
-1
48
1
60
0
100
AcDbLine
10
15.872547
20
-1
30
0
11
15.631992
21
0
31
0
39
0
210
0
220
0
230
1
0
LINE
5
D3
100
AcDbEntity
8
1
62
256
6
ByLayer
370
-1
48
1
60
0
100
AcDbLine
10
16.353659
20
-1
30
0
11
15.872547
21
-1
31
0
39
0
210
0
220
0
230
1
0
LINE
5
D4
100
AcDbEntity
8
1
62
256
6
ByLayer
370
-1
48
1
60
0
100
AcDbLine
10
16.594214
20
0
30
0
11
16.353659
21
-1
31
0
39
0
210
0
220
0
230
1
0
LINE
5
D5
100
AcDbEntity
8
1
62
256
6
ByLayer
370
-1
48
1
60
0
100
AcDbLine
10
16.353659
20
1
30
0
11
16.594214
21
0
31
0
39
0
210
0
220
0
230
1
0
LINE
5
D6
100
AcDbEntity
8
1
62
256
6
ByLayer
370
-1
48
1
60
0
100
AcDbLine
10
15.872547
20
1
30
0
11
16.353659
21
1
31
0
39
0
210
0
220
0
230
1
0
LINE
5
D7
100
AcDbEntity
8
1
62
256
6
ByLayer
370
-1
48
1
60
0
100
AcDbLine
10
15.631992
20
0
30
0
11
15.872547
21
1
31
0
39
0
210
0
220
0
230
1
0
LINE
5
D8
100
AcDbEntity
8
1
62
256
6
ByLayer
370
-1
48
1
60
0
100
AcDbLine
10
13.419624
20
-18.476614
30
0
11
12.262862
21
-19.447252
31
0
39
0
210
0
220
0
230
1
0
LINE
5
D9
100
AcDbEntity
8
1
62
256
6
ByLayer
370
-1
48
1
60
0
100
AcDbLine
10
13.419624
20
-18.476614
30
0
11
13.674793
21
-18.262502
31
0
39
0
210
0
220
0
230
1
0
LINE
5
DA
100
AcDbEntity
8
1
62
256
6
ByLayer
370
-1
48
1
60
0
100
AcDbLine
10
20
20
19.5
30
0
11
20
21
19.005688
31
0
39
0
210
0
220
0
230
1
0
LINE
5
DB
100
AcDbEntity
8
1
62
256
6
ByLayer
370
-1
48
1
60
0
100
AcDbLine
10
16.18307
20
18.371237
30
0
11
16.332329
21
18.196846
31
0
39
0
210
0
220
0
230
1
0
LINE
5
DC
100
AcDbEntity
8
4
62
256
6
ByLayer
370
-1
48
0.05
60
0
100
AcDbLine
10
0
20
1.9E-05
30
0
11
30.300131
21
1.9E-05
31
0
39
0
210
0
220
0
230
1
0
LINE
5
DE
100
AcDbEntity
8
SK4
62
256
6
ByLayer
370
-1
48
0.05
60
0
100
AcDbLine
10
-39.999869
20
1.9E-05
30
0
11
30.500131
21
1.9E-05
31
0
39
0
210
0
220
0
230
1
0
MTEXT
5
11D
100
AcDbEntity
8
2
62
256
6
ByLayer
370
-1
48
1
60
0
100
AcDbMText
10
59.432948
20
-21.320346
30
0
210
0
220
0
230
1
1
\W00.782;\fsimplex.shx,bigfont.shx;DC = 44.0 - 50.0\P
40
3
41
0
44
1.084337
50
89.9999999999992
71
7
72
5
7
DEFAULT
0
MTEXT
5
120
100
AcDbEntity
8
SK6
62
256
6
ByLayer
370
-1
48
1
60
0
100
AcDbMText
10
30.603518
20
30.143809
30
0
210
0
220
0
230
1
1
\W00.771;\fsimplex.shx,bigfont.shx;R429U-A16-44020MB09\P
40
3
41
0
44
1.084337
50
0
71
7
72
5
7
DEFAULT
0
DIMENSION
5
12C
100
AcDbEntity
8
SK2
62
256
6
ByLayer
370
-3
48
1
60
0
100
AcDbDimension
2
DimnDraft3D1
10
-38
20
43.250019
30
0
11
-13.015789
21
43.250019
31
0
70
32
71
5
72
1
41
1
210
0
220
0
230
1
3
Standard
100
AcDbAlignedDimension
13
20
23
21.5
33
0
14
-38
24
9
34
0
50
0
100
AcDbRotatedDimension
1001
ACAD
1000
DSTYLE
1002
{
1070
   279
1070
     0
1070
   172
1070
     1
1070
   173
1070
     1
1070
   340
1005
11E
1070
   271
1070
     1
1070
    77
1070
     1
1070
    73
1070
     0
1070
   171
1070
     4
1070
   274
1070
     4
1070
   177
1070
     7
1070
   176
1070
     7
1070
   178
1070
     7
1070
    41
1041
3.175
1070
   147
1041
1.75
1070
    42
1041
2.0
1070
    44
1041
2.0
1070
   140
1041
3.5
1070
   343
1005
0
1070
   344
1005
0
1002
}
0
DIMENSION
5
136
100
AcDbEntity
8
2
62
256
6
ByLayer
370
-3
48
1
60
0
100
AcDbDimension
2
DimnDraft3D2
10
0
20
28.250019
30
0
11
5.984211
21
28.250019
31
0
70
32
71
5
72
1
41
1
210
0
220
0
230
1
3
Standard
100
AcDbAlignedDimension
13
20
23
21.5
33
0
14
0
24
21.5
34
0
50
0
100
AcDbRotatedDimension
1001
ACAD
1000
DSTYLE
1002
{
1070
   279
1070
     0
1070
   172
1070
     1
1070
   173
1070
     1
1070
   340
1005
11E
1070
   271
1070
     1
1070
    77
1070
     1
1070
    73
1070
     0
1070
   171
1070
     4
1070
   274
1070
     4
1070
   177
1070
     7
1070
   176
1070
     7
1070
   178
1070
     7
1070
    41
1041
3.175
1070
   147
1041
1.75
1070
    42
1041
2.0
1070
    44
1041
2.0
1070
   140
1041
3.5
1070
   343
1005
0
1070
   344
1005
0
1002
}
0
DIMENSION
5
140
100
AcDbEntity
8
SK2
62
256
6
ByLayer
370
-3
48
1
60
0
100
AcDbDimension
2
DimnDraft3D3
10
-45.291869
20
8
30
0
11
-45.291869
21
-27.247368
31
0
70
32
71
5
72
1
41
1
210
0
220
0
230
1
3
Standard
100
AcDbAlignedDimension
13
-39
23
-8
33
0
14
-5.4
24
8
34
0
50
90
100
AcDbRotatedDimension
1001
ACAD
1000
DSTYLE
1002
{
1070
    74
1070
     0
1070
   279
1070
     0
1070
   172
1070
     1
1070
   173
1070
     1
1070
   340
1005
11E
1070
   271
1070
     1
1070
    77
1070
     1
1070
    73
1070
     0
1070
   171
1070
     4
1070
   274
1070
     4
1070
   177
1070
     7
1070
   176
1070
     7
1070
   178
1070
     7
1070
    41
1041
3.175
1070
   147
1041
1.75
1070
    42
1041
2.0
1070
    44
1041
2.0
1070
   140
1041
3.5
1070
   343
1005
0
1070
   344
1005
0
1002
}
0
DIMENSION
5
14A
100
AcDbEntity
8
2
62
256
6
ByLayer
370
-3
48
1
60
0
100
AcDbDimension
2
DimnDraft3D4
10
30.3
20
-32.762871
30
0
11
2.853947
21
-32.762871
31
0
70
32
71
5
72
1
41
1
210
0
220
0
230
1
3
Standard
100
AcDbAlignedDimension
13
0
23
-21.5
33
0
14
30.3
24
18.129024
34
0
50
0
100
AcDbRotatedDimension
1001
ACAD
1000
DSTYLE
1002
{
1070
   279
1070
     0
1070
   172
1070
     1
1070
   173
1070
     1
1070
   340
1005
11E
1070
   271
1070
     1
1070
    77
1070
     1
1070
    73
1070
     0
1070
   171
1070
     4
1070
   274
1070
     4
1070
   177
1070
     7
1070
   176
1070
     7
1070
   178
1070
     7
1070
    78
1070
     8
1070
    41
1041
3.175
1070
   147
1041
1.75
1070
    42
1041
2.0
1070
    44
1041
2.0
1070
   140
1041
3.5
1070
   343
1005
0
1070
   344
1005
0
1002
}
0
ENDSEC
0
SECTION
2
OBJECTS
0
DICTIONARY
5
199
330
0
100
AcDbDictionary
280
0
281
1
3
ACAD_GROUP
350
19a
3
ACAD_MLINESTYLE
350
19b
0
DICTIONARY
5
19a
330
0
100
AcDbDictionary
280
0
281
1
0
DICTIONARY
5
19b
330
0
100
AcDbDictionary
280
0
281
1
3
Standard
350
18
0
MLINESTYLE
5
18
330
19b
100
AcDbMlineStyle
2
Standard
70
0
3

62
256
51
90
52
90
71
2
49
-0.5
62
256
6
ByLayer
49
0.5
62
256
6
ByLayer
0
RASTERVARIABLES
5
187
330

100
AcDbRasterVariables
90
0
70
1
71
1
72
1
0
ENDSEC
0
EOF
