0
SECTION
2
HEADER
9
$ACADVER
1
AC1015
9
$DWGCODEPAGE
3
ANSI_1252
9
$HANDSEED
5
1a6
9
$ANGBASE
50
0
9
$ANGDIR
70
0
9
$ATTMODE
70
1
9
$AUNITS
70
0
9
$AUPREC
70
0
9
$CECOLOR
62
256
9
$CELTSCALE
40
1
9
$CELTYPE
6
ByLayer
9
$CELWEIGHT
370
-1
9
$CLAYER
8
0
9
$CMLJUST
70
0
9
$CMLSCALE
40
1
9
$CMLSTYLE
2
Standard
9
$DIMSTYLE
2
Standard
9
$TEXTSIZE
40
0.2
9
$TEXTSTYLE
7
Standard
9
$LUNITS
70
2
9
$LUPREC
70
4
9
$EXTNAMES
290
1
9
$INSUNITS
70
4
9
$LTSCALE
40
1
9
$LWDISPLAY
290
0
9
$PDMODE
70
0
9
$PDSIZE
40
0
9
$PLINEGEN
70
0
0
ENDSEC
0
SECTION
2
CLASSES
0
CLASS
1
RASTERVARIABLES
2
AcDbRasterVariables
3
ISM
90
0
280
0
281
0
0
ENDSEC
0
SECTION
2
TABLES
0
TABLE
2
VPORT
5
19c
100
AcDbSymbolTable
0
VPORT
5
1
100
AcDbSymbolTableRecord
100
AcDbViewportTableRecord
2
*Active
70
0
10
0
20
0
11
1
21
1
12
-1
22
1
13
0
23
0
14
0.5
24
0.5
15
10
25
10
16
0
26
0
36
1
17
0
27
0
37
0
0
ENDTAB
0
TABLE
2
LTYPE
5
19d
100
AcDbSymbolTable
0
LTYPE
5
14
100
AcDbSymbolTableRecord
100
AcDbLinetypeTableRecord
70
0
2
ByBlock
3

72
65
73
0
40
0
0
LTYPE
5
15
100
AcDbSymbolTableRecord
100
AcDbLinetypeTableRecord
70
0
2
ByLayer
3

72
65
73
0
40
0
0
LTYPE
5
16
100
AcDbSymbolTableRecord
100
AcDbLinetypeTableRecord
70
0
2
CONTINUOUS
3
Solid line
72
65
73
0
40
0
0
LTYPE
5
3C
100
AcDbSymbolTableRecord
100
AcDbLinetypeTableRecord
70
0
2
DASHED
3
__ __ __ __ __ __ __ __ __
72
65
73
2
40
25.72
49
12.86
74
0
49
-12.86
74
0
0
LTYPE
5
3D
100
AcDbSymbolTableRecord
100
AcDbLinetypeTableRecord
70
0
2
HIDDEN
3
_ _ _ _ _ _ _ _ _ _ _ _ _ _ _
72
65
73
2
40
0.5
49
0.25
74
0
49
-0.25
74
0
0
LTYPE
5
3E
100
AcDbSymbolTableRecord
100
AcDbLinetypeTableRecord
70
0
2
PHANTOM
3
____ _ _ ____ _ _ _____ _ _ ____
72
65
73
6
40
50.5
49
18
74
0
49
-6.5
74
0
49
6.5
74
0
49
-6.5
74
0
49
6.5
74
0
49
-6.5
74
0
0
LTYPE
5
3F
100
AcDbSymbolTableRecord
100
AcDbLinetypeTableRecord
70
0
2
CENTER
3
____ _ ____ _ ____ _ ____
72
65
73
4
40
47.5
49
22
74
0
49
-8.5
74
0
49
8.5
74
0
49
-8.5
74
0
0
LTYPE
5
40
100
AcDbSymbolTableRecord
100
AcDbLinetypeTableRecord
70
0
2
DOT
3
.........................
72
65
73
2
40
10
49
0
74
0
49
-10
74
0
0
LTYPE
5
41
100
AcDbSymbolTableRecord
100
AcDbLinetypeTableRecord
70
0
2
DASHDOT
3
_._._._._._._._._._._._._._._._.
72
65
73
4
40
70
49
31
74
0
49
-13
74
0
49
13
74
0
49
-13
74
0
0
ENDTAB
0
TABLE
2
LAYER
5
19e
100
AcDbSymbolTable
0
LAYER
5
10
100
AcDbSymbolTableRecord
100
AcDbLayerTableRecord
2
0
70
0
62
7
6
CONTINUOUS
290
1
370
-3
390
0
0
LAYER
5
43
100
AcDbSymbolTableRecord
100
AcDbLayerTableRecord
2
80
70
0
62
-6
6
CONTINUOUS
290
1
370
-3
390
0
0
LAYER
5
45
100
AcDbSymbolTableRecord
100
AcDbLayerTableRecord
2
81
70
0
62
-3
6
CONTINUOUS
290
1
370
-3
390
0
0
LAYER
5
47
100
AcDbSymbolTableRecord
100
AcDbLayerTableRecord
2
2
70
0
62
7
6
CONTINUOUS
290
1
370
-3
390
0
0
LAYER
5
58
100
AcDbSymbolTableRecord
100
AcDbLayerTableRecord
2
1
70
0
62
4
6
CONTINUOUS
290
1
370
-3
390
0
0
LAYER
5
DC
100
AcDbSymbolTableRecord
100
AcDbLayerTableRecord
2
4
70
0
62
-2
6
CENTER
290
1
370
-3
390
0
0
LAYER
5
188
100
AcDbSymbolTableRecord
100
AcDbLayerTableRecord
2
SK1
70
0
62
4
6
CONTINUOUS
290
1
370
-3
390
0
0
LAYER
5
189
100
AcDbSymbolTableRecord
100
AcDbLayerTableRecord
2
SK4
70
0
62
2
6
CENTER
290
1
370
-3
390
0
0
LAYER
5
18a
100
AcDbSymbolTableRecord
100
AcDbLayerTableRecord
2
SK6
70
0
62
5
6
CONTINUOUS
290
1
370
-3
390
0
0
LAYER
5
18b
100
AcDbSymbolTableRecord
100
AcDbLayerTableRecord
2
SK2
70
0
62
7
6
CONTINUOUS
290
1
370
-3
390
0
0
ENDTAB
0
TABLE
2
STYLE
5
19f
100
AcDbSymbolTable
0
STYLE
5
11
100
AcDbSymbolTableRecord
100
AcDbTextStyleTableRecord
2
Standard
3
txt
70
0
71
0
40
0
41
1
42
0
50
0
0
STYLE
5
11E
100
AcDbSymbolTableRecord
100
AcDbTextStyleTableRecord
2
DEFAULT
3
simplex.shx
70
0
71
0
40
0
41
1
42
0
50
0
0
STYLE
5
11F
100
AcDbSymbolTableRecord
100
AcDbTextStyleTableRecord
2
DWGDirectTextStyle
3
SIMPLEX
70
0
71
0
40
0
41
1
42
0
50
0
0
ENDTAB
0
TABLE
2
DIMSTYLE
5
1a0
100
AcDbSymbolTable
100
AcDbDimStyleTable
0
DIMSTYLE
105
27
100
AcDbSymbolTableRecord
100
AcDbDimStyleTableRecord
2
Standard
70
0
3
<>
41
0.18
42
0.0625
44
0.18
140
0.18
147
0.09
73
0
74
0
77
1
271
2
275
0
278
52
280
0
340
11
0
ENDTAB
0
TABLE
2
VIEW
5
1a1
100
AcDbSymbolTable
0
ENDTAB
0
TABLE
2
UCS
5
1a2
100
AcDbSymbolTable
0
ENDTAB
0
TABLE
2
APPID
5
1a3
100
AcDbSymbolTable
0
APPID
5
12
100
AcDbSymbolTableRecord
100
AcDbRegAppTableRecord
2
ACAD
70
0
0
ENDTAB
0
TABLE
2
BLOCK_RECORD
5
1a4
100
AcDbSymbolTable
0
BLOCK_RECORD
5
1F
100
AcDbSymbolTableRecord
100
AcDbBlockTableRecord
2
*Model_Space
340
0
70
0
0
BLOCK_RECORD
5
1B
100
AcDbSymbolTableRecord
100
AcDbBlockTableRecord
2
*Paper_Space
340
0
70
0
0
BLOCK_RECORD
5
23
100
AcDbSymbolTableRecord
100
AcDbBlockTableRecord
2
*Paper_Space0
340
0
70
0
0
BLOCK_RECORD
5
122
100
AcDbSymbolTableRecord
100
AcDbBlockTableRecord
2
DimnDraft3D1
340
0
70
0
0
BLOCK_RECORD
5
12D
100
AcDbSymbolTableRecord
100
AcDbBlockTableRecord
2
DimnDraft3D2
340
0
70
0
0
BLOCK_RECORD
5
137
100
AcDbSymbolTableRecord
100
AcDbBlockTableRecord
2
DimnDraft3D3
340
0
70
0
0
BLOCK_RECORD
5
141
100
AcDbSymbolTableRecord
100
AcDbBlockTableRecord
2
DimnDraft3D4
340
0
70
0
0
ENDTAB
0
ENDSEC
0
SECTION
2
BLOCKS
0
BLOCK
5
20
100
AcDbEntity
8
0
100
AcDbBlockBegin
2
*Model_Space
70
0
10
0
20
0
30
0
3
*Model_Space
0
ENDBLK
5
21
100
AcDbEntity
8
0
100
AcDbBlockEnd
0
BLOCK
5
1C
100
AcDbEntity
8
0
100
AcDbBlockBegin
2
*Paper_Space
70
0
10
0
20
0
30
0
3
*Paper_Space
0
ENDBLK
5
1D
100
AcDbEntity
8
0
100
AcDbBlockEnd
0
BLOCK
5
24
100
AcDbEntity
8
0
100
AcDbBlockBegin
2
*Paper_Space0
70
0
10
0
20
0
30
0
3
*Paper_Space0
0
ENDBLK
5
25
100
AcDbEntity
8
0
100
AcDbBlockEnd
0
BLOCK
5
12A
100
AcDbEntity
8
0
100
AcDbBlockBegin
2
DimnDraft3D1
70
0
10
0
20
0
30
0
3
DimnDraft3D1
0
MTEXT
5
123
100
AcDbEntity
8
SK2
62
256
6
ByLayer
370
-1
48
1
60
0
100
AcDbMText
10
-11.140789
20
44.125019
30
0
210
0
220
0
230
1
1
\W01.000;\fsimplex.shx,bigfont.shx;60.0\P
40
3.5
41
0
44
1.084337
50
0
71
7
72
5
7
DEFAULT
0
LINE
5
125
100
AcDbEntity
8
SK2
62
256
6
ByLayer
370
-1
48
1
60
0
100
AcDbLine
10
22
20
19
30
0
11
22
21
45.250019
31
0
39
0
210
0
220
0
230
1
0
LINE
5
126
100
AcDbEntity
8
SK2
62
256
6
ByLayer
370
-1
48
1
60
0
100
AcDbLine
10
-38
20
9
30
0
11
-38
21
45.250019
31
0
39
0
210
0
220
0
230
1
0
LINE
5
127
100
AcDbEntity
8
SK2
62
256
6
ByLayer
370
-1
48
1
60
0
100
AcDbLine
10
22
20
43.250019
30
0
11
-38
21
43.250019
31
0
39
0
210
0
220
0
230
1
0
SOLID
5
128
100
AcDbEntity
8
SK2
62
256
6
ByLayer
370
-1
48
1
60
0
100
AcDbTrace
10
22
20
43.250019
30
0
11
18.825002
21
42.832023
31
0
12
18.824998
22
43.668016
32
0
13
22
23
43.250019
33
0
39
0
210
0
220
0
230
1
0
SOLID
5
129
100
AcDbEntity
8
SK2
62
256
6
ByLayer
370
-1
48
1
60
0
100
AcDbTrace
10
-38
20
43.250019
30
0
11
-34.825002
21
43.668016
31
0
12
-34.824998
22
42.832023
32
0
13
-38
23
43.250019
33
0
39
0
210
0
220
0
230
1
0
ENDBLK
5
12B
100
AcDbEntity
8
0
100
AcDbBlockEnd
0
BLOCK
5
134
100
AcDbEntity
8
0
100
AcDbBlockBegin
2
DimnDraft3D2
70
0
10
0
20
0
30
0
3
DimnDraft3D2
0
MTEXT
5
12E
100
AcDbEntity
8
2
62
256
6
ByLayer
370
-1
48
1
60
0
100
AcDbMText
10
7.859211
20
29.125019
30
0
210
0
220
0
230
1
1
\W01.000;\fsimplex.shx,bigfont.shx;22.0\P
40
3.5
41
0
44
1.084337
50
0
71
7
72
5
7
DEFAULT
0
LINE
5
12F
100
AcDbEntity
8
2
62
256
6
ByLayer
370
-1
48
1
60
0
100
AcDbLine
10
22
20
19
30
0
11
22
21
30.250019
31
0
39
0
210
0
220
0
230
1
0
LINE
5
130
100
AcDbEntity
8
2
62
256
6
ByLayer
370
-1
48
1
60
0
100
AcDbLine
10
0
20
19
30
0
11
0
21
30.250019
31
0
39
0
210
0
220
0
230
1
0
LINE
5
131
100
AcDbEntity
8
2
62
256
6
ByLayer
370
-1
48
1
60
0
100
AcDbLine
10
22
20
28.250019
30
0
11
0
21
28.250019
31
0
39
0
210
0
220
0
230
1
0
SOLID
5
132
100
AcDbEntity
8
2
62
256
6
ByLayer
370
-1
48
1
60
0
100
AcDbTrace
10
22
20
28.250019
30
0
11
18.825002
21
27.832023
31
0
12
18.824998
22
28.668016
32
0
13
22
23
28.250019
33
0
39
0
210
0
220
0
230
1
0
SOLID
5
133
100
AcDbEntity
8
2
62
256
6
ByLayer
370
-1
48
1
60
0
100
AcDbTrace
10
0
20
28.250019
30
0
11
3.174998
21
28.668016
31
0
12
3.175002
22
27.832023
32
0
13
0
23
28.250019
33
0
39
0
210
0
220
0
230
1
0
ENDBLK
5
135
100
AcDbEntity
8
0
100
AcDbBlockEnd
0
BLOCK
5
13E
100
AcDbEntity
8
0
100
AcDbBlockBegin
2
DimnDraft3D3
70
0
10
0
20
0
30
0
3
DimnDraft3D3
0
MTEXT
5
138
100
AcDbEntity
8
SK2
62
256
6
ByLayer
370
-1
48
1
60
0
100
AcDbMText
10
-46.166869
20
-26.372368
30
0
210
0
220
0
230
1
1
\W01.000;\fsimplex.shx,bigfont.shx;%%c 16.0\P
40
3.5
41
0
44
1.084337
50
90
71
7
72
5
7
DEFAULT
0
LINE
5
139
100
AcDbEntity
8
SK2
62
256
6
ByLayer
370
-1
48
1
60
0
100
AcDbLine
10
-39
20
-8
30
0
11
-47.291869
21
-8
31
0
39
0
210
0
220
0
230
1
0
LINE
5
13A
100
AcDbEntity
8
SK2
62
256
6
ByLayer
370
-1
48
1
60
0
100
AcDbLine
10
-5.4
20
8
30
0
11
-47.291869
21
8
31
0
39
0
210
0
220
0
230
1
0
LINE
5
13B
100
AcDbEntity
8
SK2
62
256
6
ByLayer
370
-1
48
1
60
0
100
AcDbLine
10
-45.291869
20
8
30
0
11
-45.291869
21
-27.247368
31
0
39
0
210
0
220
0
230
1
0
SOLID
5
13C
100
AcDbEntity
8
SK2
62
256
6
ByLayer
370
-1
48
1
60
0
100
AcDbTrace
10
-45.291869
20
-8
30
0
11
-45.709865
21
-4.825002
31
0
12
-44.873872
22
-4.824998
32
0
13
-45.291869
23
-8
33
0
39
0
210
0
220
0
230
1
0
SOLID
5
13D
100
AcDbEntity
8
SK2
62
256
6
ByLayer
370
-1
48
1
60
0
100
AcDbTrace
10
-45.291869
20
8
30
0
11
-44.873872
21
4.825002
31
0
12
-45.709865
22
4.824998
32
0
13
-45.291869
23
8
33
0
39
0
210
0
220
0
230
1
0
ENDBLK
5
13F
100
AcDbEntity
8
0
100
AcDbBlockEnd
0
BLOCK
5
148
100
AcDbEntity
8
0
100
AcDbBlockBegin
2
DimnDraft3D4
70
0
10
0
20
0
30
0
3
DimnDraft3D4
0
MTEXT
5
142
100
AcDbEntity
8
2
62
256
6
ByLayer
370
-1
48
1
60
0
100
AcDbMText
10
4.728947
20
-30.195936
30
0
210
0
220
0
230
1
1
\W01.000;\fsimplex.shx,bigfont.shx;30.3 / 32.3\P
40
3.5
41
0
44
1.084337
50
0
71
7
72
5
7
DEFAULT
0
LINE
5
143
100
AcDbEntity
8
2
62
256
6
ByLayer
370
-1
48
1
60
0
100
AcDbLine
10
0
20
-19
30
0
11
0
21
-33.070936
31
0
39
0
210
0
220
0
230
1
0
LINE
5
144
100
AcDbEntity
8
2
62
256
6
ByLayer
370
-1
48
1
60
0
100
AcDbLine
10
32.3
20
15.629024
30
0
11
32.3
21
-33.070936
31
0
39
0
210
0
220
0
230
1
0
LINE
5
145
100
AcDbEntity
8
2
62
256
6
ByLayer
370
-1
48
1
60
0
100
AcDbLine
10
-8.75
20
-31.070936
30
0
11
41.05
21
-31.070936
31
0
39
0
210
0
220
0
230
1
0
SOLID
5
146
100
AcDbEntity
8
2
62
256
6
ByLayer
370
-1
48
1
60
0
100
AcDbTrace
10
0
20
-31.070936
30
0
11
-3.174998
21
-31.488932
31
0
12
-3.175002
22
-30.652939
32
0
13
0
23
-31.070936
33
0
39
0
210
0
220
0
230
1
0
SOLID
5
147
100
AcDbEntity
8
2
62
256
6
ByLayer
370
-1
48
1
60
0
100
AcDbTrace
10
32.3
20
-31.070936
30
0
11
35.474998
21
-30.652939
31
0
12
35.475002
22
-31.488932
32
0
13
32.3
23
-31.070936
33
0
39
0
210
0
220
0
230
1
0
ENDBLK
5
149
100
AcDbEntity
8
0
100
AcDbBlockEnd
0
ENDSEC
0
SECTION
2
ENTITIES
0
ARC
5
DF
100
AcDbEntity
8
1
62
256
6
ByLayer
370
-1
48
1
60
0
100
AcDbCircle
39
0
10
3.5
20
15.5
30
0
40
1.5
210
0
220
0
230
1
100
AcDbArc
50
0
51
90
0
ARC
5
E0
100
AcDbEntity
8
1
62
256
6
ByLayer
370
-1
48
1
60
0
100
AcDbCircle
39
0
10
11.5
20
-15.5
30
0
40
1.5
210
0
220
0
230
1
100
AcDbArc
50
180
51
270
0
ARC
5
E1
100
AcDbEntity
8
1
62
256
6
ByLayer
370
-1
48
1
60
0
100
AcDbCircle
39
0
10
-9.2
20
-12.8
30
0
40
0.8
210
0
220
0
230
-1
100
AcDbArc
50
90
51
180
0
ARC
5
E2
100
AcDbEntity
8
1
62
256
6
ByLayer
370
-1
48
1
60
0
100
AcDbCircle
39
0
10
11.5
20
15.5
30
0
40
1.5
210
0
220
0
230
1
100
AcDbArc
50
90
51
180
0
ARC
5
E3
100
AcDbEntity
8
1
62
256
6
ByLayer
370
-1
48
1
60
0
100
AcDbCircle
39
0
10
-5.8
20
-12.8
30
0
40
0.8
210
0
220
0
230
-1
100
AcDbArc
50
0
51
90
0
ARC
5
E4
100
AcDbEntity
8
1
62
256
6
ByLayer
370
-1
48
1
60
0
100
AcDbCircle
39
0
10
-5.8
20
12.8
30
0
40
0.8
210
0
220
0
230
-1
100
AcDbArc
50
270
51
0
0
ARC
5
E5
100
AcDbEntity
8
1
62
256
6
ByLayer
370
-1
48
1
60
0
100
AcDbCircle
39
0
10
3.5
20
-15.5
30
0
40
1.5
210
0
220
0
230
1
100
AcDbArc
50
270
51
0
0
ARC
5
E6
100
AcDbEntity
8
SK1
62
256
6
ByLayer
370
-1
48
1
60
0
100
AcDbCircle
39
0
10
1.114326
20
-8.15
30
0
40
0.4
210
0
220
0
230
-1
100
AcDbArc
50
75
51
90
0
ARC
5
E7
100
AcDbEntity
8
1
62
256
6
ByLayer
370
-1
48
1
60
0
100
AcDbCircle
39
0
10
-19.4
20
5.55
30
0
40
0.4
210
0
220
0
230
-1
100
AcDbArc
50
0
51
90
0
ARC
5
E8
100
AcDbEntity
8
SK1
62
256
6
ByLayer
370
-1
48
1
60
0
100
AcDbCircle
39
0
10
1.114326
20
8.15
30
0
40
0.4
210
0
220
0
230
-1
100
AcDbArc
50
270
51
285
0
ARC
5
E9
100
AcDbEntity
8
1
62
256
6
ByLayer
370
-1
48
1
60
0
100
AcDbCircle
39
0
10
-9.2
20
12.8
30
0
40
0.8
210
0
220
0
230
-1
100
AcDbArc
50
180
51
270
0
ARC
5
EA
100
AcDbEntity
8
SK1
62
256
6
ByLayer
370
-1
48
1
60
0
100
AcDbCircle
39
0
10
0.275
20
8.15
30
0
40
0.4
210
0
220
0
230
-1
100
AcDbArc
50
226.566505
51
270
0
ARC
5
EB
100
AcDbEntity
8
SK1
62
256
6
ByLayer
370
-1
48
1
60
0
100
AcDbCircle
39
0
10
0.275
20
-8.15
30
0
40
0.4
210
0
220
0
230
-1
100
AcDbArc
50
90
51
133.433495
0
ELLIPSE
5
EC
100
AcDbEntity
8
1
62
256
6
ByLayer
370
-1
48
1
60
0
100
AcDbEllipse
10
13
20
-15.471683
30
0
11
1.5
21
0
31
0
210
0
220
0
230
1
40
0.056941
41
0
42
6.28318530717959
0
ELLIPSE
5
ED
100
AcDbEntity
8
1
62
256
6
ByLayer
370
-1
48
1
60
0
100
AcDbEllipse
10
20.838547
20
16.974945
30
0
11
0.0642374250104073
21
2.13107644289963
31
0
210
0
220
0
230
-1
40
0.016371
41
-2.96101252721079
42
-2.72373624322805
0
ELLIPSE
5
EE
100
AcDbEntity
8
1
62
256
6
ByLayer
370
-1
48
1
60
0
100
AcDbEllipse
10
21.049983
20
16.889519
30
0
11
2.63523430821181
21
0.208368753677828
31
0
210
0
220
0
230
-1
40
0.682595
41
1.46617186156677
42
1.69456212651476
0
ELLIPSE
5
EF
100
AcDbEntity
8
1
62
256
6
ByLayer
370
-1
48
1
60
0
100
AcDbEllipse
10
20.969329
20
14.75613
30
0
11
0.196801316847313
21
-0.0747685935125244
31
0
210
0
220
0
230
-1
40
0.176102
41
2.00668878705981
42
3.06261298451385
0
ELLIPSE
5
F0
100
AcDbEntity
8
1
62
256
6
ByLayer
370
-1
48
1
60
0
100
AcDbEllipse
10
26.667683
20
13
30
0
11
11.4598443515883
21
-4.48988602773496
31
0
210
0
220
0
230
-1
40
0.064327
41
1.96496157196825
42
2.23229497925289
0
ELLIPSE
5
F1
100
AcDbEntity
8
1
62
256
6
ByLayer
370
-1
48
1
60
0
100
AcDbEllipse
10
58.373113
20
0
30
0
11
42.8170008811891
21
-16.775398347798
31
0
210
0
220
0
230
-1
40
0.064327
41
2.82685023160789
42
-3.0762310489346
0
ELLIPSE
5
F2
100
AcDbEntity
8
1
62
256
6
ByLayer
370
-1
48
1
60
0
100
AcDbEllipse
10
19.749091
20
10.5
30
0
11
7.94524827342793
21
-2.9442019320259
31
0
210
0
220
0
230
-1
40
0.436617
41
1.12694701581234
42
1.2732146208303
0
ELLIPSE
5
F3
100
AcDbEntity
8
1
62
256
6
ByLayer
370
-1
48
1
60
0
100
AcDbEllipse
10
20.590349
20
10.5
30
0
11
0.137644251203445
21
-4.54999940184684
31
0
210
0
220
0
230
-1
40
0.017444
41
-0.602061713418009
42
-0.444080394382526
0
ELLIPSE
5
F4
100
AcDbEntity
8
1
62
256
6
ByLayer
370
-1
48
1
60
0
100
AcDbEllipse
10
19.749091
20
10.5
30
0
11
7.94895886315166
21
2.79452024381051
31
0
210
0
220
0
230
-1
40
0.45172
41
1.44484108963373
42
1.59110869466584
0
ELLIPSE
5
F5
100
AcDbEntity
8
1
62
256
6
ByLayer
370
-1
48
1
60
0
100
AcDbEllipse
10
13
20
-15.471683
30
0
11
1.65
21
0
31
0
210
0
220
0
230
1
40
0.056941
41
0
42
6.28318530717959
0
ELLIPSE
5
F6
100
AcDbEntity
8
1
62
256
6
ByLayer
370
-1
48
1
60
0
100
AcDbEllipse
10
18.113103
20
0
30
0
11
5.23026039795866E-15
21
1.65000000000003
31
0
210
0
220
0
230
1
40
0.416655
41
0
42
6.28318530717959
0
ELLIPSE
5
F7
100
AcDbEntity
8
1
62
256
6
ByLayer
370
-1
48
1
60
0
100
AcDbEllipse
10
20.905955
20
2.1E-05
30
0
11
5.79949537278445E-06
21
16.9999783730085
31
0
210
0
220
0
230
-1
40
0.458334
41
-0.489957780607791
42
-0.477476127939427
0
ELLIPSE
5
F8
100
AcDbEntity
8
1
62
256
6
ByLayer
370
-1
48
1
60
0
100
AcDbEllipse
10
19.384557
20
15.403138
30
0
11
1.2582638168132
21
-0.45052072448768
31
0
210
0
220
0
230
-1
40
0.101028
41
-2.87410335883568
42
-2.53803108878855
0
ELLIPSE
5
F9
100
AcDbEntity
8
1
62
256
6
ByLayer
370
-1
48
1
60
0
100
AcDbEllipse
10
19.384557
20
15.403138
30
0
11
1.25826381705428
21
-0.450520724586074
31
0
210
0
220
0
230
-1
40
0.101028
41
0.153268975554341
42
2.52405843176633
0
ELLIPSE
5
FA
100
AcDbEntity
8
1
62
256
6
ByLayer
370
-1
48
1
60
0
100
AcDbEllipse
10
18.113103
20
0
30
0
11
4.75478217996234E-15
21
1.5
31
0
210
0
220
0
230
1
40
0.416655
41
0
42
6.28318530717959
0
POINT
5
42
100
AcDbEntity
8
80
62
256
6
ByLayer
370
-1
48
1
60
0
100
AcDbPoint
10
0
20
0
30
0
39
0
210
0
220
0
230
1
50
360
0
POINT
5
44
100
AcDbEntity
8
81
62
256
6
ByLayer
370
-1
48
1
60
0
100
AcDbPoint
10
32.300131
20
19.494532
30
0
39
0
210
0
220
0
230
1
50
360
0
SPLINE
5
FB
100
AcDbEntity
8
1
62
256
6
ByLayer
370
-1
48
1
60
0
100
AcDbSpline
70
4
71
3
72
8
73
4
40
0
40
0
40
0
40
0
40
1
40
1
40
1
40
1
41
1
10
21.9665487750164
20
15.3009966472308
30
0
41
0.877544051322076
10
22.0493088220538
20
15.3224249292754
30
0
41
0.877544051322076
10
22.1
20
15.37499464564
30
0
41
1
10
22.1
20
15.4393933728571
30
0
0
SPLINE
5
FC
100
AcDbEntity
8
1
62
256
6
ByLayer
370
-1
48
1
60
0
100
AcDbSpline
70
4
71
3
72
8
73
4
40
0
40
0
40
0
40
0
40
1
40
1
40
1
40
1
41
1
10
21.2346585428383
20
15.0234750896754
30
0
41
0.993685858888279
10
21.4604272899654
20
15.1404248980186
30
0
41
0.993685858888279
10
21.7059409083226
20
15.2335198988424
30
0
41
1
10
21.9665487750164
20
15.3009966472308
30
0
0
SPLINE
5
FD
100
AcDbEntity
8
1
62
256
6
ByLayer
370
-1
48
1
60
0
100
AcDbSpline
70
4
71
3
72
8
73
4
40
0
40
0
40
0
40
0
40
1
40
1
40
1
40
1
41
1
10
28.6765333685647
20
17.5495866412558
30
0
41
0.979892672642243
10
29.7978034121899
20
17.5420281507174
30
0
41
0.979892672642243
10
30.9584868312199
20
17.5033972379585
30
0
41
1
10
32.0885689012593
20
17.436024196206
30
0
0
SPLINE
5
FE
100
AcDbEntity
8
1
62
256
6
ByLayer
370
-1
48
1
60
0
100
AcDbSpline
70
4
71
3
72
20
73
16
40
0
40
0
40
0
40
0
40
0.124999999999993
40
0.124999999999993
40
0.249999999999986
40
0.249999999999986
40
0.374999999999979
40
0.374999999999979
40
0.499999999999972
40
0.499999999999972
40
0.624999999999965
40
0.624999999999965
40
0.749999999999958
40
0.749999999999958
40
1
40
1
40
1
40
1
41
1
10
32.0885689012593
20
17.436024196206
30
0
41
1
10
32.1018979742854
20
17.4352295457843
30
0
41
1
10
32.1150855710307
20
17.4356892399723
30
0
41
1
10
32.1411849490612
20
17.439059886401
30
0
41
1
10
32.1542114345627
20
17.4420106756694
30
0
41
1
10
32.1794133025349
20
17.4503990301892
30
0
41
1
10
32.1914550731775
20
17.4557650540264
30
0
41
1
10
32.2144104748883
20
17.4688711417877
30
0
41
1
10
32.2254414701184
20
17.4767301905304
30
0
41
1
10
32.2454289880916
20
17.4943816424851
30
0
41
1
10
32.2544456158268
20
17.504164875597
30
0
41
1
10
32.2704560588042
20
17.5257200194489
30
0
41
1
10
32.2774226118187
20
17.5375396154377
30
0
41
1
10
32.2940839130075
20
17.5743074264587
30
0
41
1
10
32.3000000000004
20
17.6015417070441
30
0
41
1
10
32.3000000000004
20
17.6290239123348
30
0
0
SPLINE
5
FF
100
AcDbEntity
8
1
62
256
6
ByLayer
370
-1
48
1
60
0
100
AcDbSpline
70
4
71
3
72
20
73
16
40
0
40
0
40
0
40
0
40
0.124999999999989
40
0.124999999999989
40
0.249999999999978
40
0.249999999999978
40
0.499999999999986
40
0.499999999999986
40
0.624999999999989
40
0.624999999999989
40
0.749999999999993
40
0.749999999999993
40
0.874999999999996
40
0.874999999999996
40
1
40
1
40
1
40
1
41
1
10
32.3
20
19.3011345486817
30
0
41
1
10
32.3
20
19.3148637555597
30
0
41
1
10
32.2985691992735
20
19.3283410472358
30
0
41
1
10
32.2929112227043
20
19.3548035338412
30
0
41
1
10
32.2886022273542
20
19.3679188133114
30
0
41
1
10
32.2719323488302
20
19.4047922844262
30
0
41
1
10
32.2554579592659
20
19.4268990099356
30
0
41
1
10
32.2255520847253
20
19.4533410097286
30
0
41
1
10
32.2145528676932
20
19.4611981533709
30
0
41
1
10
32.1914888835057
20
19.4743819120876
30
0
41
1
10
32.1794249998761
20
19.4797532461739
30
0
41
1
10
32.1542629152684
20
19.4881329356608
30
0
41
1
10
32.1412064674587
20
19.4910951847259
30
0
41
1
10
32.1150830801673
20
19.4944701531474
30
0
41
1
10
32.1018920638208
20
19.4949285628632
30
0
41
1
10
32.0885689012593
20
19.4941342648106
30
0
0
SPLINE
5
100
100
AcDbEntity
8
1
62
256
6
ByLayer
370
-1
48
1
60
0
100
AcDbSpline
70
4
71
3
72
8
73
4
40
0
40
0
40
0
40
0
40
1
40
1
40
1
40
1
41
1
10
32.0885689012593
20
19.4941342648106
30
0
41
0.979892672642243
10
30.9584868312199
20
19.426761223058
30
0
41
0.979892672642243
10
29.7978034121899
20
19.3881303102991
30
0
41
1
10
28.6765333685647
20
19.3805718197608
30
0
0
SPLINE
5
101
100
AcDbEntity
8
1
62
256
6
ByLayer
370
-1
48
1
60
0
100
AcDbSpline
70
4
71
3
72
8
73
4
40
0
40
0
40
0
40
0
40
1
40
1
40
1
40
1
41
1
10
21.15
20
14.9035798012195
30
0
41
0.9252618736541
10
21.15
20
14.9522267556022
30
0
41
0.9252618736541
10
21.1804989485495
20
14.9954200366505
30
0
41
1
10
21.2346585428383
20
15.0234750896754
30
0
0
SPLINE
5
102
100
AcDbEntity
8
1
62
256
6
ByLayer
370
-1
48
1
60
0
100
AcDbSpline
70
4
71
3
72
14
73
10
40
0
40
0
40
0
40
0
40
0.2895492127777
40
0.2895492127777
40
0.5790984255554
40
0.5790984255554
40
0.8686476383331
40
0.8686476383331
40
1
40
1
40
1
40
1
41
1
10
22.1
20
9.77708315081327
30
0
41
1
10
22.1
20
9.75465036767659
30
0
41
1
10
22.0974983375137
20
9.73274837090148
30
0
41
1
10
22.0870250946737
20
9.69004375055721
30
0
41
1
10
22.0789034283862
20
9.66909765958513
30
0
41
1
10
22.0568980478648
20
9.63084892879036
30
0
41
1
10
22.0426695463906
20
9.6130049723082
30
0
41
1
10
22.0180213093328
20
9.59130485233408
30
0
41
1
10
22.0096955307967
20
9.58506463731493
30
0
41
1
10
22.0008239803955
20
9.57948919927063
30
0
0
SPLINE
5
103
100
AcDbEntity
8
1
62
256
6
ByLayer
370
-1
48
1
60
0
100
AcDbSpline
70
4
71
3
72
14
73
10
40
0
40
0
40
0
40
0
40
0.125112722919783
40
0.125112722919783
40
0.416741815279855
40
0.416741815279855
40
0.708370907639928
40
0.708370907639928
40
1
40
1
40
1
40
1
41
1
10
22.0014226054249
20
11.4112132992825
30
0
41
1
10
22.0097611463461
20
11.4058969096977
30
0
41
1
10
22.0176328498949
20
11.3999620754674
30
0
41
1
10
22.0422923800412
20
11.3783309047818
30
0
41
1
10
22.0564293931646
20
11.3606071038787
30
0
41
1
10
22.0787723595907
20
11.3217938147106
30
0
41
1
10
22.0868425825456
20
11.3009770565551
30
0
41
1
10
22.097494020553
20
11.2575726929146
30
0
41
1
10
22.1000000000005
20
11.235407674405
30
0
41
1
10
22.1000000000005
20
11.21280347163
30
0
0
SPLINE
5
104
100
AcDbEntity
8
1
62
256
6
ByLayer
370
-1
48
1
60
0
100
AcDbSpline
70
4
71
3
72
12
73
8
40
0
40
0
40
0
40
0
40
0.111039824523189
40
0.111039824523189
40
0.40735988301545
40
0.40735988301545
40
1
40
1
40
1
40
1
41
1
10
22.0013076288851
20
13.6862959620375
30
0
41
1
10
22.0080369244523
20
13.6834039756827
30
0
41
1
10
22.014531968431
20
13.6802161429029
30
0
41
1
10
22.0375113283958
20
13.6674414912174
30
0
41
1
10
22.0518810204037
20
13.6564013915392
30
0
41
1
10
22.0874623189638
20
13.6187002502034
30
0
41
1
10
22.1000000000012
20
13.5883191365738
30
0
41
1
10
22.1000000000013
20
13.5570565024907
30
0
0
SPLINE
5
105
100
AcDbEntity
8
1
62
256
6
ByLayer
370
-1
48
1
60
0
100
AcDbSpline
70
4
71
3
72
16
73
12
40
0
40
0
40
0
40
0
40
0.29316826178915
40
0.29316826178915
40
0.586336523578299
40
0.586336523578299
40
0.732920654472876
40
0.732920654472876
40
0.879504785367453
40
0.879504785367453
40
1
40
1
40
1
40
1
41
1
10
22.1
20
7.43658561908086
30
0
41
1
10
22.1
20
7.42103792981464
30
0
41
1
10
22.096982531839
20
7.40596487565418
30
0
41
1
10
22.0848885494936
20
7.37674206220638
30
0
41
1
10
22.075879470275
20
7.36295536676542
30
0
41
1
10
22.0583579908435
20
7.34427292412596
30
0
41
1
10
22.05175287124
20
7.33829353078281
30
0
41
1
10
22.0374897294475
20
7.32729858121428
30
0
41
1
10
22.0298226646735
20
7.32225340046418
30
0
41
1
10
22.0148772385502
20
7.31387391822423
30
0
41
1
10
22.0077461687758
20
7.31039189131391
30
0
41
1
10
22.0002990472092
20
7.30724676766607
30
0
0
SPLINE
5
106
100
AcDbEntity
8
1
62
256
6
ByLayer
370
-1
48
1
60
0
100
AcDbSpline
70
4
71
3
72
10
73
6
40
0
40
0
40
0
40
0
40
0.119999480532689
40
0.119999480532689
40
1
40
1
40
1
40
1
41
1
10
21.1573444016659
20
6.9665425029078
30
0
41
1
10
21.1567598174527
20
6.96523074329866
30
0
41
1
10
21.15620920278
20
6.96391363291986
30
0
41
1
10
21.1519082803289
20
6.95289914248585
30
0
41
1
10
21.15
20
6.94310972134107
30
0
41
1
10
21.15
20
6.93322754719054
30
0
0
SPLINE
5
107
100
AcDbEntity
8
1
62
256
6
ByLayer
370
-1
48
1
60
0
100
AcDbSpline
70
4
71
3
72
14
73
10
40
0
40
0
40
0
40
0
40
0.25
40
0.25
40
0.5
40
0.5
40
0.75
40
0.75
40
1
40
1
40
1
40
1
41
1
10
21.15
20
6.33534963203979
30
0
41
1
10
21.15
20
6.32916730754368
30
0
41
1
10
21.1519329566839
20
6.32319196576049
30
0
41
1
10
21.1595188546194
20
6.31162677736947
30
0
41
1
10
21.1652671039797
20
6.30601165586472
30
0
41
1
10
21.1800002360819
20
6.29572164454527
30
0
41
1
10
21.1891121953942
20
6.29092791655816
30
0
41
1
10
21.2103894997556
20
6.28230620106029
30
0
41
1
10
21.2223559330062
20
6.27853643189698
30
0
41
1
10
21.2356838294253
20
6.27529115488537
30
0
0
SPLINE
5
108
100
AcDbEntity
8
1
62
256
6
ByLayer
370
-1
48
1
60
0
100
AcDbSpline
70
4
71
3
72
10
73
6
40
0
40
0
40
0
40
0
40
0.5
40
0.5
40
1
40
1
40
1
40
1
41
1
10
21.2356838294253
20
6.27529115488537
30
0
41
1
10
21.3487803716811
20
6.24775270492037
30
0
41
1
10
21.4661548552105
20
6.22504899955169
30
0
41
1
10
21.7094093464015
20
6.18703590255816
30
0
41
1
10
21.8352889293792
20
6.1717326662091
30
0
41
1
10
21.9656516492529
20
6.15937792061808
30
0
0
SPLINE
5
109
100
AcDbEntity
8
1
62
256
6
ByLayer
370
-1
48
1
60
0
100
AcDbSpline
70
4
71
3
72
12
73
8
40
0
40
0
40
0
40
0
40
0.250000000000005
40
0.250000000000005
40
0.50000000000001
40
0.50000000000001
40
1
40
1
40
1
40
1
41
1
10
21.9656516492529
20
6.15937792061808
30
0
41
1
10
21.9857179517831
20
6.15747619547034
30
0
41
1
10
22.0040802244862
20
6.15479570734144
30
0
41
1
10
22.0375113283958
20
6.14804608144132
30
0
41
1
10
22.0518810204037
20
6.14410618345735
30
0
41
1
10
22.0874623189638
20
6.13107569215686
30
0
41
1
10
22.1000000000013
20
6.12113146511913
30
0
41
1
10
22.1000000000013
20
6.11169830398057
30
0
0
SPLINE
5
10A
100
AcDbEntity
8
1
62
256
6
ByLayer
370
-1
48
1
60
0
100
AcDbSpline
70
4
71
3
72
28
73
24
40
0
40
0
40
0
40
0
40
0.125000000000001
40
0.125000000000001
40
0.187500000000001
40
0.187500000000001
40
0.250000000000001
40
0.250000000000001
40
0.375000000000001
40
0.375000000000001
40
0.5
40
0.5
40
0.562499999999999
40
0.562499999999999
40
0.624999999999998
40
0.624999999999998
40
0.687499999999998
40
0.687499999999998
40
0.749999999999997
40
0.749999999999997
40
0.874999999999998
40
0.874999999999998
40
1
40
1
40
1
40
1
41
1
10
10
20
-9.99199679743745
30
0
41
1
10
10
20
-9.93145195095252
30
0
41
1
10
9.99584418485441
20
-9.87124686702077
30
0
41
1
10
9.98342871539549
20
-9.78144463560827
30
0
41
1
10
9.97825406260776
20
-9.75159527094308
30
0
41
1
10
9.96576547780023
20
-9.69207144038671
30
0
41
1
10
9.95842509678261
20
-9.66233344384293
30
0
41
1
10
9.93345507137269
20
-9.57479118869276
30
0
41
1
10
9.91283261349784
20
-9.51820806793995
30
0
41
1
10
9.86325308376311
20
-9.408769938787
30
0
41
1
10
9.83431372136306
20
-9.35590700886152
30
0
41
1
10
9.78357327276458
20
-9.27989198618971
30
0
41
1
10
9.76540467844328
20
-9.25510852405532
30
0
41
1
10
9.72717144618807
20
-9.20781887240486
30
0
41
1
10
9.70702236428562
20
-9.18517592807851
30
0
41
1
10
9.66450507937969
20
-9.1420434244861
30
0
41
1
10
9.64213812060225
20
-9.12155265785123
30
0
41
1
10
9.59493107942615
20
-9.08297098795785
30
0
41
1
10
9.56998158528225
20
-9.06483471035187
30
0
41
1
10
9.49293290433062
20
-9.01579980671093
30
0
41
1
10
9.43805899769808
20
-8.98966628308693
30
0
41
1
10
9.32059614631268
20
-8.9534668717229
30
0
41
1
10
9.26083151352097
20
-8.9442719099992
30
0
41
1
10
9.20000000000002
20
-8.9442719099992
30
0
0
SPLINE
5
10B
100
AcDbEntity
8
1
62
256
6
ByLayer
370
-1
48
1
60
0
100
AcDbSpline
70
4
71
3
72
30
73
26
40
0
40
0
40
0
40
0
40
0.0625000000000003
40
0.0625000000000003
40
0.125000000000001
40
0.125000000000001
40
0.187500000000001
40
0.187500000000001
40
0.250000000000001
40
0.250000000000001
40
0.375000000000005
40
0.375000000000005
40
0.500000000000008
40
0.500000000000008
40
0.562500000000008
40
0.562500000000008
40
0.625000000000009
40
0.625000000000009
40
0.750000000000006
40
0.750000000000006
40
0.875000000000003
40
0.875000000000003
40
0.937500000000002
40
0.937500000000002
40
1
40
1
40
1
40
1
41
1
10
9.19999999999993
20
8.94427190999923
30
0
41
1
10
9.23040067046415
20
8.9442719099992
30
0
41
1
10
9.261310172387
20
8.94665510422533
30
0
41
1
10
9.32158988670608
20
8.95595773670229
30
0
41
1
10
9.35112322277789
20
8.96283540709624
30
0
41
1
10
9.40905209269044
20
8.9807672732783
30
0
41
1
10
9.43750814082918
20
8.99185126073863
30
0
41
1
10
9.4930645165247
20
9.01797238657193
30
0
41
1
10
9.51961256442914
20
9.03273489768586
30
0
41
1
10
9.59602201492271
20
9.08149775948448
30
0
41
1
10
9.6426841594209
20
9.11992441269689
30
0
41
1
10
9.72859141751394
20
9.20703948034952
30
0
41
1
10
9.76645490470128
20
9.25434080912265
30
0
41
1
10
9.81675695573833
20
9.32955894295651
30
0
41
1
10
9.83244563787824
20
9.355371329375
30
0
41
1
10
9.86177564100214
20
9.40840003916173
30
0
41
1
10
9.87546452077962
20
9.43572646841798
30
0
41
1
10
9.91316164819619
20
9.51893051535725
30
0
41
1
10
9.93372891357663
20
9.5756773826038
30
0
41
1
10
9.96670984923307
20
9.69145330162178
30
0
41
1
10
9.97911401162315
20
9.75048501464258
30
0
41
1
10
9.99164254212943
20
9.84073373103695
30
0
41
1
10
9.99479467068701
20
9.87115084424664
30
0
41
1
10
9.99896392146297
20
9.93165700875494
30
0
41
1
10
10
20
9.96185441170553
30
0
41
1
10
10
20
9.99199679743742
30
0
0
SPLINE
5
10C
100
AcDbEntity
8
1
62
256
6
ByLayer
370
-1
48
1
60
0
100
AcDbSpline
70
4
71
3
72
31
73
27
40
0
40
0
40
0
40
0
40
0.0624999999999987
40
0.0624999999999987
40
0.124999999999997
40
0.124999999999997
40
0.249999999999997
40
0.249999999999997
40
0.312499999999997
40
0.312499999999997
40
0.374999999999997
40
0.374999999999997
40
0.499999999999997
40
0.499999999999997
40
0.562499999999999
40
0.562499999999999
40
0.625
40
0.625
40
0.750000000000002
40
0.750000000000002
40
0.812500000000001
40
0.812500000000001
40
0.875000000000001
40
0.9375
40
0.9375
40
1
40
1
40
1
40
1
41
1
10
10
20
-13.2759180473518
30
0
41
1
10
10
20
-13.3291197736767
30
0
41
1
10
10.002090485857
20
-13.3824214414454
30
0
41
1
10
10.0103710348564
20
-13.4878268705561
30
0
41
1
10
10.0165587934421
20
-13.5401343777831
30
0
41
1
10
10.0412699521424
20
-13.6958702292434
30
0
41
1
10
10.0658853287317
20
-13.7981226943756
30
0
41
1
10
10.1159684029813
20
-13.9489612345326
30
0
41
1
10
10.1349889123186
20
-13.9990600998591
30
0
41
1
10
10.1769600773066
20
-14.0965276926476
30
0
41
1
10
10.1999265190526
20
-14.1440224617275
30
0
41
1
10
10.2748051018562
20
-14.2827667438055
30
0
41
1
10
10.3326341294601
20
-14.3703152447103
30
0
41
1
10
10.4323837291779
20
-14.4935027075633
30
0
41
1
10
10.4679481280697
20
-14.5333304482653
30
0
41
1
10
10.5431948289848
20
-14.6093445224188
30
0
41
1
10
10.5826391679949
20
-14.6452932333977
30
0
41
1
10
10.7053353058077
20
-14.7459033878553
30
0
41
1
10
10.7933443071124
20
-14.8038679788078
30
0
41
1
10
10.9354642687083
20
-14.875994443416
30
0
41
1
10
10.9845643846175
20
-14.8975003713046
30
0
41
1
10
11.083686529806
20
-14.9342519577552
30
0
41
1
10
11.1843492098185
20
-14.9650868078447
30
0
41
1
10
11.2881100087075
20
-14.9840227041921
30
0
41
1
10
11.3934817570731
20
-14.9967714224275
30
0
41
1
10
11.4470818354902
20
-15.0000000000001
30
0
41
1
10
11.5
20
-15.0000000000001
30
0
0
SPLINE
5
10D
100
AcDbEntity
8
1
62
256
6
ByLayer
370
-1
48
1
60
0
100
AcDbSpline
70
4
71
3
72
30
73
26
40
0
40
0
40
0
40
0
40
0.124999999999997
40
0.124999999999997
40
0.187499999999997
40
0.187499999999997
40
0.249999999999997
40
0.249999999999997
40
0.312499999999996
40
0.312499999999996
40
0.374999999999996
40
0.374999999999996
40
0.499999999999995
40
0.499999999999995
40
0.624999999999995
40
0.624999999999995
40
0.687499999999996
40
0.687499999999996
40
0.749999999999997
40
0.749999999999997
40
0.875
40
0.875
40
0.9375
40
0.9375
40
1
40
1
40
1
40
1
41
1
10
11.5
20
15.0000000000001
30
0
41
1
10
11.3944080696215
20
15.0000000000001
30
0
41
1
10
11.2898916806451
20
14.9875067033934
30
0
41
1
10
11.134741271211
20
14.9499006433667
30
0
41
1
10
11.0837313169805
20
14.9342642168135
30
0
41
1
10
10.9847183004345
20
14.8975617767776
30
0
41
1
10
10.9364525867505
20
14.8764340894591
30
0
41
1
10
10.8423299656535
20
14.8287886430851
30
0
41
1
10
10.7964608945639
20
14.8022623125601
30
0
41
1
10
10.7071876597561
20
14.7438380809023
30
0
41
1
10
10.6645301933992
20
14.7124327320106
30
0
41
1
10
10.5421012136353
20
14.6120736420734
30
0
41
1
10
10.4677295107988
20
14.5369144681579
30
0
41
1
10
10.3334132480209
20
14.3715114754821
30
0
41
1
10
10.2752309615663
20
14.2834943465757
30
0
41
1
10
10.2000604359234
20
14.1443011284475
30
0
41
1
10
10.1770376619129
20
14.0966987829873
30
0
41
1
10
10.1350088018965
20
13.9991153480341
30
0
41
1
10
10.1161027857542
20
13.9493184594937
30
0
41
1
10
10.0661189233024
20
13.7989205231009
30
0
41
1
10
10.0413980556143
20
13.6965899935862
30
0
41
1
10
10.0165552663588
20
13.5401557770953
30
0
41
1
10
10.0103180153782
20
13.4873909961556
30
0
41
1
10
10.002031595961
20
13.3814295473986
30
0
41
1
10
9.99999999999997
20
13.3286007246508
30
0
41
1
10
9.99999999999997
20
13.275918047352
30
0
0
SPLINE
5
10E
100
AcDbEntity
8
1
62
256
6
ByLayer
370
-1
48
1
60
0
100
AcDbSpline
70
4
71
3
72
34
73
30
40
0
40
0
40
0
40
0
40
0.249999999999999
40
0.249999999999999
40
0.374999999999998
40
0.374999999999998
40
0.499999999999997
40
0.499999999999997
40
0.562499999999997
40
0.562499999999997
40
0.624999999999997
40
0.624999999999997
40
0.687499999999998
40
0.687499999999998
40
0.749999999999998
40
0.749999999999998
40
0.812499999999998
40
0.812499999999998
40
0.874999999999998
40
0.874999999999998
40
0.906249999999999
40
0.906249999999999
40
0.937499999999999
40
0.937499999999999
40
0.953124999999999
40
0.953124999999999
40
0.968749999999999
40
0.968749999999999
40
1
40
1
40
1
40
1
41
1
10
20.776533849079
20
17
30
0
41
1
10
20.3121699034354
20
17
30
0
41
1
10
19.8506200606746
20
17.000048130901
30
0
41
1
10
19.1628277586817
20
16.9997692470128
30
0
41
1
10
18.934327866169
20
16.999609906379
30
0
41
1
10
18.4790710778389
20
16.998945667729
30
0
41
1
10
18.2523092829585
20
16.9984450090094
30
0
41
1
10
17.9137886697408
20
16.997142002339
30
0
41
1
10
17.8012207735131
20
16.9966139670188
30
0
41
1
10
17.5767220470894
20
16.9952870224722
30
0
41
1
10
17.4647359824167
20
16.9944875562726
30
0
41
1
10
17.2431494523117
20
16.9925115689537
30
0
41
1
10
17.1333651236861
20
16.9913353368685
30
0
41
1
10
16.916305062948
20
16.98843384297
30
0
41
1
10
16.8086907791068
20
16.9867037227604
30
0
41
1
10
16.5987373220167
20
16.9824556123498
30
0
41
1
10
16.4964060522045
20
16.9799449292335
30
0
41
1
10
16.2990245216293
20
16.9737246669545
30
0
41
1
10
16.2039019673746
20
16.9700299782987
30
0
41
1
10
16.0696783323554
20
16.9629586468564
30
0
41
1
10
16.0263655770314
20
16.960342849502
30
0
41
1
10
15.943646828056
20
16.9543756054517
30
0
41
1
10
15.9048712935375
20
16.9510642079109
30
0
41
1
10
15.8524851677951
20
16.9455026013403
30
0
41
1
10
15.8359548749107
20
16.9435464404456
30
0
41
1
10
15.8050513576404
20
16.9393933283985
30
0
41
1
10
15.7906279781037
20
16.9371874526645
30
0
41
1
10
15.7515261854321
20
16.9302017730807
30
0
41
1
10
15.7312345734242
20
16.9251111181834
30
0
41
1
10
15.7180209545947
20
16.9194731201332
30
0
0
SPLINE
5
10F
100
AcDbEntity
8
1
62
256
6
ByLayer
370
-1
48
1
60
0
100
AcDbSpline
70
4
71
3
72
14
73
10
40
0
40
0
40
0
40
0
40
0.25
40
0.25
40
0.5
40
0.5
40
0.75
40
0.75
40
1
40
1
40
1
40
1
41
1
10
20.865806965357
20
15.0787588293465
30
0
41
1
10
20.8507424770176
20
15.078846302859
30
0
41
1
10
20.8370428600868
20
15.0776779171416
30
0
41
1
10
20.8123954495588
20
15.0730084589242
30
0
41
1
10
20.8015335116089
20
15.0694711017145
30
0
41
1
10
20.7839980722898
20
15.0604982358399
30
0
41
1
10
20.777076153665
20
15.0549227973405
30
0
41
1
10
20.767951421706
20
15.0423596986116
30
0
41
1
10
20.7656265772449
20
15.0353808429642
30
0
41
1
10
20.7656785283658
20
15.0276513387014
30
0
0
SPLINE
5
110
100
AcDbEntity
8
1
62
256
6
ByLayer
370
-1
48
1
60
0
100
AcDbSpline
70
4
71
3
72
24
73
20
40
0
40
0
40
0
40
0
40
0.125000000000004
40
0.125000000000004
40
0.250000000000008
40
0.250000000000008
40
0.375000000000012
40
0.375000000000012
40
0.500000000000016
40
0.500000000000016
40
0.562500000000018
40
0.562500000000018
40
0.62500000000002
40
0.62500000000002
40
0.750000000000013
40
0.750000000000013
40
0.875000000000007
40
0.875000000000007
40
1
40
1
40
1
40
1
41
1
10
18.9999999999999
20
15.2604675849176
30
0
41
1
10
18.9999999999999
20
15.2657265603834
30
0
41
1
10
19.0018262444974
20
15.2702820969931
30
0
41
1
10
19.0097749529848
20
15.2777383382723
30
0
41
1
10
19.0158825244987
20
15.2805792407687
30
0
41
1
10
19.0326820645753
20
15.2840851346571
30
0
41
1
10
19.0435159514351
20
15.2847770344089
30
0
41
1
10
19.0704311522516
20
15.2835063185032
30
0
41
1
10
19.0862745083352
20
15.2815779906973
30
0
41
1
10
19.1143272599661
20
15.2763617532966
30
0
41
1
10
19.1243942199559
20
15.2742269456145
30
0
41
1
10
19.1453850360741
20
15.2692673194767
30
0
41
1
10
19.1563841526185
20
15.2664296376175
30
0
41
1
10
19.1909375322634
20
15.2568110824167
30
0
41
1
10
19.216424693478
20
15.2487772433651
30
0
41
1
10
19.2682028986327
20
15.230781712259
30
0
41
1
10
19.2951809702081
20
15.2205969255626
30
0
41
1
10
19.3481798380516
20
15.1992324739385
30
0
41
1
10
19.3745090076196
20
15.1879439221256
30
0
41
1
10
19.4
20
15.1764547488143
30
0
0
SPLINE
5
111
100
AcDbEntity
8
1
62
256
6
ByLayer
370
-1
48
1
60
0
100
AcDbSpline
70
4
71
3
72
42
73
38
40
0
40
0
40
0
40
0
40
0.0624999999999981
40
0.0624999999999981
40
0.0937499999999973
40
0.0937499999999973
40
0.124999999999997
40
0.124999999999997
40
0.156249999999996
40
0.156249999999996
40
0.187499999999995
40
0.187499999999995
40
0.218749999999994
40
0.218749999999994
40
0.249999999999994
40
0.249999999999994
40
0.281249999999993
40
0.281249999999993
40
0.312499999999992
40
0.312499999999992
40
0.374999999999991
40
0.374999999999991
40
0.437499999999989
40
0.437499999999989
40
0.499999999999988
40
0.499999999999988
40
0.624999999999988
40
0.624999999999988
40
0.687499999999989
40
0.687499999999989
40
0.74999999999999
40
0.74999999999999
40
0.874999999999995
40
0.874999999999995
40
0.937499999999998
40
0.937499999999998
40
1
40
1
40
1
40
1
41
1
10
20.6211219105818
20
14.9384917459969
30
0
41
1
10
20.6397378266295
20
14.9429555830133
30
0
41
1
10
20.6527942873085
20
14.9530261169468
30
0
41
1
10
20.6615220299645
20
14.9780250398948
30
0
41
1
10
20.6625171774441
20
14.9879845726369
30
0
41
1
10
20.6600583961901
20
15.0107285103164
30
0
41
1
10
20.6566363125558
20
15.0235704818909
30
0
41
1
10
20.6444694370884
20
15.0523155336272
30
0
41
1
10
20.6355769077244
20
15.0683604542559
30
0
41
1
10
20.6124010690232
20
15.1018371278468
30
0
41
1
10
20.5980603665947
20
15.1194454743537
30
0
41
1
10
20.5634564118438
20
15.1559428295307
30
0
41
1
10
20.5437962299938
20
15.1741930786206
30
0
41
1
10
20.5001667930998
20
15.2103577751294
30
0
41
1
10
20.4759662823374
20
15.2284105767113
30
0
41
1
10
20.4253616122449
20
15.262818645759
30
0
41
1
10
20.3988451506148
20
15.2793015335626
30
0
41
1
10
20.343829568804
20
15.3109887017638
30
0
41
1
10
20.3151807086723
20
15.3262651216531
30
0
41
1
10
20.2278537945612
20
15.3698604377634
30
0
41
1
10
20.1682793560094
20
15.3958197352233
30
0
41
1
10
20.0473858526016
20
15.4437363912621
30
0
41
1
10
19.9858644950229
20
15.465729731315
30
0
41
1
10
19.8624606252431
20
15.5066343333851
30
0
41
1
10
19.800978418431
20
15.5254207138674
30
0
41
1
10
19.617156593389
20
15.5783785245807
30
0
41
1
10
19.4954278406305
20
15.6092251395335
30
0
41
1
10
19.3143882553664
20
15.6520192583076
30
0
41
1
10
19.2543049814495
20
15.6656761357031
30
0
41
1
10
19.1347762751622
20
15.692075647221
30
0
41
1
10
19.075286955648
20
15.7048247454686
30
0
41
1
10
18.899744122703
20
15.7416714550808
30
0
41
1
10
18.7859220148085
20
15.7645331857815
30
0
41
1
10
18.6227957834143
20
15.7969380459729
30
0
41
1
10
18.5696103182588
20
15.8074360917843
30
0
41
1
10
18.467416620138
20
15.8276533699934
30
0
41
1
10
18.4188873256272
20
15.8372787083671
30
0
41
1
10
18.374437525061
20
15.8462111589216
30
0
0
SPLINE
5
112
100
AcDbEntity
8
1
62
256
6
ByLayer
370
-1
48
1
60
0
100
AcDbSpline
70
4
71
3
72
14
73
10
40
0
40
0
40
0
40
0
40
0.25
40
0.25
40
0.5
40
0.5
40
0.75
40
0.75
40
1
40
1
40
1
40
1
41
1
10
20.7487426298604
20
6.39235424981058
30
0
41
1
10
20.748693580446
20
6.38469829050763
30
0
41
1
10
20.7509639004238
20
6.37730368444267
30
0
41
1
10
20.7600096281165
20
6.3630038153257
30
0
41
1
10
20.7668437499334
20
6.35614437708909
30
0
41
1
10
20.7843657824627
20
6.34367575778847
30
0
41
1
10
20.7953130971726
20
6.33789652707279
30
0
41
1
10
20.8202007648583
20
6.32793274249147
30
0
41
1
10
20.8342592592865
20
6.32365820532542
30
0
41
1
10
20.8497208607199
20
6.32017210678268
30
0
0
SPLINE
5
113
100
AcDbEntity
8
1
62
256
6
ByLayer
370
-1
48
1
60
0
100
AcDbSpline
70
4
71
3
72
14
73
10
40
0
40
0
40
0
40
0
40
0.25
40
0.25
40
0.5
40
0.5
40
0.75
40
0.75
40
1
40
1
40
1
40
1
41
1
10
20.8497208607199
20
6.85327710965043
30
0
41
1
10
20.8342609671251
20
6.84800095364233
30
0
41
1
10
20.8203122424894
20
6.84164452813741
30
0
41
1
10
20.7953353024496
20
6.82690615667732
30
0
41
1
10
20.7844357511925
20
6.81853324604731
30
0
41
1
10
20.7668932671484
20
6.80074572208184
30
0
41
1
10
20.7600290223717
20
6.7910858817086
30
0
41
1
10
20.7509956876365
20
6.77151956597001
30
0
41
1
10
20.74869358616
20
6.76147572127223
30
0
41
1
10
20.7487426298604
20
6.75138811349035
30
0
0
SPLINE
5
114
100
AcDbEntity
8
1
62
256
6
ByLayer
370
-1
48
1
60
0
100
AcDbSpline
70
4
71
3
72
36
73
32
40
0
40
0
40
0
40
0
40
0.249999999999999
40
0.249999999999999
40
0.374999999999999
40
0.374999999999999
40
0.499999999999998
40
0.499999999999998
40
0.624999999999998
40
0.624999999999998
40
0.687499999999997
40
0.687499999999997
40
0.749999999999997
40
0.749999999999997
40
0.781249999999997
40
0.781249999999997
40
0.812499999999998
40
0.812499999999998
40
0.843749999999998
40
0.843749999999998
40
0.874999999999998
40
0.874999999999998
40
0.906249999999998
40
0.906249999999998
40
0.937499999999998
40
0.937499999999998
40
0.968749999999999
40
0.968749999999999
40
0.984374999999999
40
0.984374999999999
40
1
40
1
40
1
40
1
41
1
10
10.0295212912397
20
-15.5912587077326
30
0
41
1
10
10.0388911613624
20
-15.5658016829514
30
0
41
1
10
10.0538661075195
20
-15.5403719817002
30
0
41
1
10
10.0970457457351
20
-15.5023284217721
30
0
41
1
10
10.1149674588491
20
-15.4896644358034
30
0
41
1
10
10.1613527766905
20
-15.464387853301
30
0
41
1
10
10.1897701704116
20
-15.4517750314987
30
0
41
1
10
10.2624842097183
20
-15.4266267958026
30
0
41
1
10
10.3068698861474
20
-15.4140535927083
30
0
41
1
10
10.3912551335592
20
-15.3955538604723
30
0
41
1
10
10.4223917780063
20
-15.3894411941168
30
0
41
1
10
10.4925039235847
20
-15.3773563430967
30
0
41
1
10
10.5314477354627
20
-15.3713835905227
30
0
41
1
10
10.5979760655805
20
-15.3625698493807
30
0
41
1
10
10.6215795973278
20
-15.3596493025713
30
0
41
1
10
10.6717848061158
20
-15.3539064819839
30
0
41
1
10
10.6983508578454
20
-15.3510869144536
30
0
41
1
10
10.7550204788081
20
-15.3455730962929
30
0
41
1
10
10.785118186646
20
-15.3428786380219
30
0
41
1
10
10.8497503386521
20
-15.3376468932936
30
0
41
1
10
10.8844304257033
20
-15.3350991319796
30
0
41
1
10
10.9589205942082
20
-15.3302609686697
30
0
41
1
10
10.9985142946659
20
-15.3279815780363
30
0
41
1
10
11.0838625583447
20
-15.3237892326354
30
0
41
1
10
11.1299782078288
20
-15.3218680772759
30
0
41
1
10
11.2267885209908
20
-15.3186619640589
30
0
41
1
10
11.2777585872646
20
-15.3173567135993
30
0
41
1
10
11.3592537738852
20
-15.3159840315978
30
0
41
1
10
11.3871956102919
20
-15.315628429615
30
0
41
1
10
11.4432033451576
20
-15.315155381236
30
0
41
1
10
11.4714658556879
20
-15.3150342219654
30
0
41
1
10
11.4999999999989
20
-15.3150342219654
30
0
0
SPLINE
5
115
100
AcDbEntity
8
1
62
256
6
ByLayer
370
-1
48
1
60
0
100
AcDbSpline
70
4
71
3
72
26
73
22
40
0
40
0
40
0
40
0
40
0.0625000000000015
40
0.0625000000000015
40
0.125000000000003
40
0.125000000000003
40
0.250000000000005
40
0.250000000000005
40
0.375000000000006
40
0.375000000000006
40
0.437500000000006
40
0.437500000000006
40
0.500000000000005
40
0.500000000000005
40
0.625000000000007
40
0.625000000000007
40
0.687500000000005
40
0.687500000000005
40
0.750000000000003
40
0.750000000000003
40
1
40
1
40
1
40
1
41
1
10
11.5
20
-16.9432998412204
30
0
41
1
10
11.4576969606053
20
-16.9432998412204
30
0
41
1
10
11.4149302016678
20
-16.9414009651389
30
0
41
1
10
11.330468348399
20
-16.9338714908534
30
0
41
1
10
11.288722664585
20
-16.9282663612603
30
0
41
1
10
11.1648909999423
20
-16.9061207271957
30
0
41
1
10
11.0842008131121
20
-16.8842863602925
30
0
41
1
10
10.9265309481485
20
-16.8265446883488
30
0
41
1
10
10.8516044321904
20
-16.7913618552004
30
0
41
1
10
10.7452773953144
20
-16.7303072590888
30
0
41
1
10
10.7108073757047
20
-16.7085503921274
30
0
41
1
10
10.6437744007991
20
-16.6622803151264
30
0
41
1
10
10.611101512648
20
-16.6376658924992
30
0
41
1
10
10.5173311821317
20
-16.5608933099348
30
0
41
1
10
10.4600780312945
20
-16.5056267921045
30
0
41
1
10
10.381382736286
20
-16.41714817705
30
0
41
1
10
10.3563550900882
20
-16.386720285753
30
0
41
1
10
10.3086598778214
20
-16.3240318590732
30
0
41
1
10
10.2860046521147
20
-16.2917641199128
30
0
41
1
10
10.1800326417042
20
-16.1283212353424
30
0
41
1
10
10.1167296967359
20
-15.9891549715972
30
0
41
1
10
10.0726085752138
20
-15.8424748924397
30
0
0
SPLINE
5
116
100
AcDbEntity
8
1
62
256
6
ByLayer
370
-1
48
1
60
0
100
AcDbSpline
70
4
71
3
72
17
73
13
40
0
40
0
40
0
40
0
40
0.249999999999996
40
0.249999999999996
40
0.374999999999993
40
0.374999999999993
40
0.499999999999991
40
0.624999999999988
40
0.624999999999988
40
0.749999999999985
40
0.749999999999985
40
1
40
1
40
1
40
1
41
1
10
10.0276427849996
20
-15.6252558668324
30
0
41
1
10
10.0274859194868
20
-15.6292299796098
30
0
41
1
10
10.0281401565307
20
-15.6372254037896
30
0
41
1
10
10.0304280576274
20
-15.6550434393111
30
0
41
1
10
10.0314242257237
20
-15.6620270162821
30
0
41
1
10
10.0338898110803
20
-15.6776897185013
30
0
41
1
10
10.0368216025478
20
-15.6950209513957
30
0
41
1
10
10.0408150755444
20
-15.7155768273625
30
0
41
1
10
10.0454432442882
20
-15.737758611818
30
0
41
1
10
10.0480787898695
20
-15.7496652755498
30
0
41
1
10
10.0568592514072
20
-15.7867591829879
30
0
41
1
10
10.0639278858949
20
-15.8136160567504
30
0
41
1
10
10.0726085752134
20
-15.8424748924384
30
0
0
SPLINE
5
117
100
AcDbEntity
8
1
62
256
6
ByLayer
370
-1
48
1
60
0
100
AcDbSpline
70
4
71
3
72
8
73
4
40
0
40
0
40
0
40
0
40
1
40
1
40
1
40
1
41
1
10
10.0276427849996
20
-15.6252558668324
30
0
41
1
10
10.0280900997685
20
-15.6139233610063
30
0
41
1
10
10.0287105758263
20
-15.6025909291082
30
0
41
1
10
10.0295212912393
20
-15.5912587077322
30
0
0
SPLINE
5
118
100
AcDbEntity
8
1
62
256
6
ByLayer
370
-1
48
1
60
0
100
AcDbSpline
70
4
71
3
72
28
73
24
40
0
40
0
40
0
40
0
40
0.125000000000002
40
0.125000000000002
40
0.250000000000003
40
0.250000000000003
40
0.375000000000005
40
0.375000000000005
40
0.500000000000007
40
0.500000000000007
40
0.562500000000007
40
0.562500000000007
40
0.625000000000007
40
0.625000000000007
40
0.750000000000005
40
0.750000000000005
40
0.875000000000003
40
0.875000000000003
40
0.9375
40
0.9375
40
0.96875
40
0.96875
40
1
40
1
40
1
40
1
41
1
10
5.80000000000001
20
-8.94427190999915
30
0
41
1
10
5.74469879213419
20
-8.94427190999915
30
0
41
1
10
5.69047669537389
20
-8.94680952230928
30
0
41
1
10
5.5840786829549
20
-8.95668635936701
30
0
41
1
10
5.53140533790676
20
-8.96416388746073
30
0
41
1
10
5.43263869211549
20
-8.98323367256234
30
0
41
1
10
5.38607087373956
20
-8.99482160896198
30
0
41
1
10
5.29843678105388
20
-9.02196972492479
30
0
41
1
10
5.25843318403099
20
-9.03722312061944
30
0
41
1
10
5.20445399029543
20
-9.06210477702481
30
0
41
1
10
5.1874262480234
20
-9.07074986442763
30
0
41
1
10
5.15529432751978
20
-9.08873478456053
30
0
41
1
10
5.14020658576644
20
-9.09807669864759
30
0
41
1
10
5.09863937533393
20
-9.12657740728386
30
0
41
1
10
5.07549149516117
20
-9.14638152582597
30
0
41
1
10
5.03797220834386
20
-9.18750609323328
30
0
41
1
10
5.023664768234
20
-9.20889469760127
30
0
41
1
10
5.00949618758446
20
-9.24102497407787
30
0
41
1
10
5.00594811949188
20
-9.25178688919894
30
0
41
1
10
5.00238613527259
20
-9.26800669519977
30
0
41
1
10
5.00149264707878
20
-9.27342614743543
30
0
41
1
10
5.00029894434155
20
-9.28429095830214
30
0
41
1
10
5
20
-9.28977501611004
30
0
41
1
10
5
20
-9.29516003089779
30
0
0
SPLINE
5
119
100
AcDbEntity
8
1
62
256
6
ByLayer
370
-1
48
1
60
0
100
AcDbSpline
70
4
71
3
72
28
73
24
40
0
40
0
40
0
40
0
40
0.0624999999999998
40
0.0624999999999998
40
0.125
40
0.125
40
0.250000000000001
40
0.250000000000001
40
0.312500000000001
40
0.312500000000001
40
0.375
40
0.375
40
0.5
40
0.5
40
0.5625
40
0.5625
40
0.625
40
0.625
40
0.75
40
0.75
40
0.875
40
0.875
40
1
40
1
40
1
40
1
41
1
10
5.00000000000003
20
-10.3923048454132
30
0
41
1
10
5.00000000000003
20
-10.4524166294347
30
0
41
1
10
4.99836909296184
20
-10.5126087914522
30
0
41
1
10
4.9918044397659
20
-10.632154592404
30
0
41
1
10
4.98687206052196
20
-10.6916508271217
30
0
41
1
10
4.96698624583203
20
-10.869286308396
30
0
41
1
10
4.94698447142534
20
-10.9865790955806
30
0
41
1
10
4.90568607553459
20
-11.1606243107942
30
0
41
1
10
4.89002831465948
20
-11.218322211472
30
0
41
1
10
4.8545886385713
20
-11.3330265122928
30
0
41
1
10
4.83472827500941
20
-11.3902040736534
30
0
41
1
10
4.76927187209927
20
-11.5581305486582
30
0
41
1
10
4.71772726915245
20
-11.665939699426
30
0
41
1
10
4.62656423377953
20
-11.8204005674987
30
0
41
1
10
4.59385440281829
20
-11.8706711373278
30
0
41
1
10
4.52319162982951
20
-11.9684658389677
30
0
41
1
10
4.485374067614
20
-12.0157447916886
30
0
41
1
10
4.36568588293315
20
-12.1500177177361
30
0
41
1
10
4.27709572841403
20
-12.23048260297
30
0
41
1
10
4.07775660642776
20
-12.3686179453463
30
0
41
1
10
3.97053723881035
20
-12.4237368326628
30
0
41
1
10
3.73995906986355
20
-12.5002196213254
30
0
41
1
10
3.6216139954293
20
-12.5199840255489
30
0
41
1
10
3.50000000000003
20
-12.5199840255489
30
0
0
SPLINE
5
11A
100
AcDbEntity
8
1
62
256
6
ByLayer
370
-1
48
1
60
0
100
AcDbSpline
70
4
71
3
72
34
73
30
40
0
40
0
40
0
40
0
40
0.0625000000000002
40
0.0625000000000002
40
0.125000000000001
40
0.125000000000001
40
0.187500000000001
40
0.187500000000001
40
0.250000000000002
40
0.250000000000002
40
0.281250000000002
40
0.281250000000002
40
0.312500000000003
40
0.312500000000003
40
0.375000000000003
40
0.375000000000003
40
0.437500000000004
40
0.437500000000004
40
0.500000000000004
40
0.500000000000004
40
0.625000000000004
40
0.625000000000004
40
0.750000000000004
40
0.750000000000004
40
0.812500000000004
40
0.812500000000004
40
0.875000000000003
40
0.875000000000003
40
1
40
1
40
1
40
1
41
1
10
3.50000000000043
20
12.5199840255493
30
0
41
1
10
3.56005094885543
20
12.5199840255493
30
0
41
1
10
3.62108962427269
20
12.5149644142264
30
0
41
1
10
3.73993824205516
20
12.4953912127159
30
0
41
1
10
3.79815023662681
20
12.4809155491405
30
0
41
1
10
3.91227341435072
20
12.4430650040988
30
0
41
1
10
3.96857605656166
20
12.419456168596
30
0
41
1
10
4.07624583797943
20
12.3648817570609
30
0
41
1
10
4.12777733366605
20
12.3339420315596
30
0
41
1
10
4.20194336618772
20
12.2825672463317
30
0
41
1
10
4.22614158943117
20
12.2646117419611
30
0
41
1
10
4.27352492100928
20
12.2270942253647
30
0
41
1
10
4.29676593360639
20
12.2074767718025
30
0
41
1
10
4.36423636878482
20
12.1469924954507
30
0
41
1
10
4.4064442520845
20
12.1043514546304
30
0
41
1
10
4.48598831782314
20
12.0149958265876
30
0
41
1
10
4.52332079051988
20
11.968278137408
30
0
41
1
10
4.5935354026964
20
11.8711215455788
30
0
41
1
10
4.62648704532492
20
11.8205586009436
30
0
41
1
10
4.71859710114873
20
11.6644110921075
30
0
41
1
10
4.76998681784383
20
11.5564257239983
30
0
41
1
10
4.85652573027076
20
11.3341529557504
30
0
41
1
10
4.89162870721256
20
11.2198476207009
30
0
41
1
10
4.93332866081155
20
11.0441387887059
30
0
41
1
10
4.94534753753013
20
10.9849809231855
30
0
41
1
10
4.96561988907214
20
10.8668789846997
30
0
41
1
10
4.97392046285742
20
10.8077428799132
30
0
41
1
10
4.99367111322772
20
10.6300956579741
30
0
41
1
10
4.99999999999997
20
10.5113470191355
30
0
41
1
10
4.99999999999997
20
10.3923048454132
30
0
0
SPLINE
5
11B
100
AcDbEntity
8
SK1
62
256
6
ByLayer
370
-1
48
1
60
0
100
AcDbSpline
70
4
71
3
72
20
73
16
40
0
40
0
40
0
40
0
40
0.125065671048841
40
0.125065671048841
40
0.250131342097682
40
0.250131342097682
40
0.500262684195362
40
0.500262684195362
40
0.750394026293043
40
0.750394026293043
40
0.875459697341882
40
0.875459697341882
40
0.937992532866302
40
0.937992532866302
40
1
40
1
40
1
40
1
41
1
10
-37
20
7.39999999999995
30
0
41
1
10
-37.0462290133417
20
7.39999999999995
30
0
41
1
10
-37.0905686226932
20
7.39999999999995
30
0
41
1
10
-37.1742983186543
20
7.39999999999995
30
0
41
1
10
-37.2137677339873
20
7.39999999999995
30
0
41
1
10
-37.3244668189669
20
7.39999999999995
30
0
41
1
10
-37.3879856935272
20
7.39999999999995
30
0
41
1
10
-37.4916454220977
20
7.39999999999995
30
0
41
1
10
-37.5317774023735
20
7.39999999999995
30
0
41
1
10
-37.5724378952621
20
7.39999999999995
30
0
41
1
10
-37.5827372479532
20
7.39999999999995
30
0
41
1
10
-37.5930849349654
20
7.39999999999995
30
0
41
1
10
-37.5956843913952
20
7.39999999999995
30
0
41
1
10
-37.5991245740553
20
7.39999999999995
30
0
41
1
10
-37.5999818997618
20
7.40000000000001
30
0
41
1
10
-37.5999980000009
20
7.39999999999998
30
0
0
SPLINE
5
11C
100
AcDbEntity
8
1
62
256
6
ByLayer
370
-1
48
1
60
0
100
AcDbSpline
70
4
71
3
72
29
73
25
40
0
40
0
40
0
40
0
40
0.0312500000000015
40
0.0312500000000015
40
0.062500000000003
40
0.125000000000005
40
0.125000000000005
40
0.250000000000008
40
0.250000000000008
40
0.375000000000011
40
0.375000000000011
40
0.43750000000001
40
0.43750000000001
40
0.500000000000009
40
0.500000000000009
40
0.625000000000008
40
0.625000000000008
40
0.687500000000007
40
0.687500000000007
40
0.750000000000006
40
0.750000000000006
40
0.875000000000003
40
0.875000000000003
40
1
40
1
40
1
40
1
41
1
10
4.99999999999997
20
9.29516003089779
30
0
41
1
10
4.99999999999997
20
9.28977437390176
30
0
41
1
10
5.00029965003435
20
9.28428054746348
30
0
41
1
10
5.0014945750107
20
9.27341259642188
30
0
41
1
10
5.00417713828097
20
9.2571604923061
30
0
41
1
10
5.00948788724628
20
9.24105556663974
30
0
41
1
10
5.02358948367254
20
9.20904199644175
30
0
41
1
10
5.03764024103484
20
9.18791091708718
30
0
41
1
10
5.07541943819669
20
9.14641998481264
30
0
41
1
10
5.09863500017482
20
9.1265993329618
30
0
41
1
10
5.13991086089109
20
9.09827010260864
30
0
41
1
10
5.15475210655276
20
9.08906227049874
30
0
41
1
10
5.18668681664192
20
9.07114068983773
30
0
41
1
10
5.20387962226354
20
9.06238218080807
30
0
41
1
10
5.25832557066232
20
9.0372478587613
30
0
41
1
10
5.29805737214471
20
9.0221297174817
30
0
41
1
10
5.36289076645861
20
9.00198204276276
30
0
41
1
10
5.38538055204612
20
8.99569063200451
30
0
41
1
10
5.43221378379553
20
8.98400864057325
30
0
41
1
10
5.45666293985289
20
8.97860542532885
30
0
41
1
10
5.53101615974498
20
8.96421871428416
30
0
41
1
10
5.58244215382237
20
8.9568865971803
30
0
41
1
10
5.6891074585381
20
8.94688964965707
30
0
41
1
10
5.74458289504148
20
8.94427190999892
30
0
41
1
10
5.79999999999996
20
8.94427190999892
30
0
0
LINE
5
46
100
AcDbEntity
8
2
62
256
6
ByLayer
370
-1
48
1
60
0
100
AcDbLine
10
61.882135
20
16.319532
30
0
11
62.718128
21
16.319532
31
0
39
0
210
0
220
0
230
1
0
LINE
5
48
100
AcDbEntity
8
2
62
256
6
ByLayer
370
-1
48
1
60
0
100
AcDbLine
10
62.300131
20
19.494532
30
0
11
62.300131
21
-26.571913
31
0
39
0
210
0
220
0
230
1
0
LINE
5
49
100
AcDbEntity
8
2
62
256
6
ByLayer
370
-1
48
1
60
0
100
AcDbLine
10
62.222786
20
18.319532
30
0
11
62.091133
21
16.319532
31
0
39
0
210
0
220
0
230
1
0
LINE
5
4A
100
AcDbEntity
8
2
62
256
6
ByLayer
370
-1
48
1
60
0
100
AcDbLine
10
62.300131
20
19.494532
30
0
11
61.882135
21
16.319532
31
0
39
0
210
0
220
0
230
1
0
LINE
5
4B
100
AcDbEntity
8
2
62
256
6
ByLayer
370
-1
48
1
60
0
100
AcDbLine
10
62.300131
20
19.494532
30
0
11
62.718128
21
16.319532
31
0
39
0
210
0
220
0
230
1
0
LINE
5
4C
100
AcDbEntity
8
2
62
256
6
ByLayer
370
-1
48
1
60
0
100
AcDbLine
10
62.377477
20
18.319532
30
0
11
62.50913
21
16.319532
31
0
39
0
210
0
220
0
230
1
0
LINE
5
4D
100
AcDbEntity
8
2
62
256
6
ByLayer
370
-1
48
1
60
0
100
AcDbLine
10
61.882135
20
16.319532
30
0
11
62.718128
21
16.319532
31
0
39
0
210
0
220
0
230
1
0
LINE
5
4E
100
AcDbEntity
8
2
62
256
6
ByLayer
370
-1
48
1
60
0
100
AcDbLine
10
62.222786
20
18.319532
30
0
11
62.091133
21
16.319532
31
0
39
0
210
0
220
0
230
1
0
LINE
5
4F
100
AcDbEntity
8
2
62
256
6
ByLayer
370
-1
48
1
60
0
100
AcDbLine
10
62.300131
20
19.494532
30
0
11
61.882135
21
16.319532
31
0
39
0
210
0
220
0
230
1
0
LINE
5
50
100
AcDbEntity
8
2
62
256
6
ByLayer
370
-1
48
1
60
0
100
AcDbLine
10
62.300131
20
19.494532
30
0
11
62.718128
21
16.319532
31
0
39
0
210
0
220
0
230
1
0
LINE
5
51
100
AcDbEntity
8
2
62
256
6
ByLayer
370
-1
48
1
60
0
100
AcDbLine
10
62.377477
20
18.319532
30
0
11
62.50913
21
16.319532
31
0
39
0
210
0
220
0
230
1
0
LINE
5
52
100
AcDbEntity
8
2
62
256
6
ByLayer
370
-1
48
1
60
0
100
AcDbLine
10
34.300131
20
19.494532
30
0
11
64.300131
21
19.494532
31
0
39
0
210
0
220
0
230
1
0
LINE
5
53
100
AcDbEntity
8
80
62
256
6
ByLayer
370
-1
48
1
60
0
100
AcDbLine
10
0
20
0
30
0
11
-2.5
21
0
31
0
39
0
210
0
220
0
230
1
0
LINE
5
54
100
AcDbEntity
8
81
62
256
6
ByLayer
370
-1
48
1
60
0
100
AcDbLine
10
32.300131
20
19.494532
30
0
11
39.733166
21
19.494532
31
0
39
0
210
0
220
0
230
1
0
LINE
5
55
100
AcDbEntity
8
SK1
62
256
6
ByLayer
370
-1
48
1
60
0
100
AcDbLine
10
-0.275
20
7.75
30
0
11
-1.114326
21
7.75
31
0
39
0
210
0
220
0
230
1
0
LINE
5
57
100
AcDbEntity
8
1
62
256
6
ByLayer
370
-1
48
1
60
0
100
AcDbLine
10
19.4
20
5.95
30
0
11
22
21
5.95
31
0
39
0
210
0
220
0
230
1
0
LINE
5
59
100
AcDbEntity
8
1
62
256
6
ByLayer
370
-1
48
1
60
0
100
AcDbLine
10
11.5
20
-17
30
0
11
14.2
21
-17
31
0
39
0
210
0
220
0
230
1
0
LINE
5
5A
100
AcDbEntity
8
1
62
256
6
ByLayer
370
-1
48
1
60
0
100
AcDbLine
10
11.463232
20
-15.437472
30
0
11
11.502442
21
-15.476554
31
0
39
0
210
0
220
0
230
1
0
LINE
5
5B
100
AcDbEntity
8
1
62
256
6
ByLayer
370
-1
48
1
60
0
100
AcDbLine
10
14.497558
20
-15.476554
30
0
11
14.536768
21
-15.437472
31
0
39
0
210
0
220
0
230
1
0
LINE
5
5C
100
AcDbEntity
8
1
62
256
6
ByLayer
370
-1
48
1
60
0
100
AcDbLine
10
26.949999
20
8.276846
30
0
11
27
21
8.575638
31
0
39
0
210
0
220
0
230
1
0
LINE
5
5D
100
AcDbEntity
8
1
62
256
6
ByLayer
370
-1
48
1
60
0
100
AcDbLine
10
27
20
12.424362
30
0
11
26.949999
21
12.723154
31
0
39
0
210
0
220
0
230
1
0
LINE
5
5E
100
AcDbEntity
8
1
62
256
6
ByLayer
370
-1
48
1
60
0
100
AcDbLine
10
0
20
-17
30
0
11
3.5
21
-17
31
0
39
0
210
0
220
0
230
1
0
LINE
5
5F
100
AcDbEntity
8
1
62
256
6
ByLayer
370
-1
48
1
60
0
100
AcDbLine
10
3.5
20
17
30
0
11
0
21
17
31
0
39
0
210
0
220
0
230
1
0
LINE
5
60
100
AcDbEntity
8
1
62
256
6
ByLayer
370
-1
48
1
60
0
100
AcDbLine
10
5.8
20
-12
30
0
11
9.2
21
-12
31
0
39
0
210
0
220
0
230
1
0
LINE
5
61
100
AcDbEntity
8
1
62
256
6
ByLayer
370
-1
48
1
60
0
100
AcDbLine
10
9.2
20
12
30
0
11
5.8
21
12
31
0
39
0
210
0
220
0
230
1
0
LINE
5
62
100
AcDbEntity
8
SK1
62
256
6
ByLayer
370
-1
48
1
60
0
100
AcDbLine
10
-2.1
20
8
30
0
11
-3.4
21
8
31
0
39
0
210
0
220
0
230
1
0
LINE
5
63
100
AcDbEntity
8
SK1
62
256
6
ByLayer
370
-1
48
1
60
0
100
AcDbLine
10
-37
20
-8
30
0
11
-2.1
21
-8
31
0
39
0
210
0
220
0
230
1
0
LINE
5
64
100
AcDbEntity
8
SK1
62
256
6
ByLayer
370
-1
48
1
60
0
100
AcDbLine
10
-37.6
20
7.4
30
0
11
-38
21
7
31
0
39
0
210
0
220
0
230
1
0
LINE
5
65
100
AcDbEntity
8
SK1
62
256
6
ByLayer
370
-1
48
1
60
0
100
AcDbLine
10
-38
20
-7
30
0
11
-37
21
-8
31
0
39
0
210
0
220
0
230
1
0
LINE
5
66
100
AcDbEntity
8
SK1
62
256
6
ByLayer
370
-1
48
1
60
0
100
AcDbLine
10
-2.1
20
-8
30
0
11
-1.217854
21
-7.76363
31
0
39
0
210
0
220
0
230
1
0
LINE
5
67
100
AcDbEntity
8
SK1
62
256
6
ByLayer
370
-1
48
1
60
0
100
AcDbLine
10
-2.1
20
-8
30
0
11
-2.1
21
8
31
0
39
0
210
0
220
0
230
1
0
LINE
5
68
100
AcDbEntity
8
SK1
62
256
6
ByLayer
370
-1
48
1
60
0
100
AcDbLine
10
-1.217854
20
7.76363
30
0
11
-2.1
21
8
31
0
39
0
210
0
220
0
230
1
0
LINE
5
69
100
AcDbEntity
8
1
62
256
6
ByLayer
370
-1
48
1
60
0
100
AcDbLine
10
20.776534
20
17
30
0
11
11.5
21
17
31
0
39
0
210
0
220
0
230
1
0
LINE
5
6A
100
AcDbEntity
8
SK1
62
256
6
ByLayer
370
-1
48
1
60
0
100
AcDbLine
10
-1.114326
20
-7.75
30
0
11
-0.275
21
-7.75
31
0
39
0
210
0
220
0
230
1
0
LINE
5
6B
100
AcDbEntity
8
1
62
256
6
ByLayer
370
-1
48
1
60
0
100
AcDbLine
10
13.972903
20
-15.507096
30
0
11
12.947847
21
-15.537365
31
0
39
0
210
0
220
0
230
1
0
LINE
5
6C
100
AcDbEntity
8
1
62
256
6
ByLayer
370
-1
48
1
60
0
100
AcDbLine
10
13.972903
20
-15.439495
30
0
11
13.972903
21
-15.507096
31
0
39
0
210
0
220
0
230
1
0
LINE
5
6D
100
AcDbEntity
8
1
62
256
6
ByLayer
370
-1
48
1
60
0
100
AcDbLine
10
12.027097
20
-15.436269
30
0
11
13.052153
21
-15.406
31
0
39
0
210
0
220
0
230
1
0
LINE
5
6E
100
AcDbEntity
8
1
62
256
6
ByLayer
370
-1
48
1
60
0
100
AcDbLine
10
11.974944
20
-15.501952
30
0
11
12.027097
21
-15.436269
31
0
39
0
210
0
220
0
230
1
0
LINE
5
6F
100
AcDbEntity
8
1
62
256
6
ByLayer
370
-1
48
1
60
0
100
AcDbLine
10
14.025056
20
-15.441413
30
0
11
13.972903
21
-15.507096
31
0
39
0
210
0
220
0
230
1
0
LINE
5
70
100
AcDbEntity
8
1
62
256
6
ByLayer
370
-1
48
1
60
0
100
AcDbLine
10
12.947847
20
-15.409066
30
0
11
12.947847
21
-15.537365
31
0
39
0
210
0
220
0
230
1
0
LINE
5
71
100
AcDbEntity
8
1
62
256
6
ByLayer
370
-1
48
1
60
0
100
AcDbLine
10
12.947847
20
-15.537365
30
0
11
11.974944
21
-15.501952
31
0
39
0
210
0
220
0
230
1
0
LINE
5
72
100
AcDbEntity
8
1
62
256
6
ByLayer
370
-1
48
1
60
0
100
AcDbLine
10
13.052153
20
-15.406
30
0
11
14.025056
21
-15.441413
31
0
39
0
210
0
220
0
230
1
0
LINE
5
73
100
AcDbEntity
8
1
62
256
6
ByLayer
370
-1
48
1
60
0
100
AcDbLine
10
27
20
8.575638
30
0
11
27
21
12.424362
31
0
39
0
210
0
220
0
230
1
0
LINE
5
74
100
AcDbEntity
8
1
62
256
6
ByLayer
370
-1
48
1
60
0
100
AcDbLine
10
26.95
20
6
30
0
11
22.1
21
6
31
0
39
0
210
0
220
0
230
1
0
LINE
5
75
100
AcDbEntity
8
1
62
256
6
ByLayer
370
-1
48
1
60
0
100
AcDbLine
10
22.1
20
6
30
0
11
22.1
21
6.111698
31
0
39
0
210
0
220
0
230
1
0
LINE
5
76
100
AcDbEntity
8
1
62
256
6
ByLayer
370
-1
48
1
60
0
100
AcDbLine
10
22.1
20
19.150914
30
0
11
28.676533
21
19.380572
31
0
39
0
210
0
220
0
230
1
0
LINE
5
77
100
AcDbEntity
8
1
62
256
6
ByLayer
370
-1
48
1
60
0
100
AcDbLine
10
26.95
20
14.471122
30
0
11
26.95
21
15.47209
31
0
39
0
210
0
220
0
230
1
0
LINE
5
78
100
AcDbEntity
8
1
62
256
6
ByLayer
370
-1
48
1
60
0
100
AcDbLine
10
26.95
20
15.47209
30
0
11
22.1
21
15.47209
31
0
39
0
210
0
220
0
230
1
0
LINE
5
79
100
AcDbEntity
8
1
62
256
6
ByLayer
370
-1
48
1
60
0
100
AcDbLine
10
21.472444
20
14.471122
30
0
11
26.95
21
14.471122
31
0
39
0
210
0
220
0
230
1
0
LINE
5
7A
100
AcDbEntity
8
1
62
256
6
ByLayer
370
-1
48
1
60
0
100
AcDbLine
10
22.1
20
16.177866
30
0
11
26.95
21
16.177866
31
0
39
0
210
0
220
0
230
1
0
LINE
5
7B
100
AcDbEntity
8
1
62
256
6
ByLayer
370
-1
48
1
60
0
100
AcDbLine
10
26.95
20
16.177866
30
0
11
26.95
21
17.609879
31
0
39
0
210
0
220
0
230
1
0
LINE
5
7C
100
AcDbEntity
8
1
62
256
6
ByLayer
370
-1
48
1
60
0
100
AcDbLine
10
26.95
20
17.609879
30
0
11
28.676533
21
17.549587
31
0
39
0
210
0
220
0
230
1
0
LINE
5
7D
100
AcDbEntity
8
1
62
256
6
ByLayer
370
-1
48
1
60
0
100
AcDbLine
10
22.1
20
15.439393
30
0
11
22.1
21
15.47209
31
0
39
0
210
0
220
0
230
1
0
LINE
5
7E
100
AcDbEntity
8
1
62
256
6
ByLayer
370
-1
48
1
60
0
100
AcDbLine
10
22.1
20
15.47209
30
0
11
22.1
21
16.177866
31
0
39
0
210
0
220
0
230
1
0
LINE
5
7F
100
AcDbEntity
8
1
62
256
6
ByLayer
370
-1
48
1
60
0
100
AcDbLine
10
22.1
20
16.177866
30
0
11
22.1
21
19.150914
31
0
39
0
210
0
220
0
230
1
0
LINE
5
80
100
AcDbEntity
8
1
62
256
6
ByLayer
370
-1
48
1
60
0
100
AcDbLine
10
28.676533
20
19.380572
30
0
11
28.676533
21
17.549587
31
0
39
0
210
0
220
0
230
1
0
LINE
5
81
100
AcDbEntity
8
1
62
256
6
ByLayer
370
-1
48
1
60
0
100
AcDbLine
10
21.15
20
14.624834
30
0
11
21.15
21
14.90358
31
0
39
0
210
0
220
0
230
1
0
LINE
5
82
100
AcDbEntity
8
1
62
256
6
ByLayer
370
-1
48
1
60
0
100
AcDbLine
10
21.15
20
6.933228
30
0
11
21.15
21
6.958652
31
0
39
0
210
0
220
0
230
1
0
LINE
5
83
100
AcDbEntity
8
1
62
256
6
ByLayer
370
-1
48
1
60
0
100
AcDbLine
10
26.95
20
16.177866
30
0
11
26.95
21
15.47209
31
0
39
0
210
0
220
0
230
1
0
LINE
5
84
100
AcDbEntity
8
1
62
256
6
ByLayer
370
-1
48
1
60
0
100
AcDbLine
10
26.95
20
14.471122
30
0
11
26.95
21
14.052632
31
0
39
0
210
0
220
0
230
1
0
LINE
5
85
100
AcDbEntity
8
1
62
256
6
ByLayer
370
-1
48
1
60
0
100
AcDbLine
10
26.95
20
6
30
0
11
26.95
21
14.052632
31
0
39
0
210
0
220
0
230
1
0
LINE
5
86
100
AcDbEntity
8
1
62
256
6
ByLayer
370
-1
48
1
60
0
100
AcDbLine
10
22.1
20
7.436586
30
0
11
22.1
21
13.557057
31
0
39
0
210
0
220
0
230
1
0
LINE
5
87
100
AcDbEntity
8
1
62
256
6
ByLayer
370
-1
48
1
60
0
100
AcDbLine
10
26.95
20
14.052632
30
0
11
22.000077
21
14.052632
31
0
39
0
210
0
220
0
230
1
0
LINE
5
88
100
AcDbEntity
8
1
62
256
6
ByLayer
370
-1
48
1
60
0
100
AcDbLine
10
32.3
20
19.301135
30
0
11
32.3
21
17.629024
31
0
39
0
210
0
220
0
230
1
0
LINE
5
89
100
AcDbEntity
8
1
62
256
6
ByLayer
370
-1
48
1
60
0
100
AcDbLine
10
21.15
20
6.933228
30
0
11
21.15
21
6.33535
31
0
39
0
210
0
220
0
230
1
0
LINE
5
8A
100
AcDbEntity
8
1
62
256
6
ByLayer
370
-1
48
1
60
0
100
AcDbLine
10
17.632005
20
0
30
0
11
18.594214
21
0
31
0
39
0
210
0
220
0
230
1
0
LINE
5
8B
100
AcDbEntity
8
1
62
256
6
ByLayer
370
-1
48
1
60
0
100
AcDbLine
10
17.872547
20
-1
30
0
11
17.631992
21
0
31
0
39
0
210
0
220
0
230
1
0
LINE
5
8C
100
AcDbEntity
8
1
62
256
6
ByLayer
370
-1
48
1
60
0
100
AcDbLine
10
18.353659
20
-1
30
0
11
17.872547
21
-1
31
0
39
0
210
0
220
0
230
1
0
LINE
5
8D
100
AcDbEntity
8
1
62
256
6
ByLayer
370
-1
48
1
60
0
100
AcDbLine
10
18.594214
20
0
30
0
11
18.353659
21
-1
31
0
39
0
210
0
220
0
230
1
0
LINE
5
8E
100
AcDbEntity
8
1
62
256
6
ByLayer
370
-1
48
1
60
0
100
AcDbLine
10
18.353659
20
1
30
0
11
18.594214
21
0
31
0
39
0
210
0
220
0
230
1
0
LINE
5
8F
100
AcDbEntity
8
1
62
256
6
ByLayer
370
-1
48
1
60
0
100
AcDbLine
10
17.872547
20
1
30
0
11
18.353659
21
1
31
0
39
0
210
0
220
0
230
1
0
LINE
5
90
100
AcDbEntity
8
1
62
256
6
ByLayer
370
-1
48
1
60
0
100
AcDbLine
10
17.631992
20
0
30
0
11
17.872547
21
1
31
0
39
0
210
0
220
0
230
1
0
LINE
5
91
100
AcDbEntity
8
1
62
256
6
ByLayer
370
-1
48
1
60
0
100
AcDbLine
10
10
20
-9.991997
30
0
11
10
21
-13.275918
31
0
39
0
210
0
220
0
230
1
0
LINE
5
92
100
AcDbEntity
8
1
62
256
6
ByLayer
370
-1
48
1
60
0
100
AcDbLine
10
16.583507
20
-15
30
0
11
11.5
21
-15
31
0
39
0
210
0
220
0
230
1
0
LINE
5
93
100
AcDbEntity
8
1
62
256
6
ByLayer
370
-1
48
1
60
0
100
AcDbLine
10
10
20
13.275918
30
0
11
10
21
9.991997
31
0
39
0
210
0
220
0
230
1
0
LINE
5
94
100
AcDbEntity
8
1
62
256
6
ByLayer
370
-1
48
1
60
0
100
AcDbLine
10
16.583507
20
-15
30
0
11
17.239293
21
-14.44973
31
0
39
0
210
0
220
0
230
1
0
LINE
5
95
100
AcDbEntity
8
1
62
256
6
ByLayer
370
-1
48
1
60
0
100
AcDbLine
10
11.5
20
15
30
0
11
17.239293
21
15
31
0
39
0
210
0
220
0
230
1
0
LINE
5
96
100
AcDbEntity
8
1
62
256
6
ByLayer
370
-1
48
1
60
0
100
AcDbLine
10
17.239293
20
-14.44973
30
0
11
17.239293
21
15
31
0
39
0
210
0
220
0
230
1
0
LINE
5
97
100
AcDbEntity
8
1
62
256
6
ByLayer
370
-1
48
1
60
0
100
AcDbLine
10
22
20
17
30
0
11
20.776534
21
17
31
0
39
0
210
0
220
0
230
1
0
LINE
5
98
100
AcDbEntity
8
1
62
256
6
ByLayer
370
-1
48
1
60
0
100
AcDbLine
10
22
20
16.505688
30
0
11
22
21
15.320038
31
0
39
0
210
0
220
0
230
1
0
LINE
5
99
100
AcDbEntity
8
1
62
256
6
ByLayer
370
-1
48
1
60
0
100
AcDbLine
10
20.769088
20
14.87871
30
0
11
20.772103
21
14.827931
31
0
39
0
210
0
220
0
230
1
0
LINE
5
9A
100
AcDbEntity
8
1
62
256
6
ByLayer
370
-1
48
1
60
0
100
AcDbLine
10
20.8743
20
14.756282
30
0
11
22
21
14.219548
31
0
39
0
210
0
220
0
230
1
0
LINE
5
9B
100
AcDbEntity
8
1
62
256
6
ByLayer
370
-1
48
1
60
0
100
AcDbLine
10
22
20
14.219548
30
0
11
22
21
14.043641
31
0
39
0
210
0
220
0
230
1
0
LINE
5
9C
100
AcDbEntity
8
1
62
256
6
ByLayer
370
-1
48
1
60
0
100
AcDbLine
10
19
20
15.260468
30
0
11
19
21
15.116936
31
0
39
0
210
0
220
0
230
1
0
LINE
5
9D
100
AcDbEntity
8
1
62
256
6
ByLayer
370
-1
48
1
60
0
100
AcDbLine
10
20.776534
20
17
30
0
11
22
21
16.505688
31
0
39
0
210
0
220
0
230
1
0
LINE
5
9E
100
AcDbEntity
8
1
62
256
6
ByLayer
370
-1
48
1
60
0
100
AcDbLine
10
15.718021
20
16.919473
30
0
11
18.374438
21
15.846211
31
0
39
0
210
0
220
0
230
1
0
LINE
5
9F
100
AcDbEntity
8
1
62
256
6
ByLayer
370
-1
48
1
60
0
100
AcDbLine
10
20.621122
20
14.938492
30
0
11
20.769088
21
14.87871
31
0
39
0
210
0
220
0
230
1
0
LINE
5
A0
100
AcDbEntity
8
1
62
256
6
ByLayer
370
-1
48
1
60
0
100
AcDbLine
10
16.583507
20
-15
30
0
11
16.208064
21
-15.315034
31
0
39
0
210
0
220
0
230
1
0
LINE
5
A1
100
AcDbEntity
8
1
62
256
6
ByLayer
370
-1
48
1
60
0
100
AcDbLine
10
14.2
20
-17
30
0
11
14.267573
21
-16.9433
31
0
39
0
210
0
220
0
230
1
0
LINE
5
A2
100
AcDbEntity
8
1
62
256
6
ByLayer
370
-1
48
1
60
0
100
AcDbLine
10
19.4
20
15.176455
30
0
11
19.4
21
13
31
0
39
0
210
0
220
0
230
1
0
LINE
5
A3
100
AcDbEntity
8
1
62
256
6
ByLayer
370
-1
48
1
60
0
100
AcDbLine
10
19.4
20
13
30
0
11
19.4
21
10.5
31
0
39
0
210
0
220
0
230
1
0
LINE
5
A4
100
AcDbEntity
8
1
62
256
6
ByLayer
370
-1
48
1
60
0
100
AcDbLine
10
22
20
10.5
30
0
11
22
21
7.288795
31
0
39
0
210
0
220
0
230
1
0
LINE
5
A5
100
AcDbEntity
8
1
62
256
6
ByLayer
370
-1
48
1
60
0
100
AcDbLine
10
22
20
13
30
0
11
22
21
10.5
31
0
39
0
210
0
220
0
230
1
0
LINE
5
A6
100
AcDbEntity
8
1
62
256
6
ByLayer
370
-1
48
1
60
0
100
AcDbLine
10
22
20
6.154331
30
0
11
22
21
6.102803
31
0
39
0
210
0
220
0
230
1
0
LINE
5
A7
100
AcDbEntity
8
1
62
256
6
ByLayer
370
-1
48
1
60
0
100
AcDbLine
10
20.853223
20
14.766679
30
0
11
20.865807
21
15.078759
31
0
39
0
210
0
220
0
230
1
0
LINE
5
A8
100
AcDbEntity
8
1
62
256
6
ByLayer
370
-1
48
1
60
0
100
AcDbLine
10
20.828639
20
6.843003
30
0
11
20.849721
21
6.320172
31
0
39
0
210
0
220
0
230
1
0
LINE
5
A9
100
AcDbEntity
8
1
62
256
6
ByLayer
370
-1
48
1
60
0
100
AcDbLine
10
22
20
5.95
30
0
11
22
21
6.102803
31
0
39
0
210
0
220
0
230
1
0
LINE
5
AA
100
AcDbEntity
8
1
62
256
6
ByLayer
370
-1
48
1
60
0
100
AcDbLine
10
22
20
14.043641
30
0
11
22
21
13
31
0
39
0
210
0
220
0
230
1
0
LINE
5
AB
100
AcDbEntity
8
1
62
256
6
ByLayer
370
-1
48
1
60
0
100
AcDbLine
10
19.4
20
10.5
30
0
11
22
21
10.5
31
0
39
0
210
0
220
0
230
1
0
LINE
5
AC
100
AcDbEntity
8
1
62
256
6
ByLayer
370
-1
48
1
60
0
100
AcDbLine
10
19
20
10.5
30
0
11
19.4
21
10.5
31
0
39
0
210
0
220
0
230
1
0
LINE
5
AD
100
AcDbEntity
8
1
62
256
6
ByLayer
370
-1
48
1
60
0
100
AcDbLine
10
19
20
13
30
0
11
19.4
21
13
31
0
39
0
210
0
220
0
230
1
0
LINE
5
AE
100
AcDbEntity
8
1
62
256
6
ByLayer
370
-1
48
1
60
0
100
AcDbLine
10
16.208064
20
-15.315034
30
0
11
11.5
21
-15.315034
31
0
39
0
210
0
220
0
230
1
0
LINE
5
AF
100
AcDbEntity
8
1
62
256
6
ByLayer
370
-1
48
1
60
0
100
AcDbLine
10
16.208064
20
-15.315034
30
0
11
15.878872
21
-15.591259
31
0
39
0
210
0
220
0
230
1
0
LINE
5
B0
100
AcDbEntity
8
1
62
256
6
ByLayer
370
-1
48
1
60
0
100
AcDbLine
10
10.029521
20
-15.591259
30
0
11
15.878872
21
-15.591259
31
0
39
0
210
0
220
0
230
1
0
LINE
5
B1
100
AcDbEntity
8
1
62
256
6
ByLayer
370
-1
48
1
60
0
100
AcDbLine
10
11.5
20
-16.9433
30
0
11
14.267573
21
-16.9433
31
0
39
0
210
0
220
0
230
1
0
LINE
5
B2
100
AcDbEntity
8
1
62
256
6
ByLayer
370
-1
48
1
60
0
100
AcDbLine
10
15.878872
20
-15.591259
30
0
11
15.838356
21
-15.625256
31
0
39
0
210
0
220
0
230
1
0
LINE
5
B3
100
AcDbEntity
8
1
62
256
6
ByLayer
370
-1
48
1
60
0
100
AcDbLine
10
10.072609
20
-15.842475
30
0
11
15.579485
21
-15.842475
31
0
39
0
210
0
220
0
230
1
0
LINE
5
B4
100
AcDbEntity
8
1
62
256
6
ByLayer
370
-1
48
1
60
0
100
AcDbLine
10
15.838356
20
-15.625256
30
0
11
10.027643
21
-15.625256
31
0
39
0
210
0
220
0
230
1
0
LINE
5
B5
100
AcDbEntity
8
1
62
256
6
ByLayer
370
-1
48
1
60
0
100
AcDbLine
10
17.239293
20
-14.44973
30
0
11
19
21
-12.972322
31
0
39
0
210
0
220
0
230
1
0
LINE
5
B6
100
AcDbEntity
8
1
62
256
6
ByLayer
370
-1
48
1
60
0
100
AcDbLine
10
19
20
15.116936
30
0
11
19
21
-12.972322
31
0
39
0
210
0
220
0
230
1
0
LINE
5
B7
100
AcDbEntity
8
1
62
256
6
ByLayer
370
-1
48
1
60
0
100
AcDbLine
10
5.8
20
8.944272
30
0
11
9.2
21
8.944272
31
0
39
0
210
0
220
0
230
1
0
LINE
5
B8
100
AcDbEntity
8
1
62
256
6
ByLayer
370
-1
48
1
60
0
100
AcDbLine
10
9.2
20
-8.944272
30
0
11
5.8
21
-8.944272
31
0
39
0
210
0
220
0
230
1
0
LINE
5
B9
100
AcDbEntity
8
1
62
256
6
ByLayer
370
-1
48
1
60
0
100
AcDbLine
10
5.8
20
-8.944272
30
0
11
5.8
21
8.944272
31
0
39
0
210
0
220
0
230
1
0
LINE
5
BA
100
AcDbEntity
8
1
62
256
6
ByLayer
370
-1
48
1
60
0
100
AcDbLine
10
19.4
20
10.5
30
0
11
19.4
21
5.95
31
0
39
0
210
0
220
0
230
1
0
LINE
5
BB
100
AcDbEntity
8
1
62
256
6
ByLayer
370
-1
48
1
60
0
100
AcDbLine
10
19.4
20
13
30
0
11
22
21
13
31
0
39
0
210
0
220
0
230
1
0
LINE
5
BC
100
AcDbEntity
8
1
62
256
6
ByLayer
370
-1
48
1
60
0
100
AcDbLine
10
0
20
-12.519984
30
0
11
3.5
21
-12.519984
31
0
39
0
210
0
220
0
230
1
0
LINE
5
BD
100
AcDbEntity
8
1
62
256
6
ByLayer
370
-1
48
1
60
0
100
AcDbLine
10
0
20
-12.519984
30
0
11
0
21
12.519984
31
0
39
0
210
0
220
0
230
1
0
LINE
5
BE
100
AcDbEntity
8
1
62
256
6
ByLayer
370
-1
48
1
60
0
100
AcDbLine
10
5
20
10.392305
30
0
11
5
21
-10.392305
31
0
39
0
210
0
220
0
230
1
0
LINE
5
BF
100
AcDbEntity
8
1
62
256
6
ByLayer
370
-1
48
1
60
0
100
AcDbLine
10
3.5
20
12.519984
30
0
11
0
21
12.519984
31
0
39
0
210
0
220
0
230
1
0
LINE
5
C0
100
AcDbEntity
8
1
62
256
6
ByLayer
370
-1
48
1
60
0
100
AcDbLine
10
11.5
20
17
30
0
11
11.5
21
15
31
0
39
0
210
0
220
0
230
1
0
LINE
5
C1
100
AcDbEntity
8
1
62
256
6
ByLayer
370
-1
48
1
60
0
100
AcDbLine
10
11.5
20
-15
30
0
11
11.5
21
-15.315034
31
0
39
0
210
0
220
0
230
1
0
LINE
5
C2
100
AcDbEntity
8
1
62
256
6
ByLayer
370
-1
48
1
60
0
100
AcDbLine
10
11.5
20
-17
30
0
11
11.5
21
-16.9433
31
0
39
0
210
0
220
0
230
1
0
LINE
5
C3
100
AcDbEntity
8
1
62
256
6
ByLayer
370
-1
48
1
60
0
100
AcDbLine
10
10
20
-15.5
30
0
11
10
21
-13.275918
31
0
39
0
210
0
220
0
230
1
0
LINE
5
C4
100
AcDbEntity
8
1
62
256
6
ByLayer
370
-1
48
1
60
0
100
AcDbLine
10
10
20
15.5
30
0
11
10
21
13.275918
31
0
39
0
210
0
220
0
230
1
0
LINE
5
C5
100
AcDbEntity
8
1
62
256
6
ByLayer
370
-1
48
1
60
0
100
AcDbLine
10
5
20
-10.392305
30
0
11
5
21
-15.5
31
0
39
0
210
0
220
0
230
1
0
LINE
5
C6
100
AcDbEntity
8
1
62
256
6
ByLayer
370
-1
48
1
60
0
100
AcDbLine
10
5
20
15.5
30
0
11
5
21
10.392305
31
0
39
0
210
0
220
0
230
1
0
LINE
5
C7
100
AcDbEntity
8
1
62
256
6
ByLayer
370
-1
48
1
60
0
100
AcDbLine
10
3.5
20
17
30
0
11
3.5
21
12.519984
31
0
39
0
210
0
220
0
230
1
0
LINE
5
C8
100
AcDbEntity
8
1
62
256
6
ByLayer
370
-1
48
1
60
0
100
AcDbLine
10
3.5
20
-12.519984
30
0
11
3.5
21
-17
31
0
39
0
210
0
220
0
230
1
0
LINE
5
C9
100
AcDbEntity
8
SK1
62
256
6
ByLayer
370
-1
48
1
60
0
100
AcDbLine
10
-4
20
7.4
30
0
11
-3.4
21
8
31
0
39
0
210
0
220
0
230
1
0
LINE
5
CA
100
AcDbEntity
8
SK1
62
256
6
ByLayer
370
-1
48
1
60
0
100
AcDbLine
10
-38
20
7
30
0
11
-38
21
-7
31
0
39
0
210
0
220
0
230
1
0
LINE
5
CB
100
AcDbEntity
8
SK1
62
256
6
ByLayer
370
-1
48
1
60
0
100
AcDbLine
10
-37
20
-8
30
0
11
-37
21
7.4
31
0
39
0
210
0
220
0
230
1
0
LINE
5
CC
100
AcDbEntity
8
1
62
256
6
ByLayer
370
-1
48
1
60
0
100
AcDbLine
10
0
20
-12.519984
30
0
11
0
21
-17
31
0
39
0
210
0
220
0
230
1
0
LINE
5
CD
100
AcDbEntity
8
1
62
256
6
ByLayer
370
-1
48
1
60
0
100
AcDbLine
10
0
20
17
30
0
11
0
21
12.519984
31
0
39
0
210
0
220
0
230
1
0
LINE
5
CE
100
AcDbEntity
8
SK1
62
256
6
ByLayer
370
-1
48
1
60
0
100
AcDbLine
10
-4
20
7.4
30
0
11
-37
21
7.4
31
0
39
0
210
0
220
0
230
1
0
LINE
5
CF
100
AcDbEntity
8
1
62
256
6
ByLayer
370
-1
48
1
60
0
100
AcDbLine
10
9.2
20
8.944272
30
0
11
9.2
21
12
31
0
39
0
210
0
220
0
230
1
0
LINE
5
D0
100
AcDbEntity
8
1
62
256
6
ByLayer
370
-1
48
1
60
0
100
AcDbLine
10
9.2
20
-12
30
0
11
9.2
21
-8.944272
31
0
39
0
210
0
220
0
230
1
0
LINE
5
D1
100
AcDbEntity
8
1
62
256
6
ByLayer
370
-1
48
1
60
0
100
AcDbLine
10
5.8
20
12
30
0
11
5.8
21
8.944272
31
0
39
0
210
0
220
0
230
1
0
LINE
5
D2
100
AcDbEntity
8
1
62
256
6
ByLayer
370
-1
48
1
60
0
100
AcDbLine
10
5.8
20
-8.944272
30
0
11
5.8
21
-12
31
0
39
0
210
0
220
0
230
1
0
LINE
5
D3
100
AcDbEntity
8
1
62
256
6
ByLayer
370
-1
48
1
60
0
100
AcDbLine
10
15.579485
20
-15.842475
30
0
11
14.267573
21
-16.9433
31
0
39
0
210
0
220
0
230
1
0
LINE
5
D4
100
AcDbEntity
8
1
62
256
6
ByLayer
370
-1
48
1
60
0
100
AcDbLine
10
15.579485
20
-15.842475
30
0
11
15.838356
21
-15.625256
31
0
39
0
210
0
220
0
230
1
0
LINE
5
D5
100
AcDbEntity
8
SK1
62
256
6
ByLayer
370
-1
48
1
60
0
100
AcDbLine
10
-0.275
20
-7.75
30
0
11
-0.275
21
7.75
31
0
39
0
210
0
220
0
230
1
0
LINE
5
D6
100
AcDbEntity
8
SK1
62
256
6
ByLayer
370
-1
48
1
60
0
100
AcDbLine
10
-1.114326
20
-7.75
30
0
11
-1.114326
21
7.75
31
0
39
0
210
0
220
0
230
1
0
LINE
5
D7
100
AcDbEntity
8
SK1
62
256
6
ByLayer
370
-1
48
1
60
0
100
AcDbLine
10
-1.217854
20
-7.76363
30
0
11
-1.217854
21
7.76363
31
0
39
0
210
0
220
0
230
1
0
LINE
5
D8
100
AcDbEntity
8
1
62
256
6
ByLayer
370
-1
48
1
60
0
100
AcDbLine
10
18.18307
20
15.871237
30
0
11
18.332329
21
15.696846
31
0
39
0
210
0
220
0
230
1
0
LINE
5
D9
100
AcDbEntity
8
1
62
256
6
ByLayer
370
-1
48
1
60
0
100
AcDbLine
10
22
20
17
30
0
11
22
21
16.505688
31
0
39
0
210
0
220
0
230
1
0
LINE
5
DA
100
AcDbEntity
8
1
62
256
6
ByLayer
370
-1
48
1
60
0
100
AcDbLine
10
19
20
15.116936
30
0
11
17.325388
21
15.098682
31
0
39
0
210
0
220
0
230
1
0
LINE
5
DB
100
AcDbEntity
8
4
62
256
6
ByLayer
370
-1
48
0.05
60
0
100
AcDbLine
10
0
20
1.9E-05
30
0
11
32.300131
21
1.9E-05
31
0
39
0
210
0
220
0
230
1
0
LINE
5
DD
100
AcDbEntity
8
SK4
62
256
6
ByLayer
370
-1
48
0.05
60
0
100
AcDbLine
10
-39.999869
20
1.9E-05
30
0
11
32.500131
21
1.9E-05
31
0
39
0
210
0
220
0
230
1
0
MTEXT
5
11D
100
AcDbEntity
8
2
62
256
6
ByLayer
370
-1
48
1
60
0
100
AcDbMText
10
61.432948
20
-23.820346
30
0
210
0
220
0
230
1
1
\W00.774;\fsimplex.shx,bigfont.shx;DC = 39.0 - 45.0\P
40
3
41
0
44
1.084337
50
89.9999999999992
71
7
72
5
7
DEFAULT
0
MTEXT
5
120
100
AcDbEntity
8
SK6
62
256
6
ByLayer
370
-1
48
1
60
0
100
AcDbMText
10
32.603518
20
27.643809
30
0
210
0
220
0
230
1
1
\W00.760;\fsimplex.shx,bigfont.shx;R429U-A16-39022MB09\P
40
3
41
0
44
1.084337
50
0
71
7
72
5
7
DEFAULT
0
DIMENSION
5
12C
100
AcDbEntity
8
SK2
62
256
6
ByLayer
370
-3
48
1
60
0
100
AcDbDimension
2
DimnDraft3D1
10
-38
20
43.250019
30
0
11
-12.015789
21
43.250019
31
0
70
32
71
5
72
1
41
1
210
0
220
0
230
1
3
Standard
100
AcDbAlignedDimension
13
22
23
19
33
0
14
-38
24
9
34
0
50
0
100
AcDbRotatedDimension
1001
ACAD
1000
DSTYLE
1002
{
1070
   279
1070
     0
1070
   172
1070
     1
1070
   173
1070
     1
1070
   340
1005
11E
1070
   271
1070
     1
1070
    77
1070
     1
1070
    73
1070
     0
1070
   171
1070
     4
1070
   274
1070
     4
1070
   177
1070
     7
1070
   176
1070
     7
1070
   178
1070
     7
1070
    41
1041
3.175
1070
   147
1041
1.75
1070
    42
1041
2.0
1070
    44
1041
2.0
1070
   140
1041
3.5
1070
   343
1005
0
1070
   344
1005
0
1002
}
0
DIMENSION
5
136
100
AcDbEntity
8
2
62
256
6
ByLayer
370
-3
48
1
60
0
100
AcDbDimension
2
DimnDraft3D2
10
0
20
28.250019
30
0
11
6.984211
21
28.250019
31
0
70
32
71
5
72
1
41
1
210
0
220
0
230
1
3
Standard
100
AcDbAlignedDimension
13
22
23
19
33
0
14
0
24
19
34
0
50
0
100
AcDbRotatedDimension
1001
ACAD
1000
DSTYLE
1002
{
1070
   279
1070
     0
1070
   172
1070
     1
1070
   173
1070
     1
1070
   340
1005
11E
1070
   271
1070
     1
1070
    77
1070
     1
1070
    73
1070
     0
1070
   171
1070
     4
1070
   274
1070
     4
1070
   177
1070
     7
1070
   176
1070
     7
1070
   178
1070
     7
1070
    41
1041
3.175
1070
   147
1041
1.75
1070
    42
1041
2.0
1070
    44
1041
2.0
1070
   140
1041
3.5
1070
   343
1005
0
1070
   344
1005
0
1002
}
0
DIMENSION
5
140
100
AcDbEntity
8
SK2
62
256
6
ByLayer
370
-3
48
1
60
0
100
AcDbDimension
2
DimnDraft3D3
10
-45.291869
20
8
30
0
11
-45.291869
21
-27.247368
31
0
70
32
71
5
72
1
41
1
210
0
220
0
230
1
3
Standard
100
AcDbAlignedDimension
13
-39
23
-8
33
0
14
-5.4
24
8
34
0
50
90
100
AcDbRotatedDimension
1001
ACAD
1000
DSTYLE
1002
{
1070
    74
1070
     0
1070
   279
1070
     0
1070
   172
1070
     1
1070
   173
1070
     1
1070
   340
1005
11E
1070
   271
1070
     1
1070
    77
1070
     1
1070
    73
1070
     0
1070
   171
1070
     4
1070
   274
1070
     4
1070
   177
1070
     7
1070
   176
1070
     7
1070
   178
1070
     7
1070
    41
1041
3.175
1070
   147
1041
1.75
1070
    42
1041
2.0
1070
    44
1041
2.0
1070
   140
1041
3.5
1070
   343
1005
0
1070
   344
1005
0
1002
}
0
DIMENSION
5
14A
100
AcDbEntity
8
2
62
256
6
ByLayer
370
-3
48
1
60
0
100
AcDbDimension
2
DimnDraft3D4
10
32.3
20
-31.070936
30
0
11
3.853947
21
-31.070936
31
0
70
32
71
5
72
1
41
1
210
0
220
0
230
1
3
Standard
100
AcDbAlignedDimension
13
0
23
-19
33
0
14
32.3
24
15.629024
34
0
50
0
100
AcDbRotatedDimension
1001
ACAD
1000
DSTYLE
1002
{
1070
   279
1070
     0
1070
   172
1070
     1
1070
   173
1070
     1
1070
   340
1005
11E
1070
   271
1070
     1
1070
    77
1070
     1
1070
    73
1070
     0
1070
   171
1070
     4
1070
   274
1070
     4
1070
   177
1070
     7
1070
   176
1070
     7
1070
   178
1070
     7
1070
    78
1070
     8
1070
    41
1041
3.175
1070
   147
1041
1.75
1070
    42
1041
2.0
1070
    44
1041
2.0
1070
   140
1041
3.5
1070
   343
1005
0
1070
   344
1005
0
1002
}
0
ENDSEC
0
SECTION
2
OBJECTS
0
DICTIONARY
5
199
330
0
100
AcDbDictionary
280
0
281
1
3
ACAD_GROUP
350
19a
3
ACAD_MLINESTYLE
350
19b
0
DICTIONARY
5
19a
330
0
100
AcDbDictionary
280
0
281
1
0
DICTIONARY
5
19b
330
0
100
AcDbDictionary
280
0
281
1
3
Standard
350
18
0
MLINESTYLE
5
18
330
19b
100
AcDbMlineStyle
2
Standard
70
0
3

62
256
51
90
52
90
71
2
49
-0.5
62
256
6
ByLayer
49
0.5
62
256
6
ByLayer
0
RASTERVARIABLES
5
187
330

100
AcDbRasterVariables
90
0
70
1
71
1
72
1
0
ENDSEC
0
EOF
