0
SECTION
2
HEADER
9
$ACADVER
1
AC1015
9
$DWGCODEPAGE
3
ANSI_1252
9
$HANDSEED
5
1a6
9
$ANGBASE
50
0
9
$ANGDIR
70
0
9
$ATTMODE
70
1
9
$AUNITS
70
0
9
$AUPREC
70
0
9
$CECOLOR
62
256
9
$CELTSCALE
40
1
9
$CELTYPE
6
ByLayer
9
$CELWEIGHT
370
-1
9
$CLAYER
8
0
9
$CMLJUST
70
0
9
$CMLSCALE
40
1
9
$CMLSTYLE
2
Standard
9
$DIMSTYLE
2
Standard
9
$TEXTSIZE
40
0.2
9
$TEXTSTYLE
7
Standard
9
$LUNITS
70
2
9
$LUPREC
70
4
9
$EXTNAMES
290
1
9
$INSUNITS
70
4
9
$LTSCALE
40
1
9
$LWDISPLAY
290
0
9
$PDMODE
70
0
9
$PDSIZE
40
0
9
$PLINEGEN
70
0
0
ENDSEC
0
SECTION
2
CLASSES
0
CLASS
1
RASTERVARIABLES
2
AcDbRasterVariables
3
ISM
90
0
280
0
281
0
0
ENDSEC
0
SECTION
2
TABLES
0
TABLE
2
VPORT
5
19c
100
AcDbSymbolTable
0
VPORT
5
1
100
AcDbSymbolTableRecord
100
AcDbViewportTableRecord
2
*Active
70
0
10
0
20
0
11
1
21
1
12
-1
22
1
13
0
23
0
14
0.5
24
0.5
15
10
25
10
16
0
26
0
36
1
17
0
27
0
37
0
0
ENDTAB
0
TABLE
2
LTYPE
5
19d
100
AcDbSymbolTable
0
LTYPE
5
14
100
AcDbSymbolTableRecord
100
AcDbLinetypeTableRecord
70
0
2
ByBlock
3

72
65
73
0
40
0
0
LTYPE
5
15
100
AcDbSymbolTableRecord
100
AcDbLinetypeTableRecord
70
0
2
ByLayer
3

72
65
73
0
40
0
0
LTYPE
5
16
100
AcDbSymbolTableRecord
100
AcDbLinetypeTableRecord
70
0
2
CONTINUOUS
3
Solid line
72
65
73
0
40
0
0
LTYPE
5
3C
100
AcDbSymbolTableRecord
100
AcDbLinetypeTableRecord
70
0
2
DASHED
3
__ __ __ __ __ __ __ __ __
72
65
73
2
40
25.72
49
12.86
74
0
49
-12.86
74
0
0
LTYPE
5
3D
100
AcDbSymbolTableRecord
100
AcDbLinetypeTableRecord
70
0
2
HIDDEN
3
_ _ _ _ _ _ _ _ _ _ _ _ _ _ _
72
65
73
2
40
0.5
49
0.25
74
0
49
-0.25
74
0
0
LTYPE
5
3E
100
AcDbSymbolTableRecord
100
AcDbLinetypeTableRecord
70
0
2
PHANTOM
3
____ _ _ ____ _ _ _____ _ _ ____
72
65
73
6
40
50.5
49
18
74
0
49
-6.5
74
0
49
6.5
74
0
49
-6.5
74
0
49
6.5
74
0
49
-6.5
74
0
0
LTYPE
5
3F
100
AcDbSymbolTableRecord
100
AcDbLinetypeTableRecord
70
0
2
CENTER
3
____ _ ____ _ ____ _ ____
72
65
73
4
40
47.5
49
22
74
0
49
-8.5
74
0
49
8.5
74
0
49
-8.5
74
0
0
LTYPE
5
40
100
AcDbSymbolTableRecord
100
AcDbLinetypeTableRecord
70
0
2
DOT
3
.........................
72
65
73
2
40
10
49
0
74
0
49
-10
74
0
0
LTYPE
5
41
100
AcDbSymbolTableRecord
100
AcDbLinetypeTableRecord
70
0
2
DASHDOT
3
_._._._._._._._._._._._._._._._.
72
65
73
4
40
70
49
31
74
0
49
-13
74
0
49
13
74
0
49
-13
74
0
0
ENDTAB
0
TABLE
2
LAYER
5
19e
100
AcDbSymbolTable
0
LAYER
5
10
100
AcDbSymbolTableRecord
100
AcDbLayerTableRecord
2
0
70
0
62
7
6
CONTINUOUS
290
1
370
-3
390
0
0
LAYER
5
43
100
AcDbSymbolTableRecord
100
AcDbLayerTableRecord
2
80
70
0
62
-6
6
CONTINUOUS
290
1
370
-3
390
0
0
LAYER
5
45
100
AcDbSymbolTableRecord
100
AcDbLayerTableRecord
2
81
70
0
62
-3
6
CONTINUOUS
290
1
370
-3
390
0
0
LAYER
5
47
100
AcDbSymbolTableRecord
100
AcDbLayerTableRecord
2
2
70
0
62
7
6
CONTINUOUS
290
1
370
-3
390
0
0
LAYER
5
58
100
AcDbSymbolTableRecord
100
AcDbLayerTableRecord
2
1
70
0
62
4
6
CONTINUOUS
290
1
370
-3
390
0
0
LAYER
5
DE
100
AcDbSymbolTableRecord
100
AcDbLayerTableRecord
2
4
70
0
62
-2
6
CENTER
290
1
370
-3
390
0
0
LAYER
5
188
100
AcDbSymbolTableRecord
100
AcDbLayerTableRecord
2
SK1
70
0
62
4
6
CONTINUOUS
290
1
370
-3
390
0
0
LAYER
5
189
100
AcDbSymbolTableRecord
100
AcDbLayerTableRecord
2
SK4
70
0
62
2
6
CENTER
290
1
370
-3
390
0
0
LAYER
5
18a
100
AcDbSymbolTableRecord
100
AcDbLayerTableRecord
2
SK6
70
0
62
5
6
CONTINUOUS
290
1
370
-3
390
0
0
LAYER
5
18b
100
AcDbSymbolTableRecord
100
AcDbLayerTableRecord
2
SK2
70
0
62
7
6
CONTINUOUS
290
1
370
-3
390
0
0
ENDTAB
0
TABLE
2
STYLE
5
19f
100
AcDbSymbolTable
0
STYLE
5
11
100
AcDbSymbolTableRecord
100
AcDbTextStyleTableRecord
2
Standard
3
txt
70
0
71
0
40
0
41
1
42
0
50
0
0
STYLE
5
11E
100
AcDbSymbolTableRecord
100
AcDbTextStyleTableRecord
2
DEFAULT
3
simplex.shx
70
0
71
0
40
0
41
1
42
0
50
0
0
STYLE
5
11F
100
AcDbSymbolTableRecord
100
AcDbTextStyleTableRecord
2
DWGDirectTextStyle
3
SIMPLEX
70
0
71
0
40
0
41
1
42
0
50
0
0
ENDTAB
0
TABLE
2
DIMSTYLE
5
1a0
100
AcDbSymbolTable
100
AcDbDimStyleTable
0
DIMSTYLE
105
27
100
AcDbSymbolTableRecord
100
AcDbDimStyleTableRecord
2
Standard
70
0
3
<>
41
0.18
42
0.0625
44
0.18
140
0.18
147
0.09
73
0
74
0
77
1
271
2
275
0
278
52
280
0
340
11
0
ENDTAB
0
TABLE
2
VIEW
5
1a1
100
AcDbSymbolTable
0
ENDTAB
0
TABLE
2
UCS
5
1a2
100
AcDbSymbolTable
0
ENDTAB
0
TABLE
2
APPID
5
1a3
100
AcDbSymbolTable
0
APPID
5
12
100
AcDbSymbolTableRecord
100
AcDbRegAppTableRecord
2
ACAD
70
0
0
ENDTAB
0
TABLE
2
BLOCK_RECORD
5
1a4
100
AcDbSymbolTable
0
BLOCK_RECORD
5
1F
100
AcDbSymbolTableRecord
100
AcDbBlockTableRecord
2
*Model_Space
340
0
70
0
0
BLOCK_RECORD
5
1B
100
AcDbSymbolTableRecord
100
AcDbBlockTableRecord
2
*Paper_Space
340
0
70
0
0
BLOCK_RECORD
5
23
100
AcDbSymbolTableRecord
100
AcDbBlockTableRecord
2
*Paper_Space0
340
0
70
0
0
BLOCK_RECORD
5
122
100
AcDbSymbolTableRecord
100
AcDbBlockTableRecord
2
DimnDraft3D1
340
0
70
0
0
BLOCK_RECORD
5
12D
100
AcDbSymbolTableRecord
100
AcDbBlockTableRecord
2
DimnDraft3D2
340
0
70
0
0
BLOCK_RECORD
5
137
100
AcDbSymbolTableRecord
100
AcDbBlockTableRecord
2
DimnDraft3D3
340
0
70
0
0
BLOCK_RECORD
5
141
100
AcDbSymbolTableRecord
100
AcDbBlockTableRecord
2
DimnDraft3D4
340
0
70
0
0
ENDTAB
0
ENDSEC
0
SECTION
2
BLOCKS
0
BLOCK
5
20
100
AcDbEntity
8
0
100
AcDbBlockBegin
2
*Model_Space
70
0
10
0
20
0
30
0
3
*Model_Space
0
ENDBLK
5
21
100
AcDbEntity
8
0
100
AcDbBlockEnd
0
BLOCK
5
1C
100
AcDbEntity
8
0
100
AcDbBlockBegin
2
*Paper_Space
70
0
10
0
20
0
30
0
3
*Paper_Space
0
ENDBLK
5
1D
100
AcDbEntity
8
0
100
AcDbBlockEnd
0
BLOCK
5
24
100
AcDbEntity
8
0
100
AcDbBlockBegin
2
*Paper_Space0
70
0
10
0
20
0
30
0
3
*Paper_Space0
0
ENDBLK
5
25
100
AcDbEntity
8
0
100
AcDbBlockEnd
0
BLOCK
5
12A
100
AcDbEntity
8
0
100
AcDbBlockBegin
2
DimnDraft3D1
70
0
10
0
20
0
30
0
3
DimnDraft3D1
0
MTEXT
5
123
100
AcDbEntity
8
SK2
62
256
6
ByLayer
370
-1
48
1
60
0
100
AcDbMText
10
-9.325
20
44.125019
30
0
210
0
220
0
230
1
1
\W01.000;\fsimplex.shx,bigfont.shx;64.0\P
40
3.5
41
0
44
1.084337
50
0
71
7
72
5
7
DEFAULT
0
LINE
5
125
100
AcDbEntity
8
SK2
62
256
6
ByLayer
370
-1
48
1
60
0
100
AcDbLine
10
26
20
14
30
0
11
26
21
45.250019
31
0
39
0
210
0
220
0
230
1
0
LINE
5
126
100
AcDbEntity
8
SK2
62
256
6
ByLayer
370
-1
48
1
60
0
100
AcDbLine
10
-38
20
9
30
0
11
-38
21
45.250019
31
0
39
0
210
0
220
0
230
1
0
LINE
5
127
100
AcDbEntity
8
SK2
62
256
6
ByLayer
370
-1
48
1
60
0
100
AcDbLine
10
26
20
43.250019
30
0
11
-38
21
43.250019
31
0
39
0
210
0
220
0
230
1
0
SOLID
5
128
100
AcDbEntity
8
SK2
62
256
6
ByLayer
370
-1
48
1
60
0
100
AcDbTrace
10
26
20
43.250019
30
0
11
22.825002
21
42.832023
31
0
12
22.824998
22
43.668016
32
0
13
26
23
43.250019
33
0
39
0
210
0
220
0
230
1
0
SOLID
5
129
100
AcDbEntity
8
SK2
62
256
6
ByLayer
370
-1
48
1
60
0
100
AcDbTrace
10
-38
20
43.250019
30
0
11
-34.825002
21
43.668016
31
0
12
-34.824998
22
42.832023
32
0
13
-38
23
43.250019
33
0
39
0
210
0
220
0
230
1
0
ENDBLK
5
12B
100
AcDbEntity
8
0
100
AcDbBlockEnd
0
BLOCK
5
134
100
AcDbEntity
8
0
100
AcDbBlockBegin
2
DimnDraft3D2
70
0
10
0
20
0
30
0
3
DimnDraft3D2
0
MTEXT
5
12E
100
AcDbEntity
8
2
62
256
6
ByLayer
370
-1
48
1
60
0
100
AcDbMText
10
9.859211
20
29.125019
30
0
210
0
220
0
230
1
1
\W01.000;\fsimplex.shx,bigfont.shx;26.0\P
40
3.5
41
0
44
1.084337
50
0
71
7
72
5
7
DEFAULT
0
LINE
5
12F
100
AcDbEntity
8
2
62
256
6
ByLayer
370
-1
48
1
60
0
100
AcDbLine
10
26
20
14
30
0
11
26
21
30.250019
31
0
39
0
210
0
220
0
230
1
0
LINE
5
130
100
AcDbEntity
8
2
62
256
6
ByLayer
370
-1
48
1
60
0
100
AcDbLine
10
0
20
14
30
0
11
0
21
30.250019
31
0
39
0
210
0
220
0
230
1
0
LINE
5
131
100
AcDbEntity
8
2
62
256
6
ByLayer
370
-1
48
1
60
0
100
AcDbLine
10
26
20
28.250019
30
0
11
0
21
28.250019
31
0
39
0
210
0
220
0
230
1
0
SOLID
5
132
100
AcDbEntity
8
2
62
256
6
ByLayer
370
-1
48
1
60
0
100
AcDbTrace
10
26
20
28.250019
30
0
11
22.825002
21
27.832023
31
0
12
22.824998
22
28.668016
32
0
13
26
23
28.250019
33
0
39
0
210
0
220
0
230
1
0
SOLID
5
133
100
AcDbEntity
8
2
62
256
6
ByLayer
370
-1
48
1
60
0
100
AcDbTrace
10
0
20
28.250019
30
0
11
3.174998
21
28.668016
31
0
12
3.175002
22
27.832023
32
0
13
0
23
28.250019
33
0
39
0
210
0
220
0
230
1
0
ENDBLK
5
135
100
AcDbEntity
8
0
100
AcDbBlockEnd
0
BLOCK
5
13E
100
AcDbEntity
8
0
100
AcDbBlockBegin
2
DimnDraft3D3
70
0
10
0
20
0
30
0
3
DimnDraft3D3
0
MTEXT
5
138
100
AcDbEntity
8
SK2
62
256
6
ByLayer
370
-1
48
1
60
0
100
AcDbMText
10
-46.166869
20
-26.372368
30
0
210
0
220
0
230
1
1
\W01.000;\fsimplex.shx,bigfont.shx;%%c 16.0\P
40
3.5
41
0
44
1.084337
50
90
71
7
72
5
7
DEFAULT
0
LINE
5
139
100
AcDbEntity
8
SK2
62
256
6
ByLayer
370
-1
48
1
60
0
100
AcDbLine
10
-39
20
-8
30
0
11
-47.291869
21
-8
31
0
39
0
210
0
220
0
230
1
0
LINE
5
13A
100
AcDbEntity
8
SK2
62
256
6
ByLayer
370
-1
48
1
60
0
100
AcDbLine
10
-5.4
20
8
30
0
11
-47.291869
21
8
31
0
39
0
210
0
220
0
230
1
0
LINE
5
13B
100
AcDbEntity
8
SK2
62
256
6
ByLayer
370
-1
48
1
60
0
100
AcDbLine
10
-45.291869
20
8
30
0
11
-45.291869
21
-27.247368
31
0
39
0
210
0
220
0
230
1
0
SOLID
5
13C
100
AcDbEntity
8
SK2
62
256
6
ByLayer
370
-1
48
1
60
0
100
AcDbTrace
10
-45.291869
20
-8
30
0
11
-45.709865
21
-4.825002
31
0
12
-44.873872
22
-4.824998
32
0
13
-45.291869
23
-8
33
0
39
0
210
0
220
0
230
1
0
SOLID
5
13D
100
AcDbEntity
8
SK2
62
256
6
ByLayer
370
-1
48
1
60
0
100
AcDbTrace
10
-45.291869
20
8
30
0
11
-44.873872
21
4.825002
31
0
12
-45.709865
22
4.824998
32
0
13
-45.291869
23
8
33
0
39
0
210
0
220
0
230
1
0
ENDBLK
5
13F
100
AcDbEntity
8
0
100
AcDbBlockEnd
0
BLOCK
5
148
100
AcDbEntity
8
0
100
AcDbBlockBegin
2
DimnDraft3D4
70
0
10
0
20
0
30
0
3
DimnDraft3D4
0
MTEXT
5
142
100
AcDbEntity
8
2
62
256
6
ByLayer
370
-1
48
1
60
0
100
AcDbMText
10
6.544737
20
-24.939474
30
0
210
0
220
0
230
1
1
\W01.000;\fsimplex.shx,bigfont.shx;34.3 / 36.3\P
40
3.5
41
0
44
1.084337
50
0
71
7
72
5
7
DEFAULT
0
LINE
5
143
100
AcDbEntity
8
2
62
256
6
ByLayer
370
-1
48
1
60
0
100
AcDbLine
10
0
20
-14
30
0
11
0
21
-27.814474
31
0
39
0
210
0
220
0
230
1
0
LINE
5
144
100
AcDbEntity
8
2
62
256
6
ByLayer
370
-1
48
1
60
0
100
AcDbLine
10
36.3
20
10.629024
30
0
11
36.3
21
-27.814474
31
0
39
0
210
0
220
0
230
1
0
LINE
5
145
100
AcDbEntity
8
2
62
256
6
ByLayer
370
-1
48
1
60
0
100
AcDbLine
10
0
20
-25.814474
30
0
11
36.3
21
-25.814474
31
0
39
0
210
0
220
0
230
1
0
SOLID
5
146
100
AcDbEntity
8
2
62
256
6
ByLayer
370
-1
48
1
60
0
100
AcDbTrace
10
0
20
-25.814474
30
0
11
3.174998
21
-25.396477
31
0
12
3.175002
22
-26.232471
32
0
13
0
23
-25.814474
33
0
39
0
210
0
220
0
230
1
0
SOLID
5
147
100
AcDbEntity
8
2
62
256
6
ByLayer
370
-1
48
1
60
0
100
AcDbTrace
10
36.3
20
-25.814474
30
0
11
33.125002
21
-26.232471
31
0
12
33.124998
22
-25.396477
32
0
13
36.3
23
-25.814474
33
0
39
0
210
0
220
0
230
1
0
ENDBLK
5
149
100
AcDbEntity
8
0
100
AcDbBlockEnd
0
ENDSEC
0
SECTION
2
ENTITIES
0
ARC
5
E1
100
AcDbEntity
8
1
62
256
6
ByLayer
370
-1
48
1
60
0
100
AcDbCircle
39
0
10
3.5
20
10.5
30
0
40
1.5
210
0
220
0
230
1
100
AcDbArc
50
0
51
90
0
ARC
5
E2
100
AcDbEntity
8
1
62
256
6
ByLayer
370
-1
48
1
60
0
100
AcDbCircle
39
0
10
-13.2
20
-9.2
30
0
40
0.8
210
0
220
0
230
-1
100
AcDbArc
50
90
51
180
0
ARC
5
E3
100
AcDbEntity
8
1
62
256
6
ByLayer
370
-1
48
1
60
0
100
AcDbCircle
39
0
10
-5.8
20
-9.2
30
0
40
0.8
210
0
220
0
230
-1
100
AcDbArc
50
0
51
90
0
ARC
5
E4
100
AcDbEntity
8
SK1
62
256
6
ByLayer
370
-1
48
1
60
0
100
AcDbCircle
39
0
10
0.275
20
8.15
30
0
40
0.4
210
0
220
0
230
-1
100
AcDbArc
50
226.566505
51
270
0
ARC
5
E5
100
AcDbEntity
8
1
62
256
6
ByLayer
370
-1
48
1
60
0
100
AcDbCircle
39
0
10
-13.2
20
9.2
30
0
40
0.8
210
0
220
0
230
-1
100
AcDbArc
50
180
51
270
0
ARC
5
E6
100
AcDbEntity
8
1
62
256
6
ByLayer
370
-1
48
1
60
0
100
AcDbCircle
39
0
10
15.5
20
-10.5
30
0
40
1.5
210
0
220
0
230
1
100
AcDbArc
50
180
51
270
0
ARC
5
E7
100
AcDbEntity
8
SK1
62
256
6
ByLayer
370
-1
48
1
60
0
100
AcDbCircle
39
0
10
1.114326
20
8.15
30
0
40
0.4
210
0
220
0
230
-1
100
AcDbArc
50
270
51
285
0
ARC
5
E8
100
AcDbEntity
8
SK1
62
256
6
ByLayer
370
-1
48
1
60
0
100
AcDbCircle
39
0
10
1.114326
20
-8.15
30
0
40
0.4
210
0
220
0
230
-1
100
AcDbArc
50
75
51
90
0
ARC
5
E9
100
AcDbEntity
8
1
62
256
6
ByLayer
370
-1
48
1
60
0
100
AcDbCircle
39
0
10
15.5
20
10.5
30
0
40
1.5
210
0
220
0
230
1
100
AcDbArc
50
90
51
180
0
ARC
5
EA
100
AcDbEntity
8
SK1
62
256
6
ByLayer
370
-1
48
1
60
0
100
AcDbCircle
39
0
10
0.275
20
-8.15
30
0
40
0.4
210
0
220
0
230
-1
100
AcDbArc
50
90
51
133.433495
0
ARC
5
EB
100
AcDbEntity
8
1
62
256
6
ByLayer
370
-1
48
1
60
0
100
AcDbCircle
39
0
10
-23.4
20
0.55
30
0
40
0.4
210
0
220
0
230
-1
100
AcDbArc
50
0
51
90
0
ARC
5
EC
100
AcDbEntity
8
1
62
256
6
ByLayer
370
-1
48
1
60
0
100
AcDbCircle
39
0
10
-5.8
20
9.2
30
0
40
0.8
210
0
220
0
230
-1
100
AcDbArc
50
270
51
0
0
ARC
5
ED
100
AcDbEntity
8
1
62
256
6
ByLayer
370
-1
48
1
60
0
100
AcDbCircle
39
0
10
3.5
20
-10.5
30
0
40
1.5
210
0
220
0
230
1
100
AcDbArc
50
270
51
0
0
ELLIPSE
5
EE
100
AcDbEntity
8
1
62
256
6
ByLayer
370
-1
48
1
60
0
100
AcDbEllipse
10
24.838547
20
11.974945
30
0
11
0.0642374248544557
21
2.13107643846491
31
0
210
0
220
0
230
-1
40
0.016371
41
-2.9610125270334
42
-2.72373624279152
0
ELLIPSE
5
EF
100
AcDbEntity
8
1
62
256
6
ByLayer
370
-1
48
1
60
0
100
AcDbEllipse
10
25.049983
20
11.889519
30
0
11
2.63523430822201
21
0.208368753677563
31
0
210
0
220
0
230
-1
40
0.682595
41
1.46617186156658
42
1.69456212651369
0
ELLIPSE
5
F0
100
AcDbEntity
8
1
62
256
6
ByLayer
370
-1
48
1
60
0
100
AcDbEllipse
10
24.969329
20
9.75613
30
0
11
0.196801316845122
21
-0.0747685935119283
31
0
210
0
220
0
230
-1
40
0.176102
41
2.00668878705283
42
3.06261298451353
0
ELLIPSE
5
F1
100
AcDbEntity
8
1
62
256
6
ByLayer
370
-1
48
1
60
0
100
AcDbEllipse
10
30.667683
20
8
30
0
11
11.4598443544328
21
-4.48988602870354
31
0
210
0
220
0
230
-1
40
0.064327
41
1.96496157208111
42
2.23229497931366
0
ELLIPSE
5
F2
100
AcDbEntity
8
1
62
256
6
ByLayer
370
-1
48
1
60
0
100
AcDbEllipse
10
49.997678
20
0
30
0
11
30.2237653280778
21
-11.8414576573379
31
0
210
0
220
0
230
-1
40
0.064327
41
2.73472261796857
42
-3.11702385732283
0
ELLIPSE
5
F3
100
AcDbEntity
8
1
62
256
6
ByLayer
370
-1
48
1
60
0
100
AcDbEllipse
10
23.749091
20
5.5
30
0
11
7.94524827229152
21
-2.94420193114189
31
0
210
0
220
0
230
-1
40
0.436617
41
1.12694701586973
42
1.27321462090884
0
ELLIPSE
5
F4
100
AcDbEntity
8
1
62
256
6
ByLayer
370
-1
48
1
60
0
100
AcDbEllipse
10
24.590349
20
5.5
30
0
11
0.137644247414496
21
-4.54999930443266
31
0
210
0
220
0
230
-1
40
0.017444
41
-0.602061719694138
42
-0.444080398725096
0
ELLIPSE
5
F5
100
AcDbEntity
8
1
62
256
6
ByLayer
370
-1
48
1
60
0
100
AcDbEllipse
10
23.749091
20
5.5
30
0
11
7.94895886379823
21
2.7945202440116
31
0
210
0
220
0
230
-1
40
0.45172
41
1.44484108963737
42
1.59110869465772
0
ELLIPSE
5
F6
100
AcDbEntity
8
1
62
256
6
ByLayer
370
-1
48
1
60
0
100
AcDbEllipse
10
17
20
-9.839029
30
0
11
1.65000000000493
21
0
31
0
210
0
220
0
230
1
40
0.089042
41
0
42
6.28318530717959
0
ELLIPSE
5
F7
100
AcDbEntity
8
1
62
256
6
ByLayer
370
-1
48
1
60
0
100
AcDbEllipse
10
22.113103
20
0
30
0
11
5.23026039795866E-15
21
1.65000000000003
31
0
210
0
220
0
230
1
40
0.416655
41
0
42
6.28318530717959
0
ELLIPSE
5
F8
100
AcDbEntity
8
1
62
256
6
ByLayer
370
-1
48
1
60
0
100
AcDbEllipse
10
24.90596
20
0
30
0
11
9.70566560896318E-08
21
-11.9999997329291
31
0
210
0
220
0
230
-1
40
0.458333
41
0.685016180812718
42
0.729727667217059
0
ELLIPSE
5
F9
100
AcDbEntity
8
1
62
256
6
ByLayer
370
-1
48
1
60
0
100
AcDbEllipse
10
24.90596
20
0
30
0
11
-7.34763812290144E-16
21
11.9999999999464
31
0
210
0
220
0
230
-1
40
0.458333
41
-0.729727656227821
42
-0.569603296130572
0
ELLIPSE
5
FA
100
AcDbEntity
8
1
62
256
6
ByLayer
370
-1
48
1
60
0
100
AcDbEllipse
10
22.113103
20
0
30
0
11
4.75478217996234E-15
21
1.5
31
0
210
0
220
0
230
1
40
0.416655
41
0
42
6.28318530717959
0
ELLIPSE
5
FB
100
AcDbEntity
8
1
62
256
6
ByLayer
370
-1
48
1
60
0
100
AcDbEllipse
10
23.384557
20
10.403138
30
0
11
1.25826381705424
21
-0.450520724586056
31
0
210
0
220
0
230
-1
40
0.101028
41
0.153268975554359
42
2.52405843176652
0
ELLIPSE
5
FC
100
AcDbEntity
8
1
62
256
6
ByLayer
370
-1
48
1
60
0
100
AcDbEllipse
10
23.384557
20
10.403138
30
0
11
1.25826381693214
21
-0.45052072453645
31
0
210
0
220
0
230
-1
40
0.101028
41
-2.87410335884732
42
-2.53803108881806
0
ELLIPSE
5
FD
100
AcDbEntity
8
1
62
256
6
ByLayer
370
-1
48
1
60
0
100
AcDbEllipse
10
17
20
-9.839029
30
0
11
1.5
21
0
31
0
210
0
220
0
230
1
40
0.089042
41
0
42
6.28318530717959
0
POINT
5
42
100
AcDbEntity
8
80
62
256
6
ByLayer
370
-1
48
1
60
0
100
AcDbPoint
10
0
20
0
30
0
39
0
210
0
220
0
230
1
50
360
0
POINT
5
44
100
AcDbEntity
8
81
62
256
6
ByLayer
370
-1
48
1
60
0
100
AcDbPoint
10
36.300131
20
14.494532
30
0
39
0
210
0
220
0
230
1
50
360
0
SPLINE
5
FE
100
AcDbEntity
8
1
62
256
6
ByLayer
370
-1
48
1
60
0
100
AcDbSpline
70
4
71
3
72
20
73
16
40
0
40
0
40
0
40
0
40
0.125000000000003
40
0.125000000000003
40
0.250000000000006
40
0.250000000000006
40
0.499999999999997
40
0.499999999999997
40
0.624999999999998
40
0.624999999999998
40
0.749999999999998
40
0.749999999999998
40
0.874999999999999
40
0.874999999999999
40
1
40
1
40
1
40
1
41
1
10
36.3000000000001
20
14.3011345486815
30
0
41
1
10
36.3
20
14.3148637555596
30
0
41
1
10
36.2985691992736
20
14.3283410472357
30
0
41
1
10
36.2929112227043
20
14.354803533841
30
0
41
1
10
36.2886022273543
20
14.3679188133112
30
0
41
1
10
36.2719323488303
20
14.4047922844261
30
0
41
1
10
36.255457959266
20
14.4268990099355
30
0
41
1
10
36.2255520847253
20
14.4533410097285
30
0
41
1
10
36.2145528676932
20
14.4611981533708
30
0
41
1
10
36.1914888835058
20
14.4743819120875
30
0
41
1
10
36.1794249998762
20
14.4797532461738
30
0
41
1
10
36.1542629152685
20
14.4881329356606
30
0
41
1
10
36.1412064674588
20
14.4910951847257
30
0
41
1
10
36.1150830801674
20
14.4944701531473
30
0
41
1
10
36.1018920638208
20
14.4949285628631
30
0
41
1
10
36.0885689012594
20
14.4941342648104
30
0
0
SPLINE
5
FF
100
AcDbEntity
8
1
62
256
6
ByLayer
370
-1
48
1
60
0
100
AcDbSpline
70
4
71
3
72
12
73
8
40
0
40
0
40
0
40
0
40
0.250000000000006
40
0.250000000000006
40
0.500000000000012
40
0.500000000000012
40
1
40
1
40
1
40
1
41
1
10
25.9656516492528
20
1.15937792061797
30
0
41
1
10
25.9857179517831
20
1.15747619547022
30
0
41
1
10
26.0040802244861
20
1.15479570734132
30
0
41
1
10
26.0375113283958
20
1.14804608144121
30
0
41
1
10
26.0518810204037
20
1.14410618345724
30
0
41
1
10
26.0874623189638
20
1.13107569215674
30
0
41
1
10
26.1000000000012
20
1.12113146511902
30
0
41
1
10
26.1000000000013
20
1.11169830398046
30
0
0
SPLINE
5
100
100
AcDbEntity
8
1
62
256
6
ByLayer
370
-1
48
1
60
0
100
AcDbSpline
70
4
71
3
72
8
73
4
40
0
40
0
40
0
40
0
40
1
40
1
40
1
40
1
41
1
10
32.6765333685647
20
12.5495866412557
30
0
41
0.979892672642243
10
33.79780341219
20
12.5420281507173
30
0
41
0.979892672642243
10
34.9584868312201
20
12.5033972379584
30
0
41
1
10
36.0885689012594
20
12.4360241962058
30
0
0
SPLINE
5
101
100
AcDbEntity
8
1
62
256
6
ByLayer
370
-1
48
1
60
0
100
AcDbSpline
70
4
71
3
72
8
73
4
40
0
40
0
40
0
40
0
40
1
40
1
40
1
40
1
41
1
10
25.9665487750165
20
10.3009966472307
30
0
41
0.877544051322076
10
26.0493088220538
20
10.3224249292753
30
0
41
0.877544051322076
10
26.1
20
10.3749946456398
30
0
41
1
10
26.1
20
10.439393372857
30
0
0
SPLINE
5
102
100
AcDbEntity
8
1
62
256
6
ByLayer
370
-1
48
1
60
0
100
AcDbSpline
70
4
71
3
72
14
73
10
40
0
40
0
40
0
40
0
40
0.28954921277653
40
0.28954921277653
40
0.57909842555306
40
0.57909842555306
40
0.86864763832959
40
0.86864763832959
40
1
40
1
40
1
40
1
41
1
10
26.1
20
4.77708315081316
30
0
41
1
10
26.1
20
4.75465036767648
30
0
41
1
10
26.0974983375137
20
4.73274837090136
30
0
41
1
10
26.0870250946737
20
4.69004375055709
30
0
41
1
10
26.0789034283862
20
4.66909765958502
30
0
41
1
10
26.0568980478648
20
4.63084892879024
30
0
41
1
10
26.0426695463906
20
4.61300497230809
30
0
41
1
10
26.0180213093326
20
4.59130485233376
30
0
41
1
10
26.0096955307962
20
4.58506463731442
30
0
41
1
10
26.0008239803947
20
4.57948919927
30
0
0
SPLINE
5
103
100
AcDbEntity
8
1
62
256
6
ByLayer
370
-1
48
1
60
0
100
AcDbSpline
70
4
71
3
72
12
73
8
40
0
40
0
40
0
40
0
40
0.111039824526708
40
0.111039824526708
40
0.407359883017796
40
0.407359883017796
40
1
40
1
40
1
40
1
41
1
10
26.0013076288844
20
8.68629596203763
30
0
41
1
10
26.0080369244519
20
8.68340397568275
30
0
41
1
10
26.0145319684309
20
8.68021614290288
30
0
41
1
10
26.0375113283958
20
8.66744149121729
30
0
41
1
10
26.0518810204037
20
8.65640139153908
30
0
41
1
10
26.0874623189638
20
8.61870025020332
30
0
41
1
10
26.1000000000013
20
8.58831913657366
30
0
41
1
10
26.1000000000013
20
8.55705650249055
30
0
0
SPLINE
5
104
100
AcDbEntity
8
1
62
256
6
ByLayer
370
-1
48
1
60
0
100
AcDbSpline
70
4
71
3
72
14
73
10
40
0
40
0
40
0
40
0
40
0.25
40
0.25
40
0.5
40
0.5
40
0.75
40
0.75
40
1
40
1
40
1
40
1
41
1
10
25.15
20
1.33534963203968
30
0
41
1
10
25.15
20
1.32916730754357
30
0
41
1
10
25.1519329566839
20
1.32319196576037
30
0
41
1
10
25.1595188546194
20
1.31162677736936
30
0
41
1
10
25.1652671039797
20
1.30601165586461
30
0
41
1
10
25.1800002360819
20
1.29572164454515
30
0
41
1
10
25.1891121953942
20
1.29092791655805
30
0
41
1
10
25.2103894997556
20
1.28230620106018
30
0
41
1
10
25.2223559330062
20
1.27853643189687
30
0
41
1
10
25.2356838294253
20
1.27529115488525
30
0
0
SPLINE
5
105
100
AcDbEntity
8
1
62
256
6
ByLayer
370
-1
48
1
60
0
100
AcDbSpline
70
4
71
3
72
10
73
6
40
0
40
0
40
0
40
0
40
0.119999480543551
40
0.119999480543551
40
1
40
1
40
1
40
1
41
1
10
25.1573444016661
20
1.96654250290808
30
0
41
1
10
25.1567598174528
20
1.96523074329883
30
0
41
1
10
25.1562092027801
20
1.96391363291988
30
0
41
1
10
25.1519082803289
20
1.95289914248573
30
0
41
1
10
25.15
20
1.94310972134096
30
0
41
1
10
25.15
20
1.93322754719043
30
0
0
SPLINE
5
106
100
AcDbEntity
8
1
62
256
6
ByLayer
370
-1
48
1
60
0
100
AcDbSpline
70
4
71
3
72
20
73
16
40
0
40
0
40
0
40
0
40
0.124999999999997
40
0.124999999999997
40
0.249999999999993
40
0.249999999999993
40
0.37499999999999
40
0.37499999999999
40
0.499999999999987
40
0.499999999999987
40
0.624999999999984
40
0.624999999999984
40
0.74999999999998
40
0.74999999999998
40
1
40
1
40
1
40
1
41
1
10
36.0885689012594
20
12.4360241962058
30
0
41
1
10
36.1018979742855
20
12.4352295457841
30
0
41
1
10
36.1150855710308
20
12.4356892399722
30
0
41
1
10
36.1411849490613
20
12.4390598864009
30
0
41
1
10
36.1542114345628
20
12.4420106756693
30
0
41
1
10
36.179413302535
20
12.4503990301891
30
0
41
1
10
36.1914550731775
20
12.4557650540262
30
0
41
1
10
36.2144104748884
20
12.4688711417876
30
0
41
1
10
36.2254414701185
20
12.4767301905303
30
0
41
1
10
36.2454289880917
20
12.494381642485
30
0
41
1
10
36.2544456158269
20
12.5041648755968
30
0
41
1
10
36.2704560588043
20
12.5257200194487
30
0
41
1
10
36.2774226118188
20
12.5375396154375
30
0
41
1
10
36.2940839130076
20
12.5743074264586
30
0
41
1
10
36.3000000000005
20
12.601541707044
30
0
41
1
10
36.3000000000005
20
12.6290239123347
30
0
0
SPLINE
5
107
100
AcDbEntity
8
1
62
256
6
ByLayer
370
-1
48
1
60
0
100
AcDbSpline
70
4
71
3
72
10
73
6
40
0
40
0
40
0
40
0
40
0.5
40
0.5
40
1
40
1
40
1
40
1
41
1
10
25.2356838294253
20
1.27529115488525
30
0
41
1
10
25.3487803716811
20
1.24775270492026
30
0
41
1
10
25.4661548552105
20
1.22504899955157
30
0
41
1
10
25.7094093464015
20
1.18703590255805
30
0
41
1
10
25.8352889293792
20
1.17173266620898
30
0
41
1
10
25.9656516492528
20
1.15937792061797
30
0
0
SPLINE
5
108
100
AcDbEntity
8
1
62
256
6
ByLayer
370
-1
48
1
60
0
100
AcDbSpline
70
4
71
3
72
8
73
4
40
0
40
0
40
0
40
0
40
1
40
1
40
1
40
1
41
1
10
36.0885689012594
20
14.4941342648104
30
0
41
0.979892672642243
10
34.9584868312201
20
14.4267612230579
30
0
41
0.979892672642243
10
33.79780341219
20
14.3881303102989
30
0
41
1
10
32.6765333685647
20
14.3805718197606
30
0
0
SPLINE
5
109
100
AcDbEntity
8
1
62
256
6
ByLayer
370
-1
48
1
60
0
100
AcDbSpline
70
4
71
3
72
14
73
10
40
0
40
0
40
0
40
0
40
0.12511272292243
40
0.12511272292243
40
0.41674181528162
40
0.41674181528162
40
0.70837090764081
40
0.70837090764081
40
1
40
1
40
1
40
1
41
1
10
26.0014226054243
20
6.41121329928276
30
0
41
1
10
26.0097611463457
20
6.40589690969787
30
0
41
1
10
26.0176328498948
20
6.39996207546741
30
0
41
1
10
26.0422923800412
20
6.37833090478168
30
0
41
1
10
26.0564293931647
20
6.36060710387861
30
0
41
1
10
26.0787723595908
20
6.32179381471047
30
0
41
1
10
26.0868425825456
20
6.30097705655501
30
0
41
1
10
26.097494020553
20
6.25757269291447
30
0
41
1
10
26.1000000000005
20
6.23540767440491
30
0
41
1
10
26.1000000000006
20
6.21280347162994
30
0
0
SPLINE
5
10A
100
AcDbEntity
8
1
62
256
6
ByLayer
370
-1
48
1
60
0
100
AcDbSpline
70
4
71
3
72
8
73
4
40
0
40
0
40
0
40
0
40
1
40
1
40
1
40
1
41
1
10
25.15
20
9.90357980121937
30
0
41
0.9252618736541
10
25.15
20
9.9522267556021
30
0
41
0.9252618736541
10
25.1804989485496
20
9.99542003665035
30
0
41
1
10
25.2346585428384
20
10.0234750896753
30
0
0
SPLINE
5
10B
100
AcDbEntity
8
1
62
256
6
ByLayer
370
-1
48
1
60
0
100
AcDbSpline
70
4
71
3
72
16
73
12
40
0
40
0
40
0
40
0
40
0.29316826178875
40
0.29316826178875
40
0.5863365235775
40
0.5863365235775
40
0.732920654471887
40
0.732920654471887
40
0.879504785366274
40
0.879504785366274
40
1
40
1
40
1
40
1
41
1
10
26.1
20
2.43658561908074
30
0
41
1
10
26.1
20
2.42103792981453
30
0
41
1
10
26.096982531839
20
2.40596487565406
30
0
41
1
10
26.0848885494936
20
2.37674206220626
30
0
41
1
10
26.075879470275
20
2.36295536676531
30
0
41
1
10
26.0583579908435
20
2.34427292412585
30
0
41
1
10
26.05175287124
20
2.33829353078269
30
0
41
1
10
26.0374897294475
20
2.32729858121417
30
0
41
1
10
26.0298226646735
20
2.32225340046406
30
0
41
1
10
26.0148772385501
20
2.31387391822406
30
0
41
1
10
26.0077461687757
20
2.31039189131374
30
0
41
1
10
26.000299047209
20
2.3072467676659
30
0
0
SPLINE
5
10C
100
AcDbEntity
8
1
62
256
6
ByLayer
370
-1
48
1
60
0
100
AcDbSpline
70
4
71
3
72
8
73
4
40
0
40
0
40
0
40
0
40
1
40
1
40
1
40
1
41
1
10
25.2346585428384
20
10.0234750896753
30
0
41
0.993685858888279
10
25.4604272899655
20
10.1404248980185
30
0
41
0.993685858888279
10
25.7059409083227
20
10.2335198988423
30
0
41
1
10
25.9665487750165
20
10.3009966472307
30
0
0
SPLINE
5
10D
100
AcDbEntity
8
1
62
256
6
ByLayer
370
-1
48
1
60
0
100
AcDbSpline
70
4
71
3
72
28
73
24
40
0
40
0
40
0
40
0
40
0.249999999999999
40
0.249999999999999
40
0.374999999999999
40
0.374999999999999
40
0.499999999999998
40
0.499999999999998
40
0.624999999999998
40
0.624999999999998
40
0.749999999999998
40
0.749999999999998
40
0.812499999999998
40
0.812499999999998
40
0.874999999999999
40
0.874999999999999
40
0.906249999999999
40
0.906249999999999
40
0.937499999999999
40
0.937499999999999
40
0.96875
40
0.96875
40
1
40
1
40
1
40
1
41
1
10
14
20
-4.54312667664027
30
0
41
1
10
14
20
-4.35597668698398
30
0
41
1
10
13.984375251729
20
-4.16995438927407
30
0
41
1
10
13.9413824905955
20
-3.89233234057085
30
0
41
1
10
13.9237089423715
20
-3.79994884098153
30
0
41
1
10
13.881610213077
20
-3.61602124146933
30
0
41
1
10
13.85734151561
20
-3.52508188476398
30
0
41
1
10
13.8017658950197
20
-3.34544284701488
30
0
41
1
10
13.7705001489802
20
-3.25673006276634
30
0
41
1
10
13.6989545818402
20
-3.08217291672571
30
0
41
1
10
13.6588863919834
20
-2.996540964584
30
0
41
1
10
13.5889814804051
20
-2.87373793058509
30
0
41
1
10
13.563907472292
20
-2.83357296974421
30
0
41
1
10
13.509129188692
20
-2.75656783817266
30
0
41
1
10
13.4796106434403
20
-2.71984245527651
30
0
41
1
10
13.4299126349764
20
-2.66927802813564
30
0
41
1
10
13.4123610593546
20
-2.65315684604255
30
0
41
1
10
13.3754793032676
20
-2.62373589222469
30
0
41
1
10
13.3560907978325
20
-2.61034893663916
30
0
41
1
10
13.3146366494042
20
-2.58731409915384
30
0
41
1
10
13.2927386168885
20
-2.57782992598851
30
0
41
1
10
13.2474260286182
20
-2.56480747873732
30
0
41
1
10
13.2235003915488
20
-2.56124969497364
30
0
41
1
10
13.2
20
-2.56124969497364
30
0
0
SPLINE
5
10E
100
AcDbEntity
8
1
62
256
6
ByLayer
370
-1
48
1
60
0
100
AcDbSpline
70
4
71
3
72
30
73
26
40
0
40
0
40
0
40
0
40
0.125
40
0.125
40
0.187500000000001
40
0.187500000000001
40
0.250000000000001
40
0.250000000000001
40
0.375000000000002
40
0.375000000000002
40
0.500000000000002
40
0.500000000000002
40
0.625000000000003
40
0.625000000000003
40
0.687500000000002
40
0.687500000000002
40
0.750000000000002
40
0.750000000000002
40
0.812500000000001
40
0.812500000000001
40
0.875000000000001
40
0.875000000000001
40
0.9375
40
0.9375
40
1
40
1
40
1
40
1
41
1
10
14
20
-6.80073525436776
30
0
41
1
10
14
20
-6.92022443270699
30
0
41
1
10
14.0059474129054
20
-7.0399461179471
30
0
41
1
10
14.0250817345842
20
-7.21992791857627
30
0
41
1
10
14.0332058957224
20
-7.2801729522817
30
0
41
1
10
14.052971973326
20
-7.39950924231019
30
0
41
1
10
14.0646093271163
20
-7.45866974391598
30
0
41
1
10
14.1050701490364
20
-7.63454561249566
30
0
41
1
10
14.139387234742
20
-7.74967129986854
30
0
41
1
10
14.2252753096036
20
-7.97492993932218
30
0
41
1
10
14.2773304396419
20
-8.08571861259159
30
0
41
1
10
14.3988777207622
20
-8.29382027872725
30
0
41
1
10
14.4684879329217
20
-8.39194211331844
30
0
41
1
10
14.5893270701963
20
-8.52810511654548
30
0
41
1
10
14.6323684834627
20
-8.57155887539145
30
0
41
1
10
14.7226266521067
20
-8.65233637369906
30
0
41
1
10
14.7700526269465
20
-8.68991701485518
30
0
41
1
10
14.8699818257525
20
-8.7588710078916
30
0
41
1
10
14.922599895402
20
-8.79022898386427
30
0
41
1
10
15.0304952288027
20
-8.84447944082459
30
0
41
1
10
15.0860936911059
20
-8.86762358793024
30
0
41
1
10
15.2008206792668
20
-8.90539873233408
30
0
41
1
10
15.2604792129453
20
-8.92007434420239
30
0
41
1
10
15.3798637237814
20
-8.93943005230113
30
0
41
1
10
15.4398064664613
20
-8.9442719099992
30
0
41
1
10
15.5
20
-8.9442719099992
30
0
0
SPLINE
5
10F
100
AcDbEntity
8
1
62
256
6
ByLayer
370
-1
48
1
60
0
100
AcDbSpline
70
4
71
3
72
30
73
26
40
0
40
0
40
0
40
0
40
0.0156249999999997
40
0.0156249999999997
40
0.0312499999999994
40
0.0312499999999994
40
0.0624999999999989
40
0.0624999999999989
40
0.0937499999999985
40
0.0937499999999985
40
0.124999999999998
40
0.124999999999998
40
0.187499999999999
40
0.187499999999999
40
0.249999999999999
40
0.249999999999999
40
0.3125
40
0.3125
40
0.375000000000001
40
0.375000000000001
40
0.500000000000001
40
0.500000000000001
40
0.750000000000001
40
0.750000000000001
40
1
40
1
40
1
40
1
41
1
10
13.2
20
2.56124969497307
30
0
41
1
10
13.2119270749774
20
2.56124969497307
30
0
41
1
10
13.2239636514118
20
2.56214380875525
30
0
41
1
10
13.247461905918
20
2.56558435931052
30
0
41
1
10
13.2590326797984
20
2.56812664540328
30
0
41
1
10
13.2932549546805
20
2.57801207457348
30
0
41
1
10
13.315412308047
20
2.58768641517173
30
0
41
1
10
13.3567189956517
20
2.61075873116721
30
0
41
1
10
13.3761962550802
20
2.62424085729555
30
0
41
1
10
13.4134188081872
20
2.65407084795328
30
0
41
1
10
13.4311239247047
20
2.67042420430545
30
0
41
1
10
13.4810248976858
20
2.72146416879795
30
0
41
1
10
13.5103981178467
20
2.75822774851434
30
0
41
1
10
13.5647298293803
20
2.83485776826248
30
0
41
1
10
13.5896136807904
20
2.87477666845405
30
0
41
1
10
13.6362362612436
20
2.95682499542826
30
0
41
1
10
13.6580220227267
20
2.99911855112799
30
0
41
1
10
13.6986923641517
20
3.08448701350375
30
0
41
1
10
13.7176052127535
20
3.12760071982203
30
0
41
1
10
13.7709436298412
20
3.25796851952211
30
0
41
1
10
13.8020188246335
20
3.34623426994571
30
0
41
1
10
13.8848837370908
20
3.61415996229928
30
0
41
1
10
13.9265301394166
20
3.79688271373314
30
0
41
1
10
13.9844510697585
20
4.16998934268923
30
0
41
1
10
14
20
4.35669271539686
30
0
41
1
10
14
20
4.54312667664016
30
0
0
SPLINE
5
110
100
AcDbEntity
8
1
62
256
6
ByLayer
370
-1
48
1
60
0
100
AcDbSpline
70
4
71
3
72
34
73
30
40
0
40
0
40
0
40
0
40
0.062500000000001
40
0.062500000000001
40
0.0937500000000014
40
0.0937500000000014
40
0.125000000000002
40
0.125000000000002
40
0.187500000000003
40
0.187500000000003
40
0.250000000000004
40
0.250000000000004
40
0.375000000000006
40
0.375000000000006
40
0.437500000000005
40
0.437500000000005
40
0.500000000000005
40
0.500000000000005
40
0.562500000000004
40
0.562500000000004
40
0.625000000000003
40
0.625000000000003
40
0.750000000000002
40
0.750000000000002
40
0.875000000000001
40
0.875000000000001
40
0.937500000000001
40
0.937500000000001
40
1
40
1
40
1
40
1
41
1
10
15.5
20
8.94427190999923
30
0
41
1
10
15.4394578686039
20
8.94427190999923
30
0
41
1
10
15.379441822137
20
8.93937438521658
30
0
41
1
10
15.2901851463341
20
8.92488413625824
30
0
41
1
10
15.2605612173969
20
8.91885969391529
30
0
41
1
10
15.2015709440047
20
8.90441285727383
30
0
41
1
10
15.1721047208864
20
8.89595018561687
30
0
41
1
10
15.0854729281309
20
8.86740610915544
30
0
41
1
10
15.0297031230505
20
8.84412825310002
30
0
41
1
10
14.9218035263379
20
8.78978077810913
30
0
41
1
10
14.8694531646681
20
8.75854902963752
30
0
41
1
10
14.7191642081843
20
8.65471607871504
30
0
41
1
10
14.6296399017756
20
8.57355386409535
30
0
41
1
10
14.5085357618368
20
8.43705657983037
30
0
41
1
10
14.4707035314902
20
8.38937715259394
30
0
41
1
10
14.4004734290812
20
8.29137028908482
30
0
41
1
10
14.3679087486537
20
8.24085219411083
30
0
41
1
10
14.3073678464024
20
8.13709092216916
30
0
41
1
10
14.2793938594803
20
8.08384641789513
30
0
41
1
10
14.2276940674246
20
7.97483441748929
30
0
41
1
10
14.2038901644989
20
7.91884899406543
30
0
41
1
10
14.1391243882941
20
7.74897017800404
30
0
41
1
10
14.1048870034856
20
7.63379876873037
30
0
41
1
10
14.0511889065011
20
7.40028424102829
30
0
41
1
10
14.0317591244583
20
7.28193448366372
30
0
41
1
10
14.0125329074724
20
7.10228092057574
30
0
41
1
10
14.0077802385104
20
7.04191739366283
30
0
41
1
10
14.0015114075328
20
6.92106133119214
30
0
41
1
10
14
20
6.86081410600241
30
0
41
1
10
14
20
6.80073525436765
30
0
0
SPLINE
5
111
100
AcDbEntity
8
1
62
256
6
ByLayer
370
-1
48
1
60
0
100
AcDbSpline
70
4
71
3
72
38
73
34
40
0
40
0
40
0
40
0
40
0.249999999999998
40
0.249999999999998
40
0.374999999999997
40
0.374999999999997
40
0.499999999999995
40
0.499999999999995
40
0.562499999999996
40
0.562499999999996
40
0.624999999999996
40
0.624999999999996
40
0.687499999999996
40
0.687499999999996
40
0.749999999999997
40
0.749999999999997
40
0.812499999999997
40
0.812499999999997
40
0.843749999999997
40
0.843749999999997
40
0.874999999999997
40
0.874999999999997
40
0.906249999999998
40
0.906249999999998
40
0.921874999999998
40
0.921874999999998
40
0.937499999999998
40
0.937499999999998
40
0.968749999999999
40
0.968749999999999
40
0.984375
40
0.984375
40
1
40
1
40
1
40
1
41
1
10
24.776533849079
20
11.9999999999999
30
0
41
1
10
24.316685710599
20
11.9999999999999
30
0
41
1
10
23.8595188767859
20
12.0000656609138
30
0
41
1
10
23.1780923862838
20
11.9996854047688
30
0
41
1
10
22.9516792127696
20
11.9994681788642
30
0
41
1
10
22.5005201458127
20
11.9985616094603
30
0
41
1
10
22.2757692119608
20
11.997878315012
30
0
41
1
10
21.9402040962319
20
11.9960957017508
30
0
41
1
10
21.8286112357041
20
11.9953728598923
30
0
41
1
10
21.6060424276277
20
11.9935535128465
30
0
41
1
10
21.4951922395405
20
11.9924580197733
30
0
41
1
10
21.275756023622
20
11.9897441097741
30
0
41
1
10
21.1670122947771
20
11.9881263309333
30
0
41
1
10
20.9519801273172
20
11.9841210907421
30
0
41
1
10
20.8455478889394
20
11.9817309920951
30
0
41
1
10
20.6381004706036
20
11.9758381125962
30
0
41
1
10
20.536837673243
20
11.9723408468728
30
0
41
1
10
20.3902438649885
20
11.9657615703317
30
0
41
1
10
20.3422717339976
20
11.9633434515869
30
0
41
1
10
20.2485855106541
20
11.9579094279887
30
0
41
1
10
20.2026701046265
20
11.9548792130734
30
0
41
1
10
20.1149168166239
20
11.9480755663976
30
0
41
1
10
20.0731358871767
20
11.9443127264597
30
0
41
1
10
20.0145793724267
20
11.9379291757478
30
0
41
1
10
19.9957507276145
20
11.9356772363378
30
0
41
1
10
19.9597140717587
20
11.9308766002132
30
0
41
1
10
19.9425376217163
20
11.9283293767882
30
0
41
1
10
19.8946427191629
20
11.9202906209217
30
0
41
1
10
19.8672433629891
20
11.9143739140025
30
0
41
1
10
19.8350093177052
20
11.9043697689872
30
0
41
1
10
19.8257418486101
20
11.9008299322273
30
0
41
1
10
19.8109598646016
20
11.8934733114794
30
0
41
1
10
19.8053841318537
20
11.8896422930584
30
0
41
1
10
19.8017470742932
20
11.8856455719875
30
0
0
SPLINE
5
112
100
AcDbEntity
8
1
62
256
6
ByLayer
370
-1
48
1
60
0
100
AcDbSpline
70
4
71
3
72
14
73
10
40
0
40
0
40
0
40
0
40
0.25
40
0.25
40
0.5
40
0.5
40
0.75
40
0.75
40
1
40
1
40
1
40
1
41
1
10
24.865806965357
20
10.0787588293464
30
0
41
1
10
24.8507424770177
20
10.0788463028589
30
0
41
1
10
24.8370428600868
20
10.0776779171415
30
0
41
1
10
24.8123954495589
20
10.0730084589241
30
0
41
1
10
24.801533511609
20
10.0694711017144
30
0
41
1
10
24.7839980722898
20
10.0604982358398
30
0
41
1
10
24.7770761536651
20
10.0549227973404
30
0
41
1
10
24.7679514217061
20
10.0423596986115
30
0
41
1
10
24.7656265772449
20
10.0353808429641
30
0
41
1
10
24.7656785283659
20
10.0276513387013
30
0
0
SPLINE
5
113
100
AcDbEntity
8
1
62
256
6
ByLayer
370
-1
48
1
60
0
100
AcDbSpline
70
4
71
3
72
24
73
20
40
0
40
0
40
0
40
0
40
0.125000000000006
40
0.125000000000006
40
0.250000000000011
40
0.250000000000011
40
0.375000000000017
40
0.375000000000017
40
0.500000000000023
40
0.500000000000023
40
0.56250000000002
40
0.56250000000002
40
0.625000000000017
40
0.625000000000017
40
0.750000000000011
40
0.750000000000011
40
0.875000000000006
40
0.875000000000006
40
1
40
1
40
1
40
1
41
1
10
22.9999999999999
20
10.2604675849175
30
0
41
1
10
22.9999999999999
20
10.2657266171711
30
0
41
1
10
23.0018262833946
20
10.2702821955861
30
0
41
1
10
23.0097751715859
20
10.2777384812219
30
0
41
1
10
23.015882876857
20
10.28057938172
30
0
41
1
10
23.0326828006587
20
10.2840852208479
30
0
41
1
10
23.0435169570007
20
10.2847770646008
30
0
41
1
10
23.0704327624378
20
10.2835061648091
30
0
41
1
10
23.0862764791214
20
10.2815777134699
30
0
41
1
10
23.114329909649
20
10.2763612159813
30
0
41
1
10
23.1243970684249
20
10.2742263191397
30
0
41
1
10
23.1453883075708
20
10.2692664999366
30
0
41
1
10
23.1563876470988
20
10.266428713396
30
0
41
1
10
23.1909417368509
20
10.2568098149103
30
0
41
1
10
23.2164293507198
20
10.248775726931
30
0
41
1
10
23.2682083054729
20
10.2307797308983
30
0
41
1
10
23.2951867513386
20
10.2205946966796
30
0
41
1
10
23.3481860751169
20
10.1992298581257
30
0
41
1
10
23.3745300594656
20
10.1879344337421
30
0
41
1
10
23.4
20
10.1764547488142
30
0
0
SPLINE
5
114
100
AcDbEntity
8
1
62
256
6
ByLayer
370
-1
48
1
60
0
100
AcDbSpline
70
4
71
3
72
42
73
38
40
0
40
0
40
0
40
0
40
0.0624999999999992
40
0.0624999999999992
40
0.0937499999999988
40
0.0937499999999988
40
0.124999999999998
40
0.124999999999998
40
0.156249999999998
40
0.156249999999998
40
0.187499999999997
40
0.187499999999997
40
0.218749999999997
40
0.218749999999997
40
0.249999999999996
40
0.249999999999996
40
0.281249999999996
40
0.281249999999996
40
0.312499999999995
40
0.312499999999995
40
0.374999999999994
40
0.374999999999994
40
0.437499999999993
40
0.437499999999993
40
0.499999999999992
40
0.499999999999992
40
0.624999999999993
40
0.624999999999993
40
0.687499999999994
40
0.687499999999994
40
0.749999999999994
40
0.749999999999994
40
0.874999999999999
40
0.874999999999999
40
0.937499999999999
40
0.937499999999999
40
1
40
1
40
1
40
1
41
1
10
24.6211219105819
20
9.9384917459968
30
0
41
1
10
24.6397378266296
20
9.94295558301317
30
0
41
1
10
24.6527942873086
20
9.95302611694666
30
0
41
1
10
24.6615220299646
20
9.97802503989465
30
0
41
1
10
24.6625171774442
20
9.98798457263675
30
0
41
1
10
24.6600583961903
20
10.0107285103163
30
0
41
1
10
24.656636312556
20
10.0235704818908
30
0
41
1
10
24.6444694370885
20
10.052315533627
30
0
41
1
10
24.6355769077245
20
10.0683604542557
30
0
41
1
10
24.6124010690233
20
10.1018371278466
30
0
41
1
10
24.5980603665948
20
10.1194454743535
30
0
41
1
10
24.5634564118439
20
10.1559428295306
30
0
41
1
10
24.543796229994
20
10.1741930786204
30
0
41
1
10
24.5001667930999
20
10.2103577751293
30
0
41
1
10
24.4759662823375
20
10.2284105767112
30
0
41
1
10
24.425361612245
20
10.2628186457589
30
0
41
1
10
24.3988451506149
20
10.2793015335625
30
0
41
1
10
24.3438295688041
20
10.3109887017636
30
0
41
1
10
24.3151807086724
20
10.326265121653
30
0
41
1
10
24.2278537945614
20
10.3698604377633
30
0
41
1
10
24.1682793560095
20
10.3958197352231
30
0
41
1
10
24.0473858526017
20
10.443736391262
30
0
41
1
10
23.985864495023
20
10.4657297313149
30
0
41
1
10
23.8624606252432
20
10.506634333385
30
0
41
1
10
23.8009784184311
20
10.5254207138673
30
0
41
1
10
23.6171565933891
20
10.5783785245806
30
0
41
1
10
23.4954278406306
20
10.6092251395334
30
0
41
1
10
23.3143882553665
20
10.6520192583074
30
0
41
1
10
23.2543049814495
20
10.665676135703
30
0
41
1
10
23.1347762751623
20
10.6920756472209
30
0
41
1
10
23.0752869556481
20
10.7048247454684
30
0
41
1
10
22.8997441227031
20
10.7416714550807
30
0
41
1
10
22.7859220148086
20
10.7645331857814
30
0
41
1
10
22.6227957834144
20
10.7969380459728
30
0
41
1
10
22.5696103182588
20
10.8074360917841
30
0
41
1
10
22.4674166201381
20
10.8276533699933
30
0
41
1
10
22.4188873256274
20
10.837278708367
30
0
41
1
10
22.3744375250611
20
10.8462111589215
30
0
0
SPLINE
5
115
100
AcDbEntity
8
1
62
256
6
ByLayer
370
-1
48
1
60
0
100
AcDbSpline
70
4
71
3
72
14
73
10
40
0
40
0
40
0
40
0
40
0.25
40
0.25
40
0.5
40
0.5
40
0.75
40
0.75
40
1
40
1
40
1
40
1
41
1
10
24.7487426298604
20
1.39235424981047
30
0
41
1
10
24.748693580446
20
1.38469829050751
30
0
41
1
10
24.7509639004238
20
1.37730368444255
30
0
41
1
10
24.7600096281165
20
1.36300381532558
30
0
41
1
10
24.7668437499334
20
1.35614437708898
30
0
41
1
10
24.7843657824627
20
1.34367575778836
30
0
41
1
10
24.7953130971726
20
1.33789652707267
30
0
41
1
10
24.8202007648583
20
1.32793274249136
30
0
41
1
10
24.8342592592865
20
1.3236582053253
30
0
41
1
10
24.8497208607199
20
1.32017210678256
30
0
0
SPLINE
5
116
100
AcDbEntity
8
1
62
256
6
ByLayer
370
-1
48
1
60
0
100
AcDbSpline
70
4
71
3
72
14
73
10
40
0
40
0
40
0
40
0
40
0.25
40
0.25
40
0.5
40
0.5
40
0.75
40
0.75
40
1
40
1
40
1
40
1
41
1
10
24.8497208607199
20
1.85327710965032
30
0
41
1
10
24.8342609671251
20
1.84800095364221
30
0
41
1
10
24.8203122424894
20
1.84164452813729
30
0
41
1
10
24.7953353024496
20
1.82690615667721
30
0
41
1
10
24.7844357511925
20
1.8185332460472
30
0
41
1
10
24.7668932671484
20
1.80074572208173
30
0
41
1
10
24.7600290223717
20
1.79108588170848
30
0
41
1
10
24.7509956876365
20
1.7715195659699
30
0
41
1
10
24.74869358616
20
1.76147572127212
30
0
41
1
10
24.7487426298604
20
1.75138811349024
30
0
0
SPLINE
5
117
100
AcDbEntity
8
1
62
256
6
ByLayer
370
-1
48
1
60
0
100
AcDbSpline
70
4
71
3
72
30
73
26
40
0
40
0
40
0
40
0
40
0.250000000000001
40
0.250000000000001
40
0.375000000000001
40
0.375000000000001
40
0.500000000000001
40
0.500000000000001
40
0.625000000000001
40
0.625000000000001
40
0.687500000000001
40
0.687500000000001
40
0.750000000000001
40
0.750000000000001
40
0.812500000000001
40
0.812500000000001
40
0.875000000000001
40
0.875000000000001
40
0.906250000000001
40
0.906250000000001
40
0.937500000000001
40
0.937500000000001
40
0.96875
40
0.96875
40
1
40
1
40
1
40
1
41
1
10
14
20
-9.9542040505282
30
0
41
1
10
14
20
-9.92109520716343
30
0
41
1
10
14.0070823131139
20
-9.8880228299021
30
0
41
1
10
14.0460919320398
20
-9.83856042137973
30
0
41
1
10
14.0638827071524
20
-9.82209760257277
30
0
41
1
10
14.1134751269771
20
-9.78924410548862
30
0
41
1
10
14.145254613706
20
-9.77283377994627
30
0
41
1
10
14.2294164626341
20
-9.74020001506361
30
0
41
1
10
14.2811920968194
20
-9.7241730170843
30
0
41
1
10
14.3804802809723
20
-9.70077912782571
30
0
41
1
10
14.4172462354346
20
-9.69308421405438
30
0
41
1
10
14.5000479215963
20
-9.67799889466443
30
0
41
1
10
14.5455590037172
20
-9.67070227452115
30
0
41
1
10
14.6469310758618
20
-9.65672858134016
30
0
41
1
10
14.7027437348179
20
-9.65004861519722
30
0
41
1
10
14.8284328683334
20
-9.63753054511261
30
0
41
1
10
14.8985500369621
20
-9.63170418734964
30
0
41
1
10
15.01263790892
20
-9.62431306872327
30
0
41
1
10
15.0522133367661
20
-9.62206478944211
30
0
41
1
10
15.1349415808323
20
-9.61806667680662
30
0
41
1
10
15.1784520653593
20
-9.61630794182054
30
0
41
1
10
15.2670723892813
20
-9.61346583754656
30
0
41
1
10
15.3123220721199
20
-9.61237007542118
30
0
41
1
10
15.4048536219421
20
-9.61088215363415
30
0
41
1
10
15.4524178830041
20
-9.61049251874348
30
0
41
1
10
15.5
20
-9.61049251874348
30
0
0
SPLINE
5
118
100
AcDbEntity
8
1
62
256
6
ByLayer
370
-1
48
1
60
0
100
AcDbSpline
70
4
71
3
72
34
73
30
40
0
40
0
40
0
40
0
40
0.124999999999995
40
0.124999999999995
40
0.156249999999995
40
0.156249999999995
40
0.187499999999995
40
0.187499999999995
40
0.249999999999994
40
0.249999999999994
40
0.312499999999993
40
0.312499999999993
40
0.374999999999993
40
0.374999999999993
40
0.499999999999993
40
0.499999999999993
40
0.562499999999994
40
0.562499999999994
40
0.624999999999995
40
0.624999999999995
40
0.687499999999996
40
0.687499999999996
40
0.749999999999997
40
0.749999999999997
40
0.874999999999998
40
0.874999999999998
40
0.937499999999999
40
0.937499999999999
40
1
40
1
40
1
40
1
41
1
10
15.5
20
-11.9418574612816
30
0
41
1
10
15.3909360829571
20
-11.9418574612816
30
0
41
1
10
15.284269546676
20
-11.9294863176177
30
0
41
1
10
15.1537640111656
20
-11.8994310150684
30
0
41
1
10
15.1278059595969
20
-11.892681748687
30
0
41
1
10
15.0761782621754
20
-11.8776949631596
30
0
41
1
10
15.0504269433645
20
-11.8694259733801
30
0
41
1
10
14.9744906397131
20
-11.8426741307945
30
0
41
1
10
14.9254700999396
20
-11.8222321879605
30
0
41
1
10
14.8304461543554
20
-11.7764427705402
30
0
41
1
10
14.7844435855883
20
-11.7510939350122
30
0
41
1
10
14.6953773405656
20
-11.6956179442961
30
0
41
1
10
14.6521058485353
20
-11.6653071521584
30
0
41
1
10
14.5290566373105
20
-11.5691192944751
30
0
41
1
10
14.4554346747318
20
-11.4978512137135
30
0
41
1
10
14.3564394881437
20
-11.3812356693047
30
0
41
1
10
14.3252750398334
20
-11.3405736797454
30
0
41
1
10
14.2677101901099
20
-11.257489965195
30
0
41
1
10
14.2411784115034
20
-11.2149395686951
30
0
41
1
10
14.1923438232527
20
-11.1279437284089
30
0
41
1
10
14.1700419723797
20
-11.0834978549868
30
0
41
1
10
14.1295166093843
20
-10.992778559903
30
0
41
1
10
14.1112431796946
20
-10.9463527287211
30
0
41
1
10
14.0628255632267
20
-10.8054615753988
30
0
41
1
10
14.0392343230135
20
-10.7101924239927
30
0
41
1
10
14.0156682371366
20
-10.5654630023101
30
0
41
1
10
14.0097964834819
20
-10.5169134974807
30
0
41
1
10
14.0019608726102
20
-10.4192109211643
30
0
41
1
10
14
20
-10.3699598866985
30
0
41
1
10
14
20
-10.3207134327787
30
0
0
SPLINE
5
119
100
AcDbEntity
8
1
62
256
6
ByLayer
370
-1
48
1
60
0
100
AcDbSpline
70
4
71
3
72
67
73
63
40
0
40
0
40
0
40
0
40
0.0156249999999999
40
0.0156249999999999
40
0.0234374999999999
40
0.0234374999999999
40
0.0312499999999999
40
0.0312499999999999
40
0.0468750000000001
40
0.0468750000000001
40
0.0625000000000004
40
0.0625000000000004
40
0.0937500000000004
40
0.0937500000000004
40
0.125000000000001
40
0.125000000000001
40
0.156250000000001
40
0.156250000000001
40
0.187500000000001
40
0.187500000000001
40
0.250000000000001
40
0.250000000000001
40
0.312500000000001
40
0.312500000000001
40
0.375000000000001
40
0.375000000000001
40
0.437500000000001
40
0.437500000000001
40
0.500000000000001
40
0.500000000000001
40
0.515625000000001
40
0.515625000000001
40
0.531250000000001
40
0.562500000000001
40
0.562500000000001
40
0.625000000000001
40
0.625000000000001
40
0.687500000000001
40
0.687500000000001
40
0.750000000000001
40
0.750000000000001
40
0.812500000000001
40
0.812500000000001
40
0.843750000000001
40
0.843750000000001
40
0.875000000000001
40
0.875000000000001
40
0.906250000000001
40
0.906250000000001
40
0.937500000000001
40
0.937500000000001
40
0.953125000000001
40
0.953125000000001
40
0.9609375
40
0.9609375
40
0.96875
40
0.96875
40
0.984375
40
0.984375
40
0.9921875
40
0.9921875
40
1
40
1
40
1
40
1
41
1
10
3.5
20
3.42782730020051
30
0
41
1
10
3.54042985678774
20
3.42782730020051
30
0
41
1
10
3.58007072625986
20
3.42213313791581
30
0
41
1
10
3.63845187898312
20
3.40579638532773
30
0
41
1
10
3.65769328871116
20
3.39903501352032
30
0
41
1
10
3.69479190323273
20
3.38351693785754
30
0
41
1
10
3.71279652105164
20
3.37472315573646
30
0
41
1
10
3.76538119885066
20
3.34562681026136
30
0
41
1
10
3.79880468529916
20
3.32239309019786
30
0
41
1
10
3.8610819145305
20
3.27143793332874
30
0
41
1
10
3.88996789424516
20
3.2437924755655
30
0
41
1
10
3.97158771965729
20
3.1560075479849
30
0
41
1
10
4.0196231593311
20
3.09057521916441
30
0
41
1
10
4.10472998666421
20
2.95524502647621
30
0
41
1
10
4.14212177386474
20
2.88496306466843
30
0
41
1
10
4.20993583748515
20
2.74086570596597
30
0
41
1
10
4.24030993995305
20
2.6670258856164
30
0
41
1
10
4.29576909852568
20
2.51666477951974
30
0
41
1
10
4.32059648737138
20
2.44080148170994
30
0
41
1
10
4.38830805186166
20
2.21230850673132
30
0
41
1
10
4.42464950322682
20
2.05846437628244
30
0
41
1
10
4.48587375281914
20
1.74880268687826
30
0
41
1
10
4.51066230963403
20
1.59296889750851
30
0
41
1
10
4.55166413354877
20
1.27982446795849
30
0
41
1
10
4.56784835656515
20
1.12250882575734
30
0
41
1
10
4.59326520007289
20
0.806680324681878
30
0
41
1
10
4.60249011672647
20
0.648020472124728
30
0
41
1
10
4.61478638813736
20
0.330666398822729
30
0
41
1
10
4.61786589285623
20
0.171906895988855
30
0
41
1
10
4.61806771014659
20
-0.026640506932722
30
0
41
1
10
4.61792249687079
20
-0.0668422866191918
30
0
41
1
10
4.61725757971288
20
-0.146804506490781
30
0
41
1
10
4.61569939863006
20
-0.266699514767708
30
0
41
1
10
4.61245217640544
20
-0.386448987604155
30
0
41
1
10
4.60363309586819
20
-0.625747632095226
30
0
41
1
10
4.59467753825373
20
-0.785015004955028
30
0
41
1
10
4.56971384787147
20
-1.10294206883327
30
0
41
1
10
4.55371811122234
20
-1.26160282795746
30
0
41
1
10
4.51289975612116
20
-1.57816378206147
30
0
41
1
10
4.48811176006632
20
-1.73606696026391
30
0
41
1
10
4.42642145923224
20
-2.0508294929204
30
0
41
1
10
4.38977724871148
20
-2.20664501064985
30
0
41
1
10
4.32205711926753
20
-2.43620855294233
30
0
41
1
10
4.29732934739036
20
-2.5120570156771
30
0
41
1
10
4.24229041763792
20
-2.66201050796209
30
0
41
1
10
4.21200307416666
20
-2.73612297364909
30
0
41
1
10
4.14370275282477
20
-2.88193554675371
30
0
41
1
10
4.10596793682038
20
-2.95303570159544
30
0
41
1
10
4.02112441787381
20
-3.08842122138665
30
0
41
1
10
3.9740548210986
20
-3.15300196781953
30
0
41
1
10
3.89175194150118
20
-3.24204023130596
30
0
41
1
10
3.86235019156248
20
-3.2702932868246
30
0
41
1
10
3.81554411499727
20
-3.30874734736747
30
0
41
1
10
3.79944870667134
20
-3.32095314673029
30
0
41
1
10
3.76611335631498
20
-3.34394453511413
30
0
41
1
10
3.74878139417649
20
-3.35477685989861
30
0
41
1
10
3.69569492288622
20
-3.38425369241992
30
0
41
1
10
3.6587822336906
20
-3.40001388344726
30
0
41
1
10
3.60059035226487
20
-3.41643610696502
30
0
41
1
10
3.58055139082097
20
-3.42071877474257
30
0
41
1
10
3.54029430018022
20
-3.42640683016435
30
0
41
1
10
3.52015334270618
20
-3.42782730020048
30
0
41
1
10
3.5
20
-3.42782730020048
30
0
0
SPLINE
5
11A
100
AcDbEntity
8
SK1
62
256
6
ByLayer
370
-1
48
1
60
0
100
AcDbSpline
70
4
71
3
72
20
73
16
40
0
40
0
40
0
40
0
40
0.125065671661672
40
0.125065671661672
40
0.250131343323344
40
0.250131343323344
40
0.500262686646687
40
0.500262686646687
40
0.750394029970029
40
0.750394029970029
40
0.8754597016317
40
0.8754597016317
40
0.937992537462535
40
0.937992537462535
40
1
40
1
40
1
40
1
41
1
10
-37
20
7.40000000000015
30
0
41
1
10
-37.0462290133417
20
7.40000000000015
30
0
41
1
10
-37.0905686226932
20
7.40000000000015
30
0
41
1
10
-37.1742983186543
20
7.40000000000015
30
0
41
1
10
-37.2137677339872
20
7.40000000000015
30
0
41
1
10
-37.3244668189669
20
7.40000000000015
30
0
41
1
10
-37.3879856935271
20
7.40000000000015
30
0
41
1
10
-37.4916454220976
20
7.40000000000015
30
0
41
1
10
-37.5317774023735
20
7.40000000000015
30
0
41
1
10
-37.572437895262
20
7.40000000000015
30
0
41
1
10
-37.5827372479532
20
7.40000000000015
30
0
41
1
10
-37.5930849349653
20
7.40000000000015
30
0
41
1
10
-37.5956843913951
20
7.40000000000015
30
0
41
1
10
-37.5991245739199
20
7.40000000000015
30
0
41
1
10
-37.5999818996262
20
7.40000000000009
30
0
41
1
10
-37.5999979999971
20
7.40000000000009
30
0
0
SPLINE
5
11B
100
AcDbEntity
8
1
62
256
6
ByLayer
370
-1
48
1
60
0
100
AcDbSpline
70
4
71
3
72
27
73
23
40
0
40
0
40
0
40
0
40
0.0624999999999997
40
0.0624999999999997
40
0.124999999999999
40
0.187499999999999
40
0.187499999999999
40
0.249999999999999
40
0.249999999999999
40
0.374999999999999
40
0.374999999999999
40
0.499999999999998
40
0.499999999999998
40
0.624999999999998
40
0.624999999999998
40
0.687499999999999
40
0.687499999999999
40
0.75
40
0.75
40
0.875
40
0.875
40
1
40
1
40
1
40
1
41
1
10
4.99999999999997
20
2.6832815729997
30
0
41
1
10
5
20
2.67941937467603
30
0
41
1
10
5.00128623727568
20
2.67548132412199
30
0
41
1
10
5.00636387933832
20
2.66773494858262
30
0
41
1
10
5.01393680175661
20
2.66003978006791
30
0
41
1
10
5.02645114796078
20
2.65244698403632
30
0
41
1
10
5.04148268023798
20
2.64490729843973
30
0
41
1
10
5.05031724579567
20
2.64114412747378
30
0
41
1
10
5.08020155194436
20
2.6301393852425
30
0
41
1
10
5.10458274659908
20
2.62315491251093
30
0
41
1
10
5.16212461404052
20
2.6098947340584
30
0
41
1
10
5.19571203854548
20
2.60356632782327
30
0
41
1
10
5.26934516319631
20
2.59215689983859
30
0
41
1
10
5.30949973016732
20
2.58702300632456
30
0
41
1
10
5.37481862446413
20
2.5802077156776
30
0
41
1
10
5.39757467808664
20
2.57807511377078
30
0
41
1
10
5.44394302111508
20
2.57419887852399
30
0
41
1
10
5.46760474766199
20
2.57244734676749
30
0
41
1
10
5.53999325033763
20
2.56774422815343
30
0
41
1
10
5.59010930709655
20
2.56533875088113
30
0
41
1
10
5.69423086139818
20
2.56206946555125
30
0
41
1
10
5.74685933368272
20
2.5612496949727
30
0
41
1
10
5.79999999999978
20
2.5612496949727
30
0
0
SPLINE
5
11C
100
AcDbEntity
8
1
62
256
6
ByLayer
370
-1
48
1
60
0
100
AcDbSpline
70
4
71
3
72
31
73
27
40
0
40
0
40
0
40
0
40
0.124999999999997
40
0.124999999999997
40
0.187499999999996
40
0.187499999999996
40
0.249999999999994
40
0.249999999999994
40
0.374999999999992
40
0.374999999999992
40
0.437499999999992
40
0.437499999999992
40
0.499999999999992
40
0.499999999999992
40
0.624999999999992
40
0.624999999999992
40
0.687499999999994
40
0.687499999999994
40
0.749999999999995
40
0.812499999999996
40
0.812499999999996
40
0.874999999999997
40
0.874999999999997
40
0.937499999999999
40
0.937499999999999
40
1
40
1
40
1
40
1
41
1
10
5.79999999999998
20
-2.56124969497316
30
0
41
1
10
5.74687021978627
20
-2.56124969497316
30
0
41
1
10
5.69464463424464
20
-2.56206842973745
30
0
41
1
10
5.61760540944465
20
-2.56446962254157
30
0
41
1
10
5.59214382152837
20
-2.56546694405603
30
0
41
1
10
5.5416667962443
20
-2.56786297056465
30
0
41
1
10
5.51661542891378
20
-2.56926677799876
30
0
41
1
10
5.44380013362698
20
-2.57398672053654
30
0
41
1
10
5.3977838486702
20
-2.57782959521984
30
0
41
1
10
5.3325097106586
20
-2.58461352813211
30
0
41
1
10
5.31128041607897
20
-2.58705922278
30
0
41
1
10
5.27063730605698
20
-2.59223727691244
30
0
41
1
10
5.25129901187989
20
-2.5949570024026
30
0
41
1
10
5.19614174707087
20
-2.60349214954141
30
0
41
1
10
5.16315335369785
20
-2.60967998452526
30
0
41
1
10
5.11948039434958
20
-2.61971106951165
30
0
41
1
10
5.10599907614667
20
-2.6231607496633
30
0
41
1
10
5.08152376722774
20
-2.63016523579864
30
0
41
1
10
5.05940586497877
20
-2.6373041166095
30
0
41
1
10
5.04193643320878
20
-2.64470447842055
30
0
41
1
10
5.02682487980957
20
-2.65223606935675
30
0
41
1
10
5.02042842633739
20
-2.65608514342293
30
0
41
1
10
5.0102228525202
20
-2.66381255917406
30
0
41
1
10
5.00639815290018
20
-2.66769091327515
30
0
41
1
10
5.00128423816602
20
-2.67547617397372
30
0
41
1
10
4.99999999999994
20
-2.67941933600466
30
0
41
1
10
4.99999999999994
20
-2.68328157299976
30
0
0
LINE
5
46
100
AcDbEntity
8
2
62
256
6
ByLayer
370
-1
48
1
60
0
100
AcDbLine
10
65.882135
20
11.319532
30
0
11
66.718128
21
11.319532
31
0
39
0
210
0
220
0
230
1
0
LINE
5
48
100
AcDbEntity
8
2
62
256
6
ByLayer
370
-1
48
1
60
0
100
AcDbLine
10
66.300131
20
14.494532
30
0
11
66.300131
21
-31.571913
31
0
39
0
210
0
220
0
230
1
0
LINE
5
49
100
AcDbEntity
8
2
62
256
6
ByLayer
370
-1
48
1
60
0
100
AcDbLine
10
66.222786
20
13.319532
30
0
11
66.091133
21
11.319532
31
0
39
0
210
0
220
0
230
1
0
LINE
5
4A
100
AcDbEntity
8
2
62
256
6
ByLayer
370
-1
48
1
60
0
100
AcDbLine
10
66.300131
20
14.494532
30
0
11
65.882135
21
11.319532
31
0
39
0
210
0
220
0
230
1
0
LINE
5
4B
100
AcDbEntity
8
2
62
256
6
ByLayer
370
-1
48
1
60
0
100
AcDbLine
10
66.300131
20
14.494532
30
0
11
66.718128
21
11.319532
31
0
39
0
210
0
220
0
230
1
0
LINE
5
4C
100
AcDbEntity
8
2
62
256
6
ByLayer
370
-1
48
1
60
0
100
AcDbLine
10
66.377477
20
13.319532
30
0
11
66.50913
21
11.319532
31
0
39
0
210
0
220
0
230
1
0
LINE
5
4D
100
AcDbEntity
8
2
62
256
6
ByLayer
370
-1
48
1
60
0
100
AcDbLine
10
65.882135
20
11.319532
30
0
11
66.718128
21
11.319532
31
0
39
0
210
0
220
0
230
1
0
LINE
5
4E
100
AcDbEntity
8
2
62
256
6
ByLayer
370
-1
48
1
60
0
100
AcDbLine
10
66.222786
20
13.319532
30
0
11
66.091133
21
11.319532
31
0
39
0
210
0
220
0
230
1
0
LINE
5
4F
100
AcDbEntity
8
2
62
256
6
ByLayer
370
-1
48
1
60
0
100
AcDbLine
10
66.300131
20
14.494532
30
0
11
65.882135
21
11.319532
31
0
39
0
210
0
220
0
230
1
0
LINE
5
50
100
AcDbEntity
8
2
62
256
6
ByLayer
370
-1
48
1
60
0
100
AcDbLine
10
66.300131
20
14.494532
30
0
11
66.718128
21
11.319532
31
0
39
0
210
0
220
0
230
1
0
LINE
5
51
100
AcDbEntity
8
2
62
256
6
ByLayer
370
-1
48
1
60
0
100
AcDbLine
10
66.377477
20
13.319532
30
0
11
66.50913
21
11.319532
31
0
39
0
210
0
220
0
230
1
0
LINE
5
52
100
AcDbEntity
8
2
62
256
6
ByLayer
370
-1
48
1
60
0
100
AcDbLine
10
38.300131
20
14.494532
30
0
11
68.300131
21
14.494532
31
0
39
0
210
0
220
0
230
1
0
LINE
5
53
100
AcDbEntity
8
80
62
256
6
ByLayer
370
-1
48
1
60
0
100
AcDbLine
10
0
20
0
30
0
11
-2.5
21
0
31
0
39
0
210
0
220
0
230
1
0
LINE
5
54
100
AcDbEntity
8
81
62
256
6
ByLayer
370
-1
48
1
60
0
100
AcDbLine
10
36.300131
20
14.494532
30
0
11
43.733166
21
14.494532
31
0
39
0
210
0
220
0
230
1
0
LINE
5
55
100
AcDbEntity
8
SK1
62
256
6
ByLayer
370
-1
48
1
60
0
100
AcDbLine
10
-0.275
20
7.75
30
0
11
-1.114326
21
7.75
31
0
39
0
210
0
220
0
230
1
0
LINE
5
57
100
AcDbEntity
8
1
62
256
6
ByLayer
370
-1
48
1
60
0
100
AcDbLine
10
23.4
20
0.95
30
0
11
26
21
0.95
31
0
39
0
210
0
220
0
230
1
0
LINE
5
59
100
AcDbEntity
8
1
62
256
6
ByLayer
370
-1
48
1
60
0
100
AcDbLine
10
15.5
20
-12
30
0
11
18.2
21
-12
31
0
39
0
210
0
220
0
230
1
0
LINE
5
5A
100
AcDbEntity
8
1
62
256
6
ByLayer
370
-1
48
1
60
0
100
AcDbLine
10
30.949999
20
3.276846
30
0
11
31
21
3.575638
31
0
39
0
210
0
220
0
230
1
0
LINE
5
5B
100
AcDbEntity
8
1
62
256
6
ByLayer
370
-1
48
1
60
0
100
AcDbLine
10
31
20
7.424362
30
0
11
30.949999
21
7.723154
31
0
39
0
210
0
220
0
230
1
0
LINE
5
5C
100
AcDbEntity
8
1
62
256
6
ByLayer
370
-1
48
1
60
0
100
AcDbLine
10
15.44455
20
-9.790002
30
0
11
15.506006
21
-9.850969
31
0
39
0
210
0
220
0
230
1
0
LINE
5
5D
100
AcDbEntity
8
1
62
256
6
ByLayer
370
-1
48
1
60
0
100
AcDbLine
10
18.493994
20
-9.850969
30
0
11
18.55545
21
-9.790002
31
0
39
0
210
0
220
0
230
1
0
LINE
5
5E
100
AcDbEntity
8
1
62
256
6
ByLayer
370
-1
48
1
60
0
100
AcDbLine
10
0
20
-12
30
0
11
3.5
21
-12
31
0
39
0
210
0
220
0
230
1
0
LINE
5
5F
100
AcDbEntity
8
1
62
256
6
ByLayer
370
-1
48
1
60
0
100
AcDbLine
10
3.5
20
12
30
0
11
0
21
12
31
0
39
0
210
0
220
0
230
1
0
LINE
5
60
100
AcDbEntity
8
1
62
256
6
ByLayer
370
-1
48
1
60
0
100
AcDbLine
10
5.8
20
-8.4
30
0
11
13.2
21
-8.4
31
0
39
0
210
0
220
0
230
1
0
LINE
5
61
100
AcDbEntity
8
1
62
256
6
ByLayer
370
-1
48
1
60
0
100
AcDbLine
10
13.2
20
8.4
30
0
11
5.8
21
8.4
31
0
39
0
210
0
220
0
230
1
0
LINE
5
62
100
AcDbEntity
8
SK1
62
256
6
ByLayer
370
-1
48
1
60
0
100
AcDbLine
10
-37.6
20
7.4
30
0
11
-38
21
7
31
0
39
0
210
0
220
0
230
1
0
LINE
5
63
100
AcDbEntity
8
SK1
62
256
6
ByLayer
370
-1
48
1
60
0
100
AcDbLine
10
-38
20
-7
30
0
11
-37
21
-8
31
0
39
0
210
0
220
0
230
1
0
LINE
5
64
100
AcDbEntity
8
SK1
62
256
6
ByLayer
370
-1
48
1
60
0
100
AcDbLine
10
-2.1
20
8
30
0
11
-3.4
21
8
31
0
39
0
210
0
220
0
230
1
0
LINE
5
65
100
AcDbEntity
8
SK1
62
256
6
ByLayer
370
-1
48
1
60
0
100
AcDbLine
10
-37
20
-8
30
0
11
-2.1
21
-8
31
0
39
0
210
0
220
0
230
1
0
LINE
5
66
100
AcDbEntity
8
SK1
62
256
6
ByLayer
370
-1
48
1
60
0
100
AcDbLine
10
-2.1
20
-8
30
0
11
-1.217854
21
-7.76363
31
0
39
0
210
0
220
0
230
1
0
LINE
5
67
100
AcDbEntity
8
1
62
256
6
ByLayer
370
-1
48
1
60
0
100
AcDbLine
10
0
20
-3.427827
30
0
11
0
21
-12
31
0
39
0
210
0
220
0
230
1
0
LINE
5
68
100
AcDbEntity
8
SK1
62
256
6
ByLayer
370
-1
48
1
60
0
100
AcDbLine
10
-1.217854
20
7.76363
30
0
11
-2.1
21
8
31
0
39
0
210
0
220
0
230
1
0
LINE
5
69
100
AcDbEntity
8
1
62
256
6
ByLayer
370
-1
48
1
60
0
100
AcDbLine
10
24.776534
20
12
30
0
11
15.5
21
12
31
0
39
0
210
0
220
0
230
1
0
LINE
5
6A
100
AcDbEntity
8
SK1
62
256
6
ByLayer
370
-1
48
1
60
0
100
AcDbLine
10
-1.114326
20
-7.75
30
0
11
-0.275
21
-7.75
31
0
39
0
210
0
220
0
230
1
0
LINE
5
6B
100
AcDbEntity
8
1
62
256
6
ByLayer
370
-1
48
1
60
0
100
AcDbLine
10
30.95
20
1
30
0
11
26.1
21
1
31
0
39
0
210
0
220
0
230
1
0
LINE
5
6C
100
AcDbEntity
8
1
62
256
6
ByLayer
370
-1
48
1
60
0
100
AcDbLine
10
25.472444
20
9.471122
30
0
11
30.95
21
9.471122
31
0
39
0
210
0
220
0
230
1
0
LINE
5
6D
100
AcDbEntity
8
1
62
256
6
ByLayer
370
-1
48
1
60
0
100
AcDbLine
10
36.3
20
14.301135
30
0
11
36.3
21
12.629024
31
0
39
0
210
0
220
0
230
1
0
LINE
5
6E
100
AcDbEntity
8
1
62
256
6
ByLayer
370
-1
48
1
60
0
100
AcDbLine
10
25.15
20
9.624834
30
0
11
25.15
21
9.90358
31
0
39
0
210
0
220
0
230
1
0
LINE
5
6F
100
AcDbEntity
8
1
62
256
6
ByLayer
370
-1
48
1
60
0
100
AcDbLine
10
26.1
20
1
30
0
11
26.1
21
1.111698
31
0
39
0
210
0
220
0
230
1
0
LINE
5
70
100
AcDbEntity
8
1
62
256
6
ByLayer
370
-1
48
1
60
0
100
AcDbLine
10
25.15
20
1.933228
30
0
11
25.15
21
1.958652
31
0
39
0
210
0
220
0
230
1
0
LINE
5
71
100
AcDbEntity
8
1
62
256
6
ByLayer
370
-1
48
1
60
0
100
AcDbLine
10
30.95
20
11.177866
30
0
11
30.95
21
10.47209
31
0
39
0
210
0
220
0
230
1
0
LINE
5
72
100
AcDbEntity
8
1
62
256
6
ByLayer
370
-1
48
1
60
0
100
AcDbLine
10
32.676533
20
14.380572
30
0
11
32.676533
21
12.549587
31
0
39
0
210
0
220
0
230
1
0
LINE
5
73
100
AcDbEntity
8
1
62
256
6
ByLayer
370
-1
48
1
60
0
100
AcDbLine
10
26.1
20
10.47209
30
0
11
26.1
21
11.177866
31
0
39
0
210
0
220
0
230
1
0
LINE
5
74
100
AcDbEntity
8
1
62
256
6
ByLayer
370
-1
48
1
60
0
100
AcDbLine
10
26.1
20
11.177866
30
0
11
30.95
21
11.177866
31
0
39
0
210
0
220
0
230
1
0
LINE
5
75
100
AcDbEntity
8
1
62
256
6
ByLayer
370
-1
48
1
60
0
100
AcDbLine
10
30.95
20
1
30
0
11
30.95
21
9.052632
31
0
39
0
210
0
220
0
230
1
0
LINE
5
76
100
AcDbEntity
8
1
62
256
6
ByLayer
370
-1
48
1
60
0
100
AcDbLine
10
30.95
20
11.177866
30
0
11
30.95
21
12.609879
31
0
39
0
210
0
220
0
230
1
0
LINE
5
77
100
AcDbEntity
8
1
62
256
6
ByLayer
370
-1
48
1
60
0
100
AcDbLine
10
30.95
20
9.471122
30
0
11
30.95
21
10.47209
31
0
39
0
210
0
220
0
230
1
0
LINE
5
78
100
AcDbEntity
8
1
62
256
6
ByLayer
370
-1
48
1
60
0
100
AcDbLine
10
26.1
20
10.439393
30
0
11
26.1
21
10.47209
31
0
39
0
210
0
220
0
230
1
0
LINE
5
79
100
AcDbEntity
8
1
62
256
6
ByLayer
370
-1
48
1
60
0
100
AcDbLine
10
30.95
20
9.052632
30
0
11
26.000077
21
9.052632
31
0
39
0
210
0
220
0
230
1
0
LINE
5
7A
100
AcDbEntity
8
1
62
256
6
ByLayer
370
-1
48
1
60
0
100
AcDbLine
10
26.1
20
14.150914
30
0
11
32.676533
21
14.380572
31
0
39
0
210
0
220
0
230
1
0
LINE
5
7B
100
AcDbEntity
8
1
62
256
6
ByLayer
370
-1
48
1
60
0
100
AcDbLine
10
25.15
20
1.933228
30
0
11
25.15
21
1.33535
31
0
39
0
210
0
220
0
230
1
0
LINE
5
7C
100
AcDbEntity
8
1
62
256
6
ByLayer
370
-1
48
1
60
0
100
AcDbLine
10
26.1
20
11.177866
30
0
11
26.1
21
14.150914
31
0
39
0
210
0
220
0
230
1
0
LINE
5
7D
100
AcDbEntity
8
1
62
256
6
ByLayer
370
-1
48
1
60
0
100
AcDbLine
10
30.95
20
10.47209
30
0
11
26.1
21
10.47209
31
0
39
0
210
0
220
0
230
1
0
LINE
5
7E
100
AcDbEntity
8
1
62
256
6
ByLayer
370
-1
48
1
60
0
100
AcDbLine
10
30.95
20
12.609879
30
0
11
32.676533
21
12.549587
31
0
39
0
210
0
220
0
230
1
0
LINE
5
7F
100
AcDbEntity
8
1
62
256
6
ByLayer
370
-1
48
1
60
0
100
AcDbLine
10
26.1
20
2.436586
30
0
11
26.1
21
8.557057
31
0
39
0
210
0
220
0
230
1
0
LINE
5
80
100
AcDbEntity
8
1
62
256
6
ByLayer
370
-1
48
1
60
0
100
AcDbLine
10
30.95
20
9.471122
30
0
11
30.95
21
9.052632
31
0
39
0
210
0
220
0
230
1
0
LINE
5
81
100
AcDbEntity
8
1
62
256
6
ByLayer
370
-1
48
1
60
0
100
AcDbLine
10
21.632005
20
0
30
0
11
22.594214
21
0
31
0
39
0
210
0
220
0
230
1
0
LINE
5
82
100
AcDbEntity
8
1
62
256
6
ByLayer
370
-1
48
1
60
0
100
AcDbLine
10
21.872547
20
-1
30
0
11
21.631992
21
0
31
0
39
0
210
0
220
0
230
1
0
LINE
5
83
100
AcDbEntity
8
1
62
256
6
ByLayer
370
-1
48
1
60
0
100
AcDbLine
10
22.353659
20
-1
30
0
11
21.872547
21
-1
31
0
39
0
210
0
220
0
230
1
0
LINE
5
84
100
AcDbEntity
8
1
62
256
6
ByLayer
370
-1
48
1
60
0
100
AcDbLine
10
22.594214
20
0
30
0
11
22.353659
21
-1
31
0
39
0
210
0
220
0
230
1
0
LINE
5
85
100
AcDbEntity
8
1
62
256
6
ByLayer
370
-1
48
1
60
0
100
AcDbLine
10
22.353659
20
1
30
0
11
22.594214
21
0
31
0
39
0
210
0
220
0
230
1
0
LINE
5
86
100
AcDbEntity
8
1
62
256
6
ByLayer
370
-1
48
1
60
0
100
AcDbLine
10
21.872547
20
1
30
0
11
22.353659
21
1
31
0
39
0
210
0
220
0
230
1
0
LINE
5
87
100
AcDbEntity
8
1
62
256
6
ByLayer
370
-1
48
1
60
0
100
AcDbLine
10
21.631992
20
0
30
0
11
21.872547
21
1
31
0
39
0
210
0
220
0
230
1
0
LINE
5
88
100
AcDbEntity
8
1
62
256
6
ByLayer
370
-1
48
1
60
0
100
AcDbLine
10
14
20
-4.543127
30
0
11
14
21
-6.800735
31
0
39
0
210
0
220
0
230
1
0
LINE
5
89
100
AcDbEntity
8
1
62
256
6
ByLayer
370
-1
48
1
60
0
100
AcDbLine
10
14
20
6.800735
30
0
11
14
21
4.543127
31
0
39
0
210
0
220
0
230
1
0
LINE
5
8A
100
AcDbEntity
8
1
62
256
6
ByLayer
370
-1
48
1
60
0
100
AcDbLine
10
21.239293
20
-8.944272
30
0
11
15.5
21
-8.944272
31
0
39
0
210
0
220
0
230
1
0
LINE
5
8B
100
AcDbEntity
8
1
62
256
6
ByLayer
370
-1
48
1
60
0
100
AcDbLine
10
15.5
20
8.944272
30
0
11
21.239293
21
8.944272
31
0
39
0
210
0
220
0
230
1
0
LINE
5
8C
100
AcDbEntity
8
1
62
256
6
ByLayer
370
-1
48
1
60
0
100
AcDbLine
10
21.239293
20
-8.944272
30
0
11
21.239293
21
8.944272
31
0
39
0
210
0
220
0
230
1
0
LINE
5
8D
100
AcDbEntity
8
1
62
256
6
ByLayer
370
-1
48
1
60
0
100
AcDbLine
10
26
20
12
30
0
11
24.776534
21
12
31
0
39
0
210
0
220
0
230
1
0
LINE
5
8E
100
AcDbEntity
8
1
62
256
6
ByLayer
370
-1
48
1
60
0
100
AcDbLine
10
26
20
11.505688
30
0
11
26
21
10.320038
31
0
39
0
210
0
220
0
230
1
0
LINE
5
8F
100
AcDbEntity
8
1
62
256
6
ByLayer
370
-1
48
1
60
0
100
AcDbLine
10
24.769088
20
9.87871
30
0
11
24.772103
21
9.827931
31
0
39
0
210
0
220
0
230
1
0
LINE
5
90
100
AcDbEntity
8
1
62
256
6
ByLayer
370
-1
48
1
60
0
100
AcDbLine
10
24.8743
20
9.756282
30
0
11
26
21
9.219548
31
0
39
0
210
0
220
0
230
1
0
LINE
5
91
100
AcDbEntity
8
1
62
256
6
ByLayer
370
-1
48
1
60
0
100
AcDbLine
10
26
20
9.219548
30
0
11
26
21
9.043641
31
0
39
0
210
0
220
0
230
1
0
LINE
5
92
100
AcDbEntity
8
1
62
256
6
ByLayer
370
-1
48
1
60
0
100
AcDbLine
10
23
20
10.260468
30
0
11
23
21
10.116936
31
0
39
0
210
0
220
0
230
1
0
LINE
5
93
100
AcDbEntity
8
1
62
256
6
ByLayer
370
-1
48
1
60
0
100
AcDbLine
10
24.776534
20
12
30
0
11
26
21
11.505688
31
0
39
0
210
0
220
0
230
1
0
LINE
5
94
100
AcDbEntity
8
1
62
256
6
ByLayer
370
-1
48
1
60
0
100
AcDbLine
10
19.801747
20
11.885646
30
0
11
22.374438
21
10.846211
31
0
39
0
210
0
220
0
230
1
0
LINE
5
95
100
AcDbEntity
8
1
62
256
6
ByLayer
370
-1
48
1
60
0
100
AcDbLine
10
24.621122
20
9.938492
30
0
11
24.769088
21
9.87871
31
0
39
0
210
0
220
0
230
1
0
LINE
5
96
100
AcDbEntity
8
1
62
256
6
ByLayer
370
-1
48
1
60
0
100
AcDbLine
10
21.426189
20
-9.292906
30
0
11
21.047704
21
-9.610493
31
0
39
0
210
0
220
0
230
1
0
LINE
5
97
100
AcDbEntity
8
1
62
256
6
ByLayer
370
-1
48
1
60
0
100
AcDbLine
10
18.2
20
-12
30
0
11
18.269292
21
-11.941857
31
0
39
0
210
0
220
0
230
1
0
LINE
5
98
100
AcDbEntity
8
1
62
256
6
ByLayer
370
-1
48
1
60
0
100
AcDbLine
10
23.4
20
10.176455
30
0
11
23.4
21
8
31
0
39
0
210
0
220
0
230
1
0
LINE
5
99
100
AcDbEntity
8
1
62
256
6
ByLayer
370
-1
48
1
60
0
100
AcDbLine
10
23.4
20
8
30
0
11
23.4
21
5.5
31
0
39
0
210
0
220
0
230
1
0
LINE
5
9A
100
AcDbEntity
8
1
62
256
6
ByLayer
370
-1
48
1
60
0
100
AcDbLine
10
26
20
5.5
30
0
11
26
21
2.288795
31
0
39
0
210
0
220
0
230
1
0
LINE
5
9B
100
AcDbEntity
8
1
62
256
6
ByLayer
370
-1
48
1
60
0
100
AcDbLine
10
26
20
8
30
0
11
26
21
5.5
31
0
39
0
210
0
220
0
230
1
0
LINE
5
9C
100
AcDbEntity
8
1
62
256
6
ByLayer
370
-1
48
1
60
0
100
AcDbLine
10
26
20
1.154331
30
0
11
26
21
1.102803
31
0
39
0
210
0
220
0
230
1
0
LINE
5
9D
100
AcDbEntity
8
1
62
256
6
ByLayer
370
-1
48
1
60
0
100
AcDbLine
10
24.853223
20
9.766679
30
0
11
24.865807
21
10.078759
31
0
39
0
210
0
220
0
230
1
0
LINE
5
9E
100
AcDbEntity
8
1
62
256
6
ByLayer
370
-1
48
1
60
0
100
AcDbLine
10
24.828639
20
1.843003
30
0
11
24.849721
21
1.320172
31
0
39
0
210
0
220
0
230
1
0
LINE
5
9F
100
AcDbEntity
8
1
62
256
6
ByLayer
370
-1
48
1
60
0
100
AcDbLine
10
26
20
0.95
30
0
11
26
21
1.102803
31
0
39
0
210
0
220
0
230
1
0
LINE
5
A0
100
AcDbEntity
8
1
62
256
6
ByLayer
370
-1
48
1
60
0
100
AcDbLine
10
26
20
9.043641
30
0
11
26
21
8
31
0
39
0
210
0
220
0
230
1
0
LINE
5
A1
100
AcDbEntity
8
1
62
256
6
ByLayer
370
-1
48
1
60
0
100
AcDbLine
10
23.4
20
5.5
30
0
11
26
21
5.5
31
0
39
0
210
0
220
0
230
1
0
LINE
5
A2
100
AcDbEntity
8
1
62
256
6
ByLayer
370
-1
48
1
60
0
100
AcDbLine
10
23
20
5.5
30
0
11
23.4
21
5.5
31
0
39
0
210
0
220
0
230
1
0
LINE
5
A3
100
AcDbEntity
8
1
62
256
6
ByLayer
370
-1
48
1
60
0
100
AcDbLine
10
23
20
8
30
0
11
23.4
21
8
31
0
39
0
210
0
220
0
230
1
0
LINE
5
A4
100
AcDbEntity
8
1
62
256
6
ByLayer
370
-1
48
1
60
0
100
AcDbLine
10
21.047704
20
-9.610493
30
0
11
15.5
21
-9.610493
31
0
39
0
210
0
220
0
230
1
0
LINE
5
A5
100
AcDbEntity
8
1
62
256
6
ByLayer
370
-1
48
1
60
0
100
AcDbLine
10
21.047704
20
-9.610493
30
0
11
20.552501
21
-10.026017
31
0
39
0
210
0
220
0
230
1
0
LINE
5
A6
100
AcDbEntity
8
1
62
256
6
ByLayer
370
-1
48
1
60
0
100
AcDbLine
10
14
20
-10.026017
30
0
11
20.552501
21
-10.026017
31
0
39
0
210
0
220
0
230
1
0
LINE
5
A7
100
AcDbEntity
8
1
62
256
6
ByLayer
370
-1
48
1
60
0
100
AcDbLine
10
14
20
-9.954204
30
0
11
14
21
-10.026017
31
0
39
0
210
0
220
0
230
1
0
LINE
5
A8
100
AcDbEntity
8
1
62
256
6
ByLayer
370
-1
48
1
60
0
100
AcDbLine
10
14
20
-10.320713
30
0
11
14
21
-10.287742
31
0
39
0
210
0
220
0
230
1
0
LINE
5
A9
100
AcDbEntity
8
1
62
256
6
ByLayer
370
-1
48
1
60
0
100
AcDbLine
10
15.5
20
-11.941857
30
0
11
18.269292
21
-11.941857
31
0
39
0
210
0
220
0
230
1
0
LINE
5
AA
100
AcDbEntity
8
1
62
256
6
ByLayer
370
-1
48
1
60
0
100
AcDbLine
10
14
20
-10.058933
30
0
11
14
21
-10.287742
31
0
39
0
210
0
220
0
230
1
0
LINE
5
AB
100
AcDbEntity
8
1
62
256
6
ByLayer
370
-1
48
1
60
0
100
AcDbLine
10
14
20
-10.058933
30
0
11
14
21
-10.026017
31
0
39
0
210
0
220
0
230
1
0
LINE
5
AC
100
AcDbEntity
8
1
62
256
6
ByLayer
370
-1
48
1
60
0
100
AcDbLine
10
20.552501
20
-10.026017
30
0
11
20.513273
21
-10.058933
31
0
39
0
210
0
220
0
230
1
0
LINE
5
AD
100
AcDbEntity
8
1
62
256
6
ByLayer
370
-1
48
1
60
0
100
AcDbLine
10
14
20
-10.287742
30
0
11
20.240589
21
-10.287742
31
0
39
0
210
0
220
0
230
1
0
LINE
5
AE
100
AcDbEntity
8
1
62
256
6
ByLayer
370
-1
48
1
60
0
100
AcDbLine
10
20.513273
20
-10.058933
30
0
11
14
21
-10.058933
31
0
39
0
210
0
220
0
230
1
0
LINE
5
AF
100
AcDbEntity
8
1
62
256
6
ByLayer
370
-1
48
1
60
0
100
AcDbLine
10
21.426189
20
-9.292906
30
0
11
23
21
-7.972322
31
0
39
0
210
0
220
0
230
1
0
LINE
5
B0
100
AcDbEntity
8
1
62
256
6
ByLayer
370
-1
48
1
60
0
100
AcDbLine
10
23
20
10.116936
30
0
11
23
21
-7.972322
31
0
39
0
210
0
220
0
230
1
0
LINE
5
B1
100
AcDbEntity
8
1
62
256
6
ByLayer
370
-1
48
1
60
0
100
AcDbLine
10
5.8
20
2.56125
30
0
11
13.2
21
2.56125
31
0
39
0
210
0
220
0
230
1
0
LINE
5
B2
100
AcDbEntity
8
1
62
256
6
ByLayer
370
-1
48
1
60
0
100
AcDbLine
10
13.2
20
-2.56125
30
0
11
5.8
21
-2.56125
31
0
39
0
210
0
220
0
230
1
0
LINE
5
B3
100
AcDbEntity
8
1
62
256
6
ByLayer
370
-1
48
1
60
0
100
AcDbLine
10
23.4
20
0.95
30
0
11
23.4
21
5.5
31
0
39
0
210
0
220
0
230
1
0
LINE
5
B4
100
AcDbEntity
8
1
62
256
6
ByLayer
370
-1
48
1
60
0
100
AcDbLine
10
23.4
20
8
30
0
11
26
21
8
31
0
39
0
210
0
220
0
230
1
0
LINE
5
B5
100
AcDbEntity
8
1
62
256
6
ByLayer
370
-1
48
1
60
0
100
AcDbLine
10
0
20
-3.427827
30
0
11
0
21
3.427827
31
0
39
0
210
0
220
0
230
1
0
LINE
5
B6
100
AcDbEntity
8
1
62
256
6
ByLayer
370
-1
48
1
60
0
100
AcDbLine
10
0
20
-3.427827
30
0
11
3.5
21
-3.427827
31
0
39
0
210
0
220
0
230
1
0
LINE
5
B7
100
AcDbEntity
8
1
62
256
6
ByLayer
370
-1
48
1
60
0
100
AcDbLine
10
3.5
20
3.427827
30
0
11
0
21
3.427827
31
0
39
0
210
0
220
0
230
1
0
LINE
5
B8
100
AcDbEntity
8
1
62
256
6
ByLayer
370
-1
48
1
60
0
100
AcDbLine
10
15.5
20
8.944272
30
0
11
15.5
21
12
31
0
39
0
210
0
220
0
230
1
0
LINE
5
B9
100
AcDbEntity
8
1
62
256
6
ByLayer
370
-1
48
1
60
0
100
AcDbLine
10
15.5
20
-8.944272
30
0
11
15.5
21
-9.610493
31
0
39
0
210
0
220
0
230
1
0
LINE
5
BA
100
AcDbEntity
8
1
62
256
6
ByLayer
370
-1
48
1
60
0
100
AcDbLine
10
15.5
20
-12
30
0
11
15.5
21
-11.941857
31
0
39
0
210
0
220
0
230
1
0
LINE
5
BB
100
AcDbEntity
8
1
62
256
6
ByLayer
370
-1
48
1
60
0
100
AcDbLine
10
14
20
-10.5
30
0
11
14
21
-10.320713
31
0
39
0
210
0
220
0
230
1
0
LINE
5
BC
100
AcDbEntity
8
1
62
256
6
ByLayer
370
-1
48
1
60
0
100
AcDbLine
10
14
20
-9.954204
30
0
11
14
21
-6.800735
31
0
39
0
210
0
220
0
230
1
0
LINE
5
BD
100
AcDbEntity
8
1
62
256
6
ByLayer
370
-1
48
1
60
0
100
AcDbLine
10
14
20
10.5
30
0
11
14
21
6.800735
31
0
39
0
210
0
220
0
230
1
0
LINE
5
BE
100
AcDbEntity
8
1
62
256
6
ByLayer
370
-1
48
1
60
0
100
AcDbLine
10
5
20
10.5
30
0
11
5
21
-10.5
31
0
39
0
210
0
220
0
230
1
0
LINE
5
BF
100
AcDbEntity
8
1
62
256
6
ByLayer
370
-1
48
1
60
0
100
AcDbLine
10
3.5
20
12
30
0
11
3.5
21
3.427827
31
0
39
0
210
0
220
0
230
1
0
LINE
5
C0
100
AcDbEntity
8
1
62
256
6
ByLayer
370
-1
48
1
60
0
100
AcDbLine
10
3.5
20
-3.427827
30
0
11
3.5
21
-12
31
0
39
0
210
0
220
0
230
1
0
LINE
5
C1
100
AcDbEntity
8
SK1
62
256
6
ByLayer
370
-1
48
1
60
0
100
AcDbLine
10
-4
20
7.4
30
0
11
-3.4
21
8
31
0
39
0
210
0
220
0
230
1
0
LINE
5
C2
100
AcDbEntity
8
SK1
62
256
6
ByLayer
370
-1
48
1
60
0
100
AcDbLine
10
-38
20
7
30
0
11
-38
21
-7
31
0
39
0
210
0
220
0
230
1
0
LINE
5
C3
100
AcDbEntity
8
SK1
62
256
6
ByLayer
370
-1
48
1
60
0
100
AcDbLine
10
-37
20
-8
30
0
11
-37
21
7.4
31
0
39
0
210
0
220
0
230
1
0
LINE
5
C4
100
AcDbEntity
8
1
62
256
6
ByLayer
370
-1
48
1
60
0
100
AcDbLine
10
0
20
12
30
0
11
0
21
3.427827
31
0
39
0
210
0
220
0
230
1
0
LINE
5
C5
100
AcDbEntity
8
SK1
62
256
6
ByLayer
370
-1
48
1
60
0
100
AcDbLine
10
-4
20
7.4
30
0
11
-37
21
7.4
31
0
39
0
210
0
220
0
230
1
0
LINE
5
C6
100
AcDbEntity
8
1
62
256
6
ByLayer
370
-1
48
1
60
0
100
AcDbLine
10
5.8
20
-2.56125
30
0
11
5.8
21
2.56125
31
0
39
0
210
0
220
0
230
1
0
LINE
5
C7
100
AcDbEntity
8
1
62
256
6
ByLayer
370
-1
48
1
60
0
100
AcDbLine
10
13.2
20
8.4
30
0
11
13.2
21
2.56125
31
0
39
0
210
0
220
0
230
1
0
LINE
5
C8
100
AcDbEntity
8
1
62
256
6
ByLayer
370
-1
48
1
60
0
100
AcDbLine
10
13.2
20
-8.4
30
0
11
13.2
21
-2.56125
31
0
39
0
210
0
220
0
230
1
0
LINE
5
C9
100
AcDbEntity
8
1
62
256
6
ByLayer
370
-1
48
1
60
0
100
AcDbLine
10
5.8
20
8.4
30
0
11
5.8
21
2.56125
31
0
39
0
210
0
220
0
230
1
0
LINE
5
CA
100
AcDbEntity
8
1
62
256
6
ByLayer
370
-1
48
1
60
0
100
AcDbLine
10
5.8
20
-2.56125
30
0
11
5.8
21
-8.4
31
0
39
0
210
0
220
0
230
1
0
LINE
5
CB
100
AcDbEntity
8
1
62
256
6
ByLayer
370
-1
48
1
60
0
100
AcDbLine
10
20.240589
20
-10.287742
30
0
11
18.269292
21
-11.941857
31
0
39
0
210
0
220
0
230
1
0
LINE
5
CC
100
AcDbEntity
8
1
62
256
6
ByLayer
370
-1
48
1
60
0
100
AcDbLine
10
20.240589
20
-10.287742
30
0
11
20.513273
21
-10.058933
31
0
39
0
210
0
220
0
230
1
0
LINE
5
CD
100
AcDbEntity
8
SK1
62
256
6
ByLayer
370
-1
48
1
60
0
100
AcDbLine
10
-0.275
20
-7.75
30
0
11
-0.275
21
7.75
31
0
39
0
210
0
220
0
230
1
0
LINE
5
CE
100
AcDbEntity
8
SK1
62
256
6
ByLayer
370
-1
48
1
60
0
100
AcDbLine
10
-1.114326
20
-7.75
30
0
11
-1.114326
21
7.75
31
0
39
0
210
0
220
0
230
1
0
LINE
5
CF
100
AcDbEntity
8
SK1
62
256
6
ByLayer
370
-1
48
1
60
0
100
AcDbLine
10
-1.217854
20
-7.76363
30
0
11
-1.217854
21
7.76363
31
0
39
0
210
0
220
0
230
1
0
LINE
5
D0
100
AcDbEntity
8
SK1
62
256
6
ByLayer
370
-1
48
1
60
0
100
AcDbLine
10
-2.1
20
-8
30
0
11
-2.1
21
8
31
0
39
0
210
0
220
0
230
1
0
LINE
5
D1
100
AcDbEntity
8
1
62
256
6
ByLayer
370
-1
48
1
60
0
100
AcDbLine
10
17.972903
20
-9.788703
30
0
11
17.972903
21
-9.894406
31
0
39
0
210
0
220
0
230
1
0
LINE
5
D2
100
AcDbEntity
8
1
62
256
6
ByLayer
370
-1
48
1
60
0
100
AcDbLine
10
16.947847
20
-9.741119
30
0
11
16.947847
21
-9.941741
31
0
39
0
210
0
220
0
230
1
0
LINE
5
D3
100
AcDbEntity
8
1
62
256
6
ByLayer
370
-1
48
1
60
0
100
AcDbLine
10
16.947847
20
-9.941741
30
0
11
15.974944
21
-9.886363
31
0
39
0
210
0
220
0
230
1
0
LINE
5
D4
100
AcDbEntity
8
1
62
256
6
ByLayer
370
-1
48
1
60
0
100
AcDbLine
10
17.972903
20
-9.894406
30
0
11
16.947847
21
-9.941741
31
0
39
0
210
0
220
0
230
1
0
LINE
5
D5
100
AcDbEntity
8
1
62
256
6
ByLayer
370
-1
48
1
60
0
100
AcDbLine
10
18.025056
20
-9.791694
30
0
11
17.972903
21
-9.894406
31
0
39
0
210
0
220
0
230
1
0
LINE
5
D6
100
AcDbEntity
8
1
62
256
6
ByLayer
370
-1
48
1
60
0
100
AcDbLine
10
17.052153
20
-9.736316
30
0
11
18.025056
21
-9.791694
31
0
39
0
210
0
220
0
230
1
0
LINE
5
D7
100
AcDbEntity
8
1
62
256
6
ByLayer
370
-1
48
1
60
0
100
AcDbLine
10
16.027097
20
-9.783651
30
0
11
17.052153
21
-9.736316
31
0
39
0
210
0
220
0
230
1
0
LINE
5
D8
100
AcDbEntity
8
1
62
256
6
ByLayer
370
-1
48
1
60
0
100
AcDbLine
10
15.974944
20
-9.886363
30
0
11
16.027097
21
-9.783651
31
0
39
0
210
0
220
0
230
1
0
LINE
5
D9
100
AcDbEntity
8
1
62
256
6
ByLayer
370
-1
48
1
60
0
100
AcDbLine
10
31
20
3.575638
30
0
11
31
21
7.424362
31
0
39
0
210
0
220
0
230
1
0
LINE
5
DA
100
AcDbEntity
8
1
62
256
6
ByLayer
370
-1
48
1
60
0
100
AcDbLine
10
22.18307
20
10.871237
30
0
11
22.332329
21
10.696846
31
0
39
0
210
0
220
0
230
1
0
LINE
5
DB
100
AcDbEntity
8
1
62
256
6
ByLayer
370
-1
48
1
60
0
100
AcDbLine
10
23
20
10.116936
30
0
11
21.939821
21
10.10538
31
0
39
0
210
0
220
0
230
1
0
LINE
5
DC
100
AcDbEntity
8
1
62
256
6
ByLayer
370
-1
48
1
60
0
100
AcDbLine
10
26
20
12
30
0
11
26
21
11.505688
31
0
39
0
210
0
220
0
230
1
0
LINE
5
DD
100
AcDbEntity
8
4
62
256
6
ByLayer
370
-1
48
0.05
60
0
100
AcDbLine
10
0
20
1.9E-05
30
0
11
36.300131
21
1.9E-05
31
0
39
0
210
0
220
0
230
1
0
LINE
5
DF
100
AcDbEntity
8
SK4
62
256
6
ByLayer
370
-1
48
0.05
60
0
100
AcDbLine
10
-39.999869
20
1.9E-05
30
0
11
36.500131
21
1.9E-05
31
0
39
0
210
0
220
0
230
1
0
MTEXT
5
11D
100
AcDbEntity
8
2
62
256
6
ByLayer
370
-1
48
1
60
0
100
AcDbMText
10
65.432948
20
-28.820346
30
0
210
0
220
0
230
1
1
\W00.766;\fsimplex.shx,bigfont.shx;DC = 29.0 - 35.0\P
40
3
41
0
44
1.084337
50
89.9999999999993
71
7
72
5
7
DEFAULT
0
MTEXT
5
120
100
AcDbEntity
8
SK6
62
256
6
ByLayer
370
-1
48
1
60
0
100
AcDbMText
10
36.603518
20
22.643809
30
0
210
0
220
0
230
1
1
\W00.760;\fsimplex.shx,bigfont.shx;R429U-A16-29026MB09\P
40
3
41
0
44
1.084337
50
0
71
7
72
5
7
DEFAULT
0
DIMENSION
5
12C
100
AcDbEntity
8
SK2
62
256
6
ByLayer
370
-3
48
1
60
0
100
AcDbDimension
2
DimnDraft3D1
10
-38
20
43.250019
30
0
11
-10.2
21
43.250019
31
0
70
32
71
5
72
1
41
1
210
0
220
0
230
1
3
Standard
100
AcDbAlignedDimension
13
26
23
14
33
0
14
-38
24
9
34
0
50
0
100
AcDbRotatedDimension
1001
ACAD
1000
DSTYLE
1002
{
1070
   279
1070
     0
1070
   172
1070
     1
1070
   173
1070
     1
1070
   340
1005
11E
1070
   271
1070
     1
1070
    77
1070
     1
1070
    73
1070
     0
1070
   171
1070
     4
1070
   274
1070
     4
1070
   177
1070
     7
1070
   176
1070
     7
1070
   178
1070
     7
1070
    41
1041
3.175
1070
   147
1041
1.75
1070
    42
1041
2.0
1070
    44
1041
2.0
1070
   140
1041
3.5
1070
   343
1005
0
1070
   344
1005
0
1002
}
0
DIMENSION
5
136
100
AcDbEntity
8
2
62
256
6
ByLayer
370
-3
48
1
60
0
100
AcDbDimension
2
DimnDraft3D2
10
0
20
28.250019
30
0
11
8.984211
21
28.250019
31
0
70
32
71
5
72
1
41
1
210
0
220
0
230
1
3
Standard
100
AcDbAlignedDimension
13
26
23
14
33
0
14
0
24
14
34
0
50
0
100
AcDbRotatedDimension
1001
ACAD
1000
DSTYLE
1002
{
1070
   279
1070
     0
1070
   172
1070
     1
1070
   173
1070
     1
1070
   340
1005
11E
1070
   271
1070
     1
1070
    77
1070
     1
1070
    73
1070
     0
1070
   171
1070
     4
1070
   274
1070
     4
1070
   177
1070
     7
1070
   176
1070
     7
1070
   178
1070
     7
1070
    41
1041
3.175
1070
   147
1041
1.75
1070
    42
1041
2.0
1070
    44
1041
2.0
1070
   140
1041
3.5
1070
   343
1005
0
1070
   344
1005
0
1002
}
0
DIMENSION
5
140
100
AcDbEntity
8
SK2
62
256
6
ByLayer
370
-3
48
1
60
0
100
AcDbDimension
2
DimnDraft3D3
10
-45.291869
20
8
30
0
11
-45.291869
21
-27.247368
31
0
70
32
71
5
72
1
41
1
210
0
220
0
230
1
3
Standard
100
AcDbAlignedDimension
13
-39
23
-8
33
0
14
-5.4
24
8
34
0
50
90
100
AcDbRotatedDimension
1001
ACAD
1000
DSTYLE
1002
{
1070
    74
1070
     0
1070
   279
1070
     0
1070
   172
1070
     1
1070
   173
1070
     1
1070
   340
1005
11E
1070
   271
1070
     1
1070
    77
1070
     1
1070
    73
1070
     0
1070
   171
1070
     4
1070
   274
1070
     4
1070
   177
1070
     7
1070
   176
1070
     7
1070
   178
1070
     7
1070
    41
1041
3.175
1070
   147
1041
1.75
1070
    42
1041
2.0
1070
    44
1041
2.0
1070
   140
1041
3.5
1070
   343
1005
0
1070
   344
1005
0
1002
}
0
DIMENSION
5
14A
100
AcDbEntity
8
2
62
256
6
ByLayer
370
-3
48
1
60
0
100
AcDbDimension
2
DimnDraft3D4
10
36.3
20
-25.814474
30
0
11
5.669737
21
-25.814474
31
0
70
32
71
5
72
1
41
1
210
0
220
0
230
1
3
Standard
100
AcDbAlignedDimension
13
0
23
-14
33
0
14
36.3
24
10.629024
34
0
50
0
100
AcDbRotatedDimension
1001
ACAD
1000
DSTYLE
1002
{
1070
   279
1070
     0
1070
   172
1070
     1
1070
   173
1070
     1
1070
   340
1005
11E
1070
   271
1070
     1
1070
    77
1070
     1
1070
    73
1070
     0
1070
   171
1070
     4
1070
   274
1070
     4
1070
   177
1070
     7
1070
   176
1070
     7
1070
   178
1070
     7
1070
    78
1070
     8
1070
    41
1041
3.175
1070
   147
1041
1.75
1070
    42
1041
2.0
1070
    44
1041
2.0
1070
   140
1041
3.5
1070
   343
1005
0
1070
   344
1005
0
1002
}
0
ENDSEC
0
SECTION
2
OBJECTS
0
DICTIONARY
5
199
330
0
100
AcDbDictionary
280
0
281
1
3
ACAD_GROUP
350
19a
3
ACAD_MLINESTYLE
350
19b
0
DICTIONARY
5
19a
330
0
100
AcDbDictionary
280
0
281
1
0
DICTIONARY
5
19b
330
0
100
AcDbDictionary
280
0
281
1
3
Standard
350
18
0
MLINESTYLE
5
18
330
19b
100
AcDbMlineStyle
2
Standard
70
0
3

62
256
51
90
52
90
71
2
49
-0.5
62
256
6
ByLayer
49
0.5
62
256
6
ByLayer
0
RASTERVARIABLES
5
187
330

100
AcDbRasterVariables
90
0
70
1
71
1
72
1
0
ENDSEC
0
EOF
