0
SECTION
2
HEADER
9
$ACADVER
1
AC1015
9
$DWGCODEPAGE
3
ANSI_1252
9
$HANDSEED
5
182
9
$ANGBASE
50
0
9
$ANGDIR
70
0
9
$ATTMODE
70
1
9
$AUNITS
70
0
9
$AUPREC
70
0
9
$CECOLOR
62
256
9
$CELTSCALE
40
1
9
$CELTYPE
6
ByLayer
9
$CELWEIGHT
370
-1
9
$CLAYER
8
0
9
$CMLJUST
70
0
9
$CMLSCALE
40
1
9
$CMLSTYLE
2
Standard
9
$DIMSTYLE
2
Standard
9
$TEXTSIZE
40
0.2
9
$TEXTSTYLE
7
Standard
9
$LUNITS
70
2
9
$LUPREC
70
4
9
$EXTNAMES
290
1
9
$INSUNITS
70
4
9
$LTSCALE
40
1
9
$LWDISPLAY
290
0
9
$PDMODE
70
0
9
$PDSIZE
40
0
9
$PLINEGEN
70
0
0
ENDSEC
0
SECTION
2
CLASSES
0
CLASS
1
RASTERVARIABLES
2
AcDbRasterVariables
3
ISM
90
0
280
0
281
0
0
ENDSEC
0
SECTION
2
TABLES
0
TABLE
2
VPORT
5
178
100
AcDbSymbolTable
0
VPORT
5
1
100
AcDbSymbolTableRecord
100
AcDbViewportTableRecord
2
*Active
70
0
10
0
20
0
11
1
21
1
12
-1
22
1
13
0
23
0
14
0.5
24
0.5
15
10
25
10
16
0
26
0
36
1
17
0
27
0
37
0
0
ENDTAB
0
TABLE
2
LTYPE
5
179
100
AcDbSymbolTable
0
LTYPE
5
14
100
AcDbSymbolTableRecord
100
AcDbLinetypeTableRecord
70
0
2
ByBlock
3

72
65
73
0
40
0
0
LTYPE
5
15
100
AcDbSymbolTableRecord
100
AcDbLinetypeTableRecord
70
0
2
ByLayer
3

72
65
73
0
40
0
0
LTYPE
5
16
100
AcDbSymbolTableRecord
100
AcDbLinetypeTableRecord
70
0
2
CONTINUOUS
3
Solid line
72
65
73
0
40
0
0
LTYPE
5
3C
100
AcDbSymbolTableRecord
100
AcDbLinetypeTableRecord
70
0
2
DASHED
3
__ __ __ __ __ __ __ __ __
72
65
73
2
40
25.72
49
12.86
74
0
49
-12.86
74
0
0
LTYPE
5
3D
100
AcDbSymbolTableRecord
100
AcDbLinetypeTableRecord
70
0
2
HIDDEN
3
_ _ _ _ _ _ _ _ _ _ _ _ _ _ _
72
65
73
2
40
0.5
49
0.25
74
0
49
-0.25
74
0
0
LTYPE
5
3E
100
AcDbSymbolTableRecord
100
AcDbLinetypeTableRecord
70
0
2
PHANTOM
3
____ _ _ ____ _ _ _____ _ _ ____
72
65
73
6
40
50.5
49
18
74
0
49
-6.5
74
0
49
6.5
74
0
49
-6.5
74
0
49
6.5
74
0
49
-6.5
74
0
0
LTYPE
5
3F
100
AcDbSymbolTableRecord
100
AcDbLinetypeTableRecord
70
0
2
CENTER
3
____ _ ____ _ ____ _ ____
72
65
73
4
40
47.5
49
22
74
0
49
-8.5
74
0
49
8.5
74
0
49
-8.5
74
0
0
LTYPE
5
40
100
AcDbSymbolTableRecord
100
AcDbLinetypeTableRecord
70
0
2
DOT
3
.........................
72
65
73
2
40
10
49
0
74
0
49
-10
74
0
0
LTYPE
5
41
100
AcDbSymbolTableRecord
100
AcDbLinetypeTableRecord
70
0
2
DASHDOT
3
_._._._._._._._._._._._._._._._.
72
65
73
4
40
70
49
31
74
0
49
-13
74
0
49
13
74
0
49
-13
74
0
0
ENDTAB
0
TABLE
2
LAYER
5
17a
100
AcDbSymbolTable
0
LAYER
5
10
100
AcDbSymbolTableRecord
100
AcDbLayerTableRecord
2
0
70
0
62
7
6
CONTINUOUS
290
1
370
-3
390
0
0
LAYER
5
43
100
AcDbSymbolTableRecord
100
AcDbLayerTableRecord
2
80
70
0
62
-6
6
CONTINUOUS
290
1
370
-3
390
0
0
LAYER
5
45
100
AcDbSymbolTableRecord
100
AcDbLayerTableRecord
2
81
70
0
62
-3
6
CONTINUOUS
290
1
370
-3
390
0
0
LAYER
5
47
100
AcDbSymbolTableRecord
100
AcDbLayerTableRecord
2
2
70
0
62
7
6
CONTINUOUS
290
1
370
-3
390
0
0
LAYER
5
56
100
AcDbSymbolTableRecord
100
AcDbLayerTableRecord
2
1
70
0
62
4
6
CONTINUOUS
290
1
370
-3
390
0
0
LAYER
5
B5
100
AcDbSymbolTableRecord
100
AcDbLayerTableRecord
2
4
70
0
62
-2
6
CENTER
290
1
370
-3
390
0
0
LAYER
5
164
100
AcDbSymbolTableRecord
100
AcDbLayerTableRecord
2
SK1
70
0
62
4
6
CONTINUOUS
290
1
370
-3
390
0
0
LAYER
5
165
100
AcDbSymbolTableRecord
100
AcDbLayerTableRecord
2
SK4
70
0
62
2
6
CENTER
290
1
370
-3
390
0
0
LAYER
5
166
100
AcDbSymbolTableRecord
100
AcDbLayerTableRecord
2
SK6
70
0
62
5
6
CONTINUOUS
290
1
370
-3
390
0
0
LAYER
5
167
100
AcDbSymbolTableRecord
100
AcDbLayerTableRecord
2
SK2
70
0
62
7
6
CONTINUOUS
290
1
370
-3
390
0
0
ENDTAB
0
TABLE
2
STYLE
5
17b
100
AcDbSymbolTable
0
STYLE
5
11
100
AcDbSymbolTableRecord
100
AcDbTextStyleTableRecord
2
Standard
3
txt
70
0
71
0
40
0
41
1
42
0
50
0
0
STYLE
5
FA
100
AcDbSymbolTableRecord
100
AcDbTextStyleTableRecord
2
DEFAULT
3
simplex.shx
70
0
71
0
40
0
41
1
42
0
50
0
0
STYLE
5
FB
100
AcDbSymbolTableRecord
100
AcDbTextStyleTableRecord
2
DWGDirectTextStyle
3
SIMPLEX
70
0
71
0
40
0
41
1
42
0
50
0
0
ENDTAB
0
TABLE
2
DIMSTYLE
5
17c
100
AcDbSymbolTable
100
AcDbDimStyleTable
0
DIMSTYLE
105
27
100
AcDbSymbolTableRecord
100
AcDbDimStyleTableRecord
2
Standard
70
0
3
<>
41
0.18
42
0.0625
44
0.18
140
0.18
147
0.09
73
0
74
0
77
1
271
2
275
0
278
52
280
0
340
11
0
ENDTAB
0
TABLE
2
VIEW
5
17d
100
AcDbSymbolTable
0
ENDTAB
0
TABLE
2
UCS
5
17e
100
AcDbSymbolTable
0
ENDTAB
0
TABLE
2
APPID
5
17f
100
AcDbSymbolTable
0
APPID
5
12
100
AcDbSymbolTableRecord
100
AcDbRegAppTableRecord
2
ACAD
70
0
0
ENDTAB
0
TABLE
2
BLOCK_RECORD
5
180
100
AcDbSymbolTable
0
BLOCK_RECORD
5
1F
100
AcDbSymbolTableRecord
100
AcDbBlockTableRecord
2
*Model_Space
340
0
70
0
0
BLOCK_RECORD
5
1B
100
AcDbSymbolTableRecord
100
AcDbBlockTableRecord
2
*Paper_Space
340
0
70
0
0
BLOCK_RECORD
5
23
100
AcDbSymbolTableRecord
100
AcDbBlockTableRecord
2
*Paper_Space0
340
0
70
0
0
BLOCK_RECORD
5
FE
100
AcDbSymbolTableRecord
100
AcDbBlockTableRecord
2
DimnDraft3D1
340
0
70
0
0
BLOCK_RECORD
5
109
100
AcDbSymbolTableRecord
100
AcDbBlockTableRecord
2
DimnDraft3D2
340
0
70
0
0
BLOCK_RECORD
5
113
100
AcDbSymbolTableRecord
100
AcDbBlockTableRecord
2
DimnDraft3D3
340
0
70
0
0
BLOCK_RECORD
5
11D
100
AcDbSymbolTableRecord
100
AcDbBlockTableRecord
2
DimnDraft3D4
340
0
70
0
0
ENDTAB
0
ENDSEC
0
SECTION
2
BLOCKS
0
BLOCK
5
20
100
AcDbEntity
8
0
100
AcDbBlockBegin
2
*Model_Space
70
0
10
0
20
0
30
0
3
*Model_Space
0
ENDBLK
5
21
100
AcDbEntity
8
0
100
AcDbBlockEnd
0
BLOCK
5
1C
100
AcDbEntity
8
0
100
AcDbBlockBegin
2
*Paper_Space
70
0
10
0
20
0
30
0
3
*Paper_Space
0
ENDBLK
5
1D
100
AcDbEntity
8
0
100
AcDbBlockEnd
0
BLOCK
5
24
100
AcDbEntity
8
0
100
AcDbBlockBegin
2
*Paper_Space0
70
0
10
0
20
0
30
0
3
*Paper_Space0
0
ENDBLK
5
25
100
AcDbEntity
8
0
100
AcDbBlockEnd
0
BLOCK
5
106
100
AcDbEntity
8
0
100
AcDbBlockBegin
2
DimnDraft3D1
70
0
10
0
20
0
30
0
3
DimnDraft3D1
0
MTEXT
5
FF
100
AcDbEntity
8
SK2
62
256
6
ByLayer
370
-1
48
1
60
0
100
AcDbMText
10
-8.140789
20
44.125019
30
0
210
0
220
0
230
1
1
\W01.000;\fsimplex.shx,bigfont.shx;66.0\P
40
3.5
41
0
44
1.084337
50
0
71
7
72
5
7
DEFAULT
0
LINE
5
101
100
AcDbEntity
8
SK2
62
256
6
ByLayer
370
-1
48
1
60
0
100
AcDbLine
10
28
20
11.75
30
0
11
28
21
45.250019
31
0
39
0
210
0
220
0
230
1
0
LINE
5
102
100
AcDbEntity
8
SK2
62
256
6
ByLayer
370
-1
48
1
60
0
100
AcDbLine
10
-38
20
9
30
0
11
-38
21
45.250019
31
0
39
0
210
0
220
0
230
1
0
LINE
5
103
100
AcDbEntity
8
SK2
62
256
6
ByLayer
370
-1
48
1
60
0
100
AcDbLine
10
28
20
43.250019
30
0
11
-38
21
43.250019
31
0
39
0
210
0
220
0
230
1
0
SOLID
5
104
100
AcDbEntity
8
SK2
62
256
6
ByLayer
370
-1
48
1
60
0
100
AcDbTrace
10
28
20
43.250019
30
0
11
24.825002
21
42.832023
31
0
12
24.824998
22
43.668016
32
0
13
28
23
43.250019
33
0
39
0
210
0
220
0
230
1
0
SOLID
5
105
100
AcDbEntity
8
SK2
62
256
6
ByLayer
370
-1
48
1
60
0
100
AcDbTrace
10
-38
20
43.250019
30
0
11
-34.825002
21
43.668016
31
0
12
-34.824998
22
42.832023
32
0
13
-38
23
43.250019
33
0
39
0
210
0
220
0
230
1
0
ENDBLK
5
107
100
AcDbEntity
8
0
100
AcDbBlockEnd
0
BLOCK
5
110
100
AcDbEntity
8
0
100
AcDbBlockBegin
2
DimnDraft3D2
70
0
10
0
20
0
30
0
3
DimnDraft3D2
0
MTEXT
5
10A
100
AcDbEntity
8
2
62
256
6
ByLayer
370
-1
48
1
60
0
100
AcDbMText
10
10.859211
20
29.125019
30
0
210
0
220
0
230
1
1
\W01.000;\fsimplex.shx,bigfont.shx;28.0\P
40
3.5
41
0
44
1.084337
50
0
71
7
72
5
7
DEFAULT
0
LINE
5
10B
100
AcDbEntity
8
2
62
256
6
ByLayer
370
-1
48
1
60
0
100
AcDbLine
10
28
20
11.75
30
0
11
28
21
30.250019
31
0
39
0
210
0
220
0
230
1
0
LINE
5
10C
100
AcDbEntity
8
2
62
256
6
ByLayer
370
-1
48
1
60
0
100
AcDbLine
10
0
20
13.5
30
0
11
0
21
30.250019
31
0
39
0
210
0
220
0
230
1
0
LINE
5
10D
100
AcDbEntity
8
2
62
256
6
ByLayer
370
-1
48
1
60
0
100
AcDbLine
10
28
20
28.250019
30
0
11
0
21
28.250019
31
0
39
0
210
0
220
0
230
1
0
SOLID
5
10E
100
AcDbEntity
8
2
62
256
6
ByLayer
370
-1
48
1
60
0
100
AcDbTrace
10
28
20
28.250019
30
0
11
24.825002
21
27.832023
31
0
12
24.824998
22
28.668016
32
0
13
28
23
28.250019
33
0
39
0
210
0
220
0
230
1
0
SOLID
5
10F
100
AcDbEntity
8
2
62
256
6
ByLayer
370
-1
48
1
60
0
100
AcDbTrace
10
0
20
28.250019
30
0
11
3.174998
21
28.668016
31
0
12
3.175002
22
27.832023
32
0
13
0
23
28.250019
33
0
39
0
210
0
220
0
230
1
0
ENDBLK
5
111
100
AcDbEntity
8
0
100
AcDbBlockEnd
0
BLOCK
5
11A
100
AcDbEntity
8
0
100
AcDbBlockBegin
2
DimnDraft3D3
70
0
10
0
20
0
30
0
3
DimnDraft3D3
0
MTEXT
5
114
100
AcDbEntity
8
SK2
62
256
6
ByLayer
370
-1
48
1
60
0
100
AcDbMText
10
-46.166869
20
-26.372368
30
0
210
0
220
0
230
1
1
\W01.000;\fsimplex.shx,bigfont.shx;%%c 16.0\P
40
3.5
41
0
44
1.084337
50
90
71
7
72
5
7
DEFAULT
0
LINE
5
115
100
AcDbEntity
8
SK2
62
256
6
ByLayer
370
-1
48
1
60
0
100
AcDbLine
10
-39
20
-8
30
0
11
-47.291869
21
-8
31
0
39
0
210
0
220
0
230
1
0
LINE
5
116
100
AcDbEntity
8
SK2
62
256
6
ByLayer
370
-1
48
1
60
0
100
AcDbLine
10
-5.4
20
8
30
0
11
-47.291869
21
8
31
0
39
0
210
0
220
0
230
1
0
LINE
5
117
100
AcDbEntity
8
SK2
62
256
6
ByLayer
370
-1
48
1
60
0
100
AcDbLine
10
-45.291869
20
8
30
0
11
-45.291869
21
-27.247368
31
0
39
0
210
0
220
0
230
1
0
SOLID
5
118
100
AcDbEntity
8
SK2
62
256
6
ByLayer
370
-1
48
1
60
0
100
AcDbTrace
10
-45.291869
20
-8
30
0
11
-45.709865
21
-4.825002
31
0
12
-44.873872
22
-4.824998
32
0
13
-45.291869
23
-8
33
0
39
0
210
0
220
0
230
1
0
SOLID
5
119
100
AcDbEntity
8
SK2
62
256
6
ByLayer
370
-1
48
1
60
0
100
AcDbTrace
10
-45.291869
20
8
30
0
11
-44.873872
21
4.825002
31
0
12
-45.709865
22
4.824998
32
0
13
-45.291869
23
8
33
0
39
0
210
0
220
0
230
1
0
ENDBLK
5
11B
100
AcDbEntity
8
0
100
AcDbBlockEnd
0
BLOCK
5
124
100
AcDbEntity
8
0
100
AcDbBlockBegin
2
DimnDraft3D4
70
0
10
0
20
0
30
0
3
DimnDraft3D4
0
MTEXT
5
11E
100
AcDbEntity
8
2
62
256
6
ByLayer
370
-1
48
1
60
0
100
AcDbMText
10
7.728947
20
-24.939474
30
0
210
0
220
0
230
1
1
\W01.000;\fsimplex.shx,bigfont.shx;36.3 / 38.3\P
40
3.5
41
0
44
1.084337
50
0
71
7
72
5
7
DEFAULT
0
LINE
5
11F
100
AcDbEntity
8
2
62
256
6
ByLayer
370
-1
48
1
60
0
100
AcDbLine
10
0
20
-13.5
30
0
11
0
21
-27.814474
31
0
39
0
210
0
220
0
230
1
0
LINE
5
120
100
AcDbEntity
8
2
62
256
6
ByLayer
370
-1
48
1
60
0
100
AcDbLine
10
38.3
20
8.129024
30
0
11
38.3
21
-27.814474
31
0
39
0
210
0
220
0
230
1
0
LINE
5
121
100
AcDbEntity
8
2
62
256
6
ByLayer
370
-1
48
1
60
0
100
AcDbLine
10
0
20
-25.814474
30
0
11
38.3
21
-25.814474
31
0
39
0
210
0
220
0
230
1
0
SOLID
5
122
100
AcDbEntity
8
2
62
256
6
ByLayer
370
-1
48
1
60
0
100
AcDbTrace
10
0
20
-25.814474
30
0
11
3.174998
21
-25.396477
31
0
12
3.175002
22
-26.232471
32
0
13
0
23
-25.814474
33
0
39
0
210
0
220
0
230
1
0
SOLID
5
123
100
AcDbEntity
8
2
62
256
6
ByLayer
370
-1
48
1
60
0
100
AcDbTrace
10
38.3
20
-25.814474
30
0
11
35.125002
21
-26.232471
31
0
12
35.124998
22
-25.396477
32
0
13
38.3
23
-25.814474
33
0
39
0
210
0
220
0
230
1
0
ENDBLK
5
125
100
AcDbEntity
8
0
100
AcDbBlockEnd
0
ENDSEC
0
SECTION
2
ENTITIES
0
ARC
5
B8
100
AcDbEntity
8
1
62
256
6
ByLayer
370
-1
48
1
60
0
100
AcDbCircle
39
0
10
3.5
20
10
30
0
40
1.5
210
0
220
0
230
1
100
AcDbArc
50
0
51
90
0
ARC
5
B9
100
AcDbEntity
8
1
62
256
6
ByLayer
370
-1
48
1
60
0
100
AcDbCircle
39
0
10
17
20
-8.75
30
0
40
1
210
0
220
0
230
1
100
AcDbArc
50
180
51
270
0
ARC
5
BA
100
AcDbEntity
8
1
62
256
6
ByLayer
370
-1
48
1
60
0
100
AcDbCircle
39
0
10
3.5
20
-10
30
0
40
1.5
210
0
220
0
230
1
100
AcDbArc
50
270
51
0
0
ARC
5
BB
100
AcDbEntity
8
1
62
256
6
ByLayer
370
-1
48
1
60
0
100
AcDbCircle
39
0
10
-5.8
20
-8.7
30
0
40
0.8
210
0
220
0
230
-1
100
AcDbArc
50
0
51
90
0
ARC
5
BC
100
AcDbEntity
8
1
62
256
6
ByLayer
370
-1
48
1
60
0
100
AcDbCircle
39
0
10
-15.2
20
8.7
30
0
40
0.8
210
0
220
0
230
-1
100
AcDbArc
50
180
51
270
0
ARC
5
BD
100
AcDbEntity
8
1
62
256
6
ByLayer
370
-1
48
1
60
0
100
AcDbCircle
39
0
10
17
20
8.75
30
0
40
1
210
0
220
0
230
1
100
AcDbArc
50
90
51
180
0
ARC
5
BE
100
AcDbEntity
8
1
62
256
6
ByLayer
370
-1
48
1
60
0
100
AcDbCircle
39
0
10
-15.2
20
-8.7
30
0
40
0.8
210
0
220
0
230
-1
100
AcDbArc
50
90
51
180
0
ARC
5
BF
100
AcDbEntity
8
SK1
62
256
6
ByLayer
370
-1
48
1
60
0
100
AcDbCircle
39
0
10
1.114326
20
8.15
30
0
40
0.4
210
0
220
0
230
-1
100
AcDbArc
50
270
51
285
0
ARC
5
C0
100
AcDbEntity
8
SK1
62
256
6
ByLayer
370
-1
48
1
60
0
100
AcDbCircle
39
0
10
1.114326
20
-8.15
30
0
40
0.4
210
0
220
0
230
-1
100
AcDbArc
50
75
51
90
0
ARC
5
C1
100
AcDbEntity
8
1
62
256
6
ByLayer
370
-1
48
1
60
0
100
AcDbCircle
39
0
10
-25.4
20
-1.95
30
0
40
0.4
210
0
220
0
230
-1
100
AcDbArc
50
0
51
90
0
ARC
5
C2
100
AcDbEntity
8
SK1
62
256
6
ByLayer
370
-1
48
1
60
0
100
AcDbCircle
39
0
10
0.275
20
-8.15
30
0
40
0.4
210
0
220
0
230
-1
100
AcDbArc
50
90
51
133.433495
0
ARC
5
C3
100
AcDbEntity
8
SK1
62
256
6
ByLayer
370
-1
48
1
60
0
100
AcDbCircle
39
0
10
0.275
20
8.15
30
0
40
0.4
210
0
220
0
230
-1
100
AcDbArc
50
226.566505
51
270
0
ARC
5
C4
100
AcDbEntity
8
1
62
256
6
ByLayer
370
-1
48
1
60
0
100
AcDbCircle
39
0
10
-5.8
20
8.7
30
0
40
0.8
210
0
220
0
230
-1
100
AcDbArc
50
270
51
0
0
ELLIPSE
5
C5
100
AcDbEntity
8
1
62
256
6
ByLayer
370
-1
48
1
60
0
100
AcDbEllipse
10
25.384557
20
7.903138
30
0
11
1.25826381688681
21
-0.450520724518016
31
0
210
0
220
0
230
-1
40
0.101028
41
-2.87410335884273
42
-2.53803108880674
0
ELLIPSE
5
C6
100
AcDbEntity
8
1
62
256
6
ByLayer
370
-1
48
1
60
0
100
AcDbEllipse
10
26.969329
20
7.25613
30
0
11
0.196801316847718
21
-0.0747685935125884
31
0
210
0
220
0
230
-1
40
0.176102
41
2.00668878706105
42
3.06261298451348
0
ELLIPSE
5
C7
100
AcDbEntity
8
1
62
256
6
ByLayer
370
-1
48
1
60
0
100
AcDbEllipse
10
27.049983
20
9.389519
30
0
11
2.63523430819933
21
0.208368753680628
31
0
210
0
220
0
230
-1
40
0.682595
41
1.46617186156837
42
1.69456212651743
0
ELLIPSE
5
C8
100
AcDbEntity
8
1
62
256
6
ByLayer
370
-1
48
1
60
0
100
AcDbEllipse
10
27.235969
20
0
30
0
11
-5.96995597485256E-16
21
9.74999999994851
31
0
210
0
220
0
230
-1
40
0.458333
41
-2.50329303568953
42
-2.1792850889786
0
ELLIPSE
5
C9
100
AcDbEntity
8
1
62
256
6
ByLayer
370
-1
48
1
60
0
100
AcDbEllipse
10
26.838547
20
9.474945
30
0
11
0.0642374251715481
21
2.13107644753824
31
0
210
0
220
0
230
-1
40
0.016371
41
-2.96101252740078
42
-2.72373624368651
0
ELLIPSE
5
CA
100
AcDbEntity
8
1
62
256
6
ByLayer
370
-1
48
1
60
0
100
AcDbEllipse
10
25.749091
20
3
30
0
11
7.94524827499162
21
-2.94420193326435
31
0
210
0
220
0
230
-1
40
0.436617
41
1.12694701572619
42
1.27321462071527
0
ELLIPSE
5
CB
100
AcDbEntity
8
1
62
256
6
ByLayer
370
-1
48
1
60
0
100
AcDbEllipse
10
25.384557
20
7.903138
30
0
11
1.2582638170542
21
-0.450520724586031
31
0
210
0
220
0
230
-1
40
0.101028
41
0.153268975554298
42
2.52405843176663
0
ELLIPSE
5
CC
100
AcDbEntity
8
1
62
256
6
ByLayer
370
-1
48
1
60
0
100
AcDbEllipse
10
27.235969
20
0
30
0
11
-5.96995597481472E-16
21
9.74999999988671
31
0
210
0
220
0
230
-1
40
0.458333
41
-0.962307564611458
42
-0.697467667806518
0
ELLIPSE
5
CD
100
AcDbEntity
8
1
62
256
6
ByLayer
370
-1
48
1
60
0
100
AcDbEllipse
10
25.749091
20
3
30
0
11
7.94895886675411
21
2.79452024488021
31
0
210
0
220
0
230
-1
40
0.45172
41
1.44484108964108
42
1.59110869460804
0
ELLIPSE
5
CE
100
AcDbEntity
8
1
62
256
6
ByLayer
370
-1
48
1
60
0
100
AcDbEllipse
10
45.809961
20
0
30
0
11
24.5568093290058
21
-9.62118434656574
31
0
210
0
220
0
230
-1
40
0.064327
41
2.6068582462894
42
3.13399542370497
0
ELLIPSE
5
CF
100
AcDbEntity
8
1
62
256
6
ByLayer
370
-1
48
1
60
0
100
AcDbEllipse
10
24.385822
20
0
30
0
11
3.16985478664159E-15
21
1.00000000000001
31
0
210
0
220
0
230
1
40
0.416655
41
0
42
6.28318530717959
0
ELLIPSE
5
D0
100
AcDbEntity
8
1
62
256
6
ByLayer
370
-1
48
1
60
0
100
AcDbEllipse
10
32.667683
20
5.5
30
0
11
11.4598443527622
21
-4.48988602813482
31
0
210
0
220
0
230
-1
40
0.064327
41
1.96496157201446
42
2.23229497927754
0
ELLIPSE
5
D1
100
AcDbEntity
8
1
62
256
6
ByLayer
370
-1
48
1
60
0
100
AcDbEllipse
10
26.590349
20
3
30
0
11
0.137644248361105
21
-4.5499993287954
31
0
210
0
220
0
230
-1
40
0.017444
41
-0.602061718124516
42
-0.444080397639035
0
ELLIPSE
5
D2
100
AcDbEntity
8
1
62
256
6
ByLayer
370
-1
48
1
60
0
100
AcDbEllipse
10
24.385822
20
0
30
0
11
-2.80437848601786E-15
21
-0.750555349946514
31
0
210
0
220
0
230
1
40
0.416655
41
-1.27501217890008
42
-0.227814627703481
0
ELLIPSE
5
D3
100
AcDbEntity
8
1
62
256
6
ByLayer
370
-1
48
1
60
0
100
AcDbEllipse
10
24.385822
20
0
30
0
11
-2.80437848601786E-15
21
-0.750555349946514
31
0
210
0
220
0
230
1
40
0.416655
41
-2.32220973009668
42
-1.27501217890008
0
ELLIPSE
5
D4
100
AcDbEntity
8
1
62
256
6
ByLayer
370
-1
48
1
60
0
100
AcDbEllipse
10
24.385822
20
0
30
0
11
-2.80437848601786E-15
21
-0.750555349946514
31
0
210
0
220
0
230
1
40
0.416655
41
2.91377802588631
42
-2.32220973009668
0
ELLIPSE
5
D5
100
AcDbEntity
8
1
62
256
6
ByLayer
370
-1
48
1
60
0
100
AcDbEllipse
10
24.385822
20
0
30
0
11
-2.80437848601786E-15
21
-0.750555349946514
31
0
210
0
220
0
230
1
40
0.416655
41
1.86658047468971
42
2.91377802588631
0
ELLIPSE
5
D6
100
AcDbEntity
8
1
62
256
6
ByLayer
370
-1
48
1
60
0
100
AcDbEllipse
10
24.385822
20
0
30
0
11
-2.80437848601786E-15
21
-0.750555349946514
31
0
210
0
220
0
230
1
40
0.416655
41
0.819382923493121
42
1.86658047468971
0
ELLIPSE
5
D7
100
AcDbEntity
8
1
62
256
6
ByLayer
370
-1
48
1
60
0
100
AcDbEllipse
10
24.385822
20
0
30
0
11
-2.80437848601786E-15
21
-0.750555349946514
31
0
210
0
220
0
230
1
40
0.416655
41
-0.227814627703481
42
0.819382923493121
0
ELLIPSE
5
D8
100
AcDbEntity
8
1
62
256
6
ByLayer
370
-1
48
1
60
0
100
AcDbEllipse
10
24.385822
20
0
30
0
11
-3.54958440028016E-15
21
-0.95
31
0
210
0
220
0
230
1
40
0.416655
41
0
42
6.28318530717959
0
POINT
5
42
100
AcDbEntity
8
80
62
256
6
ByLayer
370
-1
48
1
60
0
100
AcDbPoint
10
0
20
0
30
0
39
0
210
0
220
0
230
1
50
360
0
POINT
5
44
100
AcDbEntity
8
81
62
256
6
ByLayer
370
-1
48
1
60
0
100
AcDbPoint
10
38.300131
20
11.994532
30
0
39
0
210
0
220
0
230
1
50
360
0
SPLINE
5
D9
100
AcDbEntity
8
1
62
256
6
ByLayer
370
-1
48
1
60
0
100
AcDbSpline
70
4
71
3
72
38
73
34
40
0
40
0
40
0
40
0
40
0.0624999999999999
40
0.0624999999999999
40
0.125
40
0.125
40
0.25
40
0.25
40
0.3125
40
0.3125
40
0.375
40
0.375
40
0.4375
40
0.4375
40
0.5
40
0.5
40
0.515625
40
0.515625
40
0.531249999999999
40
0.531249999999999
40
0.5625
40
0.5625
40
0.625
40
0.625
40
0.6875
40
0.6875
40
0.75
40
0.75
40
0.875
40
0.875
40
0.9375
40
0.9375
40
1
40
1
40
1
40
1
41
1
10
16
20
-3.41906419945573
30
0
41
1
10
16
20
-3.27573330930036
30
0
41
1
10
15.9941103148016
20
-3.13300870955666
30
0
41
1
10
15.9738684083435
20
-2.84843065246469
30
0
41
1
10
15.9594895789391
20
-2.70657993418692
30
0
41
1
10
15.9072808905816
20
-2.2819616812134
30
0
41
1
10
15.8602480292868
20
-2.00014151329367
30
0
41
1
10
15.7850242530332
20
-1.5778924577636
30
0
41
1
10
15.7591778772023
20
-1.43722222082047
30
0
41
1
10
15.7089563209696
20
-1.15573030052374
30
0
41
1
10
15.6845669286685
20
-1.01490903226505
30
0
41
1
10
15.6413862365099
20
-0.732699217079329
30
0
41
1
10
15.6226327478453
20
-0.591306533045241
30
0
41
1
10
15.59589287059
20
-0.307428928995876
30
0
41
1
10
15.5880537508539
20
-0.16492906973599
30
0
41
1
10
15.5871759973637
20
0.0141007330967398
30
0
41
1
10
15.5874408805076
20
0.0507255755582037
30
0
41
1
10
15.5888647998877
20
0.123351075876315
30
0
41
1
10
15.590019507576
20
0.159608062811486
30
0
41
1
10
15.5947538673474
20
0.268219039847224
30
0
41
1
10
15.5996102719297
20
0.340412225526961
30
0
41
1
10
15.6185002850553
20
0.556447586535967
30
0
41
1
10
15.6368373549879
20
0.6997477495201
30
0
41
1
10
15.6796809664072
20
0.98557104289921
30
0
41
1
10
15.7041412197817
20
1.12810000318925
30
0
41
1
10
15.754750818355
20
1.41294518603615
30
0
41
1
10
15.7809143247695
20
1.55525726250443
30
0
41
1
10
15.8572409782701
20
1.9824833538523
30
0
41
1
10
15.9052191149098
20
2.26770823020891
30
0
41
1
10
15.9585996485845
20
2.6981515175755
30
0
41
1
10
15.9733294827098
20
2.84206216092372
30
0
41
1
10
15.9940585972043
20
3.13110752833609
30
0
41
1
10
16
20
3.27533767876883
30
0
41
1
10
16
20
3.41906419945579
30
0
0
SPLINE
5
DA
100
AcDbEntity
8
1
62
256
6
ByLayer
370
-1
48
1
60
0
100
AcDbSpline
70
4
71
3
72
14
73
10
40
0
40
0
40
0
40
0
40
0.25
40
0.25
40
0.5
40
0.5
40
0.75
40
0.75
40
1
40
1
40
1
40
1
41
1
10
26.8497208607199
20
-0.646722890349565
30
0
41
1
10
26.8342609671251
20
-0.651999046357673
30
0
41
1
10
26.8203122424894
20
-0.658355471862592
30
0
41
1
10
26.7953353024496
20
-0.673093843322675
30
0
41
1
10
26.7844357511925
20
-0.681466753952691
30
0
41
1
10
26.7668932671484
20
-0.699254277918158
30
0
41
1
10
26.7600290223717
20
-0.708914118291403
30
0
41
1
10
26.7509956876365
20
-0.72848043402999
30
0
41
1
10
26.74869358616
20
-0.738524278727766
30
0
41
1
10
26.7487426298603
20
-0.74861188650965
30
0
0
SPLINE
5
DB
100
AcDbEntity
8
1
62
256
6
ByLayer
370
-1
48
1
60
0
100
AcDbSpline
70
4
71
3
72
31
73
27
40
0
40
0
40
0
40
0
40
0.0312499999999984
40
0.0312499999999984
40
0.0624999999999968
40
0.0937499999999952
40
0.0937499999999952
40
0.124999999999994
40
0.124999999999994
40
0.187499999999995
40
0.187499999999995
40
0.218749999999994
40
0.218749999999994
40
0.249999999999993
40
0.249999999999993
40
0.312499999999992
40
0.312499999999992
40
0.374999999999992
40
0.374999999999992
40
0.499999999999993
40
0.499999999999993
40
0.624999999999995
40
0.624999999999995
40
0.749999999999996
40
0.749999999999996
40
1
40
1
40
1
40
1
41
1
10
17.0000000000001
20
5.57337420240276
30
0
41
1
10
16.9741619929833
20
5.57337420240279
30
0
41
1
10
16.9479223832708
20
5.57158787887354
30
0
41
1
10
16.8963011020077
20
5.56452815612559
30
0
41
1
10
16.8455793726048
20
5.55406573764984
30
0
41
1
10
16.7965355847677
20
5.53725624253454
30
0
41
1
10
16.7482918921665
20
5.5174202619416
30
0
41
1
10
16.7247144830738
20
5.50602954381074
30
0
41
1
10
16.6567235599265
20
5.46854044089383
30
0
41
1
10
16.6144708102518
20
5.43893512055917
30
0
41
1
10
16.5548467065488
20
5.38889364836265
30
0
41
1
10
16.5355464798762
20
5.37119943667554
30
0
41
1
10
16.4987054781787
20
5.33466899515238
30
0
41
1
10
16.4810905594751
20
5.31577954542053
30
0
41
1
10
16.4303665161107
20
5.25746789970691
30
0
41
1
10
16.399363620701
20
5.21641363016866
30
0
41
1
10
16.3419306737563
20
5.13076168879547
30
0
41
1
10
16.3153949199576
20
5.08592866319319
30
0
41
1
10
16.2426505091175
20
4.94878476988086
30
0
41
1
10
16.2031291692668
20
4.85408378740314
30
0
41
1
10
16.1365558734113
20
4.66013623629834
30
0
41
1
10
16.1095829240076
20
4.56081948654415
30
0
41
1
10
16.0654698096388
20
4.35876870181954
30
0
41
1
10
16.0486409446462
20
4.25745108555148
30
0
41
1
10
16.0100359980132
20
3.95283406189566
30
0
41
1
10
16
20
3.74887839301323
30
0
41
1
10
16
20
3.54436171968948
30
0
0
SPLINE
5
DC
100
AcDbEntity
8
1
62
256
6
ByLayer
370
-1
48
1
60
0
100
AcDbSpline
70
4
71
3
72
24
73
20
40
0
40
0
40
0
40
0
40
0.125000000000004
40
0.125000000000004
40
0.250000000000009
40
0.250000000000009
40
0.375000000000013
40
0.375000000000013
40
0.500000000000017
40
0.500000000000017
40
0.56250000000002
40
0.56250000000002
40
0.625000000000022
40
0.625000000000022
40
0.750000000000014
40
0.750000000000014
40
0.875000000000007
40
0.875000000000007
40
1
40
1
40
1
40
1
41
1
10
24.9999999999999
20
7.76046758491759
30
0
41
1
10
24.9999999999999
20
7.76572665694266
30
0
41
1
10
25.0018263106365
20
7.77028226463591
30
0
41
1
10
25.0097753246851
20
7.77773858133654
30
0
41
1
10
25.0158831236341
20
7.78057948043462
30
0
41
1
10
25.0326833161814
20
7.78408528120949
30
0
41
1
10
25.0435176612572
20
7.78477708574229
30
0
41
1
10
25.0704338901461
20
7.78350605716312
30
0
41
1
10
25.0862778593796
20
7.78157751930553
30
0
41
1
10
25.1143317653812
20
7.77636083965996
30
0
41
1
10
25.1243990633712
20
7.77422588037589
30
0
41
1
10
25.1453905987881
20
7.76926592595731
30
0
41
1
10
25.1563900944846
20
7.7664280661017
30
0
41
1
10
25.1909446815669
20
7.75680892719208
30
0
41
1
10
25.2164326124381
20
7.74877466487914
30
0
41
1
10
25.2682120921755
20
7.73077834323183
30
0
41
1
10
25.2951908001566
20
7.72059313566689
30
0
41
1
10
25.3481904432495
20
7.6992280261257
30
0
41
1
10
25.3745447822042
20
7.68792779798267
30
0
41
1
10
25.4
20
7.67645474881431
30
0
0
SPLINE
5
DD
100
AcDbEntity
8
1
62
256
6
ByLayer
370
-1
48
1
60
0
100
AcDbSpline
70
4
71
3
72
36
73
32
40
0
40
0
40
0
40
0
40
0.249999999999997
40
0.249999999999997
40
0.374999999999996
40
0.374999999999996
40
0.499999999999994
40
0.499999999999994
40
0.562499999999995
40
0.562499999999995
40
0.624999999999995
40
0.624999999999995
40
0.687499999999995
40
0.687499999999995
40
0.749999999999995
40
0.749999999999995
40
0.812499999999995
40
0.812499999999995
40
0.843749999999996
40
0.843749999999996
40
0.874999999999996
40
0.874999999999996
40
0.906249999999996
40
0.906249999999996
40
0.921874999999996
40
0.921874999999996
40
0.937499999999997
40
0.937499999999997
40
0.968749999999999
40
0.968749999999999
40
1
40
1
40
1
40
1
41
1
10
26.1577621357249
20
9.75000000000003
30
0
41
1
10
25.7011811014934
20
9.75000000000003
30
0
41
1
10
25.2471807531706
20
9.75007863129972
30
0
41
1
10
24.5703460343967
20
9.74962346712573
30
0
41
1
10
24.3454368025325
20
9.74936348068044
30
0
41
1
10
23.8972282596866
20
9.7482774437033
30
0
41
1
10
23.6739238064115
20
9.74745889491331
30
0
41
1
10
23.3404821358533
20
9.7453192654788
30
0
41
1
10
23.2295893765287
20
9.74445122100565
30
0
41
1
10
23.0084053596761
20
9.74226363383707
30
0
41
1
10
22.8984380084593
20
9.74094773477452
30
0
41
1
10
22.6805651287653
20
9.73768022428504
30
0
41
1
10
22.5725778300474
20
9.73573025378423
30
0
41
1
10
22.3590205140762
20
9.730888347291
30
0
41
1
10
22.2535789744901
20
9.72800066366696
30
0
41
1
10
22.048019137898
20
9.72085035678333
30
0
41
1
10
21.9476640321531
20
9.71659589441549
30
0
41
1
10
21.8024973375213
20
9.7085268835927
30
0
41
1
10
21.7550127456147
20
9.70555220108128
30
0
41
1
10
21.6623790764107
20
9.69883049106116
30
0
41
1
10
21.6173019351779
20
9.69508492711148
30
0
41
1
10
21.5318098086795
20
9.68667259916822
30
0
41
1
10
21.4912099968205
20
9.68199770888577
30
0
41
1
10
21.4346828105248
20
9.67399052436375
30
0
41
1
10
21.4166072059066
20
9.67115543013071
30
0
41
1
10
21.3827470793916
20
9.66518588389357
30
0
41
1
10
21.3668901971988
20
9.66204185884044
30
0
41
1
10
21.3229652408577
20
9.65205810079573
30
0
41
1
10
21.2984821128762
20
9.64467674935636
30
0
41
1
10
21.2624863350698
20
9.62788670489684
30
0
41
1
10
21.2517354788924
20
9.61875684067309
30
0
41
1
10
21.2491586203838
20
9.60890579946062
30
0
0
SPLINE
5
DE
100
AcDbEntity
8
1
62
256
6
ByLayer
370
-1
48
1
60
0
100
AcDbSpline
70
4
71
3
72
30
73
26
40
0
40
0
40
0
40
0
40
0.125
40
0.125
40
0.25
40
0.25
40
0.374999999999999
40
0.374999999999999
40
0.499999999999999
40
0.499999999999999
40
0.624999999999999
40
0.624999999999999
40
0.749999999999999
40
0.749999999999999
40
0.812499999999999
40
0.812499999999999
40
0.874999999999999
40
0.874999999999999
40
0.906249999999999
40
0.906249999999999
40
0.9375
40
0.9375
40
0.96875
40
0.96875
40
1
40
1
40
1
40
1
41
1
10
16
20
-3.54436171968945
30
0
41
1
10
16
20
-3.64700594804882
30
0
41
1
10
16.0025898949818
20
-3.75003111785722
30
0
41
1
10
16.0142303798453
20
-3.95557725172907
30
0
41
1
10
16.0232565389513
20
-4.05797713132603
30
0
41
1
10
16.0493066199808
20
-4.26184590443179
30
0
41
1
10
16.0663614390169
20
-4.36353818017884
30
0
41
1
10
16.1105936999749
20
-4.56473335703464
30
0
41
1
10
16.137600399682
20
-4.66363685728086
30
0
41
1
10
16.2043085155973
20
-4.85704642095351
30
0
41
1
10
16.2439178204423
20
-4.95158439166195
30
0
41
1
10
16.3413109062675
20
-5.13436471312286
30
0
41
1
10
16.3979376815578
20
-5.22062685852853
30
0
41
1
10
16.5003863162751
20
-5.33773227455498
30
0
41
1
10
16.5369955150385
20
-5.37406185006995
30
0
41
1
10
16.6155778521595
20
-5.43970772941583
30
0
41
1
10
16.65760293943
20
-5.46912916412433
30
0
41
1
10
16.725949143975
20
-5.50665646011674
30
0
41
1
10
16.7494598968229
20
-5.51794243683992
30
0
41
1
10
16.7972277952935
20
-5.5374972519752
30
0
41
1
10
16.8215979145189
20
-5.54583085362435
30
0
41
1
10
16.8713830417165
20
-5.55939499299856
30
0
41
1
10
16.8969457283841
20
-5.564644721717
30
0
41
1
10
16.9485383716064
20
-5.57164301216923
30
0
41
1
10
16.9742907167768
20
-5.57337420240196
30
0
41
1
10
17
20
-5.57337420240196
30
0
0
SPLINE
5
DF
100
AcDbEntity
8
1
62
256
6
ByLayer
370
-1
48
1
60
0
100
AcDbSpline
70
4
71
3
72
42
73
38
40
0
40
0
40
0
40
0
40
0.0624999999999993
40
0.0624999999999993
40
0.0937499999999988
40
0.0937499999999988
40
0.124999999999998
40
0.124999999999998
40
0.156249999999998
40
0.156249999999998
40
0.187499999999997
40
0.187499999999997
40
0.218749999999997
40
0.218749999999997
40
0.249999999999996
40
0.249999999999996
40
0.281249999999996
40
0.281249999999996
40
0.312499999999995
40
0.312499999999995
40
0.374999999999995
40
0.374999999999995
40
0.437499999999995
40
0.437499999999995
40
0.499999999999995
40
0.499999999999995
40
0.624999999999994
40
0.624999999999994
40
0.687499999999993
40
0.687499999999993
40
0.749999999999993
40
0.749999999999993
40
0.874999999999995
40
0.874999999999995
40
0.937499999999998
40
0.937499999999998
40
1
40
1
40
1
40
1
41
1
10
26.6211219105818
20
7.43849174599691
30
0
41
1
10
26.6397378266296
20
7.44295558301329
30
0
41
1
10
26.6527942873086
20
7.45302611694677
30
0
41
1
10
26.6615220299645
20
7.47802503989476
30
0
41
1
10
26.6625171774442
20
7.48798457263686
30
0
41
1
10
26.6600583961902
20
7.5107285103164
30
0
41
1
10
26.6566363125559
20
7.52357048189089
30
0
41
1
10
26.6444694370885
20
7.55231553362714
30
0
41
1
10
26.6355769077245
20
7.56836045425587
30
0
41
1
10
26.6124010690233
20
7.60183712784675
30
0
41
1
10
26.5980603665948
20
7.6194454743536
30
0
41
1
10
26.5634564118439
20
7.65594282953072
30
0
41
1
10
26.5437962299939
20
7.67419307862053
30
0
41
1
10
26.5001667930999
20
7.71035777512941
30
0
41
1
10
26.4759662823374
20
7.7284105767113
30
0
41
1
10
26.425361612245
20
7.76281864575898
30
0
41
1
10
26.3988451506149
20
7.77930153356257
30
0
41
1
10
26.3438295688041
20
7.81098870176373
30
0
41
1
10
26.3151807086723
20
7.82626512165311
30
0
41
1
10
26.2278537945613
20
7.86986043776341
30
0
41
1
10
26.1682793560095
20
7.89581973522326
30
0
41
1
10
26.0473858526017
20
7.94373639126209
30
0
41
1
10
25.9858644950229
20
7.96572973131498
30
0
41
1
10
25.8624606252432
20
8.00663433338511
30
0
41
1
10
25.800978418431
20
8.02542071386742
30
0
41
1
10
25.6171565933891
20
8.07837852458067
30
0
41
1
10
25.4954278406306
20
8.10922513953352
30
0
41
1
10
25.3143882553665
20
8.15201925830752
30
0
41
1
10
25.2543049814495
20
8.16567613570311
30
0
41
1
10
25.1347762751623
20
8.192075647221
30
0
41
1
10
25.075286955648
20
8.20482474546853
30
0
41
1
10
24.899744122703
20
8.24167145508079
30
0
41
1
10
24.7859220148086
20
8.26453318578149
30
0
41
1
10
24.6227957834143
20
8.29693804597289
30
0
41
1
10
24.5696103182588
20
8.30743609178427
30
0
41
1
10
24.4674166201381
20
8.32765336999341
30
0
41
1
10
24.4188873256273
20
8.33727870836708
30
0
41
1
10
24.3744375250611
20
8.34621115892165
30
0
0
SPLINE
5
E0
100
AcDbEntity
8
SK1
62
256
6
ByLayer
370
-1
48
1
60
0
100
AcDbSpline
70
4
71
3
72
20
73
16
40
0
40
0
40
0
40
0
40
0.125065671835922
40
0.125065671835922
40
0.250131343671844
40
0.250131343671844
40
0.500262687343686
40
0.500262687343686
40
0.750394031015528
40
0.750394031015528
40
0.875459702851449
40
0.875459702851449
40
0.937992538769409
40
0.937992538769409
40
1
40
1
40
1
40
1
41
1
10
-37
20
7.39999999999995
30
0
41
1
10
-37.0462290133418
20
7.39999999999995
30
0
41
1
10
-37.0905686226932
20
7.39999999999995
30
0
41
1
10
-37.1742983186543
20
7.39999999999995
30
0
41
1
10
-37.2137677339873
20
7.39999999999995
30
0
41
1
10
-37.324466818967
20
7.39999999999995
30
0
41
1
10
-37.3879856935272
20
7.39999999999995
30
0
41
1
10
-37.4916454220976
20
7.39999999999995
30
0
41
1
10
-37.5317774023736
20
7.39999999999995
30
0
41
1
10
-37.5724378952621
20
7.39999999999995
30
0
41
1
10
-37.5827372479533
20
7.39999999999995
30
0
41
1
10
-37.5930849349654
20
7.39999999999995
30
0
41
1
10
-37.5956843913952
20
7.39999999999995
30
0
41
1
10
-37.5991245738814
20
7.39999999999995
30
0
41
1
10
-37.5999818995878
20
7.39999999999995
30
0
41
1
10
-37.599997999996
20
7.39999999999995
30
0
0
SPLINE
5
E1
100
AcDbEntity
8
1
62
256
6
ByLayer
370
-1
48
1
60
0
100
AcDbSpline
70
4
71
3
72
14
73
10
40
0
40
0
40
0
40
0
40
0.25
40
0.25
40
0.5
40
0.5
40
0.75
40
0.75
40
1
40
1
40
1
40
1
41
1
10
26.7487426298603
20
-1.10764575018942
30
0
41
1
10
26.748693580446
20
-1.11530170949237
30
0
41
1
10
26.7509639004238
20
-1.12269631555733
30
0
41
1
10
26.7600096281164
20
-1.1369961846743
30
0
41
1
10
26.7668437499334
20
-1.1438556229109
30
0
41
1
10
26.7843657824627
20
-1.15632424221152
30
0
41
1
10
26.7953130971726
20
-1.16210347292721
30
0
41
1
10
26.8202007648583
20
-1.17206725750853
30
0
41
1
10
26.8342592592865
20
-1.17634179467459
30
0
41
1
10
26.8497208607199
20
-1.17982789321732
30
0
0
SPLINE
5
E2
100
AcDbEntity
8
1
62
256
6
ByLayer
370
-1
48
1
60
0
100
AcDbSpline
70
4
71
3
72
14
73
10
40
0
40
0
40
0
40
0
40
0.25
40
0.25
40
0.5
40
0.5
40
0.75
40
0.75
40
1
40
1
40
1
40
1
41
1
10
26.865806965357
20
7.5787588293465
30
0
41
1
10
26.8507424770176
20
7.57884630285898
30
0
41
1
10
26.8370428600868
20
7.57767791714156
30
0
41
1
10
26.8123954495588
20
7.57300845892425
30
0
41
1
10
26.8015335116089
20
7.56947110171447
30
0
41
1
10
26.7839980722898
20
7.56049823583987
30
0
41
1
10
26.777076153665
20
7.55492279734051
30
0
41
1
10
26.767951421706
20
7.54235969861159
30
0
41
1
10
26.7656265772449
20
7.5353808429642
30
0
41
1
10
26.7656785283658
20
7.52765133870136
30
0
0
SPLINE
5
E3
100
AcDbEntity
8
1
62
256
6
ByLayer
370
-1
48
1
60
0
100
AcDbSpline
70
4
71
3
72
97
73
93
40
-0.0312499999999982
40
-0.0312499999999982
40
0
40
0
40
0.0312500000000012
40
0.0312500000000012
40
0.0468750000000018
40
0.0468750000000018
40
0.0625000000000024
40
0.0625000000000024
40
0.0937500000000035
40
0.0937500000000035
40
0.109375000000003
40
0.109375000000003
40
0.125000000000003
40
0.140625000000004
40
0.140625000000004
40
0.156250000000004
40
0.156250000000004
40
0.187500000000004
40
0.187500000000004
40
0.218750000000004
40
0.218750000000004
40
0.250000000000004
40
0.250000000000004
40
0.265625000000005
40
0.265625000000005
40
0.281250000000005
40
0.281250000000005
40
0.312500000000005
40
0.312500000000005
40
0.328125000000006
40
0.328125000000006
40
0.343750000000006
40
0.343750000000006
40
0.375000000000007
40
0.375000000000007
40
0.390625000000007
40
0.390625000000007
40
0.406250000000007
40
0.406250000000007
40
0.437500000000008
40
0.437500000000008
40
0.468750000000008
40
0.468750000000008
40
0.484375000000009
40
0.484375000000009
40
0.500000000000009
40
0.500000000000009
40
0.531250000000011
40
0.531250000000011
40
0.546875000000012
40
0.546875000000012
40
0.562500000000012
40
0.578125000000012
40
0.578125000000012
40
0.593750000000013
40
0.593750000000013
40
0.625000000000013
40
0.625000000000013
40
0.640625000000012
40
0.640625000000012
40
0.656250000000012
40
0.671875000000012
40
0.671875000000012
40
0.687500000000011
40
0.687500000000011
40
0.718750000000011
40
0.718750000000011
40
0.734375000000011
40
0.734375000000011
40
0.75000000000001
40
0.75000000000001
40
0.78125000000001
40
0.78125000000001
40
0.79687500000001
40
0.79687500000001
40
0.812500000000009
40
0.812500000000009
40
0.843750000000009
40
0.843750000000009
40
0.859375000000008
40
0.859375000000008
40
0.875000000000007
40
0.875000000000007
40
0.906250000000005
40
0.906250000000005
40
0.921875000000004
40
0.921875000000004
40
0.937500000000004
40
0.937500000000004
40
0.968750000000002
40
0.968750000000002
40
1
40
1
40
1.03125
40
1.03125
41
1
10
18.9103578794198
20
-9.07204349524673
30
0
41
1
10
19.0896421205802
20
-9.07204349524673
30
0
41
1
10
19.1776659156514
20
-9.06858738646901
30
0
41
1
10
19.3073752010004
20
-9.0583251631644
30
0
41
1
10
19.3502206650514
20
-9.0540489987543
30
0
41
1
10
19.4351079836805
20
-9.04369276821339
30
0
41
1
10
19.476906570751
20
-9.03763092842885
30
0
41
1
10
19.5982647598376
20
-9.01708334802049
30
0
41
1
10
19.6746975546831
20
-9.00016361247393
30
0
41
1
10
19.7826437976321
20
-8.96949784066101
30
0
41
1
10
19.8175600697788
20
-8.95834960206923
30
0
41
1
10
19.8835791558968
20
-8.93469185814044
30
0
41
1
10
19.9462026855464
20
-8.90956782855955
30
0
41
1
10
20.00222336087
20
-8.88142154428871
30
0
41
1
10
20.0549436704945
20
-8.85167849879718
30
0
41
1
10
20.0797693601175
20
-8.83591696884179
30
0
41
1
10
20.1480220871765
20
-8.786912295279
30
0
41
1
10
20.1854814592535
20
-8.75193709133234
30
0
41
1
10
20.245201312367
20
-8.67709304180741
30
0
41
1
10
20.2674271941011
20
-8.63690711221486
30
0
41
1
10
20.2953544558067
20
-8.5543321999935
30
0
41
1
10
20.3014063529954
20
-8.51165250390517
30
0
41
1
10
20.2988906138273
20
-8.44547612176524
30
0
41
1
10
20.2960778561117
20
-8.4229940890921
30
0
41
1
10
20.2866889744756
20
-8.37812033938445
30
0
41
1
10
20.2801200367233
20
-8.35563747279875
30
0
41
1
10
20.2549444965789
20
-8.28807590609972
30
0
41
1
10
20.2309207207558
20
-8.24287817500934
30
0
41
1
10
20.1837170244621
20
-8.17504473292723
30
0
41
1
10
20.1661784348284
20
-8.15255325382614
30
0
41
1
10
20.127976558191
20
-8.1084196522319
30
0
41
1
10
20.1072551477129
20
-8.08669170369186
30
0
41
1
10
20.0402201965497
20
-8.02261548885485
30
0
41
1
10
19.9890938767061
20
-7.98135435781631
30
0
41
1
10
19.9017784107776
20
-7.92232053874088
30
0
41
1
10
19.8711800989821
20
-7.90333386896148
30
0
41
1
10
19.8075603077411
20
-7.86718998008436
30
0
41
1
10
19.7744524410164
20
-7.8499735194583
30
0
41
1
10
19.6711322648015
20
-7.80107636982336
30
0
41
1
10
19.5968507001663
20
-7.77206672941546
30
0
41
1
10
19.4365780275166
20
-7.72326938461001
30
0
41
1
10
19.3537408740352
20
-7.7044491560022
30
0
41
1
10
19.2253518291487
20
-7.68508448382877
30
0
41
1
10
19.1818618213284
20
-7.68011548258977
30
0
41
1
10
19.0934170362449
20
-7.67334620878586
30
0
41
1
10
19.0483759548098
20
-7.67157503139617
30
0
41
1
10
18.9150217439408
20
-7.67128517066757
30
0
41
1
10
18.8271435645862
20
-7.67761131581875
30
0
41
1
10
18.6968419492091
20
-7.69662839703366
30
0
41
1
10
18.6536977146266
20
-7.70458595742863
30
0
41
1
10
18.5700794197632
20
-7.72317047419102
30
0
41
1
10
18.4885531539887
20
-7.74449556932936
30
0
41
1
10
18.4110190696932
20
-7.77093257318444
30
0
41
1
10
18.3354474830986
20
-7.79981189501029
30
0
41
1
10
18.2989272062331
20
-7.81537576065278
30
0
41
1
10
18.194237604785
20
-7.86455299882036
30
0
41
1
10
18.1303127735246
20
-7.90084480694117
30
0
41
1
10
18.0426934465019
20
-7.95976020830594
30
0
41
1
10
18.0150059496672
20
-7.98007949485265
30
0
41
1
10
17.963276052526
20
-8.021389296172
30
0
41
1
10
17.9149496903547
20
-8.06352996196117
30
0
41
1
10
17.8732014261657
20
-8.10714182605318
30
0
41
1
10
17.8347290224943
20
-8.15142621580827
30
0
41
1
10
17.8170631398322
20
-8.17400908969813
30
0
41
1
10
17.7697172403307
20
-8.24179626669414
30
0
41
1
10
17.7455682444297
20
-8.2870009430134
30
0
41
1
10
17.7202024414447
20
-8.35462665585126
30
0
41
1
10
17.7135695966439
20
-8.37713990528255
30
0
41
1
10
17.7040595254225
20
-8.42209255907196
30
0
41
1
10
17.7011926533398
20
-8.4446185721911
30
0
41
1
10
17.6985269093414
20
-8.51081801165904
30
0
41
1
10
17.7044820619561
20
-8.55345446300379
30
0
41
1
10
17.7251835055886
20
-8.61524883844743
30
0
41
1
10
17.7340576752254
20
-8.63548619780272
30
0
41
1
10
17.7559430149861
20
-8.67524508349632
30
0
41
1
10
17.7690221384138
20
-8.6948193240078
30
0
41
1
10
17.8137851936742
20
-8.75120964562373
30
0
41
1
10
17.85112166181
20
-8.78613431347844
30
0
41
1
10
17.9186260490342
20
-8.8348428675279
30
0
41
1
10
17.9430559959095
20
-8.85046299938708
30
0
41
1
10
17.9959795107743
20
-8.88048862680628
30
0
41
1
10
18.0242973940867
20
-8.89477613964957
30
0
41
1
10
18.113448498344
20
-8.93494998008995
30
0
41
1
10
18.178927740979
20
-8.95845689488871
30
0
41
1
10
18.2864749098088
20
-8.98919191302898
30
0
41
1
10
18.3241364540007
20
-8.99872701122763
30
0
41
1
10
18.4012391121335
20
-9.01594610170065
30
0
41
1
10
18.4406918457074
20
-9.02365198522295
30
0
41
1
10
18.5617001791516
20
-9.04422045586148
30
0
41
1
10
18.6460368798339
20
-9.05457959656033
30
0
41
1
10
18.8214512130455
20
-9.06857577873652
30
0
41
1
10
18.9103578794198
20
-9.07204349524673
30
0
41
1
10
19.0896421205802
20
-9.07204349524673
30
0
0
SPLINE
5
E4
100
AcDbEntity
8
1
62
256
6
ByLayer
370
-1
48
1
60
0
100
AcDbSpline
70
4
71
3
72
8
73
4
40
0
40
0
40
0
40
0
40
1
40
1
40
1
40
1
41
1
10
24.130933142988
20
0.435645142052977
30
0
41
1
10
24.139176598915
20
0.4613888341799
30
0
41
1
10
24.1480031534044
20
0.486957797169651
30
0
41
1
10
24.1573084245614
20
0.51238330971097
30
0
0
SPLINE
5
E5
100
AcDbEntity
8
1
62
256
6
ByLayer
370
-1
48
1
60
0
100
AcDbSpline
70
4
71
3
72
14
73
10
40
0
40
0
40
0
40
0
40
0.388113609178534
40
0.388113609178534
40
0.776227218357069
40
0.776227218357069
40
0.970284022946336
40
0.970284022946336
40
1
40
1
40
1
40
1
41
1
10
24.3151943295697
20
-0.731162714971475
30
0
41
1
10
24.280458417341
20
-0.689331880539754
30
0
41
1
10
24.2484133792646
20
-0.647195769449127
30
0
41
1
10
24.1920771975607
20
-0.562043876626774
30
0
41
1
10
24.167843702817
20
-0.519021554693722
30
0
41
1
10
24.1386458524467
20
-0.453676640961106
30
0
41
1
10
24.1301200962761
20
-0.431793562207787
30
0
41
1
10
24.121762856137
20
-0.406835656396112
30
0
41
1
10
24.1206819286942
20
-0.403524766576766
30
0
41
1
10
24.1196293416713
20
-0.400217216912722
30
0
0
SPLINE
5
E6
100
AcDbEntity
8
1
62
256
6
ByLayer
370
-1
48
1
60
0
100
AcDbSpline
70
4
71
3
72
10
73
6
40
0
40
0
40
0
40
0
40
0.119999480538945
40
0.119999480538945
40
1
40
1
40
1
40
1
41
1
10
27.157344401666
20
-0.533457497092002
30
0
41
1
10
27.1567598174527
20
-0.534769256701196
30
0
41
1
10
27.15620920278
20
-0.536086367080088
30
0
41
1
10
27.1519082803289
20
-0.547100857514152
30
0
41
1
10
27.15
20
-0.556890278658926
30
0
41
1
10
27.15
20
-0.56677245280946
30
0
0
SPLINE
5
E7
100
AcDbEntity
8
1
62
256
6
ByLayer
370
-1
48
1
60
0
100
AcDbSpline
70
4
71
3
72
16
73
12
40
0
40
0
40
0
40
0
40
0.29316826178984
40
0.29316826178984
40
0.58633652357968
40
0.58633652357968
40
0.732920654474602
40
0.732920654474602
40
0.879504785369524
40
0.879504785369524
40
1
40
1
40
1
40
1
41
1
10
28.1
20
-0.0634143809191414
30
0
41
1
10
28.1
20
-0.0789620701853551
30
0
41
1
10
28.096982531839
20
-0.0940351243458224
30
0
41
1
10
28.0848885494936
20
-0.123257937793625
30
0
41
1
10
28.075879470275
20
-0.137044633234581
30
0
41
1
10
28.0583579908435
20
-0.15572707587404
30
0
41
1
10
28.05175287124
20
-0.161706469217194
30
0
41
1
10
28.0374897294475
20
-0.172701418785721
30
0
41
1
10
28.0298226646734
20
-0.177746599535823
30
0
41
1
10
28.0148772385503
20
-0.186126081775711
30
0
41
1
10
28.0077461687761
20
-0.189608108685945
30
0
41
1
10
28.0002990472096
20
-0.192753232333701
30
0
0
SPLINE
5
E8
100
AcDbEntity
8
1
62
256
6
ByLayer
370
-1
48
1
60
0
100
AcDbSpline
70
4
71
3
72
12
73
8
40
0
40
0
40
0
40
0
40
0.111039824526828
40
0.111039824526828
40
0.407359883017897
40
0.407359883017897
40
1
40
1
40
1
40
1
41
1
10
28.0013076288843
20
6.18629596203775
30
0
41
1
10
28.0080369244519
20
6.18340397568289
30
0
41
1
10
28.0145319684308
20
6.18021614290302
30
0
41
1
10
28.0375113283958
20
6.1674414912174
30
0
41
1
10
28.0518810204037
20
6.15640139153919
30
0
41
1
10
28.0874623189638
20
6.11870025020343
30
0
41
1
10
28.1000000000012
20
6.08831913657377
30
0
41
1
10
28.1000000000013
20
6.05705650249067
30
0
0
SPLINE
5
E9
100
AcDbEntity
8
1
62
256
6
ByLayer
370
-1
48
1
60
0
100
AcDbSpline
70
4
71
3
72
14
73
10
40
0
40
0
40
0
40
0
40
0.12511272292389
40
0.12511272292389
40
0.416741815282593
40
0.416741815282593
40
0.708370907641297
40
0.708370907641297
40
1
40
1
40
1
40
1
41
1
10
28.001422605424
20
3.91121329928308
30
0
41
1
10
28.0097611463455
20
3.90589690969813
30
0
41
1
10
28.0176328498946
20
3.89996207546759
30
0
41
1
10
28.0422923800412
20
3.87833090478179
30
0
41
1
10
28.0564293931646
20
3.86060710387872
30
0
41
1
10
28.0787723595907
20
3.82179381471059
30
0
41
1
10
28.0868425825456
20
3.80097705655513
30
0
41
1
10
28.0974940205529
20
3.75757269291458
30
0
41
1
10
28.1000000000005
20
3.73540767440503
30
0
41
1
10
28.1000000000005
20
3.71280347163005
30
0
0
SPLINE
5
EA
100
AcDbEntity
8
1
62
256
6
ByLayer
370
-1
48
1
60
0
100
AcDbSpline
70
4
71
3
72
14
73
10
40
0
40
0
40
0
40
0
40
0.289549212776131
40
0.289549212776131
40
0.579098425552262
40
0.579098425552262
40
0.868647638328393
40
0.868647638328393
40
1
40
1
40
1
40
1
41
1
10
28.1
20
2.27708315081327
30
0
41
1
10
28.1
20
2.25465036767659
30
0
41
1
10
28.0974983375136
20
2.23274837090148
30
0
41
1
10
28.0870250946736
20
2.19004375055721
30
0
41
1
10
28.0789034283862
20
2.16909765958513
30
0
41
1
10
28.0568980478647
20
2.13084892879036
30
0
41
1
10
28.0426695463906
20
2.1130049723082
30
0
41
1
10
28.0180213093325
20
2.09130485233379
30
0
41
1
10
28.0096955307959
20
2.08506463731439
30
0
41
1
10
28.0008239803943
20
2.07948919926994
30
0
0
SPLINE
5
EB
100
AcDbEntity
8
1
62
256
6
ByLayer
370
-1
48
1
60
0
100
AcDbSpline
70
4
71
3
72
8
73
4
40
0
40
0
40
0
40
0
40
1
40
1
40
1
40
1
41
1
10
34.6765333685647
20
10.0495866412558
30
0
41
0.979892672642243
10
35.7978034121899
20
10.0420281507175
30
0
41
0.979892672642243
10
36.95848683122
20
10.0033972379586
30
0
41
1
10
38.0885689012593
20
9.93602419620601
30
0
0
SPLINE
5
EC
100
AcDbEntity
8
1
62
256
6
ByLayer
370
-1
48
1
60
0
100
AcDbSpline
70
4
71
3
72
20
73
16
40
0
40
0
40
0
40
0
40
0.124999999999997
40
0.124999999999997
40
0.249999999999993
40
0.249999999999993
40
0.37499999999999
40
0.37499999999999
40
0.499999999999987
40
0.499999999999987
40
0.624999999999984
40
0.624999999999984
40
0.74999999999998
40
0.74999999999998
40
1
40
1
40
1
40
1
41
1
10
38.0885689012593
20
9.93602419620601
30
0
41
1
10
38.1018979742855
20
9.9352295457843
30
0
41
1
10
38.1150855710307
20
9.93568923997236
30
0
41
1
10
38.1411849490612
20
9.93905988640105
30
0
41
1
10
38.1542114345627
20
9.94201067566942
30
0
41
1
10
38.1794133025349
20
9.95039903018923
30
0
41
1
10
38.1914550731775
20
9.95576505402639
30
0
41
1
10
38.2144104748884
20
9.96887114178776
30
0
41
1
10
38.2254414701184
20
9.97673019053045
30
0
41
1
10
38.2454289880916
20
9.99438164248517
30
0
41
1
10
38.2544456158268
20
10.004164875597
30
0
41
1
10
38.2704560588042
20
10.0257200194489
30
0
41
1
10
38.2774226118187
20
10.0375396154376
30
0
41
1
10
38.2940839130075
20
10.0743074264587
30
0
41
1
10
38.3000000000004
20
10.1015417070441
30
0
41
1
10
38.3000000000004
20
10.1290239123348
30
0
0
SPLINE
5
ED
100
AcDbEntity
8
1
62
256
6
ByLayer
370
-1
48
1
60
0
100
AcDbSpline
70
4
71
3
72
20
73
16
40
0
40
0
40
0
40
0
40
0.125000000000005
40
0.125000000000005
40
0.250000000000011
40
0.250000000000011
40
0.500000000000007
40
0.500000000000007
40
0.625000000000005
40
0.625000000000005
40
0.750000000000004
40
0.750000000000004
40
0.875000000000002
40
0.875000000000002
40
1
40
1
40
1
40
1
41
1
10
38.3
20
11.8011345486817
30
0
41
1
10
38.3
20
11.8148637555597
30
0
41
1
10
38.2985691992735
20
11.8283410472359
30
0
41
1
10
38.2929112227043
20
11.8548035338412
30
0
41
1
10
38.2886022273542
20
11.8679188133114
30
0
41
1
10
38.2719323488302
20
11.9047922844262
30
0
41
1
10
38.2554579592659
20
11.9268990099356
30
0
41
1
10
38.2255520847253
20
11.9533410097287
30
0
41
1
10
38.2145528676932
20
11.961198153371
30
0
41
1
10
38.1914888835057
20
11.9743819120877
30
0
41
1
10
38.1794249998761
20
11.979753246174
30
0
41
1
10
38.1542629152684
20
11.9881329356608
30
0
41
1
10
38.1412064674587
20
11.9910951847259
30
0
41
1
10
38.1150830801673
20
11.9944701531474
30
0
41
1
10
38.1018920638207
20
11.9949285628632
30
0
41
1
10
38.0885689012593
20
11.9941342648106
30
0
0
SPLINE
5
EE
100
AcDbEntity
8
1
62
256
6
ByLayer
370
-1
48
1
60
0
100
AcDbSpline
70
4
71
3
72
8
73
4
40
0
40
0
40
0
40
0
40
1
40
1
40
1
40
1
41
1
10
38.0885689012593
20
11.9941342648106
30
0
41
0.979892672642243
10
36.95848683122
20
11.926761223058
30
0
41
0.979892672642243
10
35.7978034121899
20
11.8881303102991
30
0
41
1
10
34.6765333685647
20
11.8805718197608
30
0
0
SPLINE
5
EF
100
AcDbEntity
8
1
62
256
6
ByLayer
370
-1
48
1
60
0
100
AcDbSpline
70
4
71
3
72
14
73
10
40
0
40
0
40
0
40
0
40
0.25
40
0.25
40
0.5
40
0.5
40
0.75
40
0.75
40
1
40
1
40
1
40
1
41
1
10
27.15
20
-1.16465036796021
30
0
41
1
10
27.15
20
-1.17083269245632
30
0
41
1
10
27.1519329566839
20
-1.17680803423951
30
0
41
1
10
27.1595188546194
20
-1.18837322263053
30
0
41
1
10
27.1652671039797
20
-1.19398834413528
30
0
41
1
10
27.1800002360819
20
-1.20427835545473
30
0
41
1
10
27.1891121953942
20
-1.20907208344184
30
0
41
1
10
27.2103894997556
20
-1.21769379893971
30
0
41
1
10
27.2223559330062
20
-1.22146356810302
30
0
41
1
10
27.2356838294253
20
-1.22470884511463
30
0
0
SPLINE
5
F0
100
AcDbEntity
8
1
62
256
6
ByLayer
370
-1
48
1
60
0
100
AcDbSpline
70
4
71
3
72
10
73
6
40
0
40
0
40
0
40
0
40
0.5
40
0.5
40
1
40
1
40
1
40
1
41
1
10
27.2356838294253
20
-1.22470884511463
30
0
41
1
10
27.3487803716811
20
-1.25224729507963
30
0
41
1
10
27.4661548552105
20
-1.27495100044831
30
0
41
1
10
27.7094093464015
20
-1.31296409744184
30
0
41
1
10
27.8352889293792
20
-1.32826733379091
30
0
41
1
10
27.9656516492528
20
-1.34062207938192
30
0
0
SPLINE
5
F1
100
AcDbEntity
8
1
62
256
6
ByLayer
370
-1
48
1
60
0
100
AcDbSpline
70
4
71
3
72
12
73
8
40
0
40
0
40
0
40
0
40
0.249999999999994
40
0.249999999999994
40
0.499999999999989
40
0.499999999999989
40
1
40
1
40
1
40
1
41
1
10
27.9656516492528
20
-1.34062207938192
30
0
41
1
10
27.9857179517831
20
-1.34252380452966
30
0
41
1
10
28.0040802244861
20
-1.34520429265857
30
0
41
1
10
28.0375113283958
20
-1.35195391855868
30
0
41
1
10
28.0518810204037
20
-1.35589381654265
30
0
41
1
10
28.0874623189638
20
-1.36892430784315
30
0
41
1
10
28.1000000000012
20
-1.37886853488087
30
0
41
1
10
28.1000000000013
20
-1.38830169601942
30
0
0
SPLINE
5
F2
100
AcDbEntity
8
1
62
256
6
ByLayer
370
-1
48
1
60
0
100
AcDbSpline
70
4
71
3
72
16
73
12
40
0
40
0
40
0
40
0
40
0.250000000000002
40
0.250000000000002
40
0.500000000000004
40
0.500000000000004
40
0.625000000000002
40
0.625000000000002
40
0.750000000000001
40
0.750000000000001
40
1
40
1
40
1
40
1
41
1
10
24.1573084245562
20
0.512383309710742
30
0
41
1
10
24.1656502129268
20
0.530244401016915
30
0
41
1
10
24.1769972515958
20
0.548235840530396
30
0
41
1
10
24.2083511146711
20
0.584594324726424
30
0
41
1
10
24.2284223231086
20
0.602964161969425
30
0
41
1
10
24.266517144943
20
0.630865385706102
30
0
41
1
10
24.280526744032
20
0.640209107221182
30
0
41
1
10
24.310609371445
20
0.658692054093535
30
0
41
1
10
24.3267326258854
20
0.667871559173221
30
0
41
1
10
24.3779558641969
20
0.695246641102187
30
0
41
1
10
24.4158982038964
20
0.713279421493411
30
0
41
1
10
24.4564505205269
20
0.731162714971134
30
0
0
SPLINE
5
F3
100
AcDbEntity
8
1
62
256
6
ByLayer
370
-1
48
1
60
0
100
AcDbSpline
70
4
71
3
72
16
73
12
40
0
40
0
40
0
40
0
40
0.250000000000005
40
0.250000000000005
40
0.50000000000001
40
0.50000000000001
40
0.625000000000008
40
0.625000000000008
40
0.750000000000007
40
0.750000000000007
40
1
40
1
40
1
40
1
41
1
10
24.6143364255376
20
-0.512383309710685
30
0
41
1
10
24.5738344547504
20
-0.530244401016859
30
0
41
1
10
24.5359812780779
20
-0.548235840530339
30
0
41
1
10
24.4679075633546
20
-0.584594324726368
30
0
41
1
10
24.4377437726712
20
-0.602964161969368
30
0
41
1
10
24.3995386288965
20
-0.630865385706045
30
0
41
1
10
24.3879964587517
20
-0.640209107221125
30
0
41
1
10
24.3675347722656
20
-0.658692054093478
30
0
41
1
10
24.3585553312652
20
-0.667871559173165
30
0
41
1
10
24.3349174154769
20
-0.695246641102131
30
0
41
1
10
24.3235464871753
20
-0.713279421493354
30
0
41
1
10
24.3151943295717
20
-0.731162714971077
30
0
0
SPLINE
5
F4
100
AcDbEntity
8
1
62
256
6
ByLayer
370
-1
48
1
60
0
100
AcDbSpline
70
4
71
3
72
16
73
12
40
0
40
0
40
0
40
0
40
0.25
40
0.25
40
0.5
40
0.5
40
0.625
40
0.625
40
0.75
40
0.75
40
1
40
1
40
1
40
1
41
1
10
24.4564505205241
20
0.731162714971532
30
0
41
1
10
24.4590262503363
20
0.689331880539811
30
0
41
1
10
24.464565150409
20
0.647195769449183
30
0
41
1
10
24.484181480465
20
0.562043876626831
30
0
41
1
10
24.4983223929627
20
0.519021554693779
30
0
41
1
10
24.5274099213928
20
0.453676640961163
30
0
41
1
10
24.5384031065077
20
0.431793562207844
30
0
41
1
10
24.5625189230371
20
0.388506336518503
30
0
41
1
10
24.57567877715
20
0.367007854114974
30
0
41
1
10
24.6180645753108
20
0.302895169167812
30
0
41
1
10
24.6501854304256
20
0.26066223737439
30
0
41
1
10
24.6849645210172
20
0.218779405259738
30
0
0
SPLINE
5
F5
100
AcDbEntity
8
1
62
256
6
ByLayer
370
-1
48
1
60
0
100
AcDbSpline
70
4
71
3
72
14
73
10
40
0
40
0
40
0
40
0
40
0.25
40
0.25
40
0.5
40
0.5
40
0.75
40
0.75
40
1
40
1
40
1
40
1
41
1
10
24.6849645210195
20
0.218779405260051
30
0
41
1
10
24.663336865355
20
0.159684487867111
30
0
41
1
10
24.644295274327
20
0.0998146400049791
30
0
41
1
10
24.614005398934
20
-0.0222603688834511
30
0
41
1
10
24.6028598591103
20
-0.0848957828642369
30
0
41
1
10
24.5909096572674
20
-0.208487896541868
30
0
41
1
10
24.5899316491743
20
-0.269883459180136
30
0
41
1
10
24.5965064626256
20
-0.391990877366624
30
0
41
1
10
24.6040596142127
20
-0.452906800422596
30
0
41
1
10
24.6143364255421
20
-0.512383309710913
30
0
0
SPLINE
5
F6
100
AcDbEntity
8
1
62
256
6
ByLayer
370
-1
48
1
60
0
100
AcDbSpline
70
4
71
3
72
8
73
4
40
0
40
0
40
0
40
0
40
1
40
1
40
1
40
1
41
1
10
27.9665487750164
20
7.80099664723079
30
0
41
0.877544051322076
10
28.0493088220538
20
7.8224249292754
30
0
41
0.877544051322076
10
28.1
20
7.87499464563995
30
0
41
1
10
28.1
20
7.9393933728571
30
0
0
SPLINE
5
F7
100
AcDbEntity
8
1
62
256
6
ByLayer
370
-1
48
1
60
0
100
AcDbSpline
70
4
71
3
72
8
73
4
40
0
40
0
40
0
40
0
40
1
40
1
40
1
40
1
41
1
10
27.2346585428383
20
7.5234750896754
30
0
41
0.993685858888279
10
27.4604272899654
20
7.64042489801861
30
0
41
0.993685858888279
10
27.7059409083226
20
7.73351989884242
30
0
41
1
10
27.9665487750164
20
7.80099664723079
30
0
0
SPLINE
5
F8
100
AcDbEntity
8
1
62
256
6
ByLayer
370
-1
48
1
60
0
100
AcDbSpline
70
4
71
3
72
8
73
4
40
0
40
0
40
0
40
0
40
1
40
1
40
1
40
1
41
1
10
27.15
20
7.40357980121948
30
0
41
0.9252618736541
10
27.15
20
7.45222675560223
30
0
41
0.9252618736541
10
27.1804989485495
20
7.49542003665048
30
0
41
1
10
27.2346585428383
20
7.5234750896754
30
0
0
LINE
5
46
100
AcDbEntity
8
2
62
256
6
ByLayer
370
-1
48
1
60
0
100
AcDbLine
10
67.882135
20
8.819532
30
0
11
68.718128
21
8.819532
31
0
39
0
210
0
220
0
230
1
0
LINE
5
48
100
AcDbEntity
8
2
62
256
6
ByLayer
370
-1
48
1
60
0
100
AcDbLine
10
68.300131
20
11.994532
30
0
11
68.300131
21
-34.071913
31
0
39
0
210
0
220
0
230
1
0
LINE
5
49
100
AcDbEntity
8
2
62
256
6
ByLayer
370
-1
48
1
60
0
100
AcDbLine
10
68.222786
20
10.819532
30
0
11
68.091133
21
8.819532
31
0
39
0
210
0
220
0
230
1
0
LINE
5
4A
100
AcDbEntity
8
2
62
256
6
ByLayer
370
-1
48
1
60
0
100
AcDbLine
10
68.300131
20
11.994532
30
0
11
67.882135
21
8.819532
31
0
39
0
210
0
220
0
230
1
0
LINE
5
4B
100
AcDbEntity
8
2
62
256
6
ByLayer
370
-1
48
1
60
0
100
AcDbLine
10
68.300131
20
11.994532
30
0
11
68.718128
21
8.819532
31
0
39
0
210
0
220
0
230
1
0
LINE
5
4C
100
AcDbEntity
8
2
62
256
6
ByLayer
370
-1
48
1
60
0
100
AcDbLine
10
68.377477
20
10.819532
30
0
11
68.50913
21
8.819532
31
0
39
0
210
0
220
0
230
1
0
LINE
5
4D
100
AcDbEntity
8
2
62
256
6
ByLayer
370
-1
48
1
60
0
100
AcDbLine
10
67.882135
20
8.819532
30
0
11
68.718128
21
8.819532
31
0
39
0
210
0
220
0
230
1
0
LINE
5
4E
100
AcDbEntity
8
2
62
256
6
ByLayer
370
-1
48
1
60
0
100
AcDbLine
10
68.222786
20
10.819532
30
0
11
68.091133
21
8.819532
31
0
39
0
210
0
220
0
230
1
0
LINE
5
4F
100
AcDbEntity
8
2
62
256
6
ByLayer
370
-1
48
1
60
0
100
AcDbLine
10
68.300131
20
11.994532
30
0
11
67.882135
21
8.819532
31
0
39
0
210
0
220
0
230
1
0
LINE
5
50
100
AcDbEntity
8
2
62
256
6
ByLayer
370
-1
48
1
60
0
100
AcDbLine
10
68.300131
20
11.994532
30
0
11
68.718128
21
8.819532
31
0
39
0
210
0
220
0
230
1
0
LINE
5
51
100
AcDbEntity
8
2
62
256
6
ByLayer
370
-1
48
1
60
0
100
AcDbLine
10
68.377477
20
10.819532
30
0
11
68.50913
21
8.819532
31
0
39
0
210
0
220
0
230
1
0
LINE
5
52
100
AcDbEntity
8
2
62
256
6
ByLayer
370
-1
48
1
60
0
100
AcDbLine
10
40.300131
20
11.994532
30
0
11
70.300131
21
11.994532
31
0
39
0
210
0
220
0
230
1
0
LINE
5
53
100
AcDbEntity
8
80
62
256
6
ByLayer
370
-1
48
1
60
0
100
AcDbLine
10
0
20
0
30
0
11
-2.5
21
0
31
0
39
0
210
0
220
0
230
1
0
LINE
5
54
100
AcDbEntity
8
81
62
256
6
ByLayer
370
-1
48
1
60
0
100
AcDbLine
10
38.300131
20
11.994532
30
0
11
45.733166
21
11.994532
31
0
39
0
210
0
220
0
230
1
0
LINE
5
55
100
AcDbEntity
8
1
62
256
6
ByLayer
370
-1
48
1
60
0
100
AcDbLine
10
32.949999
20
0.776846
30
0
11
33
21
1.075638
31
0
39
0
210
0
220
0
230
1
0
LINE
5
57
100
AcDbEntity
8
1
62
256
6
ByLayer
370
-1
48
1
60
0
100
AcDbLine
10
33
20
4.924362
30
0
11
32.949999
21
5.223154
31
0
39
0
210
0
220
0
230
1
0
LINE
5
58
100
AcDbEntity
8
1
62
256
6
ByLayer
370
-1
48
1
60
0
100
AcDbLine
10
3.5
20
11.5
30
0
11
0
21
11.5
31
0
39
0
210
0
220
0
230
1
0
LINE
5
59
100
AcDbEntity
8
1
62
256
6
ByLayer
370
-1
48
1
60
0
100
AcDbLine
10
0
20
-11.5
30
0
11
3.5
21
-11.5
31
0
39
0
210
0
220
0
230
1
0
LINE
5
5A
100
AcDbEntity
8
SK1
62
256
6
ByLayer
370
-1
48
1
60
0
100
AcDbLine
10
-37.6
20
7.4
30
0
11
-38
21
7
31
0
39
0
210
0
220
0
230
1
0
LINE
5
5C
100
AcDbEntity
8
SK1
62
256
6
ByLayer
370
-1
48
1
60
0
100
AcDbLine
10
-38
20
-7
30
0
11
-37
21
-8
31
0
39
0
210
0
220
0
230
1
0
LINE
5
5D
100
AcDbEntity
8
SK1
62
256
6
ByLayer
370
-1
48
1
60
0
100
AcDbLine
10
-2.1
20
8
30
0
11
-3.4
21
8
31
0
39
0
210
0
220
0
230
1
0
LINE
5
5E
100
AcDbEntity
8
SK1
62
256
6
ByLayer
370
-1
48
1
60
0
100
AcDbLine
10
-37
20
-8
30
0
11
-2.1
21
-8
31
0
39
0
210
0
220
0
230
1
0
LINE
5
5F
100
AcDbEntity
8
1
62
256
6
ByLayer
370
-1
48
1
60
0
100
AcDbLine
10
26.157762
20
9.75
30
0
11
17
21
9.75
31
0
39
0
210
0
220
0
230
1
0
LINE
5
60
100
AcDbEntity
8
SK1
62
256
6
ByLayer
370
-1
48
1
60
0
100
AcDbLine
10
-2.1
20
-8
30
0
11
-1.217854
21
-7.76363
31
0
39
0
210
0
220
0
230
1
0
LINE
5
61
100
AcDbEntity
8
SK1
62
256
6
ByLayer
370
-1
48
1
60
0
100
AcDbLine
10
-1.217854
20
7.76363
30
0
11
-2.1
21
8
31
0
39
0
210
0
220
0
230
1
0
LINE
5
62
100
AcDbEntity
8
1
62
256
6
ByLayer
370
-1
48
1
60
0
100
AcDbLine
10
17
20
-9.75
30
0
11
22.285569
21
-9.75
31
0
39
0
210
0
220
0
230
1
0
LINE
5
63
100
AcDbEntity
8
1
62
256
6
ByLayer
370
-1
48
1
60
0
100
AcDbLine
10
5.8
20
-7.9
30
0
11
15.2
21
-7.9
31
0
39
0
210
0
220
0
230
1
0
LINE
5
64
100
AcDbEntity
8
1
62
256
6
ByLayer
370
-1
48
1
60
0
100
AcDbLine
10
15.2
20
7.9
30
0
11
5.8
21
7.9
31
0
39
0
210
0
220
0
230
1
0
LINE
5
65
100
AcDbEntity
8
SK1
62
256
6
ByLayer
370
-1
48
1
60
0
100
AcDbLine
10
-0.275
20
-7.75
30
0
11
-0.275
21
7.75
31
0
39
0
210
0
220
0
230
1
0
LINE
5
66
100
AcDbEntity
8
SK1
62
256
6
ByLayer
370
-1
48
1
60
0
100
AcDbLine
10
-1.114326
20
-7.75
30
0
11
-0.275
21
-7.75
31
0
39
0
210
0
220
0
230
1
0
LINE
5
67
100
AcDbEntity
8
SK1
62
256
6
ByLayer
370
-1
48
1
60
0
100
AcDbLine
10
-0.275
20
7.75
30
0
11
-1.114326
21
7.75
31
0
39
0
210
0
220
0
230
1
0
LINE
5
68
100
AcDbEntity
8
1
62
256
6
ByLayer
370
-1
48
1
60
0
100
AcDbLine
10
25.4
20
-1.55
30
0
11
28
21
-1.55
31
0
39
0
210
0
220
0
230
1
0
LINE
5
69
100
AcDbEntity
8
SK1
62
256
6
ByLayer
370
-1
48
1
60
0
100
AcDbLine
10
-38
20
7
30
0
11
-38
21
-7
31
0
39
0
210
0
220
0
230
1
0
LINE
5
6A
100
AcDbEntity
8
1
62
256
6
ByLayer
370
-1
48
1
60
0
100
AcDbLine
10
17
20
-9.75
30
0
11
17
21
-5.573374
31
0
39
0
210
0
220
0
230
1
0
LINE
5
6B
100
AcDbEntity
8
1
62
256
6
ByLayer
370
-1
48
1
60
0
100
AcDbLine
10
25.4
20
5.5
30
0
11
28
21
5.5
31
0
39
0
210
0
220
0
230
1
0
LINE
5
6C
100
AcDbEntity
8
1
62
256
6
ByLayer
370
-1
48
1
60
0
100
AcDbLine
10
23.569302
20
-5.573374
30
0
11
17
21
-5.573374
31
0
39
0
210
0
220
0
230
1
0
LINE
5
6D
100
AcDbEntity
8
1
62
256
6
ByLayer
370
-1
48
1
60
0
100
AcDbLine
10
3.5
20
11.5
30
0
11
3.5
21
-11.5
31
0
39
0
210
0
220
0
230
1
0
LINE
5
6E
100
AcDbEntity
8
1
62
256
6
ByLayer
370
-1
48
1
60
0
100
AcDbLine
10
28
20
3
30
0
11
28
21
-0.211205
31
0
39
0
210
0
220
0
230
1
0
LINE
5
6F
100
AcDbEntity
8
SK1
62
256
6
ByLayer
370
-1
48
1
60
0
100
AcDbLine
10
-2.1
20
-8
30
0
11
-2.1
21
8
31
0
39
0
210
0
220
0
230
1
0
LINE
5
70
100
AcDbEntity
8
1
62
256
6
ByLayer
370
-1
48
1
60
0
100
AcDbLine
10
26.157762
20
9.75
30
0
11
28
21
9.005688
31
0
39
0
210
0
220
0
230
1
0
LINE
5
71
100
AcDbEntity
8
1
62
256
6
ByLayer
370
-1
48
1
60
0
100
AcDbLine
10
25.4
20
-1.55
30
0
11
25.4
21
3
31
0
39
0
210
0
220
0
230
1
0
LINE
5
72
100
AcDbEntity
8
1
62
256
6
ByLayer
370
-1
48
1
60
0
100
AcDbLine
10
24.573351
20
-7.830323
30
0
11
25
21
-7.472322
31
0
39
0
210
0
220
0
230
1
0
LINE
5
73
100
AcDbEntity
8
SK1
62
256
6
ByLayer
370
-1
48
1
60
0
100
AcDbLine
10
-4
20
7.4
30
0
11
-37
21
7.4
31
0
39
0
210
0
220
0
230
1
0
LINE
5
74
100
AcDbEntity
8
SK1
62
256
6
ByLayer
370
-1
48
1
60
0
100
AcDbLine
10
-37
20
-8
30
0
11
-37
21
7.4
31
0
39
0
210
0
220
0
230
1
0
LINE
5
75
100
AcDbEntity
8
1
62
256
6
ByLayer
370
-1
48
1
60
0
100
AcDbLine
10
26.828639
20
-0.656997
30
0
11
26.849721
21
-1.179828
31
0
39
0
210
0
220
0
230
1
0
LINE
5
76
100
AcDbEntity
8
1
62
256
6
ByLayer
370
-1
48
1
60
0
100
AcDbLine
10
17
20
5.573374
30
0
11
17
21
9.75
31
0
39
0
210
0
220
0
230
1
0
LINE
5
77
100
AcDbEntity
8
1
62
256
6
ByLayer
370
-1
48
1
60
0
100
AcDbLine
10
15.2
20
-7.9
30
0
11
15.2
21
7.9
31
0
39
0
210
0
220
0
230
1
0
LINE
5
78
100
AcDbEntity
8
1
62
256
6
ByLayer
370
-1
48
1
60
0
100
AcDbLine
10
28
20
9.75
30
0
11
28
21
9.005688
31
0
39
0
210
0
220
0
230
1
0
LINE
5
79
100
AcDbEntity
8
1
62
256
6
ByLayer
370
-1
48
1
60
0
100
AcDbLine
10
25.4
20
7.676455
30
0
11
25.4
21
5.5
31
0
39
0
210
0
220
0
230
1
0
LINE
5
7A
100
AcDbEntity
8
1
62
256
6
ByLayer
370
-1
48
1
60
0
100
AcDbLine
10
16
20
3.544362
30
0
11
16
21
3.419064
31
0
39
0
210
0
220
0
230
1
0
LINE
5
7B
100
AcDbEntity
8
SK1
62
256
6
ByLayer
370
-1
48
1
60
0
100
AcDbLine
10
-4
20
7.4
30
0
11
-3.4
21
8
31
0
39
0
210
0
220
0
230
1
0
LINE
5
7C
100
AcDbEntity
8
1
62
256
6
ByLayer
370
-1
48
1
60
0
100
AcDbLine
10
26.8743
20
7.256282
30
0
11
28
21
6.719548
31
0
39
0
210
0
220
0
230
1
0
LINE
5
7D
100
AcDbEntity
8
1
62
256
6
ByLayer
370
-1
48
1
60
0
100
AcDbLine
10
22.285569
20
-9.75
30
0
11
24.573351
21
-7.830323
31
0
39
0
210
0
220
0
230
1
0
LINE
5
7E
100
AcDbEntity
8
1
62
256
6
ByLayer
370
-1
48
1
60
0
100
AcDbLine
10
28
20
9.75
30
0
11
26.157762
21
9.75
31
0
39
0
210
0
220
0
230
1
0
LINE
5
7F
100
AcDbEntity
8
1
62
256
6
ByLayer
370
-1
48
1
60
0
100
AcDbLine
10
25
20
3
30
0
11
25.4
21
3
31
0
39
0
210
0
220
0
230
1
0
LINE
5
80
100
AcDbEntity
8
1
62
256
6
ByLayer
370
-1
48
1
60
0
100
AcDbLine
10
28
20
-1.345669
30
0
11
28
21
-1.397197
31
0
39
0
210
0
220
0
230
1
0
LINE
5
81
100
AcDbEntity
8
1
62
256
6
ByLayer
370
-1
48
1
60
0
100
AcDbLine
10
26.621122
20
7.438492
30
0
11
26.769088
21
7.37871
31
0
39
0
210
0
220
0
230
1
0
LINE
5
82
100
AcDbEntity
8
1
62
256
6
ByLayer
370
-1
48
1
60
0
100
AcDbLine
10
28
20
9.005688
30
0
11
28
21
7.820038
31
0
39
0
210
0
220
0
230
1
0
LINE
5
83
100
AcDbEntity
8
1
62
256
6
ByLayer
370
-1
48
1
60
0
100
AcDbLine
10
25
20
7.760468
30
0
11
25
21
7.480007
31
0
39
0
210
0
220
0
230
1
0
LINE
5
84
100
AcDbEntity
8
1
62
256
6
ByLayer
370
-1
48
1
60
0
100
AcDbLine
10
5.8
20
7.9
30
0
11
5.8
21
-7.9
31
0
39
0
210
0
220
0
230
1
0
LINE
5
85
100
AcDbEntity
8
1
62
256
6
ByLayer
370
-1
48
1
60
0
100
AcDbLine
10
25
20
7.480007
30
0
11
24.365786
21
7.473093
31
0
39
0
210
0
220
0
230
1
0
LINE
5
86
100
AcDbEntity
8
1
62
256
6
ByLayer
370
-1
48
1
60
0
100
AcDbLine
10
16
20
-3.419064
30
0
11
16
21
-3.544362
31
0
39
0
210
0
220
0
230
1
0
LINE
5
87
100
AcDbEntity
8
SK1
62
256
6
ByLayer
370
-1
48
1
60
0
100
AcDbLine
10
-1.114326
20
-7.75
30
0
11
-1.114326
21
7.75
31
0
39
0
210
0
220
0
230
1
0
LINE
5
88
100
AcDbEntity
8
1
62
256
6
ByLayer
370
-1
48
1
60
0
100
AcDbLine
10
16
20
-8.75
30
0
11
16
21
-3.544362
31
0
39
0
210
0
220
0
230
1
0
LINE
5
89
100
AcDbEntity
8
1
62
256
6
ByLayer
370
-1
48
1
60
0
100
AcDbLine
10
28
20
6.543641
30
0
11
28
21
5.5
31
0
39
0
210
0
220
0
230
1
0
LINE
5
8A
100
AcDbEntity
8
1
62
256
6
ByLayer
370
-1
48
1
60
0
100
AcDbLine
10
28
20
-1.55
30
0
11
28
21
-1.397197
31
0
39
0
210
0
220
0
230
1
0
LINE
5
8B
100
AcDbEntity
8
1
62
256
6
ByLayer
370
-1
48
1
60
0
100
AcDbLine
10
28
20
6.719548
30
0
11
28
21
6.543641
31
0
39
0
210
0
220
0
230
1
0
LINE
5
8C
100
AcDbEntity
8
1
62
256
6
ByLayer
370
-1
48
1
60
0
100
AcDbLine
10
0
20
11.5
30
0
11
0
21
-11.5
31
0
39
0
210
0
220
0
230
1
0
LINE
5
8D
100
AcDbEntity
8
1
62
256
6
ByLayer
370
-1
48
1
60
0
100
AcDbLine
10
21.249159
20
9.608906
30
0
11
24.374438
21
8.346211
31
0
39
0
210
0
220
0
230
1
0
LINE
5
8E
100
AcDbEntity
8
1
62
256
6
ByLayer
370
-1
48
1
60
0
100
AcDbLine
10
24.18307
20
8.371237
30
0
11
24.332329
21
8.196846
31
0
39
0
210
0
220
0
230
1
0
LINE
5
8F
100
AcDbEntity
8
1
62
256
6
ByLayer
370
-1
48
1
60
0
100
AcDbLine
10
25.4
20
5.5
30
0
11
25.4
21
3
31
0
39
0
210
0
220
0
230
1
0
LINE
5
90
100
AcDbEntity
8
1
62
256
6
ByLayer
370
-1
48
1
60
0
100
AcDbLine
10
25
20
7.480007
30
0
11
25
21
-7.472322
31
0
39
0
210
0
220
0
230
1
0
LINE
5
91
100
AcDbEntity
8
1
62
256
6
ByLayer
370
-1
48
1
60
0
100
AcDbLine
10
25
20
5.5
30
0
11
25.4
21
5.5
31
0
39
0
210
0
220
0
230
1
0
LINE
5
92
100
AcDbEntity
8
1
62
256
6
ByLayer
370
-1
48
1
60
0
100
AcDbLine
10
26.769088
20
7.37871
30
0
11
26.772103
21
7.327931
31
0
39
0
210
0
220
0
230
1
0
LINE
5
93
100
AcDbEntity
8
1
62
256
6
ByLayer
370
-1
48
1
60
0
100
AcDbLine
10
25.4
20
3
30
0
11
28
21
3
31
0
39
0
210
0
220
0
230
1
0
LINE
5
94
100
AcDbEntity
8
SK1
62
256
6
ByLayer
370
-1
48
1
60
0
100
AcDbLine
10
-1.217854
20
-7.76363
30
0
11
-1.217854
21
7.76363
31
0
39
0
210
0
220
0
230
1
0
LINE
5
95
100
AcDbEntity
8
1
62
256
6
ByLayer
370
-1
48
1
60
0
100
AcDbLine
10
23.569302
20
-5.573374
30
0
11
23.569302
21
5.573374
31
0
39
0
210
0
220
0
230
1
0
LINE
5
96
100
AcDbEntity
8
1
62
256
6
ByLayer
370
-1
48
1
60
0
100
AcDbLine
10
17
20
5.573374
30
0
11
23.569302
21
5.573374
31
0
39
0
210
0
220
0
230
1
0
LINE
5
97
100
AcDbEntity
8
1
62
256
6
ByLayer
370
-1
48
1
60
0
100
AcDbLine
10
26.853223
20
7.266679
30
0
11
26.865807
21
7.578759
31
0
39
0
210
0
220
0
230
1
0
LINE
5
98
100
AcDbEntity
8
1
62
256
6
ByLayer
370
-1
48
1
60
0
100
AcDbLine
10
5
20
10
30
0
11
5
21
-10
31
0
39
0
210
0
220
0
230
1
0
LINE
5
99
100
AcDbEntity
8
1
62
256
6
ByLayer
370
-1
48
1
60
0
100
AcDbLine
10
16
20
3.544362
30
0
11
16
21
8.75
31
0
39
0
210
0
220
0
230
1
0
LINE
5
9A
100
AcDbEntity
8
1
62
256
6
ByLayer
370
-1
48
1
60
0
100
AcDbLine
10
28
20
5.5
30
0
11
28
21
3
31
0
39
0
210
0
220
0
230
1
0
LINE
5
9B
100
AcDbEntity
8
1
62
256
6
ByLayer
370
-1
48
1
60
0
100
AcDbLine
10
24.170031
20
-0.512383
30
0
11
24.614336
21
-0.512383
31
0
39
0
210
0
220
0
230
1
0
LINE
5
9C
100
AcDbEntity
8
1
62
256
6
ByLayer
370
-1
48
1
60
0
100
AcDbLine
10
24.086658
20
0.218779
30
0
11
24.684965
21
0.218779
31
0
39
0
210
0
220
0
230
1
0
LINE
5
9D
100
AcDbEntity
8
1
62
256
6
ByLayer
370
-1
48
1
60
0
100
AcDbLine
10
33
20
1.075638
30
0
11
33
21
4.924362
31
0
39
0
210
0
220
0
230
1
0
LINE
5
9E
100
AcDbEntity
8
1
62
256
6
ByLayer
370
-1
48
1
60
0
100
AcDbLine
10
32.95
20
6.552632
30
0
11
28.000077
21
6.552632
31
0
39
0
210
0
220
0
230
1
0
LINE
5
9F
100
AcDbEntity
8
1
62
256
6
ByLayer
370
-1
48
1
60
0
100
AcDbLine
10
27.15
20
-0.566772
30
0
11
27.15
21
-0.541348
31
0
39
0
210
0
220
0
230
1
0
LINE
5
A0
100
AcDbEntity
8
1
62
256
6
ByLayer
370
-1
48
1
60
0
100
AcDbLine
10
27.472444
20
6.971122
30
0
11
32.95
21
6.971122
31
0
39
0
210
0
220
0
230
1
0
LINE
5
A1
100
AcDbEntity
8
1
62
256
6
ByLayer
370
-1
48
1
60
0
100
AcDbLine
10
27.15
20
7.124834
30
0
11
27.15
21
7.40358
31
0
39
0
210
0
220
0
230
1
0
LINE
5
A2
100
AcDbEntity
8
1
62
256
6
ByLayer
370
-1
48
1
60
0
100
AcDbLine
10
34.676533
20
11.880572
30
0
11
34.676533
21
10.049587
31
0
39
0
210
0
220
0
230
1
0
LINE
5
A3
100
AcDbEntity
8
1
62
256
6
ByLayer
370
-1
48
1
60
0
100
AcDbLine
10
28.1
20
11.650914
30
0
11
34.676533
21
11.880572
31
0
39
0
210
0
220
0
230
1
0
LINE
5
A4
100
AcDbEntity
8
1
62
256
6
ByLayer
370
-1
48
1
60
0
100
AcDbLine
10
28.1
20
-0.063414
30
0
11
28.1
21
6.057057
31
0
39
0
210
0
220
0
230
1
0
LINE
5
A5
100
AcDbEntity
8
1
62
256
6
ByLayer
370
-1
48
1
60
0
100
AcDbLine
10
28.1
20
8.677866
30
0
11
32.95
21
8.677866
31
0
39
0
210
0
220
0
230
1
0
LINE
5
A6
100
AcDbEntity
8
1
62
256
6
ByLayer
370
-1
48
1
60
0
100
AcDbLine
10
32.95
20
8.677866
30
0
11
32.95
21
10.109879
31
0
39
0
210
0
220
0
230
1
0
LINE
5
A7
100
AcDbEntity
8
1
62
256
6
ByLayer
370
-1
48
1
60
0
100
AcDbLine
10
32.95
20
10.109879
30
0
11
34.676533
21
10.049587
31
0
39
0
210
0
220
0
230
1
0
LINE
5
A8
100
AcDbEntity
8
1
62
256
6
ByLayer
370
-1
48
1
60
0
100
AcDbLine
10
38.3
20
11.801135
30
0
11
38.3
21
10.129024
31
0
39
0
210
0
220
0
230
1
0
LINE
5
A9
100
AcDbEntity
8
1
62
256
6
ByLayer
370
-1
48
1
60
0
100
AcDbLine
10
32.95
20
6.971122
30
0
11
32.95
21
7.97209
31
0
39
0
210
0
220
0
230
1
0
LINE
5
AA
100
AcDbEntity
8
1
62
256
6
ByLayer
370
-1
48
1
60
0
100
AcDbLine
10
32.95
20
7.97209
30
0
11
28.1
21
7.97209
31
0
39
0
210
0
220
0
230
1
0
LINE
5
AB
100
AcDbEntity
8
1
62
256
6
ByLayer
370
-1
48
1
60
0
100
AcDbLine
10
27.15
20
-0.566772
30
0
11
27.15
21
-1.16465
31
0
39
0
210
0
220
0
230
1
0
LINE
5
AC
100
AcDbEntity
8
1
62
256
6
ByLayer
370
-1
48
1
60
0
100
AcDbLine
10
28.1
20
-1.5
30
0
11
28.1
21
-1.388302
31
0
39
0
210
0
220
0
230
1
0
LINE
5
AD
100
AcDbEntity
8
1
62
256
6
ByLayer
370
-1
48
1
60
0
100
AcDbLine
10
32.95
20
-1.5
30
0
11
28.1
21
-1.5
31
0
39
0
210
0
220
0
230
1
0
LINE
5
AE
100
AcDbEntity
8
1
62
256
6
ByLayer
370
-1
48
1
60
0
100
AcDbLine
10
28.1
20
7.939393
30
0
11
28.1
21
7.97209
31
0
39
0
210
0
220
0
230
1
0
LINE
5
AF
100
AcDbEntity
8
1
62
256
6
ByLayer
370
-1
48
1
60
0
100
AcDbLine
10
28.1
20
7.97209
30
0
11
28.1
21
8.677866
31
0
39
0
210
0
220
0
230
1
0
LINE
5
B0
100
AcDbEntity
8
1
62
256
6
ByLayer
370
-1
48
1
60
0
100
AcDbLine
10
28.1
20
8.677866
30
0
11
28.1
21
11.650914
31
0
39
0
210
0
220
0
230
1
0
LINE
5
B1
100
AcDbEntity
8
1
62
256
6
ByLayer
370
-1
48
1
60
0
100
AcDbLine
10
32.95
20
8.677866
30
0
11
32.95
21
7.97209
31
0
39
0
210
0
220
0
230
1
0
LINE
5
B2
100
AcDbEntity
8
1
62
256
6
ByLayer
370
-1
48
1
60
0
100
AcDbLine
10
32.95
20
6.971122
30
0
11
32.95
21
6.552632
31
0
39
0
210
0
220
0
230
1
0
LINE
5
B3
100
AcDbEntity
8
1
62
256
6
ByLayer
370
-1
48
1
60
0
100
AcDbLine
10
32.95
20
-1.5
30
0
11
32.95
21
6.552632
31
0
39
0
210
0
220
0
230
1
0
LINE
5
B4
100
AcDbEntity
8
4
62
256
6
ByLayer
370
-1
48
0.05
60
0
100
AcDbLine
10
0
20
1.9E-05
30
0
11
38.300131
21
1.9E-05
31
0
39
0
210
0
220
0
230
1
0
LINE
5
B6
100
AcDbEntity
8
SK4
62
256
6
ByLayer
370
-1
48
0.05
60
0
100
AcDbLine
10
-39.999869
20
1.9E-05
30
0
11
38.500131
21
1.9E-05
31
0
39
0
210
0
220
0
230
1
0
MTEXT
5
F9
100
AcDbEntity
8
2
62
256
6
ByLayer
370
-1
48
1
60
0
100
AcDbMText
10
67.432948
20
-31.320346
30
0
210
0
220
0
230
1
1
\W00.774;\fsimplex.shx,bigfont.shx;DC = 24.0 - 30.0\P
40
3
41
0
44
1.084337
50
89.9999999999993
71
7
72
5
7
DEFAULT
0
MTEXT
5
FC
100
AcDbEntity
8
SK6
62
256
6
ByLayer
370
-1
48
1
60
0
100
AcDbMText
10
37.459139
20
19.098546
30
0
210
0
220
0
230
1
1
\W00.765;\fsimplex.shx,bigfont.shx;R429U-A16-24028MB09\P
40
3
41
0
44
1.084337
50
0
71
7
72
5
7
DEFAULT
0
DIMENSION
5
108
100
AcDbEntity
8
SK2
62
256
6
ByLayer
370
-3
48
1
60
0
100
AcDbDimension
2
DimnDraft3D1
10
-38
20
43.250019
30
0
11
-9.015789
21
43.250019
31
0
70
32
71
5
72
1
41
1
210
0
220
0
230
1
3
Standard
100
AcDbAlignedDimension
13
28
23
11.75
33
0
14
-38
24
9
34
0
50
0
100
AcDbRotatedDimension
1001
ACAD
1000
DSTYLE
1002
{
1070
   279
1070
     0
1070
   172
1070
     1
1070
   173
1070
     1
1070
   340
1005
FA
1070
   271
1070
     1
1070
    77
1070
     1
1070
    73
1070
     0
1070
   171
1070
     4
1070
   274
1070
     4
1070
   177
1070
     7
1070
   176
1070
     7
1070
   178
1070
     7
1070
    41
1041
3.175
1070
   147
1041
1.75
1070
    42
1041
2.0
1070
    44
1041
2.0
1070
   140
1041
3.5
1070
   343
1005
0
1070
   344
1005
0
1002
}
0
DIMENSION
5
112
100
AcDbEntity
8
2
62
256
6
ByLayer
370
-3
48
1
60
0
100
AcDbDimension
2
DimnDraft3D2
10
0
20
28.250019
30
0
11
9.984211
21
28.250019
31
0
70
32
71
5
72
1
41
1
210
0
220
0
230
1
3
Standard
100
AcDbAlignedDimension
13
28
23
11.75
33
0
14
0
24
13.5
34
0
50
0
100
AcDbRotatedDimension
1001
ACAD
1000
DSTYLE
1002
{
1070
   279
1070
     0
1070
   172
1070
     1
1070
   173
1070
     1
1070
   340
1005
FA
1070
   271
1070
     1
1070
    77
1070
     1
1070
    73
1070
     0
1070
   171
1070
     4
1070
   274
1070
     4
1070
   177
1070
     7
1070
   176
1070
     7
1070
   178
1070
     7
1070
    41
1041
3.175
1070
   147
1041
1.75
1070
    42
1041
2.0
1070
    44
1041
2.0
1070
   140
1041
3.5
1070
   343
1005
0
1070
   344
1005
0
1002
}
0
DIMENSION
5
11C
100
AcDbEntity
8
SK2
62
256
6
ByLayer
370
-3
48
1
60
0
100
AcDbDimension
2
DimnDraft3D3
10
-45.291869
20
8
30
0
11
-45.291869
21
-27.247368
31
0
70
32
71
5
72
1
41
1
210
0
220
0
230
1
3
Standard
100
AcDbAlignedDimension
13
-39
23
-8
33
0
14
-5.4
24
8
34
0
50
90
100
AcDbRotatedDimension
1001
ACAD
1000
DSTYLE
1002
{
1070
    74
1070
     0
1070
   279
1070
     0
1070
   172
1070
     1
1070
   173
1070
     1
1070
   340
1005
FA
1070
   271
1070
     1
1070
    77
1070
     1
1070
    73
1070
     0
1070
   171
1070
     4
1070
   274
1070
     4
1070
   177
1070
     7
1070
   176
1070
     7
1070
   178
1070
     7
1070
    41
1041
3.175
1070
   147
1041
1.75
1070
    42
1041
2.0
1070
    44
1041
2.0
1070
   140
1041
3.5
1070
   343
1005
0
1070
   344
1005
0
1002
}
0
DIMENSION
5
126
100
AcDbEntity
8
2
62
256
6
ByLayer
370
-3
48
1
60
0
100
AcDbDimension
2
DimnDraft3D4
10
38.3
20
-25.814474
30
0
11
6.853947
21
-25.814474
31
0
70
32
71
5
72
1
41
1
210
0
220
0
230
1
3
Standard
100
AcDbAlignedDimension
13
0
23
-13.5
33
0
14
38.3
24
8.129024
34
0
50
0
100
AcDbRotatedDimension
1001
ACAD
1000
DSTYLE
1002
{
1070
   279
1070
     0
1070
   172
1070
     1
1070
   173
1070
     1
1070
   340
1005
FA
1070
   271
1070
     1
1070
    77
1070
     1
1070
    73
1070
     0
1070
   171
1070
     4
1070
   274
1070
     4
1070
   177
1070
     7
1070
   176
1070
     7
1070
   178
1070
     7
1070
    78
1070
     8
1070
    41
1041
3.175
1070
   147
1041
1.75
1070
    42
1041
2.0
1070
    44
1041
2.0
1070
   140
1041
3.5
1070
   343
1005
0
1070
   344
1005
0
1002
}
0
ENDSEC
0
SECTION
2
OBJECTS
0
DICTIONARY
5
175
330
0
100
AcDbDictionary
280
0
281
1
3
ACAD_GROUP
350
176
3
ACAD_MLINESTYLE
350
177
0
DICTIONARY
5
176
330
0
100
AcDbDictionary
280
0
281
1
0
DICTIONARY
5
177
330
0
100
AcDbDictionary
280
0
281
1
3
Standard
350
18
0
MLINESTYLE
5
18
330
177
100
AcDbMlineStyle
2
Standard
70
0
3

62
256
51
90
52
90
71
2
49
-0.5
62
256
6
ByLayer
49
0.5
62
256
6
ByLayer
0
RASTERVARIABLES
5
163
330

100
AcDbRasterVariables
90
0
70
1
71
1
72
1
0
ENDSEC
0
EOF
