0
SECTION
2
HEADER
9
$ACADVER
1
AC1015
9
$DWGCODEPAGE
3
ANSI_1252
9
$HANDSEED
5
18c
9
$ANGBASE
50
0
9
$ANGDIR
70
0
9
$ATTMODE
70
1
9
$AUNITS
70
0
9
$AUPREC
70
0
9
$CECOLOR
62
256
9
$CELTSCALE
40
1
9
$CELTYPE
6
ByLayer
9
$CELWEIGHT
370
-1
9
$CLAYER
8
0
9
$CMLJUST
70
0
9
$CMLSCALE
40
1
9
$CMLSTYLE
2
Standard
9
$DIMSTYLE
2
Standard
9
$TEXTSIZE
40
0.2
9
$TEXTSTYLE
7
Standard
9
$LUNITS
70
2
9
$LUPREC
70
4
9
$EXTNAMES
290
1
9
$INSUNITS
70
4
9
$LTSCALE
40
1
9
$LWDISPLAY
290
0
9
$PDMODE
70
0
9
$PDSIZE
40
0
9
$PLINEGEN
70
0
0
ENDSEC
0
SECTION
2
CLASSES
0
CLASS
1
RASTERVARIABLES
2
AcDbRasterVariables
3
ISM
90
0
280
0
281
0
0
ENDSEC
0
SECTION
2
TABLES
0
TABLE
2
VPORT
5
182
100
AcDbSymbolTable
0
VPORT
5
1
100
AcDbSymbolTableRecord
100
AcDbViewportTableRecord
2
*Active
70
0
10
0
20
0
11
1
21
1
12
-1
22
1
13
0
23
0
14
0.5
24
0.5
15
10
25
10
16
0
26
0
36
1
17
0
27
0
37
0
0
ENDTAB
0
TABLE
2
LTYPE
5
183
100
AcDbSymbolTable
0
LTYPE
5
14
100
AcDbSymbolTableRecord
100
AcDbLinetypeTableRecord
70
0
2
ByBlock
3

72
65
73
0
40
0
0
LTYPE
5
15
100
AcDbSymbolTableRecord
100
AcDbLinetypeTableRecord
70
0
2
ByLayer
3

72
65
73
0
40
0
0
LTYPE
5
16
100
AcDbSymbolTableRecord
100
AcDbLinetypeTableRecord
70
0
2
CONTINUOUS
3
Solid line
72
65
73
0
40
0
0
LTYPE
5
3C
100
AcDbSymbolTableRecord
100
AcDbLinetypeTableRecord
70
0
2
DASHED
3
__ __ __ __ __ __ __ __ __
72
65
73
2
40
25.72
49
12.86
74
0
49
-12.86
74
0
0
LTYPE
5
3D
100
AcDbSymbolTableRecord
100
AcDbLinetypeTableRecord
70
0
2
HIDDEN
3
_ _ _ _ _ _ _ _ _ _ _ _ _ _ _
72
65
73
2
40
0.5
49
0.25
74
0
49
-0.25
74
0
0
LTYPE
5
3E
100
AcDbSymbolTableRecord
100
AcDbLinetypeTableRecord
70
0
2
PHANTOM
3
____ _ _ ____ _ _ _____ _ _ ____
72
65
73
6
40
50.5
49
18
74
0
49
-6.5
74
0
49
6.5
74
0
49
-6.5
74
0
49
6.5
74
0
49
-6.5
74
0
0
LTYPE
5
3F
100
AcDbSymbolTableRecord
100
AcDbLinetypeTableRecord
70
0
2
CENTER
3
____ _ ____ _ ____ _ ____
72
65
73
4
40
47.5
49
22
74
0
49
-8.5
74
0
49
8.5
74
0
49
-8.5
74
0
0
LTYPE
5
40
100
AcDbSymbolTableRecord
100
AcDbLinetypeTableRecord
70
0
2
DOT
3
.........................
72
65
73
2
40
10
49
0
74
0
49
-10
74
0
0
LTYPE
5
41
100
AcDbSymbolTableRecord
100
AcDbLinetypeTableRecord
70
0
2
DASHDOT
3
_._._._._._._._._._._._._._._._.
72
65
73
4
40
70
49
31
74
0
49
-13
74
0
49
13
74
0
49
-13
74
0
0
ENDTAB
0
TABLE
2
LAYER
5
184
100
AcDbSymbolTable
0
LAYER
5
10
100
AcDbSymbolTableRecord
100
AcDbLayerTableRecord
2
0
70
0
62
7
6
CONTINUOUS
290
1
370
-3
390
0
0
LAYER
5
43
100
AcDbSymbolTableRecord
100
AcDbLayerTableRecord
2
80
70
0
62
-6
6
CONTINUOUS
290
1
370
-3
390
0
0
LAYER
5
45
100
AcDbSymbolTableRecord
100
AcDbLayerTableRecord
2
81
70
0
62
-3
6
CONTINUOUS
290
1
370
-3
390
0
0
LAYER
5
47
100
AcDbSymbolTableRecord
100
AcDbLayerTableRecord
2
2
70
0
62
7
6
CONTINUOUS
290
1
370
-3
390
0
0
LAYER
5
58
100
AcDbSymbolTableRecord
100
AcDbLayerTableRecord
2
1
70
0
62
4
6
CONTINUOUS
290
1
370
-3
390
0
0
LAYER
5
B4
100
AcDbSymbolTableRecord
100
AcDbLayerTableRecord
2
4
70
0
62
-2
6
CENTER
290
1
370
-3
390
0
0
LAYER
5
16e
100
AcDbSymbolTableRecord
100
AcDbLayerTableRecord
2
SK4
70
0
62
2
6
CENTER
290
1
370
-3
390
0
0
LAYER
5
16f
100
AcDbSymbolTableRecord
100
AcDbLayerTableRecord
2
SK1
70
0
62
4
6
CONTINUOUS
290
1
370
-3
390
0
0
LAYER
5
170
100
AcDbSymbolTableRecord
100
AcDbLayerTableRecord
2
SK6
70
0
62
5
6
CONTINUOUS
290
1
370
-3
390
0
0
LAYER
5
171
100
AcDbSymbolTableRecord
100
AcDbLayerTableRecord
2
SK2
70
0
62
7
6
CONTINUOUS
290
1
370
-3
390
0
0
ENDTAB
0
TABLE
2
STYLE
5
185
100
AcDbSymbolTable
0
STYLE
5
11
100
AcDbSymbolTableRecord
100
AcDbTextStyleTableRecord
2
Standard
3
txt
70
0
71
0
40
0
41
1
42
0
50
0
0
STYLE
5
104
100
AcDbSymbolTableRecord
100
AcDbTextStyleTableRecord
2
DEFAULT
3
simplex.shx
70
0
71
0
40
0
41
1
42
0
50
0
0
STYLE
5
105
100
AcDbSymbolTableRecord
100
AcDbTextStyleTableRecord
2
DWGDirectTextStyle
3
SIMPLEX
70
0
71
0
40
0
41
1
42
0
50
0
0
ENDTAB
0
TABLE
2
DIMSTYLE
5
186
100
AcDbSymbolTable
100
AcDbDimStyleTable
0
DIMSTYLE
105
27
100
AcDbSymbolTableRecord
100
AcDbDimStyleTableRecord
2
Standard
70
0
3
<>
41
0.18
42
0.0625
44
0.18
140
0.18
147
0.09
73
0
74
0
77
1
271
2
275
0
278
52
280
0
340
11
0
ENDTAB
0
TABLE
2
VIEW
5
187
100
AcDbSymbolTable
0
ENDTAB
0
TABLE
2
UCS
5
188
100
AcDbSymbolTable
0
ENDTAB
0
TABLE
2
APPID
5
189
100
AcDbSymbolTable
0
APPID
5
12
100
AcDbSymbolTableRecord
100
AcDbRegAppTableRecord
2
ACAD
70
0
0
ENDTAB
0
TABLE
2
BLOCK_RECORD
5
18a
100
AcDbSymbolTable
0
BLOCK_RECORD
5
1F
100
AcDbSymbolTableRecord
100
AcDbBlockTableRecord
2
*Model_Space
340
0
70
0
0
BLOCK_RECORD
5
1B
100
AcDbSymbolTableRecord
100
AcDbBlockTableRecord
2
*Paper_Space
340
0
70
0
0
BLOCK_RECORD
5
23
100
AcDbSymbolTableRecord
100
AcDbBlockTableRecord
2
*Paper_Space0
340
0
70
0
0
BLOCK_RECORD
5
108
100
AcDbSymbolTableRecord
100
AcDbBlockTableRecord
2
DimnDraft3D1
340
0
70
0
0
BLOCK_RECORD
5
113
100
AcDbSymbolTableRecord
100
AcDbBlockTableRecord
2
DimnDraft3D2
340
0
70
0
0
BLOCK_RECORD
5
11D
100
AcDbSymbolTableRecord
100
AcDbBlockTableRecord
2
DimnDraft3D3
340
0
70
0
0
BLOCK_RECORD
5
127
100
AcDbSymbolTableRecord
100
AcDbBlockTableRecord
2
DimnDraft3D4
340
0
70
0
0
ENDTAB
0
ENDSEC
0
SECTION
2
BLOCKS
0
BLOCK
5
20
100
AcDbEntity
8
0
100
AcDbBlockBegin
2
*Model_Space
70
0
10
0
20
0
30
0
3
*Model_Space
0
ENDBLK
5
21
100
AcDbEntity
8
0
100
AcDbBlockEnd
0
BLOCK
5
1C
100
AcDbEntity
8
0
100
AcDbBlockBegin
2
*Paper_Space
70
0
10
0
20
0
30
0
3
*Paper_Space
0
ENDBLK
5
1D
100
AcDbEntity
8
0
100
AcDbBlockEnd
0
BLOCK
5
24
100
AcDbEntity
8
0
100
AcDbBlockBegin
2
*Paper_Space0
70
0
10
0
20
0
30
0
3
*Paper_Space0
0
ENDBLK
5
25
100
AcDbEntity
8
0
100
AcDbBlockEnd
0
BLOCK
5
110
100
AcDbEntity
8
0
100
AcDbBlockBegin
2
DimnDraft3D1
70
0
10
0
20
0
30
0
3
DimnDraft3D1
0
MTEXT
5
109
100
AcDbEntity
8
SK2
62
256
6
ByLayer
370
-1
48
1
60
0
100
AcDbMText
10
-7.140789
20
44.125019
30
0
210
0
220
0
230
1
1
\W01.000;\fsimplex.shx,bigfont.shx;68.0\P
40
3.5
41
0
44
1.084337
50
0
71
7
72
5
7
DEFAULT
0
LINE
5
10B
100
AcDbEntity
8
SK2
62
256
6
ByLayer
370
-1
48
1
60
0
100
AcDbLine
10
30
20
9.55
30
0
11
30
21
45.250019
31
0
39
0
210
0
220
0
230
1
0
LINE
5
10C
100
AcDbEntity
8
SK2
62
256
6
ByLayer
370
-1
48
1
60
0
100
AcDbLine
10
-38
20
9
30
0
11
-38
21
45.250019
31
0
39
0
210
0
220
0
230
1
0
LINE
5
10D
100
AcDbEntity
8
SK2
62
256
6
ByLayer
370
-1
48
1
60
0
100
AcDbLine
10
30
20
43.250019
30
0
11
-38
21
43.250019
31
0
39
0
210
0
220
0
230
1
0
SOLID
5
10E
100
AcDbEntity
8
SK2
62
256
6
ByLayer
370
-1
48
1
60
0
100
AcDbTrace
10
30
20
43.250019
30
0
11
26.825002
21
42.832023
31
0
12
26.824998
22
43.668016
32
0
13
30
23
43.250019
33
0
39
0
210
0
220
0
230
1
0
SOLID
5
10F
100
AcDbEntity
8
SK2
62
256
6
ByLayer
370
-1
48
1
60
0
100
AcDbTrace
10
-38
20
43.250019
30
0
11
-34.825002
21
43.668016
31
0
12
-34.824998
22
42.832023
32
0
13
-38
23
43.250019
33
0
39
0
210
0
220
0
230
1
0
ENDBLK
5
111
100
AcDbEntity
8
0
100
AcDbBlockEnd
0
BLOCK
5
11A
100
AcDbEntity
8
0
100
AcDbBlockBegin
2
DimnDraft3D2
70
0
10
0
20
0
30
0
3
DimnDraft3D2
0
MTEXT
5
114
100
AcDbEntity
8
2
62
256
6
ByLayer
370
-1
48
1
60
0
100
AcDbMText
10
11.859211
20
29.125019
30
0
210
0
220
0
230
1
1
\W01.000;\fsimplex.shx,bigfont.shx;30.0\P
40
3.5
41
0
44
1.084337
50
0
71
7
72
5
7
DEFAULT
0
LINE
5
115
100
AcDbEntity
8
2
62
256
6
ByLayer
370
-1
48
1
60
0
100
AcDbLine
10
30
20
9.55
30
0
11
30
21
30.250019
31
0
39
0
210
0
220
0
230
1
0
LINE
5
116
100
AcDbEntity
8
2
62
256
6
ByLayer
370
-1
48
1
60
0
100
AcDbLine
10
0
20
13.5
30
0
11
0
21
30.250019
31
0
39
0
210
0
220
0
230
1
0
LINE
5
117
100
AcDbEntity
8
2
62
256
6
ByLayer
370
-1
48
1
60
0
100
AcDbLine
10
30
20
28.250019
30
0
11
0
21
28.250019
31
0
39
0
210
0
220
0
230
1
0
SOLID
5
118
100
AcDbEntity
8
2
62
256
6
ByLayer
370
-1
48
1
60
0
100
AcDbTrace
10
30
20
28.250019
30
0
11
26.825002
21
27.832023
31
0
12
26.824998
22
28.668016
32
0
13
30
23
28.250019
33
0
39
0
210
0
220
0
230
1
0
SOLID
5
119
100
AcDbEntity
8
2
62
256
6
ByLayer
370
-1
48
1
60
0
100
AcDbTrace
10
0
20
28.250019
30
0
11
3.174998
21
28.668016
31
0
12
3.175002
22
27.832023
32
0
13
0
23
28.250019
33
0
39
0
210
0
220
0
230
1
0
ENDBLK
5
11B
100
AcDbEntity
8
0
100
AcDbBlockEnd
0
BLOCK
5
124
100
AcDbEntity
8
0
100
AcDbBlockBegin
2
DimnDraft3D3
70
0
10
0
20
0
30
0
3
DimnDraft3D3
0
MTEXT
5
11E
100
AcDbEntity
8
SK2
62
256
6
ByLayer
370
-1
48
1
60
0
100
AcDbMText
10
-46.166869
20
-26.372368
30
0
210
0
220
0
230
1
1
\W01.000;\fsimplex.shx,bigfont.shx;%%c 16.0\P
40
3.5
41
0
44
1.084337
50
90
71
7
72
5
7
DEFAULT
0
LINE
5
11F
100
AcDbEntity
8
SK2
62
256
6
ByLayer
370
-1
48
1
60
0
100
AcDbLine
10
-39
20
-8
30
0
11
-47.291869
21
-8
31
0
39
0
210
0
220
0
230
1
0
LINE
5
120
100
AcDbEntity
8
SK2
62
256
6
ByLayer
370
-1
48
1
60
0
100
AcDbLine
10
-5.4
20
8
30
0
11
-47.291869
21
8
31
0
39
0
210
0
220
0
230
1
0
LINE
5
121
100
AcDbEntity
8
SK2
62
256
6
ByLayer
370
-1
48
1
60
0
100
AcDbLine
10
-45.291869
20
8
30
0
11
-45.291869
21
-27.247368
31
0
39
0
210
0
220
0
230
1
0
SOLID
5
122
100
AcDbEntity
8
SK2
62
256
6
ByLayer
370
-1
48
1
60
0
100
AcDbTrace
10
-45.291869
20
-8
30
0
11
-45.709865
21
-4.825002
31
0
12
-44.873872
22
-4.824998
32
0
13
-45.291869
23
-8
33
0
39
0
210
0
220
0
230
1
0
SOLID
5
123
100
AcDbEntity
8
SK2
62
256
6
ByLayer
370
-1
48
1
60
0
100
AcDbTrace
10
-45.291869
20
8
30
0
11
-44.873872
21
4.825002
31
0
12
-45.709865
22
4.824998
32
0
13
-45.291869
23
8
33
0
39
0
210
0
220
0
230
1
0
ENDBLK
5
125
100
AcDbEntity
8
0
100
AcDbBlockEnd
0
BLOCK
5
12E
100
AcDbEntity
8
0
100
AcDbBlockBegin
2
DimnDraft3D4
70
0
10
0
20
0
30
0
3
DimnDraft3D4
0
MTEXT
5
128
100
AcDbEntity
8
2
62
256
6
ByLayer
370
-1
48
1
60
0
100
AcDbMText
10
8.544737
20
-24.939474
30
0
210
0
220
0
230
1
1
\W01.000;\fsimplex.shx,bigfont.shx;38.3 / 40.3\P
40
3.5
41
0
44
1.084337
50
0
71
7
72
5
7
DEFAULT
0
LINE
5
129
100
AcDbEntity
8
2
62
256
6
ByLayer
370
-1
48
1
60
0
100
AcDbLine
10
0
20
-13.5
30
0
11
0
21
-27.814474
31
0
39
0
210
0
220
0
230
1
0
LINE
5
12A
100
AcDbEntity
8
2
62
256
6
ByLayer
370
-1
48
1
60
0
100
AcDbLine
10
40.3
20
5.629024
30
0
11
40.3
21
-27.814474
31
0
39
0
210
0
220
0
230
1
0
LINE
5
12B
100
AcDbEntity
8
2
62
256
6
ByLayer
370
-1
48
1
60
0
100
AcDbLine
10
0
20
-25.814474
30
0
11
40.3
21
-25.814474
31
0
39
0
210
0
220
0
230
1
0
SOLID
5
12C
100
AcDbEntity
8
2
62
256
6
ByLayer
370
-1
48
1
60
0
100
AcDbTrace
10
0
20
-25.814474
30
0
11
3.174998
21
-25.396477
31
0
12
3.175002
22
-26.232471
32
0
13
0
23
-25.814474
33
0
39
0
210
0
220
0
230
1
0
SOLID
5
12D
100
AcDbEntity
8
2
62
256
6
ByLayer
370
-1
48
1
60
0
100
AcDbTrace
10
40.3
20
-25.814474
30
0
11
37.125002
21
-26.232471
31
0
12
37.124998
22
-25.396477
32
0
13
40.3
23
-25.814474
33
0
39
0
210
0
220
0
230
1
0
ENDBLK
5
12F
100
AcDbEntity
8
0
100
AcDbBlockEnd
0
ENDSEC
0
SECTION
2
ENTITIES
0
ARC
5
B5
100
AcDbEntity
8
1
62
256
6
ByLayer
370
-1
48
1
60
0
100
AcDbCircle
39
0
10
-5.8
20
-8.7
30
0
40
0.8
210
0
220
0
230
-1
100
AcDbArc
50
0
51
90
0
ARC
5
B6
100
AcDbEntity
8
1
62
256
6
ByLayer
370
-1
48
1
60
0
100
AcDbCircle
39
0
10
3.5
20
-10
30
0
40
1.5
210
0
220
0
230
1
100
AcDbArc
50
270
51
0
0
ARC
5
B7
100
AcDbEntity
8
1
62
256
6
ByLayer
370
-1
48
1
60
0
100
AcDbCircle
39
0
10
-5.8
20
8.7
30
0
40
0.8
210
0
220
0
230
-1
100
AcDbArc
50
270
51
0
0
ARC
5
B8
100
AcDbEntity
8
SK1
62
256
6
ByLayer
370
-1
48
1
60
0
100
AcDbCircle
39
0
10
0.275
20
-8.15
30
0
40
0.4
210
0
220
0
230
-1
100
AcDbArc
50
90
51
133.433495
0
ARC
5
B9
100
AcDbEntity
8
SK1
62
256
6
ByLayer
370
-1
48
1
60
0
100
AcDbCircle
39
0
10
0.275
20
8.15
30
0
40
0.4
210
0
220
0
230
-1
100
AcDbArc
50
226.566505
51
270
0
ARC
5
BA
100
AcDbEntity
8
1
62
256
6
ByLayer
370
-1
48
1
60
0
100
AcDbCircle
39
0
10
-27.4
20
-4.45
30
0
40
0.4
210
0
220
0
230
-1
100
AcDbArc
50
0
51
90
0
ARC
5
BB
100
AcDbEntity
8
SK1
62
256
6
ByLayer
370
-1
48
1
60
0
100
AcDbCircle
39
0
10
1.114326
20
8.15
30
0
40
0.4
210
0
220
0
230
-1
100
AcDbArc
50
270
51
285
0
ARC
5
BC
100
AcDbEntity
8
SK1
62
256
6
ByLayer
370
-1
48
1
60
0
100
AcDbCircle
39
0
10
1.114326
20
-8.15
30
0
40
0.4
210
0
220
0
230
-1
100
AcDbArc
50
75
51
90
0
ARC
5
BD
100
AcDbEntity
8
1
62
256
6
ByLayer
370
-1
48
1
60
0
100
AcDbCircle
39
0
10
3.5
20
10
30
0
40
1.5
210
0
220
0
230
1
100
AcDbArc
50
0
51
90
0
ELLIPSE
5
BE
100
AcDbEntity
8
1
62
256
6
ByLayer
370
-1
48
1
60
0
100
AcDbEllipse
10
26.385822
20
0
30
0
11
-2.80437848601786E-15
21
-0.750555349946514
31
0
210
0
220
0
230
1
40
0.416655
41
1.86658047468971
42
2.91377802588631
0
ELLIPSE
5
BF
100
AcDbEntity
8
1
62
256
6
ByLayer
370
-1
48
1
60
0
100
AcDbEllipse
10
26.385822
20
0
30
0
11
-2.80437848601786E-15
21
-0.750555349946514
31
0
210
0
220
0
230
1
40
0.416655
41
-2.32220973009667
42
-1.27501217890009
0
ELLIPSE
5
C0
100
AcDbEntity
8
1
62
256
6
ByLayer
370
-1
48
1
60
0
100
AcDbEllipse
10
26.385822
20
0
30
0
11
-2.80437848601786E-15
21
-0.750555349946514
31
0
210
0
220
0
230
1
40
0.416655
41
0.819382923493103
42
1.86658047468971
0
ELLIPSE
5
C1
100
AcDbEntity
8
1
62
256
6
ByLayer
370
-1
48
1
60
0
100
AcDbEllipse
10
26.385822
20
0
30
0
11
-2.80437848601786E-15
21
-0.750555349946514
31
0
210
0
220
0
230
1
40
0.416655
41
-0.227814627703493
42
0.819382923493102
0
ELLIPSE
5
C2
100
AcDbEntity
8
1
62
256
6
ByLayer
370
-1
48
1
60
0
100
AcDbEllipse
10
26.385822
20
0
30
0
11
-2.80437848601786E-15
21
-0.750555349946514
31
0
210
0
220
0
230
1
40
0.416655
41
-1.27501217890009
42
-0.227814627703493
0
ELLIPSE
5
C3
100
AcDbEntity
8
1
62
256
6
ByLayer
370
-1
48
1
60
0
100
AcDbEllipse
10
26.385822
20
0
30
0
11
-3.54958440028016E-15
21
-0.95
31
0
210
0
220
0
230
1
40
0.416655
41
0
42
6.28318530717959
0
ELLIPSE
5
C4
100
AcDbEntity
8
1
62
256
6
ByLayer
370
-1
48
1
60
0
100
AcDbEllipse
10
26.385822
20
0
30
0
11
-2.80437848601786E-15
21
-0.750555349946514
31
0
210
0
220
0
230
1
40
0.416655
41
2.91377802588631
42
-2.32220973009667
0
ELLIPSE
5
C5
100
AcDbEntity
8
1
62
256
6
ByLayer
370
-1
48
1
60
0
100
AcDbEllipse
10
21
20
-5.278806
30
0
11
-0.95
21
1.16337603613126E-16
31
0
210
0
220
0
230
1
40
0.2024
41
-2.17378554311682
42
-0.970261547405631
0
ELLIPSE
5
C6
100
AcDbEntity
8
1
62
256
6
ByLayer
370
-1
48
1
60
0
100
AcDbEllipse
10
21
20
-5.278806
30
0
11
-0.95
21
1.16337603613126E-16
31
0
210
0
220
0
230
1
40
0.2024
41
0.331045221017267
42
2.79768748375508
0
ELLIPSE
5
C7
100
AcDbEntity
8
1
62
256
6
ByLayer
370
-1
48
1
60
0
100
AcDbEllipse
10
21
20
-5.278806
30
0
11
-0.750555349946514
21
9.19134850439879E-17
31
0
210
0
220
0
230
1
40
0.2024
41
2.61914941252641
42
-2.77550468959169
0
ELLIPSE
5
C8
100
AcDbEntity
8
1
62
256
6
ByLayer
370
-1
48
1
60
0
100
AcDbEllipse
10
21
20
-5.278806
30
0
11
-1.30000000000126
21
1.59198825997063E-16
31
0
210
0
220
0
230
1
40
0.2024
41
0.689665049377155
42
2.43692666334885
0
ELLIPSE
5
C9
100
AcDbEntity
8
1
62
256
6
ByLayer
370
-1
48
1
60
0
100
AcDbEllipse
10
21
20
-5.278806
30
0
11
0.999999999999892
21
0
31
0
210
0
220
0
230
1
40
0.2024
41
1.03083470200489
42
2.12037858905996
0
ELLIPSE
5
CA
100
AcDbEntity
8
1
62
256
6
ByLayer
370
-1
48
1
60
0
100
AcDbEllipse
10
21
20
-5.278806
30
0
11
0.999999999999892
21
0
31
0
210
0
220
0
230
1
40
0.2024
41
-2.71305882651327
42
-0.417733372539839
0
ELLIPSE
5
CB
100
AcDbEntity
8
1
62
256
6
ByLayer
370
-1
48
1
60
0
100
AcDbEllipse
10
29.049983
20
6.889519
30
0
11
2.63523430818692
21
0.208368753683898
31
0
210
0
220
0
230
-1
40
0.682595
41
1.46617186157024
42
1.69456212652035
0
ELLIPSE
5
CC
100
AcDbEntity
8
1
62
256
6
ByLayer
370
-1
48
1
60
0
100
AcDbEllipse
10
28.969329
20
4.75613
30
0
11
0.196801316843985
21
-0.0747685935116406
31
0
210
0
220
0
230
-1
40
0.176102
41
2.00668878704917
42
3.06261298451351
0
ELLIPSE
5
CD
100
AcDbEntity
8
1
62
256
6
ByLayer
370
-1
48
1
60
0
100
AcDbEllipse
10
34.667683
20
3
30
0
11
11.4598443527906
21
-4.48988602814435
31
0
210
0
220
0
230
-1
40
0.064327
41
1.96496157201651
42
2.23229497927923
0
ELLIPSE
5
CE
100
AcDbEntity
8
1
62
256
6
ByLayer
370
-1
48
1
60
0
100
AcDbEllipse
10
41.622244
20
0
30
0
11
19.8973121743386
21
-7.79562629108839
31
0
210
0
220
0
230
-1
40
0.064327
41
2.41454748246842
42
3.09356606756563
0
ELLIPSE
5
CF
100
AcDbEntity
8
1
62
256
6
ByLayer
370
-1
48
1
60
0
100
AcDbEllipse
10
27.749091
20
0.5
30
0
11
7.94524827525502
21
-2.94420193347182
31
0
210
0
220
0
230
-1
40
0.436617
41
1.1269470157121
42
1.2732146206963
0
ELLIPSE
5
D0
100
AcDbEntity
8
1
62
256
6
ByLayer
370
-1
48
1
60
0
100
AcDbEllipse
10
28.590349
20
0.5
30
0
11
0.137644251204087
21
-4.54999940186338
31
0
210
0
220
0
230
-1
40
0.017444
41
-0.602061713416963
42
-0.44408039438177
0
ELLIPSE
5
D1
100
AcDbEntity
8
1
62
256
6
ByLayer
370
-1
48
1
60
0
100
AcDbEllipse
10
27.749091
20
0.5
30
0
11
7.94895886524151
21
2.7945202444136
31
0
210
0
220
0
230
-1
40
0.45172
41
1.44484108963354
42
1.59110869462798
0
ELLIPSE
5
D2
100
AcDbEntity
8
1
62
256
6
ByLayer
370
-1
48
1
60
0
100
AcDbEllipse
10
26.385822
20
0
30
0
11
3.16985478664159E-15
21
1.00000000000001
31
0
210
0
220
0
230
1
40
0.416655
41
0
42
6.28318530717959
0
ELLIPSE
5
D3
100
AcDbEntity
8
1
62
256
6
ByLayer
370
-1
48
1
60
0
100
AcDbEllipse
10
29.235969
20
0
30
0
11
-4.83719509759834E-16
21
7.89999999999992
31
0
210
0
220
0
230
-1
40
0.458333
41
-2.47599556834816
42
-0.889778431630807
0
ELLIPSE
5
D4
100
AcDbEntity
8
1
62
256
6
ByLayer
370
-1
48
1
60
0
100
AcDbEllipse
10
28.838547
20
6.974945
30
0
11
0.0642374249296011
21
2.13107644055843
31
0
210
0
220
0
230
-1
40
0.016371
41
-2.96101252711488
42
-2.72373624299663
0
ELLIPSE
5
D5
100
AcDbEntity
8
1
62
256
6
ByLayer
370
-1
48
1
60
0
100
AcDbEllipse
10
27.4
20
7.895476
30
0
11
0.4
21
0
31
0
210
0
220
0
230
1
40
0.988985
41
3.14159265358979
42
-1.5707963267949
0
ELLIPSE
5
D6
100
AcDbEntity
8
1
62
256
6
ByLayer
370
-1
48
1
60
0
100
AcDbEllipse
10
21
20
-5.278806
30
0
11
-0.750555349946514
21
9.19134850439879E-17
31
0
210
0
220
0
230
1
40
0.2024
41
1.57195186132981
42
2.61914941252641
0
ELLIPSE
5
D7
100
AcDbEntity
8
1
62
256
6
ByLayer
370
-1
48
1
60
0
100
AcDbEllipse
10
21
20
-5.278806
30
0
11
-0.750555349946514
21
9.19134850439879E-17
31
0
210
0
220
0
230
1
40
0.2024
41
0.524754310133209
42
1.57195186132981
0
ELLIPSE
5
D8
100
AcDbEntity
8
1
62
256
6
ByLayer
370
-1
48
1
60
0
100
AcDbEllipse
10
21
20
-5.278806
30
0
11
-0.750555349946514
21
9.19134850439879E-17
31
0
210
0
220
0
230
1
40
0.2024
41
-0.522443241063389
42
0.524754310133209
0
ELLIPSE
5
D9
100
AcDbEntity
8
1
62
256
6
ByLayer
370
-1
48
1
60
0
100
AcDbEllipse
10
21
20
-5.278806
30
0
11
-0.750555349946514
21
9.19134850439879E-17
31
0
210
0
220
0
230
1
40
0.2024
41
-1.56964079225999
42
-0.522443241063389
0
ELLIPSE
5
DA
100
AcDbEntity
8
1
62
256
6
ByLayer
370
-1
48
1
60
0
100
AcDbEllipse
10
21
20
-5.278806
30
0
11
-0.750555349946514
21
9.19134850439879E-17
31
0
210
0
220
0
230
1
40
0.2024
41
-2.61683834345658
42
-1.56964079225999
0
ELLIPSE
5
DB
100
AcDbEntity
8
1
62
256
6
ByLayer
370
-1
48
1
60
0
100
AcDbEllipse
10
27.384557
20
5.403138
30
0
11
1.2582638171857
21
-0.45052072463974
31
0
210
0
220
0
230
-1
40
0.101028
41
-2.87410335887277
42
-2.53803108888125
0
ELLIPSE
5
DC
100
AcDbEntity
8
1
62
256
6
ByLayer
370
-1
48
1
60
0
100
AcDbEllipse
10
27.384557
20
5.403138
30
0
11
1.25826381705434
21
-0.450520724586107
31
0
210
0
220
0
230
-1
40
0.101028
41
0.153268975554433
42
2.52405843176636
0
POINT
5
42
100
AcDbEntity
8
80
62
256
6
ByLayer
370
-1
48
1
60
0
100
AcDbPoint
10
0
20
0
30
0
39
0
210
0
220
0
230
1
50
360
0
POINT
5
44
100
AcDbEntity
8
81
62
256
6
ByLayer
370
-1
48
1
60
0
100
AcDbPoint
10
40.300131
20
9.494532
30
0
39
0
210
0
220
0
230
1
50
360
0
SPLINE
5
DD
100
AcDbEntity
8
1
62
256
6
ByLayer
370
-1
48
1
60
0
100
AcDbSpline
70
4
71
3
72
13
73
9
40
0
40
0
40
0
40
0
40
0.177017893381177
40
0.37800040615778
40
0.558468021495496
40
0.727342654563079
40
0.892683808238745
40
1
40
1
40
1
40
1
41
1
10
27.3841880135233
20
7.5516293799638
30
0
41
1
10
27.3504108860053
20
7.5509994759735
30
0
41
1
10
27.2814079450894
20
7.55809403711126
30
0
41
1
10
27.1849837383884
20
7.59865155208337
30
0
41
1
10
27.1078708946911
20
7.65864275214642
30
0
41
1
10
27.0564430461655
20
7.72158418128544
30
0
41
1
10
27.0282401259993
20
7.77612408995236
30
0
41
1
10
27.0211009547058
20
7.79471472031616
30
0
41
1
10
27.0190735444524
20
7.8004017797636
30
0
0
SPLINE
5
DE
100
AcDbEntity
8
1
62
256
6
ByLayer
370
-1
48
1
60
0
100
AcDbSpline
70
4
71
3
72
16
73
12
40
0
40
0
40
0
40
0
40
0.250000000000003
40
0.250000000000003
40
0.500000000000005
40
0.500000000000005
40
0.625000000000006
40
0.625000000000006
40
0.750000000000006
40
0.750000000000006
40
1
40
1
40
1
40
1
41
1
10
26.4564505205241
20
0.731162714971418
30
0
41
1
10
26.4590262503363
20
0.689331880539697
30
0
41
1
10
26.4645651504091
20
0.64719576944907
30
0
41
1
10
26.484181480465
20
0.562043876626717
30
0
41
1
10
26.4983223929627
20
0.519021554693666
30
0
41
1
10
26.5274099213928
20
0.453676640961049
30
0
41
1
10
26.5384031065077
20
0.43179356220773
30
0
41
1
10
26.5625189230371
20
0.38850633651839
30
0
41
1
10
26.57567877715
20
0.36700785411486
30
0
41
1
10
26.6180645753108
20
0.302895169167698
30
0
41
1
10
26.6501854304255
20
0.260662237374277
30
0
41
1
10
26.6849645210172
20
0.218779405259625
30
0
0
SPLINE
5
DF
100
AcDbEntity
8
1
62
256
6
ByLayer
370
-1
48
1
60
0
100
AcDbSpline
70
4
71
3
72
16
73
12
40
0
40
0
40
0
40
0
40
0.250000000000001
40
0.250000000000001
40
0.500000000000001
40
0.500000000000001
40
0.625000000000002
40
0.625000000000002
40
0.750000000000002
40
0.750000000000002
40
1
40
1
40
1
40
1
41
1
10
26.1573084245562
20
0.512383309710629
30
0
41
1
10
26.1656502129268
20
0.530244401016802
30
0
41
1
10
26.1769972515958
20
0.548235840530282
30
0
41
1
10
26.2083511146711
20
0.584594324726311
30
0
41
1
10
26.2284223231086
20
0.602964161969311
30
0
41
1
10
26.266517144943
20
0.630865385705988
30
0
41
1
10
26.280526744032
20
0.640209107221068
30
0
41
1
10
26.310609371445
20
0.658692054093422
30
0
41
1
10
26.3267326258854
20
0.667871559173108
30
0
41
1
10
26.3779558641969
20
0.695246641102074
30
0
41
1
10
26.4158982038964
20
0.713279421493297
30
0
41
1
10
26.4564505205269
20
0.73116271497102
30
0
0
SPLINE
5
E0
100
AcDbEntity
8
1
62
256
6
ByLayer
370
-1
48
1
60
0
100
AcDbSpline
70
4
71
3
72
14
73
10
40
0
40
0
40
0
40
0
40
0.25
40
0.25
40
0.5
40
0.5
40
0.75
40
0.75
40
1
40
1
40
1
40
1
41
1
10
26.6849645210195
20
0.218779405259937
30
0
41
1
10
26.663336865355
20
0.159684487866997
30
0
41
1
10
26.644295274327
20
0.0998146400048654
30
0
41
1
10
26.614005398934
20
-0.0222603688835648
30
0
41
1
10
26.6028598591103
20
-0.0848957828643506
30
0
41
1
10
26.5909096572674
20
-0.208487896541982
30
0
41
1
10
26.5899316491743
20
-0.269883459180249
30
0
41
1
10
26.5965064626256
20
-0.391990877366737
30
0
41
1
10
26.6040596142127
20
-0.45290680042271
30
0
41
1
10
26.6143364255421
20
-0.512383309711026
30
0
0
SPLINE
5
E1
100
AcDbEntity
8
1
62
256
6
ByLayer
370
-1
48
1
60
0
100
AcDbSpline
70
4
71
3
72
8
73
4
40
0
40
0
40
0
40
0
40
1
40
1
40
1
40
1
41
1
10
26.1309331429897
20
0.435645142058377
30
0
41
1
10
26.1391765989162
20
0.461388834183424
30
0
41
1
10
26.1480031534051
20
0.486957797171328
30
0
41
1
10
26.1573084245614
20
0.512383309710856
30
0
0
SPLINE
5
E2
100
AcDbEntity
8
1
62
256
6
ByLayer
370
-1
48
1
60
0
100
AcDbSpline
70
4
71
3
72
14
73
10
40
0
40
0
40
0
40
0
40
0.388113609176685
40
0.388113609176685
40
0.77622721835337
40
0.77622721835337
40
0.97028402294171
40
0.97028402294171
40
1
40
1
40
1
40
1
41
1
10
26.3151943295697
20
-0.731162714971589
30
0
41
1
10
26.280458417341
20
-0.689331880539868
30
0
41
1
10
26.2484133792646
20
-0.64719576944924
30
0
41
1
10
26.1920771975608
20
-0.562043876626888
30
0
41
1
10
26.167843702817
20
-0.519021554693836
30
0
41
1
10
26.1386458524467
20
-0.45367664096122
30
0
41
1
10
26.1301200962761
20
-0.4317935622079
30
0
41
1
10
26.1217628561368
20
-0.406835656395685
30
0
41
1
10
26.1206819286938
20
-0.403524766575799
30
0
41
1
10
26.1196293416708
20
-0.400217216911216
30
0
0
SPLINE
5
E3
100
AcDbEntity
8
1
62
256
6
ByLayer
370
-1
48
1
60
0
100
AcDbSpline
70
4
71
3
72
16
73
12
40
0
40
0
40
0
40
0
40
0.249999999999999
40
0.249999999999999
40
0.499999999999998
40
0.499999999999998
40
0.624999999999998
40
0.624999999999998
40
0.749999999999998
40
0.749999999999998
40
1
40
1
40
1
40
1
41
1
10
26.6143364255376
20
-0.512383309710799
30
0
41
1
10
26.5738344547504
20
-0.530244401016972
30
0
41
1
10
26.5359812780779
20
-0.548235840530452
30
0
41
1
10
26.4679075633546
20
-0.584594324726481
30
0
41
1
10
26.4377437726712
20
-0.602964161969481
30
0
41
1
10
26.3995386288965
20
-0.630865385706159
30
0
41
1
10
26.3879964587517
20
-0.640209107221239
30
0
41
1
10
26.3675347722656
20
-0.658692054093592
30
0
41
1
10
26.3585553312652
20
-0.667871559173278
30
0
41
1
10
26.3349174154769
20
-0.695246641102244
30
0
41
1
10
26.3235464871753
20
-0.713279421493468
30
0
41
1
10
26.3151943295717
20
-0.731162714971191
30
0
0
SPLINE
5
E4
100
AcDbEntity
8
1
62
256
6
ByLayer
370
-1
48
1
60
0
100
AcDbSpline
70
4
71
3
72
10
73
6
40
0
40
0
40
0
40
0
40
0.119999480527077
40
0.119999480527077
40
1
40
1
40
1
40
1
41
1
10
29.1573444016658
20
-3.03345749709254
30
0
41
1
10
29.1567598174526
20
-3.03476925670159
30
0
41
1
10
29.15620920278
20
-3.03608636708034
30
0
41
1
10
29.1519082803289
20
-3.0471008575143
30
0
41
1
10
29.15
20
-3.05689027865907
30
0
41
1
10
29.15
20
-3.0667724528096
30
0
0
SPLINE
5
E5
100
AcDbEntity
8
1
62
256
6
ByLayer
370
-1
48
1
60
0
100
AcDbSpline
70
4
71
3
72
16
73
12
40
0
40
0
40
0
40
0
40
0.293168261789177
40
0.293168261789177
40
0.586336523578354
40
0.586336523578354
40
0.73292065447294
40
0.73292065447294
40
0.879504785367527
40
0.879504785367527
40
1
40
1
40
1
40
1
41
1
10
30.1
20
-2.56341438091928
30
0
41
1
10
30.1
20
-2.5789620701855
30
0
41
1
10
30.096982531839
20
-2.59403512434596
30
0
41
1
10
30.0848885494936
20
-2.62325793779377
30
0
41
1
10
30.075879470275
20
-2.63704463323472
30
0
41
1
10
30.0583579908435
20
-2.65572707587418
30
0
41
1
10
30.05175287124
20
-2.66170646921734
30
0
41
1
10
30.0374897294475
20
-2.67270141878586
30
0
41
1
10
30.0298226646735
20
-2.67774659953596
30
0
41
1
10
30.0148772385502
20
-2.68612608177594
30
0
41
1
10
30.0077461687759
20
-2.6896081086862
30
0
41
1
10
30.0002990472092
20
-2.69275323233401
30
0
0
SPLINE
5
E6
100
AcDbEntity
8
1
62
256
6
ByLayer
370
-1
48
1
60
0
100
AcDbSpline
70
4
71
3
72
12
73
8
40
0
40
0
40
0
40
0
40
0.111039824524924
40
0.111039824524924
40
0.407359883016624
40
0.407359883016624
40
1
40
1
40
1
40
1
41
1
10
30.0013076288847
20
3.68629596203749
30
0
41
1
10
30.0080369244521
20
3.68340397568264
30
0
41
1
10
30.0145319684309
20
3.68021614290279
30
0
41
1
10
30.0375113283958
20
3.66744149121726
30
0
41
1
10
30.0518810204036
20
3.65640139153905
30
0
41
1
10
30.0874623189638
20
3.61870025020329
30
0
41
1
10
30.1000000000012
20
3.58831913657363
30
0
41
1
10
30.1000000000013
20
3.55705650249053
30
0
0
SPLINE
5
E7
100
AcDbEntity
8
1
62
256
6
ByLayer
370
-1
48
1
60
0
100
AcDbSpline
70
4
71
3
72
14
73
10
40
0
40
0
40
0
40
0
40
0.125112722922074
40
0.125112722922074
40
0.416741815281383
40
0.416741815281383
40
0.708370907640691
40
0.708370907640691
40
1
40
1
40
1
40
1
41
1
10
30.0014226054244
20
1.41121329928268
30
0
41
1
10
30.0097611463457
20
1.40589690969779
30
0
41
1
10
30.0176328498947
20
1.39996207546736
30
0
41
1
10
30.0422923800412
20
1.37833090478165
30
0
41
1
10
30.0564293931646
20
1.36060710387858
30
0
41
1
10
30.0787723595907
20
1.32179381471045
30
0
41
1
10
30.0868425825456
20
1.30097705655498
30
0
41
1
10
30.0974940205529
20
1.25757269291444
30
0
41
1
10
30.1000000000005
20
1.23540767440488
30
0
41
1
10
30.1000000000005
20
1.21280347162991
30
0
0
SPLINE
5
E8
100
AcDbEntity
8
1
62
256
6
ByLayer
370
-1
48
1
60
0
100
AcDbSpline
70
4
71
3
72
14
73
10
40
0
40
0
40
0
40
0
40
0.28954921277669
40
0.28954921277669
40
0.579098425553379
40
0.579098425553379
40
0.868647638330069
40
0.868647638330069
40
1
40
1
40
1
40
1
41
1
10
30.1
20
-0.222916849186873
30
0
41
1
10
30.1
20
-0.245349632323553
30
0
41
1
10
30.0974983375136
20
-0.267251629098666
30
0
41
1
10
30.0870250946737
20
-0.309956249442933
30
0
41
1
10
30.0789034283862
20
-0.330902340415008
30
0
41
1
10
30.0568980478647
20
-0.369151071209785
30
0
41
1
10
30.0426695463906
20
-0.386995027691938
30
0
41
1
10
30.0180213093326
20
-0.408695147666265
30
0
41
1
10
30.0096955307962
20
-0.414935362685583
30
0
41
1
10
30.0008239803947
20
-0.420510800729971
30
0
0
SPLINE
5
E9
100
AcDbEntity
8
1
62
256
6
ByLayer
370
-1
48
1
60
0
100
AcDbSpline
70
4
71
3
72
16
73
12
40
0
40
0
40
0
40
0
40
0.0952974592966432
40
0.0952974592966432
40
0.396864972864426
40
0.396864972864426
40
0.54764872964832
40
0.54764872964832
40
0.698432486432213
40
0.698432486432213
40
1
40
1
40
1
40
1
41
1
10
21.6497120093882
20
-5.19744532946461
30
0
41
1
10
21.6497346414833
20
-5.19745044231493
30
0
41
1
10
21.6497573407364
20
-5.19786312680279
30
0
41
1
10
21.6498521810778
20
-5.20146072426002
30
0
41
1
10
21.6499250033841
20
-5.20877984498642
30
0
41
1
10
21.6500356103227
20
-5.22809396048149
30
0
41
1
10
21.6500726510074
20
-5.2359109183962
30
0
41
1
10
21.6501459217066
20
-5.25392691475662
30
0
41
1
10
21.6501823113992
20
-5.26414869794837
30
0
41
1
10
21.6502908325894
20
-5.29801524428561
30
0
41
1
10
21.6503623187239
20
-5.32484873006072
30
0
41
1
10
21.6504332122576
20
-5.35461024209454
30
0
0
SPLINE
5
EA
100
AcDbEntity
8
1
62
256
6
ByLayer
370
-1
48
1
60
0
100
AcDbSpline
70
4
71
3
72
12
73
8
40
0
40
0
40
0
40
0
40
0.467029704932663
40
0.467029704932663
40
0.934059409865326
40
0.934059409865326
40
1
40
1
40
1
40
1
41
1
10
20.3504340801765
20
-5.35491428570498
30
0
41
1
10
20.3503632746574
20
-5.3251897226927
30
0
41
1
10
20.3502919524077
20
-5.2984201007821
30
0
41
1
10
20.3501478189221
20
-5.25339567411973
30
0
41
1
10
20.3500749966158
20
-5.23520417558234
30
0
41
1
10
20.3499908474891
20
-5.22041968964422
30
0
41
1
10
20.3499804226298
20
-5.2186956700136
30
0
41
1
10
20.3499699970719
20
-5.21707713033217
30
0
0
SPLINE
5
EB
100
AcDbEntity
8
SK1
62
256
6
ByLayer
370
-1
48
1
60
0
100
AcDbSpline
70
4
71
3
72
20
73
16
40
0
40
0
40
0
40
0
40
0.12506567182233
40
0.12506567182233
40
0.25013134364466
40
0.25013134364466
40
0.500262687289319
40
0.500262687289319
40
0.750394030933977
40
0.750394030933977
40
0.875459702756306
40
0.875459702756306
40
0.937992538667471
40
0.937992538667471
40
1
40
1
40
1
40
1
41
1
10
-37
20
7.40000000000015
30
0
41
1
10
-37.0462290133417
20
7.40000000000015
30
0
41
1
10
-37.0905686226932
20
7.40000000000015
30
0
41
1
10
-37.1742983186543
20
7.40000000000015
30
0
41
1
10
-37.2137677339872
20
7.40000000000015
30
0
41
1
10
-37.3244668189669
20
7.40000000000015
30
0
41
1
10
-37.3879856935271
20
7.40000000000015
30
0
41
1
10
-37.4916454220976
20
7.40000000000015
30
0
41
1
10
-37.5317774023735
20
7.40000000000015
30
0
41
1
10
-37.572437895262
20
7.40000000000015
30
0
41
1
10
-37.5827372479532
20
7.40000000000015
30
0
41
1
10
-37.5930849349654
20
7.40000000000015
30
0
41
1
10
-37.5956843913951
20
7.40000000000015
30
0
41
1
10
-37.5991245738844
20
7.40000000000015
30
0
41
1
10
-37.5999818995908
20
7.40000000000015
30
0
41
1
10
-37.5999979999961
20
7.40000000000015
30
0
0
SPLINE
5
EC
100
AcDbEntity
8
1
62
256
6
ByLayer
370
-1
48
1
60
0
100
AcDbSpline
70
4
71
3
72
10
73
6
40
0
40
0
40
0
40
0
40
0.208645383574239
40
0.208645383574239
40
1
40
1
40
1
40
1
41
1
10
27.3837820381649
20
7.55000421050781
30
0
41
1
10
27.3856537395394
20
7.55001076244685
30
0
41
1
10
27.3874409393329
20
7.54928921122041
30
0
41
1
10
27.3954128469931
20
7.54235975285283
30
0
41
1
10
27.4
20
7.5264597567822
30
0
41
1
10
27.4
20
7.49988182959538
30
0
0
SPLINE
5
ED
100
AcDbEntity
8
1
62
256
6
ByLayer
370
-1
48
1
60
0
100
AcDbSpline
70
4
71
3
72
8
73
4
40
0
40
0
40
0
40
0
40
1
40
1
40
1
40
1
41
1
10
27.6905899277746
20
7.43874982399316
30
0
41
1
10
27.5937126132552
20
7.43874982399316
30
0
41
1
10
27.4968491216804
20
7.43852787523875
30
0
41
1
10
27.4
20
7.43807312928661
30
0
0
SPLINE
5
EE
100
AcDbEntity
8
1
62
256
6
ByLayer
370
-1
48
1
60
0
100
AcDbSpline
70
4
71
3
72
18
73
14
40
0
40
0
40
0
40
0
40
0.249999999999998
40
0.249999999999998
40
0.499999999999997
40
0.499999999999997
40
0.624999999999998
40
0.624999999999998
40
0.749999999999998
40
0.749999999999998
40
0.874999999999999
40
0.874999999999999
40
1
40
1
40
1
40
1
41
1
10
27.4
20
7.43807312928661
30
0
41
1
10
27.3584842601296
20
7.43787819603031
30
0
41
1
10
27.3180426880139
20
7.44419947214166
30
0
41
1
10
27.2392896902465
20
7.46980888911864
30
0
41
1
10
27.2026444452782
20
7.48863281815409
30
0
41
1
10
27.1525652510718
20
7.52507510931875
30
0
41
1
10
27.136760806667
20
7.53858227559107
30
0
41
1
10
27.1076914599726
20
7.56749700145761
30
0
41
1
10
27.0942933292114
20
7.58299742672429
30
0
41
1
10
27.0697609141795
20
7.61607916032031
30
0
41
1
10
27.0586318945173
20
7.63371157166324
30
0
41
1
10
27.0393438833945
20
7.66993731585237
30
0
41
1
10
27.0310763048139
20
7.68866114662583
30
0
41
1
10
27.0241832699595
20
7.70799559082158
30
0
0
SPLINE
5
EF
100
AcDbEntity
8
1
62
256
6
ByLayer
370
-1
48
1
60
0
100
AcDbSpline
70
4
71
3
72
24
73
20
40
0
40
0
40
0
40
0
40
0.124999999999995
40
0.124999999999995
40
0.24999999999999
40
0.24999999999999
40
0.374999999999985
40
0.374999999999985
40
0.49999999999998
40
0.49999999999998
40
0.562499999999977
40
0.562499999999977
40
0.624999999999974
40
0.624999999999974
40
0.749999999999983
40
0.749999999999983
40
0.874999999999991
40
0.874999999999991
40
1
40
1
40
1
40
1
41
1
10
26.9999999999999
20
5.26046758491748
30
0
41
1
10
26.9999999999999
20
5.26572621691375
30
0
41
1
10
27.001826009244
20
5.27028150066957
30
0
41
1
10
27.0097736308767
20
5.27773747364785
30
0
41
1
10
27.0158803934158
20
5.28057838821309
30
0
41
1
10
27.0326776127174
20
5.28408461325952
30
0
41
1
10
27.0435098697146
20
5.28477685166788
30
0
41
1
10
27.070421413773
20
5.28350724786844
30
0
41
1
10
27.086262588948
20
5.28157966717049
30
0
41
1
10
27.1143112346712
20
5.27636500271663
30
0
41
1
10
27.1243769921257
20
5.27423073432104
30
0
41
1
10
27.1453652497412
20
5.26927227583187
30
0
41
1
10
27.1563630176681
20
5.26643522707943
30
0
41
1
10
27.190912102563
20
5.25681874803249
30
0
41
1
10
27.2163965254514
20
5.24878641469297
30
0
41
1
10
27.26817019687
20
5.23079369551814
30
0
41
1
10
27.2951460039257
20
5.22061040614366
30
0
41
1
10
27.3481421141273
20
5.19924829477094
30
0
41
1
10
27.3743809244604
20
5.18800165112998
30
0
41
1
10
27.4
20
5.17645474881422
30
0
0
SPLINE
5
F0
100
AcDbEntity
8
1
62
256
6
ByLayer
370
-1
48
1
60
0
100
AcDbSpline
70
4
71
3
72
42
73
38
40
0
40
0
40
0
40
0
40
0.062499999999999
40
0.062499999999999
40
0.0937499999999986
40
0.0937499999999986
40
0.124999999999998
40
0.124999999999998
40
0.156249999999998
40
0.156249999999998
40
0.187499999999998
40
0.187499999999998
40
0.218749999999997
40
0.218749999999997
40
0.249999999999997
40
0.249999999999997
40
0.281249999999996
40
0.281249999999996
40
0.312499999999996
40
0.312499999999996
40
0.374999999999996
40
0.374999999999996
40
0.437499999999995
40
0.437499999999995
40
0.499999999999995
40
0.499999999999995
40
0.624999999999994
40
0.624999999999994
40
0.687499999999994
40
0.687499999999994
40
0.749999999999993
40
0.749999999999993
40
0.874999999999995
40
0.874999999999995
40
0.937499999999998
40
0.937499999999998
40
1
40
1
40
1
40
1
41
1
10
28.6211219105819
20
4.93849174599677
30
0
41
1
10
28.6397378266296
20
4.94295558301314
30
0
41
1
10
28.6527942873086
20
4.95302611694663
30
0
41
1
10
28.6615220299646
20
4.97802503989462
30
0
41
1
10
28.6625171774442
20
4.98798457263672
30
0
41
1
10
28.6600583961903
20
5.01072851031626
30
0
41
1
10
28.656636312556
20
5.02357048189074
30
0
41
1
10
28.6444694370885
20
5.052315533627
30
0
41
1
10
28.6355769077245
20
5.06836045425572
30
0
41
1
10
28.6124010690233
20
5.10183712784661
30
0
41
1
10
28.5980603665948
20
5.11944547435346
30
0
41
1
10
28.5634564118439
20
5.15594282953057
30
0
41
1
10
28.543796229994
20
5.17419307862039
30
0
41
1
10
28.5001667930999
20
5.21035777512927
30
0
41
1
10
28.4759662823375
20
5.22841057671115
30
0
41
1
10
28.425361612245
20
5.26281864575884
30
0
41
1
10
28.3988451506149
20
5.27930153356243
30
0
41
1
10
28.3438295688041
20
5.31098870176359
30
0
41
1
10
28.3151807086724
20
5.32626512165297
30
0
41
1
10
28.2278537945614
20
5.36986043776329
30
0
41
1
10
28.1682793560095
20
5.39581973522314
30
0
41
1
10
28.0473858526017
20
5.44373639126198
30
0
41
1
10
27.985864495023
20
5.46572973131487
30
0
41
1
10
27.8624606252432
20
5.50663433338499
30
0
41
1
10
27.8009784184311
20
5.52542071386731
30
0
41
1
10
27.6171565933891
20
5.57837852458056
30
0
41
1
10
27.4954278406306
20
5.60922513953338
30
0
41
1
10
27.3143882553665
20
5.6520192583074
30
0
41
1
10
27.2543049814495
20
5.66567613570297
30
0
41
1
10
27.1347762751623
20
5.69207564722089
30
0
41
1
10
27.0752869556481
20
5.70482474546841
30
0
41
1
10
26.8997441227031
20
5.74167145508068
30
0
41
1
10
26.7859220148086
20
5.76453318578137
30
0
41
1
10
26.6227957834144
20
5.79693804597278
30
0
41
1
10
26.5696103182588
20
5.80743609178416
30
0
41
1
10
26.4674166201381
20
5.8276533699933
30
0
41
1
10
26.4188873256274
20
5.83727870836697
30
0
41
1
10
26.3744375250612
20
5.84621115892151
30
0
0
SPLINE
5
F1
100
AcDbEntity
8
1
62
256
6
ByLayer
370
-1
48
1
60
0
100
AcDbSpline
70
4
71
3
72
14
73
10
40
0
40
0
40
0
40
0
40
0.25
40
0.25
40
0.5
40
0.5
40
0.75
40
0.75
40
1
40
1
40
1
40
1
41
1
10
28.7487426298603
20
-3.60764575018956
30
0
41
1
10
28.748693580446
20
-3.61530170949251
30
0
41
1
10
28.7509639004238
20
-3.62269631555748
30
0
41
1
10
28.7600096281164
20
-3.63699618467445
30
0
41
1
10
28.7668437499334
20
-3.64385562291105
30
0
41
1
10
28.7843657824627
20
-3.65632424221167
30
0
41
1
10
28.7953130971726
20
-3.66210347292736
30
0
41
1
10
28.8202007648583
20
-3.67206725750867
30
0
41
1
10
28.8342592592865
20
-3.67634179467473
30
0
41
1
10
28.8497208607199
20
-3.67982789321746
30
0
0
SPLINE
5
F2
100
AcDbEntity
8
1
62
256
6
ByLayer
370
-1
48
1
60
0
100
AcDbSpline
70
4
71
3
72
14
73
10
40
0
40
0
40
0
40
0
40
0.25
40
0.25
40
0.5
40
0.5
40
0.75
40
0.75
40
1
40
1
40
1
40
1
41
1
10
28.8497208607199
20
-3.14672289034971
30
0
41
1
10
28.8342609671251
20
-3.15199904635781
30
0
41
1
10
28.8203122424894
20
-3.15835547186273
30
0
41
1
10
28.7953353024496
20
-3.17309384332282
30
0
41
1
10
28.7844357511925
20
-3.18146675395283
30
0
41
1
10
28.7668932671484
20
-3.1992542779183
30
0
41
1
10
28.7600290223717
20
-3.20891411829155
30
0
41
1
10
28.7509956876365
20
-3.22848043403013
30
0
41
1
10
28.74869358616
20
-3.23852427872791
30
0
41
1
10
28.7487426298603
20
-3.24861188650979
30
0
0
SPLINE
5
F3
100
AcDbEntity
8
1
62
256
6
ByLayer
370
-1
48
1
60
0
100
AcDbSpline
70
4
71
3
72
34
73
30
40
0
40
0
40
0
40
0
40
0.0312499999999992
40
0.0312499999999992
40
0.0468749999999991
40
0.0468749999999991
40
0.062499999999999
40
0.062499999999999
40
0.093749999999999
40
0.093749999999999
40
0.124999999999999
40
0.124999999999999
40
0.156249999999999
40
0.156249999999999
40
0.187499999999999
40
0.187499999999999
40
0.249999999999999
40
0.249999999999999
40
0.312499999999999
40
0.312499999999999
40
0.374999999999999
40
0.374999999999999
40
0.499999999999999
40
0.499999999999999
40
0.624999999999998
40
0.624999999999998
40
0.749999999999998
40
0.749999999999998
40
1
40
1
40
1
40
1
41
1
10
21.7238000753881
20
7.72519065544054
30
0
41
1
10
21.7204808554903
20
7.73726449389468
30
0
41
1
10
21.7254754484201
20
7.74850352200534
30
0
41
1
10
21.7448309586924
20
7.76422027696097
30
0
41
1
10
21.7533424838919
20
7.76929547554778
30
0
41
1
10
21.7736354509286
20
7.77883195298173
30
0
41
1
10
21.7854271921544
20
7.78332371853082
30
0
41
1
10
21.825113626344
20
7.79608799996541
30
0
41
1
10
21.8575986315884
20
7.80369192467586
30
0
41
1
10
21.9289908491826
20
7.81704577429451
30
0
41
1
10
21.9680773199544
20
7.8228745424075
30
0
41
1
10
22.0512074158167
20
7.83334261777222
30
0
41
1
10
22.0954898277433
20
7.83799554082023
30
0
41
1
10
22.1866580008152
20
7.84629891989999
30
0
41
1
10
22.2335343743278
20
7.84995592894418
30
0
41
1
10
22.3771176041471
20
7.85984908017227
30
0
41
1
10
22.4767326184403
20
7.8650273831424
30
0
41
1
10
22.6811331422969
20
7.87370703816836
30
0
41
1
10
22.7863063201377
20
7.87719809723438
30
0
41
1
10
22.9978552490505
20
7.88300193784735
30
0
41
1
10
23.1044881375788
20
7.88532375049223
30
0
41
1
10
23.4263553899491
20
7.89114821544555
30
0
41
1
10
23.6435281848365
20
7.89353868857785
30
0
41
1
10
24.0814736301577
20
7.89694012605398
30
0
41
1
10
24.302273954389
20
7.89792428641417
30
0
41
1
10
24.7468119120199
20
7.89923136661014
30
0
41
1
10
24.9706016141395
20
7.89954610102785
30
0
41
1
10
25.6456260221799
20
7.90009596960306
30
0
41
1
10
26.0967753745174
20
7.89999999999992
30
0
41
1
10
26.5489556810043
20
7.89999999999992
30
0
0
SPLINE
5
F4
100
AcDbEntity
8
1
62
256
6
ByLayer
370
-1
48
1
60
0
100
AcDbSpline
70
4
71
3
72
14
73
10
40
0
40
0
40
0
40
0
40
0.25
40
0.25
40
0.5
40
0.5
40
0.75
40
0.75
40
1
40
1
40
1
40
1
41
1
10
28.865806965357
20
5.07875882934636
30
0
41
1
10
28.8507424770176
20
5.07884630285884
30
0
41
1
10
28.8370428600868
20
5.07767791714141
30
0
41
1
10
28.8123954495589
20
5.07300845892411
30
0
41
1
10
28.801533511609
20
5.06947110171433
30
0
41
1
10
28.7839980722898
20
5.06049823583973
30
0
41
1
10
28.7770761536651
20
5.05492279734037
30
0
41
1
10
28.7679514217061
20
5.04235969861145
30
0
41
1
10
28.7656265772449
20
5.03538084296406
30
0
41
1
10
28.7656785283659
20
5.02765133870122
30
0
0
SPLINE
5
F5
100
AcDbEntity
8
1
62
256
6
ByLayer
370
-1
48
1
60
0
100
AcDbSpline
70
4
71
3
72
14
73
10
40
0
40
0
40
0
40
0
40
0.25
40
0.25
40
0.5
40
0.5
40
0.75
40
0.75
40
1
40
1
40
1
40
1
41
1
10
21.0008672924342
20
-5.43071827315549
30
0
41
1
10
20.9479577331826
20
-5.40729199619022
30
0
41
1
10
20.893767689435
20
-5.38650080180165
30
0
41
1
10
20.7851424564666
20
-5.35405183535559
30
0
41
1
10
20.7305257313417
20
-5.34235131550614
30
0
41
1
10
20.6205797318219
20
-5.32955026004768
30
0
41
1
10
20.5648600504399
20
-5.32854529615693
30
0
41
1
10
20.4562636483779
20
-5.33581607283065
30
0
41
1
10
20.4030041800475
20
-5.34389175117772
30
0
41
1
10
20.3504340801765
20
-5.35491428571007
30
0
0
SPLINE
5
F6
100
AcDbEntity
8
1
62
256
6
ByLayer
370
-1
48
1
60
0
100
AcDbSpline
70
4
71
3
72
16
73
12
40
0
40
0
40
0
40
0
40
0.250000000000001
40
0.250000000000001
40
0.500000000000001
40
0.500000000000001
40
0.625000000000001
40
0.625000000000001
40
0.75
40
0.75
40
1
40
1
40
1
40
1
41
1
10
21.6504332122583
20
-5.35461024209181
30
0
41
1
10
21.5974028267448
20
-5.34350117408019
30
0
41
1
10
21.543985431526
20
-5.33548290092966
30
0
41
1
10
21.4360354524038
20
-5.32835264149264
30
0
41
1
10
21.3814945772626
20
-5.3293068719311
30
0
41
1
10
21.2986545858147
20
-5.33895360574854
30
0
41
1
10
21.270912655292
20
-5.34353309554976
30
0
41
1
10
21.2160359525607
20
-5.3551450107262
30
0
41
1
10
21.1887815880399
20
-5.3621862244901
30
0
41
1
10
21.1075037353449
20
-5.3865676898875
30
0
41
1
10
21.0539635971958
20
-5.40715307083411
30
0
41
1
10
21.0008672924338
20
-5.43071827315285
30
0
0
SPLINE
5
F7
100
AcDbEntity
8
1
62
256
6
ByLayer
370
-1
48
1
60
0
100
AcDbSpline
70
4
71
3
72
8
73
4
40
0
40
0
40
0
40
0
40
1
40
1
40
1
40
1
41
1
10
36.6765333685647
20
7.54958664125564
30
0
41
0.979892672642243
10
37.79780341219
20
7.54202815071731
30
0
41
0.979892672642243
10
38.95848683122
20
7.5033972379584
30
0
41
1
10
40.0885689012593
20
7.43602419620581
30
0
0
SPLINE
5
F8
100
AcDbEntity
8
1
62
256
6
ByLayer
370
-1
48
1
60
0
100
AcDbSpline
70
4
71
3
72
20
73
16
40
0
40
0
40
0
40
0
40
0.124999999999997
40
0.124999999999997
40
0.249999999999993
40
0.249999999999993
40
0.37499999999999
40
0.37499999999999
40
0.499999999999987
40
0.499999999999987
40
0.624999999999984
40
0.624999999999984
40
0.74999999999998
40
0.74999999999998
40
1
40
1
40
1
40
1
41
1
10
40.0885689012593
20
7.43602419620581
30
0
41
1
10
40.1018979742855
20
7.4352295457841
30
0
41
1
10
40.1150855710307
20
7.43568923997216
30
0
41
1
10
40.1411849490612
20
7.43905988640086
30
0
41
1
10
40.1542114345627
20
7.44201067566922
30
0
41
1
10
40.1794133025349
20
7.45039903018903
30
0
41
1
10
40.1914550731775
20
7.45576505402619
30
0
41
1
10
40.2144104748884
20
7.46887114178756
30
0
41
1
10
40.2254414701184
20
7.47673019053025
30
0
41
1
10
40.2454289880917
20
7.49438164248497
30
0
41
1
10
40.2544456158269
20
7.50416487559676
30
0
41
1
10
40.2704560588042
20
7.5257200194487
30
0
41
1
10
40.2774226118187
20
7.53753961543745
30
0
41
1
10
40.2940839130075
20
7.57430742645855
30
0
41
1
10
40.3000000000004
20
7.60154170704396
30
0
41
1
10
40.3000000000005
20
7.62902391233462
30
0
0
SPLINE
5
F9
100
AcDbEntity
8
1
62
256
6
ByLayer
370
-1
48
1
60
0
100
AcDbSpline
70
4
71
3
72
20
73
16
40
0
40
0
40
0
40
0
40
0.125000000000005
40
0.125000000000005
40
0.250000000000011
40
0.250000000000011
40
0.500000000000007
40
0.500000000000007
40
0.625000000000006
40
0.625000000000006
40
0.750000000000004
40
0.750000000000004
40
0.875000000000002
40
0.875000000000002
40
1
40
1
40
1
40
1
41
1
10
40.3
20
9.30113454868152
30
0
41
1
10
40.3
20
9.31486375555954
30
0
41
1
10
40.2985691992735
20
9.32834104723568
30
0
41
1
10
40.2929112227043
20
9.35480353384099
30
0
41
1
10
40.2886022273542
20
9.36791881331118
30
0
41
1
10
40.2719323488302
20
9.40479228442604
30
0
41
1
10
40.2554579592659
20
9.42689900993543
30
0
41
1
10
40.2255520847253
20
9.45334100972846
30
0
41
1
10
40.2145528676932
20
9.46119815337076
30
0
41
1
10
40.1914888835058
20
9.47438191208747
30
0
41
1
10
40.1794249998761
20
9.47975324617377
30
0
41
1
10
40.1542629152684
20
9.48813293566062
30
0
41
1
10
40.1412064674587
20
9.49109518472571
30
0
41
1
10
40.1150830801673
20
9.49447015314723
30
0
41
1
10
40.1018920638208
20
9.49492856286304
30
0
41
1
10
40.0885689012593
20
9.49413426481041
30
0
0
SPLINE
5
FA
100
AcDbEntity
8
1
62
256
6
ByLayer
370
-1
48
1
60
0
100
AcDbSpline
70
4
71
3
72
8
73
4
40
0
40
0
40
0
40
0
40
1
40
1
40
1
40
1
41
1
10
40.0885689012593
20
9.49413426481041
30
0
41
0.979892672642243
10
38.95848683122
20
9.42676122305784
30
0
41
0.979892672642243
10
37.79780341219
20
9.38813031029893
30
0
41
1
10
36.6765333685647
20
9.3805718197606
30
0
0
SPLINE
5
FB
100
AcDbEntity
8
1
62
256
6
ByLayer
370
-1
48
1
60
0
100
AcDbSpline
70
4
71
3
72
14
73
10
40
0
40
0
40
0
40
0
40
0.25
40
0.25
40
0.5
40
0.5
40
0.75
40
0.75
40
1
40
1
40
1
40
1
41
1
10
29.15
20
-3.66465036796035
30
0
41
1
10
29.15
20
-3.67083269245646
30
0
41
1
10
29.1519329566839
20
-3.67680803423966
30
0
41
1
10
29.1595188546194
20
-3.68837322263067
30
0
41
1
10
29.1652671039797
20
-3.69398834413542
30
0
41
1
10
29.1800002360819
20
-3.70427835545487
30
0
41
1
10
29.1891121953942
20
-3.70907208344198
30
0
41
1
10
29.2103894997556
20
-3.71769379893985
30
0
41
1
10
29.2223559330062
20
-3.72146356810316
30
0
41
1
10
29.2356838294253
20
-3.72470884511478
30
0
0
SPLINE
5
FC
100
AcDbEntity
8
1
62
256
6
ByLayer
370
-1
48
1
60
0
100
AcDbSpline
70
4
71
3
72
10
73
6
40
0
40
0
40
0
40
0
40
0.5
40
0.5
40
1
40
1
40
1
40
1
41
1
10
29.2356838294253
20
-3.72470884511478
30
0
41
1
10
29.3487803716811
20
-3.75224729507977
30
0
41
1
10
29.4661548552105
20
-3.77495100044845
30
0
41
1
10
29.7094093464015
20
-3.81296409744198
30
0
41
1
10
29.8352889293792
20
-3.82826733379105
30
0
41
1
10
29.9656516492528
20
-3.84062207938206
30
0
0
SPLINE
5
FD
100
AcDbEntity
8
1
62
256
6
ByLayer
370
-1
48
1
60
0
100
AcDbSpline
70
4
71
3
72
12
73
8
40
0
40
0
40
0
40
0
40
0.249999999999994
40
0.249999999999994
40
0.499999999999989
40
0.499999999999989
40
1
40
1
40
1
40
1
41
1
10
29.9656516492528
20
-3.84062207938206
30
0
41
1
10
29.9857179517831
20
-3.8425238045298
30
0
41
1
10
30.0040802244861
20
-3.84520429265871
30
0
41
1
10
30.0375113283958
20
-3.85195391855882
30
0
41
1
10
30.0518810204037
20
-3.85589381654279
30
0
41
1
10
30.0874623189638
20
-3.86892430784329
30
0
41
1
10
30.1000000000012
20
-3.87886853488101
30
0
41
1
10
30.1000000000013
20
-3.88830169601957
30
0
0
SPLINE
5
FE
100
AcDbEntity
8
1
62
256
6
ByLayer
370
-1
48
1
60
0
100
AcDbSpline
70
4
71
3
72
8
73
4
40
0
40
0
40
0
40
0
40
1
40
1
40
1
40
1
41
1
10
29.9665487750164
20
5.30099664723065
30
0
41
0.877544051322076
10
30.0493088220538
20
5.32242492927526
30
0
41
0.877544051322076
10
30.1
20
5.37499464563984
30
0
41
1
10
30.1
20
5.43939337285696
30
0
0
SPLINE
5
FF
100
AcDbEntity
8
1
62
256
6
ByLayer
370
-1
48
1
60
0
100
AcDbSpline
70
4
71
3
72
8
73
4
40
0
40
0
40
0
40
0
40
1
40
1
40
1
40
1
41
1
10
29.2346585428384
20
5.02347508967526
30
0
41
0.993685858888279
10
29.4604272899655
20
5.14042489801845
30
0
41
0.993685858888279
10
29.7059409083226
20
5.23351989884227
30
0
41
1
10
29.9665487750164
20
5.30099664723065
30
0
0
SPLINE
5
100
100
AcDbEntity
8
1
62
256
6
ByLayer
370
-1
48
1
60
0
100
AcDbSpline
70
4
71
3
72
8
73
4
40
0
40
0
40
0
40
0
40
1
40
1
40
1
40
1
41
1
10
29.15
20
4.90357980121934
30
0
41
0.9252618736541
10
29.15
20
4.95222675560209
30
0
41
0.9252618736541
10
29.1804989485496
20
4.99542003665034
30
0
41
1
10
29.2346585428384
20
5.02347508967526
30
0
0
SPLINE
5
101
100
AcDbEntity
8
1
62
256
6
ByLayer
370
-1
48
1
60
0
100
AcDbSpline
70
4
71
3
72
97
73
93
40
0
40
0
40
0
40
0
40
0.0312499999999972
40
0.0312499999999972
40
0.0468749999999959
40
0.0468749999999959
40
0.0624999999999945
40
0.0624999999999945
40
0.0937499999999907
40
0.0937499999999907
40
0.109374999999989
40
0.109374999999989
40
0.124999999999988
40
0.140624999999986
40
0.140624999999986
40
0.156249999999985
40
0.156249999999985
40
0.187499999999982
40
0.187499999999982
40
0.20312499999998
40
0.20312499999998
40
0.218749999999979
40
0.218749999999979
40
0.249999999999977
40
0.249999999999977
40
0.281249999999975
40
0.281249999999975
40
0.296874999999974
40
0.296874999999974
40
0.312499999999973
40
0.312499999999973
40
0.343749999999971
40
0.343749999999971
40
0.359374999999971
40
0.359374999999971
40
0.37499999999997
40
0.37499999999997
40
0.406249999999969
40
0.406249999999969
40
0.421874999999969
40
0.421874999999969
40
0.43749999999997
40
0.45312499999997
40
0.45312499999997
40
0.46874999999997
40
0.46874999999997
40
0.49999999999997
40
0.49999999999997
40
0.515624999999971
40
0.515624999999971
40
0.531249999999972
40
0.531249999999972
40
0.562499999999975
40
0.562499999999975
40
0.593749999999978
40
0.593749999999978
40
0.609374999999979
40
0.609374999999979
40
0.62499999999998
40
0.62499999999998
40
0.656249999999982
40
0.656249999999982
40
0.671874999999983
40
0.671874999999983
40
0.687499999999984
40
0.703124999999984
40
0.703124999999984
40
0.718749999999985
40
0.718749999999985
40
0.749999999999987
40
0.749999999999987
40
0.765624999999988
40
0.765624999999988
40
0.781249999999989
40
0.781249999999989
40
0.81249999999999
40
0.81249999999999
40
0.828124999999991
40
0.828124999999991
40
0.843749999999992
40
0.843749999999992
40
0.874999999999994
40
0.874999999999994
40
0.906249999999996
40
0.906249999999996
40
0.937499999999998
40
0.937499999999998
40
0.953124999999998
40
0.953124999999998
40
0.968749999999999
40
0.968749999999999
40
1
40
1
40
1
40
1
41
1
10
21.1835678282871
20
-5.01832314114657
30
0
41
1
10
21.2703966829098
20
-5.03061127420921
30
0
41
1
10
21.3531493225166
20
-5.0510646000055
30
0
41
1
10
21.4720202985675
20
-5.09199810946043
30
0
41
1
10
21.5107590780365
20
-5.10736704570684
30
0
41
1
10
21.5865225065088
20
-5.14137673705315
30
0
41
1
10
21.6230891540213
20
-5.15981983187251
30
0
41
1
10
21.7283463460263
20
-5.2185224614434
30
0
41
1
10
21.7930400980478
20
-5.26230048691306
30
0
41
1
10
21.8827358077681
20
-5.33373659854985
30
0
41
1
10
21.9112058472323
20
-5.3583762160545
30
0
41
1
10
21.9649858277627
20
-5.40868484151974
30
0
41
1
10
22.0157756748261
20
-5.46015899161023
30
0
41
1
10
22.0608817595473
20
-5.51370959877386
30
0
41
1
10
22.1032041565181
20
-5.56821470850178
30
0
41
1
10
22.1230392843078
20
-5.59605269623856
30
0
41
1
10
22.1777049931404
20
-5.6799101842912
30
0
41
1
10
22.2078394615736
20
-5.7363098841472
30
0
41
1
10
22.2439300218813
20
-5.82138189751564
30
0
41
1
10
22.2544312581793
20
-5.84982022300457
30
0
41
1
10
22.2723138116247
20
-5.90683788774913
30
0
41
1
10
22.2797142095974
20
-5.93551787456002
30
0
41
1
10
22.2968816785665
20
-6.02104174786746
30
0
41
1
10
22.3015926216318
20
-6.07681492120452
30
0
41
1
10
22.2974719393157
20
-6.18590814814425
30
0
41
1
10
22.2886481519569
20
-6.23922817141766
30
0
41
1
10
22.2642174447967
20
-6.31737057988937
30
0
41
1
10
22.2541905553183
20
-6.34304574608265
30
0
41
1
10
22.2307019094786
20
-6.39270839510979
30
0
41
1
10
22.2172016134358
20
-6.41683390695255
30
0
41
1
10
22.1713784781481
20
-6.48716482364745
30
0
41
1
10
22.1337820736111
20
-6.531335439766
30
0
41
1
10
22.0658195365518
20
-6.59361439106036
30
0
41
1
10
22.0411163290901
20
-6.61376317707246
30
0
41
1
10
21.9888667632662
20
-6.65181031244123
30
0
41
1
10
21.9612061681463
20
-6.66983070725459
30
0
41
1
10
21.8736251437364
20
-6.72103078679032
30
0
41
1
10
21.8091515359216
20
-6.75137461850952
30
0
41
1
10
21.702598705395
20
-6.79135893043315
30
0
41
1
10
21.6657560855821
20
-6.80362250678868
30
0
41
1
10
21.5904387393157
20
-6.82582000347293
30
0
41
1
10
21.5131960541712
20
-6.84579945950966
30
0
41
1
10
21.4321120460133
20
-6.86151230833426
30
0
41
1
10
21.3490540357763
20
-6.87509975507339
30
0
41
1
10
21.3063145057068
20
-6.88084485065667
30
0
41
1
10
21.1779596886817
20
-6.8945177956825
30
0
41
1
10
21.0915272861178
20
-6.89909043816772
30
0
41
1
10
20.9605934405354
20
-6.89930843926774
30
0
41
1
10
20.9164877112364
20
-6.89824848509562
30
0
41
1
10
20.8290775664842
20
-6.89385112268511
30
0
41
1
10
20.7859447764979
20
-6.8905372717615
30
0
41
1
10
20.6582112244965
20
-6.87730642479806
30
0
41
1
10
20.5751401602513
20
-6.86411803578829
30
0
41
1
10
20.4140313783429
20
-6.82839770595234
30
0
41
1
10
20.3385773697768
20
-6.80644629388161
30
0
41
1
10
20.2326370209692
20
-6.76721542553727
30
0
41
1
10
20.1985397313324
20
-6.75307933065346
30
0
41
1
10
20.1328149527128
20
-6.72255883987782
30
0
41
1
10
20.1014410115034
20
-6.70627661168598
30
0
41
1
10
20.0128440443672
20
-6.65498269519335
30
0
41
1
10
19.9605603967498
20
-6.61729565901118
30
0
41
1
10
19.8919656412657
20
-6.55515034383293
30
0
41
1
10
19.8707194100268
20
-6.53343079874028
30
0
41
1
10
19.8322863763748
20
-6.4889057763134
30
0
41
1
10
19.7976767937221
20
-6.44310703921337
30
0
41
1
10
19.7703725002665
20
-6.39473139455856
30
0
41
1
10
19.7466411335406
20
-6.34503358459895
30
0
41
1
10
19.7365375150996
20
-6.31944341172908
30
0
41
1
10
19.7117536635969
20
-6.24115895386271
30
0
41
1
10
19.7027156288256
20
-6.18764095826751
30
0
41
1
10
19.6994269421049
20
-6.10536166885643
30
0
41
1
10
19.7000536642232
20
-6.07760116675345
30
0
41
1
10
19.7047200143241
20
-6.02140610024878
30
0
41
1
10
19.7087883576249
20
-5.99286586291012
30
0
41
1
10
19.7258908124714
20
-5.9074549527831
30
0
41
1
10
19.7437506621172
20
-5.85054574049738
30
0
41
1
10
19.7798210381816
20
-5.76533501334328
30
0
41
1
10
19.7934012063891
20
-5.73695839944688
30
0
41
1
10
19.8237280430856
20
-5.68029614437572
30
0
41
1
10
19.8405565567915
20
-5.65189161152884
30
0
41
1
10
19.8952713319177
20
-5.56797465394175
30
0
41
1
10
19.9372874734738
20
-5.51371764418874
30
0
41
1
10
20.0326426209505
20
-5.40912919656679
30
0
41
1
10
20.0859637166988
20
-5.35878662010106
30
0
41
1
10
20.2056199840228
20
-5.26324891610443
30
0
41
1
10
20.2705105251851
20
-5.21926127427645
30
0
41
1
10
20.3754441358936
20
-5.16058864548418
30
0
41
1
10
20.4117347341451
20
-5.14222795905525
30
0
41
1
10
20.4871996720346
20
-5.10821780977167
30
0
41
1
10
20.5265006324046
20
-5.09254831846633
30
0
41
1
10
20.6463042209754
20
-5.05117276571085
30
0
41
1
10
20.7294825214717
20
-5.03062836936311
30
0
41
1
10
20.8164321717128
20
-5.01832314114657
30
0
0
SPLINE
5
102
100
AcDbEntity
8
1
62
256
6
ByLayer
370
-1
48
1
60
0
100
AcDbSpline
70
4
71
3
72
10
73
6
40
0
40
0
40
0
40
0
40
0.5
40
0.5
40
1
40
1
40
1
40
1
41
1
10
27.0241832699595
20
7.70799559082158
30
0
41
1
10
27.0161742691808
20
7.73046023547994
30
0
41
1
10
27.0101687149668
20
7.7533755357079
30
0
41
1
10
27.0020760694693
20
7.80008755580076
30
0
41
1
10
27
20
7.82411869923564
30
0
41
1
10
27
20
7.84793770587032
30
0
0
LINE
5
46
100
AcDbEntity
8
2
62
256
6
ByLayer
370
-1
48
1
60
0
100
AcDbLine
10
69.882135
20
6.319532
30
0
11
70.718128
21
6.319532
31
0
39
0
210
0
220
0
230
1
0
LINE
5
48
100
AcDbEntity
8
2
62
256
6
ByLayer
370
-1
48
1
60
0
100
AcDbLine
10
70.300131
20
9.494532
30
0
11
70.300131
21
-36.571913
31
0
39
0
210
0
220
0
230
1
0
LINE
5
49
100
AcDbEntity
8
2
62
256
6
ByLayer
370
-1
48
1
60
0
100
AcDbLine
10
70.222786
20
8.319532
30
0
11
70.091133
21
6.319532
31
0
39
0
210
0
220
0
230
1
0
LINE
5
4A
100
AcDbEntity
8
2
62
256
6
ByLayer
370
-1
48
1
60
0
100
AcDbLine
10
70.300131
20
9.494532
30
0
11
69.882135
21
6.319532
31
0
39
0
210
0
220
0
230
1
0
LINE
5
4B
100
AcDbEntity
8
2
62
256
6
ByLayer
370
-1
48
1
60
0
100
AcDbLine
10
70.300131
20
9.494532
30
0
11
70.718128
21
6.319532
31
0
39
0
210
0
220
0
230
1
0
LINE
5
4C
100
AcDbEntity
8
2
62
256
6
ByLayer
370
-1
48
1
60
0
100
AcDbLine
10
70.377477
20
8.319532
30
0
11
70.50913
21
6.319532
31
0
39
0
210
0
220
0
230
1
0
LINE
5
4D
100
AcDbEntity
8
2
62
256
6
ByLayer
370
-1
48
1
60
0
100
AcDbLine
10
69.882135
20
6.319532
30
0
11
70.718128
21
6.319532
31
0
39
0
210
0
220
0
230
1
0
LINE
5
4E
100
AcDbEntity
8
2
62
256
6
ByLayer
370
-1
48
1
60
0
100
AcDbLine
10
70.222786
20
8.319532
30
0
11
70.091133
21
6.319532
31
0
39
0
210
0
220
0
230
1
0
LINE
5
4F
100
AcDbEntity
8
2
62
256
6
ByLayer
370
-1
48
1
60
0
100
AcDbLine
10
70.300131
20
9.494532
30
0
11
69.882135
21
6.319532
31
0
39
0
210
0
220
0
230
1
0
LINE
5
50
100
AcDbEntity
8
2
62
256
6
ByLayer
370
-1
48
1
60
0
100
AcDbLine
10
70.300131
20
9.494532
30
0
11
70.718128
21
6.319532
31
0
39
0
210
0
220
0
230
1
0
LINE
5
51
100
AcDbEntity
8
2
62
256
6
ByLayer
370
-1
48
1
60
0
100
AcDbLine
10
70.377477
20
8.319532
30
0
11
70.50913
21
6.319532
31
0
39
0
210
0
220
0
230
1
0
LINE
5
52
100
AcDbEntity
8
2
62
256
6
ByLayer
370
-1
48
1
60
0
100
AcDbLine
10
42.300131
20
9.494532
30
0
11
72.300131
21
9.494532
31
0
39
0
210
0
220
0
230
1
0
LINE
5
53
100
AcDbEntity
8
80
62
256
6
ByLayer
370
-1
48
1
60
0
100
AcDbLine
10
0
20
0
30
0
11
-2.5
21
0
31
0
39
0
210
0
220
0
230
1
0
LINE
5
54
100
AcDbEntity
8
81
62
256
6
ByLayer
370
-1
48
1
60
0
100
AcDbLine
10
40.300131
20
9.494532
30
0
11
47.733166
21
9.494532
31
0
39
0
210
0
220
0
230
1
0
LINE
5
55
100
AcDbEntity
8
SK4
62
256
6
ByLayer
370
-1
48
0.05
60
0
100
AcDbLine
10
-39.999869
20
1.9E-05
30
0
11
40.500131
21
1.9E-05
31
0
39
0
210
0
220
0
230
1
0
LINE
5
57
100
AcDbEntity
8
1
62
256
6
ByLayer
370
-1
48
1
60
0
100
AcDbLine
10
34.949999
20
-1.723154
30
0
11
35
21
-1.424362
31
0
39
0
210
0
220
0
230
1
0
LINE
5
59
100
AcDbEntity
8
1
62
256
6
ByLayer
370
-1
48
1
60
0
100
AcDbLine
10
35
20
2.424362
30
0
11
34.949999
21
2.723154
31
0
39
0
210
0
220
0
230
1
0
LINE
5
5A
100
AcDbEntity
8
1
62
256
6
ByLayer
370
-1
48
1
60
0
100
AcDbLine
10
3.5
20
11.5
30
0
11
0
21
11.5
31
0
39
0
210
0
220
0
230
1
0
LINE
5
5B
100
AcDbEntity
8
1
62
256
6
ByLayer
370
-1
48
1
60
0
100
AcDbLine
10
0
20
-11.5
30
0
11
3.5
21
-11.5
31
0
39
0
210
0
220
0
230
1
0
LINE
5
5C
100
AcDbEntity
8
SK1
62
256
6
ByLayer
370
-1
48
1
60
0
100
AcDbLine
10
-37.6
20
7.4
30
0
11
-38
21
7
31
0
39
0
210
0
220
0
230
1
0
LINE
5
5E
100
AcDbEntity
8
SK1
62
256
6
ByLayer
370
-1
48
1
60
0
100
AcDbLine
10
-38
20
-7
30
0
11
-37
21
-8
31
0
39
0
210
0
220
0
230
1
0
LINE
5
5F
100
AcDbEntity
8
SK1
62
256
6
ByLayer
370
-1
48
1
60
0
100
AcDbLine
10
-2.1
20
8
30
0
11
-3.4
21
8
31
0
39
0
210
0
220
0
230
1
0
LINE
5
60
100
AcDbEntity
8
SK1
62
256
6
ByLayer
370
-1
48
1
60
0
100
AcDbLine
10
-37
20
-8
30
0
11
-2.1
21
-8
31
0
39
0
210
0
220
0
230
1
0
LINE
5
61
100
AcDbEntity
8
SK1
62
256
6
ByLayer
370
-1
48
1
60
0
100
AcDbLine
10
-2.1
20
-8
30
0
11
-1.217854
21
-7.76363
31
0
39
0
210
0
220
0
230
1
0
LINE
5
62
100
AcDbEntity
8
SK1
62
256
6
ByLayer
370
-1
48
1
60
0
100
AcDbLine
10
-1.217854
20
7.76363
30
0
11
-2.1
21
8
31
0
39
0
210
0
220
0
230
1
0
LINE
5
63
100
AcDbEntity
8
1
62
256
6
ByLayer
370
-1
48
1
60
0
100
AcDbLine
10
5.8
20
-7.9
30
0
11
26.490313
21
-7.9
31
0
39
0
210
0
220
0
230
1
0
LINE
5
64
100
AcDbEntity
8
1
62
256
6
ByLayer
370
-1
48
1
60
0
100
AcDbLine
10
26.548956
20
7.9
30
0
11
5.8
21
7.9
31
0
39
0
210
0
220
0
230
1
0
LINE
5
65
100
AcDbEntity
8
SK1
62
256
6
ByLayer
370
-1
48
1
60
0
100
AcDbLine
10
-1.114326
20
-7.75
30
0
11
-0.275
21
-7.75
31
0
39
0
210
0
220
0
230
1
0
LINE
5
66
100
AcDbEntity
8
SK1
62
256
6
ByLayer
370
-1
48
1
60
0
100
AcDbLine
10
-0.275
20
7.75
30
0
11
-1.114326
21
7.75
31
0
39
0
210
0
220
0
230
1
0
LINE
5
67
100
AcDbEntity
8
SK1
62
256
6
ByLayer
370
-1
48
1
60
0
100
AcDbLine
10
-0.275
20
-7.75
30
0
11
-0.275
21
7.75
31
0
39
0
210
0
220
0
230
1
0
LINE
5
68
100
AcDbEntity
8
1
62
256
6
ByLayer
370
-1
48
1
60
0
100
AcDbLine
10
27.4
20
-4.05
30
0
11
30
21
-4.05
31
0
39
0
210
0
220
0
230
1
0
LINE
5
69
100
AcDbEntity
8
1
62
256
6
ByLayer
370
-1
48
1
60
0
100
AcDbLine
10
30
20
7.55
30
0
11
27.383333
21
7.55
31
0
39
0
210
0
220
0
230
1
0
LINE
5
6A
100
AcDbEntity
8
1
62
256
6
ByLayer
370
-1
48
1
60
0
100
AcDbLine
10
26.086658
20
0.218779
30
0
11
26.684965
21
0.218779
31
0
39
0
210
0
220
0
230
1
0
LINE
5
6B
100
AcDbEntity
8
1
62
256
6
ByLayer
370
-1
48
1
60
0
100
AcDbLine
10
26.170031
20
-0.512383
30
0
11
26.614336
21
-0.512383
31
0
39
0
210
0
220
0
230
1
0
LINE
5
6C
100
AcDbEntity
8
1
62
256
6
ByLayer
370
-1
48
1
60
0
100
AcDbLine
10
34.95
20
4.052632
30
0
11
30.000077
21
4.052632
31
0
39
0
210
0
220
0
230
1
0
LINE
5
6D
100
AcDbEntity
8
1
62
256
6
ByLayer
370
-1
48
1
60
0
100
AcDbLine
10
29.15
20
-3.066772
30
0
11
29.15
21
-3.041348
31
0
39
0
210
0
220
0
230
1
0
LINE
5
6E
100
AcDbEntity
8
1
62
256
6
ByLayer
370
-1
48
1
60
0
100
AcDbLine
10
29.472444
20
4.471122
30
0
11
34.95
21
4.471122
31
0
39
0
210
0
220
0
230
1
0
LINE
5
6F
100
AcDbEntity
8
1
62
256
6
ByLayer
370
-1
48
1
60
0
100
AcDbLine
10
29.15
20
4.624834
30
0
11
29.15
21
4.90358
31
0
39
0
210
0
220
0
230
1
0
LINE
5
70
100
AcDbEntity
8
1
62
256
6
ByLayer
370
-1
48
1
60
0
100
AcDbLine
10
35
20
-1.424362
30
0
11
35
21
2.424362
31
0
39
0
210
0
220
0
230
1
0
LINE
5
71
100
AcDbEntity
8
1
62
256
6
ByLayer
370
-1
48
1
60
0
100
AcDbLine
10
20.350434
20
-5.202694
30
0
11
20.350434
21
-5.354914
31
0
39
0
210
0
220
0
230
1
0
LINE
5
72
100
AcDbEntity
8
1
62
256
6
ByLayer
370
-1
48
1
60
0
100
AcDbLine
10
21.000867
20
-5.12689
30
0
11
21.000867
21
-5.430718
31
0
39
0
210
0
220
0
230
1
0
LINE
5
73
100
AcDbEntity
8
1
62
256
6
ByLayer
370
-1
48
1
60
0
100
AcDbLine
10
3.5
20
11.5
30
0
11
3.5
21
-11.5
31
0
39
0
210
0
220
0
230
1
0
LINE
5
74
100
AcDbEntity
8
1
62
256
6
ByLayer
370
-1
48
1
60
0
100
AcDbLine
10
0
20
11.5
30
0
11
0
21
-11.5
31
0
39
0
210
0
220
0
230
1
0
LINE
5
75
100
AcDbEntity
8
1
62
256
6
ByLayer
370
-1
48
1
60
0
100
AcDbLine
10
5
20
10
30
0
11
5
21
-10
31
0
39
0
210
0
220
0
230
1
0
LINE
5
76
100
AcDbEntity
8
1
62
256
6
ByLayer
370
-1
48
1
60
0
100
AcDbLine
10
5.8
20
7.9
30
0
11
5.8
21
-7.9
31
0
39
0
210
0
220
0
230
1
0
LINE
5
77
100
AcDbEntity
8
SK1
62
256
6
ByLayer
370
-1
48
1
60
0
100
AcDbLine
10
-38
20
7
30
0
11
-38
21
-7
31
0
39
0
210
0
220
0
230
1
0
LINE
5
78
100
AcDbEntity
8
SK1
62
256
6
ByLayer
370
-1
48
1
60
0
100
AcDbLine
10
-37
20
-8
30
0
11
-37
21
7.4
31
0
39
0
210
0
220
0
230
1
0
LINE
5
79
100
AcDbEntity
8
SK1
62
256
6
ByLayer
370
-1
48
1
60
0
100
AcDbLine
10
-2.1
20
-8
30
0
11
-2.1
21
8
31
0
39
0
210
0
220
0
230
1
0
LINE
5
7A
100
AcDbEntity
8
SK1
62
256
6
ByLayer
370
-1
48
1
60
0
100
AcDbLine
10
-4
20
7.4
30
0
11
-3.4
21
8
31
0
39
0
210
0
220
0
230
1
0
LINE
5
7B
100
AcDbEntity
8
SK1
62
256
6
ByLayer
370
-1
48
1
60
0
100
AcDbLine
10
-1.217854
20
-7.76363
30
0
11
-1.217854
21
7.76363
31
0
39
0
210
0
220
0
230
1
0
LINE
5
7C
100
AcDbEntity
8
1
62
256
6
ByLayer
370
-1
48
1
60
0
100
AcDbLine
10
26.490313
20
-7.9
30
0
11
27
21
-7.472322
31
0
39
0
210
0
220
0
230
1
0
LINE
5
7D
100
AcDbEntity
8
SK1
62
256
6
ByLayer
370
-1
48
1
60
0
100
AcDbLine
10
-1.114326
20
-7.75
30
0
11
-1.114326
21
7.75
31
0
39
0
210
0
220
0
230
1
0
LINE
5
7E
100
AcDbEntity
8
1
62
256
6
ByLayer
370
-1
48
1
60
0
100
AcDbLine
10
27.4
20
0.5
30
0
11
27.4
21
-4.05
31
0
39
0
210
0
220
0
230
1
0
LINE
5
7F
100
AcDbEntity
8
1
62
256
6
ByLayer
370
-1
48
1
60
0
100
AcDbLine
10
30
20
-4.05
30
0
11
30
21
-3.897197
31
0
39
0
210
0
220
0
230
1
0
LINE
5
80
100
AcDbEntity
8
1
62
256
6
ByLayer
370
-1
48
1
60
0
100
AcDbLine
10
30
20
6.505688
30
0
11
30
21
5.320038
31
0
39
0
210
0
220
0
230
1
0
LINE
5
81
100
AcDbEntity
8
1
62
256
6
ByLayer
370
-1
48
1
60
0
100
AcDbLine
10
28.853223
20
4.766679
30
0
11
28.865807
21
5.078759
31
0
39
0
210
0
220
0
230
1
0
LINE
5
82
100
AcDbEntity
8
1
62
256
6
ByLayer
370
-1
48
1
60
0
100
AcDbLine
10
28.828639
20
-3.156997
30
0
11
28.849721
21
-3.679828
31
0
39
0
210
0
220
0
230
1
0
LINE
5
83
100
AcDbEntity
8
1
62
256
6
ByLayer
370
-1
48
1
60
0
100
AcDbLine
10
30
20
-3.845669
30
0
11
30
21
-3.897197
31
0
39
0
210
0
220
0
230
1
0
LINE
5
84
100
AcDbEntity
8
1
62
256
6
ByLayer
370
-1
48
1
60
0
100
AcDbLine
10
30
20
7.55
30
0
11
30
21
7.43875
31
0
39
0
210
0
220
0
230
1
0
LINE
5
85
100
AcDbEntity
8
1
62
256
6
ByLayer
370
-1
48
1
60
0
100
AcDbLine
10
30
20
4.043641
30
0
11
30
21
3
31
0
39
0
210
0
220
0
230
1
0
LINE
5
86
100
AcDbEntity
8
1
62
256
6
ByLayer
370
-1
48
1
60
0
100
AcDbLine
10
30
20
3
30
0
11
30
21
0.5
31
0
39
0
210
0
220
0
230
1
0
LINE
5
87
100
AcDbEntity
8
1
62
256
6
ByLayer
370
-1
48
1
60
0
100
AcDbLine
10
27.4
20
7.499882
30
0
11
27.4
21
7.438073
31
0
39
0
210
0
220
0
230
1
0
LINE
5
88
100
AcDbEntity
8
1
62
256
6
ByLayer
370
-1
48
1
60
0
100
AcDbLine
10
27.4
20
5.176455
30
0
11
27.4
21
3
31
0
39
0
210
0
220
0
230
1
0
LINE
5
89
100
AcDbEntity
8
1
62
256
6
ByLayer
370
-1
48
1
60
0
100
AcDbLine
10
27.4
20
3
30
0
11
27.4
21
0.5
31
0
39
0
210
0
220
0
230
1
0
LINE
5
8A
100
AcDbEntity
8
1
62
256
6
ByLayer
370
-1
48
1
60
0
100
AcDbLine
10
28.769088
20
4.87871
30
0
11
28.772103
21
4.827931
31
0
39
0
210
0
220
0
230
1
0
LINE
5
8B
100
AcDbEntity
8
1
62
256
6
ByLayer
370
-1
48
1
60
0
100
AcDbLine
10
28.8743
20
4.756282
30
0
11
30
21
4.219548
31
0
39
0
210
0
220
0
230
1
0
LINE
5
8C
100
AcDbEntity
8
1
62
256
6
ByLayer
370
-1
48
1
60
0
100
AcDbLine
10
30
20
4.219548
30
0
11
30
21
4.043641
31
0
39
0
210
0
220
0
230
1
0
LINE
5
8D
100
AcDbEntity
8
1
62
256
6
ByLayer
370
-1
48
1
60
0
100
AcDbLine
10
27
20
5.260468
30
0
11
27
21
4.980007
31
0
39
0
210
0
220
0
230
1
0
LINE
5
8E
100
AcDbEntity
8
1
62
256
6
ByLayer
370
-1
48
1
60
0
100
AcDbLine
10
26.548956
20
7.9
30
0
11
27.024183
21
7.707996
31
0
39
0
210
0
220
0
230
1
0
LINE
5
8F
100
AcDbEntity
8
1
62
256
6
ByLayer
370
-1
48
1
60
0
100
AcDbLine
10
27.69059
20
7.43875
30
0
11
30
21
6.505688
31
0
39
0
210
0
220
0
230
1
0
LINE
5
90
100
AcDbEntity
8
1
62
256
6
ByLayer
370
-1
48
1
60
0
100
AcDbLine
10
21.7238
20
7.725191
30
0
11
26.374438
21
5.846211
31
0
39
0
210
0
220
0
230
1
0
LINE
5
91
100
AcDbEntity
8
1
62
256
6
ByLayer
370
-1
48
1
60
0
100
AcDbLine
10
28.621122
20
4.938492
30
0
11
28.769088
21
4.87871
31
0
39
0
210
0
220
0
230
1
0
LINE
5
92
100
AcDbEntity
8
1
62
256
6
ByLayer
370
-1
48
1
60
0
100
AcDbLine
10
30
20
0.5
30
0
11
30
21
-2.711205
31
0
39
0
210
0
220
0
230
1
0
LINE
5
93
100
AcDbEntity
8
1
62
256
6
ByLayer
370
-1
48
1
60
0
100
AcDbLine
10
27
20
4.980007
30
0
11
27
21
-6.213731
31
0
39
0
210
0
220
0
230
1
0
LINE
5
94
100
AcDbEntity
8
1
62
256
6
ByLayer
370
-1
48
1
60
0
100
AcDbLine
10
30
20
7.43875
30
0
11
30
21
6.505688
31
0
39
0
210
0
220
0
230
1
0
LINE
5
95
100
AcDbEntity
8
1
62
256
6
ByLayer
370
-1
48
1
60
0
100
AcDbLine
10
30
20
7.43875
30
0
11
27.69059
21
7.43875
31
0
39
0
210
0
220
0
230
1
0
LINE
5
96
100
AcDbEntity
8
1
62
256
6
ByLayer
370
-1
48
1
60
0
100
AcDbLine
10
26.548956
20
7.9
30
0
11
27
21
7.9
31
0
39
0
210
0
220
0
230
1
0
LINE
5
97
100
AcDbEntity
8
1
62
256
6
ByLayer
370
-1
48
1
60
0
100
AcDbLine
10
27
20
7.9
30
0
11
27
21
7.847938
31
0
39
0
210
0
220
0
230
1
0
LINE
5
98
100
AcDbEntity
8
1
62
256
6
ByLayer
370
-1
48
1
60
0
100
AcDbLine
10
21.183568
20
-5.018323
30
0
11
20.816432
21
-5.018323
31
0
39
0
210
0
220
0
230
1
0
LINE
5
99
100
AcDbEntity
8
SK1
62
256
6
ByLayer
370
-1
48
1
60
0
100
AcDbLine
10
-4
20
7.4
30
0
11
-37
21
7.4
31
0
39
0
210
0
220
0
230
1
0
LINE
5
9A
100
AcDbEntity
8
1
62
256
6
ByLayer
370
-1
48
1
60
0
100
AcDbLine
10
27
20
-7.472322
30
0
11
27
21
-6.213731
31
0
39
0
210
0
220
0
230
1
0
LINE
5
9B
100
AcDbEntity
8
1
62
256
6
ByLayer
370
-1
48
1
60
0
100
AcDbLine
10
27.4
20
3
30
0
11
30
21
3
31
0
39
0
210
0
220
0
230
1
0
LINE
5
9C
100
AcDbEntity
8
1
62
256
6
ByLayer
370
-1
48
1
60
0
100
AcDbLine
10
27.4
20
0.5
30
0
11
30
21
0.5
31
0
39
0
210
0
220
0
230
1
0
LINE
5
9D
100
AcDbEntity
8
1
62
256
6
ByLayer
370
-1
48
1
60
0
100
AcDbLine
10
27
20
3
30
0
11
27.4
21
3
31
0
39
0
210
0
220
0
230
1
0
LINE
5
9E
100
AcDbEntity
8
1
62
256
6
ByLayer
370
-1
48
1
60
0
100
AcDbLine
10
27.4
20
0.5
30
0
11
27
21
0.5
31
0
39
0
210
0
220
0
230
1
0
LINE
5
9F
100
AcDbEntity
8
1
62
256
6
ByLayer
370
-1
48
1
60
0
100
AcDbLine
10
36.676533
20
9.380572
30
0
11
36.676533
21
7.549587
31
0
39
0
210
0
220
0
230
1
0
LINE
5
A0
100
AcDbEntity
8
1
62
256
6
ByLayer
370
-1
48
1
60
0
100
AcDbLine
10
30.1
20
9.150914
30
0
11
36.676533
21
9.380572
31
0
39
0
210
0
220
0
230
1
0
LINE
5
A1
100
AcDbEntity
8
1
62
256
6
ByLayer
370
-1
48
1
60
0
100
AcDbLine
10
30.1
20
-2.563414
30
0
11
30.1
21
3.557057
31
0
39
0
210
0
220
0
230
1
0
LINE
5
A2
100
AcDbEntity
8
1
62
256
6
ByLayer
370
-1
48
1
60
0
100
AcDbLine
10
30.1
20
6.177866
30
0
11
34.95
21
6.177866
31
0
39
0
210
0
220
0
230
1
0
LINE
5
A3
100
AcDbEntity
8
1
62
256
6
ByLayer
370
-1
48
1
60
0
100
AcDbLine
10
34.95
20
6.177866
30
0
11
34.95
21
7.609879
31
0
39
0
210
0
220
0
230
1
0
LINE
5
A4
100
AcDbEntity
8
1
62
256
6
ByLayer
370
-1
48
1
60
0
100
AcDbLine
10
34.95
20
7.609879
30
0
11
36.676533
21
7.549587
31
0
39
0
210
0
220
0
230
1
0
LINE
5
A5
100
AcDbEntity
8
1
62
256
6
ByLayer
370
-1
48
1
60
0
100
AcDbLine
10
40.3
20
9.301135
30
0
11
40.3
21
7.629024
31
0
39
0
210
0
220
0
230
1
0
LINE
5
A6
100
AcDbEntity
8
1
62
256
6
ByLayer
370
-1
48
1
60
0
100
AcDbLine
10
34.95
20
4.471122
30
0
11
34.95
21
5.47209
31
0
39
0
210
0
220
0
230
1
0
LINE
5
A7
100
AcDbEntity
8
1
62
256
6
ByLayer
370
-1
48
1
60
0
100
AcDbLine
10
34.95
20
5.47209
30
0
11
30.1
21
5.47209
31
0
39
0
210
0
220
0
230
1
0
LINE
5
A8
100
AcDbEntity
8
1
62
256
6
ByLayer
370
-1
48
1
60
0
100
AcDbLine
10
29.15
20
-3.066772
30
0
11
29.15
21
-3.66465
31
0
39
0
210
0
220
0
230
1
0
LINE
5
A9
100
AcDbEntity
8
1
62
256
6
ByLayer
370
-1
48
1
60
0
100
AcDbLine
10
30.1
20
-4
30
0
11
30.1
21
-3.888302
31
0
39
0
210
0
220
0
230
1
0
LINE
5
AA
100
AcDbEntity
8
1
62
256
6
ByLayer
370
-1
48
1
60
0
100
AcDbLine
10
34.95
20
-4
30
0
11
30.1
21
-4
31
0
39
0
210
0
220
0
230
1
0
LINE
5
AB
100
AcDbEntity
8
1
62
256
6
ByLayer
370
-1
48
1
60
0
100
AcDbLine
10
30.1
20
5.439393
30
0
11
30.1
21
5.47209
31
0
39
0
210
0
220
0
230
1
0
LINE
5
AC
100
AcDbEntity
8
1
62
256
6
ByLayer
370
-1
48
1
60
0
100
AcDbLine
10
30.1
20
5.47209
30
0
11
30.1
21
6.177866
31
0
39
0
210
0
220
0
230
1
0
LINE
5
AD
100
AcDbEntity
8
1
62
256
6
ByLayer
370
-1
48
1
60
0
100
AcDbLine
10
30.1
20
6.177866
30
0
11
30.1
21
9.150914
31
0
39
0
210
0
220
0
230
1
0
LINE
5
AE
100
AcDbEntity
8
1
62
256
6
ByLayer
370
-1
48
1
60
0
100
AcDbLine
10
34.95
20
6.177866
30
0
11
34.95
21
5.47209
31
0
39
0
210
0
220
0
230
1
0
LINE
5
AF
100
AcDbEntity
8
1
62
256
6
ByLayer
370
-1
48
1
60
0
100
AcDbLine
10
34.95
20
4.471122
30
0
11
34.95
21
4.052632
31
0
39
0
210
0
220
0
230
1
0
LINE
5
B0
100
AcDbEntity
8
1
62
256
6
ByLayer
370
-1
48
1
60
0
100
AcDbLine
10
34.95
20
-4
30
0
11
34.95
21
4.052632
31
0
39
0
210
0
220
0
230
1
0
LINE
5
B1
100
AcDbEntity
8
1
62
256
6
ByLayer
370
-1
48
1
60
0
100
AcDbLine
10
26.18307
20
5.871237
30
0
11
26.332329
21
5.696846
31
0
39
0
210
0
220
0
230
1
0
LINE
5
B2
100
AcDbEntity
8
1
62
256
6
ByLayer
370
-1
48
1
60
0
100
AcDbLine
10
27
20
4.980007
30
0
11
26.422827
21
4.973715
31
0
39
0
210
0
220
0
230
1
0
LINE
5
B3
100
AcDbEntity
8
4
62
256
6
ByLayer
370
-1
48
0.05
60
0
100
AcDbLine
10
0
20
1.9E-05
30
0
11
40.300131
21
1.9E-05
31
0
39
0
210
0
220
0
230
1
0
MTEXT
5
103
100
AcDbEntity
8
2
62
256
6
ByLayer
370
-1
48
1
60
0
100
AcDbMText
10
69.432948
20
-33.820346
30
0
210
0
220
0
230
1
1
\W00.746;\fsimplex.shx,bigfont.shx;DC = 19.0 - 25.0\P
40
3
41
0
44
1.084337
50
89.9999999999993
71
7
72
5
7
DEFAULT
0
MTEXT
5
106
100
AcDbEntity
8
SK6
62
256
6
ByLayer
370
-1
48
1
60
0
100
AcDbMText
10
45.849851
20
19.350257
30
0
210
0
220
0
230
1
1
\W00.747;\fsimplex.shx,bigfont.shx;R429U-A16-19030MB09\P
40
3
41
0
44
1.084337
50
0
71
7
72
5
7
DEFAULT
0
DIMENSION
5
112
100
AcDbEntity
8
SK2
62
256
6
ByLayer
370
-3
48
1
60
0
100
AcDbDimension
2
DimnDraft3D1
10
-38
20
43.250019
30
0
11
-8.015789
21
43.250019
31
0
70
32
71
5
72
1
41
1
210
0
220
0
230
1
3
Standard
100
AcDbAlignedDimension
13
30
23
9.55
33
0
14
-38
24
9
34
0
50
0
100
AcDbRotatedDimension
1001
ACAD
1000
DSTYLE
1002
{
1070
   279
1070
     0
1070
   172
1070
     1
1070
   173
1070
     1
1070
   340
1005
104
1070
   271
1070
     1
1070
    77
1070
     1
1070
    73
1070
     0
1070
   171
1070
     4
1070
   274
1070
     4
1070
   177
1070
     7
1070
   176
1070
     7
1070
   178
1070
     7
1070
    41
1041
3.175
1070
   147
1041
1.75
1070
    42
1041
2.0
1070
    44
1041
2.0
1070
   140
1041
3.5
1070
   343
1005
0
1070
   344
1005
0
1002
}
0
DIMENSION
5
11C
100
AcDbEntity
8
2
62
256
6
ByLayer
370
-3
48
1
60
0
100
AcDbDimension
2
DimnDraft3D2
10
0
20
28.250019
30
0
11
10.984211
21
28.250019
31
0
70
32
71
5
72
1
41
1
210
0
220
0
230
1
3
Standard
100
AcDbAlignedDimension
13
30
23
9.55
33
0
14
0
24
13.5
34
0
50
0
100
AcDbRotatedDimension
1001
ACAD
1000
DSTYLE
1002
{
1070
   279
1070
     0
1070
   172
1070
     1
1070
   173
1070
     1
1070
   340
1005
104
1070
   271
1070
     1
1070
    77
1070
     1
1070
    73
1070
     0
1070
   171
1070
     4
1070
   274
1070
     4
1070
   177
1070
     7
1070
   176
1070
     7
1070
   178
1070
     7
1070
    41
1041
3.175
1070
   147
1041
1.75
1070
    42
1041
2.0
1070
    44
1041
2.0
1070
   140
1041
3.5
1070
   343
1005
0
1070
   344
1005
0
1002
}
0
DIMENSION
5
126
100
AcDbEntity
8
SK2
62
256
6
ByLayer
370
-3
48
1
60
0
100
AcDbDimension
2
DimnDraft3D3
10
-45.291869
20
8
30
0
11
-45.291869
21
-27.247368
31
0
70
32
71
5
72
1
41
1
210
0
220
0
230
1
3
Standard
100
AcDbAlignedDimension
13
-39
23
-8
33
0
14
-5.4
24
8
34
0
50
90
100
AcDbRotatedDimension
1001
ACAD
1000
DSTYLE
1002
{
1070
    74
1070
     0
1070
   279
1070
     0
1070
   172
1070
     1
1070
   173
1070
     1
1070
   340
1005
104
1070
   271
1070
     1
1070
    77
1070
     1
1070
    73
1070
     0
1070
   171
1070
     4
1070
   274
1070
     4
1070
   177
1070
     7
1070
   176
1070
     7
1070
   178
1070
     7
1070
    41
1041
3.175
1070
   147
1041
1.75
1070
    42
1041
2.0
1070
    44
1041
2.0
1070
   140
1041
3.5
1070
   343
1005
0
1070
   344
1005
0
1002
}
0
DIMENSION
5
130
100
AcDbEntity
8
2
62
256
6
ByLayer
370
-3
48
1
60
0
100
AcDbDimension
2
DimnDraft3D4
10
40.3
20
-25.814474
30
0
11
7.669737
21
-25.814474
31
0
70
32
71
5
72
1
41
1
210
0
220
0
230
1
3
Standard
100
AcDbAlignedDimension
13
0
23
-13.5
33
0
14
40.3
24
5.629024
34
0
50
0
100
AcDbRotatedDimension
1001
ACAD
1000
DSTYLE
1002
{
1070
   279
1070
     0
1070
   172
1070
     1
1070
   173
1070
     1
1070
   340
1005
104
1070
   271
1070
     1
1070
    77
1070
     1
1070
    73
1070
     0
1070
   171
1070
     4
1070
   274
1070
     4
1070
   177
1070
     7
1070
   176
1070
     7
1070
   178
1070
     7
1070
    78
1070
     8
1070
    41
1041
3.175
1070
   147
1041
1.75
1070
    42
1041
2.0
1070
    44
1041
2.0
1070
   140
1041
3.5
1070
   343
1005
0
1070
   344
1005
0
1002
}
0
ENDSEC
0
SECTION
2
OBJECTS
0
DICTIONARY
5
17f
330
0
100
AcDbDictionary
280
0
281
1
3
ACAD_GROUP
350
180
3
ACAD_MLINESTYLE
350
181
0
DICTIONARY
5
180
330
0
100
AcDbDictionary
280
0
281
1
0
DICTIONARY
5
181
330
0
100
AcDbDictionary
280
0
281
1
3
Standard
350
18
0
MLINESTYLE
5
18
330
181
100
AcDbMlineStyle
2
Standard
70
0
3

62
256
51
90
52
90
71
2
49
-0.5
62
256
6
ByLayer
49
0.5
62
256
6
ByLayer
0
RASTERVARIABLES
5
16d
330

100
AcDbRasterVariables
90
0
70
1
71
1
72
1
0
ENDSEC
0
EOF
