0
SECTION
2
HEADER
9
$ACADVER
1
AC1015
9
$DWGCODEPAGE
3
ANSI_1252
9
$HANDSEED
5
198
9
$ANGBASE
50
0
9
$ANGDIR
70
0
9
$ATTMODE
70
1
9
$AUNITS
70
0
9
$AUPREC
70
0
9
$CECOLOR
62
256
9
$CELTSCALE
40
1
9
$CELTYPE
6
ByLayer
9
$CELWEIGHT
370
-1
9
$CLAYER
8
0
9
$CMLJUST
70
0
9
$CMLSCALE
40
1
9
$CMLSTYLE
2
Standard
9
$DIMSTYLE
2
Standard
9
$TEXTSIZE
40
0.2
9
$TEXTSTYLE
7
Standard
9
$LUNITS
70
2
9
$LUPREC
70
4
9
$EXTNAMES
290
1
9
$INSUNITS
70
4
9
$LTSCALE
40
1
9
$LWDISPLAY
290
0
9
$PDMODE
70
0
9
$PDSIZE
40
0
9
$PLINEGEN
70
0
0
ENDSEC
0
SECTION
2
CLASSES
0
CLASS
1
RASTERVARIABLES
2
AcDbRasterVariables
3
ISM
90
0
280
0
281
0
0
ENDSEC
0
SECTION
2
TABLES
0
TABLE
2
VPORT
5
18e
100
AcDbSymbolTable
0
VPORT
5
1
100
AcDbSymbolTableRecord
100
AcDbViewportTableRecord
2
*Active
70
0
10
0
20
0
11
1
21
1
12
-1
22
1
13
0
23
0
14
0.5
24
0.5
15
10
25
10
16
0
26
0
36
1
17
0
27
0
37
0
0
ENDTAB
0
TABLE
2
LTYPE
5
18f
100
AcDbSymbolTable
0
LTYPE
5
14
100
AcDbSymbolTableRecord
100
AcDbLinetypeTableRecord
70
0
2
ByBlock
3

72
65
73
0
40
0
0
LTYPE
5
15
100
AcDbSymbolTableRecord
100
AcDbLinetypeTableRecord
70
0
2
ByLayer
3

72
65
73
0
40
0
0
LTYPE
5
16
100
AcDbSymbolTableRecord
100
AcDbLinetypeTableRecord
70
0
2
CONTINUOUS
3
Solid line
72
65
73
0
40
0
0
LTYPE
5
3C
100
AcDbSymbolTableRecord
100
AcDbLinetypeTableRecord
70
0
2
DASHED
3
__ __ __ __ __ __ __ __ __
72
65
73
2
40
25.72
49
12.86
74
0
49
-12.86
74
0
0
LTYPE
5
3D
100
AcDbSymbolTableRecord
100
AcDbLinetypeTableRecord
70
0
2
HIDDEN
3
_ _ _ _ _ _ _ _ _ _ _ _ _ _ _
72
65
73
2
40
0.5
49
0.25
74
0
49
-0.25
74
0
0
LTYPE
5
3E
100
AcDbSymbolTableRecord
100
AcDbLinetypeTableRecord
70
0
2
PHANTOM
3
____ _ _ ____ _ _ _____ _ _ ____
72
65
73
6
40
50.5
49
18
74
0
49
-6.5
74
0
49
6.5
74
0
49
-6.5
74
0
49
6.5
74
0
49
-6.5
74
0
0
LTYPE
5
3F
100
AcDbSymbolTableRecord
100
AcDbLinetypeTableRecord
70
0
2
CENTER
3
____ _ ____ _ ____ _ ____
72
65
73
4
40
47.5
49
22
74
0
49
-8.5
74
0
49
8.5
74
0
49
-8.5
74
0
0
LTYPE
5
40
100
AcDbSymbolTableRecord
100
AcDbLinetypeTableRecord
70
0
2
DOT
3
.........................
72
65
73
2
40
10
49
0
74
0
49
-10
74
0
0
LTYPE
5
41
100
AcDbSymbolTableRecord
100
AcDbLinetypeTableRecord
70
0
2
DASHDOT
3
_._._._._._._._._._._._._._._._.
72
65
73
4
40
70
49
31
74
0
49
-13
74
0
49
13
74
0
49
-13
74
0
0
ENDTAB
0
TABLE
2
LAYER
5
190
100
AcDbSymbolTable
0
LAYER
5
10
100
AcDbSymbolTableRecord
100
AcDbLayerTableRecord
2
0
70
0
62
7
6
CONTINUOUS
290
1
370
-3
390
0
0
LAYER
5
43
100
AcDbSymbolTableRecord
100
AcDbLayerTableRecord
2
80
70
0
62
-6
6
CONTINUOUS
290
1
370
-3
390
0
0
LAYER
5
45
100
AcDbSymbolTableRecord
100
AcDbLayerTableRecord
2
2
70
0
62
7
6
CONTINUOUS
290
1
370
-3
390
0
0
LAYER
5
47
100
AcDbSymbolTableRecord
100
AcDbLayerTableRecord
2
81
70
0
62
-3
6
CONTINUOUS
290
1
370
-3
390
0
0
LAYER
5
5B
100
AcDbSymbolTableRecord
100
AcDbLayerTableRecord
2
1
70
0
62
4
6
CONTINUOUS
290
1
370
-3
390
0
0
LAYER
5
96
100
AcDbSymbolTableRecord
100
AcDbLayerTableRecord
2
4
70
0
62
-2
6
CENTER
290
1
370
-3
390
0
0
LAYER
5
17a
100
AcDbSymbolTableRecord
100
AcDbLayerTableRecord
2
SK1
70
0
62
4
6
CONTINUOUS
290
1
370
-3
390
0
0
LAYER
5
17b
100
AcDbSymbolTableRecord
100
AcDbLayerTableRecord
2
SK4
70
0
62
2
6
CENTER
290
1
370
-3
390
0
0
LAYER
5
17c
100
AcDbSymbolTableRecord
100
AcDbLayerTableRecord
2
SK6
70
0
62
5
6
CONTINUOUS
290
1
370
-3
390
0
0
LAYER
5
17d
100
AcDbSymbolTableRecord
100
AcDbLayerTableRecord
2
SK2
70
0
62
7
6
CONTINUOUS
290
1
370
-3
390
0
0
ENDTAB
0
TABLE
2
STYLE
5
191
100
AcDbSymbolTable
0
STYLE
5
11
100
AcDbSymbolTableRecord
100
AcDbTextStyleTableRecord
2
Standard
3
txt
70
0
71
0
40
0
41
1
42
0
50
0
0
STYLE
5
FC
100
AcDbSymbolTableRecord
100
AcDbTextStyleTableRecord
2
DEFAULT
3
simplex.shx
70
0
71
0
40
0
41
1
42
0
50
0
0
STYLE
5
FD
100
AcDbSymbolTableRecord
100
AcDbTextStyleTableRecord
2
DWGDirectTextStyle
3
SIMPLEX
70
0
71
0
40
0
41
1
42
0
50
0
0
ENDTAB
0
TABLE
2
DIMSTYLE
5
192
100
AcDbSymbolTable
100
AcDbDimStyleTable
0
DIMSTYLE
105
27
100
AcDbSymbolTableRecord
100
AcDbDimStyleTableRecord
2
Standard
70
0
3
<>
41
0.18
42
0.0625
44
0.18
140
0.18
147
0.09
73
0
74
0
77
1
271
2
275
0
278
52
280
0
340
11
0
ENDTAB
0
TABLE
2
VIEW
5
193
100
AcDbSymbolTable
0
ENDTAB
0
TABLE
2
UCS
5
194
100
AcDbSymbolTable
0
ENDTAB
0
TABLE
2
APPID
5
195
100
AcDbSymbolTable
0
APPID
5
12
100
AcDbSymbolTableRecord
100
AcDbRegAppTableRecord
2
ACAD
70
0
0
ENDTAB
0
TABLE
2
BLOCK_RECORD
5
196
100
AcDbSymbolTable
0
BLOCK_RECORD
5
1F
100
AcDbSymbolTableRecord
100
AcDbBlockTableRecord
2
*Model_Space
340
0
70
0
0
BLOCK_RECORD
5
1B
100
AcDbSymbolTableRecord
100
AcDbBlockTableRecord
2
*Paper_Space
340
0
70
0
0
BLOCK_RECORD
5
23
100
AcDbSymbolTableRecord
100
AcDbBlockTableRecord
2
*Paper_Space0
340
0
70
0
0
BLOCK_RECORD
5
100
100
AcDbSymbolTableRecord
100
AcDbBlockTableRecord
2
DimnDraft3D1
340
0
70
0
0
BLOCK_RECORD
5
10A
100
AcDbSymbolTableRecord
100
AcDbBlockTableRecord
2
DimnDraft3D2
340
0
70
0
0
BLOCK_RECORD
5
114
100
AcDbSymbolTableRecord
100
AcDbBlockTableRecord
2
DimnDraft3D3
340
0
70
0
0
BLOCK_RECORD
5
11F
100
AcDbSymbolTableRecord
100
AcDbBlockTableRecord
2
DimnDraft3D4
340
0
70
0
0
BLOCK_RECORD
5
129
100
AcDbSymbolTableRecord
100
AcDbBlockTableRecord
2
DimnDraft3D5
340
0
70
0
0
BLOCK_RECORD
5
133
100
AcDbSymbolTableRecord
100
AcDbBlockTableRecord
2
DimnDraft3D6
340
0
70
0
0
ENDTAB
0
ENDSEC
0
SECTION
2
BLOCKS
0
BLOCK
5
20
100
AcDbEntity
8
0
100
AcDbBlockBegin
2
*Model_Space
70
0
10
0
20
0
30
0
3
*Model_Space
0
ENDBLK
5
21
100
AcDbEntity
8
0
100
AcDbBlockEnd
0
BLOCK
5
1C
100
AcDbEntity
8
0
100
AcDbBlockBegin
2
*Paper_Space
70
0
10
0
20
0
30
0
3
*Paper_Space
0
ENDBLK
5
1D
100
AcDbEntity
8
0
100
AcDbBlockEnd
0
BLOCK
5
24
100
AcDbEntity
8
0
100
AcDbBlockBegin
2
*Paper_Space0
70
0
10
0
20
0
30
0
3
*Paper_Space0
0
ENDBLK
5
25
100
AcDbEntity
8
0
100
AcDbBlockEnd
0
BLOCK
5
107
100
AcDbEntity
8
0
100
AcDbBlockBegin
2
DimnDraft3D1
70
0
10
0
20
0
30
0
3
DimnDraft3D1
0
MTEXT
5
101
100
AcDbEntity
8
2
62
256
6
ByLayer
370
-1
48
1
60
0
100
AcDbMText
10
39.307895
20
38.134622
30
0
210
0
220
0
230
1
1
\W01.000;\fsimplex.shx,bigfont.shx;80.0\P
40
3
41
0
44
1.084337
50
0
71
7
72
5
7
DEFAULT
0
LINE
5
102
100
AcDbEntity
8
2
62
256
6
ByLayer
370
-1
48
1
60
0
100
AcDbLine
10
2
20
2
30
0
11
2
21
39.384622
31
0
39
0
210
0
220
0
230
1
0
LINE
5
103
100
AcDbEntity
8
2
62
256
6
ByLayer
370
-1
48
1
60
0
100
AcDbLine
10
82
20
10.5
30
0
11
82
21
39.384622
31
0
39
0
210
0
220
0
230
1
0
LINE
5
104
100
AcDbEntity
8
2
62
256
6
ByLayer
370
-1
48
1
60
0
100
AcDbLine
10
2
20
37.384622
30
0
11
82
21
37.384622
31
0
39
0
210
0
220
0
230
1
0
SOLID
5
105
100
AcDbEntity
8
2
62
256
6
ByLayer
370
-1
48
1
60
0
100
AcDbTrace
10
2
20
37.384622
30
0
11
5.174998
21
37.802619
31
0
12
5.175002
22
36.966625
32
0
13
2
23
37.384622
33
0
39
0
210
0
220
0
230
1
0
SOLID
5
106
100
AcDbEntity
8
2
62
256
6
ByLayer
370
-1
48
1
60
0
100
AcDbTrace
10
82
20
37.384622
30
0
11
78.825002
21
36.966625
31
0
12
78.824998
22
37.802619
32
0
13
82
23
37.384622
33
0
39
0
210
0
220
0
230
1
0
ENDBLK
5
108
100
AcDbEntity
8
0
100
AcDbBlockEnd
0
BLOCK
5
111
100
AcDbEntity
8
0
100
AcDbBlockBegin
2
DimnDraft3D2
70
0
10
0
20
0
30
0
3
DimnDraft3D2
0
MTEXT
5
10B
100
AcDbEntity
8
2
62
256
6
ByLayer
370
-1
48
1
60
0
100
AcDbMText
10
38.307895
20
54.090848
30
0
210
0
220
0
230
1
1
\W01.000;\fsimplex.shx,bigfont.shx;82.0\P
40
3
41
0
44
1.084337
50
0
71
7
72
5
7
DEFAULT
0
LINE
5
10C
100
AcDbEntity
8
2
62
256
6
ByLayer
370
-1
48
1
60
0
100
AcDbLine
10
0
20
2
30
0
11
0
21
55.340848
31
0
39
0
210
0
220
0
230
1
0
LINE
5
10D
100
AcDbEntity
8
2
62
256
6
ByLayer
370
-1
48
1
60
0
100
AcDbLine
10
82
20
10.5
30
0
11
82
21
55.340848
31
0
39
0
210
0
220
0
230
1
0
LINE
5
10E
100
AcDbEntity
8
2
62
256
6
ByLayer
370
-1
48
1
60
0
100
AcDbLine
10
0
20
53.340848
30
0
11
82
21
53.340848
31
0
39
0
210
0
220
0
230
1
0
SOLID
5
10F
100
AcDbEntity
8
2
62
256
6
ByLayer
370
-1
48
1
60
0
100
AcDbTrace
10
0
20
53.340848
30
0
11
3.174998
21
53.758845
31
0
12
3.175002
22
52.922851
32
0
13
0
23
53.340848
33
0
39
0
210
0
220
0
230
1
0
SOLID
5
110
100
AcDbEntity
8
2
62
256
6
ByLayer
370
-1
48
1
60
0
100
AcDbTrace
10
82
20
53.340848
30
0
11
78.825002
21
52.922851
31
0
12
78.824998
22
53.758845
32
0
13
82
23
53.340848
33
0
39
0
210
0
220
0
230
1
0
ENDBLK
5
112
100
AcDbEntity
8
0
100
AcDbBlockEnd
0
BLOCK
5
11C
100
AcDbEntity
8
0
100
AcDbBlockBegin
2
DimnDraft3D3
70
0
10
0
20
0
30
0
3
DimnDraft3D3
0
MTEXT
5
115
100
AcDbEntity
8
SK2
62
256
6
ByLayer
370
-1
48
1
60
0
100
AcDbMText
10
-73.25
20
-4.638158
30
0
210
0
220
0
230
1
1
\W01.000;\fsimplex.shx,bigfont.shx;%%c 16.0\P
40
3
41
0
44
1.084337
50
90
71
7
72
5
7
DEFAULT
0
LINE
5
117
100
AcDbEntity
8
SK2
62
256
6
ByLayer
370
-1
48
1
60
0
100
AcDbLine
10
-60
20
-8
30
0
11
-74.5
21
-8
31
0
39
0
210
0
220
0
230
1
0
LINE
5
118
100
AcDbEntity
8
SK2
62
256
6
ByLayer
370
-1
48
1
60
0
100
AcDbLine
10
-3
20
8
30
0
11
-74.5
21
8
31
0
39
0
210
0
220
0
230
1
0
LINE
5
119
100
AcDbEntity
8
SK2
62
256
6
ByLayer
370
-1
48
1
60
0
100
AcDbLine
10
-72.5
20
-15.5
30
0
11
-72.5
21
15.5
31
0
39
0
210
0
220
0
230
1
0
SOLID
5
11A
100
AcDbEntity
8
SK2
62
256
6
ByLayer
370
-1
48
1
60
0
100
AcDbTrace
10
-72.5
20
-8
30
0
11
-72.082003
21
-11.174998
31
0
12
-72.917997
22
-11.175002
32
0
13
-72.5
23
-8
33
0
39
0
210
0
220
0
230
1
0
SOLID
5
11B
100
AcDbEntity
8
SK2
62
256
6
ByLayer
370
-1
48
1
60
0
100
AcDbTrace
10
-72.5
20
8
30
0
11
-72.917997
21
11.174998
31
0
12
-72.082003
22
11.175002
32
0
13
-72.5
23
8
33
0
39
0
210
0
220
0
230
1
0
ENDBLK
5
11D
100
AcDbEntity
8
0
100
AcDbBlockEnd
0
BLOCK
5
126
100
AcDbEntity
8
0
100
AcDbBlockBegin
2
DimnDraft3D4
70
0
10
0
20
0
30
0
3
DimnDraft3D4
0
MTEXT
5
120
100
AcDbEntity
8
2
62
256
6
ByLayer
370
-1
48
1
60
0
100
AcDbMText
10
25.605692
20
14.205921
30
0
210
0
220
0
230
1
1
\W01.000;\fsimplex.shx,bigfont.shx;%%c 15.6\P
40
3
41
0
44
1.084337
50
90
71
7
72
5
7
DEFAULT
0
LINE
5
121
100
AcDbEntity
8
2
62
256
6
ByLayer
370
-1
48
1
60
0
100
AcDbLine
10
3.193846
20
7.8
30
0
11
28.355692
21
7.8
31
0
39
0
210
0
220
0
230
1
0
LINE
5
122
100
AcDbEntity
8
2
62
256
6
ByLayer
370
-1
48
1
60
0
100
AcDbLine
10
3.193846
20
-7.8
30
0
11
28.355692
21
-7.8
31
0
39
0
210
0
220
0
230
1
0
LINE
5
123
100
AcDbEntity
8
2
62
256
6
ByLayer
370
-1
48
1
60
0
100
AcDbLine
10
26.355692
20
-7.8
30
0
11
26.355692
21
24.232237
31
0
39
0
210
0
220
0
230
1
0
SOLID
5
124
100
AcDbEntity
8
2
62
256
6
ByLayer
370
-1
48
1
60
0
100
AcDbTrace
10
26.355692
20
7.8
30
0
11
26.773689
21
4.625002
31
0
12
25.937695
22
4.624998
32
0
13
26.355692
23
7.8
33
0
39
0
210
0
220
0
230
1
0
SOLID
5
125
100
AcDbEntity
8
2
62
256
6
ByLayer
370
-1
48
1
60
0
100
AcDbTrace
10
26.355692
20
-7.8
30
0
11
25.937695
21
-4.625002
31
0
12
26.773689
22
-4.624998
32
0
13
26.355692
23
-7.8
33
0
39
0
210
0
220
0
230
1
0
ENDBLK
5
127
100
AcDbEntity
8
0
100
AcDbBlockEnd
0
BLOCK
5
130
100
AcDbEntity
8
0
100
AcDbBlockBegin
2
DimnDraft3D5
70
0
10
0
20
0
30
0
3
DimnDraft3D5
0
MTEXT
5
12A
100
AcDbEntity
8
2
62
256
6
ByLayer
370
-1
48
1
60
0
100
AcDbMText
10
96.896158
20
-9.775222
30
0
210
0
220
0
230
1
1
\W01.000;\fsimplex.shx,bigfont.shx;92%%d\P
40
3
41
0
44
1.084337
50
44.0000000000001
71
7
72
5
7
DEFAULT
0
LINE
5
12B
100
AcDbEntity
8
2
62
256
6
ByLayer
370
-1
48
1
60
0
100
AcDbLine
10
81.57824
20
-2.633528
30
0
11
81.050335
21
-17.750736
31
0
39
0
210
0
220
0
230
1
0
LINE
5
12C
100
AcDbEntity
8
2
62
256
6
ByLayer
370
-1
48
1
60
0
100
AcDbLine
10
84
20
8.5
30
0
11
108.233768
21
8.5
31
0
39
0
210
0
220
0
230
1
0
ARC
5
12D
100
AcDbEntity
8
2
62
256
6
ByLayer
370
-1
48
1
60
0
100
AcDbCircle
39
0
10
81.967031
20
8.5
30
0
40
24.2667374904717
210
0
220
0
230
1
100
AcDbArc
50
268
51
0
0
SOLID
5
12E
100
AcDbEntity
8
2
62
256
6
ByLayer
370
-1
48
1
60
0
100
AcDbTrace
10
81.120134
20
-15.751955
30
0
11
84.296062
21
-15.341083
31
0
12
84.29419
22
-16.177074
32
0
13
81.120134
23
-15.751955
33
0
39
0
210
0
220
0
230
1
0
SOLID
5
12F
100
AcDbEntity
8
2
62
256
6
ByLayer
370
-1
48
1
60
0
100
AcDbTrace
10
106.233768
20
8.5
30
0
11
106.547856
21
5.313044
31
0
12
105.712309
22
5.340342
32
0
13
106.233768
23
8.5
33
0
39
0
210
0
220
0
230
1
0
ENDBLK
5
131
100
AcDbEntity
8
0
100
AcDbBlockEnd
0
BLOCK
5
13A
100
AcDbEntity
8
0
100
AcDbBlockBegin
2
DimnDraft3D6
70
0
10
0
20
0
30
0
3
DimnDraft3D6
0
MTEXT
5
134
100
AcDbEntity
8
SK2
62
256
6
ByLayer
370
-1
48
1
60
0
100
AcDbMText
10
8.298684
20
69.027844
30
0
210
0
220
0
230
1
1
\W01.000;\fsimplex.shx,bigfont.shx;141.0\P
40
3
41
0
44
1.084337
50
0
71
7
72
5
7
DEFAULT
0
LINE
5
135
100
AcDbEntity
8
SK2
62
256
6
ByLayer
370
-1
48
1
60
0
100
AcDbLine
10
82
20
10.5
30
0
11
82
21
70.277844
31
0
39
0
210
0
220
0
230
1
0
LINE
5
136
100
AcDbEntity
8
SK2
62
256
6
ByLayer
370
-1
48
1
60
0
100
AcDbLine
10
-59
20
9
30
0
11
-59
21
70.277844
31
0
39
0
210
0
220
0
230
1
0
LINE
5
137
100
AcDbEntity
8
SK2
62
256
6
ByLayer
370
-1
48
1
60
0
100
AcDbLine
10
82
20
68.277844
30
0
11
-59
21
68.277844
31
0
39
0
210
0
220
0
230
1
0
SOLID
5
138
100
AcDbEntity
8
SK2
62
256
6
ByLayer
370
-1
48
1
60
0
100
AcDbTrace
10
82
20
68.277844
30
0
11
78.825002
21
67.859847
31
0
12
78.824998
22
68.69584
32
0
13
82
23
68.277844
33
0
39
0
210
0
220
0
230
1
0
SOLID
5
139
100
AcDbEntity
8
SK2
62
256
6
ByLayer
370
-1
48
1
60
0
100
AcDbTrace
10
-59
20
68.277844
30
0
11
-55.825002
21
68.69584
31
0
12
-55.824998
22
67.859847
32
0
13
-59
23
68.277844
33
0
39
0
210
0
220
0
230
1
0
ENDBLK
5
13B
100
AcDbEntity
8
0
100
AcDbBlockEnd
0
ENDSEC
0
SECTION
2
ENTITIES
0
ARC
5
97
100
AcDbEntity
8
1
62
256
6
ByLayer
370
-1
48
1
60
0
100
AcDbCircle
39
0
10
78.840453
20
-6.671318
30
-0.488621
40
0.927770677953782
210
-0.00121797487008783
220
-0.0348782368720626
230
-0.999390827019096
100
AcDbArc
50
104.993653
51
105.006347
0
ARC
5
98
100
AcDbEntity
8
1
62
256
6
ByLayer
370
-1
48
1
60
0
100
AcDbCircle
39
0
10
78.840453
20
-6.671318
30
-0.488621
40
0.927770677953782
210
-0.00121797487008783
220
-0.0348782368720626
230
-0.999390827019096
100
AcDbArc
50
74.993653
51
75.006347
0
ARC
5
99
100
AcDbEntity
8
1
62
256
6
ByLayer
370
-1
48
1
60
0
100
AcDbCircle
39
0
10
78.840453
20
-6.671318
30
-0.488621
40
0.927770677953782
210
-0.00121797487008783
220
-0.0348782368720626
230
-0.999390827019096
100
AcDbArc
50
14.993653
51
15.110985
0
ARC
5
9A
100
AcDbEntity
8
1
62
256
6
ByLayer
370
-1
48
1
60
0
100
AcDbCircle
39
0
10
78.840453
20
-6.671318
30
-0.488621
40
0.927770677953782
210
-0.00121797487008783
220
-0.0348782368720626
230
-0.999390827019096
100
AcDbArc
50
284.993653
51
285.006347
0
ARC
5
9B
100
AcDbEntity
8
1
62
256
6
ByLayer
370
-1
48
1
60
0
100
AcDbCircle
39
0
10
78.840453
20
-6.671318
30
-0.488621
40
0.927770677953782
210
-0.00121797487008783
220
-0.0348782368720626
230
-0.999390827019096
100
AcDbArc
50
254.993653
51
255.006347
0
ARC
5
9C
100
AcDbEntity
8
1
62
256
6
ByLayer
370
-1
48
1
60
0
100
AcDbCircle
39
0
10
78.840453
20
-6.671318
30
-0.488621
40
0.927770677953782
210
-0.00121797487008783
220
-0.0348782368720626
230
-0.999390827019096
100
AcDbArc
50
224.889015
51
225.006347
0
ARC
5
9D
100
AcDbEntity
8
1
62
256
6
ByLayer
370
-1
48
1
60
0
100
AcDbCircle
39
0
10
-1.1975
20
-7.997466
30
0
40
0.1975
210
0
220
0
230
-1
100
AcDbArc
50
0
51
88.939887
0
ARC
5
9E
100
AcDbEntity
8
SK1
62
256
6
ByLayer
370
-1
48
1
60
0
100
AcDbCircle
39
0
10
-21.8
20
-7.7
30
0
40
0.2
210
0
220
0
230
1
100
AcDbArc
50
0
51
180
0
ARC
5
9F
100
AcDbEntity
8
1
62
256
6
ByLayer
370
-1
48
1
60
0
100
AcDbCircle
39
0
10
1.1975
20
7.997466
30
0
40
0.1975
210
0
220
0
230
1
100
AcDbArc
50
180
51
268.939887
0
ELLIPSE
5
A0
100
AcDbEntity
8
1
62
256
6
ByLayer
370
-1
48
1
60
0
100
AcDbEllipse
10
79.024986
20
3.908168
30
0
11
-1.62728302137307
21
0.0568259752933968
31
0
210
0
220
0
230
1
40
0.999391
41
0
42
6.28318530717959
0
ELLIPSE
5
A1
100
AcDbEntity
8
1
62
256
6
ByLayer
370
-1
48
1
60
0
100
AcDbEllipse
10
79.02578
20
3.930903
30
0
11
-1.09932990972126
21
0.0383894463652342
31
0
210
0
220
0
230
1
40
0.999391
41
0
42
6.28318530717959
0
ELLIPSE
5
A2
100
AcDbEntity
8
1
62
256
6
ByLayer
370
-1
48
1
60
0
100
AcDbEllipse
10
79.025592
20
3.925523
30
0
11
-1.64899486458078
21
0.0575841695801727
31
0
210
0
220
0
230
1
40
0.999391
41
0
42
6.28318530717959
0
ELLIPSE
5
A3
100
AcDbEntity
8
1
62
256
6
ByLayer
370
-1
48
1
60
0
100
AcDbEllipse
10
71.320807
20
0.065186
30
0
11
-3.72353926368805
21
6.45234989416793
31
0
210
0
220
0
230
1
40
0.215909
41
-0.0142852608977806
42
1.95119151171114
0
ELLIPSE
5
A4
100
AcDbEntity
8
1
62
256
6
ByLayer
370
-1
48
1
60
0
100
AcDbEllipse
10
69.457043
20
2.764942
30
0
11
-0.482959407942374
21
0.886812654746759
31
0
210
0
220
0
230
1
40
0.239915
41
-0.675176028483415
42
-0.0346817355526607
0
ELLIPSE
5
A5
100
AcDbEntity
8
1
62
256
6
ByLayer
370
-1
48
1
60
0
100
AcDbEllipse
10
70.236829
20
4.084256
30
0
11
1.05938840214481
21
0.563645467767686
31
0
210
0
220
0
230
1
40
0.030224
41
-2.89725187650765
42
-1.58825493748997
0
ELLIPSE
5
A6
100
AcDbEntity
8
1
62
256
6
ByLayer
370
-1
48
1
60
0
100
AcDbEllipse
10
69.457043
20
2.764942
30
0
11
-0.482959407936108
21
0.886812654732411
31
0
210
0
220
0
230
1
40
0.239915
41
-2.54751081016592
42
-0.675176028488008
0
ELLIPSE
5
A7
100
AcDbEntity
8
1
62
256
6
ByLayer
370
-1
48
1
60
0
100
AcDbEllipse
10
69.457043
20
2.764942
30
0
11
-0.482959407983586
21
0.886812654807647
31
0
210
0
220
0
230
1
40
0.239915
41
3.10691091803722
42
-2.54751081019257
0
ELLIPSE
5
A8
100
AcDbEntity
8
1
62
256
6
ByLayer
370
-1
48
1
60
0
100
AcDbEllipse
10
71.000146
20
2.64958
30
0
11
1.05938840217713
21
0.563645467785909
31
0
210
0
220
0
230
1
40
0.030224
41
-2.89725187650689
42
-1.58825493751913
0
ELLIPSE
5
A9
100
AcDbEntity
8
1
62
256
6
ByLayer
370
-1
48
1
60
0
100
AcDbEllipse
10
74.962662
20
4.515703
30
0
11
-0.999390908387815
21
0.0348969470998471
31
0
210
0
220
0
230
1
40
0.999391
41
-0.523601326924609
42
-0.350417784201726
0
ELLIPSE
5
AA
100
AcDbEntity
8
1
62
256
6
ByLayer
370
-1
48
1
60
0
100
AcDbEllipse
10
74.025847
20
4.016943
30
0
11
-0.874466973710737
21
0.0305370577582846
31
0
210
0
220
0
230
1
40
0.999391
41
-2.20387363102151
42
-1.5474890625341
0
ELLIPSE
5
AB
100
AcDbEntity
8
1
62
256
6
ByLayer
370
-1
48
1
60
0
100
AcDbEllipse
10
74.965281
20
4.590691
30
0
11
-0.999390959814644
21
0.0348953475480555
31
0
210
0
220
0
230
1
40
0.999391
41
-0.52360292745876
42
-0.350419384311748
0
ELLIPSE
5
AC
100
AcDbEntity
8
1
62
256
6
ByLayer
370
-1
48
1
60
0
100
AcDbEllipse
10
75.015652
20
4.600455
30
0
11
-0.999390827017085
21
0.0348994967634998
31
0
210
0
220
0
230
1
40
0.999391
41
-2.09439510233207
42
-0.523598775537344
0
ELLIPSE
5
AD
100
AcDbEntity
8
1
62
256
6
ByLayer
370
-1
48
1
60
0
100
AcDbEllipse
10
75.018271
20
4.675443
30
0
11
-0.999390827016158
21
0.0348994967959714
31
0
210
0
220
0
230
1
40
0.999391
41
-2.09439510229943
42
-0.523598775505134
0
ELLIPSE
5
AE
100
AcDbEntity
8
1
62
256
6
ByLayer
370
-1
48
1
60
0
100
AcDbEllipse
10
79.025555
20
3.924466
30
0
11
-1.54905578209238
21
0.0540942130112689
31
0
210
0
220
0
230
1
40
0.999391
41
-0.523598780039555
42
-4.43648791934587E-09
0
ELLIPSE
5
AF
100
AcDbEntity
8
1
62
256
6
ByLayer
370
-1
48
1
60
0
100
AcDbEllipse
10
79.025555
20
3.924466
30
0
11
-1.54905578187999
21
0.0540942198774929
31
0
210
0
220
0
230
1
40
0.999391
41
0
42
3.14159265358979
0
ELLIPSE
5
B0
100
AcDbEntity
8
1
62
256
6
ByLayer
370
-1
48
1
60
0
100
AcDbEllipse
10
79.02578
20
3.930903
30
0
11
-1.03441947550993
21
0.0361227237516843
31
0
210
0
220
0
230
1
40
0.999391
41
-0.531941689956028
42
0.523598919692262
0
ELLIPSE
5
B1
100
AcDbEntity
8
1
62
256
6
ByLayer
370
-1
48
1
60
0
100
AcDbEllipse
10
79.02578
20
3.930903
30
0
11
-1.03441947550554
21
0.0361227240776767
31
0
210
0
220
0
230
1
40
0.999391
41
0.523598920005193
42
2.62633679204338
0
ELLIPSE
5
B2
100
AcDbEntity
8
1
62
256
6
ByLayer
370
-1
48
1
60
0
100
AcDbEllipse
10
78.21843
20
3.471093
30
0
11
-0.113936411935323
21
0.214054892104651
31
0
210
0
220
0
230
1
40
0.502626
41
-0.11688223922472
42
0.633119900793068
0
ELLIPSE
5
B3
100
AcDbEntity
8
1
62
256
6
ByLayer
370
-1
48
1
60
0
100
AcDbEllipse
10
78.11209
20
3.931381
30
0
11
0.00846146026680679
21
0.242304519293311
31
0
210
0
220
0
230
1
40
0.481595
41
-3.02023555194944
42
-1.5707963267949
0
ELLIPSE
5
B4
100
AcDbEntity
8
1
62
256
6
ByLayer
370
-1
48
1
60
0
100
AcDbEllipse
10
79.02578
20
3.930903
30
0
11
-1.03441947550703
21
0.0361227240370917
31
0
210
0
220
0
230
1
40
0.999391
41
-2.61799402240714
42
-0.567384660633181
0
ELLIPSE
5
B5
100
AcDbEntity
8
1
62
256
6
ByLayer
370
-1
48
1
60
0
100
AcDbEllipse
10
78.251375
20
4.414521
30
0
11
0.120547021092564
21
0.211066251470244
31
0
210
0
220
0
230
1
40
0.500248
41
1.36360519250107
42
1.51558177681322
0
ELLIPSE
5
B6
100
AcDbEntity
8
1
62
256
6
ByLayer
370
-1
48
1
60
0
100
AcDbEllipse
10
78.250279
20
4.383131
30
0
11
0.120547022467922
21
0.211066255282365
31
0
210
0
220
0
230
1
40
0.500248
41
-0.215538537006821
42
2.29953101192022
0
ELLIPSE
5
B7
100
AcDbEntity
8
1
62
256
6
ByLayer
370
-1
48
1
60
0
100
AcDbEllipse
10
79.508563
20
4.673427
30
0
11
-0.205759479110195
21
0.128451861752848
31
0
210
0
220
0
230
1
40
0.481155
41
0.270710977587553
42
3.01990514410879
0
ELLIPSE
5
B8
100
AcDbEntity
8
1
62
256
6
ByLayer
370
-1
48
1
60
0
100
AcDbEllipse
10
79.830938
20
4.327933
30
0
11
-0.113936506606998
21
0.214054841798515
31
0
210
0
220
0
230
1
40
0.502626
41
-2.34056738856225
42
0.116172424686354
0
ELLIPSE
5
B9
100
AcDbEntity
8
1
62
256
6
ByLayer
370
-1
48
1
60
0
100
AcDbEllipse
10
79.02578
20
3.930903
30
0
11
-1.03441947552025
21
0.0361227237458503
31
0
210
0
220
0
230
1
40
0.999391
41
2.66177976269709
42
-2.61799402268944
0
ELLIPSE
5
BA
100
AcDbEntity
8
1
62
256
6
ByLayer
370
-1
48
1
60
0
100
AcDbEllipse
10
79.800185
20
3.447286
30
0
11
0.137042678225366
21
0.200760619631608
31
0
210
0
220
0
230
1
40
0.500206
41
-1.51487989733188
42
-1.36290329944093
0
ELLIPSE
5
BB
100
AcDbEntity
8
1
62
256
6
ByLayer
370
-1
48
1
60
0
100
AcDbEllipse
10
79.024684
20
3.899513
30
0
11
-0.790718022375535
21
0.0276124806462638
31
0
210
0
220
0
230
1
40
0.999391
41
2.23631562575123
42
3.14159265214339
0
ELLIPSE
5
BC
100
AcDbEntity
8
1
62
256
6
ByLayer
370
-1
48
1
60
0
100
AcDbEllipse
10
79.024684
20
3.899513
30
0
11
-0.790718022338113
21
0.0276124817734787
31
0
210
0
220
0
230
1
40
0.999391
41
3.14159265358979
42
0
0
ELLIPSE
5
BD
100
AcDbEntity
8
1
62
256
6
ByLayer
370
-1
48
1
60
0
100
AcDbEllipse
10
79.024684
20
3.899513
30
0
11
-0.790718022321321
21
0.0276124822151674
31
0
210
0
220
0
230
1
40
0.999391
41
5.36214032992559E-10
42
0.904948553064308
0
ELLIPSE
5
BE
100
AcDbEntity
8
1
62
256
6
ByLayer
370
-1
48
1
60
0
100
AcDbEllipse
10
74.025482
20
4.006479
30
0
11
-0.87446697363869
21
0.0305370597056408
31
0
210
0
220
0
230
1
40
0.999391
41
-2.1925188768734
42
-0.0489622630755634
0
ELLIPSE
5
BF
100
AcDbEntity
8
1
62
256
6
ByLayer
370
-1
48
1
60
0
100
AcDbEllipse
10
79.056533
20
4.811551
30
0
11
-0.24245221463482
21
0.00846661790001459
31
0
210
0
220
0
230
1
40
0.481008
41
-3.01617205750237
42
-0.127050690604762
0
ELLIPSE
5
C0
100
AcDbEntity
8
1
62
256
6
ByLayer
370
-1
48
1
60
0
100
AcDbEllipse
10
79.937278
20
3.867644
30
0
11
0.00846146026562496
21
0.242304519297338
31
0
210
0
220
0
230
1
40
0.481595
41
1.5707963267949
42
2.99150432516998
0
ELLIPSE
5
C1
100
AcDbEntity
8
1
62
256
6
ByLayer
370
-1
48
1
60
0
100
AcDbEllipse
10
74.028466
20
4.091931
30
0
11
-0.874466973640819
21
0.0305370596400552
31
0
210
0
220
0
230
1
40
0.999391
41
0
42
2.30064322836735
0
ELLIPSE
5
C2
100
AcDbEntity
8
1
62
256
6
ByLayer
370
-1
48
1
60
0
100
AcDbEllipse
10
74.028466
20
4.091931
30
0
11
-0.874466973629938
21
0.0305370599669594
31
0
210
0
220
0
230
1
40
0.999391
41
-1.5474890600065
42
4.0255648400799E-10
0
ELLIPSE
5
C3
100
AcDbEntity
8
1
62
256
6
ByLayer
370
-1
48
1
60
0
100
AcDbEllipse
10
79.02444
20
3.892537
30
0
11
-0.790718022337783
21
0.0276124817837164
31
0
210
0
220
0
230
1
40
0.999391
41
-3.13718191925782
42
-0.00441080062852435
0
ELLIPSE
5
C4
100
AcDbEntity
8
1
62
256
6
ByLayer
370
-1
48
1
60
0
100
AcDbEllipse
10
81.44816
20
-0.627766
30
0
11
-0.19987816539993
21
0.00697989945598189
31
0
210
0
220
0
230
1
40
0.999391
41
1.04719755177498
42
-3.14159265301305
0
ELLIPSE
5
C5
100
AcDbEntity
8
1
62
256
6
ByLayer
370
-1
48
1
60
0
100
AcDbEllipse
10
81.759881
20
8.29873
30
0
11
-0.199878165409448
21
0.00697989918460791
31
0
210
0
220
0
230
1
40
0.999391
41
3.14159265281101
42
-1.04719755197751
0
ELLIPSE
5
C6
100
AcDbEntity
8
1
62
256
6
ByLayer
370
-1
48
1
60
0
100
AcDbEllipse
10
73.868735
20
4.105604
30
0
11
-0.199878165405454
21
0.00697989931480373
31
0
210
0
220
0
230
1
40
0.999391
41
-1.04719755132306
42
1.04719755106592
0
ELLIPSE
5
C7
100
AcDbEntity
8
1
62
256
6
ByLayer
370
-1
48
1
60
0
100
AcDbEllipse
10
78.595969
20
4.705295
30
0
11
0.214218608282292
21
0.113785903771495
31
0
210
0
220
0
230
1
40
0.481155
41
-2.99544630241787
42
-0.270710977589008
0
ELLIPSE
5
C8
100
AcDbEntity
8
1
62
256
6
ByLayer
370
-1
48
1
60
0
100
AcDbEllipse
10
79.025555
20
3.924466
30
0
11
-1.54905578187985
21
0.054094219881843
31
0
210
0
220
0
230
1
40
0.999391
41
3.14159265358979
42
-0.523598775602856
0
ELLIPSE
5
C9
100
AcDbEntity
8
1
62
256
6
ByLayer
370
-1
48
1
60
0
100
AcDbEllipse
10
79.024684
20
3.899513
30
0
11
-1.54905578187937
21
0.0540942198951021
31
0
210
0
220
0
230
1
40
0.999391
41
0
42
3.14159265358979
0
ELLIPSE
5
CA
100
AcDbEntity
8
1
62
256
6
ByLayer
370
-1
48
1
60
0
100
AcDbEllipse
10
79.799089
20
3.415895
30
0
11
0.137042696429494
21
0.200760638581508
31
0
210
0
220
0
230
1
40
0.500206
41
-0.581166574985331
42
0.216240441733212
0
ELLIPSE
5
CB
100
AcDbEntity
8
1
62
256
6
ByLayer
370
-1
48
1
60
0
100
AcDbEllipse
10
79.024684
20
3.899513
30
0
11
-0.7907180223442
21
0.0276124815852306
31
0
210
0
220
0
230
1
40
0.999391
41
1.1677422204129
42
1.9736873464828
0
ELLIPSE
5
CC
100
AcDbEntity
8
1
62
256
6
ByLayer
370
-1
48
1
60
0
100
AcDbEllipse
10
79.024702
20
3.900021
30
0
11
-1.55766230827139
21
0.0543947669910481
31
0
210
0
220
0
230
1
40
0.999391
41
-0.363494719389273
42
1.04719755156749
0
ELLIPSE
5
CD
100
AcDbEntity
8
1
62
256
6
ByLayer
370
-1
48
1
60
0
100
AcDbEllipse
10
79.024702
20
3.900021
30
0
11
-1.55766230829105
21
0.054394766470715
31
0
210
0
220
0
230
1
40
0.999391
41
1.04719755123313
42
-2.77824582612242
0
ELLIPSE
5
CE
100
AcDbEntity
8
1
62
256
6
ByLayer
370
-1
48
1
60
0
100
AcDbEllipse
10
78.540805
20
3.125599
30
0
11
-0.205759472673324
21
0.128451858669593
31
0
210
0
220
0
230
1
40
0.481155
41
-2.98859304964215
42
-2.87088167045444
0
ELLIPSE
5
CF
100
AcDbEntity
8
1
62
256
6
ByLayer
370
-1
48
1
60
0
100
AcDbEllipse
10
78.992781
20
2.987481
30
0
11
-0.242398911897104
21
0.00846013872952885
31
0
210
0
220
0
230
1
40
0.48106
41
-0.145841135394768
42
-0.12850092852523
0
ELLIPSE
5
D0
100
AcDbEntity
8
1
62
256
6
ByLayer
370
-1
48
1
60
0
100
AcDbEllipse
10
79.453399
20
3.093731
30
0
11
0.214218630787936
21
0.113785912273033
31
0
210
0
220
0
230
1
40
0.481155
41
2.87088169537514
42
2.98859306690059
0
ELLIPSE
5
D1
100
AcDbEntity
8
1
62
256
6
ByLayer
370
-1
48
1
60
0
100
AcDbEllipse
10
69.457043
20
2.764942
30
0
11
-0.482959407936457
21
0.886812654733162
31
0
210
0
220
0
230
1
40
0.239915
41
-0.0346817355530638
42
3.1069109180367
0
ELLIPSE
5
D2
100
AcDbEntity
8
1
62
256
6
ByLayer
370
-1
48
1
60
0
100
AcDbEllipse
10
78.992921
20
2.987478
30
0
11
-0.242366451582538
21
0.00847106750131007
31
0
210
0
220
0
230
1
40
0.481091
41
-3.01377996951137
42
-2.99573630148112
0
POINT
5
42
100
AcDbEntity
8
80
62
256
6
ByLayer
370
-1
48
1
60
0
100
AcDbPoint
10
0
20
0
30
0
39
0
210
0
220
0
230
1
50
360
0
POINT
5
44
100
AcDbEntity
8
2
62
256
6
ByLayer
370
-1
48
1
60
0
100
AcDbPoint
10
2
20
0
30
0
39
0
210
0
220
0
230
1
50
360
0
POINT
5
46
100
AcDbEntity
8
81
62
256
6
ByLayer
370
-1
48
1
60
0
100
AcDbPoint
10
82
20
8.5
30
0
39
0
210
0
220
0
230
1
50
360
0
SPLINE
5
D3
100
AcDbEntity
8
1
62
256
6
ByLayer
370
-1
48
1
60
0
100
AcDbSpline
70
4
71
3
72
45
73
41
40
0
40
0
40
0
40
0
40
0.0223931158972119
40
0.0447958148670267
40
0.0672018026161608
40
0.0896046668205035
40
0.111997921360902
40
0.13438924349389
40
0.156789736012256
40
0.179193486375027
40
0.201594347293792
40
0.223985978534691
40
0.24769046058402
40
0.271405026292884
40
0.295123292152896
40
0.318838485417539
40
0.342543494028954
40
0.370525053620526
40
0.398516785944524
40
0.426508992783599
40
0.454491199674436
40
0.482467845995123
40
0.510453628033418
40
0.53843987136805
40
0.566417146932731
40
0.595651881430385
40
0.624895914138675
40
0.654140441285064
40
0.683375850228788
40
0.713785605759286
40
0.744204668588329
40
0.774624220245712
40
0.805034642562397
40
0.835439737214259
40
0.86585315352573
40
0.896266963231858
40
0.926672594476545
40
0.958220237667218
40
0.989776295589084
40
1
40
1
40
1
40
1
41
1
10
67.6175475938207
20
6.52836125221443
30
0
41
1
10
67.6191912789786
20
6.52916978531382
30
0
41
1
10
67.6226532349413
20
6.53075474901952
30
0
41
1
10
67.6283711240734
20
6.53303492375727
30
0
41
1
10
67.6346068689872
20
6.53521836652344
30
0
41
1
10
67.6413546322104
20
6.53730467928744
30
0
41
1
10
67.6486093978168
20
6.53929392111193
30
0
41
1
10
67.6563686696644
20
6.54118661707885
30
0
41
1
10
67.6646252644363
20
6.54298446856049
30
0
41
1
10
67.6733713776066
20
6.54468860319589
30
0
41
1
10
67.682597212879
20
6.54629970337829
30
0
41
1
10
67.6924847827427
20
6.54784846492777
30
0
41
1
10
67.7030620758965
20
6.5493299287386
30
0
41
1
10
67.7143519976157
20
6.55074023894396
30
0
41
1
10
67.7261438433978
20
6.55205364536057
30
0
41
1
10
67.7384233240329
20
6.55327194614792
30
0
41
1
10
67.7519463783221
20
6.55446481925556
30
0
41
1
10
67.7668093392632
20
6.55561455535434
30
0
41
1
10
67.7831035170067
20
6.5567043863906
30
0
41
1
10
67.8000095326851
20
6.55767682313354
30
0
41
1
10
67.8175052649528
20
6.5585359794281
30
0
41
1
10
67.8355744733173
20
6.55928622282744
30
0
41
1
10
67.8541979894747
20
6.55993253791195
30
0
41
1
10
67.8733553397584
20
6.56047954616143
30
0
41
1
10
67.893320264311
20
6.56093855237991
30
0
41
1
10
67.9141034898311
20
6.56130937237725
30
0
41
1
10
67.9357113932712
20
6.56159257495814
30
0
41
1
10
67.9578182853926
20
6.56178795865196
30
0
41
1
10
67.9807039020916
20
6.56190217774877
30
0
41
1
10
68.0043731621577
20
6.56193670328652
30
0
41
1
10
68.0288275193685
20
6.56189342210358
30
0
41
1
10
68.0537342619047
20
6.5617773395365
30
0
41
1
10
68.0790686550709
20
6.5615938831427
30
0
41
1
10
68.1048130553636
20
6.56134841427082
30
0
41
1
10
68.1309496116365
20
6.561045865429
30
0
41
1
10
68.1574581869301
20
6.56069107603592
30
0
41
1
10
68.1846541846855
20
6.56028384145302
30
0
41
1
10
68.2125368523845
20
6.55982697841928
30
0
41
1
10
68.2346669905814
20
6.55943681356511
30
0
41
1
10
68.2473688844016
20
6.55920371341698
30
0
41
1
10
68.2504828424504
20
6.55914599430197
30
0
0
SPLINE
5
D4
100
AcDbEntity
8
1
62
256
6
ByLayer
370
-1
48
1
60
0
100
AcDbSpline
70
4
71
1
72
4
73
2
40
0
40
0
40
1
40
1
41
1
10
71.4097750165315
20
6.49901222285321
30
0
41
1
10
68.9036360118001
20
6.54543124137851
30
0
0
SPLINE
5
D5
100
AcDbEntity
8
1
62
256
6
ByLayer
370
-1
48
1
60
0
100
AcDbSpline
70
4
71
3
72
30
73
26
40
0
40
0
40
0
40
0
40
0.0320434531542497
40
0.0794302774056092
40
0.122660251350687
40
0.165903241331832
40
0.209150971823687
40
0.252394709772307
40
0.295625311234562
40
0.33885077534953
40
0.382088371257558
40
0.425330279700354
40
0.468568373191962
40
0.511794254752441
40
0.556757193224472
40
0.601733150836344
40
0.646713635346987
40
0.69168993517995
40
0.736653160759352
40
0.780472103251489
40
0.824294994144106
40
0.868113973808712
40
0.912074663026461
40
0.956039293968027
40
1
40
1
40
1
40
1
41
1
10
68.2504828424504
20
6.55914599430197
30
0
41
1
10
68.2569813136041
20
6.55902557101706
30
0
41
1
10
68.2731464355288
20
6.55872119921879
30
0
41
1
10
68.2983319005475
20
6.5582270717208
30
0
41
1
10
68.3260734872321
20
6.55766334692555
30
0
41
1
10
68.3531822786298
20
6.5570969446864
30
0
41
1
10
68.3805055665956
20
6.5565132708502
30
0
41
1
10
68.4080253098898
20
6.55591521846458
30
0
41
1
10
68.435727093778
20
6.55530562481932
30
0
41
1
10
68.4636024324304
20
6.55468719202328
30
0
41
1
10
68.491643013653
20
6.5540619448545
30
0
41
1
10
68.5198374876023
20
6.55343196330171
30
0
41
1
10
68.5481691841651
20
6.55279944881107
30
0
41
1
10
68.5770071325811
20
6.55215801724708
30
0
41
1
10
68.6063497879428
20
6.55150975245215
30
0
41
1
10
68.6361940598968
20
6.55085621563719
30
0
41
1
10
68.6661442049745
20
6.55020742544419
30
0
41
1
10
68.6961825163801
20
6.54956504194447
30
0
41
1
10
68.7260408291732
20
6.54893604771389
30
0
41
1
10
68.7557072667405
20
6.54832153940238
30
0
41
1
10
68.7851711304629
20
6.5477219017224
30
0
41
1
10
68.8147096626485
20
6.54713207181524
30
0
41
1
10
68.8443121239829
20
6.54655294276894
30
0
41
1
10
68.8739690654268
20
6.54598492502931
30
0
41
1
10
68.8937459027957
20
6.54561445041892
30
0
41
1
10
68.9036360118001
20
6.54543124137852
30
0
0
SPLINE
5
D6
100
AcDbEntity
8
1
62
256
6
ByLayer
370
-1
48
1
60
0
100
AcDbSpline
70
4
71
3
72
23
73
19
40
0
40
0
40
0
40
0
40
0.0330450720228297
40
0.0848030213173554
40
0.136540425748454
40
0.177718928569202
40
0.218898126422841
40
0.260207540547556
40
0.301517446534037
40
0.381444119203727
40
0.461375017395711
40
0.541879896007911
40
0.622387106701244
40
0.702275750237594
40
0.782165572970755
40
0.862439733956624
40
0.942714385599754
40
1
40
1
40
1
40
1
41
1
10
78.0629331245884
20
3.62591794502167
30
0
41
1
10
78.0628628122919
20
3.62387269683884
30
0
41
1
10
78.0627541008554
20
3.61861792597221
30
0
41
1
10
78.0628873192388
20
3.6101238493394
30
0
41
1
10
78.0633865840289
20
3.60110884677835
30
0
41
1
10
78.0641250167502
20
3.59275301254038
30
0
41
1
10
78.0650189114806
20
3.58505406830427
30
0
41
1
10
78.0661148925177
20
3.57736006581698
30
0
41
1
10
78.067805080947
20
3.56728214925015
30
0
41
1
10
78.0703288467142
20
3.55486230461397
30
0
41
1
10
78.0739681118353
20
3.54013446034408
30
0
41
1
10
78.0781929347963
20
3.52550182119261
30
0
41
1
10
78.082959001904
20
3.51101995357517
30
0
41
1
10
78.0882176348944
20
3.49673564451069
30
0
41
1
10
78.0939502048954
20
3.48263795736224
30
0
41
1
10
78.100151075087
20
3.46870303172393
30
0
41
1
10
78.1061734255411
20
3.45625719279867
30
0
41
1
10
78.1101874929537
20
3.44850314051382
30
0
41
1
10
78.1118962056072
20
3.44529177227242
30
0
0
SPLINE
5
D7
100
AcDbEntity
8
1
62
256
6
ByLayer
370
-1
48
1
60
0
100
AcDbSpline
70
4
71
3
72
38
73
34
40
0
40
0
40
0
40
0
40
0.0524296133893323
40
0.1048763125898
40
0.157304522177759
40
0.205219390115685
40
0.253168089392622
40
0.301110097598596
40
0.349015834673524
40
0.396833665655212
40
0.444648471452235
40
0.476546445902143
40
0.508453984954597
40
0.540347819862956
40
0.572287718574592
40
0.604242983087316
40
0.636174048253963
40
0.662159619082607
40
0.688160034524616
40
0.714137670572663
40
0.738858167940225
40
0.763683837111274
40
0.788515828522304
40
0.813284663269304
40
0.83795729871928
40
0.859465007444854
40
0.881046711393362
40
0.902620179801211
40
0.924116618804708
40
0.943058192360833
40
0.962053030906234
40
0.9810523287493
40
1
40
1
40
1
40
1
41
1
10
78.1118962056072
20
3.44529177227242
30
0
41
1
10
78.1145102316989
20
3.44037704941581
30
0
41
1
10
78.1199065327089
20
3.43064256088387
30
0
41
1
10
78.1285043987437
20
3.41632042840318
30
0
41
1
10
78.137340046644
20
3.4027121570863
30
0
41
1
10
78.1463614966038
20
3.38980605820949
30
0
41
1
10
78.1555293303791
20
3.37759752712863
30
0
41
1
10
78.1651238039534
20
3.3657294832098
30
0
41
1
10
78.1751420667939
20
3.3542468893646
30
0
41
1
10
78.1855896587009
20
3.34318965814193
30
0
41
1
10
78.1952764601616
20
3.33378714225808
30
0
41
1
10
78.2040549426295
20
3.3259090413257
30
0
41
1
10
78.2117931988949
20
3.31942192075278
30
0
41
1
10
78.2197503691388
20
3.31322962327184
30
0
41
1
10
78.2279287229525
20
3.30736486915966
30
0
41
1
10
78.2363304328088
20
3.30187344071574
30
0
41
1
10
78.2444155027098
20
3.29712268556422
30
0
41
1
10
78.2521326071917
20
3.29307068691145
30
0
41
1
10
78.2594369177658
20
3.28966591288713
30
0
41
1
10
78.2667440856334
20
3.28671019145458
30
0
41
1
10
78.2740426486349
20
3.28423284372033
30
0
41
1
10
78.2813077080965
20
3.28225292676866
30
0
41
1
10
78.2886251774796
20
3.28077329076508
30
0
41
1
10
78.2959379904213
20
3.27984973484213
30
0
41
1
10
78.3028884758146
20
3.27954830398593
30
0
41
1
10
78.3094390766771
20
3.2798381228451
30
0
41
1
10
78.3155694110285
20
3.28063217719587
30
0
41
1
10
78.3215338275584
20
3.28194685145754
30
0
41
1
10
78.3270484493291
20
3.28371868059362
30
0
41
1
10
78.3320965443943
20
3.28588713956031
30
0
41
1
10
78.3367010577623
20
3.28835286948586
30
0
41
1
10
78.3410580499309
20
3.29118447292077
30
0
41
1
10
78.3437783264864
20
3.29329635676791
30
0
41
1
10
78.3450924305754
20
3.29440846127685
30
0
0
SPLINE
5
D8
100
AcDbEntity
8
1
62
256
6
ByLayer
370
-1
48
1
60
0
100
AcDbSpline
70
4
71
3
72
38
73
34
40
0
40
0
40
0
40
0
40
0.0559836129700726
40
0.111985429374689
40
0.167964279444201
40
0.209988725131195
40
0.252038420851749
40
0.294081793224531
40
0.336097610746904
40
0.375527640997642
40
0.414972544936272
40
0.454394874606996
40
0.485657440787838
40
0.517020524586984
40
0.548406085723008
40
0.579756621111599
40
0.611038759010737
40
0.642247210776842
40
0.670486709118269
40
0.698803502699317
40
0.727094617585395
40
0.755298997764378
40
0.778106721233192
40
0.80102478883653
40
0.823969305601745
40
0.846865910950919
40
0.869655548030245
40
0.893863053716073
40
0.918158015160157
40
0.942464105976611
40
0.966686841605499
40
0.983343109278619
40
1
40
1
40
1
40
1
41
1
10
78.172845905807
20
4.51695370380953
30
0
41
1
10
78.1759206013437
20
4.52122955473318
30
0
41
1
10
78.1822180551432
20
4.52966341388576
30
0
41
1
10
78.1921016988263
20
4.54197153652797
30
0
41
1
10
78.2015739373043
20
4.55289924416885
30
0
41
1
10
78.2105160979628
20
4.56252627912079
30
0
41
1
10
78.2188290857783
20
4.57093141799331
30
0
41
1
10
78.2274084762421
20
4.57904445299514
30
0
41
1
10
78.2360756710399
20
4.58667435957433
30
0
41
1
10
78.2448159106483
20
4.59381418569455
30
0
41
1
10
78.2536180012084
20
4.60044846444214
30
0
41
1
10
78.2620483155347
20
4.60625511131491
30
0
41
1
10
78.2700548390693
20
4.61129115237434
30
0
41
1
10
78.2775905446389
20
4.61561700969197
30
0
41
1
10
78.2852915848598
20
4.61959270913656
30
0
41
1
10
78.293138681445
20
4.62316657178447
30
0
41
1
10
78.3011127099226
20
4.62628553543113
30
0
41
1
10
78.3089420682578
20
4.6288187892461
30
0
41
1
10
78.3166034269743
20
4.63076326917813
30
0
41
1
10
78.3240630125808
20
4.63212696439252
30
0
41
1
10
78.3315344260356
20
4.63292442671632
30
0
41
1
10
78.3384911288716
20
4.63309077842075
30
0
41
1
10
78.3448975967086
20
4.63269294815383
30
0
41
1
10
78.3507457656348
20
4.63185533761348
30
0
41
1
10
78.3564628084228
20
4.63055107660195
30
0
41
1
10
78.3619904403107
20
4.62877861853375
30
0
41
1
10
78.3673903181081
20
4.62648394354244
30
0
41
1
10
78.3726017097283
20
4.62362327554408
30
0
41
1
10
78.3775913738039
20
4.62021656887952
30
0
41
1
10
78.3822290617518
20
4.61636759725741
30
0
41
1
10
78.3860444998157
20
4.61255959346744
30
0
41
1
10
78.3891497280604
20
4.60895269157611
30
0
41
1
10
78.3908295308177
20
4.60676569302469
30
0
41
1
10
78.3916394396912
20
4.60564607441612
30
0
0
SPLINE
5
D9
100
AcDbEntity
8
1
62
256
6
ByLayer
370
-1
48
1
60
0
100
AcDbSpline
70
4
71
3
72
12
73
8
40
0
40
0
40
0
40
0
40
0.250076431224604
40
0.250076431224604
40
0.500152862445569
40
0.500152862445569
40
1
40
1
40
1
40
1
41
1
10
78.3906187009256
20
4.57641594058881
30
0
41
1
10
78.3907343169952
20
4.57652410770118
30
0
41
1
10
78.3908499607655
20
4.57663224521275
30
0
41
1
10
78.3910813036621
20
4.57684846099179
30
0
41
1
10
78.391197002796
20
4.57695653926636
30
0
41
1
10
78.3915440416843
20
4.57728055306807
30
0
41
1
10
78.3917754643375
20
4.57749639987398
30
0
41
1
10
78.3920069973699
20
4.57771212815305
30
0
0
SPLINE
5
DA
100
AcDbEntity
8
1
62
256
6
ByLayer
370
-1
48
1
60
0
100
AcDbSpline
70
4
71
3
72
57
73
53
40
0
40
0
40
0
40
0
40
0.0061330217800077
40
0.0189311053315863
40
0.0353738003396614
40
0.0518635170989321
40
0.0683869433554082
40
0.0849098130252708
40
0.101380397596362
40
0.118102921537296
40
0.134841855257639
40
0.151584795862578
40
0.168312788859096
40
0.190571698068057
40
0.212843820371024
40
0.235106014872229
40
0.257347880104985
40
0.279599074042105
40
0.301842427307943
40
0.328097691891584
40
0.354376386279914
40
0.38065681378135
40
0.406914443781557
40
0.433158913277462
40
0.459424484774425
40
0.485690304907705
40
0.511935113725174
40
0.538181875389516
40
0.564450207391789
40
0.590717631178137
40
0.616963153340611
40
0.641503236402579
40
0.666063910914295
40
0.690622170857808
40
0.715158958504666
40
0.735478647725884
40
0.755814497235685
40
0.776147165024065
40
0.796462511959401
40
0.817480345586495
40
0.838510131840392
40
0.859522044637965
40
0.875622400436563
40
0.891731817096411
40
0.907827528303256
40
0.920406859977771
40
0.932993552219301
40
0.945569510274904
40
0.959164900436795
40
0.972799935269511
40
0.986422148248113
40
1
40
1
40
1
40
1
41
1
10
78.8180368047926
20
4.81629740577651
30
0
41
1
10
78.8179992678184
20
4.81528388686264
30
0
41
1
10
78.8178291680182
20
4.8121564371229
30
0
41
1
10
78.8171918506412
20
4.80630975541685
30
0
41
1
10
78.8157630569005
20
4.7987891771478
30
0
41
1
10
78.8135771201242
20
4.79073891846279
30
0
41
1
10
78.8108130994264
20
4.78278533329557
30
0
41
1
10
78.8075430662356
20
4.77496075178928
30
0
41
1
10
78.8038091502431
20
4.76724036400071
30
0
41
1
10
78.7996538912545
20
4.75962795296867
30
0
41
1
10
78.7951039249367
20
4.75212211972601
30
0
41
1
10
78.7902162540443
20
4.74476540676567
30
0
41
1
10
78.7844530409212
20
4.73676564033508
30
0
41
1
10
78.7777246365713
20
4.72818076366115
30
0
41
1
10
78.769947483101
20
4.71908180012814
30
0
41
1
10
78.7617759571537
20
4.71024324756793
30
0
41
1
10
78.753250059179
20
4.70166111611466
30
0
41
1
10
78.7443993762289
20
4.69333489612078
30
0
41
1
10
78.7346990892218
20
4.68477549670735
30
0
41
1
10
78.7241112924032
20
4.67603435817909
30
0
41
1
10
78.7126032021358
20
4.66717339699692
30
0
41
1
10
78.7007764706103
20
4.65866738066387
30
0
41
1
10
78.6886653288689
20
4.65052315264477
30
0
41
1
10
78.6762931309498
20
4.64274267457247
30
0
41
1
10
78.6636791361442
20
4.63533207802527
30
0
41
1
10
78.650846540441
20
4.62830097404995
30
0
41
1
10
78.6378196125167
20
4.62166083013785
30
0
41
1
10
78.6246155380845
20
4.61542068021441
30
0
41
1
10
78.6112496944936
20
4.60959376501
30
0
41
1
10
78.5977447281839
20
4.60419843139147
30
0
41
1
10
78.5844182592635
20
4.59936112803745
30
0
41
1
10
78.5712942677629
20
4.5950645487893
30
0
41
1
10
78.5583912734357
20
4.59129550603425
30
0
41
1
10
78.5454322739192
20
4.58798279876105
30
0
41
1
10
78.5331830147402
20
4.58531572132952
30
0
41
1
10
78.5216648590345
20
4.58322403823251
30
0
41
1
10
78.5108891188042
20
4.58164124036878
30
0
41
1
10
78.5001283347403
20
4.58045904589916
30
0
41
1
10
78.489279043163
20
4.57969658128439
30
0
41
1
10
78.4783607639811
20
4.57940120678617
30
0
41
1
10
78.467403889408
20
4.57964092899643
30
0
41
1
10
78.4574109354969
20
4.58040669187506
30
0
41
1
10
78.4483871279642
20
4.58158929802147
30
0
41
1
10
78.4403203837235
20
4.58307717858902
30
0
41
1
10
78.4329867348085
20
4.58487413245834
30
0
41
1
10
78.4263808950353
20
4.58690080249757
30
0
41
1
10
78.4204838019424
20
4.58907436420655
30
0
41
1
10
78.4146062583702
20
4.59165495315252
30
0
41
1
10
78.4088000927829
20
4.59470731945708
30
0
41
1
10
78.4031383609835
20
4.59828956873219
30
0
41
1
10
78.3978232957874
20
4.60233515999908
30
0
41
1
10
78.3945790354874
20
4.60535508064219
30
0
41
1
10
78.3930277361407
20
4.6069422619752
30
0
0
SPLINE
5
DB
100
AcDbEntity
8
1
62
256
6
ByLayer
370
-1
48
1
60
0
100
AcDbSpline
70
4
71
3
72
10
73
6
40
0
40
0
40
0
40
0
40
0.361846037531149
40
0.725305833112439
40
1
40
1
40
1
40
1
41
1
10
78.7545680398188
20
3.04202714084227
30
0
41
1
10
78.7538945464946
20
3.04010485567859
30
0
41
1
10
78.7527572260341
20
3.03620222611613
30
0
41
1
10
78.751777819455
20
3.03065628400308
30
0
41
1
10
78.7514817814008
20
3.02707228032173
30
0
41
1
10
78.7514154098795
20
3.02551800882171
30
0
0
SPLINE
5
DC
100
AcDbEntity
8
1
62
256
6
ByLayer
370
-1
48
1
60
0
100
AcDbSpline
70
4
71
3
72
10
73
6
40
0
40
0
40
0
40
0
40
0.395708115403759
40
0.792578425028715
40
1
40
1
40
1
40
1
41
1
10
78.754371479055
20
3.04208720276589
30
0
41
1
10
78.754898607235
20
3.04403676459773
30
0
41
1
10
78.7557718864184
20
3.04797681726569
30
0
41
1
10
78.7563869271702
20
3.0530584616401
30
0
41
1
10
78.7565695503474
20
3.05615046485745
30
0
41
1
10
78.7566083170414
20
3.05721567174773
30
0
0
SPLINE
5
DD
100
AcDbEntity
8
1
62
256
6
ByLayer
370
-1
48
1
60
0
100
AcDbSpline
70
4
71
3
72
58
73
54
40
0
40
0
40
0
40
0
40
0.0060958901572021
40
0.0188164892924899
40
0.0351596340343517
40
0.0515495158400044
40
0.0679729030528759
40
0.0843957370489576
40
0.100766602499891
40
0.117387881984878
40
0.134025471898309
40
0.150667044437133
40
0.167293759866026
40
0.189417905258171
40
0.211555183747325
40
0.233682594541357
40
0.255789799147954
40
0.277906275979443
40
0.300014959610053
40
0.32211435699573
40
0.344221268730799
40
0.366321361157396
40
0.393239050341283
40
0.420180266597424
40
0.447122224209782
40
0.474040925212433
40
0.500956699343413
40
0.52789556975342
40
0.554833881645392
40
0.581748893504565
40
0.607012670988556
40
0.632297786576926
40
0.657580930553785
40
0.682842017167574
40
0.704424743199685
40
0.726024930804816
40
0.74762206684057
40
0.769200628167386
40
0.791838590264095
40
0.814489647194337
40
0.837121433641923
40
0.854447785862221
40
0.871783854459938
40
0.889105188220641
40
0.902533335465027
40
0.915969221881859
40
0.929393653116483
40
0.941208617558903
40
0.95306291858035
40
0.964920423210058
40
0.976755227659746
40
0.988553787800247
40
1
40
1
40
1
40
1
41
1
10
78.7566083170414
20
3.05721567174773
30
0
41
1
10
78.7566402202438
20
3.05819065931863
30
0
41
1
10
78.7566845445564
20
3.06120351278356
30
0
41
1
10
78.7564489701876
20
3.06686124561375
30
0
41
1
10
78.7555386256756
20
3.07418711077469
30
0
41
1
10
78.7539094857618
20
3.08208142806963
30
0
41
1
10
78.7516972742896
20
3.0899295916484
30
0
41
1
10
78.7489716623543
20
3.09769519511222
30
0
41
1
10
78.745776372088
20
3.10539903004122
30
0
41
1
10
78.742153579436
20
3.11303445988855
30
0
41
1
10
78.7381299514665
20
3.12060098490663
30
0
41
1
10
78.7337594306967
20
3.12805351382285
30
0
41
1
10
78.728559917856
20
3.13619601153522
30
0
41
1
10
78.72243809885
20
3.14498146599523
30
0
41
1
10
78.7153058496631
20
3.1543501464871
30
0
41
1
10
78.707762708025
20
3.1635061601355
30
0
41
1
10
78.6998488530523
20
3.17245066959075
30
0
41
1
10
78.6915938381479
20
3.18118206672005
30
0
41
1
10
78.6830242920657
20
3.18970130049277
30
0
41
1
10
78.674165554245
20
3.19800800179686
30
0
41
1
10
78.6650379860444
20
3.206099494281
30
0
41
1
10
78.6549783570512
20
3.21454647139927
30
0
41
1
10
78.6439388369106
20
3.22328980056842
30
0
41
1
10
78.6318781544068
20
3.23225677881692
30
0
41
1
10
78.6195254914641
20
3.24088094317535
30
0
41
1
10
78.6069095613388
20
3.24914974445442
30
0
41
1
10
78.5940502704912
20
3.25705465542242
30
0
41
1
10
78.580964673014
20
3.2645826241756
30
0
41
1
10
78.5676761128462
20
3.27171514533353
30
0
41
1
10
78.5544836249695
20
3.27829501477373
30
0
41
1
10
78.541415688597
20
3.2843353954209
30
0
41
1
10
78.5284943796881
20
3.28984621090111
30
0
41
1
10
78.5154603836239
20
3.29493042065572
30
0
41
1
10
78.5029709436934
20
3.29933621371079
30
0
41
1
10
78.4910546218948
20
3.30311560509415
30
0
41
1
10
78.4797302515159
20
3.30631793586628
30
0
41
1
10
78.4683736002221
20
3.30911756685668
30
0
41
1
10
78.4568172100717
20
3.31152330671739
30
0
41
1
10
78.4450762176939
20
3.3134781964696
30
0
41
1
10
78.4331754638474
20
3.31490037891905
30
0
41
1
10
78.4222578961586
20
3.3156373120083
30
0
41
1
10
78.4123420245928
20
3.31580051607984
30
0
41
1
10
78.4034279435454
20
3.3155051507203
30
0
41
1
10
78.3952875835315
20
3.31478185251322
30
0
41
1
10
78.3879238662033
20
3.3137155216435
30
0
41
1
10
78.3813254350016
20
3.31239571544453
30
0
41
1
10
78.3751291364941
20
3.31077007399688
30
0
41
1
10
78.369342665126
20
3.30885823675771
30
0
41
1
10
78.363968735611
20
3.30669165233722
30
0
41
1
10
78.358790874535
20
3.30417212738297
30
0
41
1
10
78.3538588252369
20
3.30128723544049
30
0
41
1
10
78.3492588686624
20
3.29805258785967
30
0
41
1
10
78.3464333510835
20
3.29565219316712
30
0
41
1
10
78.3450924305754
20
3.29440846127687
30
0
0
SPLINE
5
DE
100
AcDbEntity
8
1
62
256
6
ByLayer
370
-1
48
1
60
0
100
AcDbSpline
70
4
71
3
72
10
73
6
40
0
40
0
40
0
40
0
40
0.361846037530833
40
0.725305833112443
40
1
40
1
40
1
40
1
41
1
10
78.8170826930736
20
4.83221258533898
30
0
41
1
10
78.8165478525871
20
4.83426079795564
30
0
41
1
10
78.8156913694192
20
4.83840029623285
30
0
41
1
10
78.8151092353827
20
4.84423075127422
30
0
41
1
10
78.8150689721638
20
4.84797118056147
30
0
41
1
10
78.8151133456144
20
4.84958823012686
30
0
0
SPLINE
5
DF
100
AcDbEntity
8
1
62
256
6
ByLayer
370
-1
48
1
60
0
100
AcDbSpline
70
4
71
3
72
59
73
55
40
0
40
0
40
0
40
0
40
0.0125846221076864
40
0.0252154227509577
40
0.0378572084704173
40
0.0504568627543317
40
0.0644620935934433
40
0.0785081758034451
40
0.0925823632679513
40
0.106655077711611
40
0.120682713731996
40
0.139366365081222
40
0.15806924567607
40
0.176759915341125
40
0.195407654259671
40
0.214066325575868
40
0.232717114466704
40
0.251348731149783
40
0.269987652977059
40
0.288620731612616
40
0.312716318155745
40
0.336833660934961
40
0.360953664228597
40
0.385052881948397
40
0.409130064635542
40
0.433225044654295
40
0.457320847631039
40
0.481399153356127
40
0.5054717897778
40
0.529561241083386
40
0.553650660025275
40
0.577723252283772
40
0.601799866756864
40
0.625894127061068
40
0.649987463709676
40
0.674062817720538
40
0.697641784552054
40
0.72124062520797
40
0.744836814787161
40
0.76841216339253
40
0.787471119893098
40
0.806545046505686
40
0.825615850339246
40
0.844670545032351
40
0.864301627392586
40
0.88394380223733
40
0.903569276443012
40
0.918851259320347
40
0.934204301692113
40
0.949573244609917
40
0.96491716801521
40
0.980212351275638
40
0.995455606000175
40
1
40
1
40
1
40
1
41
1
10
79.6644596193644
20
3.24363382553978
30
0
41
1
10
79.6632354373478
20
3.24526518008751
30
0
41
1
10
79.6606293989909
20
3.24839168300216
30
0
41
1
10
79.656223903171
20
3.25265672023493
30
0
41
1
10
79.6514189027439
20
3.25649696319321
30
0
41
1
10
79.6460732769104
20
3.26003529364069
30
0
41
1
10
79.6401945552888
20
3.26322737162584
30
0
41
1
10
79.6338026968545
20
3.26605785950914
30
0
41
1
10
79.6271534683964
20
3.26844355766145
30
0
41
1
10
79.6203066661109
20
3.27041233919377
30
0
41
1
10
79.6125307229165
20
3.272168398717
30
0
41
1
10
79.6037965492783
20
3.27359333164487
30
0
41
1
10
79.59409399129
20
3.2745767219238
30
0
41
1
10
79.5842649897294
20
3.27504191556065
30
0
41
1
10
79.5743460813851
20
3.27503999947511
30
0
41
1
10
79.5643629447435
20
3.27460679994657
30
0
41
1
10
79.554333224992
20
3.27377653857063
30
0
41
1
10
79.544275154344
20
3.2725808524189
30
0
41
1
10
79.534203100933
20
3.27104235013122
30
0
41
1
10
79.5231418608637
20
3.26900041051731
30
0
41
1
10
79.5111007930362
20
3.26636360350598
30
0
41
1
10
79.4981031919908
20
3.26303825789403
30
0
41
1
10
79.4851554630927
20
3.25926864243193
30
0
41
1
10
79.4722821347166
20
3.25508404865956
30
0
41
1
10
79.4594956291523
20
3.25050751186471
30
0
41
1
10
79.4468085242527
20
3.24555430773651
30
0
41
1
10
79.434235562478
20
3.24024008188823
30
0
41
1
10
79.4217959157733
20
3.23458129923201
30
0
41
1
10
79.4095019068105
20
3.2285900882019
30
0
41
1
10
79.3973670840508
20
3.22227482472679
30
0
41
1
10
79.3854100240413
20
3.21564551283465
30
0
41
1
10
79.3736499660585
20
3.20871167422021
30
0
41
1
10
79.3621017623914
20
3.20147947597346
30
0
41
1
10
79.350782751179
20
3.19395186100966
30
0
41
1
10
79.3397175791887
20
3.18613491295653
30
0
41
1
10
79.3290055258076
20
3.17808983304975
30
0
41
1
10
79.3186597987258
20
3.16982531224446
30
0
41
1
10
79.3086982729952
20
3.16134516502445
30
0
41
1
10
79.2990826387883
20
3.152592864092
30
0
41
1
10
79.2904381241617
20
3.1441463123502
30
0
41
1
10
79.2827112531106
20
3.13606228608657
30
0
41
1
10
79.2758455203323
20
3.12838700373698
30
0
41
1
10
79.2693068907267
20
3.12052840813596
30
0
41
1
10
79.2630665619321
20
3.11240670978383
30
0
41
1
10
79.2571715490266
20
3.10401412477762
30
0
41
1
10
79.2516905242427
20
3.09534132991441
30
0
41
1
10
79.2471070225708
20
3.08712683724093
30
0
41
1
10
79.2433408116164
20
3.07941582812683
30
0
41
1
10
79.2403024164515
20
3.07224738510723
30
0
41
1
10
79.2377193646731
20
3.06496711432516
30
0
41
1
10
79.2356553010042
20
3.05760739513015
30
0
41
1
10
79.2341750891831
20
3.05020169588978
30
0
41
1
10
79.2335351879716
20
3.0445100604066
30
0
41
1
10
79.2333769200559
20
3.04130475212337
30
0
41
1
10
79.2333507359982
20
3.04056853017815
30
0
0
SPLINE
5
E0
100
AcDbEntity
8
1
62
256
6
ByLayer
370
-1
48
1
60
0
100
AcDbSpline
70
4
71
3
72
10
73
6
40
0
40
0
40
0
40
0
40
0.237701229827425
40
0.619163189689435
40
1
40
1
40
1
40
1
41
1
10
79.2333507359982
20
3.04056853017815
30
0
41
1
10
79.2333074963856
20
3.03934729779552
30
0
41
1
10
79.2332790709748
20
3.03617403479758
30
0
41
1
10
79.2335705065102
20
3.03106482749735
30
0
41
1
10
79.2341508845241
20
3.02722666523076
30
0
41
1
10
79.2345267792199
20
3.02531981022056
30
0
0
SPLINE
5
E1
100
AcDbEntity
8
1
62
256
6
ByLayer
370
-1
48
1
60
0
100
AcDbSpline
70
4
71
3
72
11
73
7
40
0
40
0
40
0
40
0
40
0.0550427475920597
40
0.384146660661482
40
0.711995509455021
40
1
40
1
40
1
40
1
41
1
10
79.2363199266298
20
3.00858728707035
30
0
41
1
10
79.2363250416452
20
3.00889814226633
30
0
41
1
10
79.2363458170363
20
3.01106648196115
30
0
41
1
10
79.2362525789298
20
3.01508319171333
30
0
41
1
10
79.2355283499553
20
3.02034758293646
30
0
41
1
10
79.234757513717
20
3.0237125073397
30
0
41
1
10
79.2343265075625
20
3.02527360597848
30
0
0
SPLINE
5
E2
100
AcDbEntity
8
1
62
256
6
ByLayer
370
-1
48
1
60
0
100
AcDbSpline
70
4
71
3
72
58
73
54
40
0
40
0
40
0
40
0
40
0.0127203585558974
40
0.0254809495107093
40
0.0382521671448336
40
0.0509870602088796
40
0.0666227575739475
40
0.0823033966229561
40
0.0980159129803442
40
0.113727612541247
40
0.129389439577659
40
0.150533359468558
40
0.171698875660526
40
0.192850580572733
40
0.21395535089965
40
0.235072572790089
40
0.256180573022249
40
0.279981119990216
40
0.303803813056319
40
0.327629712326366
40
0.351434635351151
40
0.375212718451301
40
0.399008114131987
40
0.422804574305035
40
0.446584110030752
40
0.47035541294062
40
0.49414257015181
40
0.517929901830092
40
0.541701442807927
40
0.565473933919512
40
0.589262519543639
40
0.61305057596384
40
0.636822344942204
40
0.660605277189998
40
0.684406505929656
40
0.708205923331763
40
0.731986383639166
40
0.75318395176165
40
0.774398810365136
40
0.795610464832358
40
0.816803659993429
40
0.838673827993485
40
0.860556505617799
40
0.882420653032215
40
0.899203277647634
40
0.915995330121543
40
0.932773089062166
40
0.945999658328794
40
0.959285344762154
40
0.972585697894065
40
0.985867094892175
40
0.999108947004401
40
1
40
1
40
1
40
1
41
1
10
79.7063211826587
20
4.56319633497713
30
0
41
1
10
79.7048255839883
20
4.56173258872285
30
0
41
1
10
79.701708019831
20
4.55895211111691
30
0
41
1
10
79.6966327718597
20
4.55524104561074
30
0
41
1
10
79.6912477121496
20
4.55197168982421
30
0
41
1
10
79.6851715436924
20
4.54892105239517
30
0
41
1
10
79.6783828676085
20
4.54618217813141
30
0
41
1
10
79.670877871085
20
4.5438271929736
30
0
41
1
10
79.6631580140601
20
4.54199646480427
30
0
41
1
10
79.6552850628765
20
4.54064914982633
30
0
41
1
10
79.6463707769084
20
4.53963844451596
30
0
41
1
10
79.636398390639
20
4.539104983321
30
0
41
1
10
79.6253708776963
20
4.5391837125196
30
0
41
1
10
79.6142796391022
20
4.53985970469616
30
0
41
1
10
79.6031573114595
20
4.54107224724302
30
0
41
1
10
79.5920272403644
20
4.54278030263784
30
0
41
1
10
79.5804279380843
20
4.54503819432559
30
0
41
1
10
79.5683755611743
20
4.54787543057476
30
0
41
1
10
79.5558919049763
20
4.55132627137557
30
0
41
1
10
79.5434701419204
20
4.55524688722209
30
0
41
1
10
79.5311335398315
20
4.55960405172175
30
0
41
1
10
79.5188926282386
20
4.56437161099637
30
0
41
1
10
79.5067580913152
20
4.56953220337981
30
0
41
1
10
79.4947416447399
20
4.57506840737019
30
0
41
1
10
79.482860373247
20
4.580961476151
30
0
41
1
10
79.4711244387835
20
4.58719745607179
30
0
41
1
10
79.45954518898
20
4.59376610041349
30
0
41
1
10
79.4481379814587
20
4.60065573471523
30
0
41
1
10
79.4369195443998
20
4.60785469585241
30
0
41
1
10
79.4259021826766
20
4.61535506089795
30
0
41
1
10
79.4151001089795
20
4.62315135195225
30
0
41
1
10
79.4045333569283
20
4.63123531911161
30
0
41
1
10
79.394221005964
20
4.63960036819094
30
0
41
1
10
79.3841794990417
20
4.64824255863022
30
0
41
1
10
79.3744298403422
20
4.65716110026963
30
0
41
1
10
79.3650015808502
20
4.66635008190547
30
0
41
1
10
79.35625285732
20
4.67546226141004
30
0
41
1
10
79.3481639812572
20
4.68446346305821
30
0
41
1
10
79.3407162064451
20
4.69332656109981
30
0
41
1
10
79.3336273513632
20
4.70240099092292
30
0
41
1
10
79.3268616971348
20
4.71178192799538
30
0
41
1
10
79.3204700210912
20
4.72147664295738
30
0
41
1
10
79.3145268977423
20
4.73149428323221
30
0
41
1
10
79.3095794682655
20
4.74093772000783
30
0
41
1
10
79.3055362608265
20
4.74974199730026
30
0
41
1
10
79.3022954300772
20
4.75785684244149
30
0
41
1
10
79.2997301978282
20
4.76549930625154
30
0
41
1
10
79.2977739836489
20
4.77264007042621
30
0
41
1
10
79.2963467595001
20
4.77925467908125
30
0
41
1
10
79.2953266566516
20
4.78591070837433
30
0
41
1
10
79.2947516713484
20
4.79257173094081
30
0
41
1
10
79.2947069887676
20
4.79714779783793
30
0
41
1
10
79.2947744327744
20
4.79949735576591
30
0
41
1
10
79.294779056149
20
4.79964546644216
30
0
0
SPLINE
5
E3
100
AcDbEntity
8
1
62
256
6
ByLayer
370
-1
48
1
60
0
100
AcDbSpline
70
4
71
3
72
10
73
6
40
0
40
0
40
0
40
0
40
0.383136541853548
40
0.691580047570638
40
1
40
1
40
1
40
1
41
1
10
79.2947790561489
20
4.79964546644217
30
0
41
1
10
79.2948468986352
20
4.801694773008
30
0
41
1
10
79.2951218430269
20
4.80536812610913
30
0
41
1
10
79.2959055841443
20
4.81062758517068
30
0
41
1
10
79.2966225993494
20
4.81381633268469
30
0
41
1
10
79.2970377215812
20
4.8153989885516
30
0
0
SPLINE
5
E4
100
AcDbEntity
8
1
62
256
6
ByLayer
370
-1
48
1
60
0
100
AcDbSpline
70
4
71
3
72
11
73
7
40
0
40
0
40
0
40
0
40
0.0550427475923594
40
0.384146660661629
40
0.711995509455352
40
1
40
1
40
1
40
1
41
1
10
79.3000176832911
20
4.832652380376
30
0
41
1
10
79.3000006680738
20
4.83232950862465
30
0
41
1
10
79.299867108009
20
4.83007825911839
30
0
41
1
10
79.2994882597244
20
4.82591616346536
30
0
41
1
10
79.298390973878
20
4.82049760361925
30
0
41
1
10
79.2973823359328
20
4.81705277810792
30
0
41
1
10
79.2968411608173
20
4.81545905047519
30
0
0
SPLINE
5
E5
100
AcDbEntity
8
1
62
256
6
ByLayer
370
-1
48
1
60
0
100
AcDbSpline
70
4
71
3
72
26
73
22
40
0
40
0
40
0
40
0
40
0.0405303541043244
40
0.107625401089131
40
0.174768065127472
40
0.241833939923297
40
0.3010754967746
40
0.360308664471393
40
0.420863636086892
40
0.481407077864639
40
0.540802149436723
40
0.600187491428305
40
0.641366916529953
40
0.68259585610924
40
0.723772698613148
40
0.774436734418611
40
0.825103467123384
40
0.877252067183718
40
0.929406484001774
40
0.96465793434463
40
1
40
1
40
1
40
1
41
1
10
79.9699534651135
20
3.56182194184532
30
0
41
1
10
79.9700159398233
20
3.56357674393844
30
0
41
1
10
79.9701113407793
20
3.56822851673102
30
0
41
1
10
79.9699757958203
20
3.5757587130713
30
0
41
1
10
79.9693518039831
20
3.58435797478635
30
0
41
1
10
79.9682612876515
20
3.5925124361032
30
0
41
1
10
79.966729625013
20
3.60018682085496
30
0
41
1
10
79.9647795253374
20
3.60741362612706
30
0
41
1
10
79.9622980707472
20
3.61445241104398
30
0
41
1
10
79.9592675856053
20
3.62118716185091
30
0
41
1
10
79.955692723011
20
3.62748927762763
30
0
41
1
10
79.9520101600804
20
3.6327029477212
30
0
41
1
10
79.9483785746501
20
3.63695555717689
30
0
41
1
10
79.9449659070551
20
3.64038130345895
30
0
41
1
10
79.9410408757505
20
3.64374559730358
30
0
41
1
10
79.9365561205874
20
3.64693313290471
30
0
41
1
10
79.9314411275244
20
3.64986337338492
30
0
41
1
10
79.9260254390387
20
3.65229176547675
30
0
41
1
10
79.920966579434
20
3.65400724119981
30
0
41
1
10
79.9164116627623
20
3.65517477969141
30
0
41
1
10
79.9137546849848
20
3.65569584701421
30
0
41
1
10
79.9124141558918
20
3.65591833899832
30
0
0
SPLINE
5
E6
100
AcDbEntity
8
1
62
256
6
ByLayer
370
-1
48
1
60
0
100
AcDbSpline
70
4
71
3
72
22
73
18
40
0
40
0
40
0
40
0
40
0.0793829492749822
40
0.158765277911027
40
0.238404874919436
40
0.318043436475172
40
0.397441873720103
40
0.476838652622802
40
0.556619632833591
40
0.636397817897491
40
0.692284159078191
40
0.748169439047865
40
0.804284255122813
40
0.860397455415629
40
0.918998169781984
40
0.97762219886205
40
1
40
1
40
1
40
1
41
1
10
79.9267296543164
20
3.42164877607103
30
0
41
1
10
79.9285999881289
20
3.42511955665084
30
0
41
1
10
79.9322472600417
20
3.43210569459014
30
0
41
1
10
79.9374492911139
20
3.44273224499526
30
0
41
1
10
79.942364340965
20
3.45350033176349
30
0
41
1
10
79.9469716912739
20
3.46439570412397
30
0
41
1
10
79.9512495396357
20
3.47540083620594
30
0
41
1
10
79.9551831886608
20
3.4865279839199
30
0
41
1
10
79.9587510222025
20
3.49778148602043
30
0
41
1
10
79.9616033093812
20
3.5080187354649
30
0
41
1
10
79.9638401967966
20
3.51718066914722
30
0
41
1
10
79.9655699602239
20
3.52524977184949
30
0
41
1
10
79.9670549984633
20
3.53336258863758
30
0
41
1
10
79.9682930679588
20
3.54163214663903
30
0
41
1
10
79.9692472361843
20
3.55003936755384
30
0
41
1
10
79.9697459903598
20
3.5568135530933
30
0
41
1
10
79.9699154311969
20
3.56073799545953
30
0
41
1
10
79.9699534651135
20
3.56182194184532
30
0
0
SPLINE
5
E7
100
AcDbEntity
8
1
62
256
6
ByLayer
370
-1
48
1
60
0
100
AcDbSpline
70
4
71
3
72
37
73
33
40
0
40
0
40
0
40
0
40
0.0536372340261476
40
0.107274425832034
40
0.160621497098281
40
0.213967962583715
40
0.260451295928601
40
0.306947708382674
40
0.353427902557554
40
0.39995449804548
40
0.446498629148445
40
0.493017502017817
40
0.527992225874029
40
0.562997821823785
40
0.597993104147725
40
0.632953750794983
40
0.659736146563797
40
0.686601966600007
40
0.713487315325462
40
0.740344734135156
40
0.7671460096385
40
0.793885258780933
40
0.81527224889676
40
0.836730706476979
40
0.858196524856644
40
0.879622558077987
40
0.900982265909161
40
0.920733100706751
40
0.940571736243055
40
0.960433708818697
40
0.980259763378843
40
1
40
1
40
1
40
1
41
1
10
79.9081084921595
20
3.39006312848864
30
0
41
1
10
79.9050665310997
20
3.38532525471717
30
0
41
1
10
79.8988230299266
20
3.37596080657955
30
0
41
1
10
79.8889913432906
20
3.36226392279426
30
0
41
1
10
79.8787125611225
20
3.34894118448065
30
0
41
1
10
79.8684520822349
20
3.33656805876869
30
0
41
1
10
79.8582616684004
20
3.32508968975083
30
0
41
1
10
79.8482020133995
20
3.31447706774082
30
0
41
1
10
79.837789597724
20
3.3042167789475
30
0
41
1
10
79.8270233862572
20
3.29433865849882
30
0
41
1
10
79.8158963899934
20
3.28488792039348
30
0
41
1
10
79.8053567952243
20
3.27666038109916
30
0
41
1
10
79.7955020704419
20
3.26956668267241
30
0
41
1
10
79.7864132503588
20
3.2635126662572
30
0
41
1
10
79.7771157363261
20
3.25783808251177
30
0
41
1
10
79.7683555233889
20
3.25299722124356
30
0
41
1
10
79.760182771092
20
3.24891506910329
30
0
41
1
10
79.7526404447195
20
3.24551328653427
30
0
41
1
10
79.7449834475486
20
3.24245208961789
30
0
41
1
10
79.737235397334
20
3.2397759031433
30
0
41
1
10
79.7294200633633
20
3.23753028391654
30
0
41
1
10
79.7220809239743
20
3.23587449228849
30
0
41
1
10
79.7152426467441
20
3.23474875929042
30
0
41
1
10
79.708924583084
20
3.234075776502
30
0
41
1
10
79.7026296720561
20
3.23379280875734
30
0
41
1
10
79.6964016684784
20
3.2339302756792
30
0
41
1
10
79.6904299894833
20
3.23450031989769
30
0
41
1
10
79.6847391696471
20
3.23550499847922
30
0
41
1
10
79.6793421488676
20
3.23690466396761
30
0
41
1
10
79.6741241263786
20
3.23871827312848
30
0
41
1
10
79.6691302347475
20
3.24093884935534
30
0
41
1
10
79.6659862954075
20
3.24269138984964
30
0
41
1
10
79.6644596193644
20
3.24363382553978
30
0
0
SPLINE
5
E8
100
AcDbEntity
8
1
62
256
6
ByLayer
370
-1
48
1
60
0
100
AcDbSpline
70
4
71
3
72
10
73
6
40
0
40
0
40
0
40
0
40
0.395708115401661
40
0.792578425025473
40
1
40
1
40
1
40
1
41
1
10
78.8168824214138
20
4.83216638110901
30
0
41
1
10
78.8172693738047
20
4.83010183353749
30
0
41
1
10
78.8178599077974
20
4.82594512331347
30
0
41
1
10
78.8181117406739
20
4.82062585497626
30
0
41
1
10
78.818073914562
20
4.81740501651099
30
0
41
1
10
78.8180368047926
20
4.81629740577651
30
0
0
SPLINE
5
E9
100
AcDbEntity
8
1
62
256
6
ByLayer
370
-1
48
1
60
0
100
AcDbSpline
70
4
71
3
72
65
73
61
40
0
40
0
40
0
40
0
40
0.0091084376034319
40
0.0200006869875733
40
0.0308571619122618
40
0.0417527244237486
40
0.0526543529741395
40
0.0635191286895954
40
0.0763346349357428
40
0.0891880534543112
40
0.102053478935094
40
0.114885403900856
40
0.129566927086303
40
0.144281673978008
40
0.1590281923414
40
0.173791535294873
40
0.188545162824672
40
0.203252676409376
40
0.221655339317339
40
0.240067712628125
40
0.258473750465335
40
0.282208766638191
40
0.305955873958163
40
0.329694770256042
40
0.353079833026776
40
0.37647776447087
40
0.399877749338331
40
0.423265613728004
40
0.453374350534313
40
0.483483387466441
40
0.513591912897168
40
0.543700353973251
40
0.567867333337596
40
0.592054198698476
40
0.61624500466195
40
0.64042667506249
40
0.664589293852934
40
0.684677638633598
40
0.704770791706912
40
0.724857424315271
40
0.74496792867282
40
0.765085639207495
40
0.785192232061681
40
0.80031473584553
40
0.815451355791529
40
0.830582912357714
40
0.84569850466424
40
0.859733742777874
40
0.873778111183625
40
0.887807641426269
40
0.90141237271512
40
0.915059522203055
40
0.928690875379803
40
0.942273994422142
40
0.952948852351703
40
0.963660268589641
40
0.974366733153386
40
0.985034815090817
40
0.997052444043187
40
1
40
1
40
1
40
1
41
1
10
79.2363199266298
20
3.00858728707035
30
0
41
1
10
79.2362608521318
20
3.00703485755151
30
0
41
1
10
79.2359870990767
20
3.0036334086971
30
0
41
1
10
79.2350948645321
20
2.99839085041732
30
0
41
1
10
79.2335514577653
20
2.99291589278443
30
0
41
1
10
79.2314731054709
20
2.98754645184804
30
0
41
1
10
79.2288980904113
20
2.98231603241994
30
0
41
1
10
79.2256811504931
20
2.97695877117784
30
0
41
1
10
79.2217588621083
20
2.971538590728
30
0
41
1
10
79.217119751535
20
2.96610760137924
30
0
41
1
10
79.2120465557745
20
2.96096649802897
30
0
41
1
10
79.2063432158753
20
2.95588983190686
30
0
41
1
10
79.2000084835824
20
2.95091724916173
30
0
41
1
10
79.1930451040256
20
2.94607810646481
30
0
41
1
10
79.1857788426607
20
2.94157649003904
30
0
41
1
10
79.1782639688661
20
2.93739867231593
30
0
41
1
10
79.1705536129413
20
2.93353187783982
30
0
41
1
10
79.1620273084977
20
2.92965616998028
30
0
41
1
10
79.1526635926814
20
2.9258347192297
30
0
41
1
10
79.1424439846324
20
2.92213447277069
30
0
41
1
10
79.1310723686877
20
2.91848168046404
30
0
41
1
10
79.1185299549866
20
2.91497571684039
30
0
41
1
10
79.1048097218046
20
2.91172291126429
30
0
41
1
10
79.0910297242964
20
2.90898658491317
30
0
41
1
10
79.0772208321112
20
2.90672532508777
30
0
41
1
10
79.0634032051962
20
2.90491426886807
30
0
41
1
10
79.0495282757123
20
2.90352668575326
30
0
41
1
10
79.0342825833396
20
2.90245294848082
30
0
41
1
10
79.0176703249174
20
2.90182323014949
30
0
41
1
10
78.9997062408058
20
2.9017865851403
30
0
41
1
10
78.9817507339108
20
2.90238192844711
30
0
41
1
10
78.9650074414238
20
2.90353101706499
30
0
41
1
10
78.9494853677307
20
2.90509556717947
30
0
41
1
10
78.9351857105405
20
2.90695905219679
30
0
41
1
10
78.9209514500892
20
2.90925332909058
30
0
41
1
10
78.9068083273825
20
2.91199016537458
30
0
41
1
10
78.893565287276
20
2.91500265412773
30
0
41
1
10
78.8812188206573
20
2.91821872239791
30
0
41
1
10
78.8697619163842
20
2.92157633934925
30
0
41
1
10
78.8584287260452
20
2.92529755079105
30
0
41
1
10
78.8472417978898
20
2.92939965683217
30
0
41
1
10
78.8362340508974
20
2.93391004436977
30
0
41
1
10
78.8263390305314
20
2.9384467370534
30
0
41
1
10
78.8175292969354
20
2.94291171489148
30
0
41
1
10
78.8097667101182
20
2.9472138501088
30
0
41
1
10
78.8022144272163
20
2.95181118117071
30
0
41
1
10
78.7950848960229
20
2.95660097650536
30
0
41
1
10
78.7883954583616
20
2.96157284681746
30
0
41
1
10
78.782170012891
20
2.96671717500897
30
0
41
1
10
78.7763522194045
20
2.972113467147
30
0
41
1
10
78.7709927270789
20
2.97776754758184
30
0
41
1
10
78.7661429209207
20
2.9836671279324
30
0
41
1
10
78.761826825245
20
2.98985326592292
30
0
41
1
10
78.758396897924
20
2.99584251781611
30
0
41
1
10
78.755791393838
20
3.00155470046127
30
0
41
1
10
78.7538777878232
20
3.00691551271604
30
0
41
1
10
78.7524698573825
20
3.01235941329647
30
0
41
1
10
78.7515515339924
20
3.01807534033142
30
0
41
1
10
78.7513701535473
20
3.02246628234298
30
0
41
1
10
78.7514025661855
20
3.02501607392854
30
0
41
1
10
78.7514154098794
20
3.02551800882171
30
0
0
SPLINE
5
EA
100
AcDbEntity
8
1
62
256
6
ByLayer
370
-1
48
1
60
0
100
AcDbSpline
70
4
71
3
72
22
73
18
40
0
40
0
40
0
40
0
40
0.0667869565715359
40
0.133575484464977
40
0.200364544708181
40
0.267153088748932
40
0.333940058863684
40
0.400545733937217
40
0.467152864353859
40
0.533760540779175
40
0.600367786421003
40
0.666973558137147
40
0.73357793971633
40
0.800183530537336
40
0.866789636938956
40
0.933395440222869
40
1
40
1
40
1
40
1
41
1
10
71.4097750165315
20
-3.07696745009135
30
0
41
1
10
71.4319458994809
20
-3.10872151635407
30
0
41
1
10
71.4762850026711
20
-3.17211518389147
30
0
41
1
10
71.5427855068703
20
-3.26686179700858
30
0
41
1
10
71.609275054365
20
-3.36126125227416
30
0
41
1
10
71.6757507513241
20
-3.45530987523374
30
0
41
1
10
71.7421501697524
20
-3.54892014742225
30
0
41
1
10
71.8084719738422
20
-3.64209160873041
30
0
41
1
10
71.8747150861027
20
-3.73482743218306
30
0
41
1
10
71.9409377282269
20
-3.82721310692967
30
0
41
1
10
72.0071372359454
20
-3.91924855430586
30
0
41
1
10
72.0733113473861
20
-4.01093430864852
30
0
41
1
10
72.1394590237424
20
-4.10227239559803
30
0
41
1
10
72.205579758935
20
-4.19326931452175
30
0
41
1
10
72.2716728724481
20
-4.28393177019036
30
0
41
1
10
72.3377367226111
20
-4.37426410416403
30
0
41
1
10
72.3817591004621
20
-4.43427148379901
30
0
41
1
10
72.4037651463937
20
-4.464220931131
30
0
0
SPLINE
5
EB
100
AcDbEntity
8
1
62
256
6
ByLayer
370
-1
48
1
60
0
100
AcDbSpline
70
4
71
3
72
39
73
35
40
0
40
0
40
0
40
0
40
0.0342699065637352
40
0.0821648759043628
40
0.130087863263455
40
0.178008151265321
40
0.225899437473018
40
0.273874255329119
40
0.321889220276591
40
0.369893674490238
40
0.417854146958657
40
0.450749527775533
40
0.483654302797547
40
0.516545796142944
40
0.547069565153004
40
0.577687142792933
40
0.608325335342487
40
0.638930408051701
40
0.669471449507585
40
0.69994405867869
40
0.723105725169369
40
0.746343605211224
40
0.769586433447829
40
0.792784084097425
40
0.815911903354263
40
0.837276007815456
40
0.858706779993645
40
0.880126741349685
40
0.901476056388138
40
0.921117058314118
40
0.940846178904495
40
0.960610830387719
40
0.98035028857895
40
1
40
1
40
1
40
1
41
1
10
79.9396640125969
20
4.41651471400008
30
0
41
1
10
79.9379553910927
20
4.41972612163398
30
0
41
1
10
79.9337730702129
20
4.42737543769406
30
0
41
1
10
79.9268245486356
20
4.4393019580157
30
0
41
1
10
79.9187302769261
20
4.45221930856828
30
0
41
1
10
79.9102184734479
20
4.46485554880774
30
0
41
1
10
79.9012855748826
20
4.4771919624854
30
0
41
1
10
79.8919291939578
20
4.4892079849267
30
0
41
1
10
79.8821357890834
20
4.50086656134468
30
0
41
1
10
79.8719018044865
20
4.51211207492842
30
0
41
1
10
79.8623392504786
20
4.52176451531764
30
0
41
1
10
79.8535929100438
20
4.52993986833876
30
0
41
1
10
79.845782681577
20
4.53676037657535
30
0
41
1
10
79.8379388042505
20
4.54312212470995
30
0
41
1
10
79.8300721049677
20
4.54902774110669
30
0
41
1
10
79.8221938300909
20
4.55447075359222
30
0
41
1
10
79.8141052412445
20
4.55955308070078
30
0
41
1
10
79.8058213374047
20
4.5642175594223
30
0
41
1
10
79.7973567962148
20
4.5684053927749
30
0
41
1
10
79.7894126840737
20
4.57177146688681
30
0
41
1
10
79.7820385724161
20
4.57440158619925
30
0
41
1
10
79.7752773263979
20
4.57639696082028
30
0
41
1
10
79.768451986526
20
4.57797125629117
30
0
41
1
10
79.7616018010464
20
4.57907820751415
30
0
41
1
10
79.7549330432757
20
4.57966027132044
30
0
41
1
10
79.7484749096138
20
4.57971093917172
30
0
41
1
10
79.7422567490962
20
4.57926229025217
30
0
41
1
10
79.7361542963824
20
4.57830219056382
30
0
41
1
10
79.7303783030915
20
4.57685378709472
30
0
41
1
10
79.7249609433124
20
4.57493562093188
30
0
41
1
10
79.7199025871044
20
4.57261996458978
30
0
41
1
10
79.7150775928393
20
4.56988267530909
30
0
41
1
10
79.7105215659321
20
4.56675310423713
30
0
41
1
10
79.7076874416506
20
4.56442203160759
30
0
41
1
10
79.7063211826582
20
4.56319633497765
30
0
0
SPLINE
5
EC
100
AcDbEntity
8
1
62
256
6
ByLayer
370
-1
48
1
60
0
100
AcDbSpline
70
4
71
3
72
21
73
17
40
0
40
0
40
0
40
0
40
0.0433538768151693
40
0.0967451680983944
40
0.150059458325457
40
0.203396656638816
40
0.256717866595604
40
0.336645929205251
40
0.416579048766233
40
0.496659113684649
40
0.576799810057706
40
0.656951691341564
40
0.737047019569569
40
0.82468692832064
40
0.912357744630144
40
1
40
1
40
1
40
1
41
1
10
79.9885916657524
20
4.23487680174374
30
0
41
1
10
79.9886843416837
20
4.23759710601546
30
0
41
1
10
79.9887850432212
20
4.24367260228366
30
0
41
1
10
79.9885577935866
20
4.25312332515005
30
0
41
1
10
79.9879178896528
20
4.26320304329408
30
0
41
1
10
79.9869054981304
20
4.27326429752314
30
0
41
1
10
79.9853231748073
20
4.28496616879253
30
0
41
1
10
79.9829840350039
20
4.29827304300331
30
0
41
1
10
79.9796954758964
20
4.31313437009424
30
0
41
1
10
79.9758072516386
20
4.32787429102062
30
0
41
1
10
79.9713560965976
20
4.3424753451195
30
0
41
1
10
79.9663781351948
20
4.35691025331647
30
0
41
1
10
79.96073489945
20
4.37161143746691
30
0
41
1
10
79.954400383395
20
4.38654873790306
30
0
41
1
10
79.9473353607647
20
4.40168537901844
30
0
41
1
10
79.9422793687666
20
4.41160069791093
30
0
41
1
10
79.939664012597
20
4.41651471400008
30
0
0
SPLINE
5
ED
100
AcDbEntity
8
1
62
256
6
ByLayer
370
-1
48
1
60
0
100
AcDbSpline
70
4
71
3
72
25
73
21
40
0
40
0
40
0
40
0
40
0.0471595010146066
40
0.0944474971906784
40
0.141724394469542
40
0.188868718711005
40
0.242371933951044
40
0.2960668702852
40
0.349782304335486
40
0.403313569168431
40
0.464722127348674
40
0.526370119218188
40
0.58817530384829
40
0.649964752841026
40
0.711492436169525
40
0.776149054555929
40
0.840862369347791
40
0.905538736878424
40
0.985013046648064
40
1
40
1
40
1
40
1
41
1
10
79.9325725036814
20
4.13794945191465
30
0
41
1
10
79.9342609635426
20
4.13843282303164
30
0
41
1
10
79.9375960230819
20
4.13953856961977
30
0
41
1
10
79.9424738668797
20
4.1416140908811
30
0
41
1
10
79.9471854069055
20
4.1440986422465
30
0
41
1
10
79.951900649789
20
4.14711813864787
30
0
41
1
10
79.9565491317701
20
4.15074668886507
30
0
41
1
10
79.9610704218305
20
4.15500381577199
30
0
41
1
10
79.9652486657963
20
4.15968744174911
30
0
41
1
10
79.9692433746445
20
4.16500109543339
30
0
41
1
10
79.972969823078
20
4.17097594007831
30
0
41
1
10
79.9763807032315
20
4.17759775632421
30
0
41
1
10
79.9793268729178
20
4.18453119320651
30
0
41
1
10
79.9818227099227
20
4.19169776832007
30
0
41
1
10
79.9839199786837
20
4.1991677887911
30
0
41
1
10
79.9856205793633
20
4.2069099797319
30
0
41
1
10
79.9869428267099
20
4.21489865007619
30
0
41
1
10
79.987957888077
20
4.22359069727179
30
0
41
1
10
79.9884142641067
20
4.23026941686169
30
0
41
1
10
79.988569957116
20
4.23424554842963
30
0
41
1
10
79.9885916657524
20
4.23487680174375
30
0
0
SPLINE
5
EE
100
AcDbEntity
8
1
62
256
6
ByLayer
370
-1
48
1
60
0
100
AcDbSpline
70
4
71
3
72
34
73
30
40
0
40
0
40
0
40
0
40
0.0386036219225324
40
0.090500786786107
40
0.142396875676607
40
0.194248077545888
40
0.242918211267537
40
0.291629452396456
40
0.34033689525764
40
0.389001845074679
40
0.430580510922464
40
0.472192816121971
40
0.513799242537418
40
0.555369885168479
40
0.598981441006883
40
0.642618223765594
40
0.686217882346346
40
0.719596733945528
40
0.75299430394037
40
0.78636348758322
40
0.812232529630946
40
0.83811648103086
40
0.863978364264288
40
0.886739643725483
40
0.909576704275416
40
0.932419936508933
40
0.955219437325086
40
0.977949114244949
40
1
40
1
40
1
40
1
41
1
10
79.8215132943041
20
3.89830362090922
30
0
41
1
10
79.8216437382038
20
3.90204440618683
30
0
41
1
10
79.8220475351898
20
3.9108085649762
30
0
41
1
10
79.8230436167064
20
3.92458774790609
30
0
41
1
10
79.8245870464678
20
3.93960117641638
30
0
41
1
10
79.826547385142
20
3.95423292081409
30
0
41
1
10
79.8288969034875
20
3.96846566542278
30
0
41
1
10
79.8316140332749
20
3.98228630155499
30
0
41
1
10
79.8347594299436
20
3.99596777079868
30
0
41
1
10
79.8381702401463
20
4.00882249730246
30
0
41
1
10
79.8417854853553
20
4.02085491401302
30
0
41
1
10
79.8455519844819
20
4.03207609634163
30
0
41
1
10
79.8496788170981
20
4.04310320279176
30
0
41
1
10
79.8542540401316
20
4.05408081526937
30
0
41
1
10
79.8593169334291
20
4.06496480379154
30
0
41
1
10
79.8649220608545
20
4.07568910516527
30
0
41
1
10
79.8705441331452
20
4.08521472450595
30
0
41
1
10
79.8760779157861
20
4.09358742791865
30
0
41
1
10
79.8814257951983
20
4.10087045579896
30
0
41
1
10
79.8866921326816
20
4.10727108883317
30
0
41
1
10
79.8918034596657
20
4.11283363565178
30
0
41
1
10
79.8966906364853
20
4.11761694931703
30
0
41
1
10
79.9016054464706
20
4.1218954295173
30
0
41
1
10
79.9065268431746
20
4.12567344363075
30
0
41
1
10
79.9114267199926
20
4.12896606271054
30
0
41
1
10
79.9165116041369
20
4.13189986370077
30
0
41
1
10
79.9217634478206
20
4.13442639790371
30
0
41
1
10
79.9271196822101
20
4.13648218220571
30
0
41
1
10
79.9307578752352
20
4.13751641636305
30
0
41
1
10
79.9325725036831
20
4.13794945191807
30
0
0
SPLINE
5
EF
100
AcDbEntity
8
1
62
256
6
ByLayer
370
-1
48
1
60
0
100
AcDbSpline
70
4
71
3
72
34
73
30
40
0
40
0
40
0
40
0
40
0.0247680277257175
40
0.049608799116822
40
0.0744693818513826
40
0.0992645003786424
40
0.131120720881593
40
0.163068041734768
40
0.195080671661444
40
0.227092223252406
40
0.259002477237599
40
0.291400840751953
40
0.323830996715907
40
0.356268915652982
40
0.388677874963318
40
0.431802479510637
40
0.47495268322138
40
0.518083652722539
40
0.561175236121838
40
0.604284893034317
40
0.647379359362002
40
0.690455724848603
40
0.733546737379852
40
0.776624457647195
40
0.829092685495346
40
0.881606772547184
40
0.934122304657902
40
0.986592504753282
40
1
40
1
40
1
40
1
41
1
10
79.9129712567006
20
3.65773361038222
30
0
41
1
10
79.9110225304823
20
3.65836757480448
30
0
41
1
10
79.9071927798075
20
3.6598097089053
30
0
41
1
10
79.901658283337
20
3.66252084507665
30
0
41
1
10
79.8963556384047
20
3.66569601703391
30
0
41
1
10
79.8908173902618
20
3.6696320299573
30
0
41
1
10
79.8851262737626
20
3.67441724695322
30
0
41
1
10
79.8793610185974
20
3.68011383473616
30
0
41
1
10
79.8739641824203
20
3.68626975869881
30
0
41
1
10
79.8689277987853
20
3.69280749086292
30
0
41
1
10
79.8642096111691
20
3.69970210060078
30
0
41
1
10
79.8597916160316
20
3.70691498328202
30
0
41
1
10
79.855659291555
20
3.71442375000393
30
0
41
1
10
79.8518204669378
20
3.72215880690662
30
0
41
1
10
79.8478672682155
20
3.73096355988113
30
0
41
1
10
79.8438928809527
20
3.740890097455
30
0
41
1
10
79.839998472101
20
3.75197927264034
30
0
41
1
10
79.8365189172053
20
3.7632945587399
30
0
41
1
10
79.8334307646978
20
3.77480330688945
30
0
41
1
10
79.8307188260383
20
3.78648013441237
30
0
41
1
10
79.8283674168239
20
3.79830350617761
30
0
41
1
10
79.8263627052723
20
3.81025223903975
30
0
41
1
10
79.8246955444272
20
3.82230797521276
30
0
41
1
10
79.823259755441
20
3.83533741536153
30
0
41
1
10
79.8221335757662
20
3.84934838916563
30
0
41
1
10
79.8214029913073
20
3.86433592252608
30
0
41
1
10
79.8211331286589
20
3.87938028133551
30
0
41
1
10
79.8212724307626
20
3.8907134832417
30
0
41
1
10
79.8214684695533
20
3.89701995754907
30
0
41
1
10
79.821513294304
20
3.89830362090922
30
0
0
SPLINE
5
F0
100
AcDbEntity
8
1
62
256
6
ByLayer
370
-1
48
1
60
0
100
AcDbSpline
70
4
71
3
72
53
73
49
40
0
40
0
40
0
40
0
40
0.0209269338491668
40
0.0418572631610371
40
0.0627881403107187
40
0.0837158213291351
40
0.10447638490372
40
0.1252390025401
40
0.146002250679745
40
0.166763674111835
40
0.194436311263257
40
0.222110241327168
40
0.2497839525437
40
0.277939046096284
40
0.306094139842485
40
0.334248816156999
40
0.35496007099535
40
0.375673169270243
40
0.396384634856674
40
0.417093663071532
40
0.433675811864035
40
0.450262554671385
40
0.46685005700315
40
0.483435317621955
40
0.500016222953103
40
0.515920686643423
40
0.531827931887321
40
0.547735610573614
40
0.563640665422182
40
0.58476880233969
40
0.605899246942506
40
0.62702867110955
40
0.651872773657018
40
0.676717562889642
40
0.701564044359725
40
0.726411242059919
40
0.751257364684086
40
0.776117836939553
40
0.800980950726003
40
0.82584329854807
40
0.850703159472832
40
0.875560903260605
40
0.896297080230054
40
0.917039321525061
40
0.937783543371147
40
0.958526489506985
40
0.979265786455719
40
1
40
1
40
1
40
1
41
1
10
70.9986841892569
20
2.60772594957601
30
0
41
1
10
70.9933228365827
20
2.61779603883757
30
0
41
1
10
70.9824160384946
20
2.63783536411813
30
0
41
1
10
70.9654916023603
20
2.66758619438928
30
0
41
1
10
70.9480450165797
20
2.6970333194517
30
0
41
1
10
70.9301507496869
20
2.72610250627173
30
0
41
1
10
70.9118405852871
20
2.75480282875818
30
0
41
1
10
70.8931563415281
20
2.78315386285946
30
0
41
1
10
70.8740881439333
20
2.8112487556325
30
0
41
1
10
70.8525201403924
20
2.84219612523902
30
0
41
1
10
70.8283549541594
20
2.87592183718623
30
0
41
1
10
70.8015690984637
20
2.91240109700547
30
0
41
1
10
70.7743251144958
20
2.94886814310563
30
0
41
1
10
70.7467412811252
20
2.98540779188683
30
0
41
1
10
70.7189997641104
20
3.02215685253195
30
0
41
1
10
70.6938703735491
20
3.05579327329577
30
0
41
1
10
70.6714412182705
20
3.08638099315468
30
0
41
1
10
70.6517098132159
20
3.11391314856341
30
0
41
1
10
70.6323645108594
20
3.14171663936392
30
0
41
1
10
70.6147472437851
20
3.16797405770454
30
0
41
1
10
70.5988347462847
20
3.19266063702221
30
0
41
1
10
70.5845442343545
20
3.2157144964976
30
0
41
1
10
70.5706805124721
20
3.23902930401775
30
0
41
1
10
70.5572726457777
20
3.26260540946225
30
0
41
1
10
70.5445249088363
20
3.28612212992199
30
0
41
1
10
70.5324352554318
20
3.30956818695983
30
0
41
1
10
70.5209594753422
20
3.33291200938937
30
0
41
1
10
70.509915284495
20
3.35646307643631
30
0
41
1
10
70.498125678351
20
3.38280241680699
30
0
41
1
10
70.485737215071
20
3.41198682362986
30
0
41
1
10
70.4728414384519
20
3.44404162415018
30
0
41
1
10
70.4597389132325
20
3.47819051739234
30
0
41
1
10
70.4464116341756
20
3.51441716083134
30
0
41
1
10
70.4327898618294
20
3.55269091614336
30
0
41
1
10
70.4194262095651
20
3.59105687996035
30
0
41
1
10
70.406168381319
20
3.62946008867033
30
0
41
1
10
70.3928622720651
20
3.6678547763739
30
0
41
1
10
70.3793562487577
20
3.70618910480383
30
0
41
1
10
70.3655626733724
20
3.74443067450893
30
0
41
1
10
70.3513966586308
20
3.78253601156085
30
0
41
1
10
70.3367726682471
20
3.82046541583353
30
0
41
1
10
70.3224420734276
20
3.85609408237169
30
0
41
1
10
70.3084386637368
20
3.88943056813529
30
0
41
1
10
70.2948480271013
20
3.92050494458709
30
0
41
1
10
70.2807761302662
20
3.95136894981943
30
0
41
1
10
70.266201669428
20
3.9819972367704
30
0
41
1
10
70.251105935646
20
4.01236752105631
30
0
41
1
10
70.24067358356
20
4.03242217607488
30
0
41
1
10
70.2353673999147
20
4.0424025327004
30
0
0
SPLINE
5
F1
100
AcDbEntity
8
1
62
256
6
ByLayer
370
-1
48
1
60
0
100
AcDbSpline
70
4
71
3
72
48
73
44
40
0
40
0
40
0
40
0
40
0.0253848426744019
40
0.0507744930376736
40
0.0761665499241138
40
0.101558606749547
40
0.126948256971972
40
0.152333099552462
40
0.177717943115327
40
0.203107594542292
40
0.228499652577862
40
0.253891710549624
40
0.279281361829297
40
0.304666205293946
40
0.330051049762529
40
0.355440702271266
40
0.380832761477858
40
0.40622482062178
40
0.431614472985959
40
0.456999317358153
40
0.47738664417143
40
0.497775216384183
40
0.518163788586557
40
0.538551115385716
40
0.558978426088948
40
0.579406989556384
40
0.599835553014144
40
0.620262863704152
40
0.645417382332494
40
0.670575410211076
40
0.695734608680658
40
0.720892636504562
40
0.746047155087075
40
0.771201674064548
40
0.796359702362044
40
0.821518901280369
40
0.846676929535624
40
0.871831448477728
40
0.897462683451634
40
0.923097631155717
40
0.948733817376351
40
0.974368765050875
40
1
40
1
40
1
40
1
41
1
10
73.4837806136975
20
7.03387699483294
30
0
41
1
10
73.4678897217018
20
7.02470802169323
30
0
41
1
10
73.4359821358243
20
7.00658890568034
30
0
41
1
10
73.3877449003406
20
6.98006827415416
30
0
41
1
10
73.3391433725915
20
6.95421118437894
30
0
41
1
10
73.2901903913948
20
6.92902443262096
30
0
41
1
10
73.2409000715271
20
6.90451538643203
30
0
41
1
10
73.1912814936132
20
6.88068900750713
30
0
41
1
10
73.1413389914795
20
6.85754841265111
30
0
41
1
10
73.0910777014428
20
6.83509495737397
30
0
41
1
10
73.0405072999331
20
6.81333253507897
30
0
41
1
10
72.9896421832341
20
6.79226722650594
30
0
41
1
10
72.9384967480307
20
6.7719051128023
30
0
41
1
10
72.8870805284552
20
6.75225041670663
30
0
41
1
10
72.8353980811436
20
6.73330588016037
30
0
41
1
10
72.7834546416877
20
6.71507243304347
30
0
41
1
10
72.7312601764803
20
6.69755315530197
30
0
41
1
10
72.678829525962
20
6.68075292802217
30
0
41
1
10
72.626177576263
20
6.66467659646087
30
0
41
1
10
72.5767829085195
20
6.65033487282523
30
0
41
1
10
72.5306979936695
20
6.63757230762143
30
0
41
1
10
72.4879653640515
20
6.62624472423175
30
0
41
1
10
72.4451100857332
20
6.61538976686749
30
0
41
1
10
72.4021101483895
20
6.60500222579162
30
0
41
1
10
72.3589696084961
20
6.59508449367427
30
0
41
1
10
72.315692689794
20
6.58563843305464
30
0
41
1
10
72.2723137412315
20
6.57667182074603
30
0
41
1
10
72.2254855116254
20
6.56753137998322
30
0
41
1
10
72.1751841505102
20
6.55835685639781
30
0
41
1
10
72.1213895170773
20
6.54930105788354
30
0
41
1
10
72.0674738099301
20
6.54097854642753
30
0
41
1
10
72.013452080813
20
6.53339166845572
30
0
41
1
10
71.9593351644853
20
6.5265422091552
30
0
41
1
10
71.9051296942504
20
6.52043174875916
30
0
41
1
10
71.8508424866794
20
6.51506032052038
30
0
41
1
10
71.7964844998687
20
6.51042874334901
30
0
41
1
10
71.7420708873867
20
6.50653831124191
30
0
41
1
10
71.6872685848805
20
6.50337018070325
30
0
41
1
10
71.6320833105069
20
6.50094201223294
30
0
41
1
10
71.5765215130875
20
6.49927001762322
30
0
41
1
10
71.5209393591283
20
6.49836942219385
30
0
41
1
10
71.4653518098178
20
6.4982404159869
30
0
41
1
10
71.4282995106641
20
6.49866920586363
30
0
41
1
10
71.4097750165315
20
6.49901222285321
30
0
0
SPLINE
5
F2
100
AcDbEntity
8
1
62
256
6
ByLayer
370
-1
48
1
60
0
100
AcDbSpline
70
4
71
1
72
4
73
2
40
0
40
0
40
1
40
1
41
1
10
74.8938459736399
20
7.84748342032075
30
0
41
1
10
73.4837806136975
20
7.03387699483294
30
0
0
SPLINE
5
F3
100
AcDbEntity
8
1
62
256
6
ByLayer
370
-1
48
1
60
0
100
AcDbSpline
70
4
71
3
72
14
73
10
40
0
40
0
40
0
40
0
40
0.0961406176164882
40
0.0961406176164882
40
0.480703088082491
40
0.480703088082491
40
0.672984323315488
40
0.672984323315488
40
1
40
1
40
1
40
1
41
1
10
74.8938459736401
20
7.84748342032074
30
0
41
1
10
75.0306444391243
20
7.84747920150615
30
0
41
1
10
75.1674429046083
20
7.84747497738937
30
0
41
1
10
75.8514352320276
20
7.84745383029444
30
0
41
1
10
76.3986290939606
20
7.84743682778336
30
0
41
1
10
77.2194198868559
20
7.84741119676493
30
0
41
1
10
77.4930168178203
20
7.84740263188348
30
0
41
1
10
78.2319242894071
20
7.84737944329715
30
0
41
1
10
78.6972348300282
20
7.84736477945647
30
0
41
1
10
79.1625453706474
20
7.84735005427181
30
0
0
SPLINE
5
F4
100
AcDbEntity
8
1
62
256
6
ByLayer
370
-1
48
1
60
0
100
AcDbSpline
70
4
71
3
72
25
73
21
40
0
40
0
40
0
40
0
40
0.0601495856608825
40
0.120292208386574
40
0.161927263388074
40
0.203609509095249
40
0.245244240789323
40
0.297782121259438
40
0.350323648059579
40
0.404266719120569
40
0.458215843034185
40
0.505642075013925
40
0.553115235448918
40
0.600553601263148
40
0.673695005728812
40
0.746850472323622
40
0.821923570774899
40
0.897075779005096
40
0.972179249160138
40
1
40
1
40
1
40
1
41
1
10
78.1188404499948
20
3.71965499388627
30
0
41
1
10
78.1166866779372
20
3.71912957975842
30
0
41
1
10
78.1124605189461
20
3.71785304872181
30
0
41
1
10
78.1069604311623
20
3.71553110133381
30
0
41
1
10
78.1022957371793
20
3.71301210968654
30
0
41
1
10
78.0983938269789
20
3.71050157501485
30
0
41
1
10
78.0943478371889
20
3.70743975303132
30
0
41
1
10
78.0902427207001
20
3.70374010861929
30
0
41
1
10
78.0861323649075
20
3.69930394870523
30
0
41
1
10
78.0823529056705
20
3.69443168160224
30
0
41
1
10
78.0790555901875
20
3.68937987863101
30
0
41
1
10
78.0762236841828
20
3.68427725269629
30
0
41
1
10
78.0738000728194
20
3.679198126142
30
0
41
1
10
78.0712645357791
20
3.67300064781124
30
0
41
1
10
78.0688020712857
20
3.66560485864315
30
0
41
1
10
78.066579640423
20
3.65689555312196
30
0
41
1
10
78.0648937556826
20
3.64791008992863
30
0
41
1
10
78.0637141310347
20
3.63870226918651
30
0
41
1
10
78.0631591772575
20
3.63134519219888
30
0
41
1
10
78.062973122019
20
3.62707418406879
30
0
41
1
10
78.0629331245883
20
3.62591794502167
30
0
0
SPLINE
5
F5
100
AcDbEntity
8
1
62
256
6
ByLayer
370
-1
48
1
60
0
100
AcDbSpline
70
4
71
3
72
33
73
29
40
0
40
0
40
0
40
0
40
0.03834001304393
40
0.0878027401422542
40
0.137264609597977
40
0.186687675370178
40
0.236141646530212
40
0.285638501925656
40
0.33513144846498
40
0.384580084667428
40
0.425208224602067
40
0.465850109990966
40
0.506475377927194
40
0.54713934285733
40
0.587821073051067
40
0.628478815660154
40
0.669226976419378
40
0.71000174421791
40
0.750734907353789
40
0.780906973790657
40
0.811175118234204
40
0.841444836213021
40
0.871653143459566
40
0.901774871824242
40
0.926308282818962
40
0.950911672069744
40
0.975494589323636
40
1
40
1
40
1
40
1
41
1
10
78.2297111265786
20
3.95389117064228
30
0
41
1
10
78.2295815522036
20
3.95017602290635
30
0
41
1
10
78.2291906305331
20
3.94167937429633
30
0
41
1
10
78.2282429170271
20
3.92842846216509
30
0
41
1
10
78.2268067719866
20
3.91417652793824
30
0
41
1
10
78.2249557128847
20
3.9000152583908
30
0
41
1
10
78.2226854335097
20
3.8859647924061
30
0
41
1
10
78.2199856452652
20
3.87204677692993
30
0
41
1
10
78.21684595466
20
3.85829555946427
30
0
41
1
10
78.2134687757286
20
3.84554963807359
30
0
41
1
10
78.2099324901069
20
3.83379518397362
30
0
41
1
10
78.2063077516061
20
3.82300858397063
30
0
41
1
10
78.2023416088793
20
3.81241691391293
30
0
41
1
10
78.1980208130583
20
3.80204563191903
30
0
41
1
10
78.1933248959092
20
3.79192807748158
30
0
41
1
10
78.1882301762915
20
3.78209827227288
30
0
41
1
10
78.1827157771934
20
3.77259852265015
30
0
41
1
10
78.1767496355521
20
3.76348985748945
30
0
41
1
10
78.1708613376512
20
3.75559540977991
30
0
41
1
10
78.1651622553496
20
3.74884099393174
30
0
41
1
10
78.1597577627661
20
3.74313305935582
30
0
41
1
10
78.154042183103
20
3.73782458511126
30
0
41
1
10
78.1480157649374
20
3.73298936791962
30
0
41
1
10
78.1420671659285
20
3.7289600226441
30
0
41
1
10
78.1362531177829
20
3.72569254291297
30
0
41
1
10
78.1306379215177
20
3.72311668087324
30
0
41
1
10
78.1248309035233
20
3.7210452250314
30
0
41
1
10
78.1208543180296
20
3.72005607672183
30
0
41
1
10
78.1188404499949
20
3.71965499388576
30
0
0
SPLINE
5
F6
100
AcDbEntity
8
1
62
256
6
ByLayer
370
-1
48
1
60
0
100
AcDbSpline
70
4
71
3
72
35
73
31
40
0
40
0
40
0
40
0
40
0.0251929655419564
40
0.0504457838387605
40
0.0756551170204032
40
0.100737060948627
40
0.125903878239851
40
0.151146283804986
40
0.176425149296328
40
0.201676277310229
40
0.226814649575688
40
0.258718233872645
40
0.290648961794501
40
0.322561787085124
40
0.364256098143191
40
0.405985909615185
40
0.447691708106384
40
0.487579799489205
40
0.527502116784009
40
0.567430227479034
40
0.607326225521847
40
0.654553532207482
40
0.701822347721286
40
0.74909511418025
40
0.796327813171213
40
0.844523426768315
40
0.892757159450903
40
0.940991961344198
40
0.989189034103164
40
1
40
1
40
1
40
1
41
1
10
78.1293994351071
20
4.20228287263008
30
0
41
1
10
78.131544342574
20
4.20185522275316
30
0
41
1
10
78.1357715564546
20
4.200779214061
30
0
41
1
10
78.141924625453
20
4.19847576965035
30
0
41
1
10
78.1478323201506
20
4.19557653104297
30
0
41
1
10
78.1534749756947
20
4.1921303547953
30
0
41
1
10
78.1588547326565
20
4.18820728637379
30
0
41
1
10
78.1639806271099
20
4.18385491256998
30
0
41
1
10
78.168848004226
20
4.17913168462815
30
0
41
1
10
78.173452201052
20
4.17409535340599
30
0
41
1
10
78.1781890748846
20
4.16831235951028
30
0
41
1
10
78.1829939500732
20
4.161730890858
30
0
41
1
10
78.1878052107202
20
4.15431238639294
30
0
41
1
10
78.1927342429225
20
4.14581670245096
30
0
41
1
10
78.1976814761174
20
4.13618744605792
30
0
41
1
10
78.2025409666759
20
4.12538567628482
30
0
41
1
10
78.2068639373478
20
4.11444578905619
30
0
41
1
10
78.2107065421354
20
4.10342857524369
30
0
41
1
10
78.2141088987309
20
4.09237449455614
30
0
41
1
10
78.2171450377697
20
4.0811495866234
30
0
41
1
10
78.2199962752569
20
4.06908593417704
30
0
41
1
10
78.2226046657468
20
4.05617335928482
30
0
41
1
10
78.224904768066
20
4.042409288829
30
0
41
1
10
78.2267681866125
20
4.02852964180693
30
0
41
1
10
78.2282180351868
20
4.01446932458204
30
0
41
1
10
78.2292565315153
20
4.00024701068103
30
0
41
1
10
78.229879971728
20
3.98588083275234
30
0
41
1
10
78.2300867744063
20
3.97149314663141
30
0
41
1
10
78.2299345303068
20
3.96082713433497
30
0
41
1
10
78.2297486259542
20
3.95496505115044
30
0
41
1
10
78.2297111265786
20
3.95389117064228
30
0
0
SPLINE
5
F7
100
AcDbEntity
8
1
62
256
6
ByLayer
370
-1
48
1
60
0
100
AcDbSpline
70
4
71
3
72
24
73
20
40
0
40
0
40
0
40
0
40
0.0256104960714992
40
0.0967091256956725
40
0.168029219864973
40
0.239401156410397
40
0.310698948030522
40
0.381847697265524
40
0.452831786501759
40
0.509607352890429
40
0.566572642365274
40
0.623557472390773
40
0.680436685642347
40
0.737139826357529
40
0.789571927658826
40
0.842237111625954
40
0.89496424791187
40
0.947596033441711
40
1
40
1
40
1
40
1
41
1
10
78.0912414541806
20
4.30259545898614
30
0
41
1
10
78.0912063760516
20
4.3015961295209
30
0
41
1
10
78.0910996040614
20
4.29782408516694
30
0
41
1
10
78.0910763569237
20
4.29127617053641
30
0
41
1
10
78.0913785649777
20
4.28297566174278
30
0
41
1
10
78.0920418043489
20
4.27471840040924
30
0
41
1
10
78.0930960751279
20
4.26654515653649
30
0
41
1
10
78.0945722254783
20
4.25849697741247
30
0
41
1
10
78.0963705503616
20
4.25113481677636
30
0
41
1
10
78.0984256920205
20
4.24445512051017
30
0
41
1
10
78.1006587194559
20
4.23844195931626
30
0
41
1
10
78.1032364994947
20
4.23261797308526
30
0
41
1
10
78.1061671302288
20
4.22703584924468
30
0
41
1
10
78.1093764339631
20
4.22187234605129
30
0
41
1
10
78.1128553392558
20
4.21715050762291
30
0
41
1
10
78.1165619650608
20
4.21286492232242
30
0
41
1
10
78.1205653519731
20
4.20891973751156
30
0
41
1
10
78.124838867046
20
4.20535279433242
30
0
41
1
10
78.1278526193699
20
4.20325984048953
30
0
41
1
10
78.1293994351071
20
4.20228287263008
30
0
0
SPLINE
5
F8
100
AcDbEntity
8
1
62
256
6
ByLayer
370
-1
48
1
60
0
100
AcDbSpline
70
4
71
3
72
21
73
17
40
0
40
0
40
0
40
0
40
0.0860524632516948
40
0.17210485876766
40
0.257691801738705
40
0.343277772830262
40
0.417852933296646
40
0.492449077126205
40
0.567019201290714
40
0.641663769026875
40
0.716336469885394
40
0.790968647900915
40
0.847080063674219
40
0.903241008841608
40
0.959385407426607
40
1
40
1
40
1
40
1
41
1
10
78.1526032203733
20
4.48638070171407
30
0
41
1
10
78.1496778302362
20
4.48157002910053
30
0
41
1
10
78.1439988748881
20
4.47185302063737
30
0
41
1
10
78.1360047821151
20
4.4570085547445
30
0
41
1
10
78.12854844354
20
4.44192319311265
30
0
41
1
10
78.1219425049449
20
4.42726779758988
30
0
41
1
10
78.1161143609481
20
4.41306517968696
30
0
41
1
10
78.1110108528241
20
4.39935743156669
30
0
41
1
10
78.1063838721211
20
4.38548412218273
30
0
41
1
10
78.1022610476941
20
4.37145719505248
30
0
41
1
10
78.0986867374603
20
4.35728976385298
30
0
41
1
10
78.0959573004088
20
4.34418483336249
30
0
41
1
10
78.0939480296737
20
4.33219142128652
30
0
41
1
10
78.0925384066978
20
4.32134244968547
30
0
41
1
10
78.0916536505195
20
4.3114666350192
30
0
41
1
10
78.0913345960182
20
4.30521877414408
30
0
41
1
10
78.0912414541805
20
4.30259545898614
30
0
0
SPLINE
5
F9
100
AcDbEntity
8
1
62
256
6
ByLayer
370
-1
48
1
60
0
100
AcDbSpline
70
4
71
3
72
12
73
8
40
0
40
0
40
0
40
0
40
0.301738907787239
40
0.301738907787239
40
0.603477815574462
40
0.603477815574462
40
1
40
1
40
1
40
1
41
1
10
79.8156278473073
20
7.49198020686261
30
0
41
1
10
79.7486937588857
20
7.49200544935785
30
0
41
1
10
79.6817596704635
20
7.49203069043732
30
0
41
1
10
79.5478914936182
20
7.49208116976478
30
0
41
1
10
79.4809574051949
20
7.49210640801277
30
0
41
1
10
79.3260636593675
20
7.49216480915901
30
0
41
1
10
79.238104001963
20
7.49219797102816
30
0
41
1
10
79.1501443445575
20
7.49223113045259
30
0
0
SPLINE
5
FA
100
AcDbEntity
8
1
62
256
6
ByLayer
370
-1
48
1
60
0
100
AcDbSpline
70
4
71
3
72
65
73
61
40
0
40
0
40
0
40
0
40
0.0091084376034238
40
0.0200006869875698
40
0.0308571619122568
40
0.0417527244237406
40
0.0526543529741264
40
0.0635191286895924
40
0.0763346349357257
40
0.0891880534543277
40
0.102053478935083
40
0.114885403900847
40
0.129566927086293
40
0.14428167397799
40
0.159028192341386
40
0.173791535294856
40
0.188545162824623
40
0.203252676409371
40
0.22165533931736
40
0.240067712628073
40
0.2584737504653
40
0.282208766638155
40
0.305955873958063
40
0.329694770255986
40
0.353079833026765
40
0.376477764470808
40
0.399877749338322
40
0.423265613727974
40
0.453374350534287
40
0.483483387466373
40
0.513591912897122
40
0.543700353973255
40
0.567867333337574
40
0.592054198698426
40
0.616245004661934
40
0.640426675062445
40
0.664589293852908
40
0.684677638633608
40
0.704770791706869
40
0.724857424315243
40
0.74496792867276
40
0.765085639207508
40
0.785192232061668
40
0.800314735845501
40
0.815451355791484
40
0.830582912357668
40
0.84569850466419
40
0.859733742777882
40
0.873778111183624
40
0.887807641426282
40
0.901412372715111
40
0.915059522203043
40
0.928690875379794
40
0.94227399442213
40
0.952948852351685
40
0.963660268589635
40
0.974366733153378
40
0.985034815090807
40
0.997052444043179
40
1
40
1
40
1
40
1
41
1
10
79.3000176832911
20
4.832652380376
30
0
41
1
10
79.300069197237
20
4.83426678953126
30
0
41
1
10
79.3000380564869
20
4.83781284811846
30
0
41
1
10
79.2995207551281
20
4.84330697150091
30
0
41
1
10
79.2983702077283
20
4.84908203420584
30
0
41
1
10
79.2966783570076
20
4.854780550231
30
0
41
1
10
79.2944810261536
20
4.86036559137419
30
0
41
1
10
79.2916521894483
20
4.86612215203508
30
0
41
1
10
79.2881240248229
20
4.87198819938178
30
0
41
1
10
79.2838813896983
20
4.87791078140907
30
0
41
1
10
79.2791850238775
20
4.88356067565207
30
0
41
1
10
79.2738553476693
20
4.88918433762628
30
0
41
1
10
79.267888316705
20
4.89474134326754
30
0
41
1
10
79.261284597561
20
4.90020152724058
30
0
41
1
10
79.254354724902
20
4.90533282299952
30
0
41
1
10
79.2471538312092
20
4.91014621899636
30
0
41
1
10
79.2397358441697
20
4.91465177397514
30
0
41
1
10
79.2315044650008
20
4.919221620978
30
0
41
1
10
79.2224338192138
20
4.92379259781891
30
0
41
1
10
79.212500735727
20
4.92829734129474
30
0
41
1
10
79.2014150501675
20
4.93283252391778
30
0
41
1
10
79.1891510062896
20
4.93729802905873
30
0
41
1
10
79.1756940982737
20
4.94158586963436
30
0
41
1
10
79.162141070538
20
4.94534910717333
30
0
41
1
10
79.1485256697213
20
4.94862871518863
30
0
41
1
10
79.1348697738769
20
4.95144903086929
30
0
41
1
10
79.1211268332451
20
4.95384111395393
30
0
41
1
10
79.105994363333
20
4.95600964373866
30
0
41
1
10
79.089467384127
20
4.95782200264384
30
0
41
1
10
79.0715500969766
20
4.95912544726674
30
0
41
1
10
79.05359682372
20
4.95978475360973
30
0
41
1
10
79.0368137495447
20
4.95979464372638
30
0
41
1
10
79.0212196055516
20
4.95929537047328
30
0
41
1
10
79.0068237910241
20
4.95840526962575
30
0
41
1
10
78.9924628267281
20
4.95707122313366
30
0
41
1
10
78.9781615484756
20
4.95527907714619
30
0
41
1
10
78.9647386685178
20
4.95314162637157
30
0
41
1
10
78.9521957625678
20
4.95073240818965
30
0
41
1
10
78.9405301995322
20
4.94811481997412
30
0
41
1
10
78.9289623382704
20
4.94511593542963
30
0
41
1
10
78.9175134347862
20
4.94171604960304
30
0
41
1
10
78.9062143656336
20
4.93788406197308
30
0
41
1
10
78.896023323807
20
4.93394380913499
30
0
41
1
10
78.8869198665945
20
4.92999764309114
30
0
41
1
10
78.878872392899
20
4.92614168550732
30
0
41
1
10
78.8710137407837
20
4.92196575017396
30
0
41
1
10
78.8635630778514
20
4.91755953569669
30
0
41
1
10
78.8565384259051
20
4.91293212484094
30
0
41
1
10
78.8499642860257
20
4.90809115162693
30
0
41
1
10
78.8437788082085
20
4.90295834214464
30
0
41
1
10
78.8380320790297
20
4.89752340996419
30
0
41
1
10
78.8327761996403
20
4.89179457441937
30
0
41
1
10
78.828032193536
20
4.88572696099108
30
0
41
1
10
78.8241859042615
20
4.87979316652906
30
0
41
1
10
78.8211814456126
20
4.8740807852605
30
0
41
1
10
78.8188919366165
20
4.86867714453622
30
0
41
1
10
78.8171007706579
20
4.86314661575864
30
0
41
1
10
78.8157784808877
20
4.85729445921475
30
0
41
1
10
78.8152852858654
20
4.85275620001122
30
0
41
1
10
78.8151362407895
20
4.85010972254253
30
0
41
1
10
78.8151133456143
20
4.84958823012686
30
0
0
LINE
5
48
100
AcDbEntity
8
81
62
256
6
ByLayer
370
-1
48
1
60
0
100
AcDbLine
10
82
20
8.5
30
0
11
91.861541
21
8.5
31
0
39
0
210
0
220
0
230
1
0
LINE
5
49
100
AcDbEntity
8
2
62
256
6
ByLayer
370
-1
48
1
60
0
100
AcDbLine
10
112.582003
20
5.325
30
0
11
113.417997
21
5.325
31
0
39
0
210
0
220
0
230
1
0
LINE
5
4A
100
AcDbEntity
8
2
62
256
6
ByLayer
370
-1
48
1
60
0
100
AcDbLine
10
113
20
8.5
30
0
11
113
21
-37.566445
31
0
39
0
210
0
220
0
230
1
0
LINE
5
4B
100
AcDbEntity
8
2
62
256
6
ByLayer
370
-1
48
1
60
0
100
AcDbLine
10
112.922654
20
7.325
30
0
11
112.791002
21
5.325
31
0
39
0
210
0
220
0
230
1
0
LINE
5
4C
100
AcDbEntity
8
2
62
256
6
ByLayer
370
-1
48
1
60
0
100
AcDbLine
10
113
20
8.5
30
0
11
112.582003
21
5.325
31
0
39
0
210
0
220
0
230
1
0
LINE
5
4D
100
AcDbEntity
8
2
62
256
6
ByLayer
370
-1
48
1
60
0
100
AcDbLine
10
113
20
8.5
30
0
11
113.417997
21
5.325
31
0
39
0
210
0
220
0
230
1
0
LINE
5
4E
100
AcDbEntity
8
2
62
256
6
ByLayer
370
-1
48
1
60
0
100
AcDbLine
10
113.077346
20
7.325
30
0
11
113.208998
21
5.325
31
0
39
0
210
0
220
0
230
1
0
LINE
5
4F
100
AcDbEntity
8
2
62
256
6
ByLayer
370
-1
48
1
60
0
100
AcDbLine
10
112.582003
20
5.325
30
0
11
113.417997
21
5.325
31
0
39
0
210
0
220
0
230
1
0
LINE
5
50
100
AcDbEntity
8
2
62
256
6
ByLayer
370
-1
48
1
60
0
100
AcDbLine
10
112.922654
20
7.325
30
0
11
112.791002
21
5.325
31
0
39
0
210
0
220
0
230
1
0
LINE
5
51
100
AcDbEntity
8
2
62
256
6
ByLayer
370
-1
48
1
60
0
100
AcDbLine
10
113
20
8.5
30
0
11
112.582003
21
5.325
31
0
39
0
210
0
220
0
230
1
0
LINE
5
52
100
AcDbEntity
8
2
62
256
6
ByLayer
370
-1
48
1
60
0
100
AcDbLine
10
113
20
8.5
30
0
11
113.417997
21
5.325
31
0
39
0
210
0
220
0
230
1
0
LINE
5
53
100
AcDbEntity
8
2
62
256
6
ByLayer
370
-1
48
1
60
0
100
AcDbLine
10
113.077346
20
7.325
30
0
11
113.208998
21
5.325
31
0
39
0
210
0
220
0
230
1
0
LINE
5
54
100
AcDbEntity
8
2
62
256
6
ByLayer
370
-1
48
1
60
0
100
AcDbLine
10
85
20
8.5
30
0
11
115
21
8.5
31
0
39
0
210
0
220
0
230
1
0
LINE
5
55
100
AcDbEntity
8
80
62
256
6
ByLayer
370
-1
48
1
60
0
100
AcDbLine
10
0
20
0
30
0
11
-5.5
21
0
31
0
39
0
210
0
220
0
230
1
0
LINE
5
56
100
AcDbEntity
8
SK1
62
256
6
ByLayer
370
-1
48
1
60
0
100
AcDbLine
10
-58
20
-8
30
0
11
-22
21
-8
31
0
39
0
210
0
220
0
230
1
0
LINE
5
58
100
AcDbEntity
8
SK1
62
256
6
ByLayer
370
-1
48
1
60
0
100
AcDbLine
10
-59
20
-7
30
0
11
-58
21
-8
31
0
39
0
210
0
220
0
230
1
0
LINE
5
59
100
AcDbEntity
8
SK1
62
256
6
ByLayer
370
-1
48
1
60
0
100
AcDbLine
10
-58
20
7.4
30
0
11
-58
21
-8
31
0
39
0
210
0
220
0
230
1
0
LINE
5
5A
100
AcDbEntity
8
1
62
256
6
ByLayer
370
-1
48
1
60
0
100
AcDbLine
10
1.193846
20
7.8
30
0
11
1.193846
21
-7.8
31
0
39
0
210
0
220
0
230
1
0
LINE
5
5C
100
AcDbEntity
8
1
62
256
6
ByLayer
370
-1
48
1
60
0
100
AcDbLine
10
1.193846
20
-7.8
30
0
11
64.313511
21
-6.631998
31
0
39
0
210
0
220
0
230
1
0
LINE
5
5D
100
AcDbEntity
8
1
62
256
6
ByLayer
370
-1
48
1
60
0
100
AcDbLine
10
69.213029
20
3.529607
30
0
11
67.617548
21
6.528361
31
0
39
0
210
0
220
0
230
1
0
LINE
5
5E
100
AcDbEntity
8
1
62
256
6
ByLayer
370
-1
48
1
60
0
100
AcDbLine
10
68.903636
20
6.545431
30
0
11
70.235367
21
4.042403
31
0
39
0
210
0
220
0
230
1
0
LINE
5
5F
100
AcDbEntity
8
1
62
256
6
ByLayer
370
-1
48
1
60
0
100
AcDbLine
10
73.333574
20
-4.215079
30
0
11
69.976346
21
2.09493
31
0
39
0
210
0
220
0
230
1
0
LINE
5
60
100
AcDbEntity
8
1
62
256
6
ByLayer
370
-1
48
1
60
0
100
AcDbLine
10
71.409775
20
-3.076967
30
0
11
71.409775
21
-4.73056
31
0
39
0
210
0
220
0
230
1
0
LINE
5
61
100
AcDbEntity
8
1
62
256
6
ByLayer
370
-1
48
1
60
0
100
AcDbLine
10
64.313511
20
-6.631998
30
0
11
71.409775
21
-4.73056
31
0
39
0
210
0
220
0
230
1
0
LINE
5
62
100
AcDbEntity
8
1
62
256
6
ByLayer
370
-1
48
1
60
0
100
AcDbLine
10
71.409775
20
-4.73056
30
0
11
72.403765
21
-4.464221
31
0
39
0
210
0
220
0
230
1
0
LINE
5
63
100
AcDbEntity
8
1
62
256
6
ByLayer
370
-1
48
1
60
0
100
AcDbLine
10
74.035978
20
4.891351
30
0
11
74.038596
21
4.96634
31
0
39
0
210
0
220
0
230
1
0
LINE
5
64
100
AcDbEntity
8
1
62
256
6
ByLayer
370
-1
48
1
60
0
100
AcDbLine
10
74.114604
20
5.045318
30
0
11
74.117222
21
5.120306
31
0
39
0
210
0
220
0
230
1
0
LINE
5
65
100
AcDbEntity
8
1
62
256
6
ByLayer
370
-1
48
1
60
0
100
AcDbLine
10
74.170212
20
5.205058
30
0
11
74.117222
21
5.120306
31
0
39
0
210
0
220
0
230
1
0
LINE
5
66
100
AcDbEntity
8
1
62
256
6
ByLayer
370
-1
48
1
60
0
100
AcDbLine
10
74.167594
20
5.13007
30
0
11
74.170212
21
5.205058
31
0
39
0
210
0
220
0
230
1
0
LINE
5
67
100
AcDbEntity
8
1
62
256
6
ByLayer
370
-1
48
1
60
0
100
AcDbLine
10
74.114604
20
5.045318
30
0
11
74.167594
21
5.13007
31
0
39
0
210
0
220
0
230
1
0
LINE
5
68
100
AcDbEntity
8
1
62
256
6
ByLayer
370
-1
48
1
60
0
100
AcDbLine
10
80.88322
20
-2.192158
30
0
11
74.467141
21
-3.911341
31
0
39
0
210
0
220
0
230
1
0
LINE
5
69
100
AcDbEntity
8
1
62
256
6
ByLayer
370
-1
48
1
60
0
100
AcDbLine
10
74.467141
20
-3.911341
30
0
11
73.333574
21
-4.215079
31
0
39
0
210
0
220
0
230
1
0
LINE
5
6A
100
AcDbEntity
8
1
62
256
6
ByLayer
370
-1
48
1
60
0
100
AcDbLine
10
70.998684
20
2.607726
30
0
11
74.467141
21
-3.911341
31
0
39
0
210
0
220
0
230
1
0
LINE
5
6B
100
AcDbEntity
8
1
62
256
6
ByLayer
370
-1
48
1
60
0
100
AcDbLine
10
75.545553
20
5.447976
30
0
11
75.548172
21
5.522964
31
0
39
0
210
0
220
0
230
1
0
LINE
5
6C
100
AcDbEntity
8
1
62
256
6
ByLayer
370
-1
48
1
60
0
100
AcDbLine
10
75.806485
20
5.361647
30
0
11
75.548172
21
5.522964
31
0
39
0
210
0
220
0
230
1
0
LINE
5
6D
100
AcDbEntity
8
1
62
256
6
ByLayer
370
-1
48
1
60
0
100
AcDbLine
10
77.476499
20
3.97856
30
0
11
77.475628
21
3.953607
31
0
39
0
210
0
220
0
230
1
0
LINE
5
6E
100
AcDbEntity
8
1
62
256
6
ByLayer
370
-1
48
1
60
0
100
AcDbLine
10
78.117818
20
3.690366
30
0
11
78.11884
21
3.719655
31
0
39
0
210
0
220
0
230
1
0
LINE
5
6F
100
AcDbEntity
8
1
62
256
6
ByLayer
370
-1
48
1
60
0
100
AcDbLine
10
78.390619
20
4.576416
30
0
11
78.391639
21
4.605646
31
0
39
0
210
0
220
0
230
1
0
LINE
5
70
100
AcDbEntity
8
1
62
256
6
ByLayer
370
-1
48
1
60
0
100
AcDbLine
10
78.392007
20
4.577712
30
0
11
78.393028
21
4.606942
31
0
39
0
210
0
220
0
230
1
0
LINE
5
71
100
AcDbEntity
8
1
62
256
6
ByLayer
370
-1
48
1
60
0
100
AcDbLine
10
78.753547
20
3.012797
30
0
11
78.754568
21
3.042027
31
0
39
0
210
0
220
0
230
1
0
LINE
5
72
100
AcDbEntity
8
1
62
256
6
ByLayer
370
-1
48
1
60
0
100
AcDbLine
10
78.755599
20
3.0283
30
0
11
78.756608
21
3.05722
31
0
39
0
210
0
220
0
230
1
0
LINE
5
73
100
AcDbEntity
8
1
62
256
6
ByLayer
370
-1
48
1
60
0
100
AcDbLine
10
78.817042
20
4.831038
30
0
11
78.817083
21
4.832213
31
0
39
0
210
0
220
0
230
1
0
LINE
5
74
100
AcDbEntity
8
1
62
256
6
ByLayer
370
-1
48
1
60
0
100
AcDbLine
10
79.233351
20
3.040572
30
0
11
79.232341
21
3.011652
31
0
39
0
210
0
220
0
230
1
0
LINE
5
75
100
AcDbEntity
8
1
62
256
6
ByLayer
370
-1
48
1
60
0
100
AcDbLine
10
79.233306
20
2.996043
30
0
11
79.234327
21
3.025274
31
0
39
0
210
0
220
0
230
1
0
LINE
5
76
100
AcDbEntity
8
1
62
256
6
ByLayer
370
-1
48
1
60
0
100
AcDbLine
10
79.294779
20
4.799645
30
0
11
79.293769
21
4.770726
31
0
39
0
210
0
220
0
230
1
0
LINE
5
77
100
AcDbEntity
8
1
62
256
6
ByLayer
370
-1
48
1
60
0
100
AcDbLine
10
79.296802
20
4.81435
30
0
11
79.296841
21
4.815459
31
0
39
0
210
0
220
0
230
1
0
LINE
5
78
100
AcDbEntity
8
1
62
256
6
ByLayer
370
-1
48
1
60
0
100
AcDbLine
10
79.705298
20
4.533907
30
0
11
79.706321
21
4.563196
31
0
39
0
210
0
220
0
230
1
0
LINE
5
79
100
AcDbEntity
8
1
62
256
6
ByLayer
370
-1
48
1
60
0
100
AcDbLine
10
79.911393
20
3.626688
30
0
11
79.912414
21
3.655918
31
0
39
0
210
0
220
0
230
1
0
LINE
5
7A
100
AcDbEntity
8
1
62
256
6
ByLayer
370
-1
48
1
60
0
100
AcDbLine
10
79.820585
20
3.871719
30
0
11
79.821513
21
3.898305
31
0
39
0
210
0
220
0
230
1
0
LINE
5
7B
100
AcDbEntity
8
SK1
62
256
6
ByLayer
370
-1
48
1
60
0
100
AcDbLine
10
-21.6
20
-8
30
0
11
-1
21
-8
31
0
39
0
210
0
220
0
230
1
0
LINE
5
7C
100
AcDbEntity
8
SK1
62
256
6
ByLayer
370
-1
48
1
60
0
100
AcDbLine
10
-21.6
20
7.4
30
0
11
-21.6
21
-8
31
0
39
0
210
0
220
0
230
1
0
LINE
5
7D
100
AcDbEntity
8
SK1
62
256
6
ByLayer
370
-1
48
1
60
0
100
AcDbLine
10
-1
20
7.4
30
0
11
-21.6
21
7.4
31
0
39
0
210
0
220
0
230
1
0
LINE
5
7E
100
AcDbEntity
8
1
62
256
6
ByLayer
370
-1
48
1
60
0
100
AcDbLine
10
-1
20
8
30
0
11
-1
21
7.4
31
0
39
0
210
0
220
0
230
1
0
LINE
5
7F
100
AcDbEntity
8
1
62
256
6
ByLayer
370
-1
48
1
60
0
100
AcDbLine
10
1
20
8
30
0
11
-1
21
8
31
0
39
0
210
0
220
0
230
1
0
LINE
5
80
100
AcDbEntity
8
1
62
256
6
ByLayer
370
-1
48
1
60
0
100
AcDbLine
10
1
20
-8
30
0
11
1
21
8
31
0
39
0
210
0
220
0
230
1
0
LINE
5
81
100
AcDbEntity
8
1
62
256
6
ByLayer
370
-1
48
1
60
0
100
AcDbLine
10
-1
20
-8
30
0
11
1
21
-8
31
0
39
0
210
0
220
0
230
1
0
LINE
5
82
100
AcDbEntity
8
1
62
256
6
ByLayer
370
-1
48
1
60
0
100
AcDbLine
10
81.959759
20
8.29175
30
0
11
81.648039
21
-0.634746
31
0
39
0
210
0
220
0
230
1
0
LINE
5
83
100
AcDbEntity
8
1
62
256
6
ByLayer
370
-1
48
1
60
0
100
AcDbLine
10
73.774837
20
4.282088
30
0
11
81.665983
21
8.475214
31
0
39
0
210
0
220
0
230
1
0
LINE
5
84
100
AcDbEntity
8
1
62
256
6
ByLayer
370
-1
48
1
60
0
100
AcDbLine
10
81.34218
20
-0.79727
30
0
11
73.762755
21
3.9361
31
0
39
0
210
0
220
0
230
1
0
LINE
5
85
100
AcDbEntity
8
1
62
256
6
ByLayer
370
-1
48
1
60
0
100
AcDbLine
10
78.818037
20
4.816294
30
0
11
78.817027
21
4.787374
31
0
39
0
210
0
220
0
230
1
0
LINE
5
86
100
AcDbEntity
8
1
62
256
6
ByLayer
370
-1
48
1
60
0
100
AcDbLine
10
80.57374
20
3.845419
30
0
11
80.574611
21
3.870371
31
0
39
0
210
0
220
0
230
1
0
LINE
5
87
100
AcDbEntity
8
1
62
256
6
ByLayer
370
-1
48
1
60
0
100
AcDbLine
10
72.403765
20
-4.464221
30
0
11
73.333574
21
-4.215079
31
0
39
0
210
0
220
0
230
1
0
LINE
5
88
100
AcDbEntity
8
SK1
62
256
6
ByLayer
370
-1
48
1
60
0
100
AcDbLine
10
-22
20
7.4
30
0
11
-22
21
-8
31
0
39
0
210
0
220
0
230
1
0
LINE
5
89
100
AcDbEntity
8
SK1
62
256
6
ByLayer
370
-1
48
1
60
0
100
AcDbLine
10
-58
20
7.4
30
0
11
-22
21
7.4
31
0
39
0
210
0
220
0
230
1
0
LINE
5
8A
100
AcDbEntity
8
SK1
62
256
6
ByLayer
370
-1
48
1
60
0
100
AcDbLine
10
-58.6
20
7.4
30
0
11
-58
21
7.4
31
0
39
0
210
0
220
0
230
1
0
LINE
5
8B
100
AcDbEntity
8
SK1
62
256
6
ByLayer
370
-1
48
1
60
0
100
AcDbLine
10
-59
20
7
30
0
11
-58.6
21
7.4
31
0
39
0
210
0
220
0
230
1
0
LINE
5
8C
100
AcDbEntity
8
SK1
62
256
6
ByLayer
370
-1
48
1
60
0
100
AcDbLine
10
-59
20
-7
30
0
11
-59
21
7
31
0
39
0
210
0
220
0
230
1
0
LINE
5
8D
100
AcDbEntity
8
1
62
256
6
ByLayer
370
-1
48
1
60
0
100
AcDbLine
10
1.193846
20
7.8
30
0
11
68.250518
21
6.559145
31
0
39
0
210
0
220
0
230
1
0
LINE
5
8E
100
AcDbEntity
8
1
62
256
6
ByLayer
370
-1
48
1
60
0
100
AcDbLine
10
79.137554
20
7.13168
30
0
11
79.162545
21
7.84735
31
0
39
0
210
0
220
0
230
1
0
LINE
5
8F
100
AcDbEntity
8
SK1
62
256
6
ByLayer
370
-1
48
1
60
0
100
AcDbLine
10
-21.6
20
7.4
30
0
11
-22
21
7.4
31
0
39
0
210
0
220
0
230
1
0
LINE
5
90
100
AcDbEntity
8
1
62
256
6
ByLayer
370
-1
48
1
60
0
100
AcDbLine
10
78.229711
20
3.953892
30
0
11
78.228783
21
3.927306
31
0
39
0
210
0
220
0
230
1
0
LINE
5
91
100
AcDbEntity
8
1
62
256
6
ByLayer
370
-1
48
1
60
0
100
AcDbLine
10
80.88322
20
-2.192158
30
0
11
80.940686
21
-0.546536
31
0
39
0
210
0
220
0
230
1
0
LINE
5
92
100
AcDbEntity
8
1
62
256
6
ByLayer
370
-1
48
1
60
0
100
AcDbLine
10
75.545553
20
5.447976
30
0
11
75.740194
21
5.326422
31
0
39
0
210
0
220
0
230
1
0
LINE
5
93
100
AcDbEntity
8
SK4
62
256
6
ByLayer
370
-1
48
0.05
60
0
100
AcDbLine
10
86
20
0
30
0
11
-68
21
0
31
0
39
0
210
0
220
0
230
1
0
LINE
5
95
100
AcDbEntity
8
4
62
256
6
ByLayer
370
-1
48
0.05
60
0
100
AcDbLine
10
82
20
0
30
0
11
0
21
0
31
0
39
0
210
0
220
0
230
1
0
MTEXT
5
FB
100
AcDbEntity
8
2
62
256
6
ByLayer
370
-1
48
1
60
0
100
AcDbMText
10
112.132816
20
-34.814878
30
0
210
0
220
0
230
1
1
\W00.744;\fsimplex.shx,bigfont.shx;Dc = 17.0 - 23.0\P
40
3
41
0
44
1.084337
50
89.9999999999995
71
7
72
5
7
DEFAULT
0
MTEXT
5
FE
100
AcDbEntity
8
SK6
62
256
6
ByLayer
370
-1
48
1
60
0
100
AcDbMText
10
86.04586
20
19.607823
30
0
210
0
220
0
230
1
1
\W00.750;\fsimplex.shx,bigfont.shx;R429U-A16-17080TC09\P
40
3.5
41
0
44
1.084337
50
0
71
7
72
5
7
DEFAULT
0
DIMENSION
5
109
100
AcDbEntity
8
2
62
256
6
ByLayer
370
-3
48
1
60
0
100
AcDbDimension
2
DimnDraft3D1
10
82
20
37.384622
30
0
11
38.557895
21
37.384622
31
0
70
32
71
5
72
1
41
1
210
0
220
0
230
1
3
Standard
100
AcDbAlignedDimension
13
2
23
2
33
0
14
82
24
10.5
34
0
50
0
100
AcDbRotatedDimension
1001
ACAD
1000
DSTYLE
1002
{
1070
   279
1070
     0
1070
   172
1070
     1
1070
   173
1070
     1
1070
   340
1005
FC
1070
   271
1070
     1
1070
    77
1070
     1
1070
    73
1070
     0
1070
   171
1070
     4
1070
   274
1070
     4
1070
   177
1070
     7
1070
   176
1070
     7
1070
   178
1070
     7
1070
    41
1041
3.175
1070
   147
1041
1.5
1070
    42
1041
2.0
1070
    44
1041
2.0
1070
   140
1041
3.0
1070
   343
1005
0
1070
   344
1005
0
1002
}
0
DIMENSION
5
113
100
AcDbEntity
8
2
62
256
6
ByLayer
370
-3
48
1
60
0
100
AcDbDimension
2
DimnDraft3D2
10
82
20
53.340848
30
0
11
37.557895
21
53.340848
31
0
70
32
71
5
72
1
41
1
210
0
220
0
230
1
3
Standard
100
AcDbAlignedDimension
13
0
23
2
33
0
14
82
24
10.5
34
0
50
0
100
AcDbRotatedDimension
1001
ACAD
1000
DSTYLE
1002
{
1070
   279
1070
     0
1070
   172
1070
     1
1070
   173
1070
     1
1070
   340
1005
FC
1070
   271
1070
     1
1070
    77
1070
     1
1070
    73
1070
     0
1070
   171
1070
     4
1070
   274
1070
     4
1070
   177
1070
     7
1070
   176
1070
     7
1070
   178
1070
     7
1070
    41
1041
3.175
1070
   147
1041
1.5
1070
    42
1041
2.0
1070
    44
1041
2.0
1070
   140
1041
3.0
1070
   343
1005
0
1070
   344
1005
0
1002
}
0
DIMENSION
5
11E
100
AcDbEntity
8
SK2
62
256
6
ByLayer
370
-3
48
1
60
0
100
AcDbDimension
2
DimnDraft3D3
10
-72.5
20
8
30
0
11
-72.5
21
-5.388158
31
0
70
32
71
5
72
1
41
1
210
0
220
0
230
1
3
Standard
100
AcDbAlignedDimension
13
-60
23
-8
33
0
14
-3
24
8
34
0
50
90
100
AcDbRotatedDimension
1001
ACAD
1000
DSTYLE
1002
{
1070
    74
1070
     0
1070
   279
1070
     0
1070
   172
1070
     1
1070
   173
1070
     1
1070
   340
1005
FC
1070
   271
1070
     1
1070
    77
1070
     1
1070
    73
1070
     0
1070
   171
1070
     4
1070
   274
1070
     4
1070
   177
1070
     7
1070
   176
1070
     7
1070
   178
1070
     7
1070
    41
1041
3.175
1070
   147
1041
1.5
1070
    42
1041
2.0
1070
    44
1041
2.0
1070
   140
1041
3.0
1070
   343
1005
0
1070
   344
1005
0
1002
}
0
DIMENSION
5
128
100
AcDbEntity
8
2
62
256
6
ByLayer
370
-3
48
1
60
0
100
AcDbDimension
2
DimnDraft3D4
10
26.355692
20
-7.8
30
0
11
26.355692
21
13.455921
31
0
70
32
71
5
72
1
41
1
210
0
220
0
230
1
3
Standard
100
AcDbAlignedDimension
13
3.193846
23
7.8
33
0
14
3.193846
24
-7.8
34
0
50
90
100
AcDbRotatedDimension
1001
ACAD
1000
DSTYLE
1002
{
1070
    74
1070
     0
1070
   279
1070
     0
1070
   172
1070
     1
1070
   173
1070
     1
1070
   340
1005
FC
1070
   271
1070
     1
1070
    77
1070
     1
1070
    73
1070
     0
1070
   171
1070
     4
1070
   274
1070
     4
1070
   177
1070
     7
1070
   176
1070
     7
1070
   178
1070
     7
1070
    41
1041
3.175
1070
   147
1041
1.5
1070
    42
1041
2.0
1070
    44
1041
2.0
1070
   140
1041
3.0
1070
   343
1005
0
1070
   344
1005
0
1002
}
0
DIMENSION
5
132
100
AcDbEntity
8
2
62
256
6
ByLayer
370
-3
48
1
60
0
100
AcDbDimension
2
DimnDraft3D5
10
108.233768
20
8.5
30
0
11
95.835659
21
-9.756711
31
0
70
34
71
5
72
1
41
1
210
0
220
0
230
1
3
Standard
100
AcDb2LineAngularDimension
13
81.57824
23
-2.633528
33
0
14
81.050335
24
-17.750736
34
0
15
84
25
8.5
35
0
16
96.740148
26
-6.798011
36
0
40
0
0
DIMENSION
5
13C
100
AcDbEntity
8
SK2
62
256
6
ByLayer
370
-3
48
1
60
0
100
AcDbDimension
2
DimnDraft3D6
10
-59
20
68.277844
30
0
11
7.548684
21
68.277844
31
0
70
32
71
5
72
1
41
1
210
0
220
0
230
1
3
Standard
100
AcDbAlignedDimension
13
82
23
10.5
33
0
14
-59
24
9
34
0
50
0
100
AcDbRotatedDimension
1001
ACAD
1000
DSTYLE
1002
{
1070
   279
1070
     0
1070
   172
1070
     1
1070
   173
1070
     1
1070
   340
1005
FC
1070
   271
1070
     1
1070
    77
1070
     1
1070
    73
1070
     0
1070
   171
1070
     4
1070
   274
1070
     4
1070
   177
1070
     7
1070
   176
1070
     7
1070
   178
1070
     7
1070
    41
1041
3.175
1070
   147
1041
1.5
1070
    42
1041
2.0
1070
    44
1041
2.0
1070
   140
1041
3.0
1070
   343
1005
0
1070
   344
1005
0
1002
}
0
ENDSEC
0
SECTION
2
OBJECTS
0
DICTIONARY
5
18b
330
0
100
AcDbDictionary
280
0
281
1
3
ACAD_GROUP
350
18c
3
ACAD_MLINESTYLE
350
18d
0
DICTIONARY
5
18c
330
0
100
AcDbDictionary
280
0
281
1
0
DICTIONARY
5
18d
330
0
100
AcDbDictionary
280
0
281
1
3
Standard
350
18
0
MLINESTYLE
5
18
330
18d
100
AcDbMlineStyle
2
Standard
70
0
3

62
256
51
90
52
90
71
2
49
-0.5
62
256
6
ByLayer
49
0.5
62
256
6
ByLayer
0
RASTERVARIABLES
5
179
330

100
AcDbRasterVariables
90
0
70
1
71
1
72
1
0
ENDSEC
0
EOF
