0
SECTION
2
HEADER
9
$ACADVER
1
AC1015
9
$DWGCODEPAGE
3
ANSI_1252
9
$HANDSEED
5
176
9
$ANGBASE
50
0
9
$ANGDIR
70
0
9
$ATTMODE
70
1
9
$AUNITS
70
0
9
$AUPREC
70
0
9
$CECOLOR
62
256
9
$CELTSCALE
40
1
9
$CELTYPE
6
ByLayer
9
$CELWEIGHT
370
-1
9
$CLAYER
8
0
9
$CMLJUST
70
0
9
$CMLSCALE
40
1
9
$CMLSTYLE
2
Standard
9
$DIMSTYLE
2
Standard
9
$TEXTSIZE
40
0.2
9
$TEXTSTYLE
7
Standard
9
$LUNITS
70
2
9
$LUPREC
70
4
9
$EXTNAMES
290
1
9
$INSUNITS
70
4
9
$LTSCALE
40
1
9
$LWDISPLAY
290
0
9
$PDMODE
70
0
9
$PDSIZE
40
0
9
$PLINEGEN
70
0
0
ENDSEC
0
SECTION
2
CLASSES
0
CLASS
1
RASTERVARIABLES
2
AcDbRasterVariables
3
ISM
90
0
280
0
281
0
0
ENDSEC
0
SECTION
2
TABLES
0
TABLE
2
VPORT
5
16c
100
AcDbSymbolTable
0
VPORT
5
1
100
AcDbSymbolTableRecord
100
AcDbViewportTableRecord
2
*Active
70
0
10
0
20
0
11
1
21
1
12
-1
22
1
13
0
23
0
14
0.5
24
0.5
15
10
25
10
16
0
26
0
36
1
17
0
27
0
37
0
0
ENDTAB
0
TABLE
2
LTYPE
5
16d
100
AcDbSymbolTable
0
LTYPE
5
14
100
AcDbSymbolTableRecord
100
AcDbLinetypeTableRecord
70
0
2
ByBlock
3

72
65
73
0
40
0
0
LTYPE
5
15
100
AcDbSymbolTableRecord
100
AcDbLinetypeTableRecord
70
0
2
ByLayer
3

72
65
73
0
40
0
0
LTYPE
5
16
100
AcDbSymbolTableRecord
100
AcDbLinetypeTableRecord
70
0
2
CONTINUOUS
3
Solid line
72
65
73
0
40
0
0
LTYPE
5
3C
100
AcDbSymbolTableRecord
100
AcDbLinetypeTableRecord
70
0
2
DASHED
3
__ __ __ __ __ __ __ __ __
72
65
73
2
40
25.72
49
12.86
74
0
49
-12.86
74
0
0
LTYPE
5
3D
100
AcDbSymbolTableRecord
100
AcDbLinetypeTableRecord
70
0
2
HIDDEN
3
_ _ _ _ _ _ _ _ _ _ _ _ _ _ _
72
65
73
2
40
0.5
49
0.25
74
0
49
-0.25
74
0
0
LTYPE
5
3E
100
AcDbSymbolTableRecord
100
AcDbLinetypeTableRecord
70
0
2
PHANTOM
3
____ _ _ ____ _ _ _____ _ _ ____
72
65
73
6
40
50.5
49
18
74
0
49
-6.5
74
0
49
6.5
74
0
49
-6.5
74
0
49
6.5
74
0
49
-6.5
74
0
0
LTYPE
5
3F
100
AcDbSymbolTableRecord
100
AcDbLinetypeTableRecord
70
0
2
CENTER
3
____ _ ____ _ ____ _ ____
72
65
73
4
40
47.5
49
22
74
0
49
-8.5
74
0
49
8.5
74
0
49
-8.5
74
0
0
LTYPE
5
40
100
AcDbSymbolTableRecord
100
AcDbLinetypeTableRecord
70
0
2
DOT
3
.........................
72
65
73
2
40
10
49
0
74
0
49
-10
74
0
0
LTYPE
5
41
100
AcDbSymbolTableRecord
100
AcDbLinetypeTableRecord
70
0
2
DASHDOT
3
_._._._._._._._._._._._._._._._.
72
65
73
4
40
70
49
31
74
0
49
-13
74
0
49
13
74
0
49
-13
74
0
0
ENDTAB
0
TABLE
2
LAYER
5
16e
100
AcDbSymbolTable
0
LAYER
5
10
100
AcDbSymbolTableRecord
100
AcDbLayerTableRecord
2
0
70
0
62
7
6
CONTINUOUS
290
1
370
-3
390
0
0
LAYER
5
43
100
AcDbSymbolTableRecord
100
AcDbLayerTableRecord
2
80
70
0
62
-6
6
CONTINUOUS
290
1
370
-3
390
0
0
LAYER
5
45
100
AcDbSymbolTableRecord
100
AcDbLayerTableRecord
2
81
70
0
62
-3
6
CONTINUOUS
290
1
370
-3
390
0
0
LAYER
5
47
100
AcDbSymbolTableRecord
100
AcDbLayerTableRecord
2
2
70
0
62
7
6
CONTINUOUS
290
1
370
-3
390
0
0
LAYER
5
57
100
AcDbSymbolTableRecord
100
AcDbLayerTableRecord
2
1
70
0
62
4
6
CONTINUOUS
290
1
370
-3
390
0
0
LAYER
5
AE
100
AcDbSymbolTableRecord
100
AcDbLayerTableRecord
2
4
70
0
62
-2
6
CENTER
290
1
370
-3
390
0
0
LAYER
5
158
100
AcDbSymbolTableRecord
100
AcDbLayerTableRecord
2
SK1
70
0
62
4
6
CONTINUOUS
290
1
370
-3
390
0
0
LAYER
5
159
100
AcDbSymbolTableRecord
100
AcDbLayerTableRecord
2
SK4
70
0
62
2
6
CENTER
290
1
370
-3
390
0
0
LAYER
5
15a
100
AcDbSymbolTableRecord
100
AcDbLayerTableRecord
2
SK6
70
0
62
5
6
CONTINUOUS
290
1
370
-3
390
0
0
LAYER
5
15b
100
AcDbSymbolTableRecord
100
AcDbLayerTableRecord
2
SK2
70
0
62
7
6
CONTINUOUS
290
1
370
-3
390
0
0
ENDTAB
0
TABLE
2
STYLE
5
16f
100
AcDbSymbolTable
0
STYLE
5
11
100
AcDbSymbolTableRecord
100
AcDbTextStyleTableRecord
2
Standard
3
txt
70
0
71
0
40
0
41
1
42
0
50
0
0
STYLE
5
EE
100
AcDbSymbolTableRecord
100
AcDbTextStyleTableRecord
2
DEFAULT
3
simplex.shx
70
0
71
0
40
0
41
1
42
0
50
0
0
STYLE
5
EF
100
AcDbSymbolTableRecord
100
AcDbTextStyleTableRecord
2
DWGDirectTextStyle
3
SIMPLEX
70
0
71
0
40
0
41
1
42
0
50
0
0
ENDTAB
0
TABLE
2
DIMSTYLE
5
170
100
AcDbSymbolTable
100
AcDbDimStyleTable
0
DIMSTYLE
105
27
100
AcDbSymbolTableRecord
100
AcDbDimStyleTableRecord
2
Standard
70
0
3
<>
41
0.18
42
0.0625
44
0.18
140
0.18
147
0.09
73
0
74
0
77
1
271
2
275
0
278
52
280
0
340
11
0
ENDTAB
0
TABLE
2
VIEW
5
171
100
AcDbSymbolTable
0
ENDTAB
0
TABLE
2
UCS
5
172
100
AcDbSymbolTable
0
ENDTAB
0
TABLE
2
APPID
5
173
100
AcDbSymbolTable
0
APPID
5
12
100
AcDbSymbolTableRecord
100
AcDbRegAppTableRecord
2
ACAD
70
0
0
ENDTAB
0
TABLE
2
BLOCK_RECORD
5
174
100
AcDbSymbolTable
0
BLOCK_RECORD
5
1F
100
AcDbSymbolTableRecord
100
AcDbBlockTableRecord
2
*Model_Space
340
0
70
0
0
BLOCK_RECORD
5
1B
100
AcDbSymbolTableRecord
100
AcDbBlockTableRecord
2
*Paper_Space
340
0
70
0
0
BLOCK_RECORD
5
23
100
AcDbSymbolTableRecord
100
AcDbBlockTableRecord
2
*Paper_Space0
340
0
70
0
0
BLOCK_RECORD
5
F2
100
AcDbSymbolTableRecord
100
AcDbBlockTableRecord
2
DimnDraft3D1
340
0
70
0
0
BLOCK_RECORD
5
FD
100
AcDbSymbolTableRecord
100
AcDbBlockTableRecord
2
DimnDraft3D2
340
0
70
0
0
BLOCK_RECORD
5
107
100
AcDbSymbolTableRecord
100
AcDbBlockTableRecord
2
DimnDraft3D3
340
0
70
0
0
BLOCK_RECORD
5
111
100
AcDbSymbolTableRecord
100
AcDbBlockTableRecord
2
DimnDraft3D4
340
0
70
0
0
ENDTAB
0
ENDSEC
0
SECTION
2
BLOCKS
0
BLOCK
5
20
100
AcDbEntity
8
0
100
AcDbBlockBegin
2
*Model_Space
70
0
10
0
20
0
30
0
3
*Model_Space
0
ENDBLK
5
21
100
AcDbEntity
8
0
100
AcDbBlockEnd
0
BLOCK
5
1C
100
AcDbEntity
8
0
100
AcDbBlockBegin
2
*Paper_Space
70
0
10
0
20
0
30
0
3
*Paper_Space
0
ENDBLK
5
1D
100
AcDbEntity
8
0
100
AcDbBlockEnd
0
BLOCK
5
24
100
AcDbEntity
8
0
100
AcDbBlockBegin
2
*Paper_Space0
70
0
10
0
20
0
30
0
3
*Paper_Space0
0
ENDBLK
5
25
100
AcDbEntity
8
0
100
AcDbBlockEnd
0
BLOCK
5
FA
100
AcDbEntity
8
0
100
AcDbBlockBegin
2
DimnDraft3D1
70
0
10
0
20
0
30
0
3
DimnDraft3D1
0
MTEXT
5
F3
100
AcDbEntity
8
SK2
62
256
6
ByLayer
370
-1
48
1
60
0
100
AcDbMText
10
-6.140789
20
44.125019
30
0
210
0
220
0
230
1
1
\W01.000;\fsimplex.shx,bigfont.shx;70.0\P
40
3.5
41
0
44
1.084337
50
0
71
7
72
5
7
DEFAULT
0
LINE
5
F5
100
AcDbEntity
8
SK2
62
256
6
ByLayer
370
-1
48
1
60
0
100
AcDbLine
10
32
20
7.05
30
0
11
32
21
45.250019
31
0
39
0
210
0
220
0
230
1
0
LINE
5
F6
100
AcDbEntity
8
SK2
62
256
6
ByLayer
370
-1
48
1
60
0
100
AcDbLine
10
-38
20
9
30
0
11
-38
21
45.250019
31
0
39
0
210
0
220
0
230
1
0
LINE
5
F7
100
AcDbEntity
8
SK2
62
256
6
ByLayer
370
-1
48
1
60
0
100
AcDbLine
10
32
20
43.250019
30
0
11
-38
21
43.250019
31
0
39
0
210
0
220
0
230
1
0
SOLID
5
F8
100
AcDbEntity
8
SK2
62
256
6
ByLayer
370
-1
48
1
60
0
100
AcDbTrace
10
32
20
43.250019
30
0
11
28.825002
21
42.832023
31
0
12
28.824998
22
43.668016
32
0
13
32
23
43.250019
33
0
39
0
210
0
220
0
230
1
0
SOLID
5
F9
100
AcDbEntity
8
SK2
62
256
6
ByLayer
370
-1
48
1
60
0
100
AcDbTrace
10
-38
20
43.250019
30
0
11
-34.825002
21
43.668016
31
0
12
-34.824998
22
42.832023
32
0
13
-38
23
43.250019
33
0
39
0
210
0
220
0
230
1
0
ENDBLK
5
FB
100
AcDbEntity
8
0
100
AcDbBlockEnd
0
BLOCK
5
104
100
AcDbEntity
8
0
100
AcDbBlockBegin
2
DimnDraft3D2
70
0
10
0
20
0
30
0
3
DimnDraft3D2
0
MTEXT
5
FE
100
AcDbEntity
8
2
62
256
6
ByLayer
370
-1
48
1
60
0
100
AcDbMText
10
12.859211
20
29.125019
30
0
210
0
220
0
230
1
1
\W01.000;\fsimplex.shx,bigfont.shx;32.0\P
40
3.5
41
0
44
1.084337
50
0
71
7
72
5
7
DEFAULT
0
LINE
5
FF
100
AcDbEntity
8
2
62
256
6
ByLayer
370
-1
48
1
60
0
100
AcDbLine
10
32
20
7.05
30
0
11
32
21
30.250019
31
0
39
0
210
0
220
0
230
1
0
LINE
5
100
100
AcDbEntity
8
2
62
256
6
ByLayer
370
-1
48
1
60
0
100
AcDbLine
10
0
20
13.5
30
0
11
0
21
30.250019
31
0
39
0
210
0
220
0
230
1
0
LINE
5
101
100
AcDbEntity
8
2
62
256
6
ByLayer
370
-1
48
1
60
0
100
AcDbLine
10
32
20
28.250019
30
0
11
0
21
28.250019
31
0
39
0
210
0
220
0
230
1
0
SOLID
5
102
100
AcDbEntity
8
2
62
256
6
ByLayer
370
-1
48
1
60
0
100
AcDbTrace
10
32
20
28.250019
30
0
11
28.825002
21
27.832023
31
0
12
28.824998
22
28.668016
32
0
13
32
23
28.250019
33
0
39
0
210
0
220
0
230
1
0
SOLID
5
103
100
AcDbEntity
8
2
62
256
6
ByLayer
370
-1
48
1
60
0
100
AcDbTrace
10
0
20
28.250019
30
0
11
3.174998
21
28.668016
31
0
12
3.175002
22
27.832023
32
0
13
0
23
28.250019
33
0
39
0
210
0
220
0
230
1
0
ENDBLK
5
105
100
AcDbEntity
8
0
100
AcDbBlockEnd
0
BLOCK
5
10E
100
AcDbEntity
8
0
100
AcDbBlockBegin
2
DimnDraft3D3
70
0
10
0
20
0
30
0
3
DimnDraft3D3
0
MTEXT
5
108
100
AcDbEntity
8
SK2
62
256
6
ByLayer
370
-1
48
1
60
0
100
AcDbMText
10
-46.166869
20
-26.372368
30
0
210
0
220
0
230
1
1
\W01.000;\fsimplex.shx,bigfont.shx;%%c 16.0\P
40
3.5
41
0
44
1.084337
50
90
71
7
72
5
7
DEFAULT
0
LINE
5
109
100
AcDbEntity
8
SK2
62
256
6
ByLayer
370
-1
48
1
60
0
100
AcDbLine
10
-39
20
-8
30
0
11
-47.291869
21
-8
31
0
39
0
210
0
220
0
230
1
0
LINE
5
10A
100
AcDbEntity
8
SK2
62
256
6
ByLayer
370
-1
48
1
60
0
100
AcDbLine
10
-5.4
20
8
30
0
11
-47.291869
21
8
31
0
39
0
210
0
220
0
230
1
0
LINE
5
10B
100
AcDbEntity
8
SK2
62
256
6
ByLayer
370
-1
48
1
60
0
100
AcDbLine
10
-45.291869
20
8
30
0
11
-45.291869
21
-27.247368
31
0
39
0
210
0
220
0
230
1
0
SOLID
5
10C
100
AcDbEntity
8
SK2
62
256
6
ByLayer
370
-1
48
1
60
0
100
AcDbTrace
10
-45.291869
20
-8
30
0
11
-45.709865
21
-4.825002
31
0
12
-44.873872
22
-4.824998
32
0
13
-45.291869
23
-8
33
0
39
0
210
0
220
0
230
1
0
SOLID
5
10D
100
AcDbEntity
8
SK2
62
256
6
ByLayer
370
-1
48
1
60
0
100
AcDbTrace
10
-45.291869
20
8
30
0
11
-44.873872
21
4.825002
31
0
12
-45.709865
22
4.824998
32
0
13
-45.291869
23
8
33
0
39
0
210
0
220
0
230
1
0
ENDBLK
5
10F
100
AcDbEntity
8
0
100
AcDbBlockEnd
0
BLOCK
5
118
100
AcDbEntity
8
0
100
AcDbBlockBegin
2
DimnDraft3D4
70
0
10
0
20
0
30
0
3
DimnDraft3D4
0
MTEXT
5
112
100
AcDbEntity
8
2
62
256
6
ByLayer
370
-1
48
1
60
0
100
AcDbMText
10
9.360526
20
-24.939474
30
0
210
0
220
0
230
1
1
\W01.000;\fsimplex.shx,bigfont.shx;40.3 / 42.3\P
40
3.5
41
0
44
1.084337
50
0
71
7
72
5
7
DEFAULT
0
LINE
5
113
100
AcDbEntity
8
2
62
256
6
ByLayer
370
-1
48
1
60
0
100
AcDbLine
10
0
20
-13.5
30
0
11
0
21
-27.814474
31
0
39
0
210
0
220
0
230
1
0
LINE
5
114
100
AcDbEntity
8
2
62
256
6
ByLayer
370
-1
48
1
60
0
100
AcDbLine
10
42.3
20
3.129024
30
0
11
42.3
21
-27.814474
31
0
39
0
210
0
220
0
230
1
0
LINE
5
115
100
AcDbEntity
8
2
62
256
6
ByLayer
370
-1
48
1
60
0
100
AcDbLine
10
0
20
-25.814474
30
0
11
42.3
21
-25.814474
31
0
39
0
210
0
220
0
230
1
0
SOLID
5
116
100
AcDbEntity
8
2
62
256
6
ByLayer
370
-1
48
1
60
0
100
AcDbTrace
10
0
20
-25.814474
30
0
11
3.174998
21
-25.396477
31
0
12
3.175002
22
-26.232471
32
0
13
0
23
-25.814474
33
0
39
0
210
0
220
0
230
1
0
SOLID
5
117
100
AcDbEntity
8
2
62
256
6
ByLayer
370
-1
48
1
60
0
100
AcDbTrace
10
42.3
20
-25.814474
30
0
11
39.125002
21
-26.232471
31
0
12
39.124998
22
-25.396477
32
0
13
42.3
23
-25.814474
33
0
39
0
210
0
220
0
230
1
0
ENDBLK
5
119
100
AcDbEntity
8
0
100
AcDbBlockEnd
0
ENDSEC
0
SECTION
2
ENTITIES
0
ARC
5
B1
100
AcDbEntity
8
SK1
62
256
6
ByLayer
370
-1
48
1
60
0
100
AcDbCircle
39
0
10
0.275
20
-8.15
30
0
40
0.4
210
0
220
0
230
-1
100
AcDbArc
50
90
51
133.433495
0
ARC
5
B2
100
AcDbEntity
8
SK1
62
256
6
ByLayer
370
-1
48
1
60
0
100
AcDbCircle
39
0
10
0.275
20
8.15
30
0
40
0.4
210
0
220
0
230
-1
100
AcDbArc
50
226.566505
51
270
0
ARC
5
B3
100
AcDbEntity
8
SK1
62
256
6
ByLayer
370
-1
48
1
60
0
100
AcDbCircle
39
0
10
1.114326
20
-8.15
30
0
40
0.4
210
0
220
0
230
-1
100
AcDbArc
50
75
51
90
0
ARC
5
B4
100
AcDbEntity
8
SK1
62
256
6
ByLayer
370
-1
48
1
60
0
100
AcDbCircle
39
0
10
1.114326
20
8.15
30
0
40
0.4
210
0
220
0
230
-1
100
AcDbArc
50
270
51
285
0
ARC
5
B5
100
AcDbEntity
8
1
62
256
6
ByLayer
370
-1
48
1
60
0
100
AcDbCircle
39
0
10
-29.4
20
-6.95
30
0
40
0.4
210
0
220
0
230
-1
100
AcDbArc
50
0
51
90
0
ARC
5
B6
100
AcDbEntity
8
1
62
256
6
ByLayer
370
-1
48
1
60
0
100
AcDbCircle
39
0
10
-29.4
20
5.45
30
0
40
0.4
210
0
220
0
230
-1
100
AcDbArc
50
270
51
352.311713
0
ARC
5
B7
100
AcDbEntity
8
1
62
256
6
ByLayer
370
-1
48
1
60
0
100
AcDbCircle
39
0
10
3.5
20
10
30
0
40
1.5
210
0
220
0
230
1
100
AcDbArc
50
0
51
90
0
ARC
5
B8
100
AcDbEntity
8
1
62
256
6
ByLayer
370
-1
48
1
60
0
100
AcDbCircle
39
0
10
3.5
20
-10
30
0
40
1.5
210
0
220
0
230
1
100
AcDbArc
50
270
51
0
0
ARC
5
B9
100
AcDbEntity
8
1
62
256
6
ByLayer
370
-1
48
1
60
0
100
AcDbCircle
39
0
10
-5.8
20
8.7
30
0
40
0.8
210
0
220
0
230
-1
100
AcDbArc
50
270
51
0
0
ARC
5
BA
100
AcDbEntity
8
1
62
256
6
ByLayer
370
-1
48
1
60
0
100
AcDbCircle
39
0
10
-5.8
20
-8.7
30
0
40
0.8
210
0
220
0
230
-1
100
AcDbArc
50
0
51
90
0
ELLIPSE
5
BB
100
AcDbEntity
8
1
62
256
6
ByLayer
370
-1
48
1
60
0
100
AcDbEllipse
10
28.385822
20
0
30
0
11
3.16985478664159E-15
21
1.00000000000001
31
0
210
0
220
0
230
1
40
0.416655
41
0
42
6.28318530717959
0
ELLIPSE
5
BC
100
AcDbEntity
8
1
62
256
6
ByLayer
370
-1
48
1
60
0
100
AcDbEllipse
10
31.235969
20
0
30
0
11
-4.83719509759835E-16
21
7.89999999999994
31
0
210
0
220
0
230
-1
40
0.458333
41
-2.47599556834815
42
-1.25322121237635
0
ELLIPSE
5
BD
100
AcDbEntity
8
1
62
256
6
ByLayer
370
-1
48
1
60
0
100
AcDbEllipse
10
31.049983
20
4.389519
30
0
11
2.63523430831359
21
0.208368753649626
31
0
210
0
220
0
230
-1
40
0.682595
41
1.46616876367338
42
1.57220789847656
0
ELLIPSE
5
BE
100
AcDbEntity
8
1
62
256
6
ByLayer
370
-1
48
1
60
0
100
AcDbEllipse
10
30.969329
20
2.25613
30
0
11
0.196801316842782
21
-0.0747685935113551
31
0
210
0
220
0
230
-1
40
0.176102
41
2.00668878704544
42
3.0626129845138
0
ELLIPSE
5
BF
100
AcDbEntity
8
1
62
256
6
ByLayer
370
-1
48
1
60
0
100
AcDbEllipse
10
36.667683
20
0.5
30
0
11
11.4598443444103
21
-4.48988602529201
31
0
210
0
220
0
230
-1
40
0.064327
41
1.96496157168081
42
2.23229497909644
0
ELLIPSE
5
C0
100
AcDbEntity
8
1
62
256
6
ByLayer
370
-1
48
1
60
0
100
AcDbEllipse
10
37.434527
20
0
30
0
11
19.8973121743303
21
-7.79562629108529
31
0
210
0
220
0
230
-1
40
0.064327
41
2.05110470172281
42
3.09356606756563
0
ELLIPSE
5
C1
100
AcDbEntity
8
1
62
256
6
ByLayer
370
-1
48
1
60
0
100
AcDbEllipse
10
28.129865
20
5.575186
30
0
11
0.705868039845355
21
-2.43859759133302
31
0
210
0
220
0
230
-1
40
0.119892
41
0.268174690609289
42
0.273307706999669
0
ELLIPSE
5
C2
100
AcDbEntity
8
1
62
256
6
ByLayer
370
-1
48
1
60
0
100
AcDbEllipse
10
30.509628
20
2.923552
30
0
11
2.70782180078033
21
1.23738459083532
31
0
210
0
220
0
230
-1
40
0.199139
41
1.40920212549424
42
1.53236367948602
0
ELLIPSE
5
C3
100
AcDbEntity
8
1
62
256
6
ByLayer
370
-1
48
1
60
0
100
AcDbEllipse
10
29.749091
20
-2
30
0
11
7.94524828035711
21
-2.94420193746499
31
0
210
0
220
0
230
-1
40
0.436617
41
1.12694701544671
42
1.27321462033621
0
ELLIPSE
5
C4
100
AcDbEntity
8
1
62
256
6
ByLayer
370
-1
48
1
60
0
100
AcDbEllipse
10
30.590349
20
-2
30
0
11
0.137644251205406
21
-4.5499994018963
31
0
210
0
220
0
230
-1
40
0.017444
41
-0.602061713414924
42
-0.444080394380439
0
ELLIPSE
5
C5
100
AcDbEntity
8
1
62
256
6
ByLayer
370
-1
48
1
60
0
100
AcDbEllipse
10
29.749091
20
-2
30
0
11
7.94895886173097
21
2.79452024347276
31
0
210
0
220
0
230
-1
40
0.45172
41
1.44484108965225
42
1.59110869470944
0
ELLIPSE
5
C6
100
AcDbEntity
8
1
62
256
6
ByLayer
370
-1
48
1
60
0
100
AcDbEllipse
10
28.385822
20
0
30
0
11
-2.80437848601786E-15
21
-0.750555349946514
31
0
210
0
220
0
230
1
40
0.416655
41
-1.27501217890007
42
-0.227814627703493
0
ELLIPSE
5
C7
100
AcDbEntity
8
1
62
256
6
ByLayer
370
-1
48
1
60
0
100
AcDbEllipse
10
28.385822
20
0
30
0
11
-2.80437848601786E-15
21
-0.750555349946514
31
0
210
0
220
0
230
1
40
0.416655
41
-2.32220973009667
42
-1.27501217890007
0
ELLIPSE
5
C8
100
AcDbEntity
8
1
62
256
6
ByLayer
370
-1
48
1
60
0
100
AcDbEllipse
10
28.385822
20
0
30
0
11
-2.80437848601786E-15
21
-0.750555349946514
31
0
210
0
220
0
230
1
40
0.416655
41
2.91377802588632
42
-2.32220973009667
0
ELLIPSE
5
C9
100
AcDbEntity
8
1
62
256
6
ByLayer
370
-1
48
1
60
0
100
AcDbEllipse
10
28.385822
20
0
30
0
11
-2.80437848601786E-15
21
-0.750555349946514
31
0
210
0
220
0
230
1
40
0.416655
41
1.86658047468971
42
2.91377802588632
0
ELLIPSE
5
CA
100
AcDbEntity
8
1
62
256
6
ByLayer
370
-1
48
1
60
0
100
AcDbEllipse
10
28.385822
20
0
30
0
11
-2.80437848601786E-15
21
-0.750555349946514
31
0
210
0
220
0
230
1
40
0.416655
41
0.819382923493096
42
1.86658047468971
0
ELLIPSE
5
CB
100
AcDbEntity
8
1
62
256
6
ByLayer
370
-1
48
1
60
0
100
AcDbEllipse
10
28.385822
20
0
30
0
11
-2.80437848601786E-15
21
-0.750555349946514
31
0
210
0
220
0
230
1
40
0.416655
41
-0.227814627703483
42
0.819382923493096
0
ELLIPSE
5
CC
100
AcDbEntity
8
1
62
256
6
ByLayer
370
-1
48
1
60
0
100
AcDbEllipse
10
28.385822
20
0
30
0
11
-3.54958440028016E-15
21
-0.95
31
0
210
0
220
0
230
1
40
0.416655
41
0
42
6.28318530717959
0
ELLIPSE
5
CD
100
AcDbEntity
8
1
62
256
6
ByLayer
370
-1
48
1
60
0
100
AcDbEllipse
10
29.886893
20
2.750852
30
0
11
1.20551528412385
21
-0.435617067321415
31
0
210
0
220
0
230
-1
40
0.104951
41
0.709760022781645
42
2.5365175752572
0
POINT
5
42
100
AcDbEntity
8
80
62
256
6
ByLayer
370
-1
48
1
60
0
100
AcDbPoint
10
0
20
0
30
0
39
0
210
0
220
0
230
1
50
360
0
POINT
5
44
100
AcDbEntity
8
81
62
256
6
ByLayer
370
-1
48
1
60
0
100
AcDbPoint
10
42.300131
20
6.994532
30
0
39
0
210
0
220
0
230
1
50
360
0
SPLINE
5
CE
100
AcDbEntity
8
1
62
256
6
ByLayer
370
-1
48
1
60
0
100
AcDbSpline
70
4
71
3
72
8
73
4
40
0
40
0
40
0
40
0
40
1
40
1
40
1
40
1
41
1
10
31.9665487750165
20
2.80099664723065
30
0
41
0.877544051322076
10
32.0493088220538
20
2.82242492927529
30
0
41
0.877544051322076
10
32.1
20
2.87499464563984
30
0
41
1
10
32.1
20
2.93939337285696
30
0
0
SPLINE
5
CF
100
AcDbEntity
8
1
62
256
6
ByLayer
370
-1
48
1
60
0
100
AcDbSpline
70
4
71
3
72
8
73
4
40
0
40
0
40
0
40
0
40
1
40
1
40
1
40
1
41
1
10
31.2346585428384
20
2.52347508967529
30
0
41
0.993685858888279
10
31.4604272899654
20
2.64042489801844
30
0
41
0.993685858888279
10
31.7059409083227
20
2.73351989884228
30
0
41
1
10
31.9665487750165
20
2.80099664723065
30
0
0
SPLINE
5
D0
100
AcDbEntity
8
1
62
256
6
ByLayer
370
-1
48
1
60
0
100
AcDbSpline
70
4
71
3
72
8
73
4
40
0
40
0
40
0
40
0
40
1
40
1
40
1
40
1
41
1
10
38.6765333685647
20
5.04958664125564
30
0
41
0.979892672642243
10
39.7978034121899
20
5.04202815071731
30
0
41
0.979892672642243
10
40.95848683122
20
5.00339723795835
30
0
41
1
10
42.0885689012594
20
4.93602419620578
30
0
0
SPLINE
5
D1
100
AcDbEntity
8
1
62
256
6
ByLayer
370
-1
48
1
60
0
100
AcDbSpline
70
4
71
3
72
20
73
16
40
0
40
0
40
0
40
0
40
0.124999999999982
40
0.124999999999982
40
0.249999999999964
40
0.249999999999964
40
0.374999999999947
40
0.374999999999947
40
0.499999999999929
40
0.499999999999929
40
0.624999999999911
40
0.624999999999911
40
0.749999999999893
40
0.749999999999893
40
1
40
1
40
1
40
1
41
1
10
42.0885689012594
20
4.93602419620578
30
0
41
1
10
42.1018979742855
20
4.93522954578413
30
0
41
1
10
42.1150855710307
20
4.93568923997213
30
0
41
1
10
42.1411849490613
20
4.9390598864008
30
0
41
1
10
42.1542114345627
20
4.94201067566922
30
0
41
1
10
42.1794133025349
20
4.95039903018903
30
0
41
1
10
42.1914550731775
20
4.95576505402619
30
0
41
1
10
42.2144104748884
20
4.96887114178753
30
0
41
1
10
42.2254414701184
20
4.9767301905303
30
0
41
1
10
42.2454289880917
20
4.994381642485
30
0
41
1
10
42.2544456158269
20
5.00416487559681
30
0
41
1
10
42.2704560588043
20
5.02572001944867
30
0
41
1
10
42.2774226118187
20
5.03753961543748
30
0
41
1
10
42.2940839130075
20
5.07430742645852
30
0
41
1
10
42.3000000000005
20
5.10154170704396
30
0
41
1
10
42.3000000000005
20
5.12902391233462
30
0
0
SPLINE
5
D2
100
AcDbEntity
8
1
62
256
6
ByLayer
370
-1
48
1
60
0
100
AcDbSpline
70
4
71
3
72
20
73
16
40
0
40
0
40
0
40
0
40
0.125000000000053
40
0.125000000000053
40
0.250000000000105
40
0.250000000000105
40
0.500000000000094
40
0.500000000000094
40
0.625000000000071
40
0.625000000000071
40
0.750000000000047
40
0.750000000000047
40
0.875000000000024
40
0.875000000000024
40
1
40
1
40
1
40
1
41
1
10
42.3
20
6.80113454868155
30
0
41
1
10
42.3
20
6.81486375555954
30
0
41
1
10
42.2985691992735
20
6.82834104723571
30
0
41
1
10
42.2929112227043
20
6.85480353384099
30
0
41
1
10
42.2886022273542
20
6.86791881331118
30
0
41
1
10
42.2719323488302
20
6.90479228442604
30
0
41
1
10
42.255457959266
20
6.92689900993543
30
0
41
1
10
42.2255520847253
20
6.95334100972849
30
0
41
1
10
42.2145528676932
20
6.96119815337073
30
0
41
1
10
42.1914888835058
20
6.97438191208749
30
0
41
1
10
42.1794249998761
20
6.9797532461738
30
0
41
1
10
42.1542629152684
20
6.98813293566064
30
0
41
1
10
42.1412064674587
20
6.99109518472574
30
0
41
1
10
42.1150830801673
20
6.99447015314723
30
0
41
1
10
42.1018920638208
20
6.99492856286304
30
0
41
1
10
42.0885689012594
20
6.99413426481038
30
0
0
SPLINE
5
D3
100
AcDbEntity
8
1
62
256
6
ByLayer
370
-1
48
1
60
0
100
AcDbSpline
70
4
71
3
72
8
73
4
40
0
40
0
40
0
40
0
40
1
40
1
40
1
40
1
41
1
10
42.0885689012594
20
6.99413426481038
30
0
41
0.979892672642243
10
40.95848683122
20
6.92676122305781
30
0
41
0.979892672642243
10
39.7978034121899
20
6.8881303102989
30
0
41
1
10
38.6765333685647
20
6.88057181976063
30
0
0
SPLINE
5
D4
100
AcDbEntity
8
1
62
256
6
ByLayer
370
-1
48
1
60
0
100
AcDbSpline
70
4
71
3
72
8
73
4
40
0
40
0
40
0
40
0
40
1
40
1
40
1
40
1
41
1
10
31.15
20
2.40357980121934
30
0
41
0.9252618736541
10
31.15
20
2.45222675560205
30
0
41
0.9252618736541
10
31.1804989485495
20
2.49542003665027
30
0
41
1
10
31.2346585428384
20
2.52347508967529
30
0
0
SPLINE
5
D5
100
AcDbEntity
8
1
62
256
6
ByLayer
370
-1
48
1
60
0
100
AcDbSpline
70
4
71
3
72
14
73
10
40
0
40
0
40
0
40
0
40
0.289549212778322
40
0.289549212778322
40
0.579098425556644
40
0.579098425556644
40
0.868647638334966
40
0.868647638334966
40
1
40
1
40
1
40
1
41
1
10
32.1
20
-2.7229168491869
30
0
41
1
10
32.1
20
-2.74534963232355
30
0
41
1
10
32.0974983375137
20
-2.76725162909867
30
0
41
1
10
32.0870250946737
20
-2.80995624944291
30
0
41
1
10
32.0789034283862
20
-2.83090234041498
30
0
41
1
10
32.0568980478647
20
-2.86915107120979
30
0
41
1
10
32.0426695463906
20
-2.88699502769197
30
0
41
1
10
32.018021309333
20
-2.90869514766598
30
0
41
1
10
32.0096955307969
20
-2.91493536268507
30
0
41
1
10
32.0008239803958
20
-2.92051080072923
30
0
0
SPLINE
5
D6
100
AcDbEntity
8
1
62
256
6
ByLayer
370
-1
48
1
60
0
100
AcDbSpline
70
4
71
3
72
14
73
10
40
0
40
0
40
0
40
0
40
0.125112722930298
40
0.125112722930298
40
0.416741815286865
40
0.416741815286865
40
0.708370907643433
40
0.708370907643433
40
1
40
1
40
1
40
1
41
1
10
32.0014226054225
20
-1.08878670071613
30
0
41
1
10
32.0097611463445
20
-1.0941030903013
30
0
41
1
10
32.0176328498942
20
-1.10003792453216
30
0
41
1
10
32.0422923800412
20
-1.12166909521835
30
0
41
1
10
32.0564293931646
20
-1.13939289612142
30
0
41
1
10
32.0787723595907
20
-1.17820618528952
30
0
41
1
10
32.0868425825456
20
-1.19902294344502
30
0
41
1
10
32.097494020553
20
-1.24242730708556
30
0
41
1
10
32.1000000000005
20
-1.26459232559506
30
0
41
1
10
32.1000000000005
20
-1.28719652837009
30
0
0
SPLINE
5
D7
100
AcDbEntity
8
1
62
256
6
ByLayer
370
-1
48
1
60
0
100
AcDbSpline
70
4
71
3
72
12
73
8
40
0
40
0
40
0
40
0
40
0.111039824528407
40
0.111039824528407
40
0.407359883018919
40
0.407359883018919
40
1
40
1
40
1
40
1
41
1
10
32.0013076288841
20
1.18629596203778
30
0
41
1
10
32.0080369244517
20
1.18340397568289
30
0
41
1
10
32.0145319684308
20
1.18021614290291
30
0
41
1
10
32.0375113283958
20
1.16744149121729
30
0
41
1
10
32.0518810204037
20
1.15640139153902
30
0
41
1
10
32.0874623189638
20
1.11870025020329
30
0
41
1
10
32.1000000000013
20
1.08831913657366
30
0
41
1
10
32.1000000000013
20
1.05705650249052
30
0
0
SPLINE
5
D8
100
AcDbEntity
8
1
62
256
6
ByLayer
370
-1
48
1
60
0
100
AcDbSpline
70
4
71
3
72
16
73
12
40
0
40
0
40
0
40
0
40
0.293168261789228
40
0.293168261789228
40
0.586336523578456
40
0.586336523578456
40
0.73292065447307
40
0.73292065447307
40
0.879504785367684
40
0.879504785367684
40
1
40
1
40
1
40
1
41
1
10
32.1
20
-5.06341438091926
30
0
41
1
10
32.1
20
-5.07896207018547
30
0
41
1
10
32.096982531839
20
-5.09403512434597
30
0
41
1
10
32.0848885494936
20
-5.12325793779377
30
0
41
1
10
32.075879470275
20
-5.13704463323472
30
0
41
1
10
32.0583579908435
20
-5.15572707587415
30
0
41
1
10
32.05175287124
20
-5.16170646921734
30
0
41
1
10
32.0374897294475
20
-5.17270141878589
30
0
41
1
10
32.0298226646735
20
-5.17774659953596
30
0
41
1
10
32.0148772385502
20
-5.18612608177591
30
0
41
1
10
32.0077461687758
20
-5.18960810868617
30
0
41
1
10
32.0002990472092
20
-5.19275323233404
30
0
0
SPLINE
5
D9
100
AcDbEntity
8
1
62
256
6
ByLayer
370
-1
48
1
60
0
100
AcDbSpline
70
4
71
3
72
10
73
6
40
0
40
0
40
0
40
0
40
0.119999480546814
40
0.119999480546814
40
1
40
1
40
1
40
1
41
1
10
31.1573444016661
20
-5.53345749709177
30
0
41
1
10
31.1567598174528
20
-5.53476925670105
30
0
41
1
10
31.15620920278
20
-5.53608636708009
30
0
41
1
10
31.1519082803289
20
-5.54710085751429
30
0
41
1
10
31.15
20
-5.55689027865907
30
0
41
1
10
31.15
20
-5.56677245280963
30
0
0
SPLINE
5
DA
100
AcDbEntity
8
1
62
256
6
ByLayer
370
-1
48
1
60
0
100
AcDbSpline
70
4
71
3
72
14
73
10
40
0
40
0
40
0
40
0
40
0.25
40
0.25
40
0.5
40
0.5
40
0.75
40
0.75
40
1
40
1
40
1
40
1
41
1
10
31.15
20
-6.16465036796035
30
0
41
1
10
31.15
20
-6.17083269245649
30
0
41
1
10
31.1519329566839
20
-6.17680803423963
30
0
41
1
10
31.1595188546194
20
-6.18837322263067
30
0
41
1
10
31.1652671039798
20
-6.19398834413545
30
0
41
1
10
31.1800002360819
20
-6.20427835545485
30
0
41
1
10
31.1891121953942
20
-6.20907208344198
30
0
41
1
10
31.2103894997556
20
-6.21769379893982
30
0
41
1
10
31.2223559330062
20
-6.22146356810316
30
0
41
1
10
31.2356838294253
20
-6.22470884511478
30
0
0
SPLINE
5
DB
100
AcDbEntity
8
1
62
256
6
ByLayer
370
-1
48
1
60
0
100
AcDbSpline
70
4
71
3
72
10
73
6
40
0
40
0
40
0
40
0
40
0.5
40
0.5
40
1
40
1
40
1
40
1
41
1
10
31.2356838294253
20
-6.22470884511478
30
0
41
1
10
31.3487803716811
20
-6.25224729507977
30
0
41
1
10
31.4661548552105
20
-6.27495100044848
30
0
41
1
10
31.7094093464015
20
-6.31296409744198
30
0
41
1
10
31.8352889293791
20
-6.32826733379108
30
0
41
1
10
31.9656516492528
20
-6.34062207938206
30
0
0
SPLINE
5
DC
100
AcDbEntity
8
1
62
256
6
ByLayer
370
-1
48
1
60
0
100
AcDbSpline
70
4
71
3
72
12
73
8
40
0
40
0
40
0
40
0
40
0.250000000000004
40
0.250000000000004
40
0.500000000000008
40
0.500000000000008
40
1
40
1
40
1
40
1
41
1
10
31.9656516492528
20
-6.34062207938206
30
0
41
1
10
31.9857179517831
20
-6.34252380452978
30
0
41
1
10
32.0040802244861
20
-6.34520429265871
30
0
41
1
10
32.0375113283958
20
-6.35195391855888
30
0
41
1
10
32.0518810204037
20
-6.35589381654279
30
0
41
1
10
32.0874623189637
20
-6.36892430784332
30
0
41
1
10
32.1000000000013
20
-6.37886853488101
30
0
41
1
10
32.1000000000013
20
-6.3883016960196
30
0
0
SPLINE
5
DD
100
AcDbEntity
8
1
62
256
6
ByLayer
370
-1
48
1
60
0
100
AcDbSpline
70
4
71
3
72
34
73
30
40
0
40
0
40
0
40
0
40
0.0312500000000007
40
0.0312500000000007
40
0.046875
40
0.046875
40
0.0624999999999994
40
0.0624999999999994
40
0.0937499999999991
40
0.0937499999999991
40
0.124999999999999
40
0.124999999999999
40
0.156249999999999
40
0.156249999999999
40
0.187499999999998
40
0.187499999999998
40
0.249999999999998
40
0.249999999999998
40
0.312499999999998
40
0.312499999999998
40
0.374999999999998
40
0.374999999999998
40
0.499999999999998
40
0.499999999999998
40
0.624999999999998
40
0.624999999999998
40
0.749999999999998
40
0.749999999999998
40
1
40
1
40
1
40
1
41
1
10
17.5360829418474
20
7.7251906554406
30
0
41
1
10
17.5327637219495
20
7.73726449389471
30
0
41
1
10
17.5377583148793
20
7.74850352200536
30
0
41
1
10
17.5571138251516
20
7.764220276961
30
0
41
1
10
17.5656253503512
20
7.76929547554784
30
0
41
1
10
17.5859183173878
20
7.77883195298176
30
0
41
1
10
17.5977100586136
20
7.78332371853082
30
0
41
1
10
17.6373964928033
20
7.79608799996544
30
0
41
1
10
17.6698814980476
20
7.80369192467589
30
0
41
1
10
17.7412737156418
20
7.81704577429451
30
0
41
1
10
17.7803601864136
20
7.82287454240753
30
0
41
1
10
17.8634902822759
20
7.83334261777225
30
0
41
1
10
17.9077726942025
20
7.83799554082026
30
0
41
1
10
17.9989408672744
20
7.84629891990005
30
0
41
1
10
18.045817240787
20
7.84995592894421
30
0
41
1
10
18.1894004706064
20
7.8598490801723
30
0
41
1
10
18.2890154848996
20
7.86502738314238
30
0
41
1
10
18.4934160087561
20
7.87370703816833
30
0
41
1
10
18.5985891865969
20
7.87719809723438
30
0
41
1
10
18.8101381155097
20
7.88300193784738
30
0
41
1
10
18.916771004038
20
7.88532375049226
30
0
41
1
10
19.2386382564083
20
7.89114821544558
30
0
41
1
10
19.4558110512957
20
7.89353868857785
30
0
41
1
10
19.8937564966169
20
7.89694012605401
30
0
41
1
10
20.1145568208482
20
7.8979242864142
30
0
41
1
10
20.5590947784792
20
7.8992313666102
30
0
41
1
10
20.7828844805987
20
7.89954610102791
30
0
41
1
10
21.4579088886391
20
7.90009596960306
30
0
41
1
10
21.9090582409767
20
7.89999999999992
30
0
41
1
10
22.3612385474635
20
7.89999999999992
30
0
0
SPLINE
5
DE
100
AcDbEntity
8
1
62
256
6
ByLayer
370
-1
48
1
60
0
100
AcDbSpline
70
4
71
3
72
8
73
4
40
0
40
0
40
0
40
0
40
1
40
1
40
1
40
1
41
1
10
29.6905899277746
20
4.93874982399313
30
0
41
1
10
29.5937157766253
20
4.93874982399313
30
0
41
1
10
29.4968523255102
20
4.9385278902821
30
0
41
1
10
29.4
20
4.93807312928669
30
0
0
SPLINE
5
DF
100
AcDbEntity
8
1
62
256
6
ByLayer
370
-1
48
1
60
0
100
AcDbSpline
70
4
71
3
72
24
73
20
40
0
40
0
40
0
40
0
40
0.125000000000014
40
0.125000000000014
40
0.250000000000028
40
0.250000000000028
40
0.375000000000042
40
0.375000000000042
40
0.500000000000056
40
0.500000000000056
40
0.562500000000059
40
0.562500000000059
40
0.625000000000062
40
0.625000000000062
40
0.750000000000041
40
0.750000000000041
40
0.875000000000021
40
0.875000000000021
40
1
40
1
40
1
40
1
41
1
10
28.9999999999999
20
2.76046758491742
30
0
41
1
10
28.9999999999999
20
2.76572621691372
30
0
41
1
10
29.001826009244
20
2.77028150066951
30
0
41
1
10
29.0097736308767
20
2.77773747364785
30
0
41
1
10
29.0158803934158
20
2.78057838821309
30
0
41
1
10
29.0326776127174
20
2.7840846132595
30
0
41
1
10
29.0435098697146
20
2.78477685166791
30
0
41
1
10
29.0704214137729
20
2.78350724786839
30
0
41
1
10
29.086262588948
20
2.78157966717049
30
0
41
1
10
29.1143112346712
20
2.77636500271666
30
0
41
1
10
29.1243769921257
20
2.77423073432101
30
0
41
1
10
29.1453652497412
20
2.76927227583184
30
0
41
1
10
29.1563630176681
20
2.7664352270794
30
0
41
1
10
29.190912102563
20
2.75681874803246
30
0
41
1
10
29.2163965254514
20
2.74878641469292
30
0
41
1
10
29.26817019687
20
2.73079369551812
30
0
41
1
10
29.2951460039257
20
2.72061040614363
30
0
41
1
10
29.3481421141273
20
2.69924829477094
30
0
41
1
10
29.3743809244604
20
2.68800165112998
30
0
41
1
10
29.4
20
2.67645474881419
30
0
0
SPLINE
5
E0
100
AcDbEntity
8
1
62
256
6
ByLayer
370
-1
48
1
60
0
100
AcDbSpline
70
4
71
3
72
38
73
34
40
0
40
0
40
0
40
0
40
0.0312499999999973
40
0.0312499999999973
40
0.0624999999999947
40
0.0624999999999947
40
0.093749999999992
40
0.093749999999992
40
0.124999999999989
40
0.124999999999989
40
0.156249999999987
40
0.156249999999987
40
0.187499999999984
40
0.187499999999984
40
0.249999999999984
40
0.249999999999984
40
0.374999999999986
40
0.374999999999986
40
0.499999999999989
40
0.499999999999989
40
0.624999999999991
40
0.624999999999991
40
0.749999999999994
40
0.749999999999994
40
0.812499999999995
40
0.812499999999995
40
0.874999999999997
40
0.874999999999997
40
0.937499999999998
40
0.937499999999998
40
0.968749999999999
40
0.968749999999999
40
1
40
1
40
1
40
1
41
1
10
31.1884948159157
20
2.59043024896363
30
0
41
1
10
31.1767928716818
20
2.61075396229478
30
0
41
1
10
31.16226502571
20
2.63091756223884
30
0
41
1
10
31.1275433603246
20
2.6705674874014
30
0
41
1
10
31.1071572434829
20
2.69014671922707
30
0
41
1
10
31.0630379637057
20
2.7266741428046
30
0
41
1
10
31.0389730993152
20
2.74397129224405
30
0
41
1
10
30.9884900096971
20
2.77625881103739
30
0
41
1
10
30.9623588901327
20
2.79110320029912
30
0
41
1
10
30.9087683379357
20
2.81882659276505
30
0
41
1
10
30.881305849882
20
2.83170175348943
30
0
41
1
10
30.8253430328164
20
2.8559087557
30
0
41
1
10
30.7968217835463
20
2.8672382994842
30
0
41
1
10
30.7114077988971
20
2.89889624297842
30
0
41
1
10
30.6541410681489
20
2.91717615429951
30
0
41
1
10
30.4818047287286
20
2.96685557819018
30
0
41
1
10
30.3662153895517
20
2.99321916924572
30
0
41
1
10
30.1348381384772
20
3.03967369824682
30
0
41
1
10
30.0201484054584
20
3.0593798562432
30
0
41
1
10
29.7942161536899
20
3.09474290226916
30
0
41
1
10
29.6827544628191
20
3.11038833349647
30
0
41
1
10
29.463652921791
20
3.13892198682885
30
0
41
1
10
29.3559724887683
20
3.15180842353146
30
0
41
1
10
29.1988305654597
20
3.16918412378635
30
0
41
1
10
29.1476556171569
20
3.17459074471327
30
0
41
1
10
29.0484827761394
20
3.18450505022798
30
0
41
1
10
29.0004610324979
20
3.1890196994375
30
0
41
1
10
28.9089642390624
20
3.19680277150627
30
0
41
1
10
28.8658630395356
20
3.20004557376075
30
0
41
1
10
28.8084007362562
20
3.20324472138685
30
0
41
1
10
28.7904172063579
20
3.2040329429588
30
0
41
1
10
28.7575910127144
20
3.20482512618008
30
0
41
1
10
28.7428514734602
20
3.20482391908268
30
0
41
1
10
28.730618691861
20
3.20425801263809
30
0
0
SPLINE
5
E1
100
AcDbEntity
8
1
62
256
6
ByLayer
370
-1
48
1
60
0
100
AcDbSpline
70
4
71
3
72
14
73
10
40
0
40
0
40
0
40
0
40
0.0834744927811564
40
0.0834744927811564
40
0.388982995187438
40
0.388982995187438
40
0.694491497593719
40
0.694491497593719
40
1
40
1
40
1
40
1
41
1
10
30.7610746923339
20
2.33967175667743
30
0
41
1
10
30.7620237373302
20
2.34237077895131
30
0
41
1
10
30.7631480695285
20
2.3451070951898
30
0
41
1
10
30.7691935787123
20
2.3580147321245
30
0
41
1
10
30.7762571976379
20
2.36846253694188
30
0
41
1
10
30.7942169453353
20
2.38868325416155
30
0
41
1
10
30.8052957031451
20
2.39863283407772
30
0
41
1
10
30.8302953909259
20
2.4167198185566
30
0
41
1
10
30.8444660576663
20
2.42506646547048
30
0
41
1
10
30.8598997903737
20
2.43226252715607
30
0
0
SPLINE
5
E2
100
AcDbEntity
8
1
62
256
6
ByLayer
370
-1
48
1
60
0
100
AcDbSpline
70
4
71
3
72
14
73
10
40
0
40
0
40
0
40
0
40
0.25
40
0.25
40
0.5
40
0.5
40
0.75
40
0.75
40
1
40
1
40
1
40
1
41
1
10
30.7487426298603
20
-6.10764575018953
30
0
41
1
10
30.748693580446
20
-6.11530170949248
30
0
41
1
10
30.7509639004238
20
-6.12269631555745
30
0
41
1
10
30.7600096281165
20
-6.13699618467445
30
0
41
1
10
30.7668437499334
20
-6.14385562291108
30
0
41
1
10
30.7843657824627
20
-6.15632424221167
30
0
41
1
10
30.7953130971725
20
-6.16210347292736
30
0
41
1
10
30.8202007648583
20
-6.17206725750867
30
0
41
1
10
30.8342592592865
20
-6.17634179467473
30
0
41
1
10
30.8497208607199
20
-6.17982789321746
30
0
0
SPLINE
5
E3
100
AcDbEntity
8
1
62
256
6
ByLayer
370
-1
48
1
60
0
100
AcDbSpline
70
4
71
3
72
14
73
10
40
0
40
0
40
0
40
0
40
0.25
40
0.25
40
0.5
40
0.5
40
0.75
40
0.75
40
1
40
1
40
1
40
1
41
1
10
30.8497208607199
20
-5.64672289034968
30
0
41
1
10
30.834260967125
20
-5.65199904635784
30
0
41
1
10
30.8203122424894
20
-5.65835547186276
30
0
41
1
10
30.7953353024495
20
-5.67309384332282
30
0
41
1
10
30.7844357511925
20
-5.68146675395281
30
0
41
1
10
30.7668932671484
20
-5.69925427791833
30
0
41
1
10
30.7600290223717
20
-5.70891411829154
30
0
41
1
10
30.7509956876365
20
-5.72848043403013
30
0
41
1
10
30.74869358616
20
-5.73852427872788
30
0
41
1
10
30.7487426298603
20
-5.74861188650976
30
0
0
SPLINE
5
E4
100
AcDbEntity
8
SK1
62
256
6
ByLayer
370
-1
48
1
60
0
100
AcDbSpline
70
4
71
3
72
20
73
16
40
0
40
0
40
0
40
0
40
0.12506567157366
40
0.12506567157366
40
0.250131343147321
40
0.250131343147321
40
0.500262686294643
40
0.500262686294643
40
0.750394029441965
40
0.750394029441965
40
0.875459701015626
40
0.875459701015626
40
0.937992536802457
40
0.937992536802457
40
1
40
1
40
1
40
1
41
1
10
-37
20
7.40000000000015
30
0
41
1
10
-37.0462290133417
20
7.40000000000015
30
0
41
1
10
-37.0905686226931
20
7.40000000000015
30
0
41
1
10
-37.1742983186542
20
7.40000000000015
30
0
41
1
10
-37.2137677339872
20
7.40000000000015
30
0
41
1
10
-37.3244668189669
20
7.40000000000015
30
0
41
1
10
-37.3879856935271
20
7.40000000000015
30
0
41
1
10
-37.4916454220976
20
7.40000000000015
30
0
41
1
10
-37.5317774023735
20
7.40000000000015
30
0
41
1
10
-37.572437895262
20
7.40000000000015
30
0
41
1
10
-37.5827372479532
20
7.40000000000015
30
0
41
1
10
-37.5930849349653
20
7.40000000000015
30
0
41
1
10
-37.5956843913951
20
7.40000000000015
30
0
41
1
10
-37.5991245739393
20
7.40000000000015
30
0
41
1
10
-37.5999818996457
20
7.40000000000015
30
0
41
1
10
-37.5999979999976
20
7.40000000000015
30
0
0
SPLINE
5
E5
100
AcDbEntity
8
1
62
256
6
ByLayer
370
-1
48
1
60
0
100
AcDbSpline
70
4
71
3
72
8
73
4
40
0
40
0
40
0
40
0
40
1
40
1
40
1
40
1
41
1
10
28.1309331429887
20
0.43564514205525
30
0
41
1
10
28.1391765989155
20
0.461388834181378
30
0
41
1
10
28.1480031534047
20
0.486957797170305
30
0
41
1
10
28.1573084245614
20
0.512383309710856
30
0
0
SPLINE
5
E6
100
AcDbEntity
8
1
62
256
6
ByLayer
370
-1
48
1
60
0
100
AcDbSpline
70
4
71
3
72
14
73
10
40
0
40
0
40
0
40
0
40
0.38811360917973
40
0.38811360917973
40
0.77622721835946
40
0.77622721835946
40
0.970284022949325
40
0.970284022949325
40
1
40
1
40
1
40
1
41
1
10
28.3151943295697
20
-0.731162714971617
30
0
41
1
10
28.280458417341
20
-0.689331880539896
30
0
41
1
10
28.2484133792647
20
-0.64719576944924
30
0
41
1
10
28.1920771975608
20
-0.562043876626888
30
0
41
1
10
28.167843702817
20
-0.519021554693893
30
0
41
1
10
28.1386458524468
20
-0.453676640961248
30
0
41
1
10
28.1301200962761
20
-0.431793562207929
30
0
41
1
10
28.1217628561371
20
-0.406835656396538
30
0
41
1
10
28.1206819286944
20
-0.403524766577505
30
0
41
1
10
28.1196293416717
20
-0.400217216913859
30
0
0
SPLINE
5
E7
100
AcDbEntity
8
1
62
256
6
ByLayer
370
-1
48
1
60
0
100
AcDbSpline
70
4
71
3
72
16
73
12
40
0
40
0
40
0
40
0
40
0.250000000000003
40
0.250000000000003
40
0.500000000000005
40
0.500000000000005
40
0.625000000000003
40
0.625000000000003
40
0.75
40
0.75
40
1
40
1
40
1
40
1
41
1
10
28.1573084245562
20
0.512383309710629
30
0
41
1
10
28.1656502129268
20
0.530244401016773
30
0
41
1
10
28.1769972515958
20
0.548235840530253
30
0
41
1
10
28.2083511146711
20
0.584594324726311
30
0
41
1
10
28.2284223231086
20
0.602964161969282
30
0
41
1
10
28.266517144943
20
0.630865385705988
30
0
41
1
10
28.280526744032
20
0.640209107221096
30
0
41
1
10
28.310609371445
20
0.658692054093422
30
0
41
1
10
28.3267326258855
20
0.667871559173079
30
0
41
1
10
28.3779558641969
20
0.695246641102074
30
0
41
1
10
28.4158982038965
20
0.713279421493269
30
0
41
1
10
28.4564505205269
20
0.731162714970992
30
0
0
SPLINE
5
E8
100
AcDbEntity
8
1
62
256
6
ByLayer
370
-1
48
1
60
0
100
AcDbSpline
70
4
71
3
72
16
73
12
40
0
40
0
40
0
40
0
40
0.250000000000005
40
0.250000000000005
40
0.50000000000001
40
0.50000000000001
40
0.625000000000007
40
0.625000000000007
40
0.750000000000004
40
0.750000000000004
40
1
40
1
40
1
40
1
41
1
10
28.6143364255376
20
-0.512383309710799
30
0
41
1
10
28.5738344547505
20
-0.530244401017001
30
0
41
1
10
28.5359812780779
20
-0.548235840530481
30
0
41
1
10
28.4679075633546
20
-0.584594324726481
30
0
41
1
10
28.4377437726712
20
-0.60296416196951
30
0
41
1
10
28.3995386288965
20
-0.630865385706159
30
0
41
1
10
28.3879964587518
20
-0.640209107221267
30
0
41
1
10
28.3675347722656
20
-0.658692054093592
30
0
41
1
10
28.3585553312652
20
-0.667871559173307
30
0
41
1
10
28.3349174154769
20
-0.695246641102244
30
0
41
1
10
28.3235464871752
20
-0.713279421493496
30
0
41
1
10
28.3151943295717
20
-0.731162714971163
30
0
0
SPLINE
5
E9
100
AcDbEntity
8
1
62
256
6
ByLayer
370
-1
48
1
60
0
100
AcDbSpline
70
4
71
3
72
16
73
12
40
0
40
0
40
0
40
0
40
0.249999999999999
40
0.249999999999999
40
0.499999999999998
40
0.499999999999998
40
0.624999999999998
40
0.624999999999998
40
0.749999999999999
40
0.749999999999999
40
1
40
1
40
1
40
1
41
1
10
28.4564505205241
20
0.73116271497139
30
0
41
1
10
28.4590262503363
20
0.689331880539669
30
0
41
1
10
28.464565150409
20
0.64719576944907
30
0
41
1
10
28.4841814804649
20
0.56204387662666
30
0
41
1
10
28.4983223929627
20
0.519021554693666
30
0
41
1
10
28.5274099213929
20
0.453676640961078
30
0
41
1
10
28.5384031065077
20
0.431793562207702
30
0
41
1
10
28.5625189230372
20
0.388506336518447
30
0
41
1
10
28.57567877715
20
0.367007854114888
30
0
41
1
10
28.6180645753108
20
0.302895169167698
30
0
41
1
10
28.6501854304256
20
0.260662237374277
30
0
41
1
10
28.6849645210172
20
0.218779405259625
30
0
0
SPLINE
5
EA
100
AcDbEntity
8
1
62
256
6
ByLayer
370
-1
48
1
60
0
100
AcDbSpline
70
4
71
3
72
14
73
10
40
0
40
0
40
0
40
0
40
0.25
40
0.25
40
0.5
40
0.5
40
0.75
40
0.75
40
1
40
1
40
1
40
1
41
1
10
28.6849645210195
20
0.218779405259909
30
0
41
1
10
28.663336865355
20
0.159684487866969
30
0
41
1
10
28.644295274327
20
0.0998146400048086
30
0
41
1
10
28.6140053989341
20
-0.0222603688835648
30
0
41
1
10
28.6028598591103
20
-0.0848957828642938
30
0
41
1
10
28.5909096572675
20
-0.20848789654201
30
0
41
1
10
28.5899316491743
20
-0.269883459180278
30
0
41
1
10
28.5965064626256
20
-0.391990877366709
30
0
41
1
10
28.6040596142127
20
-0.452906800422738
30
0
41
1
10
28.6143364255421
20
-0.512383309711083
30
0
0
SPLINE
5
EB
100
AcDbEntity
8
1
62
256
6
ByLayer
370
-1
48
1
60
0
100
AcDbSpline
70
4
71
3
72
10
73
6
40
0
40
0
40
0
40
0
40
0.5
40
0.5
40
1
40
1
40
1
40
1
41
1
10
29.0241832699596
20
5.20799559082155
30
0
41
1
10
29.016157001485
20
5.23050867006765
30
0
41
1
10
29.0101545944433
20
5.25344089010497
30
0
41
1
10
29.0020736072171
20
5.30011795295462
30
0
41
1
10
29
20
5.32406961973641
30
0
41
1
10
29
20
5.34793770587032
30
0
0
SPLINE
5
EC
100
AcDbEntity
8
1
62
256
6
ByLayer
370
-1
48
1
60
0
100
AcDbSpline
70
4
71
3
72
18
73
14
40
0
40
0
40
0
40
0
40
0.25
40
0.25
40
0.5
40
0.5
40
0.625
40
0.625
40
0.75
40
0.75
40
0.875
40
0.875
40
1
40
1
40
1
40
1
41
1
10
29.4
20
4.93807312928658
30
0
41
1
10
29.3584842601296
20
4.93787819603034
30
0
41
1
10
29.3180426880139
20
4.94419947214163
30
0
41
1
10
29.2392896902466
20
4.96980888911861
30
0
41
1
10
29.2026444452782
20
4.98863281815409
30
0
41
1
10
29.1525652510718
20
5.02507510931872
30
0
41
1
10
29.136760806667
20
5.03858227559107
30
0
41
1
10
29.1076914599727
20
5.06749700145758
30
0
41
1
10
29.0942933292114
20
5.08299742672426
30
0
41
1
10
29.0697609141795
20
5.11607916032034
30
0
41
1
10
29.0586318945173
20
5.13371157166324
30
0
41
1
10
29.0393438833945
20
5.16993731585234
30
0
41
1
10
29.0310763048138
20
5.1886611466258
30
0
41
1
10
29.0241832699596
20
5.20799559082155
30
0
0
LINE
5
46
100
AcDbEntity
8
2
62
256
6
ByLayer
370
-1
48
1
60
0
100
AcDbLine
10
71.882135
20
3.819532
30
0
11
72.718128
21
3.819532
31
0
39
0
210
0
220
0
230
1
0
LINE
5
48
100
AcDbEntity
8
2
62
256
6
ByLayer
370
-1
48
1
60
0
100
AcDbLine
10
72.300131
20
6.994532
30
0
11
72.300131
21
-39.071913
31
0
39
0
210
0
220
0
230
1
0
LINE
5
49
100
AcDbEntity
8
2
62
256
6
ByLayer
370
-1
48
1
60
0
100
AcDbLine
10
72.222786
20
5.819532
30
0
11
72.091133
21
3.819532
31
0
39
0
210
0
220
0
230
1
0
LINE
5
4A
100
AcDbEntity
8
2
62
256
6
ByLayer
370
-1
48
1
60
0
100
AcDbLine
10
72.300131
20
6.994532
30
0
11
71.882135
21
3.819532
31
0
39
0
210
0
220
0
230
1
0
LINE
5
4B
100
AcDbEntity
8
2
62
256
6
ByLayer
370
-1
48
1
60
0
100
AcDbLine
10
72.300131
20
6.994532
30
0
11
72.718128
21
3.819532
31
0
39
0
210
0
220
0
230
1
0
LINE
5
4C
100
AcDbEntity
8
2
62
256
6
ByLayer
370
-1
48
1
60
0
100
AcDbLine
10
72.377477
20
5.819532
30
0
11
72.50913
21
3.819532
31
0
39
0
210
0
220
0
230
1
0
LINE
5
4D
100
AcDbEntity
8
2
62
256
6
ByLayer
370
-1
48
1
60
0
100
AcDbLine
10
71.882135
20
3.819532
30
0
11
72.718128
21
3.819532
31
0
39
0
210
0
220
0
230
1
0
LINE
5
4E
100
AcDbEntity
8
2
62
256
6
ByLayer
370
-1
48
1
60
0
100
AcDbLine
10
72.222786
20
5.819532
30
0
11
72.091133
21
3.819532
31
0
39
0
210
0
220
0
230
1
0
LINE
5
4F
100
AcDbEntity
8
2
62
256
6
ByLayer
370
-1
48
1
60
0
100
AcDbLine
10
72.300131
20
6.994532
30
0
11
71.882135
21
3.819532
31
0
39
0
210
0
220
0
230
1
0
LINE
5
50
100
AcDbEntity
8
2
62
256
6
ByLayer
370
-1
48
1
60
0
100
AcDbLine
10
72.300131
20
6.994532
30
0
11
72.718128
21
3.819532
31
0
39
0
210
0
220
0
230
1
0
LINE
5
51
100
AcDbEntity
8
2
62
256
6
ByLayer
370
-1
48
1
60
0
100
AcDbLine
10
72.377477
20
5.819532
30
0
11
72.50913
21
3.819532
31
0
39
0
210
0
220
0
230
1
0
LINE
5
52
100
AcDbEntity
8
2
62
256
6
ByLayer
370
-1
48
1
60
0
100
AcDbLine
10
44.300131
20
6.994532
30
0
11
74.300131
21
6.994532
31
0
39
0
210
0
220
0
230
1
0
LINE
5
53
100
AcDbEntity
8
SK1
62
256
6
ByLayer
370
-1
48
1
60
0
100
AcDbLine
10
-1.114326
20
-7.75
30
0
11
-0.275
21
-7.75
31
0
39
0
210
0
220
0
230
1
0
LINE
5
55
100
AcDbEntity
8
SK1
62
256
6
ByLayer
370
-1
48
1
60
0
100
AcDbLine
10
-0.275
20
7.75
30
0
11
-1.114326
21
7.75
31
0
39
0
210
0
220
0
230
1
0
LINE
5
56
100
AcDbEntity
8
1
62
256
6
ByLayer
370
-1
48
1
60
0
100
AcDbLine
10
32
20
5.05
30
0
11
29.4
21
5.05
31
0
39
0
210
0
220
0
230
1
0
LINE
5
58
100
AcDbEntity
8
1
62
256
6
ByLayer
370
-1
48
1
60
0
100
AcDbLine
10
29.4
20
-6.55
30
0
11
32
21
-6.55
31
0
39
0
210
0
220
0
230
1
0
LINE
5
59
100
AcDbEntity
8
1
62
256
6
ByLayer
370
-1
48
1
60
0
100
AcDbLine
10
37
20
-0.075638
30
0
11
36.949999
21
0.223154
31
0
39
0
210
0
220
0
230
1
0
LINE
5
5A
100
AcDbEntity
8
1
62
256
6
ByLayer
370
-1
48
1
60
0
100
AcDbLine
10
36.949999
20
-4.223154
30
0
11
37
21
-3.924362
31
0
39
0
210
0
220
0
230
1
0
LINE
5
5B
100
AcDbEntity
8
1
62
256
6
ByLayer
370
-1
48
1
60
0
100
AcDbLine
10
3.5
20
11.5
30
0
11
0
21
11.5
31
0
39
0
210
0
220
0
230
1
0
LINE
5
5C
100
AcDbEntity
8
SK1
62
256
6
ByLayer
370
-1
48
1
60
0
100
AcDbLine
10
-2.1
20
8
30
0
11
-3.4
21
8
31
0
39
0
210
0
220
0
230
1
0
LINE
5
5D
100
AcDbEntity
8
SK1
62
256
6
ByLayer
370
-1
48
1
60
0
100
AcDbLine
10
-37
20
-8
30
0
11
-2.1
21
-8
31
0
39
0
210
0
220
0
230
1
0
LINE
5
5E
100
AcDbEntity
8
SK1
62
256
6
ByLayer
370
-1
48
1
60
0
100
AcDbLine
10
-37.6
20
7.4
30
0
11
-38
21
7
31
0
39
0
210
0
220
0
230
1
0
LINE
5
5F
100
AcDbEntity
8
SK1
62
256
6
ByLayer
370
-1
48
1
60
0
100
AcDbLine
10
-38
20
-7
30
0
11
-37
21
-8
31
0
39
0
210
0
220
0
230
1
0
LINE
5
60
100
AcDbEntity
8
1
62
256
6
ByLayer
370
-1
48
1
60
0
100
AcDbLine
10
0
20
-11.5
30
0
11
3.5
21
-11.5
31
0
39
0
210
0
220
0
230
1
0
LINE
5
61
100
AcDbEntity
8
SK1
62
256
6
ByLayer
370
-1
48
1
60
0
100
AcDbLine
10
-2.1
20
-8
30
0
11
-1.217854
21
-7.76363
31
0
39
0
210
0
220
0
230
1
0
LINE
5
62
100
AcDbEntity
8
SK1
62
256
6
ByLayer
370
-1
48
1
60
0
100
AcDbLine
10
-1.217854
20
7.76363
30
0
11
-2.1
21
8
31
0
39
0
210
0
220
0
230
1
0
LINE
5
63
100
AcDbEntity
8
1
62
256
6
ByLayer
370
-1
48
1
60
0
100
AcDbLine
10
5.8
20
-7.9
30
0
11
29
21
-7.9
31
0
39
0
210
0
220
0
230
1
0
LINE
5
64
100
AcDbEntity
8
1
62
256
6
ByLayer
370
-1
48
1
60
0
100
AcDbLine
10
22.361239
20
7.9
30
0
11
5.8
21
7.9
31
0
39
0
210
0
220
0
230
1
0
LINE
5
65
100
AcDbEntity
8
1
62
256
6
ByLayer
370
-1
48
1
60
0
100
AcDbLine
10
36.95
20
-6.5
30
0
11
32.1
21
-6.5
31
0
39
0
210
0
220
0
230
1
0
LINE
5
66
100
AcDbEntity
8
1
62
256
6
ByLayer
370
-1
48
1
60
0
100
AcDbLine
10
32.1
20
-6.5
30
0
11
32.1
21
-6.388302
31
0
39
0
210
0
220
0
230
1
0
LINE
5
67
100
AcDbEntity
8
1
62
256
6
ByLayer
370
-1
48
1
60
0
100
AcDbLine
10
32.1
20
2.939393
30
0
11
32.1
21
2.97209
31
0
39
0
210
0
220
0
230
1
0
LINE
5
68
100
AcDbEntity
8
1
62
256
6
ByLayer
370
-1
48
1
60
0
100
AcDbLine
10
32.1
20
2.97209
30
0
11
32.1
21
3.677866
31
0
39
0
210
0
220
0
230
1
0
LINE
5
69
100
AcDbEntity
8
1
62
256
6
ByLayer
370
-1
48
1
60
0
100
AcDbLine
10
32.1
20
3.677866
30
0
11
32.1
21
6.650914
31
0
39
0
210
0
220
0
230
1
0
LINE
5
6A
100
AcDbEntity
8
1
62
256
6
ByLayer
370
-1
48
1
60
0
100
AcDbLine
10
36.95
20
1.971122
30
0
11
36.95
21
2.97209
31
0
39
0
210
0
220
0
230
1
0
LINE
5
6B
100
AcDbEntity
8
1
62
256
6
ByLayer
370
-1
48
1
60
0
100
AcDbLine
10
36.95
20
2.97209
30
0
11
32.1
21
2.97209
31
0
39
0
210
0
220
0
230
1
0
LINE
5
6C
100
AcDbEntity
8
1
62
256
6
ByLayer
370
-1
48
1
60
0
100
AcDbLine
10
31.472444
20
1.971122
30
0
11
36.95
21
1.971122
31
0
39
0
210
0
220
0
230
1
0
LINE
5
6D
100
AcDbEntity
8
1
62
256
6
ByLayer
370
-1
48
1
60
0
100
AcDbLine
10
32.1
20
3.677866
30
0
11
36.95
21
3.677866
31
0
39
0
210
0
220
0
230
1
0
LINE
5
6E
100
AcDbEntity
8
1
62
256
6
ByLayer
370
-1
48
1
60
0
100
AcDbLine
10
36.95
20
3.677866
30
0
11
36.95
21
5.109879
31
0
39
0
210
0
220
0
230
1
0
LINE
5
6F
100
AcDbEntity
8
1
62
256
6
ByLayer
370
-1
48
1
60
0
100
AcDbLine
10
36.95
20
5.109879
30
0
11
38.676533
21
5.049587
31
0
39
0
210
0
220
0
230
1
0
LINE
5
70
100
AcDbEntity
8
1
62
256
6
ByLayer
370
-1
48
1
60
0
100
AcDbLine
10
32.1
20
6.650914
30
0
11
38.676533
21
6.880572
31
0
39
0
210
0
220
0
230
1
0
LINE
5
71
100
AcDbEntity
8
1
62
256
6
ByLayer
370
-1
48
1
60
0
100
AcDbLine
10
38.676533
20
6.880572
30
0
11
38.676533
21
5.049587
31
0
39
0
210
0
220
0
230
1
0
LINE
5
72
100
AcDbEntity
8
1
62
256
6
ByLayer
370
-1
48
1
60
0
100
AcDbLine
10
31.15
20
2.124834
30
0
11
31.15
21
2.40358
31
0
39
0
210
0
220
0
230
1
0
LINE
5
73
100
AcDbEntity
8
1
62
256
6
ByLayer
370
-1
48
1
60
0
100
AcDbLine
10
31.15
20
-5.566772
30
0
11
31.15
21
-5.541348
31
0
39
0
210
0
220
0
230
1
0
LINE
5
74
100
AcDbEntity
8
1
62
256
6
ByLayer
370
-1
48
1
60
0
100
AcDbLine
10
36.95
20
3.677866
30
0
11
36.95
21
2.97209
31
0
39
0
210
0
220
0
230
1
0
LINE
5
75
100
AcDbEntity
8
1
62
256
6
ByLayer
370
-1
48
1
60
0
100
AcDbLine
10
36.95
20
1.971122
30
0
11
36.95
21
1.552632
31
0
39
0
210
0
220
0
230
1
0
LINE
5
76
100
AcDbEntity
8
1
62
256
6
ByLayer
370
-1
48
1
60
0
100
AcDbLine
10
36.95
20
-6.5
30
0
11
36.95
21
1.552632
31
0
39
0
210
0
220
0
230
1
0
LINE
5
77
100
AcDbEntity
8
1
62
256
6
ByLayer
370
-1
48
1
60
0
100
AcDbLine
10
32.1
20
-5.063414
30
0
11
32.1
21
1.057057
31
0
39
0
210
0
220
0
230
1
0
LINE
5
78
100
AcDbEntity
8
1
62
256
6
ByLayer
370
-1
48
1
60
0
100
AcDbLine
10
36.95
20
1.552632
30
0
11
32.000077
21
1.552632
31
0
39
0
210
0
220
0
230
1
0
LINE
5
79
100
AcDbEntity
8
1
62
256
6
ByLayer
370
-1
48
1
60
0
100
AcDbLine
10
42.3
20
6.801135
30
0
11
42.3
21
5.129024
31
0
39
0
210
0
220
0
230
1
0
LINE
5
7A
100
AcDbEntity
8
1
62
256
6
ByLayer
370
-1
48
1
60
0
100
AcDbLine
10
31.15
20
-5.566772
30
0
11
31.15
21
-6.16465
31
0
39
0
210
0
220
0
230
1
0
LINE
5
7B
100
AcDbEntity
8
1
62
256
6
ByLayer
370
-1
48
1
60
0
100
AcDbLine
10
29
20
2.480007
30
0
11
29
21
-6.213731
31
0
39
0
210
0
220
0
230
1
0
LINE
5
7C
100
AcDbEntity
8
1
62
256
6
ByLayer
370
-1
48
1
60
0
100
AcDbLine
10
32
20
4.93875
30
0
11
32
21
4.005688
31
0
39
0
210
0
220
0
230
1
0
LINE
5
7D
100
AcDbEntity
8
1
62
256
6
ByLayer
370
-1
48
1
60
0
100
AcDbLine
10
32
20
4.93875
30
0
11
29.69059
21
4.93875
31
0
39
0
210
0
220
0
230
1
0
LINE
5
7E
100
AcDbEntity
8
1
62
256
6
ByLayer
370
-1
48
1
60
0
100
AcDbLine
10
22.361239
20
7.9
30
0
11
22.895132
21
7.9
31
0
39
0
210
0
220
0
230
1
0
LINE
5
7F
100
AcDbEntity
8
1
62
256
6
ByLayer
370
-1
48
1
60
0
100
AcDbLine
10
29
20
5.433473
30
0
11
29
21
5.347938
31
0
39
0
210
0
220
0
230
1
0
LINE
5
80
100
AcDbEntity
8
1
62
256
6
ByLayer
370
-1
48
1
60
0
100
AcDbLine
10
32
20
4.005688
30
0
11
32
21
2.820038
31
0
39
0
210
0
220
0
230
1
0
LINE
5
81
100
AcDbEntity
8
1
62
256
6
ByLayer
370
-1
48
1
60
0
100
AcDbLine
10
30.771506
20
2.337982
30
0
11
30.772103
21
2.327931
31
0
39
0
210
0
220
0
230
1
0
LINE
5
82
100
AcDbEntity
8
1
62
256
6
ByLayer
370
-1
48
1
60
0
100
AcDbLine
10
30.8743
20
2.256282
30
0
11
32
21
1.719548
31
0
39
0
210
0
220
0
230
1
0
LINE
5
83
100
AcDbEntity
8
1
62
256
6
ByLayer
370
-1
48
1
60
0
100
AcDbLine
10
32
20
1.719548
30
0
11
32
21
1.543641
31
0
39
0
210
0
220
0
230
1
0
LINE
5
84
100
AcDbEntity
8
1
62
256
6
ByLayer
370
-1
48
1
60
0
100
AcDbLine
10
29
20
2.760468
30
0
11
29
21
2.480007
31
0
39
0
210
0
220
0
230
1
0
LINE
5
85
100
AcDbEntity
8
1
62
256
6
ByLayer
370
-1
48
1
60
0
100
AcDbLine
10
22.361239
20
7.9
30
0
11
29.024183
21
5.207996
31
0
39
0
210
0
220
0
230
1
0
LINE
5
86
100
AcDbEntity
8
1
62
256
6
ByLayer
370
-1
48
1
60
0
100
AcDbLine
10
29.69059
20
4.93875
30
0
11
32
21
4.005688
31
0
39
0
210
0
220
0
230
1
0
LINE
5
87
100
AcDbEntity
8
1
62
256
6
ByLayer
370
-1
48
1
60
0
100
AcDbLine
10
17.536083
20
7.725191
30
0
11
28.733034
21
3.201329
31
0
39
0
210
0
220
0
230
1
0
LINE
5
88
100
AcDbEntity
8
1
62
256
6
ByLayer
370
-1
48
1
60
0
100
AcDbLine
10
22.895132
20
7.9
30
0
11
29
21
5.433473
31
0
39
0
210
0
220
0
230
1
0
LINE
5
89
100
AcDbEntity
8
1
62
256
6
ByLayer
370
-1
48
1
60
0
100
AcDbLine
10
30.853222
20
2.266656
30
0
11
30.8599
21
2.432263
31
0
39
0
210
0
220
0
230
1
0
LINE
5
8A
100
AcDbEntity
8
1
62
256
6
ByLayer
370
-1
48
1
60
0
100
AcDbLine
10
32
20
-6.345669
30
0
11
32
21
-6.397197
31
0
39
0
210
0
220
0
230
1
0
LINE
5
8B
100
AcDbEntity
8
1
62
256
6
ByLayer
370
-1
48
1
60
0
100
AcDbLine
10
30.828639
20
-5.656997
30
0
11
30.849721
21
-6.179828
31
0
39
0
210
0
220
0
230
1
0
LINE
5
8C
100
AcDbEntity
8
1
62
256
6
ByLayer
370
-1
48
1
60
0
100
AcDbLine
10
32
20
-6.55
30
0
11
32
21
-6.397197
31
0
39
0
210
0
220
0
230
1
0
LINE
5
8D
100
AcDbEntity
8
1
62
256
6
ByLayer
370
-1
48
1
60
0
100
AcDbLine
10
32
20
-2
30
0
11
32
21
-5.211205
31
0
39
0
210
0
220
0
230
1
0
LINE
5
8E
100
AcDbEntity
8
1
62
256
6
ByLayer
370
-1
48
1
60
0
100
AcDbLine
10
29.4
20
-2
30
0
11
29.4
21
-6.55
31
0
39
0
210
0
220
0
230
1
0
LINE
5
8F
100
AcDbEntity
8
1
62
256
6
ByLayer
370
-1
48
1
60
0
100
AcDbLine
10
29.4
20
5.05
30
0
11
29.4
21
4.938073
31
0
39
0
210
0
220
0
230
1
0
LINE
5
90
100
AcDbEntity
8
1
62
256
6
ByLayer
370
-1
48
1
60
0
100
AcDbLine
10
29.4
20
2.676455
30
0
11
29.4
21
0.5
31
0
39
0
210
0
220
0
230
1
0
LINE
5
91
100
AcDbEntity
8
1
62
256
6
ByLayer
370
-1
48
1
60
0
100
AcDbLine
10
29.4
20
0.5
30
0
11
29.4
21
-2
31
0
39
0
210
0
220
0
230
1
0
LINE
5
92
100
AcDbEntity
8
1
62
256
6
ByLayer
370
-1
48
1
60
0
100
AcDbLine
10
29.4
20
-2
30
0
11
32
21
-2
31
0
39
0
210
0
220
0
230
1
0
LINE
5
93
100
AcDbEntity
8
1
62
256
6
ByLayer
370
-1
48
1
60
0
100
AcDbLine
10
29
20
0.5
30
0
11
29.4
21
0.5
31
0
39
0
210
0
220
0
230
1
0
LINE
5
94
100
AcDbEntity
8
1
62
256
6
ByLayer
370
-1
48
1
60
0
100
AcDbLine
10
29
20
-2
30
0
11
29.4
21
-2
31
0
39
0
210
0
220
0
230
1
0
LINE
5
95
100
AcDbEntity
8
1
62
256
6
ByLayer
370
-1
48
1
60
0
100
AcDbLine
10
5
20
10
30
0
11
5
21
-10
31
0
39
0
210
0
220
0
230
1
0
LINE
5
96
100
AcDbEntity
8
1
62
256
6
ByLayer
370
-1
48
1
60
0
100
AcDbLine
10
3.5
20
11.5
30
0
11
3.5
21
-11.5
31
0
39
0
210
0
220
0
230
1
0
LINE
5
97
100
AcDbEntity
8
SK1
62
256
6
ByLayer
370
-1
48
1
60
0
100
AcDbLine
10
-3.4
20
8
30
0
11
-4
21
7.4
31
0
39
0
210
0
220
0
230
1
0
LINE
5
98
100
AcDbEntity
8
SK1
62
256
6
ByLayer
370
-1
48
1
60
0
100
AcDbLine
10
-38
20
7
30
0
11
-38
21
-7
31
0
39
0
210
0
220
0
230
1
0
LINE
5
99
100
AcDbEntity
8
SK1
62
256
6
ByLayer
370
-1
48
1
60
0
100
AcDbLine
10
-37
20
7.4
30
0
11
-37
21
-8
31
0
39
0
210
0
220
0
230
1
0
LINE
5
9A
100
AcDbEntity
8
1
62
256
6
ByLayer
370
-1
48
1
60
0
100
AcDbLine
10
0
20
11.5
30
0
11
0
21
-11.5
31
0
39
0
210
0
220
0
230
1
0
LINE
5
9B
100
AcDbEntity
8
1
62
256
6
ByLayer
370
-1
48
1
60
0
100
AcDbLine
10
32
20
5.05
30
0
11
32
21
4.93875
31
0
39
0
210
0
220
0
230
1
0
LINE
5
9C
100
AcDbEntity
8
1
62
256
6
ByLayer
370
-1
48
1
60
0
100
AcDbLine
10
32
20
1.543641
30
0
11
32
21
0.5
31
0
39
0
210
0
220
0
230
1
0
LINE
5
9D
100
AcDbEntity
8
1
62
256
6
ByLayer
370
-1
48
1
60
0
100
AcDbLine
10
32
20
0.5
30
0
11
32
21
-2
31
0
39
0
210
0
220
0
230
1
0
LINE
5
9E
100
AcDbEntity
8
1
62
256
6
ByLayer
370
-1
48
1
60
0
100
AcDbLine
10
29.4
20
0.5
30
0
11
32
21
0.5
31
0
39
0
210
0
220
0
230
1
0
LINE
5
9F
100
AcDbEntity
8
SK1
62
256
6
ByLayer
370
-1
48
1
60
0
100
AcDbLine
10
-4
20
7.4
30
0
11
-37
21
7.4
31
0
39
0
210
0
220
0
230
1
0
LINE
5
A0
100
AcDbEntity
8
1
62
256
6
ByLayer
370
-1
48
1
60
0
100
AcDbLine
10
5.8
20
7.9
30
0
11
5.8
21
-7.9
31
0
39
0
210
0
220
0
230
1
0
LINE
5
A1
100
AcDbEntity
8
1
62
256
6
ByLayer
370
-1
48
1
60
0
100
AcDbLine
10
29
20
-6.213731
30
0
11
29
21
-7.9
31
0
39
0
210
0
220
0
230
1
0
LINE
5
A2
100
AcDbEntity
8
SK1
62
256
6
ByLayer
370
-1
48
1
60
0
100
AcDbLine
10
-0.275
20
-7.75
30
0
11
-0.275
21
7.75
31
0
39
0
210
0
220
0
230
1
0
LINE
5
A3
100
AcDbEntity
8
SK1
62
256
6
ByLayer
370
-1
48
1
60
0
100
AcDbLine
10
-1.114326
20
-7.75
30
0
11
-1.114326
21
7.75
31
0
39
0
210
0
220
0
230
1
0
LINE
5
A4
100
AcDbEntity
8
SK1
62
256
6
ByLayer
370
-1
48
1
60
0
100
AcDbLine
10
-1.217854
20
-7.76363
30
0
11
-1.217854
21
7.76363
31
0
39
0
210
0
220
0
230
1
0
LINE
5
A5
100
AcDbEntity
8
SK1
62
256
6
ByLayer
370
-1
48
1
60
0
100
AcDbLine
10
-2.1
20
-8
30
0
11
-2.1
21
8
31
0
39
0
210
0
220
0
230
1
0
LINE
5
A6
100
AcDbEntity
8
1
62
256
6
ByLayer
370
-1
48
1
60
0
100
AcDbLine
10
28.170031
20
-0.512383
30
0
11
28.614336
21
-0.512383
31
0
39
0
210
0
220
0
230
1
0
LINE
5
A7
100
AcDbEntity
8
1
62
256
6
ByLayer
370
-1
48
1
60
0
100
AcDbLine
10
28.086658
20
0.218779
30
0
11
28.684965
21
0.218779
31
0
39
0
210
0
220
0
230
1
0
LINE
5
A8
100
AcDbEntity
8
1
62
256
6
ByLayer
370
-1
48
1
60
0
100
AcDbLine
10
37
20
-3.924362
30
0
11
37
21
-0.075638
31
0
39
0
210
0
220
0
230
1
0
LINE
5
A9
100
AcDbEntity
8
1
62
256
6
ByLayer
370
-1
48
1
60
0
100
AcDbLine
10
28.733034
20
3.201329
30
0
11
28.8694
21
3.037162
31
0
39
0
210
0
220
0
230
1
0
LINE
5
AA
100
AcDbEntity
8
1
62
256
6
ByLayer
370
-1
48
1
60
0
100
AcDbLine
10
29
20
2.480007
30
0
11
27.796194
21
2.466884
31
0
39
0
210
0
220
0
230
1
0
LINE
5
AB
100
AcDbEntity
8
80
62
256
6
ByLayer
370
-1
48
1
60
0
100
AcDbLine
10
0
20
0
30
0
11
-2.5
21
0
31
0
39
0
210
0
220
0
230
1
0
LINE
5
AC
100
AcDbEntity
8
81
62
256
6
ByLayer
370
-1
48
1
60
0
100
AcDbLine
10
42.300131
20
6.994532
30
0
11
49.733166
21
6.994532
31
0
39
0
210
0
220
0
230
1
0
LINE
5
AD
100
AcDbEntity
8
4
62
256
6
ByLayer
370
-1
48
0.05
60
0
100
AcDbLine
10
0
20
1.9E-05
30
0
11
42.300131
21
1.9E-05
31
0
39
0
210
0
220
0
230
1
0
LINE
5
AF
100
AcDbEntity
8
SK4
62
256
6
ByLayer
370
-1
48
0.05
60
0
100
AcDbLine
10
-39.999869
20
1.9E-05
30
0
11
40.500131
21
1.9E-05
31
0
39
0
210
0
220
0
230
1
0
MTEXT
5
ED
100
AcDbEntity
8
2
62
256
6
ByLayer
370
-1
48
1
60
0
100
AcDbMText
10
71.432948
20
-36.320346
30
0
210
0
220
0
230
1
1
\W00.754;\fsimplex.shx,bigfont.shx;DC = 14.0 - 20.0\P
40
3
41
0
44
1.084337
50
89.9999999999994
71
7
72
5
7
DEFAULT
0
MTEXT
5
F0
100
AcDbEntity
8
SK6
62
256
6
ByLayer
370
-1
48
1
60
0
100
AcDbMText
10
45.849851
20
19.350257
30
0
210
0
220
0
230
1
1
\W00.752;\fsimplex.shx,bigfont.shx;R429U-A16-14032MB09\P
40
3
41
0
44
1.084337
50
0
71
7
72
5
7
DEFAULT
0
DIMENSION
5
FC
100
AcDbEntity
8
SK2
62
256
6
ByLayer
370
-3
48
1
60
0
100
AcDbDimension
2
DimnDraft3D1
10
-38
20
43.250019
30
0
11
-7.015789
21
43.250019
31
0
70
32
71
5
72
1
41
1
210
0
220
0
230
1
3
Standard
100
AcDbAlignedDimension
13
32
23
7.05
33
0
14
-38
24
9
34
0
50
0
100
AcDbRotatedDimension
1001
ACAD
1000
DSTYLE
1002
{
1070
   279
1070
     0
1070
   172
1070
     1
1070
   173
1070
     1
1070
   340
1005
EE
1070
   271
1070
     1
1070
    77
1070
     1
1070
    73
1070
     0
1070
   171
1070
     4
1070
   274
1070
     4
1070
   177
1070
     7
1070
   176
1070
     7
1070
   178
1070
     7
1070
    41
1041
3.175
1070
   147
1041
1.75
1070
    42
1041
2.0
1070
    44
1041
2.0
1070
   140
1041
3.5
1070
   343
1005
0
1070
   344
1005
0
1002
}
0
DIMENSION
5
106
100
AcDbEntity
8
2
62
256
6
ByLayer
370
-3
48
1
60
0
100
AcDbDimension
2
DimnDraft3D2
10
0
20
28.250019
30
0
11
11.984211
21
28.250019
31
0
70
32
71
5
72
1
41
1
210
0
220
0
230
1
3
Standard
100
AcDbAlignedDimension
13
32
23
7.05
33
0
14
0
24
13.5
34
0
50
0
100
AcDbRotatedDimension
1001
ACAD
1000
DSTYLE
1002
{
1070
   279
1070
     0
1070
   172
1070
     1
1070
   173
1070
     1
1070
   340
1005
EE
1070
   271
1070
     1
1070
    77
1070
     1
1070
    73
1070
     0
1070
   171
1070
     4
1070
   274
1070
     4
1070
   177
1070
     7
1070
   176
1070
     7
1070
   178
1070
     7
1070
    41
1041
3.175
1070
   147
1041
1.75
1070
    42
1041
2.0
1070
    44
1041
2.0
1070
   140
1041
3.5
1070
   343
1005
0
1070
   344
1005
0
1002
}
0
DIMENSION
5
110
100
AcDbEntity
8
SK2
62
256
6
ByLayer
370
-3
48
1
60
0
100
AcDbDimension
2
DimnDraft3D3
10
-45.291869
20
8
30
0
11
-45.291869
21
-27.247368
31
0
70
32
71
5
72
1
41
1
210
0
220
0
230
1
3
Standard
100
AcDbAlignedDimension
13
-39
23
-8
33
0
14
-5.4
24
8
34
0
50
90
100
AcDbRotatedDimension
1001
ACAD
1000
DSTYLE
1002
{
1070
    74
1070
     0
1070
   279
1070
     0
1070
   172
1070
     1
1070
   173
1070
     1
1070
   340
1005
EE
1070
   271
1070
     1
1070
    77
1070
     1
1070
    73
1070
     0
1070
   171
1070
     4
1070
   274
1070
     4
1070
   177
1070
     7
1070
   176
1070
     7
1070
   178
1070
     7
1070
    41
1041
3.175
1070
   147
1041
1.75
1070
    42
1041
2.0
1070
    44
1041
2.0
1070
   140
1041
3.5
1070
   343
1005
0
1070
   344
1005
0
1002
}
0
DIMENSION
5
11A
100
AcDbEntity
8
2
62
256
6
ByLayer
370
-3
48
1
60
0
100
AcDbDimension
2
DimnDraft3D4
10
42.3
20
-25.814474
30
0
11
8.485526
21
-25.814474
31
0
70
32
71
5
72
1
41
1
210
0
220
0
230
1
3
Standard
100
AcDbAlignedDimension
13
0
23
-13.5
33
0
14
42.3
24
3.129024
34
0
50
0
100
AcDbRotatedDimension
1001
ACAD
1000
DSTYLE
1002
{
1070
   279
1070
     0
1070
   172
1070
     1
1070
   173
1070
     1
1070
   340
1005
EE
1070
   271
1070
     1
1070
    77
1070
     1
1070
    73
1070
     0
1070
   171
1070
     4
1070
   274
1070
     4
1070
   177
1070
     7
1070
   176
1070
     7
1070
   178
1070
     7
1070
    78
1070
     8
1070
    41
1041
3.175
1070
   147
1041
1.75
1070
    42
1041
2.0
1070
    44
1041
2.0
1070
   140
1041
3.5
1070
   343
1005
0
1070
   344
1005
0
1002
}
0
ENDSEC
0
SECTION
2
OBJECTS
0
DICTIONARY
5
169
330
0
100
AcDbDictionary
280
0
281
1
3
ACAD_GROUP
350
16a
3
ACAD_MLINESTYLE
350
16b
0
DICTIONARY
5
16a
330
0
100
AcDbDictionary
280
0
281
1
0
DICTIONARY
5
16b
330
0
100
AcDbDictionary
280
0
281
1
3
Standard
350
18
0
MLINESTYLE
5
18
330
16b
100
AcDbMlineStyle
2
Standard
70
0
3

62
256
51
90
52
90
71
2
49
-0.5
62
256
6
ByLayer
49
0.5
62
256
6
ByLayer
0
RASTERVARIABLES
5
157
330

100
AcDbRasterVariables
90
0
70
1
71
1
72
1
0
ENDSEC
0
EOF
