0
SECTION
2
HEADER
9
$ACADVER
1
AC1015
9
$DWGCODEPAGE
3
ANSI_1252
9
$HANDSEED
5
1f6
9
$ANGBASE
50
0
9
$ANGDIR
70
0
9
$ATTMODE
70
1
9
$AUNITS
70
0
9
$AUPREC
70
0
9
$CECOLOR
62
256
9
$CELTSCALE
40
1
9
$CELTYPE
6
ByLayer
9
$CELWEIGHT
370
-1
9
$CLAYER
8
0
9
$CMLJUST
70
0
9
$CMLSCALE
40
1
9
$CMLSTYLE
2
Standard
9
$DIMSTYLE
2
Standard
9
$TEXTSIZE
40
0.2
9
$TEXTSTYLE
7
Standard
9
$LUNITS
70
2
9
$LUPREC
70
4
9
$EXTNAMES
290
1
9
$INSUNITS
70
4
9
$LTSCALE
40
1
9
$LWDISPLAY
290
0
9
$PDMODE
70
0
9
$PDSIZE
40
0
9
$PLINEGEN
70
0
0
ENDSEC
0
SECTION
2
CLASSES
0
CLASS
1
RASTERVARIABLES
2
AcDbRasterVariables
3
ISM
90
0
280
0
281
0
0
ENDSEC
0
SECTION
2
TABLES
0
TABLE
2
VPORT
5
1ec
100
AcDbSymbolTable
0
VPORT
5
1
100
AcDbSymbolTableRecord
100
AcDbViewportTableRecord
2
*Active
70
0
10
0
20
0
11
1
21
1
12
-1
22
1
13
0
23
0
14
0.5
24
0.5
15
10
25
10
16
0
26
0
36
1
17
0
27
0
37
0
0
ENDTAB
0
TABLE
2
LTYPE
5
1ed
100
AcDbSymbolTable
0
LTYPE
5
14
100
AcDbSymbolTableRecord
100
AcDbLinetypeTableRecord
70
0
2
ByBlock
3

72
65
73
0
40
0
0
LTYPE
5
15
100
AcDbSymbolTableRecord
100
AcDbLinetypeTableRecord
70
0
2
ByLayer
3

72
65
73
0
40
0
0
LTYPE
5
16
100
AcDbSymbolTableRecord
100
AcDbLinetypeTableRecord
70
0
2
CONTINUOUS
3
Solid line
72
65
73
0
40
0
0
LTYPE
5
3C
100
AcDbSymbolTableRecord
100
AcDbLinetypeTableRecord
70
0
2
DASHED
3
__ __ __ __ __ __ __ __ __
72
65
73
2
40
25.72
49
12.86
74
0
49
-12.86
74
0
0
LTYPE
5
3D
100
AcDbSymbolTableRecord
100
AcDbLinetypeTableRecord
70
0
2
HIDDEN
3
_ _ _ _ _ _ _ _ _ _ _ _ _ _ _
72
65
73
2
40
0.5
49
0.25
74
0
49
-0.25
74
0
0
LTYPE
5
3E
100
AcDbSymbolTableRecord
100
AcDbLinetypeTableRecord
70
0
2
PHANTOM
3
____ _ _ ____ _ _ _____ _ _ ____
72
65
73
6
40
50.5
49
18
74
0
49
-6.5
74
0
49
6.5
74
0
49
-6.5
74
0
49
6.5
74
0
49
-6.5
74
0
0
LTYPE
5
3F
100
AcDbSymbolTableRecord
100
AcDbLinetypeTableRecord
70
0
2
CENTER
3
____ _ ____ _ ____ _ ____
72
65
73
4
40
47.5
49
22
74
0
49
-8.5
74
0
49
8.5
74
0
49
-8.5
74
0
0
LTYPE
5
40
100
AcDbSymbolTableRecord
100
AcDbLinetypeTableRecord
70
0
2
DOT
3
.........................
72
65
73
2
40
10
49
0
74
0
49
-10
74
0
0
LTYPE
5
41
100
AcDbSymbolTableRecord
100
AcDbLinetypeTableRecord
70
0
2
DASHDOT
3
_._._._._._._._._._._._._._._._.
72
65
73
4
40
70
49
31
74
0
49
-13
74
0
49
13
74
0
49
-13
74
0
0
ENDTAB
0
TABLE
2
LAYER
5
1ee
100
AcDbSymbolTable
0
LAYER
5
10
100
AcDbSymbolTableRecord
100
AcDbLayerTableRecord
2
0
70
0
62
7
6
CONTINUOUS
290
1
370
-3
390
0
0
LAYER
5
43
100
AcDbSymbolTableRecord
100
AcDbLayerTableRecord
2
81
70
0
62
-3
6
CONTINUOUS
290
1
370
-3
390
0
0
LAYER
5
45
100
AcDbSymbolTableRecord
100
AcDbLayerTableRecord
2
2
70
0
62
7
6
CONTINUOUS
290
1
370
-3
390
0
0
LAYER
5
47
100
AcDbSymbolTableRecord
100
AcDbLayerTableRecord
2
80
70
0
62
-6
6
CONTINUOUS
290
1
370
-3
390
0
0
LAYER
5
4A
100
AcDbSymbolTableRecord
100
AcDbLayerTableRecord
2
4
70
0
62
-2
6
CENTER
290
1
370
-3
390
0
0
LAYER
5
4C
100
AcDbSymbolTableRecord
100
AcDbLayerTableRecord
2
1
70
0
62
4
6
CONTINUOUS
290
1
370
-3
390
0
0
LAYER
5
1d8
100
AcDbSymbolTableRecord
100
AcDbLayerTableRecord
2
SK1
70
0
62
4
6
CONTINUOUS
290
1
370
-3
390
0
0
LAYER
5
1d9
100
AcDbSymbolTableRecord
100
AcDbLayerTableRecord
2
SK4
70
0
62
2
6
CENTER
290
1
370
-3
390
0
0
LAYER
5
1da
100
AcDbSymbolTableRecord
100
AcDbLayerTableRecord
2
SK6
70
0
62
5
6
CONTINUOUS
290
1
370
-3
390
0
0
LAYER
5
1db
100
AcDbSymbolTableRecord
100
AcDbLayerTableRecord
2
SK2
70
0
62
7
6
CONTINUOUS
290
1
370
-3
390
0
0
ENDTAB
0
TABLE
2
STYLE
5
1ef
100
AcDbSymbolTable
0
STYLE
5
11
100
AcDbSymbolTableRecord
100
AcDbTextStyleTableRecord
2
Standard
3
txt
70
0
71
0
40
0
41
1
42
0
50
0
0
STYLE
5
158
100
AcDbSymbolTableRecord
100
AcDbTextStyleTableRecord
2
DEFAULT
3
simplex.shx
70
0
71
0
40
0
41
1
42
0
50
0
0
STYLE
5
159
100
AcDbSymbolTableRecord
100
AcDbTextStyleTableRecord
2
DWGDirectTextStyle
3
SIMPLEX
70
0
71
0
40
0
41
1
42
0
50
0
0
ENDTAB
0
TABLE
2
DIMSTYLE
5
1f0
100
AcDbSymbolTable
100
AcDbDimStyleTable
0
DIMSTYLE
105
27
100
AcDbSymbolTableRecord
100
AcDbDimStyleTableRecord
2
Standard
70
0
3
<>
41
0.18
42
0.0625
44
0.18
140
0.18
147
0.09
73
0
74
0
77
1
271
2
275
0
278
52
280
0
340
11
0
ENDTAB
0
TABLE
2
VIEW
5
1f1
100
AcDbSymbolTable
0
ENDTAB
0
TABLE
2
UCS
5
1f2
100
AcDbSymbolTable
0
ENDTAB
0
TABLE
2
APPID
5
1f3
100
AcDbSymbolTable
0
APPID
5
12
100
AcDbSymbolTableRecord
100
AcDbRegAppTableRecord
2
ACAD
70
0
0
ENDTAB
0
TABLE
2
BLOCK_RECORD
5
1f4
100
AcDbSymbolTable
0
BLOCK_RECORD
5
1F
100
AcDbSymbolTableRecord
100
AcDbBlockTableRecord
2
*Model_Space
340
0
70
0
0
BLOCK_RECORD
5
1B
100
AcDbSymbolTableRecord
100
AcDbBlockTableRecord
2
*Paper_Space
340
0
70
0
0
BLOCK_RECORD
5
23
100
AcDbSymbolTableRecord
100
AcDbBlockTableRecord
2
*Paper_Space0
340
0
70
0
0
BLOCK_RECORD
5
15B
100
AcDbSymbolTableRecord
100
AcDbBlockTableRecord
2
DimnDraft3D1
340
0
70
0
0
BLOCK_RECORD
5
169
100
AcDbSymbolTableRecord
100
AcDbBlockTableRecord
2
_CLOSED
340
0
70
0
0
BLOCK_RECORD
5
170
100
AcDbSymbolTableRecord
100
AcDbBlockTableRecord
2
DimnDraft3D2
340
0
70
0
0
BLOCK_RECORD
5
17E
100
AcDbSymbolTableRecord
100
AcDbBlockTableRecord
2
DimnDraft3D3
340
0
70
0
0
BLOCK_RECORD
5
18D
100
AcDbSymbolTableRecord
100
AcDbBlockTableRecord
2
DimnDraft3D4
340
0
70
0
0
ENDTAB
0
ENDSEC
0
SECTION
2
BLOCKS
0
BLOCK
5
20
100
AcDbEntity
8
0
100
AcDbBlockBegin
2
*Model_Space
70
0
10
0
20
0
30
0
3
*Model_Space
0
ENDBLK
5
21
100
AcDbEntity
8
0
100
AcDbBlockEnd
0
BLOCK
5
1C
100
AcDbEntity
8
0
100
AcDbBlockBegin
2
*Paper_Space
70
0
10
0
20
0
30
0
3
*Paper_Space
0
ENDBLK
5
1D
100
AcDbEntity
8
0
100
AcDbBlockEnd
0
BLOCK
5
24
100
AcDbEntity
8
0
100
AcDbBlockBegin
2
*Paper_Space0
70
0
10
0
20
0
30
0
3
*Paper_Space0
0
ENDBLK
5
25
100
AcDbEntity
8
0
100
AcDbBlockEnd
0
BLOCK
5
166
100
AcDbEntity
8
0
100
AcDbBlockBegin
2
DimnDraft3D1
70
0
10
0
20
0
30
0
3
DimnDraft3D1
0
MTEXT
5
15C
100
AcDbEntity
8
2
62
256
6
ByLayer
370
-1
48
1
60
0
100
AcDbMText
10
20.365461
20
36.875
30
0
210
0
220
0
230
1
1
\W01.000;\fsimplex.shx,bigfont.shx;45\P
40
4.5
41
0
44
1.084337
50
0
71
7
72
5
7
DEFAULT
0
LINE
5
15D
100
AcDbEntity
8
2
62
256
6
ByLayer
370
-1
48
1
60
0
100
AcDbLine
10
45
20
18
30
0
11
45
21
37.75
31
0
39
0
210
0
220
0
230
1
0
LINE
5
15E
100
AcDbEntity
8
2
62
256
6
ByLayer
370
-1
48
1
60
0
100
AcDbLine
10
0
20
16.4
30
0
11
0
21
37.75
31
0
39
0
210
0
220
0
230
1
0
LINE
5
15F
100
AcDbEntity
8
2
62
256
6
ByLayer
370
-1
48
1
60
0
100
AcDbLine
10
45
20
35.75
30
0
11
0
21
35.75
31
0
39
0
210
0
220
0
230
1
0
LINE
5
160
100
AcDbEntity
8
2
62
256
6
ByLayer
370
-1
48
1
60
0
100
AcDbLine
10
45
20
35.75
30
0
11
41.825002
21
35.332003
31
0
39
0
210
0
220
0
230
1
0
LINE
5
161
100
AcDbEntity
8
2
62
256
6
ByLayer
370
-1
48
1
60
0
100
AcDbLine
10
45
20
35.75
30
0
11
41.824998
21
36.167997
31
0
39
0
210
0
220
0
230
1
0
LINE
5
162
100
AcDbEntity
8
2
62
256
6
ByLayer
370
-1
48
1
60
0
100
AcDbLine
10
41.825002
20
35.332003
30
0
11
41.824998
21
36.167997
31
0
39
0
210
0
220
0
230
1
0
LINE
5
163
100
AcDbEntity
8
2
62
256
6
ByLayer
370
-1
48
1
60
0
100
AcDbLine
10
0
20
35.75
30
0
11
3.174998
21
36.167997
31
0
39
0
210
0
220
0
230
1
0
LINE
5
164
100
AcDbEntity
8
2
62
256
6
ByLayer
370
-1
48
1
60
0
100
AcDbLine
10
0
20
35.75
30
0
11
3.175002
21
35.332003
31
0
39
0
210
0
220
0
230
1
0
LINE
5
165
100
AcDbEntity
8
2
62
256
6
ByLayer
370
-1
48
1
60
0
100
AcDbLine
10
3.174998
20
36.167997
30
0
11
3.175002
21
35.332003
31
0
39
0
210
0
220
0
230
1
0
ENDBLK
5
167
100
AcDbEntity
8
0
100
AcDbBlockEnd
0
BLOCK
5
16A
100
AcDbEntity
8
0
100
AcDbBlockBegin
2
_CLOSED
70
0
10
0
20
0
30
0
3
_CLOSED
0
LINE
5
16C
100
AcDbEntity
8
0
62
256
6
ByLayer
370
-2
48
1
60
0
100
AcDbLine
10
-1
20
0.166667
30
0
11
0
21
0
31
0
39
0
210
0
220
0
230
1
0
LINE
5
16D
100
AcDbEntity
8
0
62
256
6
ByLayer
370
-2
48
1
60
0
100
AcDbLine
10
0
20
0
30
0
11
-1
21
-0.166667
31
0
39
0
210
0
220
0
230
1
0
LINE
5
16E
100
AcDbEntity
8
0
62
256
6
ByLayer
370
-2
48
1
60
0
100
AcDbLine
10
-1
20
0.166667
30
0
11
-1
21
-0.166667
31
0
39
0
210
0
220
0
230
1
0
LINE
5
16F
100
AcDbEntity
8
0
62
256
6
ByLayer
370
-2
48
1
60
0
100
AcDbLine
10
0
20
0
30
0
11
-1
21
0
31
0
39
0
210
0
220
0
230
1
0
ENDBLK
5
16B
100
AcDbEntity
8
0
100
AcDbBlockEnd
0
BLOCK
5
17B
100
AcDbEntity
8
0
100
AcDbBlockBegin
2
DimnDraft3D2
70
0
10
0
20
0
30
0
3
DimnDraft3D2
0
MTEXT
5
171
100
AcDbEntity
8
2
62
256
6
ByLayer
370
-1
48
1
60
0
100
AcDbMText
10
51.51875
20
26.875
30
0
210
0
220
0
230
1
1
\W01.000;\fsimplex.shx,bigfont.shx;10\P
40
4.5
41
0
44
1.084337
50
0
71
7
72
5
7
DEFAULT
0
LINE
5
172
100
AcDbEntity
8
2
62
256
6
ByLayer
370
-1
48
1
60
0
100
AcDbLine
10
45
20
18
30
0
11
45
21
27.75
31
0
39
0
210
0
220
0
230
1
0
LINE
5
173
100
AcDbEntity
8
2
62
256
6
ByLayer
370
-1
48
1
60
0
100
AcDbLine
10
34.8
20
18
30
0
11
34.8
21
27.75
31
0
39
0
210
0
220
0
230
1
0
LINE
5
174
100
AcDbEntity
8
2
62
256
6
ByLayer
370
-1
48
1
60
0
100
AcDbLine
10
34.8
20
25.75
30
0
11
55.148355
21
25.75
31
0
39
0
210
0
220
0
230
1
0
LINE
5
175
100
AcDbEntity
8
2
62
256
6
ByLayer
370
-1
48
1
60
0
100
AcDbLine
10
45
20
25.75
30
0
11
41.825002
21
25.332003
31
0
39
0
210
0
220
0
230
1
0
LINE
5
176
100
AcDbEntity
8
2
62
256
6
ByLayer
370
-1
48
1
60
0
100
AcDbLine
10
45
20
25.75
30
0
11
41.824998
21
26.167997
31
0
39
0
210
0
220
0
230
1
0
LINE
5
177
100
AcDbEntity
8
2
62
256
6
ByLayer
370
-1
48
1
60
0
100
AcDbLine
10
41.825002
20
25.332003
30
0
11
41.824998
21
26.167997
31
0
39
0
210
0
220
0
230
1
0
LINE
5
178
100
AcDbEntity
8
2
62
256
6
ByLayer
370
-1
48
1
60
0
100
AcDbLine
10
34.8
20
25.75
30
0
11
37.974998
21
26.167997
31
0
39
0
210
0
220
0
230
1
0
LINE
5
179
100
AcDbEntity
8
2
62
256
6
ByLayer
370
-1
48
1
60
0
100
AcDbLine
10
34.8
20
25.75
30
0
11
37.975002
21
25.332003
31
0
39
0
210
0
220
0
230
1
0
LINE
5
17A
100
AcDbEntity
8
2
62
256
6
ByLayer
370
-1
48
1
60
0
100
AcDbLine
10
37.974998
20
26.167997
30
0
11
37.975002
21
25.332003
31
0
39
0
210
0
220
0
230
1
0
ENDBLK
5
17C
100
AcDbEntity
8
0
100
AcDbBlockEnd
0
BLOCK
5
18A
100
AcDbEntity
8
0
100
AcDbBlockBegin
2
DimnDraft3D3
70
0
10
0
20
0
30
0
3
DimnDraft3D3
0
MTEXT
5
17F
100
AcDbEntity
8
SK2
62
256
6
ByLayer
370
-1
48
1
60
0
100
AcDbMText
10
-34.875
20
-7.467928
30
0
210
0
220
0
230
1
1
\W01.000;\fsimplex.shx,bigfont.shx;%%c28.8\P
40
4.5
41
0
44
1.084337
50
90
71
7
72
5
7
DEFAULT
0
LINE
5
181
100
AcDbEntity
8
SK2
62
256
6
ByLayer
370
-1
48
1
60
0
100
AcDbLine
10
-2
20
14.4
30
0
11
-35.75
21
14.4
31
0
39
0
210
0
220
0
230
1
0
LINE
5
182
100
AcDbEntity
8
SK2
62
256
6
ByLayer
370
-1
48
1
60
0
100
AcDbLine
10
-2
20
-14.4
30
0
11
-35.75
21
-14.4
31
0
39
0
210
0
220
0
230
1
0
LINE
5
183
100
AcDbEntity
8
SK2
62
256
6
ByLayer
370
-1
48
1
60
0
100
AcDbLine
10
-33.75
20
14.4
30
0
11
-33.75
21
-14.4
31
0
39
0
210
0
220
0
230
1
0
LINE
5
184
100
AcDbEntity
8
SK2
62
256
6
ByLayer
370
-1
48
1
60
0
100
AcDbLine
10
-33.75
20
14.4
30
0
11
-33.332003
21
11.225002
31
0
39
0
210
0
220
0
230
1
0
LINE
5
185
100
AcDbEntity
8
SK2
62
256
6
ByLayer
370
-1
48
1
60
0
100
AcDbLine
10
-33.75
20
14.4
30
0
11
-34.167997
21
11.224998
31
0
39
0
210
0
220
0
230
1
0
LINE
5
186
100
AcDbEntity
8
SK2
62
256
6
ByLayer
370
-1
48
1
60
0
100
AcDbLine
10
-33.332003
20
11.225002
30
0
11
-34.167997
21
11.224998
31
0
39
0
210
0
220
0
230
1
0
LINE
5
187
100
AcDbEntity
8
SK2
62
256
6
ByLayer
370
-1
48
1
60
0
100
AcDbLine
10
-33.75
20
-14.4
30
0
11
-34.167997
21
-11.225002
31
0
39
0
210
0
220
0
230
1
0
LINE
5
188
100
AcDbEntity
8
SK2
62
256
6
ByLayer
370
-1
48
1
60
0
100
AcDbLine
10
-33.75
20
-14.4
30
0
11
-33.332003
21
-11.224998
31
0
39
0
210
0
220
0
230
1
0
LINE
5
189
100
AcDbEntity
8
SK2
62
256
6
ByLayer
370
-1
48
1
60
0
100
AcDbLine
10
-34.167997
20
-11.225002
30
0
11
-33.332003
21
-11.224998
31
0
39
0
210
0
220
0
230
1
0
ENDBLK
5
18B
100
AcDbEntity
8
0
100
AcDbBlockEnd
0
BLOCK
5
198
100
AcDbEntity
8
0
100
AcDbBlockBegin
2
DimnDraft3D4
70
0
10
0
20
0
30
0
3
DimnDraft3D4
0
MTEXT
5
18E
100
AcDbEntity
8
2
62
256
6
ByLayer
370
-1
48
1
60
0
100
AcDbMText
10
58.125
20
-4.49852
30
0
210
0
220
0
230
1
1
\W01.000;\fsimplex.shx,bigfont.shx;%%c32\P
40
4.5
41
0
44
1.084337
50
90
71
7
72
5
7
DEFAULT
0
LINE
5
18F
100
AcDbEntity
8
2
62
256
6
ByLayer
370
-1
48
1
60
0
100
AcDbLine
10
47
20
16
30
0
11
61.25
21
16
31
0
39
0
210
0
220
0
230
1
0
LINE
5
190
100
AcDbEntity
8
2
62
256
6
ByLayer
370
-1
48
1
60
0
100
AcDbLine
10
47
20
-16
30
0
11
61.25
21
-16
31
0
39
0
210
0
220
0
230
1
0
LINE
5
191
100
AcDbEntity
8
2
62
256
6
ByLayer
370
-1
48
1
60
0
100
AcDbLine
10
59.25
20
16
30
0
11
59.25
21
-16
31
0
39
0
210
0
220
0
230
1
0
LINE
5
192
100
AcDbEntity
8
2
62
256
6
ByLayer
370
-1
48
1
60
0
100
AcDbLine
10
59.25
20
16
30
0
11
59.667997
21
12.825002
31
0
39
0
210
0
220
0
230
1
0
LINE
5
193
100
AcDbEntity
8
2
62
256
6
ByLayer
370
-1
48
1
60
0
100
AcDbLine
10
59.25
20
16
30
0
11
58.832003
21
12.824998
31
0
39
0
210
0
220
0
230
1
0
LINE
5
194
100
AcDbEntity
8
2
62
256
6
ByLayer
370
-1
48
1
60
0
100
AcDbLine
10
59.667997
20
12.825002
30
0
11
58.832003
21
12.824998
31
0
39
0
210
0
220
0
230
1
0
LINE
5
195
100
AcDbEntity
8
2
62
256
6
ByLayer
370
-1
48
1
60
0
100
AcDbLine
10
59.25
20
-16
30
0
11
58.832003
21
-12.825002
31
0
39
0
210
0
220
0
230
1
0
LINE
5
196
100
AcDbEntity
8
2
62
256
6
ByLayer
370
-1
48
1
60
0
100
AcDbLine
10
59.25
20
-16
30
0
11
59.667997
21
-12.824998
31
0
39
0
210
0
220
0
230
1
0
LINE
5
197
100
AcDbEntity
8
2
62
256
6
ByLayer
370
-1
48
1
60
0
100
AcDbLine
10
58.832003
20
-12.825002
30
0
11
59.667997
21
-12.824998
31
0
39
0
210
0
220
0
230
1
0
ENDBLK
5
199
100
AcDbEntity
8
0
100
AcDbBlockEnd
0
ENDSEC
0
SECTION
2
ENTITIES
0
ARC
5
A7
100
AcDbEntity
8
1
62
256
6
ByLayer
370
-1
48
1
60
0
100
AcDbCircle
39
0
10
-2
20
-19.4
30
0
40
5
210
0
220
0
230
-1
100
AcDbArc
50
90
51
90.648711
0
ARC
5
A8
100
AcDbEntity
8
1
62
256
6
ByLayer
370
-1
48
1
60
0
100
AcDbCircle
39
0
10
-2
20
19.4
30
0
40
5
210
0
220
0
230
-1
100
AcDbArc
50
269.351289
51
270
0
ARC
5
A9
100
AcDbEntity
8
1
62
256
6
ByLayer
370
-1
48
1
60
0
100
AcDbCircle
39
0
10
43.643565
20
-14.536869
30
0
40
0.8
210
0
220
0
230
1
100
AcDbArc
50
292.4887
51
298.280946
0
ARC
5
AA
100
AcDbEntity
8
1
62
256
6
ByLayer
370
-1
48
1
60
0
100
AcDbCircle
39
0
10
43.643565
20
-14.536869
30
0
40
0.8
210
0
220
0
230
1
100
AcDbArc
50
337.749757
51
0
0
ARC
5
AB
100
AcDbEntity
8
SK1
62
256
6
ByLayer
370
-1
48
1
60
0
100
AcDbCircle
39
0
10
0.38
20
-8.8
30
0
40
0.499999999999998
210
0
220
0
230
-1
100
AcDbArc
50
90
51
139.464198
0
ARC
5
AC
100
AcDbEntity
8
SK1
62
256
6
ByLayer
370
-1
48
1
60
0
100
AcDbCircle
39
0
10
0.38
20
8.8
30
0
40
0.499999999999998
210
0
220
0
230
-1
100
AcDbArc
50
220.535802
51
270
0
ARC
5
AD
100
AcDbEntity
8
SK1
62
256
6
ByLayer
370
-1
48
1
60
0
100
AcDbCircle
39
0
10
1.200929
20
-8.7
30
0
40
0.400000000016017
210
0
220
0
230
-1
100
AcDbArc
50
75
51
90
0
ARC
5
AE
100
AcDbEntity
8
SK1
62
256
6
ByLayer
370
-1
48
1
60
0
100
AcDbCircle
39
0
10
1.200929
20
8.7
30
0
40
0.400000000016017
210
0
220
0
230
-1
100
AcDbArc
50
270
51
285
0
ARC
5
AF
100
AcDbEntity
8
SK1
62
256
6
ByLayer
370
-1
48
1
60
0
100
AcDbCircle
39
0
10
7
20
7.5
30
0
40
1
210
0
220
0
230
-1
100
AcDbArc
50
180
51
270
0
ARC
5
B0
100
AcDbEntity
8
SK1
62
256
6
ByLayer
370
-1
48
1
60
0
100
AcDbCircle
39
0
10
7
20
-7.5
30
0
40
1
210
0
220
0
230
-1
100
AcDbArc
50
90
51
180
0
ARC
5
B1
100
AcDbEntity
8
SK1
62
256
6
ByLayer
370
-1
48
1
60
0
100
AcDbCircle
39
0
10
8.133975
20
7.5
30
0
40
1
210
0
220
0
230
-1
100
AcDbArc
50
270
51
300
0
ARC
5
B2
100
AcDbEntity
8
SK1
62
256
6
ByLayer
370
-1
48
1
60
0
100
AcDbCircle
39
0
10
8.133975
20
-7.5
30
0
40
1
210
0
220
0
230
-1
100
AcDbArc
50
60
51
90
0
ELLIPSE
5
B3
100
AcDbEntity
8
1
62
256
6
ByLayer
370
-1
48
1
60
0
100
AcDbEllipse
10
-21.085073
20
3.133279
30
0
11
223.990840146947
21
14.2875384869825
31
0
210
0
220
0
230
-1
40
0.008584
41
-1.30955061694555
42
-1.27714141441799
0
ELLIPSE
5
B4
100
AcDbEntity
8
1
62
256
6
ByLayer
370
-1
48
1
60
0
100
AcDbEllipse
10
36.234702
20
8.962602
30
0
11
0.788938456368066
21
0
31
0
210
0
220
0
230
1
40
0.12427
41
-2.20638260127386
42
-1.93138699055715
0
ELLIPSE
5
B5
100
AcDbEntity
8
1
62
256
6
ByLayer
370
-1
48
1
60
0
100
AcDbEllipse
10
35.100089
20
9.565509
30
0
11
-0.104745534267478
21
1.24560361795036
31
0
210
0
220
0
230
1
40
0.136052
41
-2.51318767597141
42
-2.44530172941876
0
ELLIPSE
5
B6
100
AcDbEntity
8
1
62
256
6
ByLayer
370
-1
48
1
60
0
100
AcDbEllipse
10
34.614
20
10.511538
30
0
11
1.59069670317333
21
0.689371788789395
31
0
210
0
220
0
230
-1
40
0.8523
41
2.76498164015616
42
-2.16829374869558
0
ELLIPSE
5
B7
100
AcDbEntity
8
1
62
256
6
ByLayer
370
-1
48
1
60
0
100
AcDbEllipse
10
32.38225
20
8.93851
30
0
11
0.286800979432292
21
1.97932948197026
31
0
210
0
220
0
230
1
40
0.163363
41
-1.80566188760485
42
-1.67517788393766
0
ELLIPSE
5
B8
100
AcDbEntity
8
1
62
256
6
ByLayer
370
-1
48
1
60
0
100
AcDbEllipse
10
41.146519
20
0.119443
30
0
11
1.44082347163706
21
-0.417166302066377
31
0
210
0
220
0
230
1
40
0.477967
41
0.137513850866555
42
2.77640266142447
0
ELLIPSE
5
B9
100
AcDbEntity
8
1
62
256
6
ByLayer
370
-1
48
1
60
0
100
AcDbEllipse
10
34.639835
20
15.070216
30
0
11
1.12304024736835
21
6.73857270898561
31
0
210
0
220
0
230
-1
40
0.144383
41
-2.19731552285144
42
-1.70527007822924
0
ELLIPSE
5
BA
100
AcDbEntity
8
1
62
256
6
ByLayer
370
-1
48
1
60
0
100
AcDbEllipse
10
41.146519
20
0.119443
30
0
11
-1.5
21
1.83690953073357E-16
31
0
210
0
220
0
230
1
40
0.870086
41
2.07633102380373
42
2.89480886944324
0
ELLIPSE
5
BB
100
AcDbEntity
8
1
62
256
6
ByLayer
370
-1
48
1
60
0
100
AcDbEllipse
10
35.065934
20
23.413242
30
0
11
9.82431407804769
21
11.3350276971816
31
0
210
0
220
0
230
1
40
0.981196
41
-2.57995854605778
42
-2.42684372177509
0
ELLIPSE
5
BC
100
AcDbEntity
8
1
62
256
6
ByLayer
370
-1
48
1
60
0
100
AcDbEllipse
10
40.878986
20
-0.804571
30
0
11
-0.984562705618657
21
0.285063639745356
31
0
210
0
220
0
230
1
40
0.477967
41
-3.00407880272324
42
0.137513850866555
0
ELLIPSE
5
BD
100
AcDbEntity
8
1
62
256
6
ByLayer
370
-1
48
1
60
0
100
AcDbEllipse
10
34.9369
20
10.071879
30
0
11
1.5906967031733
21
0.689371788789787
31
0
210
0
220
0
230
-1
40
0.8523
41
1.92890968734253
42
3.13373402222827
0
ELLIPSE
5
BE
100
AcDbEntity
8
1
62
256
6
ByLayer
370
-1
48
1
60
0
100
AcDbEllipse
10
82.182073
20
-1.067154
30
0
11
94.7643764546023
21
-15.22847009448
31
0
210
0
220
0
230
-1
40
0.016356
41
-2.24391695860396
42
-2.15445495345501
0
ELLIPSE
5
BF
100
AcDbEntity
8
1
62
256
6
ByLayer
370
-1
48
1
60
0
100
AcDbEllipse
10
40.032298
20
10.021603
30
0
11
0.345579733280107
21
-1.20128042019591
31
0
210
0
220
0
230
1
40
0.968343
41
-0.880227222695306
42
-0.649252063075954
0
ELLIPSE
5
C0
100
AcDbEntity
8
1
62
256
6
ByLayer
370
-1
48
1
60
0
100
AcDbEllipse
10
39.810708
20
9.936729
30
0
11
-0.814557099587891
21
-0.939813936262061
31
0
210
0
220
0
230
1
40
0.981196
41
0.205964710760101
42
0.207132370474174
0
ELLIPSE
5
C1
100
AcDbEntity
8
1
62
256
6
ByLayer
370
-1
48
1
60
0
100
AcDbEllipse
10
37.824614
20
0.04722
30
0
11
3.39242866661453
21
15.2494613272941
31
0
210
0
220
0
230
-1
40
0.118397
41
1.42602734033736
42
1.5524718754408
0
ELLIPSE
5
C2
100
AcDbEntity
8
1
62
256
6
ByLayer
370
-1
48
1
60
0
100
AcDbEllipse
10
37.526181
20
1.298779
30
0
11
8.427945120514
21
15.3723165691839
31
0
210
0
220
0
230
-1
40
0.048616
41
1.94016235597623
42
1.9739438377807
0
ELLIPSE
5
C3
100
AcDbEntity
8
1
62
256
6
ByLayer
370
-1
48
1
60
0
100
AcDbEllipse
10
53.081829
20
-1.002876
30
0
11
101.590360073928
21
-13.1246208873373
31
0
210
0
220
0
230
-1
40
0.070824
41
1.75917323559036
42
1.9137094407992
0
ELLIPSE
5
C4
100
AcDbEntity
8
1
62
256
6
ByLayer
370
-1
48
1
60
0
100
AcDbEllipse
10
35.445907
20
10.61192
30
0
11
2.58227601950341
21
-1.12960057963331
31
0
210
0
220
0
230
-1
40
0.185437
41
2.49001913415102
42
2.51351253360314
0
ELLIPSE
5
C5
100
AcDbEntity
8
1
62
256
6
ByLayer
370
-1
48
1
60
0
100
AcDbEllipse
10
40.092271
20
10.038856
30
0
11
0.33859760479336
21
-1.1770096269905
31
0
210
0
220
0
230
1
40
0.968343
41
-0.913818084226156
42
-0.572594609405795
0
ELLIPSE
5
C6
100
AcDbEntity
8
1
62
256
6
ByLayer
370
-1
48
1
60
0
100
AcDbEllipse
10
55.284853
20
-0.756077
30
0
11
61.5118396967291
21
-13.6833771512754
31
0
210
0
220
0
230
-1
40
0.118212
41
1.73502757673424
42
1.8340566904618
0
ELLIPSE
5
C7
100
AcDbEntity
8
1
62
256
6
ByLayer
370
-1
48
1
60
0
100
AcDbEllipse
10
39.792405
20
9.952592
30
0
11
0.345579733280107
21
-1.20128042019591
31
0
210
0
220
0
230
1
40
0.968343
41
-0.92390152097582
42
-0.742611332705855
0
ELLIPSE
5
C8
100
AcDbEntity
8
1
62
256
6
ByLayer
370
-1
48
1
60
0
100
AcDbEllipse
10
27.93964
20
-11.744498
30
0
11
-16.762022415748
21
2.83453779900076
31
0
210
0
220
0
230
1
40
0.48458
41
-0.934712014366951
42
-0.591223369111102
0
ELLIPSE
5
C9
100
AcDbEntity
8
1
62
256
6
ByLayer
370
-1
48
1
60
0
100
AcDbEllipse
10
41.146519
20
0.119443
30
0
11
-1.5
21
1.83690953073357E-16
31
0
210
0
220
0
230
1
40
0.870086
41
0.192853879956427
42
0.571694061492967
0
ELLIPSE
5
CA
100
AcDbEntity
8
1
62
256
6
ByLayer
370
-1
48
1
60
0
100
AcDbEllipse
10
28.231346
20
24.403561
30
0
11
9.8243140780477
21
11.3350276971816
31
0
210
0
220
0
230
1
40
0.981196
41
3.10887488356096
42
-2.57995854605777
0
ELLIPSE
5
CB
100
AcDbEntity
8
1
62
256
6
ByLayer
370
-1
48
1
60
0
100
AcDbEllipse
10
82.182073
20
0.547697
30
0
11
94.7583650448217
21
7.96495948767108
31
0
210
0
220
0
230
-1
40
0.137608
41
2.16339280173706
42
2.25285480698198
0
ELLIPSE
5
CC
100
AcDbEntity
8
1
62
256
6
ByLayer
370
-1
48
1
60
0
100
AcDbEllipse
10
36.234702
20
10.228478
30
0
11
-0.179693523164939
21
1.48919785043243
31
0
210
0
220
0
230
1
40
0.798861
41
2.59184074981609
42
2.69725887795836
0
ELLIPSE
5
CD
100
AcDbEntity
8
1
62
256
6
ByLayer
370
-1
48
1
60
0
100
AcDbEllipse
10
35.307595
20
-4.583889
30
0
11
-0.761194421527172
21
-1.39280726989804
31
0
210
0
220
0
230
1
40
0.055555
41
-1.60992735535487
42
-1.50511985914322
0
ELLIPSE
5
CE
100
AcDbEntity
8
1
62
256
6
ByLayer
370
-1
48
1
60
0
100
AcDbEllipse
10
40.918383
20
0.047355
30
0
11
3.40214467387366
21
15.29313619612
31
0
210
0
220
0
230
-1
40
0.118397
41
1.42215221234199
42
1.60805115928435
0
ELLIPSE
5
CF
100
AcDbEntity
8
1
62
256
6
ByLayer
370
-1
48
1
60
0
100
AcDbEllipse
10
27.93964
20
24.656389
30
0
11
11.1342226217874
21
12.8463647234725
31
0
210
0
220
0
230
1
40
0.981196
41
2.96731114343767
42
3.07687056301819
0
ELLIPSE
5
D0
100
AcDbEntity
8
1
62
256
6
ByLayer
370
-1
48
1
60
0
100
AcDbEllipse
10
53.081829
20
0.146988
30
0
11
101.594212909553
21
1.95544330005867
31
0
210
0
220
0
230
-1
40
0.145736
41
-1.92005403845851
42
-1.76551783323996
0
ELLIPSE
5
D1
100
AcDbEntity
8
1
62
256
6
ByLayer
370
-1
48
1
60
0
100
AcDbEllipse
10
31.773476
20
9.690166
30
0
11
5.45543457084299
21
-0.824888111071545
31
0
210
0
220
0
230
-1
40
0.053784
41
0.741582810161457
42
0.834556614649493
0
ELLIPSE
5
D2
100
AcDbEntity
8
1
62
256
6
ByLayer
370
-1
48
1
60
0
100
AcDbEllipse
10
36.632367
20
9.694362
30
0
11
2.25949976078806
21
1.39781198135923
31
0
210
0
220
0
230
-1
40
0.142511
41
1.80461219139888
42
1.93402850022236
0
ELLIPSE
5
D3
100
AcDbEntity
8
1
62
256
6
ByLayer
370
-1
48
1
60
0
100
AcDbEllipse
10
36.516799
20
-4.672358
30
0
11
-1.83686849546067
21
0.531834504863329
31
0
210
0
220
0
230
1
40
0.477967
41
-2.13639226566626
42
-1.71743122202996
0
ELLIPSE
5
D4
100
AcDbEntity
8
1
62
256
6
ByLayer
370
-1
48
1
60
0
100
AcDbEllipse
10
25.547663
20
9.928829
30
0
11
0.286800979432292
21
1.97932948197026
31
0
210
0
220
0
230
1
40
0.163363
41
-1.88438856152884
42
-1.67517788393766
0
ELLIPSE
5
D5
100
AcDbEntity
8
1
62
256
6
ByLayer
370
-1
48
1
60
0
100
AcDbEllipse
10
36.234702
20
10.228478
30
0
11
-0.179693523164939
21
1.48919785043243
31
0
210
0
220
0
230
1
40
0.798861
41
2.4338383740576
42
2.5398216845232
0
ELLIPSE
5
D6
100
AcDbEntity
8
1
62
256
6
ByLayer
370
-1
48
1
60
0
100
AcDbEllipse
10
35.218529
20
9.462854
30
0
11
0.622402891487558
21
0.71811161143368
31
0
210
0
220
0
230
1
40
0.981196
41
-2.7304178254877
42
-2.65741154671156
0
ELLIPSE
5
D7
100
AcDbEntity
8
1
62
256
6
ByLayer
370
-1
48
1
60
0
100
AcDbEllipse
10
-21.085061
20
-1.523139
30
0
11
223.990522749013
21
-6.96598085012978
31
0
210
0
220
0
230
-1
40
0.055007
41
1.2759782774123
42
1.30838748306495
0
ELLIPSE
5
D8
100
AcDbEntity
8
1
62
256
6
ByLayer
370
-1
48
1
60
0
100
AcDbEllipse
10
39.302994
20
12.462385
30
0
11
0.763134941969021
21
1.54701327090169
31
0
210
0
220
0
230
1
40
0.962186
41
1.58521549581686
42
2.73773258898328
0
ELLIPSE
5
D9
100
AcDbEntity
8
1
62
256
6
ByLayer
370
-1
48
1
60
0
100
AcDbEllipse
10
39.504793
20
12.362838
30
0
11
0.330913006720479
21
0.670820827034471
31
0
210
0
220
0
230
1
40
0.962186
41
-2.54271616041227
42
-2.15158737360973
0
ELLIPSE
5
DA
100
AcDbEntity
8
1
62
256
6
ByLayer
370
-1
48
1
60
0
100
AcDbEllipse
10
39.300985
20
12.463376
30
0
11
0.330913006720479
21
0.670820827034471
31
0
210
0
220
0
230
1
40
0.962186
41
0.43601034495016
42
0.511473048784246
0
ELLIPSE
5
DB
100
AcDbEntity
8
1
62
256
6
ByLayer
370
-1
48
1
60
0
100
AcDbEllipse
10
39.504793
20
12.362838
30
0
11
-0.330913006720479
21
-0.670820827034471
31
0
210
0
220
0
230
1
40
0.962186
41
3.06883678592627
42
-2.70558230863963
0
ELLIPSE
5
DC
100
AcDbEntity
8
1
62
256
6
ByLayer
370
-1
48
1
60
0
100
AcDbEllipse
10
39.504793
20
12.362838
30
0
11
-0.330913006720479
21
-0.670820827034471
31
0
210
0
220
0
230
1
40
0.962186
41
-0.573884844159345
42
0.00985019134465457
0
ELLIPSE
5
DD
100
AcDbEntity
8
1
62
256
6
ByLayer
370
-1
48
1
60
0
100
AcDbEllipse
10
39.092057
20
11.619864
30
0
11
-0.0818434575445035
21
-0.165911568183659
31
0
210
0
220
0
230
1
40
0.962186
41
-1.34878457201182
42
-0.842427129692453
0
ELLIPSE
5
DE
100
AcDbEntity
8
1
62
256
6
ByLayer
370
-1
48
1
60
0
100
AcDbEllipse
10
39.302994
20
12.462385
30
0
11
0.763134941969021
21
1.54701327090169
31
0
210
0
220
0
230
1
40
0.962186
41
2.73764422251987
42
-1.12763994580735
0
ELLIPSE
5
DF
100
AcDbEntity
8
1
62
256
6
ByLayer
370
-1
48
1
60
0
100
AcDbEllipse
10
39.302994
20
12.462385
30
0
11
0.763134941969021
21
1.54701327090169
31
0
210
0
220
0
230
1
40
0.962186
41
-1.12763994580734
42
0
0
ELLIPSE
5
E0
100
AcDbEntity
8
1
62
256
6
ByLayer
370
-1
48
1
60
0
100
AcDbEllipse
10
39.302994
20
12.462385
30
0
11
0.763134941969021
21
1.54701327090169
31
0
210
0
220
0
230
1
40
0.962186
41
0
42
1.59616632473616
0
ELLIPSE
5
E1
100
AcDbEntity
8
1
62
256
6
ByLayer
370
-1
48
1
60
0
100
AcDbEllipse
10
39.260506
20
12.483344
30
0
11
0.457880965181412
21
0.928207962541012
31
0
210
0
220
0
230
1
40
0.962186
41
-2.14339420146439
42
-1.09705462992769
0
ELLIPSE
5
E2
100
AcDbEntity
8
1
62
256
6
ByLayer
370
-1
48
1
60
0
100
AcDbEllipse
10
39.504793
20
12.362838
30
0
11
-0.330913006720479
21
-0.670820827034471
31
0
210
0
220
0
230
1
40
0.962186
41
2.0442928563402
42
2.41796687337846
0
ELLIPSE
5
E3
100
AcDbEntity
8
1
62
256
6
ByLayer
370
-1
48
1
60
0
100
AcDbEllipse
10
39.504793
20
13.522303
30
0
11
-0.18669156261503
21
-0.378457739316239
31
0
210
0
220
0
230
1
40
0.962186
41
0.540655019183349
42
1.25082789675916
0
ELLIPSE
5
E4
100
AcDbEntity
8
1
62
256
6
ByLayer
370
-1
48
1
60
0
100
AcDbEllipse
10
38.521998
20
12.912105
30
0
11
-0.18669156261503
21
-0.378457739316239
31
0
210
0
220
0
230
1
40
0.962186
41
0.746468510041299
42
1.52136823789375
0
ELLIPSE
5
E5
100
AcDbEntity
8
1
62
256
6
ByLayer
370
-1
48
1
60
0
100
AcDbEllipse
10
39.504793
20
12.362838
30
0
11
0.330913006720479
21
0.670820827034471
31
0
210
0
220
0
230
1
40
0.962186
41
0.436010344950171
42
0.511473048784246
0
ELLIPSE
5
E6
100
AcDbEntity
8
1
62
256
6
ByLayer
370
-1
48
1
60
0
100
AcDbEllipse
10
39.092057
20
13.07997
30
0
11
-0.0818434575445035
21
-0.165911568183659
31
0
210
0
220
0
230
1
40
0.962186
41
-2.77947877024599
42
-0.845324687843571
0
ELLIPSE
5
E7
100
AcDbEntity
8
1
62
256
6
ByLayer
370
-1
48
1
60
0
100
AcDbEllipse
10
39.504793
20
12.362838
30
0
11
-0.330913006720479
21
-0.670820827034471
31
0
210
0
220
0
230
1
40
0.962186
41
-2.63011960480555
42
-1.62022441569604
0
ELLIPSE
5
E8
100
AcDbEntity
8
1
62
256
6
ByLayer
370
-1
48
1
60
0
100
AcDbEllipse
10
39.260506
20
12.483344
30
0
11
0.457880965181412
21
0.928207962541012
31
0
210
0
220
0
230
1
40
0.962186
41
2.0445380236621
42
3.0908775951988
0
ELLIPSE
5
E9
100
AcDbEntity
8
1
62
256
6
ByLayer
370
-1
48
1
60
0
100
AcDbEllipse
10
39.260506
20
12.483344
30
0
11
0.457880965181412
21
0.928207962541012
31
0
210
0
220
0
230
1
40
0.962186
41
-0.0507150583910019
42
0.998198452125408
0
ELLIPSE
5
EA
100
AcDbEntity
8
1
62
256
6
ByLayer
370
-1
48
1
60
0
100
AcDbEllipse
10
39.917529
20
13.105813
30
0
11
-0.0818434575445035
21
-0.165911568183659
31
0
210
0
220
0
230
1
40
0.962186
41
-2.28537993976303
42
-1.89076475683064
0
ELLIPSE
5
EB
100
AcDbEntity
8
1
62
256
6
ByLayer
370
-1
48
1
60
0
100
AcDbEllipse
10
39.260506
20
12.483344
30
0
11
0.575116188150566
21
1.16586507372301
31
0
210
0
220
0
230
1
40
0.962186
41
0
42
6.28318530717959
0
ELLIPSE
5
EC
100
AcDbEntity
8
1
62
256
6
ByLayer
370
-1
48
1
60
0
100
AcDbEllipse
10
38.521998
20
12.912105
30
0
11
-0.18669156261503
21
-0.378457739316239
31
0
210
0
220
0
230
1
40
0.962186
41
1.52136823789375
42
2.29626796574622
0
ELLIPSE
5
ED
100
AcDbEntity
8
1
62
256
6
ByLayer
370
-1
48
1
60
0
100
AcDbEllipse
10
39.260506
20
12.483344
30
0
11
0.457880965181412
21
0.928207962541012
31
0
210
0
220
0
230
1
40
0.962186
41
0.998198452125414
42
2.0445380236621
0
ELLIPSE
5
EE
100
AcDbEntity
8
1
62
256
6
ByLayer
370
-1
48
1
60
0
100
AcDbEllipse
10
39.300985
20
12.463376
30
0
11
0.330913006720479
21
0.670820827034471
31
0
210
0
220
0
230
1
40
0.962186
41
-2.70558230863963
42
-2.63011960480554
0
ELLIPSE
5
EF
100
AcDbEntity
8
1
62
256
6
ByLayer
370
-1
48
1
60
0
100
AcDbEllipse
10
39.260506
20
12.483344
30
0
11
0.457880965181412
21
0.928207962541012
31
0
210
0
220
0
230
1
40
0.962186
41
3.0908775951988
42
-2.14339420146439
0
ELLIPSE
5
F0
100
AcDbEntity
8
1
62
256
6
ByLayer
370
-1
48
1
60
0
100
AcDbEllipse
10
39.504793
20
13.522303
30
0
11
-0.18669156261503
21
-0.378457739316239
31
0
210
0
220
0
230
1
40
0.962186
41
1.05727823207927E-05
42
0.406828374551048
0
ELLIPSE
5
F1
100
AcDbEntity
8
1
62
256
6
ByLayer
370
-1
48
1
60
0
100
AcDbEllipse
10
38.521998
20
11.752037
30
0
11
-0.18669156261503
21
-0.378457739316239
31
0
210
0
220
0
230
1
40
0.962186
41
2.56770780943044
42
3.14158050733998
0
ELLIPSE
5
F2
100
AcDbEntity
8
1
62
256
6
ByLayer
370
-1
48
1
60
0
100
AcDbEllipse
10
38.521998
20
11.752037
30
0
11
-0.18669156261503
21
-0.378457739316239
31
0
210
0
220
0
230
1
40
0.962186
41
1.79280808157799
42
2.56770780943044
0
ELLIPSE
5
F3
100
AcDbEntity
8
1
62
256
6
ByLayer
370
-1
48
1
60
0
100
AcDbEllipse
10
38.680545
20
12.337034
30
0
11
-0.0818434575445035
21
-0.165911568183659
31
0
210
0
220
0
230
1
40
0.962186
41
-2.3951241435485
42
-0.564924886745911
0
ELLIPSE
5
F4
100
AcDbEntity
8
1
62
256
6
ByLayer
370
-1
48
1
60
0
100
AcDbEllipse
10
39.480364
20
12.374889
30
0
11
0.763134941969021
21
1.54701327090169
31
0
210
0
220
0
230
1
40
0.962186
41
3.14153553950536
42
-3.12653086423398
0
ELLIPSE
5
F5
100
AcDbEntity
8
1
62
256
6
ByLayer
370
-1
48
1
60
0
100
AcDbEllipse
10
39.260506
20
12.483344
30
0
11
0.457880965181412
21
0.928207962541012
31
0
210
0
220
0
230
1
40
0.962186
41
-1.09705462992769
42
-0.0507150583910019
0
ELLIPSE
5
F6
100
AcDbEntity
8
1
62
256
6
ByLayer
370
-1
48
1
60
0
100
AcDbEllipse
10
39.504793
20
12.362838
30
0
11
-0.330913006720479
21
-0.670820827034471
31
0
210
0
220
0
230
1
40
0.962186
41
-1.62022441569604
42
-0.573884844159345
0
POINT
5
42
100
AcDbEntity
8
81
62
256
6
ByLayer
370
-1
48
1
60
0
100
AcDbPoint
10
45
20
15.935
30
0
39
0
210
0
220
0
230
1
50
360
0
POINT
5
44
100
AcDbEntity
8
2
62
256
6
ByLayer
370
-1
48
1
60
0
100
AcDbPoint
10
45
20
15.935
30
0
39
0
210
0
220
0
230
1
50
360
0
POINT
5
46
100
AcDbEntity
8
80
62
256
6
ByLayer
370
-1
48
1
60
0
100
AcDbPoint
10
0
20
0
30
0
39
0
210
0
220
0
230
1
50
360
0
SPLINE
5
F7
100
AcDbEntity
8
1
62
256
6
ByLayer
370
-1
48
1
60
0
100
AcDbSpline
70
4
71
3
72
14
73
10
40
0
40
0
40
0
40
0
40
0.245993581002905
40
0.457184108322651
40
0.636294392831098
40
0.783165447702761
40
0.897438650554617
40
0.980353264987292
40
1
40
1
40
1
40
1
41
1
10
35.6661512656421
20
-6.69217472647813
30
-6E-16
41
1
10
35.6497041537342
20
-6.68821725583894
30
-6E-16
41
1
10
35.6202239027051
20
-6.68000558763791
30
-6E-16
41
1
10
35.580954958616
20
-6.66600770889187
30
-6E-16
41
1
10
35.551469691938
20
-6.65314479750415
30
-6E-16
41
1
10
35.5308029375877
20
-6.64215880203534
30
-6E-16
41
1
10
35.5182136403359
20
-6.63360339931654
30
-6E-16
41
1
10
35.5133771088749
20
-6.62843753941064
30
-6E-16
41
1
10
35.5132234820342
20
-6.62644723541288
30
-6E-16
41
1
10
35.5133098693619
20
-6.62609740770239
30
-6E-16
0
SPLINE
5
F8
100
AcDbEntity
8
1
62
256
6
ByLayer
370
-1
48
1
60
0
100
AcDbSpline
70
4
71
2
72
6
73
3
40
0
40
0
40
0
40
1
40
1
40
1
41
1
10
35.0067025004064
20
-6.53053219851611
30
-6E-16
41
1
10
35.1234357445862
20
-6.56256911138999
30
-6E-16
41
1
10
35.2403371221485
20
-6.59049138030471
30
-6E-16
0
SPLINE
5
F9
100
AcDbEntity
8
1
62
256
6
ByLayer
370
-1
48
1
60
0
100
AcDbSpline
70
4
71
1
72
4
73
2
40
0
40
0
40
1
40
1
41
1
10
44.9726396410209
20
-8.77514888206309
30
0
41
1
10
44.5062097463494
20
-5.35258210597337
30
0
0
SPLINE
5
FA
100
AcDbEntity
8
1
62
256
6
ByLayer
370
-1
48
1
60
0
100
AcDbSpline
70
4
71
1
72
4
73
2
40
0
40
0
40
1
40
1
41
1
10
44.7509021688634
20
-7.14814301646712
30
0
41
1
10
44.9718394556322
20
-5.59847437439032
30
0
0
SPLINE
5
FB
100
AcDbEntity
8
1
62
256
6
ByLayer
370
-1
48
1
60
0
100
AcDbSpline
70
4
71
2
72
6
73
3
40
0
40
0
40
0
40
1
40
1
40
1
41
1
10
35.1401707122215
20
15.5317269206146
30
-2E-16
41
1
10
35.0588927352922
20
15.5282643791497
30
-2E-16
41
1
10
34.9778696807858
20
15.5158435800992
30
-2E-16
0
SPLINE
5
FC
100
AcDbEntity
8
1
62
256
6
ByLayer
370
-1
48
1
60
0
100
AcDbSpline
70
4
71
2
72
6
73
3
40
0
40
0
40
0
40
1
40
1
40
1
41
1
10
43.9099625509378
20
9.17836794310045
30
0
41
1
10
43.9910017010949
20
9.18147646260118
30
0
41
1
10
44.0707638591245
20
9.19415081771638
30
0
0
SPLINE
5
FD
100
AcDbEntity
8
1
62
256
6
ByLayer
370
-1
48
1
60
0
100
AcDbSpline
70
4
71
3
72
8
73
4
40
0
40
0
40
0
40
0
40
1
40
1
40
1
40
1
41
1
10
36.0043475216834
20
8.89160960955815
30
3E-16
41
1
10
35.9001535129885
20
8.89660043151463
30
3E-16
41
1
10
35.7992104948701
20
8.90617010815438
30
3E-16
41
1
10
35.7093579109584
20
8.91961665873239
30
3E-16
0
SPLINE
5
FE
100
AcDbEntity
8
1
62
256
6
ByLayer
370
-1
48
1
60
0
100
AcDbSpline
70
4
71
3
72
8
73
4
40
0
40
0
40
0
40
0
40
1
40
1
40
1
40
1
41
1
10
33.1444346036388
20
-14.7444552697447
30
0
41
1
10
33.3808734136149
20
-14.7472010321372
30
0
41
1
10
33.6177621805878
20
-14.7667029651623
30
0
41
1
10
33.8514170479598
20
-14.8026558798383
30
0
0
SPLINE
5
FF
100
AcDbEntity
8
1
62
256
6
ByLayer
370
-1
48
1
60
0
100
AcDbSpline
70
4
71
3
72
12
73
8
40
0
40
0
40
0
40
0
40
0.117579268151832
40
0.117579268151832
40
0.692738260308033
40
0.692738260308033
40
1
40
1
40
1
40
1
41
1
10
34.4491908244822
20
14.2560293377395
30
2E-16
41
1
10
34.4237503122047
20
14.2527825793908
30
2E-16
41
1
10
34.3984137481091
20
14.2498102018888
30
2E-16
41
1
10
34.2503863175709
20
14.2340148166219
30
2E-16
41
1
10
34.1286220731162
20
14.2274676184569
30
2E-16
41
1
10
33.9598238313062
20
14.2281398310651
30
2E-16
41
1
10
33.9033964228303
20
14.2303679672393
30
2E-16
41
1
10
33.8514170479524
20
14.2344637505363
30
2E-16
0
SPLINE
5
100
100
AcDbEntity
8
1
62
256
6
ByLayer
370
-1
48
1
60
0
100
AcDbSpline
70
4
71
3
72
8
73
4
40
0
40
0
40
0
40
0
40
1
40
1
40
1
40
1
41
1
10
33.1444346036388
20
8.41922636623895
30
-7E-16
41
1
10
33.3808734136149
20
8.42251713987059
30
-7E-16
41
1
10
33.6177621805878
20
8.43279431271472
30
-7E-16
41
1
10
33.8514170479599
20
8.4500305997112
30
-7E-16
0
SPLINE
5
101
100
AcDbEntity
8
1
62
256
6
ByLayer
370
-1
48
1
60
0
100
AcDbSpline
70
4
71
3
72
10
73
6
40
0
40
0
40
0
40
0
40
0.5
40
0.5
40
1
40
1
40
1
40
1
41
1
10
18.0484716403239
20
13.3899287745629
30
1E-16
41
1
10
17.3994190520132
20
13.3429393627142
30
1E-16
41
1
10
16.7239403585755
20
13.3651985998789
30
0
41
1
10
15.5288747490654
20
13.5436291348389
30
0
41
1
10
14.9653841873849
20
13.714634711615
30
-1E-16
41
1
10
14.7884049594915
20
13.8990057851719
30
-1E-16
0
SPLINE
5
102
100
AcDbEntity
8
1
62
256
6
ByLayer
370
-1
48
1
60
0
100
AcDbSpline
70
4
71
3
72
26
73
22
40
0
40
0
40
0
40
0
40
0.0188456048009452
40
0.0188456048009452
40
0.148794492067077
40
0.148794492067077
40
0.278336022153622
40
0.278336022153622
40
0.397321190131987
40
0.397321190131987
40
0.5043736954734
40
0.5043736954734
40
0.603328808108287
40
0.603328808108287
40
0.69852811253652
40
0.69852811253652
40
0.793619795054082
40
0.793619795054082
40
0.891965923709272
40
0.891965923709272
40
1
40
1
40
1
40
1
41
1
10
39.6919639741748
20
-0.0749442749565503
30
-3E-16
41
1
10
39.6852302621842
20
-0.10552618613238
30
-3E-16
41
1
10
39.6792327320547
20
-0.1362789706873
30
-3E-16
41
1
10
39.638150459789
20
-0.377796832561415
30
-3E-16
41
1
10
39.637219522659
20
-0.597532881416441
30
-3E-16
41
1
10
39.7090899426195
20
-1.01724920467029
30
-3E-16
41
1
10
39.7830953063082
20
-1.22378959362877
30
-3E-16
41
1
10
39.9917906252743
20
-1.57325366336636
30
-3E-16
41
1
10
40.1245486063073
20
-1.72517363462236
30
-3E-16
41
1
10
40.4184335946515
20
-1.95138066420066
30
-3E-16
41
1
10
40.5798073944831
20
-2.03509584311848
30
-3E-16
41
1
10
40.9045823837352
20
-2.1328413213069
30
-3E-16
41
1
10
41.071486349547
20
-2.15297472763461
30
-2E-16
41
1
10
41.3911542716258
20
-2.13542220412955
30
-2E-16
41
1
10
41.5485400178168
20
-2.09966211728371
30
-2E-16
41
1
10
41.8385231586803
20
-1.98053892980548
30
-2E-16
41
1
10
41.974966210348
20
-1.89571404493498
30
-2E-16
41
1
10
42.2152180679844
20
-1.68698374849401
30
-2E-16
41
1
10
42.3208873162081
20
-1.55925996970492
30
-2E-16
41
1
10
42.4952048277333
20
-1.26796182315942
30
-2E-16
41
1
10
42.5616620901436
20
-1.09832390922995
30
-1E-16
41
1
10
42.6010733151025
20
-0.924781135552962
30
-1E-16
0
SPLINE
5
103
100
AcDbEntity
8
1
62
256
6
ByLayer
370
-1
48
1
60
0
100
AcDbSpline
70
4
71
3
72
8
73
4
40
0
40
0
40
0
40
0
40
1
40
1
40
1
40
1
41
1
10
34.0187824926893
20
-14.8284397273776
30
0
41
1
10
34.8726687273193
20
-14.9601458577622
30
0
41
1
10
35.7265553952848
20
-15.0918492894467
30
0
41
1
10
36.5804424629958
20
-15.2235502314303
30
0
0
SPLINE
5
104
100
AcDbEntity
8
1
62
256
6
ByLayer
370
-1
48
1
60
0
100
AcDbSpline
70
4
71
3
72
8
73
4
40
0
40
0
40
0
40
0
40
1
40
1
40
1
40
1
41
1
10
36.6497413873234
20
-3.42813363712301
30
-5E-16
41
1
10
36.6268177627274
20
-3.42417617788973
30
-5E-16
41
1
10
36.6034394528206
20
-3.42171354091735
30
-5E-16
41
1
10
36.580442462996
20
-3.42087771469548
30
-5E-16
0
SPLINE
5
105
100
AcDbEntity
8
1
62
256
6
ByLayer
370
-1
48
1
60
0
100
AcDbSpline
70
4
71
3
72
8
73
4
40
0
40
0
40
0
40
0
40
1
40
1
40
1
40
1
41
1
10
44.0869725505933
20
-10.1993599862823
30
-1E-16
41
1
10
43.9498119727803
20
-10.035204599335
30
-1E-16
41
1
10
43.8140207857051
20
-9.87017589225258
30
-1E-16
41
1
10
43.6798657694067
20
-9.70415888379611
30
-1E-16
0
SPLINE
5
106
100
AcDbEntity
8
1
62
256
6
ByLayer
370
-1
48
1
60
0
100
AcDbSpline
70
4
71
3
72
8
73
4
40
0
40
0
40
0
40
0
40
1
40
1
40
1
40
1
41
1
10
33.1444346036388
20
14.2947891808411
30
2E-16
41
1
10
33.2715583339178
20
14.3008931984437
30
2E-16
41
1
10
33.398631708946
20
14.3118094814348
30
2E-16
41
1
10
33.5251180090551
20
14.3274676082649
30
2E-16
0
SPLINE
5
107
100
AcDbEntity
8
1
62
256
6
ByLayer
370
-1
48
1
60
0
100
AcDbSpline
70
4
71
3
72
10
73
6
40
0
40
0
40
0
40
0
40
0.504463867403351
40
0.504463867403351
40
1
40
1
40
1
40
1
41
1
10
2.05660954835426
20
8.00925549064749
30
-9E-16
41
1
10
3.89678414694208
20
8.04671711147165
30
-7E-16
41
1
10
5.73696244680734
20
8.08399732373945
30
-6E-16
41
1
10
9.38475949697418
20
8.15755302658471
30
-4E-16
41
1
10
11.1923781403861
20
8.19383461848855
30
-3E-16
41
1
10
13
20
8.22995486671977
30
-2E-16
0
SPLINE
5
108
100
AcDbEntity
8
1
62
256
6
ByLayer
370
-1
48
1
60
0
100
AcDbSpline
70
4
71
3
72
8
73
4
40
0
40
0
40
0
40
0
40
1
40
1
40
1
40
1
41
1
10
34.0187824926893
20
8.46315547772986
30
-7E-16
41
1
10
33.9629912230627
20
8.45852077431161
30
-7E-16
41
1
10
33.907200986839
20
8.45414567760852
30
-7E-16
41
1
10
33.8514170479598
20
8.45003059971125
30
-7E-16
0
SPLINE
5
109
100
AcDbEntity
8
1
62
256
6
ByLayer
370
-1
48
1
60
0
100
AcDbSpline
70
4
71
3
72
10
73
6
40
0
40
0
40
0
40
0
40
0.363940738598379
40
0.363940738598379
40
1
40
1
40
1
40
1
41
1
10
35.4039601774324
20
8.91882969833387
30
3E-16
41
1
10
35.4312102039733
20
8.92628277511295
30
3E-16
41
1
10
35.4625462085445
20
8.93122704359752
30
3E-16
41
1
10
35.5579506716058
20
8.93687722475826
30
3E-16
41
1
10
35.6306302228526
20
8.93139835486082
30
3E-16
41
1
10
35.7093579109585
20
8.91961665873237
30
3E-16
0
SPLINE
5
10A
100
AcDbEntity
8
1
62
256
6
ByLayer
370
-1
48
1
60
0
100
AcDbSpline
70
4
71
3
72
16
73
12
40
0
40
0
40
0
40
0
40
0.182243165356171
40
0.182243165356171
40
0.363834437576973
40
0.363834437576973
40
0.557189089295566
40
0.557189089295566
40
0.775155385886312
40
0.775155385886312
40
1
40
1
40
1
40
1
41
1
10
43.6322686200959
20
9.10921428496312
30
-1E-16
41
1
10
43.7155984660224
20
9.11431244131902
30
-1E-16
41
1
10
43.7997670844872
20
9.11735765560789
30
-1E-16
41
1
10
43.9552851747193
20
9.11908454659388
30
-1E-16
41
1
10
44.0287561312964
20
9.11782149718152
30
-1E-16
41
1
10
44.1622052236252
20
9.1114533207726
30
-1E-16
41
1
10
44.2227123686623
20
9.10604289453568
30
0
41
1
10
44.3277041476036
20
9.0912284141254
30
0
41
1
10
44.370583224283
20
9.08123100975413
30
0
41
1
10
44.4285885732099
20
9.05824344231706
30
0
41
1
10
44.44356506
20
9.04491681182216
30
0
41
1
10
44.44356506
20
9.03078467600594
30
0
0
SPLINE
5
10B
100
AcDbEntity
8
1
62
256
6
ByLayer
370
-1
48
1
60
0
100
AcDbSpline
70
4
71
3
72
10
73
6
40
0
40
0
40
0
40
0
40
0.790095940872827
40
0.790095940872827
40
1
40
1
40
1
40
1
41
1
10
34.9296248859113
20
8.56050726674647
30
-2E-16
41
1
10
35.020410988671
20
8.57027895849953
30
-2E-16
41
1
10
35.1170853815761
20
8.58333246723657
30
-2E-16
41
1
10
35.2380810010001
20
8.60745566748705
30
-2E-16
41
1
10
35.2636604739465
20
8.61298798838195
30
-2E-16
41
1
10
35.2891446009417
20
8.61898913284767
30
-2E-16
0
SPLINE
5
10C
100
AcDbEntity
8
1
62
256
6
ByLayer
370
-1
48
1
60
0
100
AcDbSpline
70
4
71
3
72
8
73
4
40
0
40
0
40
0
40
0
40
1
40
1
40
1
40
1
41
1
10
36.5804424629957
20
8.67595693780561
30
-5E-16
41
1
10
36.6033610049856
20
8.67786080913422
30
-5E-16
41
1
10
36.6266015673127
20
8.67953860065464
30
-5E-16
41
1
10
36.6497413873232
20
8.68096129126604
30
-5E-16
0
SPLINE
5
10D
100
AcDbEntity
8
1
62
256
6
ByLayer
370
-1
48
1
60
0
100
AcDbSpline
70
4
71
3
72
8
73
4
40
0
40
0
40
0
40
0
40
1
40
1
40
1
40
1
41
1
10
44.23341916
20
-13.0303528172989
30
0
41
1
10
44.23341916
20
-13.0667939810863
30
0
41
1
10
44.2369777681164
20
-13.1034911257927
30
0
41
1
10
44.2442020545389
20
-13.1395996929246
30
0
0
SPLINE
5
10E
100
AcDbEntity
8
1
62
256
6
ByLayer
370
-1
48
1
60
0
100
AcDbSpline
70
4
71
3
72
22
73
18
40
0
40
0
40
0
40
0
40
0.124409052045505
40
0.124409052045505
40
0.26209221567818
40
0.26209221567818
40
0.399648928616344
40
0.399648928616344
40
0.537691144056721
40
0.537691144056721
40
0.676663698673578
40
0.676663698673578
40
0.816680277337994
40
0.816680277337994
40
0.957438648295725
40
0.957438648295725
40
1
40
1
40
1
40
1
41
1
10
37.0366550178244
20
-3.88152462711051
30
-5E-16
41
1
10
36.973462836272
20
-3.8115149177581
30
-5E-16
41
1
10
36.8974701520398
20
-3.75001524369449
30
-5E-16
41
1
10
36.7212321730981
20
-3.64721877544761
30
-5E-16
41
1
10
36.6167770660202
20
-3.6074344126385
30
-5E-16
41
1
10
36.4015541054184
20
-3.56287843415967
30
-5E-16
41
1
10
36.2878428276104
20
-3.55745980503841
30
-5E-16
41
1
10
36.0664572174923
20
-3.58111976550455
30
-5E-16
41
1
10
35.9557757915191
20
-3.61063613539579
30
-6E-16
41
1
10
35.7521766997474
20
-3.70029959844311
30
-6E-16
41
1
10
35.656591013152
20
-3.7618718757561
30
-6E-16
41
1
10
35.4933974617541
20
-3.90856544246509
30
-6E-16
41
1
10
35.4237557315819
20
-3.99587268421053
30
-6E-16
41
1
10
35.3200522302591
20
-4.184004218208
30
-6E-16
41
1
10
35.284745344531
20
-4.28749915397992
30
-6E-16
41
1
10
35.2643142647632
20
-4.4233163956292
30
-6E-16
41
1
10
35.2612961542205
20
-4.45524309932023
30
-6E-16
41
1
10
35.2600554469134
20
-4.48714540657193
30
-6E-16
0
SPLINE
5
10F
100
AcDbEntity
8
1
62
256
6
ByLayer
370
-1
48
1
60
0
100
AcDbSpline
70
4
71
3
72
8
73
4
40
0
40
0
40
0
40
0
40
1
40
1
40
1
40
1
41
1
10
34.0187824926893
20
-14.8284397273777
30
0
41
1
10
33.9629912230627
20
-14.8198343043907
30
0
41
1
10
33.9072009868389
20
-14.8112394596172
30
0
41
1
10
33.8514170479598
20
-14.8026558798384
30
0
0
SPLINE
5
110
100
AcDbEntity
8
1
62
256
6
ByLayer
370
-1
48
1
60
0
100
AcDbSpline
70
4
71
3
72
12
73
8
40
0
40
0
40
0
40
0
40
0.34398961888399
40
0.34398961888399
40
0.834563413611466
40
0.834563413611466
40
1
40
1
40
1
40
1
41
1
10
44.23341916
20
-10.6215093278753
30
0
41
1
10
44.23341916
20
-10.5707565309535
30
0
41
1
10
44.22792509145
20
-10.5195861541351
30
0
41
1
10
44.2009761795444
20
-10.3979895973116
30
0
41
1
10
44.1733468403767
20
-10.3270667447254
30
-1E-16
41
1
10
44.1192105998696
20
-10.2408661972091
30
-1E-16
41
1
10
44.1038752906447
20
-10.2195893836607
30
-1E-16
41
1
10
44.0869725505949
20
-10.1993599862814
30
-1E-16
0
SPLINE
5
111
100
AcDbEntity
8
1
62
256
6
ByLayer
370
-1
48
1
60
0
100
AcDbSpline
70
4
71
3
72
18
73
14
40
0
40
0
40
0
40
0
40
0.105342254155041
40
0.105342254155041
40
0.313801476634156
40
0.313801476634156
40
0.517272834845922
40
0.517272834845922
40
0.720990459710663
40
0.720990459710663
40
0.929425328482334
40
0.929425328482334
40
1
40
1
40
1
40
1
41
1
10
44.44356506
20
-5.48595578090899
30
0
41
1
10
44.44356506
20
-5.50806164100317
30
0
41
1
10
44.4398263927406
20
-5.52943036081777
30
0
41
1
10
44.4176903524589
20
-5.58931330697382
30
0
41
1
10
44.3879037522132
20
-5.62505188287739
30
0
41
1
10
44.3040094651025
20
-5.68156224521601
30
0
41
1
10
44.2493657810553
20
-5.70344122246868
30
0
41
1
10
44.122908578315
20
-5.7317145501589
30
-1E-16
41
1
10
44.0494040033721
20
-5.73848245256735
30
-1E-16
41
1
10
43.8921920795196
20
-5.73661555669929
30
-1E-16
41
1
10
43.8062112440768
20
-5.72761644930841
30
-1E-16
41
1
10
43.691151001047
20
-5.70600376426216
30
-1E-16
41
1
10
43.6616505681894
20
-5.69964267382375
30
-1E-16
41
1
10
43.6322686200959
20
-5.69249989226941
30
-1E-16
0
SPLINE
5
112
100
AcDbEntity
8
1
62
256
6
ByLayer
370
-1
48
1
60
0
100
AcDbSpline
70
4
71
3
72
8
73
4
40
0
40
0
40
0
40
0
40
1
40
1
40
1
40
1
41
1
10
30.1671080136907
20
8.61832360611803
30
9E-16
41
1
10
31.1428382547246
20
8.4723183332699
30
-8E-16
41
1
10
32.1353620343129
20
8.40518201622763
30
-8E-16
41
1
10
33.1444346036387
20
8.41922636623897
30
-7E-16
0
SPLINE
5
113
100
AcDbEntity
8
1
62
256
6
ByLayer
370
-1
48
1
60
0
100
AcDbSpline
70
4
71
3
72
8
73
4
40
0
40
0
40
0
40
0
40
1
40
1
40
1
40
1
41
1
10
40.472168367018
20
8.90920280908591
30
-1E-16
41
1
10
40.4915641894009
20
8.92192748008731
30
-1E-16
41
1
10
40.5105880118204
20
8.93518007093982
30
-1E-16
41
1
10
40.5291906852092
20
8.94893554460515
30
-1E-16
0
SPLINE
5
114
100
AcDbEntity
8
1
62
256
6
ByLayer
370
-1
48
1
60
0
100
AcDbSpline
70
4
71
3
72
8
73
4
40
0
40
0
40
0
40
0
40
1
40
1
40
1
40
1
41
1
10
30.1671080136907
20
-14.7170651840735
30
0
41
1
10
31.1428382547245
20
-14.7253908736793
30
0
41
1
10
32.1353620343129
20
-14.7327369164323
30
0
41
1
10
33.1444346036387
20
-14.7444552697448
30
0
0
SPLINE
5
115
100
AcDbEntity
8
1
62
256
6
ByLayer
370
-1
48
1
60
0
100
AcDbSpline
70
4
71
3
72
10
73
6
40
0
40
0
40
0
40
0
40
0.495536132596648
40
0.495536132596648
40
1
40
1
40
1
40
1
41
1
10
13
20
-8.22995486672005
30
-2E-16
41
1
10
11.1923781403861
20
-8.19383461848884
30
-3E-16
41
1
10
9.38475949697416
20
-8.15755302658499
30
-4E-16
41
1
10
5.73696244680731
20
-8.08399732373968
30
-6E-16
41
1
10
3.89678414694207
20
-8.04671711147188
30
-7E-16
41
1
10
2.05660954835425
20
-8.00925549064772
30
-9E-16
0
SPLINE
5
116
100
AcDbEntity
8
1
62
256
6
ByLayer
370
-1
48
1
60
0
100
AcDbSpline
70
4
71
3
72
14
73
10
40
0
40
0
40
0
40
0
40
0.257580017970847
40
0.257580017970847
40
0.587059354548868
40
0.587059354548868
40
0.930548206692253
40
0.930548206692253
40
1
40
1
40
1
40
1
41
1
10
37.71582439423
20
-4.21614213369534
30
-4E-16
41
1
10
37.6666907697005
20
-4.11162096678848
30
-4E-16
41
1
10
37.6025603305136
20
-4.01221921597264
30
-5E-16
41
1
10
37.430514654045
20
-3.80863647083893
30
-5E-16
41
1
10
37.3129966736625
20
-3.70828990398124
30
-5E-16
41
1
10
37.0497251532264
20
-3.54646499002871
30
-5E-16
41
1
10
36.8994995263284
20
-3.48460541844628
30
-5E-16
41
1
10
36.7136198255147
20
-3.44020766691844
30
-5E-16
41
1
10
36.6817627375219
20
-3.43366169781888
30
-5E-16
41
1
10
36.6497413873232
20
-3.42813363712864
30
-5E-16
0
SPLINE
5
117
100
AcDbEntity
8
1
62
256
6
ByLayer
370
-1
48
1
60
0
100
AcDbSpline
70
4
71
3
72
28
73
24
40
0
40
0
40
0
40
0
40
0.0719596557487797
40
0.0719596557487797
40
0.187459005221946
40
0.187459005221946
40
0.275300408834259
40
0.275300408834259
40
0.339984051766936
40
0.339984051766936
40
0.405379681540729
40
0.405379681540729
40
0.461696259483217
40
0.461696259483217
40
0.518145908754204
40
0.518145908754204
40
0.60219828304687
40
0.60219828304687
40
0.721462285398147
40
0.721462285398147
40
0.896491189060014
40
0.896491189060014
40
1
40
1
40
1
40
1
41
1
10
43.2129287076231
20
1.91386533142125
30
-1E-16
41
1
10
43.2423917818403
20
2.05834312104662
30
-1E-16
41
1
10
43.2641994031874
20
2.20442384565311
30
-1E-16
41
1
10
43.2957325912535
20
2.58565643869437
30
-1E-16
41
1
10
43.2905438587723
20
2.82465109287824
30
-1E-16
41
1
10
43.2141551346505
20
3.22897863754614
30
-1E-16
41
1
10
43.1578754688379
20
3.40168815879011
30
-1E-16
41
1
10
43.0082704370504
20
3.67098157977253
30
-1E-16
41
1
10
42.9267674216707
20
3.77784070211783
30
-1E-16
41
1
10
42.731007797016
20
3.95493740799927
30
-1E-16
41
1
10
42.6131067987721
20
4.02698622539555
30
-1E-16
41
1
10
42.3782388777831
20
4.11219188679266
30
-2E-16
41
1
10
42.2605048249448
20
4.1333130723749
30
-2E-16
41
1
10
42.0268480056691
20
4.13892560625294
30
-2E-16
41
1
10
41.9082547202603
20
4.12366382752271
30
-2E-16
41
1
10
41.6272147250864
20
4.05094396791128
30
-2E-16
41
1
10
41.4666084956649
20
3.9759070363605
30
-2E-16
41
1
10
41.1171486707797
20
3.75080076104768
30
-2E-16
41
1
10
40.937236411654
20
3.57904205576003
30
-2E-16
41
1
10
40.5638944022981
20
3.11382624902075
30
-3E-16
41
1
10
40.3946445972692
20
2.7922496927699
30
-3E-16
41
1
10
40.1998788295438
20
2.2609945180867
30
-3E-16
41
1
10
40.1429414678596
20
2.05672864124926
30
-3E-16
41
1
10
40.100624166533
20
1.84971331154782
30
-3E-16
0
SPLINE
5
118
100
AcDbEntity
8
1
62
256
6
ByLayer
370
-1
48
1
60
0
100
AcDbSpline
70
4
71
3
72
8
73
4
40
0
40
0
40
0
40
0
40
1
40
1
40
1
40
1
41
1
10
40.5518040541898
20
8.9660432850817
30
-1E-16
41
1
10
40.5443292931436
20
8.96025833048924
30
-1E-16
41
1
10
40.5367905180097
20
8.95455512937059
30
-1E-16
41
1
10
40.5291906852087
20
8.94893554460612
30
-1E-16
0
SPLINE
5
119
100
AcDbEntity
8
1
62
256
6
ByLayer
370
-1
48
1
60
0
100
AcDbSpline
70
4
71
3
72
12
73
8
40
0
40
0
40
0
40
0
40
0.168728401366368
40
0.168728401366368
40
0.708760958882855
40
0.708760958882855
40
1
40
1
40
1
40
1
41
1
10
43.53341916
20
-9.25246451562205
30
-1E-16
41
1
10
43.53341916
20
-9.27904354794228
30
-1E-16
41
1
10
43.5346412249949
20
-9.30568439730249
30
-1E-16
41
1
10
43.5451112487066
20
-9.41679858846939
30
-1E-16
41
1
10
43.5662008353589
20
-9.50214743557811
30
-1E-16
41
1
10
43.6237246688062
20
-9.62432082033968
30
-1E-16
41
1
10
43.6490616718901
20
-9.66603877278521
30
-1E-16
41
1
10
43.6798657693886
20
-9.70415888380441
30
-1E-16
0
SPLINE
5
11A
100
AcDbEntity
8
1
62
256
6
ByLayer
370
-1
48
1
60
0
100
AcDbSpline
70
4
71
3
72
10
73
6
40
0
40
0
40
0
40
0
40
0.4368194829984
40
0.4368194829984
40
1
40
1
40
1
40
1
41
1
10
35.2891446009414
20
8.61898913284887
30
-2E-16
41
1
10
35.4007632827694
20
8.64527372305105
30
-1E-16
41
1
10
35.5106200664179
20
8.67853558417968
30
-1E-16
41
1
10
35.754829513664
20
8.7674395584589
30
-1E-16
41
1
10
35.8883130662034
20
8.82711162293944
30
-1E-16
41
1
10
36.0157786889543
20
8.89672921063251
30
-1E-16
0
SPLINE
5
11B
100
AcDbEntity
8
1
62
256
6
ByLayer
370
-1
48
1
60
0
100
AcDbSpline
70
4
71
3
72
18
73
14
40
0
40
0
40
0
40
0
40
0.0771080258509337
40
0.0771080258509337
40
0.382089582981128
40
0.382089582981128
40
0.635022404586735
40
0.635022404586735
40
0.822524869898912
40
0.822524869898912
40
0.970695509560262
40
0.970695509560262
40
1
40
1
40
1
40
1
41
1
10
18.0484716403243
20
-3.36613290451493
30
1E-16
41
1
10
17.9487216865117
20
-3.35067331112816
30
1E-16
41
1
10
17.8482465793582
20
-3.3391916551135
30
1E-16
41
1
10
17.3521941033391
20
-3.30228903188294
30
1E-16
41
1
10
16.946503102261
20
-3.33450665028101
30
1E-16
41
1
10
16.244177161587
20
-3.51060266242754
30
0
41
1
10
15.9324766939126
20
-3.63690068243207
30
0
41
1
10
15.4521327228749
20
-3.93917548511757
30
0
41
1
10
15.2628546358846
20
-4.09736335696391
30
0
41
1
10
14.9895426426008
20
-4.42437982479919
30
-1E-16
41
1
10
14.8894596693699
20
-4.58768775374756
30
-1E-16
41
1
10
14.810625061185
20
-4.79401657988655
30
-1E-16
41
1
10
14.7988193561164
20
-4.82874552750889
30
-1E-16
41
1
10
14.7884049594915
20
-4.86377390089334
30
-1E-16
0
SPLINE
5
11C
100
AcDbEntity
8
1
62
256
6
ByLayer
370
-1
48
1
60
0
100
AcDbSpline
70
4
71
3
72
16
73
12
40
0
40
0
40
0
40
0
40
0.249999976020839
40
0.249999976020839
40
0.499999989301947
40
0.499999989301947
40
0.863638004283862
40
0.863638004283862
40
0.954547284923746
40
0.954547284923746
40
1
40
1
40
1
40
1
41
1
10
40.5521661169749
20
8.96632360297244
30
0
41
1
10
40.5522015204919
20
8.96635100861039
30
0
41
1
10
40.5522369120013
20
8.96637842975704
30
0
41
1
10
40.5523076995831
20
8.96643326616379
30
0
41
1
10
40.5523430920426
20
8.96646068609158
30
0
41
1
10
40.5524299614644
20
8.96652799387178
30
0
41
1
10
40.552481437357
20
8.96656788310554
30
0
41
1
10
40.552545777428
20
8.96661775076859
30
0
41
1
10
40.5525589203518
20
8.96662793788906
30
0
41
1
10
40.5525747283917
20
8.9666401929239
30
0
41
1
10
40.5525826327665
20
8.96664631998371
30
0
41
1
10
40.5525905356479
20
8.96665244896937
30
0
0
SPLINE
5
11D
100
AcDbEntity
8
1
62
256
6
ByLayer
370
-1
48
1
60
0
100
AcDbSpline
70
4
71
3
72
10
73
6
40
0
40
0
40
0
40
0
40
0.986501005425284
40
0.986501005425284
40
1
40
1
40
1
40
1
41
1
10
40.5529526679213
20
8.96693324887315
30
-1E-16
41
1
10
40.5890409614932
20
8.99132366222022
30
0
41
1
10
40.624664118182
20
9.01738550344882
30
0
41
1
10
40.6599856484939
20
9.04552098853449
30
0
41
1
10
40.6604605295782
20
9.04589968685738
30
0
41
1
10
40.6609352822289
20
9.04627871378452
30
0
0
SPLINE
5
11E
100
AcDbEntity
8
1
62
256
6
ByLayer
370
-1
48
1
60
0
100
AcDbSpline
70
4
71
3
72
8
73
4
40
0
40
0
40
0
40
0
40
1
40
1
40
1
40
1
41
1
10
36.5804424629957
20
-15.2235502314318
30
0
41
1
10
36.6033610049856
20
-15.2270851175814
30
0
41
1
10
36.6266015673127
20
-15.2290544695082
30
0
41
1
10
36.6497413873232
20
-15.2294320405076
30
0
0
SPLINE
5
11F
100
AcDbEntity
8
1
62
256
6
ByLayer
370
-1
48
1
60
0
100
AcDbSpline
70
4
71
3
72
8
73
4
40
0
40
0
40
0
40
0
40
1
40
1
40
1
40
1
41
1
10
44.44356506
20
-14.1220749057057
30
0
41
1
10
44.376263176125
20
-13.7946912637031
30
0
41
1
10
44.3097465628898
20
-13.4672055132798
30
0
41
1
10
44.2442020545389
20
-13.1395996929246
30
0
0
SPLINE
5
120
100
AcDbEntity
8
1
62
256
6
ByLayer
370
-1
48
1
60
0
100
AcDbSpline
70
4
71
3
72
16
73
12
40
0
40
0
40
0
40
0
40
0.229721760095252
40
0.229721760095252
40
0.459813004293998
40
0.459813004293998
40
0.687854254684067
40
0.687854254684067
40
0.905963802286023
40
0.905963802286023
40
1
40
1
40
1
40
1
41
1
10
36.5804424629958
20
-3.4208777147015
30
-5E-16
41
1
10
36.4194583024434
20
-3.41502674099948
30
-5E-16
41
1
10
36.2562396243381
20
-3.43585565614288
30
-5E-16
41
1
10
35.951569021273
20
-3.52809873653288
30
-6E-16
41
1
10
35.8059345774072
20
-3.60092161080919
30
-6E-16
41
1
10
35.5553494025978
20
-3.78791790199185
30
-6E-16
41
1
10
35.4464796226913
20
-3.90450104801036
30
-6E-16
41
1
10
35.2858484813218
20
-4.15899730406403
30
-6E-16
41
1
10
35.2296098883865
20
-4.29943065354635
30
-6E-16
41
1
10
35.1894054984907
20
-4.50573612619968
30
-6E-16
41
1
10
35.1823056181823
20
-4.56938861530853
30
-6E-16
41
1
10
35.180427683734
20
-4.63310119144865
30
-6E-16
0
SPLINE
5
121
100
AcDbEntity
8
1
62
256
6
ByLayer
370
-1
48
1
60
0
100
AcDbSpline
70
4
71
3
72
10
73
6
40
0
40
0
40
0
40
0
40
0.425089481452395
40
0.425089481452395
40
1
40
1
40
1
40
1
41
1
10
33.525118009055
20
-5.67441766884204
30
-7E-16
41
1
10
33.5476785486156
20
-5.59811919351199
30
-7E-16
41
1
10
33.5816402553439
20
-5.52412159997036
30
-7E-16
41
1
10
33.6839209147111
20
-5.36537380054705
30
-7E-16
41
1
10
33.7619476674084
20
-5.28368145978396
30
-7E-16
41
1
10
33.8514170479744
20
-5.21964717678151
30
-7E-16
0
SPLINE
5
122
100
AcDbEntity
8
1
62
256
6
ByLayer
370
-1
48
1
60
0
100
AcDbSpline
70
4
71
3
72
16
73
12
40
0
40
0
40
0
40
0
40
0.182243165356161
40
0.182243165356161
40
0.363834437576962
40
0.363834437576962
40
0.557189089295555
40
0.557189089295555
40
0.775155385886297
40
0.775155385886297
40
1
40
1
40
1
40
1
41
1
10
43.6322686200959
20
-15.3366625875204
30
0
41
1
10
43.7155984660224
20
-15.337861549284
30
0
41
1
10
43.7997670844872
20
-15.32562956998
30
0
41
1
10
43.9552851747193
20
-15.278115165477
30
0
41
1
10
44.0287561312964
20
-15.2423871984676
30
0
41
1
10
44.1622052236252
20
-15.1514657668881
30
0
41
1
10
44.2227123686623
20
-15.0941227530749
30
0
41
1
10
44.3277041476036
20
-14.9599553833862
30
0
41
1
10
44.370583224283
20
-14.8799448536577
30
0
41
1
10
44.4285885732099
20
-14.7112524898428
30
0
41
1
10
44.44356506
20
-14.6204775294681
30
0
41
1
10
44.44356506
20
-14.5301946901994
30
0
0
SPLINE
5
123
100
AcDbEntity
8
1
62
256
6
ByLayer
370
-1
48
1
60
0
100
AcDbSpline
70
4
71
3
72
28
73
24
40
0
40
0
40
0
40
0
40
0.0893731816777047
40
0.0893731816777047
40
0.177630823340193
40
0.177630823340193
40
0.280641793095858
40
0.280641793095858
40
0.400158257488785
40
0.400158257488785
40
0.488178473312098
40
0.488178473312098
40
0.576356993858708
40
0.576356993858708
40
0.662715034095019
40
0.662715034095019
40
0.758894384475038
40
0.758894384475038
40
0.871841670482476
40
0.871841670482476
40
0.956731420774127
40
0.956731420774127
40
1
40
1
40
1
40
1
41
1
10
39.8850402481437
20
-0.586706565559098
30
-3E-16
41
1
10
39.8850402481437
20
-0.635393144443725
30
-3E-16
41
1
10
39.8959963458011
20
-0.700017127342591
30
-3E-16
41
1
10
39.9370935844448
20
-0.841564539598807
30
-3E-16
41
1
10
39.9674099160868
20
-0.919768323149952
30
-3E-16
41
1
10
40.0516762152881
20
-1.08841950504399
30
-3E-16
41
1
10
40.1098207947526
20
-1.1809448813311
30
-3E-16
41
1
10
40.2602133741097
20
-1.36410966724566
30
-3E-16
41
1
10
40.3594696889843
20
-1.45532643833903
30
-3E-16
41
1
10
40.5540243754028
20
-1.576033084947
30
-3E-16
41
1
10
40.6458314973829
20
-1.61660104747588
30
-3E-16
41
1
10
40.8337742600401
20
-1.66659596778729
30
-3E-16
41
1
10
40.9323524494949
20
-1.67656843401855
30
-2E-16
41
1
10
41.1198616580143
20
-1.66668408109587
30
-2E-16
41
1
10
41.2112080050841
20
-1.64751360697701
30
-2E-16
41
1
10
41.3890156551569
20
-1.58469863306047
30
-2E-16
41
1
10
41.4759841753001
20
-1.53794343095578
30
-2E-16
41
1
10
41.6404093280791
20
-1.42034919834583
30
-2E-16
41
1
10
41.7162816260842
20
-1.344931039134
30
-2E-16
41
1
10
41.8137239765487
20
-1.21164618429128
30
-2E-16
41
1
10
41.8448199524519
20
-1.15281966425988
30
-2E-16
41
1
10
41.8687397268397
20
-1.07242405058724
30
-2E-16
41
1
10
41.872931631111
20
-1.04635801374596
30
-2E-16
41
1
10
41.872931631111
20
-1.02243449194742
30
-2E-16
0
SPLINE
5
124
100
AcDbEntity
8
1
62
256
6
ByLayer
370
-1
48
1
60
0
100
AcDbSpline
70
4
71
3
72
14
73
10
40
0
40
0
40
0
40
0
40
0.0491134752854937
40
0.0491134752854937
40
0.422326866867695
40
0.422326866867695
40
0.79885235530277
40
0.79885235530277
40
1
40
1
40
1
40
1
41
1
10
34.7903331151576
20
-5.07555530699764
30
-6E-16
41
1
10
34.7744331622967
20
-5.07101665392256
30
-6E-16
41
1
10
34.7584433361433
20
-5.06680710552348
30
-6E-16
41
1
10
34.621652592115
20
-5.03379768144222
30
-6E-16
41
1
10
34.4951768620069
20
-5.02361736717617
30
-6E-16
41
1
10
34.2503863175708
20
-5.0434088365474
30
-7E-16
41
1
10
34.1286220731161
20
-5.07408200680837
30
-7E-16
41
1
10
33.9598238313145
20
-5.15011087406211
30
-7E-16
41
1
10
33.9033964228462
20
-5.18244492971351
30
-7E-16
41
1
10
33.8514170479744
20
-5.21964717678151
30
-7E-16
0
SPLINE
5
125
100
AcDbEntity
8
1
62
256
6
ByLayer
370
-1
48
1
60
0
100
AcDbSpline
70
4
71
2
72
6
73
3
40
0
40
0
40
0
40
1
40
1
40
1
41
0.500000071949614
10
34.9071970012529
20
-5.10890477378043
30
-6E-16
41
0.499999928050386
10
34.8487300319296
20
-5.09222474924093
30
-6E-16
41
0.500000071949614
10
34.7903331151576
20
-5.07555530699782
30
-6E-16
0
SPLINE
5
126
100
AcDbEntity
8
1
62
256
6
ByLayer
370
-1
48
1
60
0
100
AcDbSpline
70
4
71
3
72
10
73
6
40
0
40
0
40
0
40
0
40
0.7977418025448
40
0.7977418025448
40
1
40
1
40
1
40
1
41
1
10
33.7210849081738
20
11.5185760895037
30
2E-16
41
1
10
33.5921229616646
20
11.4310630893622
30
2E-16
41
1
10
33.4695318263683
20
11.3444560913984
30
2E-16
41
1
10
33.3240400978188
20
11.2532521382914
30
2E-16
41
1
10
33.2945970519313
20
11.2356120820891
30
2E-16
41
1
10
33.2656300516715
20
11.219707383608
30
2E-16
0
SPLINE
5
127
100
AcDbEntity
8
1
62
256
6
ByLayer
370
-1
48
1
60
0
100
AcDbSpline
70
4
71
3
72
10
73
6
40
0
40
0
40
0
40
0
40
0.5
40
0.5
40
1
40
1
40
1
40
1
41
1
10
1.99999999999899
20
8.00867927626004
30
-9E-16
41
1
10
2.00945729480689
20
8.00867927626004
30
-9E-16
41
1
10
2.01889680211586
20
8.0087274776175
30
-9E-16
41
1
10
2.03776612191514
20
8.00891972409184
30
-9E-16
41
1
10
2.04719213501009
20
8.00906377429183
30
-9E-16
41
1
10
2.05660954835426
20
8.00925549064752
30
-9E-16
0
SPLINE
5
128
100
AcDbEntity
8
1
62
256
6
ByLayer
370
-1
48
1
60
0
100
AcDbSpline
70
4
71
3
72
10
73
6
40
0
40
0
40
0
40
0
40
0.53126596477128
40
0.53126596477128
40
1
40
1
40
1
40
1
41
1
10
39.2019557463992
20
8.85332496105249
30
1E-16
41
1
10
39.1767848687248
20
8.86894575285046
30
1E-16
41
1
10
39.152862656729
20
8.88643778769128
30
1E-16
41
1
10
39.1100233489529
20
8.9228954849072
30
1E-16
41
1
10
39.0908015698521
20
8.94150181898362
30
1E-16
41
1
10
39.0724626328392
20
8.96153765429696
30
1E-16
0
SPLINE
5
129
100
AcDbEntity
8
1
62
256
6
ByLayer
370
-1
48
1
60
0
100
AcDbSpline
70
4
71
3
72
10
73
6
40
0
40
0
40
0
40
0
40
0.5
40
0.5
40
1
40
1
40
1
40
1
41
1
10
2.05660954835425
20
-8.00925549064772
30
-9E-16
41
1
10
2.04716738714609
20
-8.00906327048384
30
-9E-16
41
1
10
2.03771739198639
20
-8.00891906062404
30
-9E-16
41
1
10
2.01884684207079
20
-8.00872713647738
30
-9E-16
41
1
10
2.00941948298301
20
-8.00867927626027
30
-9E-16
41
1
10
1.99999999999999
20
-8.00867927626027
30
-9E-16
0
SPLINE
5
12A
100
AcDbEntity
8
1
62
256
6
ByLayer
370
-1
48
1
60
0
100
AcDbSpline
70
4
71
3
72
12
73
8
40
0
40
0
40
0
40
0
40
0.339871331049421
40
0.339871331049421
40
0.882141873508917
40
0.882141873508917
40
1
40
1
40
1
40
1
41
1
10
33.5251180090551
20
14.3274676082649
30
2E-16
41
1
10
33.5431456482502
20
14.3127792013818
30
2E-16
41
1
10
33.5683823398454
20
14.298723277296
30
2E-16
41
1
10
33.650244947664
20
14.2661475897088
30
2E-16
41
1
10
33.7180421068275
20
14.2495590096302
30
2E-16
41
1
10
33.8147683819955
20
14.2377416218717
30
2E-16
41
1
10
33.8328316684329
20
14.2359282099913
30
2E-16
41
1
10
33.8514170479523
20
14.2344637505363
30
2E-16
0
SPLINE
5
12B
100
AcDbEntity
8
1
62
256
6
ByLayer
370
-1
48
1
60
0
100
AcDbSpline
70
4
71
3
72
8
73
4
40
0
40
0
40
0
40
0
40
1
40
1
40
1
40
1
41
1
10
34.0187824926893
20
8.46315547772983
30
-7E-16
41
1
10
34.8726687273193
20
8.53408968440652
30
-6E-16
41
1
10
35.7265553952848
20
8.6050234941865
30
-6E-16
41
1
10
36.5804424629958
20
8.67595693780538
30
-5E-16
0
SPLINE
5
12C
100
AcDbEntity
8
1
62
256
6
ByLayer
370
-1
48
1
60
0
100
AcDbSpline
70
4
71
3
72
14
73
10
40
0
40
0
40
0
40
0
40
0.25
40
0.25
40
0.5
40
0.5
40
0.75
40
0.75
40
1
40
1
40
1
40
1
41
1
10
14.7884049594915
20
13.8990057851719
30
-1E-16
41
1
10
14.3099162670573
20
14.3974793911368
30
-1E-16
41
1
10
14.0474687629854
20
14.6207784035584
30
0
41
1
10
14.0847040331413
20
14.3926683571951
30
-1E-16
41
1
10
14.399314027271
20
13.930791129581
30
-1E-16
41
1
10
15.8430386838818
20
12.616916917627
30
0
41
1
10
16.9850354657118
20
11.7882174449286
30
1E-16
41
1
10
19.8688091708957
20
10.4159822914019
30
2E-16
41
1
10
21.5542914237784
20
9.89552145792533
30
3E-16
41
1
10
23.2979615203513
20
9.63859488666489
30
4E-16
0
SPLINE
5
12D
100
AcDbEntity
8
1
62
256
6
ByLayer
370
-1
48
1
60
0
100
AcDbSpline
70
4
71
3
72
14
73
10
40
0
40
0
40
0
40
0
40
0.25
40
0.25
40
0.5
40
0.5
40
0.75
40
0.75
40
1
40
1
40
1
40
1
41
1
10
14.7884049594915
20
-4.86377390089334
30
-1E-16
41
1
10
14.310182918529
20
-6.47225308744203
30
-1E-16
41
1
10
14.0479369706452
20
-8.04600720668523
30
-1E-16
41
1
10
14.0841622470341
20
-10.7622850479204
30
-1E-16
41
1
10
14.3957194809002
20
-11.9005333889729
30
-1E-16
41
1
10
15.8453648966983
20
-13.5045906293454
30
0
41
1
10
16.9893947165878
20
-13.9618202085469
30
1E-16
41
1
10
19.8578911599146
20
-14.4724580029569
30
-2E-16
41
1
10
21.5500225710914
20
-14.5476788341108
30
-1E-16
41
1
10
23.2979615203512
20
-14.5956327189525
30
0
0
SPLINE
5
12E
100
AcDbEntity
8
1
62
256
6
ByLayer
370
-1
48
1
60
0
100
AcDbSpline
70
4
71
3
72
8
73
4
40
0
40
0
40
0
40
0
40
1
40
1
40
1
40
1
41
1
10
33.1444346036388
20
-5.61289036632334
30
-7E-16
41
1
10
33.2715583339178
20
-5.63106177628109
30
-7E-16
41
1
10
33.398631708946
20
-5.65160380093113
30
-7E-16
41
1
10
33.5251180090551
20
-5.67441766884218
30
-7E-16
0
SPLINE
5
12F
100
AcDbEntity
8
1
62
256
6
ByLayer
370
-1
48
1
60
0
100
AcDbSpline
70
4
71
3
72
10
73
6
40
0
40
0
40
0
40
0
40
0.885087566501744
40
0.885087566501744
40
1
40
1
40
1
40
1
41
1
10
40.5868353092121
20
13.599796050522
30
0
41
1
10
40.4761068225493
20
13.735072402882
30
-1E-16
41
1
10
40.3428438506007
20
13.8508843906725
30
0
41
1
10
40.1770316926275
20
13.95088028084
30
-1E-16
41
1
10
40.1577048070176
20
13.9619381404788
30
-1E-16
41
1
10
40.1381083936227
20
13.9725661165596
30
-1E-16
0
SPLINE
5
130
100
AcDbEntity
8
1
62
256
6
ByLayer
370
-1
48
1
60
0
100
AcDbSpline
70
4
71
3
72
8
73
4
40
0
40
0
40
0
40
0
40
1
40
1
40
1
40
1
41
1
10
38.0125535173393
20
13.4895557754716
30
0
41
1
10
37.9314310543531
20
13.3923318281965
30
0
41
1
10
37.8606009657518
20
13.2863661885262
30
0
41
1
10
37.8036305075169
20
13.1742803495017
30
0
0
SPLINE
5
131
100
AcDbEntity
8
1
62
256
6
ByLayer
370
-1
48
1
60
0
100
AcDbSpline
70
4
71
3
72
25
73
21
40
0
40
0
40
0
40
0
40
0.0625
40
0.09375
40
0.125
40
0.1875
40
0.25
40
0.3125
40
0.375
40
0.4375
40
0.5
40
0.5625
40
0.625
40
0.6875
40
0.75
40
0.8125
40
0.875
40
0.90625
40
0.9375
40
1
40
1
40
1
40
1
41
1
10
34.9391643210601
20
15.513585960713
30
-2E-16
41
1
10
34.7865564064687
20
15.5044865455211
30
-2E-16
41
1
10
34.5656460808766
20
15.3146629562832
30
-2E-16
41
1
10
34.5500217364617
20
15.0112815622554
30
-2E-16
41
1
10
34.5225831011835
20
14.7269055189059
30
-2E-16
41
1
10
34.4794493914778
20
14.3919057727537
30
-2E-16
41
1
10
34.4128934182773
20
14.00194348741
30
-2E-16
41
1
10
34.3308830669419
20
13.6033035292884
30
-2E-16
41
1
10
34.2403726411811
20
13.1816488196146
30
-2E-16
41
1
10
34.1483164447044
20
12.7226422796141
30
-2E-16
41
1
10
34.0293033465877
20
12.2568170949515
30
2E-16
41
1
10
33.8579222159071
20
11.814706451291
30
2E-16
41
1
10
33.6057511539299
20
11.4023605477439
30
2E-16
41
1
10
33.5813916223598
20
10.9231078999013
30
2E-16
41
1
10
33.587291223124
20
10.4533430629006
30
2E-16
41
1
10
33.5835532100707
20
9.9836990330617
30
2E-16
41
1
10
33.6014961435676
20
9.5838555872933
30
0
41
1
10
33.7569929111599
20
9.3185879816088
30
0
41
1
10
33.9843434485406
20
9.10672784816833
30
0
41
1
10
34.2106705180036
20
9.02704419743944
30
0
41
1
10
34.3641203497608
20
9.02612955717805
30
0
0
SPLINE
5
132
100
AcDbEntity
8
1
62
256
6
ByLayer
370
-1
48
1
60
0
100
AcDbSpline
70
4
71
3
72
15
73
11
40
0
40
0
40
0
40
0
40
0.0625
40
0.125
40
0.25
40
0.5
40
0.75
40
0.875
40
0.9375
40
1
40
1
40
1
40
1
41
1
10
34.3641203497608
20
9.02612955717805
30
0
41
1
10
34.5629895907397
20
9.02773591323907
30
0
41
1
10
34.9634872270944
20
9.02825115291535
30
1E-16
41
1
10
35.77306012676
20
9.02119299668448
30
1E-16
41
1
10
37.2058741215294
20
8.99469934714784
30
0
41
1
10
39.2440246983034
20
9.0037330282683
30
1E-16
41
1
10
41.2900703261625
20
9.05987682774
30
0
41
1
10
42.7077602829281
20
9.11932746499554
30
0
41
1
10
43.503817418506
20
9.17112304338761
30
0
41
1
10
43.9064154947484
20
9.17090384867578
30
0
41
1
10
44.104896326507
20
9.19593032186248
30
0
0
SPLINE
5
133
100
AcDbEntity
8
1
62
256
6
ByLayer
370
-1
48
1
60
0
100
AcDbSpline
70
4
71
3
72
15
73
11
40
0
40
0
40
0
40
0
40
0.0625
40
0.125
40
0.25
40
0.5
40
0.75
40
0.875
40
0.9375
40
1
40
1
40
1
40
1
41
1
10
44.19298652392
20
15.9227416731097
30
0
41
1
10
43.9938966499292
20
15.9211830701866
30
0
41
1
10
43.5946835468277
20
15.9184277764466
30
0
41
1
10
42.8217932917775
20
15.909852556873
30
0
41
1
10
41.4980441657532
20
15.8815805518244
30
0
41
1
10
39.5849689048046
20
15.8115007394414
30
-1E-16
41
1
10
37.6934831569977
20
15.6794226813173
30
0
41
1
10
36.3290958195235
20
15.5933837765098
30
-1E-16
41
1
10
35.5329522115343
20
15.5424128092407
30
-1E-16
41
1
10
35.1373014952458
20
15.5378676446368
30
-2E-16
41
1
10
34.9391643210601
20
15.513585960713
30
-2E-16
0
SPLINE
5
134
100
AcDbEntity
8
1
62
256
6
ByLayer
370
-1
48
1
60
0
100
AcDbSpline
70
4
71
3
72
25
73
21
40
0
40
0
40
0
40
0
40
0.0625
40
0.09375
40
0.125
40
0.1875
40
0.25
40
0.3125
40
0.375
40
0.4375
40
0.5
40
0.5625
40
0.625
40
0.6875
40
0.75
40
0.8125
40
0.875
40
0.90625
40
0.9375
40
1
40
1
40
1
40
1
41
1
10
44.104896326507
20
9.19593032186248
30
0
41
1
10
44.2588751780397
20
9.20433540091247
30
0
41
1
10
44.461046955072
20
9.40337463361493
30
0
41
1
10
44.4442584641867
20
9.72271064149317
30
0
41
1
10
44.4221142354152
20
10.0313987477288
30
0
41
1
10
44.3853579604841
20
10.4063340560671
30
0
41
1
10
44.3404156364584
20
10.8506805082264
30
0
41
1
10
44.3145919505883
20
11.3024300965662
30
0
41
1
10
44.3289544266011
20
11.7616891097422
30
0
41
1
10
44.4049752487154
20
12.2285922310793
30
0
41
1
10
44.5315574172641
20
12.6906208727715
30
0
41
1
10
44.6976399784145
20
13.1352893728402
30
0
41
1
10
44.9525175287098
20
13.546257348856
30
0
41
1
10
44.9760404229559
20
14.0258573531589
30
0
41
1
10
44.9702024988163
20
14.4955426106909
30
0
41
1
10
44.9738057021752
20
14.9651959605326
30
0
41
1
10
44.9628562998327
20
15.3643552478365
30
0
41
1
10
44.7939595795758
20
15.6308969010537
30
0
41
1
10
44.5685256969941
20
15.8425615599315
30
0
41
1
10
44.3464649624614
20
15.9218291144121
30
0
41
1
10
44.19298652392
20
15.9227416731097
30
0
0
SPLINE
5
135
100
AcDbEntity
8
1
62
256
6
ByLayer
370
-1
48
1
60
0
100
AcDbSpline
70
4
71
3
72
14
73
10
40
0
40
0
40
0
40
0
40
0.258374536041622
40
0.258374536041622
40
0.520163709547353
40
0.520163709547353
40
0.808397479016398
40
0.808397479016398
40
1
40
1
40
1
40
1
41
1
10
40.8018596055134
20
11.7494430883935
30
0
41
1
10
40.8736756542618
20
11.9036476862488
30
0
41
1
10
40.9239021021399
20
12.0718072319749
30
0
41
1
10
40.9756475311781
20
12.4109505753535
30
0
41
1
10
40.9764903095322
20
12.587088356806
30
0
41
1
10
40.9219216726901
20
12.9434223801558
30
0
41
1
10
40.8617855841169
20
13.1261449733765
30
0
41
1
10
40.7253383340985
20
13.4009761175558
30
0
41
1
10
40.6602294210596
20
13.5049236258189
30
0
41
1
10
40.5868353092121
20
13.599796050522
30
0
0
SPLINE
5
136
100
AcDbEntity
8
1
62
256
6
ByLayer
370
-1
48
1
60
0
100
AcDbSpline
70
4
71
3
72
10
73
6
40
0
40
0
40
0
40
0
40
0.796865384407366
40
0.796865384407366
40
1
40
1
40
1
40
1
41
1
10
38.0163098121414
20
11.3283768124047
30
0
41
1
10
38.1353178151936
20
11.1886080991608
30
0
41
1
10
38.2794644023241
20
11.0669056689563
30
0
41
1
10
38.4772199464633
20
10.9483810618474
30
0
41
1
10
38.5184920379718
20
10.9259385499816
30
0
41
1
10
38.5606811120619
20
10.9051988132394
30
0
0
SPLINE
5
137
100
AcDbEntity
8
1
62
256
6
ByLayer
370
-1
48
1
60
0
100
AcDbSpline
70
4
71
3
72
16
73
12
40
0
40
0
40
0
40
0
40
0.123757132086023
40
0.123757132086023
40
0.347702803990664
40
0.347702803990664
40
0.564812259158915
40
0.564812259158915
40
0.77579052606781
40
0.77579052606781
40
1
40
1
40
1
40
1
41
1
10
38.6682198489764
20
10.8568338786556
30
1E-16
41
1
10
38.7675411506646
20
10.8161854749105
30
1E-16
41
1
10
38.8706527459487
20
10.7847924352523
30
1E-16
41
1
10
39.163388382672
20
10.725723865255
30
0
41
1
10
39.3610168056
20
10.7206199550255
30
0
41
1
10
39.7326612749302
20
10.7780771339788
30
0
41
1
10
39.9122703642302
20
10.8395064790362
30
0
41
1
10
40.2287894665029
20
11.0151930912871
30
0
41
1
10
40.3708479477518
20
11.130019369214
30
0
41
1
10
40.6171767268961
20
11.404971009098
30
0
41
1
10
40.7226236370578
20
11.5715951211487
30
0
41
1
10
40.8018596055134
20
11.7494430883935
30
0
0
SPLINE
5
138
100
AcDbEntity
8
1
62
256
6
ByLayer
370
-1
48
1
60
0
100
AcDbSpline
70
4
71
3
72
14
73
10
40
0
40
0
40
0
40
0
40
0.301632841810063
40
0.301632841810063
40
0.602402032079644
40
0.602402032079644
40
0.899200904780735
40
0.899200904780735
40
1
40
1
40
1
40
1
41
1
10
37.8036305075169
20
13.1742803495017
30
0
41
1
10
37.7167549346597
20
12.9961522935373
30
0
41
1
10
37.6585841855889
20
12.8001086435447
30
0
41
1
10
37.613491652407
20
12.4068159135298
30
0
41
1
10
37.6231490517421
20
12.2054266571049
30
0
41
1
10
37.7072741912415
20
11.8279366342504
30
0
41
1
10
37.7847548192986
20
11.6448697092532
30
0
41
1
10
37.9306720858732
20
11.4306111310592
30
0
41
1
10
37.9718970203571
20
11.3779883411382
30
0
41
1
10
38.0163098121414
20
11.3283768124046
30
0
0
SPLINE
5
139
100
AcDbEntity
8
1
62
256
6
ByLayer
370
-1
48
1
60
0
100
AcDbSpline
70
4
71
3
72
18
73
14
40
0
40
0
40
0
40
0
40
0.213394464779719
40
0.213394464779719
40
0.389004322610663
40
0.389004322610663
40
0.566252444177967
40
0.566252444177967
40
0.721175490823055
40
0.721175490823055
40
0.92741643549918
40
0.92741643549918
40
1
40
1
40
1
40
1
41
1
10
39.8635839458105
20
13.1778458095434
30
0
41
1
10
39.8585684750512
20
13.1331587526271
30
0
41
1
10
39.8592524197185
20
13.0857167052931
30
0
41
1
10
39.8720514502558
20
12.9995120331864
30
0
41
1
10
39.8823315153269
20
12.9597512078762
30
0
41
1
10
39.9113394941894
20
12.8846607489994
30
0
41
1
10
39.9306294868277
20
12.8483352716781
30
0
41
1
10
39.9720515564792
20
12.7899835613054
30
0
41
1
10
39.9939937370998
20
12.7659919162634
30
0
41
1
10
40.0473496753152
20
12.7205269626892
30
0
41
1
10
40.0803778009432
20
12.7015860371759
30
0
41
1
10
40.1256280196323
20
12.6853137252656
30
0
41
1
10
40.1376277823284
20
12.6818763439915
30
0
41
1
10
40.1496759832563
20
12.6792527608792
30
0
0
SPLINE
5
13A
100
AcDbEntity
8
1
62
256
6
ByLayer
370
-1
48
1
60
0
100
AcDbSpline
70
4
71
3
72
12
73
8
40
0
40
0
40
0
40
0
40
0.464390992171651
40
0.464390992171651
40
0.846401077318506
40
0.846401077318506
40
1
40
1
40
1
40
1
41
1
10
39.5641310893104
20
11.6231693330514
30
0
41
1
10
39.5395923508617
20
11.6497327438193
30
0
41
1
10
39.5090930571681
20
11.6724898877233
30
0
41
1
10
39.4439701214458
20
11.7032743979122
30
0
41
1
10
39.4102301884124
20
11.7134713067165
30
0
41
1
10
39.359179652355
20
11.7207751565792
30
0
41
1
10
39.3439018634421
20
11.7220889259513
30
0
41
1
10
39.3283460380437
20
11.7225589339938
30
0
0
SPLINE
5
13B
100
AcDbEntity
8
1
62
256
6
ByLayer
370
-1
48
1
60
0
100
AcDbSpline
70
4
71
3
72
16
73
12
40
0
40
0
40
0
40
0
40
0.0670553612811609
40
0.0670553612811609
40
0.291697905104273
40
0.291697905104273
40
0.519329228663784
40
0.519329228663784
40
0.761535715028728
40
0.761535715028728
40
1
40
1
40
1
40
1
41
1
10
38.2568636781935
20
12.4519234781551
30
0
41
1
10
38.2568636781935
20
12.4463263264038
30
0
41
1
10
38.2571445791216
20
12.4407151220101
30
0
41
1
10
38.2595641673296
20
12.4165490202398
30
0
41
1
10
38.264624316856
20
12.3979754189045
30
0
41
1
10
38.2801864583535
20
12.3635219489947
30
0
41
1
10
38.2909437563002
20
12.3472368759723
30
0
41
1
10
38.3171305507584
20
12.3179898801696
30
0
41
1
10
38.333127144134
20
12.3049282961843
30
0
41
1
10
38.3672649231055
20
12.2842809641109
30
0
41
1
10
38.385713684161
20
12.276387690398
30
0
41
1
10
38.4045375254628
20
12.2710566400684
30
0
0
SPLINE
5
13C
100
AcDbEntity
8
1
62
256
6
ByLayer
370
-1
48
1
60
0
100
AcDbSpline
70
4
71
3
72
14
73
10
40
0
40
0
40
0
40
0
40
0.284523597312291
40
0.284523597312291
40
0.571736866218035
40
0.571736866218035
40
0.831999616286239
40
0.831999616286239
40
1
40
1
40
1
40
1
41
1
10
38.6906295629086
20
11.7724635914042
30
-1E-16
41
1
10
38.6828546716266
20
11.7532810577517
30
-1E-16
41
1
10
38.678546193933
20
11.7325725280028
30
-1E-16
41
1
10
38.678375353471
20
11.6912594745876
30
-1E-16
41
1
10
38.6826299434344
20
11.6700238289396
30
-1E-16
41
1
10
38.6991553435614
20
11.6329408876659
30
-1E-16
41
1
10
38.7109197689708
20
11.6162331533775
30
-1E-16
41
1
10
38.7351848656107
20
11.5933115920548
30
-1E-16
41
1
10
38.7461149629162
20
11.5852921261225
30
0
41
1
10
38.7579394854561
20
11.5786628429221
30
0
0
SPLINE
5
13D
100
AcDbEntity
8
1
62
256
6
ByLayer
370
-1
48
1
60
0
100
AcDbSpline
70
4
71
3
72
16
73
12
40
0
40
0
40
0
40
0
40
0.0670553612811543
40
0.0670553612811543
40
0.291697905104273
40
0.291697905104273
40
0.519329228663781
40
0.519329228663781
40
0.76153571502873
40
0.76153571502873
40
1
40
1
40
1
40
1
41
1
10
40.2641491234336
20
12.5147636877132
30
0
41
1
10
40.2641491234336
20
12.5203608394645
30
0
41
1
10
40.2639281518817
20
12.5259424809567
30
0
41
1
10
40.2620251993545
20
12.5498537285846
30
0
41
1
10
40.2580445946428
20
12.5678947951415
30
0
41
1
10
40.2458375952826
20
12.6006931879758
30
0
41
1
10
40.2374124609432
20
12.615827814798
30
0
41
1
10
40.2169929529275
20
12.6422298331933
30
0
41
1
10
40.2045627164696
20
12.6535321487673
30
0
41
1
10
40.1781999830206
20
12.6703440845805
30
0
41
1
10
40.1640284974097
20
12.6761273968537
30
0
41
1
10
40.1496759832563
20
12.6792527608792
30
0
0
SPLINE
5
13E
100
AcDbEntity
8
1
62
256
6
ByLayer
370
-1
48
1
60
0
100
AcDbSpline
70
4
71
3
72
16
73
12
40
0
40
0
40
0
40
0
40
0.0650212293342944
40
0.0650212293342944
40
0.28969152326947
40
0.28969152326947
40
0.51723642232612
40
0.51723642232612
40
0.759263521180989
40
0.759263521180989
40
1
40
1
40
1
40
1
41
1
10
38.7579394854561
20
13.3565575374395
30
1E-16
41
1
10
38.7533473480038
20
13.353695484634
30
1E-16
41
1
10
38.7488960659421
20
13.350610769097
30
1E-16
41
1
10
38.7299288766521
20
13.3360503436499
30
1E-16
41
1
10
38.7170805317894
20
13.3221594384018
30
1E-16
41
1
10
38.6968082388767
20
13.2913538608056
30
1E-16
41
1
10
38.6891852269704
20
13.274019569933
30
1E-16
41
1
10
38.6794831359167
20
13.2373129387511
30
1E-16
41
1
10
38.6776468641649
20
13.2174280392015
30
1E-16
41
1
10
38.6799382146736
20
13.1786439400386
30
1E-16
41
1
10
38.6840424640893
20
13.1593323752819
30
1E-16
41
1
10
38.6906295629086
20
13.1411252228434
30
1E-16
0
SPLINE
5
13F
100
AcDbEntity
8
1
62
256
6
ByLayer
370
-1
48
1
60
0
100
AcDbSpline
70
4
71
3
72
18
73
14
40
0
40
0
40
0
40
0
40
0.21339446477972
40
0.21339446477972
40
0.389004322610664
40
0.389004322610664
40
0.566252444177967
40
0.566252444177967
40
0.721175490823054
40
0.721175490823054
40
0.92741643549918
40
0.92741643549918
40
1
40
1
40
1
40
1
41
1
10
38.6906295629086
20
11.7724635914042
30
-1E-16
41
1
10
38.7065594992174
20
11.811766589767
30
-1E-16
41
1
10
38.7161556609626
20
11.8541375051603
30
1E-16
41
1
10
38.7183287496951
20
11.9329564957186
30
1E-16
41
1
10
38.7135169387081
20
11.9700198549879
30
1E-16
41
1
10
38.6907352707788
20
12.0420389016654
30
1E-16
41
1
10
38.6721625598596
20
12.0780105470233
30
1E-16
41
1
10
38.6271916049489
20
12.138112907114
30
1E-16
41
1
10
38.6016048100003
20
12.1639024246087
30
1E-16
41
1
10
38.5367089793432
20
12.2150599571118
30
0
41
1
10
38.4946778485469
20
12.2384420260567
30
0
41
1
10
38.4360016803642
20
12.2613373006658
30
0
41
1
10
38.4203391766451
20
12.2665814962127
30
0
41
1
10
38.4045375254629
20
12.2710566400684
30
0
0
SPLINE
5
140
100
AcDbEntity
8
1
62
256
6
ByLayer
370
-1
48
1
60
0
100
AcDbSpline
70
4
71
3
72
18
73
14
40
0
40
0
40
0
40
0
40
0.213393079737799
40
0.213393079737799
40
0.389003177496044
40
0.389003177496044
40
0.566251555260786
40
0.566251555260786
40
0.721174645896042
40
0.721174645896042
40
0.92741534208992
40
0.92741534208992
40
1
40
1
40
1
40
1
41
1
10
40.1496759832563
20
12.3256900588758
30
0
41
1
10
40.1146418654126
20
12.3101418546336
30
0
41
1
10
40.0796811207279
20
12.2878811999872
30
0
41
1
10
40.019887930312
20
12.2359761066753
30
0
41
1
10
39.9937068479395
20
12.2076857105366
30
0
41
1
10
39.9468786888998
20
12.1444130092746
30
0
41
1
10
39.925636542123
20
12.1083940351479
30
0
41
1
10
39.8942465381041
20
12.0397474476825
30
0
41
1
10
39.8826390837848
20
12.0064550161976
30
0
41
1
10
39.8640422512052
20
11.9314123593901
30
0
41
1
10
39.8594383896943
20
11.8892041888639
30
0
41
1
10
39.8608029212873
20
11.8361224267803
30
0
41
1
10
39.861859115181
20
11.8224750565928
30
0
41
1
10
39.8635839458105
20
11.8091841781042
30
0
0
SPLINE
5
141
100
AcDbEntity
8
1
62
256
6
ByLayer
370
-1
48
1
60
0
100
AcDbSpline
70
4
71
3
72
14
73
10
40
0
40
0
40
0
40
0
40
0.284523597312293
40
0.284523597312293
40
0.57173686621804
40
0.57173686621804
40
0.831999616286243
40
0.831999616286243
40
1
40
1
40
1
40
1
41
1
10
39.8635839458105
20
13.1778458095434
30
0
41
1
10
39.8660318363185
20
13.1996561295913
30
0
41
1
10
39.8652773453554
20
13.2228621998362
30
0
41
1
10
39.8565816771417
20
13.2685490635547
30
0
41
1
10
39.8484017380513
20
13.2917210669151
30
0
41
1
10
39.8261559869643
20
13.331625832526
30
0
41
1
10
39.8123494380341
20
13.3493409374969
30
0
41
1
10
39.7862069475402
20
13.3731886090715
30
0
41
1
10
39.774897838711
20
13.3813950397458
30
0
41
1
10
39.763073316171
20
13.3880243229462
30
0
0
SPLINE
5
142
100
AcDbEntity
8
1
62
256
6
ByLayer
370
-1
48
1
60
0
100
AcDbSpline
70
4
71
3
72
12
73
8
40
0
40
0
40
0
40
0
40
0.377026290846266
40
0.377026290846266
40
0.76105637206325
40
0.76105637206325
40
1
40
1
40
1
40
1
41
1
10
39.2736230633233
20
11.7208457729647
30
0
41
1
10
39.2348078403539
20
11.7173143235562
30
0
41
1
10
39.1949254233024
20
11.7087046896029
30
0
41
1
10
39.1192833779981
20
11.6834110703693
30
0
41
1
10
39.0825961801045
20
11.6663109813466
30
0
41
1
10
39.0284359592005
20
11.6337636278168
30
0
41
1
10
39.0086693364556
20
11.6199723301362
30
0
41
1
10
38.9902443013894
20
11.6052031956985
30
0
0
SPLINE
5
143
100
AcDbEntity
8
1
62
256
6
ByLayer
370
-1
48
1
60
0
100
AcDbSpline
70
4
71
3
72
16
73
12
40
0
40
0
40
0
40
0
40
0.0650212293342906
40
0.0650212293342906
40
0.289691523269469
40
0.289691523269469
40
0.517236422326113
40
0.517236422326113
40
0.759263521180986
40
0.759263521180986
40
1
40
1
40
1
40
1
41
1
10
39.763073316171
20
11.6101296284288
30
0
41
1
10
39.7676654536234
20
11.6129916812343
30
0
41
1
10
39.772173099219
20
11.6160485928843
30
0
41
1
10
39.7916379708537
20
11.6303635137876
30
0
41
1
10
39.8055542887857
20
11.6437275925491
30
0
41
1
10
39.8291600465093
20
11.6728887864009
30
0
41
1
10
39.8391042819308
20
11.6890780277734
30
0
41
1
10
39.8545521383426
20
11.7229502978055
30
0
41
1
10
39.8599436759567
20
11.7410814001134
30
0
41
1
10
39.8654462390327
20
11.7760207954828
30
0
41
1
10
39.8656578650577
20
11.7932033575891
30
0
41
1
10
39.8635839458105
20
11.8091841781042
30
0
0
SPLINE
5
144
100
AcDbEntity
8
1
62
256
6
ByLayer
370
-1
48
1
60
0
100
AcDbSpline
70
4
71
3
72
14
73
10
40
0
40
0
40
0
40
0
40
0.283738489034225
40
0.283738489034225
40
0.570489531030766
40
0.570489531030766
40
0.830294403552173
40
0.830294403552173
40
1
40
1
40
1
40
1
41
1
10
38.9902443013894
20
13.3270602122168
30
1E-16
41
1
10
38.9729498182803
20
13.3426386342262
30
1E-16
41
1
10
38.9527937342997
20
13.3558916184614
30
1E-16
41
1
10
38.9093091773662
20
13.3749819922638
30
1E-16
41
1
10
38.8852624056125
20
13.3809974302792
30
1E-16
41
1
10
38.8395670412931
20
13.3835180822466
30
1E-16
41
1
10
38.817216993862
20
13.3808635682471
30
1E-16
41
1
10
38.783001313099
20
13.3700312948288
30
1E-16
41
1
10
38.7699173870899
20
13.3640227728183
30
1E-16
41
1
10
38.7579394854561
20
13.3565575374395
30
1E-16
0
SPLINE
5
145
100
AcDbEntity
8
1
62
256
6
ByLayer
370
-1
48
1
60
0
100
AcDbSpline
70
4
71
3
72
12
73
8
40
0
40
0
40
0
40
0
40
0.464390992172109
40
0.464390992172109
40
0.846401077319347
40
0.846401077319347
40
1
40
1
40
1
40
1
41
1
10
38.9902443013894
20
13.3270602122168
30
1E-16
41
1
10
39.0257273040624
20
13.2950980433382
30
1E-16
41
1
10
39.0665417797113
20
13.2672524648804
30
1E-16
41
1
10
39.1467044337521
20
13.2290489268252
30
1E-16
41
1
10
39.1859460277558
20
13.2161380725078
30
1E-16
41
1
10
39.2414083679014
20
13.2066578988086
30
1E-16
41
1
10
39.2575861950119
20
13.2049001444942
30
1E-16
41
1
10
39.2736230633233
20
13.2041928400676
30
1E-16
0
SPLINE
5
146
100
AcDbEntity
8
1
62
256
6
ByLayer
370
-1
48
1
60
0
100
AcDbSpline
70
4
71
3
72
18
73
14
40
0
40
0
40
0
40
0
40
0.2133930797378
40
0.2133930797378
40
0.389003177496045
40
0.389003177496045
40
0.56625155526079
40
0.56625155526079
40
0.721174645896043
40
0.721174645896043
40
0.927415342089922
40
0.927415342089922
40
1
40
1
40
1
40
1
41
1
10
38.4045375254629
20
12.6246193420719
30
0
41
1
10
38.4504860378554
20
12.6347835227848
30
0
41
1
10
38.4957268245515
20
12.6519730772594
30
0
41
1
10
38.5704921382788
20
12.696492487029
30
1E-16
41
1
10
38.6021415100273
20
12.7220853997175
30
1E-16
41
1
10
38.6551960489778
20
12.7822866547539
30
1E-16
41
1
10
38.6771555110626
20
12.8179517803479
30
1E-16
41
1
10
38.7049966743748
20
12.8883489955537
30
1E-16
41
1
10
38.712959532762
20
12.9234392904167
30
1E-16
41
1
10
38.7200165138375
20
13.0041745059588
30
1E-16
41
1
10
38.7156173966374
20
13.0508238068653
30
1E-16
41
1
10
38.7008268895049
20
13.1105285444961
30
1E-16
41
1
10
38.6961079005144
20
13.1259827556307
30
1E-16
41
1
10
38.6906295629086
20
13.1411252228434
30
1E-16
0
SPLINE
5
147
100
AcDbEntity
8
1
62
256
6
ByLayer
370
-1
48
1
60
0
100
AcDbSpline
70
4
71
3
72
14
73
10
40
0
40
0
40
0
40
0
40
0.284519249123232
40
0.284519249123232
40
0.571733062184447
40
0.571733062184447
40
0.83199624428652
40
0.83199624428652
40
1
40
1
40
1
40
1
41
1
10
38.4045375254629
20
12.6246193420719
30
0
41
1
10
38.3821117252422
20
12.6196585745909
30
0
41
1
10
38.3601635093969
20
12.6109064845052
30
0
41
1
10
38.3209540187454
20
12.5863806389512
30
0
41
1
10
38.303156973925
20
12.5701305464771
30
0
41
1
10
38.2769273172886
20
12.5340603140378
30
0
41
1
10
38.2674101512158
20
12.5141547442988
30
0
41
1
10
38.2586426462316
20
12.4799441543485
30
0
41
1
10
38.2568636781935
20
12.4659019152845
30
0
41
1
10
38.2568636781935
20
12.4519234781551
30
0
0
SPLINE
5
148
100
AcDbEntity
8
1
62
256
6
ByLayer
370
-1
48
1
60
0
100
AcDbSpline
70
4
71
3
72
16
73
12
40
0
40
0
40
0
40
0
40
0.0668638488454794
40
0.0668638488454794
40
0.290854271538576
40
0.290854271538576
40
0.517824973971272
40
0.517824973971272
40
0.75932867428116
40
0.75932867428116
40
1
40
1
40
1
40
1
41
1
10
39.763073316171
20
13.3880243229462
30
0
41
1
10
39.7583383055011
20
13.390678952474
30
0
41
1
10
39.7535015662758
20
13.3930959653714
30
0
41
1
10
39.7322851530878
20
13.4024530471347
30
0
41
1
10
39.714954966601
20
13.4068615939459
30
0
41
1
10
39.6808671054313
20
13.409671968738
30
0
41
1
10
39.6636870511115
20
13.4080441265096
30
0
41
1
10
39.6307471627987
20
13.3991581218039
30
0
41
1
10
39.6147316313942
20
13.3914549132695
30
0
41
1
10
39.5866612356805
20
13.3714837736802
30
0
41
1
10
39.5742889107525
20
13.3590349345741
30
0
41
1
10
39.5641310893104
20
13.3450263495697
30
0
0
SPLINE
5
149
100
AcDbEntity
8
1
62
256
6
ByLayer
370
-1
48
1
60
0
100
AcDbSpline
70
4
71
3
72
16
73
12
40
0
40
0
40
0
40
0
40
0.0668638488455277
40
0.0668638488455277
40
0.290854271538802
40
0.290854271538802
40
0.517824973971677
40
0.517824973971677
40
0.759328674281759
40
0.759328674281759
40
1
40
1
40
1
40
1
41
1
10
38.7579394854561
20
11.5786628429221
30
0
41
1
10
38.762674496126
20
11.5760082133943
30
0
41
1
10
38.7675711703181
20
11.5735616348376
30
0
41
1
10
38.7893042486119
20
11.5639496844168
30
0
41
1
10
38.8077139977748
20
11.5590085940162
30
0
41
1
10
38.8451570345511
20
11.5545431256382
30
0
41
1
10
38.8646692693722
20
11.5550205133327
30
0
41
1
10
38.9033764773657
20
11.5610615242347
30
0
41
1
10
38.9229583828175
20
11.5670054559078
30
0
41
1
10
38.9588499250913
20
11.583118457795
30
0
41
1
10
38.9755560970167
20
11.5934294289595
30
0
41
1
10
38.9902443013892
20
11.6052031956984
30
0
0
SPLINE
5
14A
100
AcDbEntity
8
1
62
256
6
ByLayer
370
-1
48
1
60
0
100
AcDbSpline
70
4
71
3
72
14
73
10
40
0
40
0
40
0
40
0
40
0.284519249123233
40
0.284519249123233
40
0.571733062184447
40
0.571733062184447
40
0.831996244286523
40
0.831996244286523
40
1
40
1
40
1
40
1
41
1
10
40.1496759832563
20
12.3256900588758
30
0
41
1
10
40.1667748638676
20
12.3332785727138
30
0
41
1
10
40.1836601852641
20
12.3445281666891
30
0
41
1
10
40.2140031901127
20
12.3734278112634
30
0
41
1
10
40.227874856801
20
12.391614275758
30
0
41
1
10
40.248384108443
20
12.4305063591895
30
0
41
1
10
40.255859124673
20
12.4514193125956
30
0
41
1
10
40.2627491823218
20
12.4865560391798
30
0
41
1
10
40.2641491234336
20
12.5007852505838
30
0
41
1
10
40.2641491234336
20
12.5147636877132
30
0
0
SPLINE
5
14B
100
AcDbEntity
8
1
62
256
6
ByLayer
370
-1
48
1
60
0
100
AcDbSpline
70
4
71
3
72
14
73
10
40
0
40
0
40
0
40
0
40
0.283738489034223
40
0.283738489034223
40
0.570489531030765
40
0.570489531030765
40
0.830294403552167
40
0.830294403552167
40
1
40
1
40
1
40
1
41
1
10
39.5641310893104
20
11.6231693330514
30
0
41
1
10
39.5760913171843
20
11.6102222760315
30
0
41
1
10
39.5911749117454
20
11.5994715288435
30
0
41
1
10
39.6257637001301
20
11.584769399113
30
0
41
1
10
39.6458663118967
20
11.5806995981256
30
0
41
1
10
39.6858062635751
20
11.5810180662707
30
0
41
1
10
39.7060971021622
20
11.5846883790687
30
0
41
1
10
39.7384005617094
20
11.5964639429254
30
0
41
1
10
39.7510954145373
20
11.60266439305
30
0
41
1
10
39.763073316171
20
11.6101296284288
30
0
0
SPLINE
5
14C
100
AcDbEntity
8
1
62
256
6
ByLayer
370
-1
48
1
60
0
100
AcDbSpline
70
4
71
3
72
12
73
8
40
0
40
0
40
0
40
0
40
0.377026290639701
40
0.377026290639701
40
0.761056371823051
40
0.761056371823051
40
1
40
1
40
1
40
1
41
1
10
39.3283460380438
20
13.2059060010967
30
1E-16
41
1
10
39.3659969571171
20
13.2100117965587
30
1E-16
41
1
10
39.4021649377438
20
13.2204537458837
30
1E-16
41
1
10
39.4668854192534
20
13.251134925178
30
1E-16
41
1
10
39.4962250555579
20
13.2718595344833
30
1E-16
41
1
10
39.5371076114249
20
13.3109567026484
30
0
41
1
10
39.551389013308
20
13.3274538360311
30
0
41
1
10
39.5641310893104
20
13.3450263495697
30
0
0
SPLINE
5
14D
100
AcDbEntity
8
1
62
256
6
ByLayer
370
-1
48
1
60
0
100
AcDbSpline
70
4
71
3
72
10
73
6
40
0
40
0
40
0
40
0
40
0.416190742045004
40
0.797143672201043
40
1
40
1
40
1
40
1
41
1
10
44.295518743665
20
-3.91283623850191
30
0
41
1
10
44.361537013322
20
-3.91574357278421
30
0
41
1
10
44.4572380625209
20
-3.9409834193938
30
0
41
1
10
44.4462206312608
20
-4.00918068489449
30
0
41
1
10
44.4382162773969
20
-4.03801909397907
30
0
41
1
10
44.435254897333
20
-4.04701077945859
30
0
0
SPLINE
5
14E
100
AcDbEntity
8
1
62
256
6
ByLayer
370
-1
48
1
60
0
100
AcDbSpline
70
4
71
3
72
14
73
10
40
0
40
0
40
0
40
0
40
0.0037778008378299
40
0.185827640282909
40
0.367877479727987
40
0.549927319173066
40
0.731977158618145
40
0.914026998063223
40
1
40
1
40
1
40
1
41
1
10
44.4113108883457
20
-4.45180752174764
30
0
41
1
10
44.412004332326
20
-4.45322506676413
30
0
41
1
10
44.446293716426
20
-4.52307150117647
30
0
41
1
10
44.5315574172641
20
-4.67232698617028
30
0
41
1
10
44.6976399784145
20
-4.8506942047795
30
0
41
1
10
44.9525175287098
20
-5.00676268712203
30
0
41
1
10
44.9760404229558
20
-5.24492898096693
30
0
41
1
10
44.9712294873425
20
-5.44410607625613
30
0
41
1
10
44.9717751644358
20
-5.56177975155038
30
0
41
1
10
44.9718415119213
20
-5.59962843562971
30
0
0
SPLINE
5
14F
100
AcDbEntity
8
1
62
256
6
ByLayer
370
-1
48
1
60
0
100
AcDbSpline
70
4
71
3
72
14
73
10
40
0
40
0
40
0
40
0
40
0.194165363318051
40
0.291248044977076
40
0.388330726636101
40
0.582496089954151
40
0.776661453272202
40
0.970826816590252
40
1
40
1
40
1
40
1
41
1
10
43.6926196021664
20
-5.74478238984764
30
-1E-16
41
1
10
43.8088312067081
20
-5.77309325895686
30
-1E-16
41
1
10
43.9807197703578
20
-5.78175921054211
30
-1E-16
41
1
10
44.1707656843095
20
-5.75466522346849
30
-1E-16
41
1
10
44.3343755487916
20
-5.70584528087568
30
0
41
1
10
44.494373036201
20
-5.61260468922563
30
0
41
1
10
44.5093142648493
20
-5.43649306859254
30
0
41
1
10
44.5082258033118
20
-5.30841869459266
30
0
41
1
10
44.4820307024688
20
-5.23636489683437
30
0
41
1
10
44.4782645816901
20
-5.22690472019016
30
0
0
SPLINE
5
150
100
AcDbEntity
8
1
62
256
6
ByLayer
370
-1
48
1
60
0
100
AcDbSpline
70
4
71
3
72
15
73
11
40
0
40
0
40
0
40
0
40
0.0625
40
0.125
40
0.25
40
0.5
40
0.75
40
0.875
40
0.9375
40
1
40
1
40
1
40
1
41
1
10
44.19298652392
20
-9.42936904657708
30
0
41
1
10
43.9938966499292
20
-9.38805211588536
30
-1E-16
41
1
10
43.5946835468276
20
-9.3078778982686
30
-1E-16
41
1
10
42.8217932917775
20
-9.07763741369789
30
-1E-16
41
1
10
41.4980441657532
20
-8.61172637216083
30
-2E-16
41
1
10
39.5849689048046
20
-7.97299975780402
30
-3E-16
41
1
10
37.6934831569976
20
-7.2594422670989
30
-4E-16
41
1
10
36.3290958195235
20
-6.84823451780656
30
-5E-16
41
1
10
35.5329522115343
20
-6.66091987977566
30
-6E-16
41
1
10
35.1373014952458
20
-6.56671441313742
30
-6E-16
41
1
10
34.9391643210601
20
-6.51353748719856
30
-6E-16
0
SPLINE
5
151
100
AcDbEntity
8
1
62
256
6
ByLayer
370
-1
48
1
60
0
100
AcDbSpline
70
4
71
1
72
4
73
2
40
0
40
0
40
1
40
1
41
1
10
44.19298652392
20
-9.42936904657708
30
0
41
1
10
43.6926196021664
20
-5.74478238984764
30
-1E-16
0
SPLINE
5
152
100
AcDbEntity
8
1
62
256
6
ByLayer
370
-1
48
1
60
0
100
AcDbSpline
70
4
71
1
72
4
73
2
40
0
40
0
40
1
40
1
41
1
10
34.9391643210601
20
-6.51353748719856
30
-6E-16
41
1
10
36.4495936720924
20
-3.92329152102135
30
-5E-16
0
SPLINE
5
153
100
AcDbEntity
8
1
62
256
6
ByLayer
370
-1
48
1
60
0
100
AcDbSpline
70
4
71
3
72
18
73
14
40
0
40
0
40
0
40
0
40
0.109643123652401
40
0.164464685478601
40
0.219286247304801
40
0.328929370957202
40
0.438572494609603
40
0.548215618262004
40
0.657858741914404
40
0.767501865566805
40
0.877144989219206
40
0.986788112871606
40
1
40
1
40
1
40
1
41
1
10
34.9391643210601
20
-6.51353748719856
30
-6E-16
41
1
10
34.7865564064687
20
-6.47554541422124
30
-6E-16
41
1
10
34.5656460808766
20
-6.36815285407445
30
-6E-16
41
1
10
34.5500217364617
20
-6.2694591059981
30
-6E-16
41
1
10
34.5225831011835
20
-6.20681469137776
30
-6E-16
41
1
10
34.4794493914778
20
-6.16925117300585
30
-6E-16
41
1
10
34.4128934182772
20
-6.15061058035954
30
-6E-16
41
1
10
34.3308830669419
20
-6.11965404666762
30
-7E-16
41
1
10
34.2403726411811
20
-6.02175350172476
30
-7E-16
41
1
10
34.1483164447043
20
-5.80228087532564
30
-7E-16
41
1
10
34.0293033465877
20
-5.533559095995
30
-7E-16
41
1
10
33.9081655076518
20
-5.35992698029193
30
-7E-16
41
1
10
33.8272491765592
20
-5.26497302855987
30
-7E-16
41
1
10
33.8184418740998
20
-5.25473463700521
30
-7E-16
0
SPLINE
5
154
100
AcDbEntity
8
1
62
256
6
ByLayer
370
-1
48
1
60
0
100
AcDbSpline
70
4
71
3
72
10
73
6
40
0
40
0
40
0
40
0
40
0.228096314456478
40
0.485397542970985
40
1
40
1
40
1
40
1
41
1
10
36.0909205714575
20
-3.59292033219876
30
-5E-16
41
1
10
36.0916048383513
20
-3.61943786641805
30
-5E-16
41
1
10
36.0966540885218
20
-3.67656306813271
30
-5E-16
41
1
10
36.1721517103266
20
-3.79952425396794
30
-5E-16
41
1
10
36.3335589741986
20
-3.89355842406078
30
-5E-16
41
1
10
36.4495936720924
20
-3.92329152102135
30
-5E-16
0
SPLINE
5
155
100
AcDbEntity
8
1
62
256
6
ByLayer
370
-1
48
1
60
0
100
AcDbSpline
70
4
71
3
72
8
73
4
40
0
40
0
40
0
40
0
40
1
40
1
40
1
40
1
41
1
10
36.4495936720924
20
-3.92329152102135
30
-5E-16
41
1
10
38.8623867702844
20
-4.54217544721283
30
-4E-16
41
1
10
41.2761782836687
20
-5.15552271980599
30
-2E-16
41
1
10
43.6926196021664
20
-5.74478238984764
30
-1E-16
0
SPLINE
5
156
100
AcDbEntity
8
1
62
256
6
ByLayer
370
-1
48
1
60
0
100
AcDbSpline
70
4
71
3
72
13
73
9
40
0
40
0
40
0
40
0
40
0.099352306716864
40
0.324514230037648
40
0.549676153358432
40
0.662257115018824
40
0.774838076679216
40
1
40
1
40
1
40
1
41
1
10
44.9726325613088
20
-8.77625990049268
30
0
41
1
10
44.9724110735795
20
-8.81059120012733
30
0
41
1
10
44.9708735975326
20
-8.92227853286448
30
0
41
1
10
44.9738057021752
20
-9.11277213744523
30
0
41
1
10
44.9628562998327
20
-9.30881337125723
30
0
41
1
10
44.7939595795758
20
-9.40680778046445
30
0
41
1
10
44.568525696994
20
-9.46603131395901
30
0
41
1
10
44.3464649624614
20
-9.46017703059178
30
0
41
1
10
44.19298652392
20
-9.42936904657708
30
0
0
LINE
5
48
100
AcDbEntity
8
81
62
256
6
ByLayer
370
-1
48
1
60
0
100
AcDbLine
10
45
20
15.935
30
0
11
51.9
21
15.935
31
0
39
0
210
0
220
0
230
1
0
LINE
5
49
100
AcDbEntity
8
4
62
256
6
ByLayer
370
-1
48
0.05
60
0
100
AcDbLine
10
0
20
0
30
0
11
45
21
0
31
0
39
0
210
0
220
0
230
1
0
LINE
5
4B
100
AcDbEntity
8
1
62
256
6
ByLayer
370
-1
48
1
60
0
100
AcDbLine
10
40.243499
20
13.921902
30
0
11
40.066129
21
14.009398
31
0
39
0
210
0
220
0
230
1
0
LINE
5
4D
100
AcDbEntity
8
1
62
256
6
ByLayer
370
-1
48
1
60
0
100
AcDbLine
10
38.539859
20
10.915371
30
0
11
38.717229
21
10.827875
31
0
39
0
210
0
220
0
230
1
0
LINE
5
4E
100
AcDbEntity
8
1
62
256
6
ByLayer
370
-1
48
1
60
0
100
AcDbLine
10
40.082509
20
12.702911
30
0
11
40.221072
21
12.634558
31
0
39
0
210
0
220
0
230
1
0
LINE
5
4F
100
AcDbEntity
8
1
62
256
6
ByLayer
370
-1
48
1
60
0
100
AcDbLine
10
39.691484
20
11.581831
30
0
11
39.47797
21
11.687156
31
0
39
0
210
0
220
0
230
1
0
LINE
5
50
100
AcDbEntity
8
1
62
256
6
ByLayer
370
-1
48
1
60
0
100
AcDbLine
10
38.70869
20
12.130494
30
0
11
38.490303
21
12.238224
31
0
39
0
210
0
220
0
230
1
0
LINE
5
51
100
AcDbEntity
8
1
62
256
6
ByLayer
370
-1
48
1
60
0
100
AcDbLine
10
39.104587
20
13.249171
30
0
11
39.318101
21
13.143846
31
0
39
0
210
0
220
0
230
1
0
LINE
5
52
100
AcDbEntity
8
1
62
256
6
ByLayer
370
-1
48
1
60
0
100
AcDbLine
10
14.086382
20
14.536529
30
0
11
2.05661
21
14.40032
31
0
39
0
210
0
220
0
230
1
0
LINE
5
53
100
AcDbEntity
8
1
62
256
6
ByLayer
370
-1
48
1
60
0
100
AcDbLine
10
2.05661
20
-14.40032
30
0
11
29.068061
21
-14.706161
31
0
39
0
210
0
220
0
230
1
0
LINE
5
54
100
AcDbEntity
8
1
62
256
6
ByLayer
370
-1
48
1
60
0
100
AcDbLine
10
0.5
20
14.4
30
0
11
0
21
13.9
31
0
39
0
210
0
220
0
230
1
0
LINE
5
55
100
AcDbEntity
8
1
62
256
6
ByLayer
370
-1
48
1
60
0
100
AcDbLine
10
0
20
-13.9
30
0
11
0.5
21
-14.4
31
0
39
0
210
0
220
0
230
1
0
LINE
5
56
100
AcDbEntity
8
1
62
256
6
ByLayer
370
-1
48
1
60
0
100
AcDbLine
10
2
20
14.4
30
0
11
0.5
21
14.4
31
0
39
0
210
0
220
0
230
1
0
LINE
5
57
100
AcDbEntity
8
1
62
256
6
ByLayer
370
-1
48
1
60
0
100
AcDbLine
10
0.5
20
-14.4
30
0
11
2
21
-14.4
31
0
39
0
210
0
220
0
230
1
0
LINE
5
58
100
AcDbEntity
8
SK1
62
256
6
ByLayer
370
-1
48
1
60
0
100
AcDbLine
10
-2
20
-8.5
30
0
11
-1.304456
21
-8.31363
31
0
39
0
210
0
220
0
230
1
0
LINE
5
5A
100
AcDbEntity
8
SK1
62
256
6
ByLayer
370
-1
48
1
60
0
100
AcDbLine
10
-1.304456
20
8.31363
30
0
11
-2
21
8.5
31
0
39
0
210
0
220
0
230
1
0
LINE
5
5B
100
AcDbEntity
8
SK1
62
256
6
ByLayer
370
-1
48
1
60
0
100
AcDbLine
10
-2
20
8.5
30
0
11
-5
21
8.5
31
0
39
0
210
0
220
0
230
1
0
LINE
5
5C
100
AcDbEntity
8
SK1
62
256
6
ByLayer
370
-1
48
1
60
0
100
AcDbLine
10
-5
20
-8.5
30
0
11
-2
21
-8.5
31
0
39
0
210
0
220
0
230
1
0
LINE
5
5D
100
AcDbEntity
8
SK1
62
256
6
ByLayer
370
-1
48
1
60
0
100
AcDbLine
10
-5
20
8.5
30
0
11
-6
21
7.92265
31
0
39
0
210
0
220
0
230
1
0
LINE
5
5E
100
AcDbEntity
8
SK1
62
256
6
ByLayer
370
-1
48
1
60
0
100
AcDbLine
10
-6
20
-7.92265
30
0
11
-5
21
-8.5
31
0
39
0
210
0
220
0
230
1
0
LINE
5
5F
100
AcDbEntity
8
SK1
62
256
6
ByLayer
370
-1
48
1
60
0
100
AcDbLine
10
-1.200929
20
-8.3
30
0
11
-0.38
21
-8.3
31
0
39
0
210
0
220
0
230
1
0
LINE
5
60
100
AcDbEntity
8
SK1
62
256
6
ByLayer
370
-1
48
1
60
0
100
AcDbLine
10
-0.38
20
8.3
30
0
11
-1.200929
21
8.3
31
0
39
0
210
0
220
0
230
1
0
LINE
5
61
100
AcDbEntity
8
SK1
62
256
6
ByLayer
370
-1
48
1
60
0
100
AcDbLine
10
-22
20
8
30
0
11
-24
21
6
31
0
39
0
210
0
220
0
230
1
0
LINE
5
62
100
AcDbEntity
8
SK1
62
256
6
ByLayer
370
-1
48
1
60
0
100
AcDbLine
10
-24
20
-6
30
0
11
-22
21
-8
31
0
39
0
210
0
220
0
230
1
0
LINE
5
63
100
AcDbEntity
8
SK1
62
256
6
ByLayer
370
-1
48
1
60
0
100
AcDbLine
10
-11
20
8
30
0
11
-22
21
8
31
0
39
0
210
0
220
0
230
1
0
LINE
5
64
100
AcDbEntity
8
SK1
62
256
6
ByLayer
370
-1
48
1
60
0
100
AcDbLine
10
-22
20
-8
30
0
11
-11
21
-8
31
0
39
0
210
0
220
0
230
1
0
LINE
5
65
100
AcDbEntity
8
SK1
62
256
6
ByLayer
370
-1
48
1
60
0
100
AcDbLine
10
-11
20
-8
30
0
11
-8.633975
21
-6.633975
31
0
39
0
210
0
220
0
230
1
0
LINE
5
66
100
AcDbEntity
8
SK1
62
256
6
ByLayer
370
-1
48
1
60
0
100
AcDbLine
10
-8.633975
20
6.633975
30
0
11
-11
21
8
31
0
39
0
210
0
220
0
230
1
0
LINE
5
67
100
AcDbEntity
8
SK1
62
256
6
ByLayer
370
-1
48
1
60
0
100
AcDbLine
10
-8.133975
20
-6.5
30
0
11
-7
21
-6.5
31
0
39
0
210
0
220
0
230
1
0
LINE
5
68
100
AcDbEntity
8
SK1
62
256
6
ByLayer
370
-1
48
1
60
0
100
AcDbLine
10
-7
20
6.5
30
0
11
-8.133975
21
6.5
31
0
39
0
210
0
220
0
230
1
0
LINE
5
69
100
AcDbEntity
8
80
62
256
6
ByLayer
370
-1
48
1
60
0
100
AcDbLine
10
0
20
0
30
0
11
-10
21
0
31
0
39
0
210
0
220
0
230
1
0
LINE
5
6A
100
AcDbEntity
8
SK4
62
256
6
ByLayer
370
-1
48
0.05
60
0
100
AcDbLine
10
55
20
0
30
0
11
-34
21
0
31
0
39
0
210
0
220
0
230
1
0
LINE
5
6C
100
AcDbEntity
8
SK1
62
256
6
ByLayer
370
-1
48
1
60
0
100
AcDbLine
10
-8.133975
20
6.5
30
0
11
-8.133975
21
-6.5
31
0
39
0
210
0
220
0
230
1
0
LINE
5
6D
100
AcDbEntity
8
SK1
62
256
6
ByLayer
370
-1
48
1
60
0
100
AcDbLine
10
-11
20
8
30
0
11
-11
21
-8
31
0
39
0
210
0
220
0
230
1
0
LINE
5
6E
100
AcDbEntity
8
SK1
62
256
6
ByLayer
370
-1
48
1
60
0
100
AcDbLine
10
-2
20
-8.5
30
0
11
-2
21
8.5
31
0
39
0
210
0
220
0
230
1
0
LINE
5
6F
100
AcDbEntity
8
SK1
62
256
6
ByLayer
370
-1
48
1
60
0
100
AcDbLine
10
-24
20
6
30
0
11
-24
21
-6
31
0
39
0
210
0
220
0
230
1
0
LINE
5
70
100
AcDbEntity
8
SK1
62
256
6
ByLayer
370
-1
48
1
60
0
100
AcDbLine
10
-1.200929
20
-8.3
30
0
11
-1.200929
21
8.3
31
0
39
0
210
0
220
0
230
1
0
LINE
5
71
100
AcDbEntity
8
SK1
62
256
6
ByLayer
370
-1
48
1
60
0
100
AcDbLine
10
-22
20
8
30
0
11
-22
21
-8
31
0
39
0
210
0
220
0
230
1
0
LINE
5
72
100
AcDbEntity
8
SK1
62
256
6
ByLayer
370
-1
48
1
60
0
100
AcDbLine
10
-0.38
20
-8.3
30
0
11
-0.38
21
8.3
31
0
39
0
210
0
220
0
230
1
0
LINE
5
73
100
AcDbEntity
8
SK1
62
256
6
ByLayer
370
-1
48
1
60
0
100
AcDbLine
10
-6
20
7.92265
30
0
11
-6
21
-7.92265
31
0
39
0
210
0
220
0
230
1
0
LINE
5
74
100
AcDbEntity
8
SK1
62
256
6
ByLayer
370
-1
48
1
60
0
100
AcDbLine
10
-5
20
8.5
30
0
11
-5
21
-8.5
31
0
39
0
210
0
220
0
230
1
0
LINE
5
75
100
AcDbEntity
8
SK1
62
256
6
ByLayer
370
-1
48
1
60
0
100
AcDbLine
10
-8.633975
20
6.633975
30
0
11
-8.633975
21
-6.633975
31
0
39
0
210
0
220
0
230
1
0
LINE
5
76
100
AcDbEntity
8
SK1
62
256
6
ByLayer
370
-1
48
1
60
0
100
AcDbLine
10
-7
20
6.5
30
0
11
-7
21
-6.5
31
0
39
0
210
0
220
0
230
1
0
LINE
5
77
100
AcDbEntity
8
SK1
62
256
6
ByLayer
370
-1
48
1
60
0
100
AcDbLine
10
-1.304456
20
-8.31363
30
0
11
-1.304456
21
8.31363
31
0
39
0
210
0
220
0
230
1
0
LINE
5
78
100
AcDbEntity
8
1
62
256
6
ByLayer
370
-1
48
1
60
0
100
AcDbLine
10
33.350869
20
9.371874
30
0
11
33.713694
21
9.415654
31
0
39
0
210
0
220
0
230
1
0
LINE
5
79
100
AcDbEntity
8
1
62
256
6
ByLayer
370
-1
48
1
60
0
100
AcDbLine
10
43.533419
20
9.217567
30
0
11
40.552953
21
8.966933
31
0
39
0
210
0
220
0
230
1
0
LINE
5
7A
100
AcDbEntity
8
1
62
256
6
ByLayer
370
-1
48
1
60
0
100
AcDbLine
10
43.679866
20
9.193712
30
0
11
43.679866
21
9.127852
31
0
39
0
210
0
220
0
230
1
0
LINE
5
7B
100
AcDbEntity
8
1
62
256
6
ByLayer
370
-1
48
1
60
0
100
AcDbLine
10
39.201956
20
8.853325
30
0
11
38.515399
21
8.795591
31
0
39
0
210
0
220
0
230
1
0
LINE
5
7C
100
AcDbEntity
8
1
62
256
6
ByLayer
370
-1
48
1
60
0
100
AcDbLine
10
44.244202
20
9.25891
30
0
11
44.244202
21
9.117241
31
0
39
0
210
0
220
0
230
1
0
LINE
5
7D
100
AcDbEntity
8
1
62
256
6
ByLayer
370
-1
48
1
60
0
100
AcDbLine
10
43.533419
20
9.10315
30
0
11
43.533419
21
9.216774
31
0
39
0
210
0
220
0
230
1
0
LINE
5
7E
100
AcDbEntity
8
1
62
256
6
ByLayer
370
-1
48
1
60
0
100
AcDbLine
10
2.05661
20
14.40032
30
0
11
2.05661
21
8.009255
31
0
39
0
210
0
220
0
230
1
0
LINE
5
7F
100
AcDbEntity
8
1
62
256
6
ByLayer
370
-1
48
1
60
0
100
AcDbLine
10
43.212929
20
1.913865
30
0
11
42.601073
21
-0.199382
31
0
39
0
210
0
220
0
230
1
0
LINE
5
80
100
AcDbEntity
8
1
62
256
6
ByLayer
370
-1
48
1
60
0
100
AcDbLine
10
2.05661
20
-8.009255
30
0
11
2.05661
21
-14.40032
31
0
39
0
210
0
220
0
230
1
0
LINE
5
81
100
AcDbEntity
8
1
62
256
6
ByLayer
370
-1
48
1
60
0
100
AcDbLine
10
44.086973
20
9.118523
30
0
11
44.086973
21
9.209608
31
0
39
0
210
0
220
0
230
1
0
LINE
5
82
100
AcDbEntity
8
1
62
256
6
ByLayer
370
-1
48
1
60
0
100
AcDbLine
10
44.443565
20
-14.122071
30
0
11
44.443565
21
-9.465927
31
0
39
0
210
0
220
0
230
1
0
LINE
5
83
100
AcDbEntity
8
1
62
256
6
ByLayer
370
-1
48
1
60
0
100
AcDbLine
10
44.086973
20
-10.203463
30
0
11
44.086973
21
-9.420192
31
0
39
0
210
0
220
0
230
1
0
LINE
5
84
100
AcDbEntity
8
1
62
256
6
ByLayer
370
-1
48
1
60
0
100
AcDbLine
10
43.679866
20
-9.299163
30
0
11
43.679866
21
-9.719936
31
0
39
0
210
0
220
0
230
1
0
LINE
5
85
100
AcDbEntity
8
1
62
256
6
ByLayer
370
-1
48
1
60
0
100
AcDbLine
10
33.851417
20
8.450031
30
0
11
33.851417
21
-5.219647
31
0
39
0
210
0
220
0
230
1
0
LINE
5
86
100
AcDbEntity
8
1
62
256
6
ByLayer
370
-1
48
1
60
0
100
AcDbLine
10
34.018782
20
-14.82844
30
0
11
35.405022
21
-6.630918
31
0
39
0
210
0
220
0
230
1
0
LINE
5
87
100
AcDbEntity
8
1
62
256
6
ByLayer
370
-1
48
1
60
0
100
AcDbLine
10
44.233419
20
-13.030353
30
0
11
44.233419
21
-10.621509
31
0
39
0
210
0
220
0
230
1
0
LINE
5
88
100
AcDbEntity
8
1
62
256
6
ByLayer
370
-1
48
1
60
0
100
AcDbLine
10
30.167108
20
-14.717065
30
0
11
31.740707
21
-5.411594
31
0
39
0
210
0
220
0
230
1
0
LINE
5
89
100
AcDbEntity
8
1
62
256
6
ByLayer
370
-1
48
1
60
0
100
AcDbLine
10
36.649741
20
8.680961
30
0
11
36.649741
21
-3.428134
31
0
39
0
210
0
220
0
230
1
0
LINE
5
8A
100
AcDbEntity
8
1
62
256
6
ByLayer
370
-1
48
1
60
0
100
AcDbLine
10
23.297962
20
-14.595633
30
0
11
25.017675
21
-4.426118
31
0
39
0
210
0
220
0
230
1
0
LINE
5
8B
100
AcDbEntity
8
1
62
256
6
ByLayer
370
-1
48
1
60
0
100
AcDbLine
10
40.551804
20
8.966043
30
0
11
43.533419
21
9.216774
31
0
39
0
210
0
220
0
230
1
0
LINE
5
8C
100
AcDbEntity
8
1
62
256
6
ByLayer
370
-1
48
1
60
0
100
AcDbLine
10
32.673957
20
8.685682
30
0
11
25.839369
21
9.676001
31
0
39
0
210
0
220
0
230
1
0
LINE
5
8D
100
AcDbEntity
8
1
62
256
6
ByLayer
370
-1
48
1
60
0
100
AcDbLine
10
0.5
20
-14.4
30
0
11
0.5
21
14.4
31
0
39
0
210
0
220
0
230
1
0
LINE
5
8E
100
AcDbEntity
8
1
62
256
6
ByLayer
370
-1
48
1
60
0
100
AcDbLine
10
44.443565
20
9.030785
30
0
11
44.443565
21
-5.485956
31
0
39
0
210
0
220
0
230
1
0
LINE
5
8F
100
AcDbEntity
8
1
62
256
6
ByLayer
370
-1
48
1
60
0
100
AcDbLine
10
44.233419
20
9.244122
30
0
11
44.233419
21
9.117994
31
0
39
0
210
0
220
0
230
1
0
LINE
5
90
100
AcDbEntity
8
1
62
256
6
ByLayer
370
-1
48
1
60
0
100
AcDbLine
10
33.233357
20
11.244576
30
0
11
33.193215
21
11.25055
31
0
39
0
210
0
220
0
230
1
0
LINE
5
91
100
AcDbEntity
8
1
62
256
6
ByLayer
370
-1
48
1
60
0
100
AcDbLine
10
2
20
-8.008679
30
0
11
2
21
8.008679
31
0
39
0
210
0
220
0
230
1
0
LINE
5
92
100
AcDbEntity
8
1
62
256
6
ByLayer
370
-1
48
1
60
0
100
AcDbLine
10
42.601073
20
-0.199382
30
0
11
42.601073
21
-0.924781
31
0
39
0
210
0
220
0
230
1
0
LINE
5
93
100
AcDbEntity
8
1
62
256
6
ByLayer
370
-1
48
1
60
0
100
AcDbLine
10
13
20
8.229955
30
0
11
13
21
-8.229955
31
0
39
0
210
0
220
0
230
1
0
LINE
5
94
100
AcDbEntity
8
1
62
256
6
ByLayer
370
-1
48
1
60
0
100
AcDbLine
10
43.632269
20
-5.6925
30
0
11
43.632269
21
9.109214
31
0
39
0
210
0
220
0
230
1
0
LINE
5
95
100
AcDbEntity
8
1
62
256
6
ByLayer
370
-1
48
1
60
0
100
AcDbLine
10
44.244202
20
-9.418366
30
0
11
44.244202
21
-13.148984
31
0
39
0
210
0
220
0
230
1
0
LINE
5
96
100
AcDbEntity
8
1
62
256
6
ByLayer
370
-1
48
1
60
0
100
AcDbLine
10
44.233419
20
-9.435057
30
0
11
44.233419
21
-10.626107
31
0
39
0
210
0
220
0
230
1
0
LINE
5
97
100
AcDbEntity
8
1
62
256
6
ByLayer
370
-1
48
1
60
0
100
AcDbLine
10
44.443565
20
9.035748
30
0
11
44.443565
21
12.348927
31
0
39
0
210
0
220
0
230
1
0
LINE
5
98
100
AcDbEntity
8
1
62
256
6
ByLayer
370
-1
48
1
60
0
100
AcDbLine
10
2
20
-14.4
30
0
11
2
21
-8.008679
31
0
39
0
210
0
220
0
230
1
0
LINE
5
99
100
AcDbEntity
8
1
62
256
6
ByLayer
370
-1
48
1
60
0
100
AcDbLine
10
44.443565
20
-14.530195
30
0
11
44.443565
21
-14.122075
31
0
39
0
210
0
220
0
230
1
0
LINE
5
9A
100
AcDbEntity
8
1
62
256
6
ByLayer
370
-1
48
1
60
0
100
AcDbLine
10
33.144435
20
-5.61289
30
0
11
33.144435
21
8.419226
31
0
39
0
210
0
220
0
230
1
0
LINE
5
9B
100
AcDbEntity
8
1
62
256
6
ByLayer
370
-1
48
1
60
0
100
AcDbLine
10
44.443565
20
-14.536869
30
0
11
44.443565
21
-14.530195
31
0
39
0
210
0
220
0
230
1
0
LINE
5
9C
100
AcDbEntity
8
1
62
256
6
ByLayer
370
-1
48
1
60
0
100
AcDbLine
10
2
20
8.008679
30
0
11
2
21
14.4
31
0
39
0
210
0
220
0
230
1
0
LINE
5
9D
100
AcDbEntity
8
1
62
256
6
ByLayer
370
-1
48
1
60
0
100
AcDbLine
10
36.580442
20
-3.420878
30
0
11
36.580442
21
8.675957
31
0
39
0
210
0
220
0
230
1
0
LINE
5
9E
100
AcDbEntity
8
1
62
256
6
ByLayer
370
-1
48
1
60
0
100
AcDbLine
10
0
20
-13.9
30
0
11
0
21
13.9
31
0
39
0
210
0
220
0
230
1
0
LINE
5
9F
100
AcDbEntity
8
1
62
256
6
ByLayer
370
-1
48
1
60
0
100
AcDbLine
10
39.532154
20
13.105368
30
0
11
39.328346
21
13.205906
31
0
39
0
210
0
220
0
230
1
0
LINE
5
A0
100
AcDbEntity
8
1
62
256
6
ByLayer
370
-1
48
1
60
0
100
AcDbLine
10
40.198934
20
12.654954
30
0
11
40.149676
21
12.679253
31
0
39
0
210
0
220
0
230
1
0
LINE
5
A1
100
AcDbEntity
8
1
62
256
6
ByLayer
370
-1
48
1
60
0
100
AcDbLine
10
38.918316
20
13.028809
30
0
11
38.69063
21
13.141125
31
0
39
0
210
0
220
0
230
1
0
LINE
5
A2
100
AcDbEntity
8
1
62
256
6
ByLayer
370
-1
48
1
60
0
100
AcDbLine
10
39.273623
20
13.204193
30
0
11
39.477431
21
13.103655
31
0
39
0
210
0
220
0
230
1
0
LINE
5
A3
100
AcDbEntity
8
1
62
256
6
ByLayer
370
-1
48
1
60
0
100
AcDbLine
10
39.791736
20
13.23275
30
0
11
39.564131
21
13.345026
31
0
39
0
210
0
220
0
230
1
0
LINE
5
A4
100
AcDbEntity
8
1
62
256
6
ByLayer
370
-1
48
1
60
0
100
AcDbLine
10
38.632224
20
12.512303
30
0
11
38.404538
21
12.624619
31
0
39
0
210
0
220
0
230
1
0
LINE
5
A5
100
AcDbEntity
8
1
62
256
6
ByLayer
370
-1
48
1
60
0
100
AcDbLine
10
39.638995
20
11.586239
30
0
11
39.564131
21
11.623169
31
0
39
0
210
0
220
0
230
1
0
LINE
5
A6
100
AcDbEntity
8
1
62
256
6
ByLayer
370
-1
48
1
60
0
100
AcDbLine
10
38.918316
20
11.660147
30
0
11
38.69063
21
11.772464
31
0
39
0
210
0
220
0
230
1
0
MTEXT
5
157
100
AcDbEntity
8
SK6
62
256
6
ByLayer
370
-1
48
1
60
0
100
AcDbMText
10
0.873386
20
-26.938367
30
0
210
0
220
0
230
1
1
\W00.702;\fsimplex.shx,bigfont.shx;R390-32T16-11M\P
40
3.5
41
0
44
1.084337
50
0
71
7
72
5
7
DEFAULT
0
DIMENSION
5
168
100
AcDbEntity
8
2
62
256
6
ByLayer
370
-3
48
1
60
0
100
AcDbDimension
2
DimnDraft3D1
10
0
20
35.75
30
0
11
18.846711
21
35.75
31
0
70
32
71
5
72
1
41
1
210
0
220
0
230
1
3
Standard
100
AcDbAlignedDimension
13
45
23
18
33
0
14
0
24
16.4
34
0
50
0
100
AcDbRotatedDimension
1001
ACAD
1000
DSTYLE
1002
{
1070
   279
1070
     0
1070
   172
1070
     1
1070
   173
1070
     1
1070
   340
1005
158
1070
   271
1070
     2
1070
   272
1070
     2
1070
    77
1070
     1
1070
    73
1070
     0
1070
   171
1070
     4
1070
   274
1070
     4
1070
   177
1070
     2
1070
   176
1070
     2
1070
   178
1070
     7
1070
    78
1070
     8
1070
    41
1041
3.175
1070
   147
1041
2.25
1070
    42
1041
2.0
1070
    44
1041
2.0
1070
   140
1041
4.5
1070
   343
1005
169
1070
   344
1005
169
1002
}
0
DIMENSION
5
17D
100
AcDbEntity
8
2
62
256
6
ByLayer
370
-3
48
1
60
0
100
AcDbDimension
2
DimnDraft3D2
10
34.8
20
25.75
30
0
11
50
21
25.75
31
0
70
32
71
5
72
1
41
1
210
0
220
0
230
1
3
Standard
100
AcDbAlignedDimension
13
45
23
18
33
0
14
34.8
24
18
34
0
50
0
100
AcDbRotatedDimension
1001
ACAD
1000
DSTYLE
1002
{
1070
   279
1070
     0
1070
   172
1070
     1
1070
   173
1070
     1
1070
   340
1005
158
1070
   271
1070
     2
1070
   272
1070
     2
1070
    77
1070
     1
1070
    73
1070
     0
1070
   171
1070
     4
1070
   274
1070
     4
1070
   177
1070
     2
1070
   176
1070
     2
1070
   178
1070
     7
1070
    78
1070
     8
1070
    41
1041
3.175
1070
   147
1041
2.25
1070
    42
1041
2.0
1070
    44
1041
2.0
1070
   140
1041
4.5
1070
   343
1005
169
1070
   344
1005
169
1002
}
0
DIMENSION
5
18C
100
AcDbEntity
8
SK2
62
256
6
ByLayer
370
-3
48
1
60
0
100
AcDbDimension
2
DimnDraft3D3
10
-33.75
20
-14.4
30
0
11
-33.75
21
-8.986678
31
0
70
32
71
5
72
1
41
1
210
0
220
0
230
1
3
Standard
100
AcDbAlignedDimension
13
-2
23
14.4
33
0
14
-2
24
-14.4
34
0
50
90
100
AcDbRotatedDimension
1001
ACAD
1000
DSTYLE
1002
{
1070
    74
1070
     0
1070
   279
1070
     0
1070
   172
1070
     1
1070
   173
1070
     1
1070
   340
1005
158
1070
   271
1070
     2
1070
   272
1070
     2
1070
    77
1070
     1
1070
    73
1070
     0
1070
   171
1070
     4
1070
   274
1070
     4
1070
   177
1070
     2
1070
   176
1070
     2
1070
   178
1070
     7
1070
    78
1070
     8
1070
    41
1041
3.175
1070
   147
1041
2.25
1070
    42
1041
2.0
1070
    44
1041
2.0
1070
   140
1041
4.5
1070
   343
1005
169
1070
   344
1005
169
1002
}
0
DIMENSION
5
19A
100
AcDbEntity
8
2
62
256
6
ByLayer
370
-3
48
1
60
0
100
AcDbDimension
2
DimnDraft3D4
10
59.25
20
-16
30
0
11
59.25
21
-6.01727
31
0
70
32
71
5
72
1
41
1
210
0
220
0
230
1
3
Standard
100
AcDbAlignedDimension
13
47
23
16
33
0
14
47
24
-16
34
0
50
90
100
AcDbRotatedDimension
1001
ACAD
1000
DSTYLE
1002
{
1070
    74
1070
     0
1070
   279
1070
     0
1070
   172
1070
     1
1070
   173
1070
     1
1070
   340
1005
158
1070
   271
1070
     2
1070
   272
1070
     2
1070
    77
1070
     1
1070
    73
1070
     0
1070
   171
1070
     4
1070
   274
1070
     4
1070
   177
1070
     2
1070
   176
1070
     2
1070
   178
1070
     7
1070
    78
1070
     8
1070
    41
1041
3.175
1070
   147
1041
2.25
1070
    42
1041
2.0
1070
    44
1041
2.0
1070
   140
1041
4.5
1070
   343
1005
169
1070
   344
1005
169
1002
}
0
ENDSEC
0
SECTION
2
OBJECTS
0
DICTIONARY
5
1e9
330
0
100
AcDbDictionary
280
0
281
1
3
ACAD_GROUP
350
1ea
3
ACAD_MLINESTYLE
350
1eb
0
DICTIONARY
5
1ea
330
0
100
AcDbDictionary
280
0
281
1
0
DICTIONARY
5
1eb
330
0
100
AcDbDictionary
280
0
281
1
3
Standard
350
18
0
MLINESTYLE
5
18
330
1eb
100
AcDbMlineStyle
2
Standard
70
0
3

62
256
51
90
52
90
71
2
49
-0.5
62
256
6
ByLayer
49
0.5
62
256
6
ByLayer
0
RASTERVARIABLES
5
1d7
330

100
AcDbRasterVariables
90
0
70
1
71
1
72
1
0
ENDSEC
0
EOF
