  0
SECTION
  2
HEADER
  9
$ACADVER
  1
AC1015
  9
$ACADMAINTVER
 70
    20
  9
$DWGCODEPAGE
  3
ANSI_1252
  9
$INSBASE
 10
0.0
 20
0.0
 30
0.0
  9
$EXTMIN
 10
-58.83260433333333
 20
-14.425
 30
-0.0000000000000002
  9
$EXTMAX
 10
74.2125
 20
96.83260433333334
 30
0.0000000000000003
  9
$LIMMIN
 10
-0.5
 20
-0.5
  9
$LIMMAX
 10
5.0
 20
5.0
  9
$ORTHOMODE
 70
     0
  9
$REGENMODE
 70
     1
  9
$FILLMODE
 70
     1
  9
$QTEXTMODE
 70
     0
  9
$MIRRTEXT
 70
     1
  9
$LTSCALE
 40
1.0
  9
$ATTMODE
 70
     1
  9
$TEXTSIZE
 40
5.0
  9
$TRACEWID
 40
0.05
  9
$TEXTSTYLE
  7
Standard
  9
$CLAYER
  8
NOCUT
  9
$CELTYPE
  6
ByLayer
  9
$CECOLOR
 62
   256
  9
$CELTSCALE
 40
1.0
  9
$DISPSILH
 70
     0
  9
$DIMSCALE
 40
1.0
  9
$DIMASZ
 40
0.18
  9
$DIMEXO
 40
0.0625
  9
$DIMDLI
 40
0.38
  9
$DIMRND
 40
0.0
  9
$DIMDLE
 40
0.0
  9
$DIMEXE
 40
0.18
  9
$DIMTP
 40
0.0
  9
$DIMTM
 40
0.0
  9
$DIMTXT
 40
0.18
  9
$DIMCEN
 40
0.09
  9
$DIMTSZ
 40
0.0
  9
$DIMTOL
 70
     0
  9
$DIMLIM
 70
     0
  9
$DIMTIH
 70
     1
  9
$DIMTOH
 70
     1
  9
$DIMSE1
 70
     0
  9
$DIMSE2
 70
     0
  9
$DIMTAD
 70
     0
  9
$DIMZIN
 70
     0
  9
$DIMBLK
  1

  9
$DIMASO
 70
     1
  9
$DIMSHO
 70
     1
  9
$DIMPOST
  1

  9
$DIMAPOST
  1

  9
$DIMALT
 70
     0
  9
$DIMALTD
 70
     2
  9
$DIMALTF
 40
25.4
  9
$DIMLFAC
 40
1.0
  9
$DIMTOFL
 70
     0
  9
$DIMTVP
 40
0.0
  9
$DIMTIX
 70
     0
  9
$DIMSOXD
 70
     0
  9
$DIMSAH
 70
     0
  9
$DIMBLK1
  1

  9
$DIMBLK2
  1

  9
$DIMSTYLE
  2
Standard
  9
$DIMCLRD
 70
     0
  9
$DIMCLRE
 70
     0
  9
$DIMCLRT
 70
     0
  9
$DIMTFAC
 40
1.0
  9
$DIMGAP
 40
0.09
  9
$DIMJUST
 70
     0
  9
$DIMSD1
 70
     0
  9
$DIMSD2
 70
     0
  9
$DIMTOLJ
 70
     1
  9
$DIMTZIN
 70
     0
  9
$DIMALTZ
 70
     0
  9
$DIMALTTZ
 70
     0
  9
$DIMUPT
 70
     0
  9
$DIMDEC
 70
     4
  9
$DIMTDEC
 70
     4
  9
$DIMALTU
 70
     2
  9
$DIMALTTD
 70
     2
  9
$DIMTXSTY
  7
Standard
  9
$DIMAUNIT
 70
     0
  9
$DIMADEC
 70
     0
  9
$DIMALTRND
 40
0.0
  9
$DIMAZIN
 70
     0
  9
$DIMDSEP
 70
     0
  9
$DIMATFIT
 70
     3
  9
$DIMFRAC
 70
     0
  9
$DIMLDRBLK
  1

  9
$DIMLUNIT
 70
     2
  9
$DIMLWD
 70
     0
  9
$DIMLWE
 70
     0
  9
$DIMTMOVE
 70
     0
  9
$LUNITS
 70
     2
  9
$LUPREC
 70
     4
  9
$SKETCHINC
 40
0.1
  9
$FILLETRAD
 40
0.0
  9
$AUNITS
 70
     0
  9
$AUPREC
 70
     0
  9
$MENU
  1
acad
  9
$ELEVATION
 40
0.0
  9
$PELEVATION
 40
0.0
  9
$THICKNESS
 40
0.0
  9
$LIMCHECK
 70
     0
  9
$CHAMFERA
 40
0.0
  9
$CHAMFERB
 40
0.0
  9
$CHAMFERC
 40
0.0
  9
$CHAMFERD
 40
0.0
  9
$SKPOLY
 70
     0
  9
$TDCREATE
 40
2457459.640543785
  9
$TDUCREATE
 40
2457459.598877118
  9
$TDUPDATE
 40
2457459.644010347
  9
$TDUUPDATE
 40
2457459.602343681
  9
$TDINDWG
 40
0.0034668403
  9
$TDUSRTIMER
 40
0.0034668171
  9
$USRTIMER
 70
     1
  9
$ANGBASE
 50
0.0
  9
$ANGDIR
 70
     0
  9
$PDMODE
 70
     0
  9
$PDSIZE
 40
0.0
  9
$PLINEWID
 40
0.0
  9
$SPLFRAME
 70
     0
  9
$SPLINETYPE
 70
     6
  9
$SPLINESEGS
 70
     8
  9
$HANDSEED
  5
21E
  9
$SURFTAB1
 70
     6
  9
$SURFTAB2
 70
     6
  9
$SURFTYPE
 70
     6
  9
$SURFU
 70
     6
  9
$SURFV
 70
     6
  9
$UCSBASE
  2

  9
$UCSNAME
  2

  9
$UCSORG
 10
0.0
 20
0.0
 30
0.0
  9
$UCSXDIR
 10
1.0
 20
0.0
 30
0.0
  9
$UCSYDIR
 10
0.0
 20
1.0
 30
0.0
  9
$UCSORTHOREF
  2

  9
$UCSORTHOVIEW
 70
     0
  9
$UCSORGTOP
 10
0.0
 20
0.0
 30
0.0
  9
$UCSORGBOTTOM
 10
0.0
 20
0.0
 30
0.0
  9
$UCSORGLEFT
 10
0.0
 20
0.0
 30
0.0
  9
$UCSORGRIGHT
 10
0.0
 20
0.0
 30
0.0
  9
$UCSORGFRONT
 10
0.0
 20
0.0
 30
0.0
  9
$UCSORGBACK
 10
0.0
 20
0.0
 30
0.0
  9
$PUCSBASE
  2

  9
$PUCSNAME
  2

  9
$PUCSORG
 10
0.0
 20
0.0
 30
0.0
  9
$PUCSXDIR
 10
1.0
 20
0.0
 30
0.0
  9
$PUCSYDIR
 10
0.0
 20
1.0
 30
0.0
  9
$PUCSORTHOREF
  2

  9
$PUCSORTHOVIEW
 70
     0
  9
$PUCSORGTOP
 10
0.0
 20
0.0
 30
0.0
  9
$PUCSORGBOTTOM
 10
0.0
 20
0.0
 30
0.0
  9
$PUCSORGLEFT
 10
0.0
 20
0.0
 30
0.0
  9
$PUCSORGRIGHT
 10
0.0
 20
0.0
 30
0.0
  9
$PUCSORGFRONT
 10
0.0
 20
0.0
 30
0.0
  9
$PUCSORGBACK
 10
0.0
 20
0.0
 30
0.0
  9
$USERI1
 70
     0
  9
$USERI2
 70
     0
  9
$USERI3
 70
     0
  9
$USERI4
 70
     0
  9
$USERI5
 70
     0
  9
$USERR1
 40
0.0
  9
$USERR2
 40
0.0
  9
$USERR3
 40
0.0
  9
$USERR4
 40
0.0
  9
$USERR5
 40
0.0
  9
$WORLDVIEW
 70
     1
  9
$SHADEDGE
 70
     3
  9
$SHADEDIF
 70
    70
  9
$TILEMODE
 70
     1
  9
$MAXACTVP
 70
    64
  9
$PINSBASE
 10
0.0
 20
0.0
 30
0.0
  9
$PLIMCHECK
 70
     0
  9
$PEXTMIN
 10
-0.5
 20
-0.5
 30
-0.5
  9
$PEXTMAX
 10
5.0
 20
5.0
 30
5.0
  9
$PLIMMIN
 10
-0.5
 20
-0.5
  9
$PLIMMAX
 10
5.0
 20
5.0
  9
$UNITMODE
 70
     0
  9
$VISRETAIN
 70
     0
  9
$PLINEGEN
 70
     1
  9
$PSLTSCALE
 70
     0
  9
$TREEDEPTH
 70
  3020
  9
$CMLSTYLE
  2
Standard
  9
$CMLJUST
 70
     0
  9
$CMLSCALE
 40
1.0
  9
$PROXYGRAPHICS
 70
     0
  9
$MEASUREMENT
 70
     1
  9
$CELWEIGHT
370
     0
  9
$ENDCAPS
280
     0
  9
$JOINSTYLE
280
     0
  9
$LWDISPLAY
290
     0
  9
$INSUNITS
 70
     0
  9
$HYPERLINKBASE
  1

  9
$STYLESHEET
  1

  9
$XEDIT
290
     1
  9
$CEPSNTYPE
380
     0
  9
$PSTYLEMODE
290
     1
  9
$FINGERPRINTGUID
  2

  9
$VERSIONGUID
  2
{3B80EE67-F105-45AC-B99D-4A5B575E5427}
  9
$EXTNAMES
290
     1
  9
$PSVPSCALE
 40
0.0
  9
$OLESTARTUP
290
     0
  0
ENDSEC
  0
SECTION
  2
CLASSES
  0
CLASS
  1
IMAGE
  2
AcDbRasterImage
  3
ISM
 90
    34943
280
     0
281
     1
  0
CLASS
  1
DICTIONARYVAR
  2
AcDbDictionaryVar
  3
ObjectDBX Classes
 90
        0
280
     0
281
     0
  0
CLASS
  1
RASTERVARIABLES
  2
AcDbRasterVariables
  3
ISM
 90
    32768
280
     0
281
     0
  0
CLASS
  1
IMAGEDEF
  2
AcDbRasterImageDef
  3
ISM
 90
    32768
280
     0
281
     0
  0
CLASS
  1
IMAGEDEF_REACTOR
  2
AcDbRasterImageDefReactor
  3
ISM
 90
    32769
280
     0
281
     0
  0
CLASS
  1
IDBUFFER
  2
AcDbIdBuffer
  3
ObjectDBX Classes
 90
    32768
280
     0
281
     0
  0
CLASS
  1
SPATIAL_FILTER
  2
AcDbSpatialFilter
  3
ObjectDBX Classes
 90
    32768
280
     0
281
     0
  0
CLASS
  1
SORTENTSTABLE
  2
AcDbSortentsTable
  3
ObjectDBX Classes
 90
    32768
280
     0
281
     0
  0
CLASS
  1
LAYER_INDEX
  2
AcDbLayerIndex
  3
ObjectDBX Classes
 90
    32768
280
     0
281
     0
  0
CLASS
  1
SPATIAL_INDEX
  2
AcDbSpatialIndex
  3
ObjectDBX Classes
 90
    32768
280
     0
281
     0
  0
CLASS
  1
OBJECT_PTR
  2
CAseDLPNTableRecord
  3
ASE-LPNTableRecord
 90
    32769
280
     0
281
     0
  0
CLASS
  1
LAYOUT
  2
AcDbLayout
  3
ObjectDBX Classes
 90
        0
280
     0
281
     0
  0
CLASS
  1
PLOTSETTINGS
  2
AcDbPlotSettings
  3
ObjectDBX Classes
 90
    32768
280
     0
281
     0
  0
CLASS
  1
ACDBDICTIONARYWDFLT
  2
AcDbDictionaryWithDefault
  3
ObjectDBX Classes
 90
        0
280
     0
281
     0
  0
CLASS
  1
ACDBPLACEHOLDER
  2
AcDbPlaceHolder
  3
ObjectDBX Classes
 90
        0
280
     0
281
     0
  0
CLASS
  1
VBA_PROJECT
  2
AcDbVbaProject
  3
acad
 90
    32768
280
     0
281
     0
  0
CLASS
  1
WIPEOUT
  2
AcDbWipeout
  3
"WipeOut|Product Desc: Object Enabler for WipeOut entity                        |Company: Autodesk, Inc.                        |WEB Address: www.autodesk.com"
 90
    34943
280
     0
281
     1
  0
CLASS
  1
WIPEOUTVARIABLES
  2
AcDbWipeoutVariables
  3
"WipeOut|Product Desc:     WipeOut Dbx Application|Company:          Autodesk, Inc.|WEB Address:      www.autodesk.com"
 90
        0
280
     0
281
     0
  0
CLASS
  1
RTEXT
  2
RText
  3
RText|AutoCAD Express Tool|expresstools@autodesk.com
 90
    35839
280
     0
281
     1
  0
CLASS
  1
ARCALIGNEDTEXT
  2
AcDbArcAlignedText
  3
ATEXT|AutoCAD Express Tool|expresstools@autodesk.com
 90
    32768
280
     0
281
     1
  0
CLASS
  1
SCALE
  2
AcDbScale
  3
ObjectDBX Classes
 90
     1153
280
     0
281
     0
  0
CLASS
  1
MATERIAL
  2
AcDbMaterial
  3
ObjectDBX Classes
 90
     1153
280
     0
281
     0
  0
CLASS
  1
VISUALSTYLE
  2
AcDbVisualStyle
  3
ObjectDBX Classes
 90
     4095
280
     0
281
     0
  0
CLASS
  1
TABLESTYLE
  2
AcDbTableStyle
  3
ObjectDBX Classes
 90
     4095
280
     0
281
     0
  0
CLASS
  1
MLEADERSTYLE
  2
AcDbMLeaderStyle
  3
ACDB_MLEADERSTYLE_CLASS
 90
     4095
280
     0
281
     0
  0
CLASS
  1
CELLSTYLEMAP
  2
AcDbCellStyleMap
  3
ObjectDBX Classes
 90
     1152
280
     0
281
     0
  0
ENDSEC
  0
SECTION
  2
TABLES
  0
TABLE
  2
VPORT
  5
7
330
0
100
AcDbSymbolTable
 70
    16
  0
VPORT
  5
13E
330
7
100
AcDbSymbolTableRecord
100
AcDbViewportTableRecord
  2
*ACTIVE
 70
     0
 10
0.0
 20
0.0
 11
1.0
 21
1.0
 12
197.3901740134228
 22
23.892498
 13
0.0
 23
0.0
 14
1.0
 24
1.0
 15
0.0
 25
0.0
 16
0.0
 26
0.0
 36
1.0
 17
0.0
 27
0.0
 37
0.0
 40
254.0419562628023
 41
2.186577181208053
 42
50.0
 43
274.598704
 44
-274.598704
 50
0.0
 51
0.0
 71
    16
 72
   100
 73
     1
 74
     1
 75
     0
 76
     0
 77
     0
 78
     0
281
     0
 65
     0
110
0.0
120
0.0
130
0.0
111
1.0
121
0.0
131
0.0
112
0.0
122
1.0
132
0.0
 79
     0
146
0.0
  0
VPORT
  5
13F
330
7
100
AcDbSymbolTableRecord
100
AcDbViewportTableRecord
  2
L1
 70
     0
 10
0.0
 20
0.0
 11
1.0
 21
1.0
 12
7.1425
 22
23.892498
 13
0.0
 23
0.0
 14
1.0
 24
1.0
 15
0.0
 25
0.0
 16
0.0
 26
0.0
 36
1.0
 17
0.0
 27
0.0
 37
0.0
 40
254.0
 41
0.6885640000000001
 42
50.0
 43
274.598704
 44
-274.598704
 50
0.0
 51
0.0
 71
    16
 72
   100
 73
     1
 74
     1
 75
     0
 76
     0
 77
     0
 78
     0
281
     0
 65
     0
110
0.0
120
0.0
130
0.0
111
1.0
121
0.0
131
0.0
112
0.0
122
1.0
132
0.0
 79
     0
146
0.0
  0
VPORT
  5
140
330
7
100
AcDbSymbolTableRecord
100
AcDbViewportTableRecord
  2
L2
 70
     0
 10
0.0
 20
0.0
 11
0.5
 21
1.0
 12
0.0
 22
0.0
 13
0.0
 23
0.0
 14
1.0
 24
1.0
 15
0.0
 25
0.0
 16
0.0
 26
-1.0
 36
0.0
 17
0.0
 27
0.0
 37
0.0
 40
1583.996559
 41
0.688564
 42
50.0
 43
815.290728
 44
-815.290728
 50
0.0
 51
0.0
 71
    16
 72
   100
 73
     1
 74
     1
 75
     0
 76
     0
 77
     0
 78
     0
281
     0
 65
     0
110
0.0
120
0.0
130
0.0
111
1.0
121
0.0
131
0.0
112
0.0
122
1.0
132
0.0
 79
     0
146
0.0
  0
VPORT
  5
141
330
7
100
AcDbSymbolTableRecord
100
AcDbViewportTableRecord
  2
L2
 70
     0
 10
0.5
 20
0.0
 11
1.0
 21
1.0
 12
0.0
 22
0.0
 13
0.0
 23
0.0
 14
1.0
 24
1.0
 15
0.0
 25
0.0
 16
1.0
 26
0.0
 36
0.0
 17
0.0
 27
0.0
 37
0.0
 40
1583.996559
 41
0.688564
 42
50.0
 43
802.116123
 44
-802.116123
 50
0.0
 51
0.0
 71
    16
 72
   100
 73
     1
 74
     1
 75
     0
 76
     0
 77
     0
 78
     0
281
     0
 65
     0
110
0.0
120
0.0
130
0.0
111
1.0
121
0.0
131
0.0
112
0.0
122
1.0
132
0.0
 79
     0
146
0.0
  0
VPORT
  5
142
330
7
100
AcDbSymbolTableRecord
100
AcDbViewportTableRecord
  2
L3
 70
     0
 10
0.0
 20
0.5
 11
1.0
 21
1.0
 12
7.1425
 22
23.892498
 13
0.0
 23
0.0
 14
1.0
 24
1.0
 15
0.0
 25
0.0
 16
0.0
 26
0.0
 36
1.0
 17
0.0
 27
0.0
 37
0.0
 40
254.0
 41
0.6885640000000001
 42
50.0
 43
274.598704
 44
-274.598704
 50
0.0
 51
0.0
 71
    16
 72
   100
 73
     1
 74
     1
 75
     0
 76
     0
 77
     0
 78
     0
281
     0
 65
     0
110
0.0
120
0.0
130
0.0
111
1.0
121
0.0
131
0.0
112
0.0
122
1.0
132
0.0
 79
     0
146
0.0
  0
VPORT
  5
143
330
7
100
AcDbSymbolTableRecord
100
AcDbViewportTableRecord
  2
L3
 70
     0
 10
0.0
 20
0.0
 11
1.0
 21
0.5
 12
0.0
 22
0.0
 13
0.0
 23
0.0
 14
1.0
 24
1.0
 15
0.0
 25
0.0
 16
0.0
 26
-1.0
 36
0.0
 17
0.0
 27
0.0
 37
0.0
 40
1583.996559
 41
0.688564
 42
50.0
 43
815.290728
 44
-815.290728
 50
0.0
 51
0.0
 71
    16
 72
   100
 73
     1
 74
     1
 75
     0
 76
     0
 77
     0
 78
     0
281
     0
 65
     0
110
0.0
120
0.0
130
0.0
111
1.0
121
0.0
131
0.0
112
0.0
122
1.0
132
0.0
 79
     0
146
0.0
  0
VPORT
  5
144
330
7
100
AcDbSymbolTableRecord
100
AcDbViewportTableRecord
  2
L4
 70
     0
 10
0.0
 20
0.5
 11
0.5
 21
1.0
 12
7.1425
 22
23.892498
 13
0.0
 23
0.0
 14
1.0
 24
1.0
 15
0.0
 25
0.0
 16
0.0
 26
0.0
 36
1.0
 17
0.0
 27
0.0
 37
0.0
 40
254.0
 41
0.6885640000000001
 42
50.0
 43
274.598704
 44
-274.598704
 50
0.0
 51
0.0
 71
    16
 72
   100
 73
     1
 74
     1
 75
     0
 76
     0
 77
     0
 78
     0
281
     0
 65
     0
110
0.0
120
0.0
130
0.0
111
1.0
121
0.0
131
0.0
112
0.0
122
1.0
132
0.0
 79
     0
146
0.0
  0
VPORT
  5
145
330
7
100
AcDbSymbolTableRecord
100
AcDbViewportTableRecord
  2
L4
 70
     0
 10
0.0
 20
0.0
 11
0.5
 21
0.5
 12
0.0
 22
0.0
 13
0.0
 23
0.0
 14
1.0
 24
1.0
 15
0.0
 25
0.0
 16
0.0
 26
-1.0
 36
0.0
 17
0.0
 27
0.0
 37
0.0
 40
1583.996559
 41
0.688564
 42
50.0
 43
815.290728
 44
-815.290728
 50
0.0
 51
0.0
 71
    16
 72
   100
 73
     1
 74
     1
 75
     0
 76
     0
 77
     0
 78
     0
281
     0
 65
     0
110
0.0
120
0.0
130
0.0
111
1.0
121
0.0
131
0.0
112
0.0
122
1.0
132
0.0
 79
     0
146
0.0
  0
VPORT
  5
146
330
7
100
AcDbSymbolTableRecord
100
AcDbViewportTableRecord
  2
L4
 70
     0
 10
0.5
 20
0.0
 11
1.0
 21
0.5
 12
0.0
 22
0.0
 13
0.0
 23
0.0
 14
1.0
 24
1.0
 15
0.0
 25
0.0
 16
1.0
 26
0.0
 36
0.0
 17
0.0
 27
0.0
 37
0.0
 40
1583.996559
 41
0.688564
 42
50.0
 43
802.116123
 44
-802.116123
 50
0.0
 51
0.0
 71
    16
 72
   100
 73
     1
 74
     1
 75
     0
 76
     0
 77
     0
 78
     0
281
     0
 65
     0
110
0.0
120
0.0
130
0.0
111
1.0
121
0.0
131
0.0
112
0.0
122
1.0
132
0.0
 79
     0
146
0.0
  0
VPORT
  5
147
330
7
100
AcDbSymbolTableRecord
100
AcDbViewportTableRecord
  2
L4
 70
     0
 10
0.5
 20
0.5
 11
1.0
 21
1.0
 12
0.0
 22
0.0
 13
0.0
 23
0.0
 14
1.0
 24
1.0
 15
0.0
 25
0.0
 16
0.5773500000000001
 26
-0.5773500000000001
 36
0.5773500000000001
 17
0.0
 27
0.0
 37
0.0
 40
1555.005323
 41
0.6885640000000001
 42
50.0
 43
809.8560009999999
 44
-809.8560009999999
 50
0.0
 51
0.0
 71
    16
 72
   100
 73
     1
 74
     1
 75
     0
 76
     0
 77
     0
 78
     0
281
     0
 65
     0
110
0.0
120
0.0
130
0.0
111
1.0
121
0.0
131
0.0
112
0.0
122
1.0
132
0.0
 79
     0
146
0.0
  0
VPORT
  5
148
330
7
100
AcDbSymbolTableRecord
100
AcDbViewportTableRecord
  2
L6
 70
     0
 10
0.0
 20
0.5
 11
0.333333
 21
1.0
 12
0.0
 22
0.0
 13
0.0
 23
0.0
 14
1.0
 24
1.0
 15
0.0
 25
0.0
 16
0.718873
 26
-0.5850489999999999
 36
0.375419
 17
0.0
 27
0.0
 37
0.0
 40
1641.004744
 41
0.6885640000000001
 42
50.0
 43
849.6493710000001
 44
-849.6493710000001
 50
0.0
 51
0.0
 71
    16
 72
   100
 73
     1
 74
     1
 75
     0
 76
     0
 77
     0
 78
     0
281
     0
 65
     0
110
0.0
120
0.0
130
0.0
111
1.0
121
0.0
131
0.0
112
0.0
122
1.0
132
0.0
 79
     0
146
0.0
  0
VPORT
  5
149
330
7
100
AcDbSymbolTableRecord
100
AcDbViewportTableRecord
  2
L6
 70
     0
 10
0.0
 20
0.0
 11
0.333333
 21
0.5
 12
0.0
 22
0.0
 13
0.0
 23
0.0
 14
1.0
 24
1.0
 15
0.0
 25
0.0
 16
-1.0
 26
0.0
 36
0.0
 17
0.0
 27
0.0
 37
0.0
 40
1583.996559
 41
0.688564
 42
50.0
 43
802.116123
 44
-802.116123
 50
0.0
 51
0.0
 71
    16
 72
   100
 73
     1
 74
     1
 75
     0
 76
     0
 77
     0
 78
     0
281
     0
 65
     0
110
0.0
120
0.0
130
0.0
111
1.0
121
0.0
131
0.0
112
0.0
122
1.0
132
0.0
 79
     0
146
0.0
  0
VPORT
  5
14A
330
7
100
AcDbSymbolTableRecord
100
AcDbViewportTableRecord
  2
L6
 70
     0
 10
0.333333
 20
0.5
 11
0.666667
 21
1.0
 12
7.1425
 22
23.892498
 13
0.0
 23
0.0
 14
1.0
 24
1.0
 15
0.0
 25
0.0
 16
0.0
 26
0.0
 36
1.0
 17
0.0
 27
0.0
 37
0.0
 40
254.0
 41
0.6885640000000001
 42
50.0
 43
274.598704
 44
-274.598704
 50
0.0
 51
0.0
 71
    16
 72
   100
 73
     1
 74
     1
 75
     0
 76
     0
 77
     0
 78
     0
281
     0
 65
     0
110
0.0
120
0.0
130
0.0
111
1.0
121
0.0
131
0.0
112
0.0
122
1.0
132
0.0
 79
     0
146
0.0
  0
VPORT
  5
14B
330
7
100
AcDbSymbolTableRecord
100
AcDbViewportTableRecord
  2
L6
 70
     0
 10
0.333333
 20
0.0
 11
0.666667
 21
0.5
 12
0.0
 22
0.0
 13
0.0
 23
0.0
 14
1.0
 24
1.0
 15
0.0
 25
0.0
 16
0.0
 26
-1.0
 36
0.0
 17
0.0
 27
0.0
 37
0.0
 40
1583.996559
 41
0.688564
 42
50.0
 43
815.290728
 44
-815.290728
 50
0.0
 51
0.0
 71
    16
 72
   100
 73
     1
 74
     1
 75
     0
 76
     0
 77
     0
 78
     0
281
     0
 65
     0
110
0.0
120
0.0
130
0.0
111
1.0
121
0.0
131
0.0
112
0.0
122
1.0
132
0.0
 79
     0
146
0.0
  0
VPORT
  5
14C
330
7
100
AcDbSymbolTableRecord
100
AcDbViewportTableRecord
  2
L6
 70
     0
 10
0.666667
 20
0.5
 11
1.0
 21
1.0
 12
0.0
 22
0.0
 13
0.0
 23
0.0
 14
1.0
 24
1.0
 15
0.0
 25
0.0
 16
0.5773500000000001
 26
-0.5773500000000001
 36
0.5773500000000001
 17
0.0
 27
0.0
 37
0.0
 40
1555.005323
 41
0.6885640000000001
 42
50.0
 43
809.8560009999999
 44
-809.8560009999999
 50
0.0
 51
0.0
 71
    16
 72
   100
 73
     1
 74
     1
 75
     0
 76
     0
 77
     0
 78
     0
281
     0
 65
     0
110
0.0
120
0.0
130
0.0
111
1.0
121
0.0
131
0.0
112
0.0
122
1.0
132
0.0
 79
     0
146
0.0
  0
VPORT
  5
14D
330
7
100
AcDbSymbolTableRecord
100
AcDbViewportTableRecord
  2
L6
 70
     0
 10
0.666667
 20
0.0
 11
1.0
 21
0.5
 12
0.0
 22
0.0
 13
0.0
 23
0.0
 14
1.0
 24
1.0
 15
0.0
 25
0.0
 16
1.0
 26
0.0
 36
0.0
 17
0.0
 27
0.0
 37
0.0
 40
1583.996559
 41
0.688564
 42
50.0
 43
802.116123
 44
-802.116123
 50
0.0
 51
0.0
 71
    16
 72
   100
 73
     1
 74
     1
 75
     0
 76
     0
 77
     0
 78
     0
281
     0
 65
     0
110
0.0
120
0.0
130
0.0
111
1.0
121
0.0
131
0.0
112
0.0
122
1.0
132
0.0
 79
     0
146
0.0
  0
ENDTAB
  0
TABLE
  2
LTYPE
  5
4
330
0
100
AcDbSymbolTable
 70
     9
  0
LTYPE
  5
11
330
4
100
AcDbSymbolTableRecord
100
AcDbLinetypeTableRecord
  2
ByBlock
 70
     0
  3

 72
    65
 73
     0
 40
0.0
  0
LTYPE
  5
12
330
4
100
AcDbSymbolTableRecord
100
AcDbLinetypeTableRecord
  2
ByLayer
 70
     0
  3

 72
    65
 73
     0
 40
0.0
  0
LTYPE
  5
13
330
4
100
AcDbSymbolTableRecord
100
AcDbLinetypeTableRecord
  2
Continuous
 70
     0
  3
Solid line
 72
    65
 73
     0
 40
0.0
  0
LTYPE
  5
24
330
4
100
AcDbSymbolTableRecord
100
AcDbLinetypeTableRecord
  2
DASHED
 70
     0
  3
Dashed
 72
    65
 73
     2
 40
15.0
 49
12.0
 74
     4
 75
     0
340
0
 46
0.0
 50
0.0
 44
0.0
 45
0.0
 49
-3.0
 74
     4
 75
     0
340
0
 46
0.0
 50
0.0
 44
0.0
 45
0.0
  0
LTYPE
  5
25
330
4
100
AcDbSymbolTableRecord
100
AcDbLinetypeTableRecord
  2
HIDDEN
 70
     0
  3
Hidden __ __ __ __ __ __ __ __ __ __ __ __ __ _
 72
    65
 73
     2
 40
9.524999999999996
 49
6.349999999999997
 74
     4
 75
     0
340
0
 46
0.0
 50
0.0
 44
0.0
 45
0.0
 49
-3.174999999999998
 74
     4
 75
     0
340
0
 46
0.0
 50
0.0
 44
0.0
 45
0.0
  0
LTYPE
  5
26
330
4
100
AcDbSymbolTableRecord
100
AcDbLinetypeTableRecord
  2
PHANTOM
 70
     0
  3
____ _ _ ____ _ _ _____ _ _ ____
 72
    65
 73
     6
 40
50.5
 49
18.0
 74
     0
 49
-6.5
 74
     0
 49
6.5
 74
     0
 49
-6.5
 74
     0
 49
6.5
 74
     0
 49
-6.5
 74
     0
  0
LTYPE
  5
27
330
4
100
AcDbSymbolTableRecord
100
AcDbLinetypeTableRecord
  2
CENTER
 70
     0
  3
Dash dot __ . __ . __ . __ . __ . __ . __ . __
 72
    65
 73
     4
 40
25.4
 49
12.7
 74
     4
 75
     0
340
0
 46
0.0
 50
0.0
 44
0.0
 45
0.0
 49
-6.349999999999997
 74
     4
 75
     0
340
0
 46
0.0
 50
0.0
 44
0.0
 45
0.0
 49
0.0
 74
     4
 75
     0
340
0
 46
0.0
 50
0.0
 44
0.0
 45
0.0
 49
-6.349999999999997
 74
     4
 75
     0
340
0
 46
0.0
 50
0.0
 44
0.0
 45
0.0
  0
LTYPE
  5
28
330
4
100
AcDbSymbolTableRecord
100
AcDbLinetypeTableRecord
  2
DOT
 70
     0
  3
.........................
 72
    65
 73
     2
 40
10.0
 49
0.0
 74
     0
 49
-10.0
 74
     0
  0
LTYPE
  5
29
330
4
100
AcDbSymbolTableRecord
100
AcDbLinetypeTableRecord
  2
DASHDOT
 70
     0
  3
_._._._._._._._._._._._._._._._.
 72
    65
 73
     4
 40
70.0
 49
31.0
 74
     0
 49
-13.0
 74
     0
 49
13.0
 74
     0
 49
-13.0
 74
     0
  0
LTYPE
  5
173
330
4
100
AcDbSymbolTableRecord
100
AcDbLinetypeTableRecord
  2
DOT_CENTER
 70
     0
  3
Dot_Center
 72
    65
 73
     4
 40
2.0
 49
1.25
 74
     4
 75
     0
340
0
 46
0.0
 50
0.0
 44
0.0
 45
0.0
 49
-0.25
 74
     4
 75
     0
340
0
 46
0.0
 50
0.0
 44
0.0
 45
0.0
 49
0.25
 74
     4
 75
     0
340
0
 46
0.0
 50
0.0
 44
0.0
 45
0.0
 49
-0.25
 74
     4
 75
     0
340
0
 46
0.0
 50
0.0
 44
0.0
 45
0.0
  0
LTYPE
  5
174
330
4
100
AcDbSymbolTableRecord
100
AcDbLinetypeTableRecord
  2
LONG_DASHED
 70
     0
  3
Long_Dashed
 72
    65
 73
     2
 40
2.0
 49
1.5
 74
     4
 75
     0
340
0
 46
0.0
 50
0.0
 44
0.0
 45
0.0
 49
-0.5
 74
     4
 75
     0
340
0
 46
0.0
 50
0.0
 44
0.0
 45
0.0
  0
ENDTAB
  0
TABLE
  2
LAYER
  5
2
330
0
100
AcDbSymbolTable
 70
    11
  0
LAYER
  5
14
102
{ACAD_XDICTIONARY
360
1CD
102
}
330
2
100
AcDbSymbolTableRecord
100
AcDbLayerTableRecord
  2
0
 70
     0
 62
     7
  6
Continuous
370
    -3
390
1D
  0
LAYER
  5
18E
330
2
100
AcDbSymbolTableRecord
100
AcDbLayerTableRecord
  2
DEFPOINTS
 70
     0
 62
     7
  6
Continuous
290
     0
370
    -3
390
1D
  0
LAYER
  5
18F
102
{ACAD_XDICTIONARY
360
1CF
102
}
330
2
100
AcDbSymbolTableRecord
100
AcDbLayerTableRecord
  2
NOCUT
 70
     0
 62
     7
  6
Continuous
370
    -3
390
1D
  0
LAYER
  5
190
102
{ACAD_XDICTIONARY
360
1D1
102
}
330
2
100
AcDbSymbolTableRecord
100
AcDbLayerTableRecord
  2
CUT
 70
     0
 62
     1
  6
Continuous
370
    -3
390
1D
  0
LAYER
  5
191
102
{ACAD_XDICTIONARY
360
1D3
102
}
330
2
100
AcDbSymbolTableRecord
100
AcDbLayerTableRecord
  2
1
 70
     0
 62
     4
  6
Continuous
370
    -3
390
1D
  0
LAYER
  5
192
102
{ACAD_XDICTIONARY
360
1D5
102
}
330
2
100
AcDbSymbolTableRecord
100
AcDbLayerTableRecord
  2
SK1
 70
     0
 62
     4
  6
Continuous
370
    -3
390
1D
  0
LAYER
  5
193
102
{ACAD_XDICTIONARY
360
1D7
102
}
330
2
100
AcDbSymbolTableRecord
100
AcDbLayerTableRecord
  2
SK4
 70
     0
 62
     2
  6
CENTER
370
    -3
390
1D
  0
LAYER
  5
194
102
{ACAD_XDICTIONARY
360
1D9
102
}
330
2
100
AcDbSymbolTableRecord
100
AcDbLayerTableRecord
  2
4
 70
     0
 62
     2
  6
CENTER
370
    -3
390
1D
  0
LAYER
  5
195
102
{ACAD_XDICTIONARY
360
1DB
102
}
330
2
100
AcDbSymbolTableRecord
100
AcDbLayerTableRecord
  2
SK6
 70
     0
 62
     5
  6
Continuous
370
    -3
390
1D
  0
LAYER
  5
196
102
{ACAD_XDICTIONARY
360
1DD
102
}
330
2
100
AcDbSymbolTableRecord
100
AcDbLayerTableRecord
  2
2
 70
     0
 62
     7
  6
Continuous
370
    -3
390
1D
  0
LAYER
  5
197
102
{ACAD_XDICTIONARY
360
1DF
102
}
330
2
100
AcDbSymbolTableRecord
100
AcDbLayerTableRecord
  2
SK2
 70
     0
 62
     7
  6
Continuous
370
    -3
390
1D
  0
ENDTAB
  0
TABLE
  2
STYLE
  5
3
330
0
100
AcDbSymbolTable
 70
     5
  0
STYLE
  5
17
330
3
100
AcDbSymbolTableRecord
100
AcDbTextStyleTableRecord
  2
Standard
 70
     0
 40
0.0
 41
1.0
 50
0.0
 71
     0
 42
5.0
  3
txt
  4

  0
STYLE
  5
F4
330
3
100
AcDbSymbolTableRecord
100
AcDbTextStyleTableRecord
  2
blockfont
 70
     0
 40
0.0
 41
1.0
 50
0.0
 71
     0
 42
0.2
  3
simplex.shx
  4

  0
STYLE
  5
170
330
3
100
AcDbSymbolTableRecord
100
AcDbTextStyleTableRecord
  2
TXT
 70
     0
 40
8.0
 41
1.0
 50
0.0
 71
     0
 42
8.0
  3
txt
  4

  0
STYLE
  5
171
330
3
100
AcDbSymbolTableRecord
100
AcDbTextStyleTableRecord
  2
SIMPLEX
 70
     0
 40
0.0
 41
1.0
 50
0.0
 71
     0
 42
3.5
  3
simplex
  4

  0
STYLE
  5
172
330
3
100
AcDbSymbolTableRecord
100
AcDbTextStyleTableRecord
  2
S07
 70
     0
 40
0.0
 41
0.7
 50
0.0
 71
     0
 42
2.5
  3
SIMPLEX.shx
  4

  0
ENDTAB
  0
TABLE
  2
VIEW
  5
5
330
0
100
AcDbSymbolTable
 70
     8
  0
VIEW
  5
136
330
5
100
AcDbSymbolTableRecord
100
AcDbViewTableRecord
  2
TOP
 70
     0
 40
254.0
 10
7.1425
 20
23.892498
 41
386.976471
 11
0.0
 21
0.0
 31
1.0
 12
0.0
 22
0.0
 32
0.0
 42
50.0
 43
274.598704
 44
-274.598704
 50
0.0
 71
    16
281
     0
 72
     0
  0
VIEW
  5
137
330
5
100
AcDbSymbolTableRecord
100
AcDbViewTableRecord
  2
FRONT
 70
     0
 40
1583.996559
 10
0.0
 20
0.0
 41
386.976471
 11
0.0
 21
-1.0
 31
0.0
 12
0.0
 22
0.0
 32
0.0
 42
50.0
 43
815.290728
 44
-815.290728
 50
0.0
 71
    16
281
     0
 72
     0
  0
VIEW
  5
138
330
5
100
AcDbSymbolTableRecord
100
AcDbViewTableRecord
  2
RIGHT
 70
     0
 40
1583.996559
 10
0.0
 20
0.0
 41
254.0
 11
1.0
 21
0.0
 31
0.0
 12
0.0
 22
0.0
 32
0.0
 42
50.0
 43
802.116123
 44
-802.116123
 50
0.0
 71
    16
281
     0
 72
     0
  0
VIEW
  5
139
330
5
100
AcDbSymbolTableRecord
100
AcDbViewTableRecord
  2
BACK
 70
     0
 40
1583.996559
 10
0.0
 20
0.0
 41
386.976471
 11
0.0
 21
1.0
 31
0.0
 12
0.0
 22
0.0
 32
0.0
 42
50.0
 43
815.290728
 44
-815.290728
 50
0.0
 71
    16
281
     0
 72
     0
  0
VIEW
  5
13A
330
5
100
AcDbSymbolTableRecord
100
AcDbViewTableRecord
  2
BOTTOM
 70
     0
 40
254.0
 10
0.0
 20
0.0
 41
386.976471
 11
0.0
 21
0.0
 31
-1.0
 12
0.0
 22
0.0
 32
0.0
 42
50.0
 43
791.99828
 44
-791.99828
 50
180.0
 71
    16
281
     0
 72
     0
  0
VIEW
  5
13B
330
5
100
AcDbSymbolTableRecord
100
AcDbViewTableRecord
  2
LEFT
 70
     0
 40
1583.996559
 10
0.0
 20
0.0
 41
254.0
 11
-1.0
 21
0.0
 31
0.0
 12
0.0
 22
0.0
 32
0.0
 42
50.0
 43
802.116123
 44
-802.116123
 50
0.0
 71
    16
281
     0
 72
     0
  0
VIEW
  5
13C
330
5
100
AcDbSymbolTableRecord
100
AcDbViewTableRecord
  2
TFR-ISO
 70
     0
 40
1555.005323
 10
0.0
 20
0.0
 41
453.238809
 11
0.5773500000000001
 21
-0.5773500000000001
 31
0.5773500000000001
 12
0.0
 22
0.0
 32
0.0
 42
50.0
 43
809.8560009999999
 44
-809.8560009999999
 50
0.0
 71
    16
281
     0
 72
     0
  0
VIEW
  5
13D
330
5
100
AcDbSymbolTableRecord
100
AcDbViewTableRecord
  2
TFR-TRI
 70
     0
 40
1641.004744
 10
0.0
 20
0.0
 41
441.270493
 11
0.718873
 21
-0.5850489999999999
 31
0.375419
 12
0.0
 22
0.0
 32
0.0
 42
50.0
 43
849.6493710000001
 44
-849.6493710000001
 50
0.0
 71
    16
281
     0
 72
     0
  0
ENDTAB
  0
TABLE
  2
UCS
  5
6
330
0
100
AcDbSymbolTable
 70
     0
  0
ENDTAB
  0
TABLE
  2
APPID
  5
8
330
0
100
AcDbSymbolTable
 70
     3
  0
APPID
  5
16
330
8
100
AcDbSymbolTableRecord
100
AcDbRegAppTableRecord
  2
ACAD
 70
     0
  0
APPID
  5
1E3
330
8
100
AcDbSymbolTableRecord
100
AcDbRegAppTableRecord
  2
DCO15
 70
     0
  0
APPID
  5
21D
330
8
100
AcDbSymbolTableRecord
100
AcDbRegAppTableRecord
  2
ACAD_MLEADERVER
 70
     0
  0
ENDTAB
  0
TABLE
  2
DIMSTYLE
  5
9
330
0
100
AcDbSymbolTable
 70
     1
100
AcDbDimStyleTable
 71
     0
  0
DIMSTYLE
105
18
102
{ACAD_REACTORS
330
100
330
10C
330
117
330
121
330
12B
330
135
102
}
330
9
100
AcDbSymbolTableRecord
100
AcDbDimStyleTableRecord
  2
Standard
 70
     0
340
17
  0
ENDTAB
  0
TABLE
  2
BLOCK_RECORD
  5
1
330
0
100
AcDbSymbolTable
 70
     6
  0
BLOCK_RECORD
  5
A
330
1
100
AcDbSymbolTableRecord
100
AcDbBlockTableRecord
  2
*MODEL_SPACE
340
20
  0
BLOCK_RECORD
  5
B
330
1
100
AcDbSymbolTableRecord
100
AcDbBlockTableRecord
  2
*PAPER_SPACE
340
21
  0
BLOCK_RECORD
  5
F6
330
1
100
AcDbSymbolTableRecord
100
AcDbBlockTableRecord
  2
_D0
340
0
  0
BLOCK_RECORD
  5
101
330
1
100
AcDbSymbolTableRecord
100
AcDbBlockTableRecord
  2
_D1
340
0
  0
BLOCK_RECORD
  5
10D
330
1
100
AcDbSymbolTableRecord
100
AcDbBlockTableRecord
  2
_D2
340
0
  0
BLOCK_RECORD
  5
118
330
1
100
AcDbSymbolTableRecord
100
AcDbBlockTableRecord
  2
_D3
340
0
  0
BLOCK_RECORD
  5
122
330
1
100
AcDbSymbolTableRecord
100
AcDbBlockTableRecord
  2
_D4
340
0
  0
BLOCK_RECORD
  5
12C
330
1
100
AcDbSymbolTableRecord
100
AcDbBlockTableRecord
  2
_D5
340
0
  0
ENDTAB
  0
ENDSEC
  0
SECTION
  2
BLOCKS
  0
BLOCK
  5
D
330
A
100
AcDbEntity
  8
0
390
1D
100
AcDbBlockBegin
  2
*MODEL_SPACE
 70
     0
 10
0.0
 20
0.0
 30
0.0
  3
*MODEL_SPACE
  1

  0
ENDBLK
  5
E
330
A
100
AcDbEntity
  8
0
390
1D
100
AcDbBlockEnd
  0
BLOCK
  5
F
330
B
100
AcDbEntity
 67
     1
  8
0
390
1D
100
AcDbBlockBegin
  2
*PAPER_SPACE
 70
     0
 10
0.0
 20
0.0
 30
0.0
  3
*PAPER_SPACE
  1

  0
ENDBLK
  5
10
330
B
100
AcDbEntity
 67
     1
  8
0
390
1D
100
AcDbBlockEnd
  0
BLOCK
  5
F7
330
F6
100
AcDbEntity
  8
0
390
1D
100
AcDbBlockBegin
  2
_D0
 70
     0
 10
0.0
 20
0.0
 30
0.0
  3
_D0
  1

  0
MTEXT
  5
F8
330
F6
100
AcDbEntity
  8
2
390
1D
100
AcDbMText
 10
6.891603999999999
 20
75.739271
 30
0.0
 40
4.57
 41
0.0
 71
     7
 72
     5
  1
\W01.000;\Fsimplex.shx;21
  7
SIMPLEX
 73
     2
 44
0.9036139999999999
1001
ACAD
1000
MTEXTBEGIN
1070
    73
1070
     2
1070
    44
1040
0.9036139999999999
1070
    74
1070
     0
1000
MTEXTEND
  0
LINE
  5
FA
330
F6
100
AcDbEntity
  8
2
390
1D
100
AcDbLine
 10
0.0
 20
0.0
 30
0.0
 11
0.0
 21
78.43
 31
0.0
  0
LINE
  5
FB
330
F6
100
AcDbEntity
  8
2
390
1D
100
AcDbLine
 10
21.0
 20
0.0
 30
0.0
 11
21.0
 21
78.43
 31
0.0
  0
LINE
  5
FC
330
F6
100
AcDbEntity
  8
2
390
1D
100
AcDbLine
 10
-11.425
 20
74.93000000000001
 30
0.0
 11
32.425
 21
74.93000000000001
 31
0.0
  0
SOLID
  5
FD
330
F6
100
AcDbEntity
  8
2
390
1D
100
AcDbTrace
 10
0.0
 20
74.93000000000001
 30
0.0
 11
-4.569998
 21
74.32834799999999
 31
0.0
 12
-4.570001999999999
 22
75.53165200000001
 32
0.0
 13
0.0
 23
74.93000000000001
 33
0.0
  0
SOLID
  5
FE
330
F6
100
AcDbEntity
  8
2
390
1D
100
AcDbTrace
 10
21.0
 20
74.93000000000001
 30
0.0
 11
25.569998
 21
75.53165200000001
 31
0.0
 12
25.570002
 22
74.32834799999999
 32
0.0
 13
21.0
 23
74.93000000000001
 33
0.0
  0
ENDBLK
  5
FF
330
F6
100
AcDbEntity
  8
0
390
1D
100
AcDbBlockEnd
  0
BLOCK
  5
102
330
101
100
AcDbEntity
  8
0
390
1D
100
AcDbBlockBegin
  2
_D1
 70
     0
 10
0.0
 20
0.0
 30
0.0
  3
_D1
  1

  0
MTEXT
  5
103
330
101
100
AcDbEntity
  8
SK2
390
1D
100
AcDbMText
 10
-52.73927099999999
 20
21.6375
 30
0.0
 40
4.57
 41
0.0
 71
     7
 72
     5
  1
\W01.000;\Fsimplex.shx;6
  7
SIMPLEX
 11
0.0
 21
1.0
 31
0.0
 73
     2
 44
0.9036139999999999
1001
ACAD
1000
MTEXTBEGIN
1070
    73
1070
     2
1070
    44
1040
0.9036139999999999
1070
    74
1070
     0
1000
MTEXTEND
  0
MTEXT
  5
105
330
101
100
AcDbEntity
  8
SK2
390
1D
100
AcDbMText
 10
-52.73927099999999
 20
12.533203
 30
0.0
 40
4.57
 41
0.0
 71
     7
 72
     5
  1
\W01.000;\Fsimplex.shx;%%c
  7
SIMPLEX
 11
0.0
 21
1.0
 31
0.0
 73
     2
 44
0.9036139999999999
1001
ACAD
1000
MTEXTBEGIN
1070
    73
1070
     2
1070
    44
1040
0.9036139999999999
1070
    74
1070
     0
1000
MTEXTEND
  0
LINE
  5
106
330
101
100
AcDbEntity
  8
SK2
390
1D
100
AcDbLine
 10
-35.6
 20
3.0
 30
0.0
 11
-54.2875
 21
3.0
 31
0.0
  0
LINE
  5
107
330
101
100
AcDbEntity
  8
SK2
390
1D
100
AcDbLine
 10
-35.6
 20
-3.0
 30
0.0
 11
-54.2875
 21
-3.0
 31
0.0
  0
LINE
  5
108
330
101
100
AcDbEntity
  8
SK2
390
1D
100
AcDbLine
 10
-50.7875
 20
-14.425
 30
0.0
 11
-50.7875
 21
25.017396
 31
0.0
  0
SOLID
  5
109
330
101
100
AcDbEntity
  8
SK2
390
1D
100
AcDbTrace
 10
-50.7875
 20
3.0
 30
0.0
 11
-51.389152
 21
7.569998
 31
0.0
 12
-50.185848
 22
7.570002
 32
0.0
 13
-50.7875
 23
3.0
 33
0.0
  0
SOLID
  5
10A
330
101
100
AcDbEntity
  8
SK2
390
1D
100
AcDbTrace
 10
-50.7875
 20
-3.0
 30
0.0
 11
-50.185848
 21
-7.569998
 31
0.0
 12
-51.389152
 22
-7.570002
 32
0.0
 13
-50.7875
 23
-3.0
 33
0.0
  0
ENDBLK
  5
10B
330
101
100
AcDbEntity
  8
0
390
1D
100
AcDbBlockEnd
  0
BLOCK
  5
10E
330
10D
100
AcDbEntity
  8
0
390
1D
100
AcDbBlockBegin
  2
_D2
 70
     0
 10
0.0
 20
0.0
 30
0.0
  3
_D2
  1

  0
MTEXT
  5
10F
330
10D
100
AcDbEntity
  8
2
390
1D
100
AcDbMText
 10
70.26072899999999
 20
20.4125
 30
0.0
 40
4.57
 41
0.0
 71
     7
 72
     5
  1
\W01.000;\Fsimplex.shx;3.55
  7
SIMPLEX
 11
0.0
 21
1.0
 31
0.0
 73
     2
 44
0.9036139999999999
1001
ACAD
1000
MTEXTBEGIN
1070
    73
1070
     2
1070
    44
1040
0.9036139999999999
1070
    74
1070
     0
1000
MTEXTEND
  0
MTEXT
  5
110
330
10D
100
AcDbEntity
  8
2
390
1D
100
AcDbMText
 10
70.26072899999999
 20
11.308203
 30
0.0
 40
4.57
 41
0.0
 71
     7
 72
     5
  1
\W01.000;\Fsimplex.shx;%%c
  7
SIMPLEX
 11
0.0
 21
1.0
 31
0.0
 73
     2
 44
0.9036139999999999
1001
ACAD
1000
MTEXTBEGIN
1070
    73
1070
     2
1070
    44
1040
0.9036139999999999
1070
    74
1070
     0
1000
MTEXTEND
  0
LINE
  5
111
330
10D
100
AcDbEntity
  8
2
390
1D
100
AcDbLine
 10
21.0
 20
-1.774999999999999
 30
0.0
 11
74.2125
 21
-1.774999999999999
 31
0.0
  0
LINE
  5
112
330
10D
100
AcDbEntity
  8
2
390
1D
100
AcDbLine
 10
21.0
 20
1.774999999999999
 30
0.0
 11
74.2125
 21
1.774999999999999
 31
0.0
  0
LINE
  5
113
330
10D
100
AcDbEntity
  8
2
390
1D
100
AcDbLine
 10
72.21250000000001
 20
38.730583
 30
0.0
 11
72.21250000000001
 21
-13.2
 31
0.0
  0
SOLID
  5
114
330
10D
100
AcDbEntity
  8
2
390
1D
100
AcDbTrace
 10
72.21250000000001
 20
-1.774999999999999
 30
0.0
 11
72.81415200000001
 21
-6.344998
 31
0.0
 12
71.61084800000001
 22
-6.345002
 32
0.0
 13
72.21250000000001
 23
-1.774999999999999
 33
0.0
  0
SOLID
  5
115
330
10D
100
AcDbEntity
  8
2
390
1D
100
AcDbTrace
 10
72.21250000000001
 20
1.774999999999999
 30
0.0
 11
71.61084800000001
 21
6.344998
 31
0.0
 12
72.81415200000001
 22
6.345002
 32
0.0
 13
72.21250000000001
 23
1.774999999999999
 33
0.0
  0
ENDBLK
  5
116
330
10D
100
AcDbEntity
  8
0
390
1D
100
AcDbBlockEnd
  0
BLOCK
  5
119
330
118
100
AcDbEntity
  8
0
390
1D
100
AcDbBlockBegin
  2
_D3
 70
     0
 10
0.0
 20
0.0
 30
0.0
  3
_D3
  1

  0
MTEXT
  5
11A
330
118
100
AcDbEntity
  8
SK2
390
1D
100
AcDbMText
 10
-11.108396
 20
90.739271
 30
0.0
 40
4.57
 41
0.0
 71
     7
 72
     5
  1
\W01.000;\Fsimplex.shx;57
  7
SIMPLEX
 73
     2
 44
0.9036139999999999
1001
ACAD
1000
MTEXTBEGIN
1070
    73
1070
     2
1070
    44
1040
0.9036139999999999
1070
    74
1070
     0
1000
MTEXTEND
  0
LINE
  5
11B
330
118
100
AcDbEntity
  8
SK2
390
1D
100
AcDbLine
 10
-36.0
 20
0.0
 30
0.0
 11
-36.0
 21
91.93000000000001
 31
0.0
  0
LINE
  5
11C
330
118
100
AcDbEntity
  8
SK2
390
1D
100
AcDbLine
 10
21.0
 20
0.0
 30
0.0
 11
21.0
 21
91.93000000000001
 31
0.0
  0
LINE
  5
11D
330
118
100
AcDbEntity
  8
SK2
390
1D
100
AcDbLine
 10
-36.0
 20
89.93
 30
0.0
 11
21.0
 21
89.93
 31
0.0
  0
SOLID
  5
11E
330
118
100
AcDbEntity
  8
SK2
390
1D
100
AcDbTrace
 10
-36.0
 20
89.93
 30
0.0
 11
-31.430002
 21
90.531652
 31
0.0
 12
-31.429998
 22
89.328348
 32
0.0
 13
-36.0
 23
89.93
 33
0.0
  0
SOLID
  5
11F
330
118
100
AcDbEntity
  8
SK2
390
1D
100
AcDbTrace
 10
21.0
 20
89.93
 30
0.0
 11
16.430002
 21
89.328348
 31
0.0
 12
16.429998
 22
90.531652
 32
0.0
 13
21.0
 23
89.93
 33
0.0
  0
ENDBLK
  5
120
330
118
100
AcDbEntity
  8
0
390
1D
100
AcDbBlockEnd
  0
BLOCK
  5
123
330
122
100
AcDbEntity
  8
0
390
1D
100
AcDbBlockBegin
  2
_D4
 70
     0
 10
0.0
 20
0.0
 30
0.0
  3
_D4
  1

  0
MTEXT
  5
124
330
122
100
AcDbEntity
  8
2
390
1D
100
AcDbMText
 10
28.2125
 20
45.739278
 30
0.0
 40
4.57
 41
0.0
 71
     7
 72
     5
  1
\W01.000;\Fsimplex.shx;3.175
  7
SIMPLEX
 73
     2
 44
0.9036139999999999
1001
ACAD
1000
MTEXTBEGIN
1070
    73
1070
     2
1070
    44
1040
0.9036139999999999
1070
    74
1070
     0
1000
MTEXTEND
  0
LINE
  5
125
330
122
100
AcDbEntity
  8
2
390
1D
100
AcDbLine
 10
17.825
 20
0.0
 30
0.0
 11
17.825
 21
46.930007
 31
0.0
  0
LINE
  5
126
330
122
100
AcDbEntity
  8
2
390
1D
100
AcDbLine
 10
21.0
 20
0.0
 30
0.0
 11
21.0
 21
46.930007
 31
0.0
  0
LINE
  5
127
330
122
100
AcDbEntity
  8
2
390
1D
100
AcDbLine
 10
51.509979
 20
44.930007
 30
0.0
 11
6.4
 21
44.930007
 31
0.0
  0
SOLID
  5
128
330
122
100
AcDbEntity
  8
2
390
1D
100
AcDbTrace
 10
17.825
 20
44.930007
 30
0.0
 11
13.255002
 21
44.328355
 31
0.0
 12
13.254998
 22
45.531659
 32
0.0
 13
17.825
 23
44.930007
 33
0.0
  0
SOLID
  5
129
330
122
100
AcDbEntity
  8
2
390
1D
100
AcDbTrace
 10
21.0
 20
44.930007
 30
0.0
 11
25.569998
 21
45.531659
 31
0.0
 12
25.570002
 22
44.328355
 32
0.0
 13
21.0
 23
44.930007
 33
0.0
  0
ENDBLK
  5
12A
330
122
100
AcDbEntity
  8
0
390
1D
100
AcDbBlockEnd
  0
BLOCK
  5
12D
330
12C
100
AcDbEntity
  8
0
390
1D
100
AcDbBlockBegin
  2
_D5
 70
     0
 10
0.0
 20
0.0
 30
0.0
  3
_D5
  1

  0
MTEXT
  5
12E
330
12C
100
AcDbEntity
  8
2
390
1D
100
AcDbMText
 10
28.2125
 20
60.73927099999999
 30
0.0
 40
4.57
 41
0.0
 71
     7
 72
     5
  1
\W01.000;\Fsimplex.shx;16.1
  7
SIMPLEX
 73
     2
 44
0.9036139999999999
1001
ACAD
1000
MTEXTBEGIN
1070
    73
1070
     2
1070
    44
1040
0.9036139999999999
1070
    74
1070
     0
1000
MTEXTEND
  0
LINE
  5
12F
330
12C
100
AcDbEntity
  8
2
390
1D
100
AcDbLine
 10
21.0
 20
0.0
 30
0.0
 11
21.0
 21
63.42999999999999
 31
0.0
  0
LINE
  5
130
330
12C
100
AcDbEntity
  8
2
390
1D
100
AcDbLine
 10
4.9
 20
0.0
 30
0.0
 11
4.9
 21
63.42999999999999
 31
0.0
  0
LINE
  5
131
330
12C
100
AcDbEntity
  8
2
390
1D
100
AcDbLine
 10
4.9
 20
59.93
 30
0.0
 11
46.530583
 21
59.93
 31
0.0
  0
SOLID
  5
132
330
12C
100
AcDbEntity
  8
2
390
1D
100
AcDbTrace
 10
21.0
 20
59.93
 30
0.0
 11
16.430002
 21
59.328348
 31
0.0
 12
16.429998
 22
60.531652
 32
0.0
 13
21.0
 23
59.93
 33
0.0
  0
SOLID
  5
133
330
12C
100
AcDbEntity
  8
2
390
1D
100
AcDbTrace
 10
4.9
 20
59.93
 30
0.0
 11
9.469998
 21
60.531652
 31
0.0
 12
9.470002
 22
59.328348
 32
0.0
 13
4.9
 23
59.93
 33
0.0
  0
ENDBLK
  5
134
330
12C
100
AcDbEntity
  8
0
390
1D
100
AcDbBlockEnd
  0
ENDSEC
  0
SECTION
  2
ENTITIES
  0
POINT
  5
2A
330
A
100
AcDbEntity
  8
DEFPOINTS
390
1D
100
AcDbPoint
 10
21.0
 20
0.0
 30
0.0
  0
POINT
  5
2C
330
A
100
AcDbEntity
  8
DEFPOINTS
390
1D
100
AcDbPoint
 10
17.825
 20
0.0
 30
0.0
  0
POINT
  5
2D
330
A
100
AcDbEntity
  8
DEFPOINTS
390
1D
100
AcDbPoint
 10
-36.0
 20
0.0
 30
0.0
  0
POINT
  5
2E
330
A
100
AcDbEntity
  8
DEFPOINTS
390
1D
100
AcDbPoint
 10
0.0
 20
0.0
 30
0.0
  0
POINT
  5
2F
330
A
100
AcDbEntity
  8
DEFPOINTS
390
1D
100
AcDbPoint
 10
21.0
 20
1.774999999999999
 30
0.0
  0
POINT
  5
30
330
A
100
AcDbEntity
  8
DEFPOINTS
390
1D
100
AcDbPoint
 10
21.0
 20
-1.774999999999999
 30
0.0
  0
POINT
  5
31
330
A
100
AcDbEntity
  8
DEFPOINTS
390
1D
100
AcDbPoint
 10
17.825
 20
-1.074999999999999
 30
0.0
  0
POINT
  5
32
330
A
100
AcDbEntity
  8
DEFPOINTS
390
1D
100
AcDbPoint
 10
17.825
 20
1.074999999999999
 30
0.0
  0
POINT
  5
33
330
A
100
AcDbEntity
  8
DEFPOINTS
390
1D
100
AcDbPoint
 10
4.9
 20
0.0
 30
0.0
  0
LINE
  5
40
330
A
100
AcDbEntity
  8
CUT
390
1D
100
AcDbLine
 10
21.0
 20
1.774999999999999
 30
0.0
 11
21.0
 21
1.342267
 31
0.0
  0
LINE
  5
42
330
A
100
AcDbEntity
  8
CUT
390
1D
100
AcDbLine
 10
21.0
 20
1.342267
 30
0.0
 11
21.0
 21
-1.774999999999999
 31
0.0
  0
LINE
  5
43
330
A
100
AcDbEntity
  8
CUT
390
1D
100
AcDbLine
 10
17.825
 20
-1.774999999999999
 30
0.0
 11
21.0
 21
-1.774999999999999
 31
0.0
  0
LINE
  5
44
330
A
100
AcDbEntity
  8
CUT
390
1D
100
AcDbLine
 10
17.825
 20
-1.774999999999999
 30
0.0
 11
17.825
 21
1.774999999999999
 31
0.0
  0
LINE
  5
45
330
A
100
AcDbEntity
  8
CUT
390
1D
100
AcDbLine
 10
21.0
 20
1.774999999999999
 30
0.0
 11
17.825
 21
1.774999999999999
 31
0.0
  0
LINE
  5
49
330
A
100
AcDbEntity
  8
1
390
1D
100
AcDbLine
 10
17.825
 20
-0.018594
 30
0.0
 11
17.825
 21
1.174089999999999
 31
0.0
  0
LINE
  5
4B
330
A
100
AcDbEntity
  8
1
390
1D
100
AcDbLine
 10
17.825
 20
1.074999999999999
 30
0.0
 11
5.605307999999999
 21
1.074999999999999
 31
0.0
  0
LINE
  5
4C
330
A
100
AcDbEntity
  8
1
390
1D
100
AcDbLine
 10
5.605307999999999
 20
-1.074999999999999
 30
0.0
 11
17.825
 21
-1.074999999999999
 31
0.0
  0
LINE
  5
4D
330
A
100
AcDbEntity
  8
1
390
1D
100
AcDbLine
 10
17.958
 20
-1.177
 30
0.0
 11
17.958
 21
-0.678365
 31
0.0
  0
LINE
  5
4E
330
A
100
AcDbEntity
  8
1
390
1D
100
AcDbLine
 10
21.0
 20
-0.5438100000000001
 30
0.0
 11
21.0
 21
0.9973229999999999
 31
0.0
  0
LINE
  5
4F
330
A
100
AcDbEntity
  8
1
390
1D
100
AcDbLine
 10
18.303255
 20
-1.674781999999999
 30
0.0
 11
18.303255
 21
-1.774999999999999
 31
0.0
  0
LINE
  5
50
330
A
100
AcDbEntity
  8
1
390
1D
100
AcDbLine
 10
17.958
 20
-1.177
 30
0.0
 11
18.303255
 21
-1.774999999999999
 31
0.0
  0
LINE
  5
51
330
A
100
AcDbEntity
  8
1
390
1D
100
AcDbLine
 10
0.0
 20
-2.858454
 30
0.0
 11
4.237226999999999
 21
-1.31623
 31
0.0
  0
LINE
  5
52
330
A
100
AcDbEntity
  8
1
390
1D
100
AcDbLine
 10
4.237226999999999
 20
1.31623
 30
0.0
 11
0.0
 21
2.858454
 31
0.0
  0
LINE
  5
53
330
A
100
AcDbEntity
  8
1
390
1D
100
AcDbLine
 10
0.0
 20
2.858454
 30
0.0
 11
0.0
 21
-2.858454
 31
0.0
  0
LINE
  5
54
330
A
100
AcDbEntity
  8
1
390
1D
100
AcDbLine
 10
20.522745
 20
-0.773234
 30
0.0
 11
20.522745
 21
0.9048009999999999
 31
0.0
  0
LINE
  5
55
330
A
100
AcDbEntity
  8
1
390
1D
100
AcDbLine
 10
20.419255
 20
-0.748154
 30
0.0
 11
20.419255
 21
0.9277359999999999
 31
0.0
  0
LINE
  5
56
330
A
100
AcDbEntity
  8
1
390
1D
100
AcDbLine
 10
20.868
 20
-0.523555
 30
0.0
 11
20.868
 21
1.009841999999999
 31
0.0
  0
LINE
  5
57
330
A
100
AcDbEntity
  8
1
390
1D
100
AcDbLine
 10
20.074
 20
-0.39788
 30
0.0
 11
20.074
 21
1.076181
 31
0.0
  0
LINE
  5
58
330
A
100
AcDbEntity
  8
1
390
1D
100
AcDbLine
 10
19.464745
 20
-0.508978
 30
0.0
 11
19.464745
 21
1.129287999999999
 31
0.0
  0
LINE
  5
59
330
A
100
AcDbEntity
  8
1
390
1D
100
AcDbLine
 10
19.361255
 20
-0.482325
 30
0.0
 11
19.361255
 21
1.149982
 31
0.0
  0
LINE
  5
5A
330
A
100
AcDbEntity
  8
1
390
1D
100
AcDbLine
 10
19.81
 20
-0.3548389999999999
 30
0.0
 11
19.81
 21
1.094721999999999
 31
0.0
  0
LINE
  5
5B
330
A
100
AcDbEntity
  8
1
390
1D
100
AcDbLine
 10
19.016
 20
-0.222527
 30
0.0
 11
19.016
 21
1.139407
 31
0.0
  0
LINE
  5
5C
330
A
100
AcDbEntity
  8
1
390
1D
100
AcDbLine
 10
18.406745
 20
-0.231999
 30
0.0
 11
18.406745
 21
1.328657999999999
 31
0.0
  0
LINE
  5
5D
330
A
100
AcDbEntity
  8
1
390
1D
100
AcDbLine
 10
18.303255
 20
-0.204506
 30
0.0
 11
18.303255
 21
1.346602999999999
 31
0.0
  0
LINE
  5
5E
330
A
100
AcDbEntity
  8
1
390
1D
100
AcDbLine
 10
18.752
 20
-0.177776
 30
0.0
 11
18.752
 21
1.150482
 31
0.0
  0
LINE
  5
5F
330
A
100
AcDbEntity
  8
1
390
1D
100
AcDbLine
 10
17.958
 20
-0.041588
 30
0.0
 11
17.958
 21
1.172166999999999
 31
0.0
  0
LINE
  5
60
330
A
100
AcDbEntity
  8
1
390
1D
100
AcDbLine
 10
18.752
 20
-1.177
 30
0.0
 11
18.752
 21
-0.790393
 31
0.0
  0
LINE
  5
61
330
A
100
AcDbEntity
  8
1
390
1D
100
AcDbLine
 10
18.406745
 20
-1.774999999999999
 30
0.0
 11
18.752
 21
-1.177
 31
0.0
  0
LINE
  5
62
330
A
100
AcDbEntity
  8
1
390
1D
100
AcDbLine
 10
18.406745
 20
-1.683626999999999
 30
0.0
 11
18.406745
 21
-1.774999999999999
 31
0.0
  0
LINE
  5
63
330
A
100
AcDbEntity
  8
1
390
1D
100
AcDbLine
 10
19.016
 20
-1.177
 30
0.0
 11
19.361255
 21
-1.774999999999999
 31
0.0
  0
LINE
  5
64
330
A
100
AcDbEntity
  8
1
390
1D
100
AcDbLine
 10
19.361255
 20
-1.745941
 30
0.0
 11
19.361255
 21
-1.774999999999999
 31
0.0
  0
LINE
  5
65
330
A
100
AcDbEntity
  8
1
390
1D
100
AcDbLine
 10
19.016
 20
-1.177
 30
0.0
 11
19.016
 21
-0.825262
 31
0.0
  0
LINE
  5
66
330
A
100
AcDbEntity
  8
1
390
1D
100
AcDbLine
 10
17.825
 20
-1.177
 30
0.0
 11
17.825
 21
-0.6586810000000001
 31
0.0
  0
LINE
  5
67
330
A
100
AcDbEntity
  8
1
390
1D
100
AcDbLine
 10
17.825
 20
-1.177
 30
0.0
 11
17.958
 21
-1.177
 31
0.0
  0
LINE
  5
68
330
A
100
AcDbEntity
  8
1
390
1D
100
AcDbLine
 10
19.81
 20
-0.9217729999999999
 30
0.0
 11
19.81
 21
-1.177
 31
0.0
  0
LINE
  5
69
330
A
100
AcDbEntity
  8
1
390
1D
100
AcDbLine
 10
19.464745
 20
-1.774999999999999
 30
0.0
 11
19.81
 21
-1.177
 31
0.0
  0
LINE
  5
6A
330
A
100
AcDbEntity
  8
1
390
1D
100
AcDbLine
 10
19.464745
 20
-1.750604
 30
0.0
 11
19.464745
 21
-1.774999999999999
 31
0.0
  0
LINE
  5
6B
330
A
100
AcDbEntity
  8
1
390
1D
100
AcDbLine
 10
18.752
 20
-1.177
 30
0.0
 11
19.016
 21
-1.177
 31
0.0
  0
LINE
  5
6C
330
A
100
AcDbEntity
  8
1
390
1D
100
AcDbLine
 10
20.074
 20
-1.177
 30
0.0
 11
20.419255
 21
-1.774999999999999
 31
0.0
  0
LINE
  5
6D
330
A
100
AcDbEntity
  8
1
390
1D
100
AcDbLine
 10
20.419255
 20
-1.774381999999999
 30
0.0
 11
20.419255
 21
-1.774999999999999
 31
0.0
  0
LINE
  5
6E
330
A
100
AcDbEntity
  8
1
390
1D
100
AcDbLine
 10
20.074
 20
-0.950853
 30
0.0
 11
20.074
 21
-1.177
 31
0.0
  0
LINE
  5
6F
330
A
100
AcDbEntity
  8
1
390
1D
100
AcDbLine
 10
20.868
 20
-1.028524999999999
 30
0.0
 11
20.868
 21
-1.177
 31
0.0
  0
LINE
  5
70
330
A
100
AcDbEntity
  8
1
390
1D
100
AcDbLine
 10
19.81
 20
-1.177
 30
0.0
 11
20.074
 21
-1.177
 31
0.0
  0
LINE
  5
71
330
A
100
AcDbEntity
  8
1
390
1D
100
AcDbLine
 10
20.522745
 20
-1.774999999999999
 30
0.0
 11
20.868
 21
-1.177
 31
0.0
  0
LINE
  5
72
330
A
100
AcDbEntity
  8
1
390
1D
100
AcDbLine
 10
20.522745
 20
-1.774886999999999
 30
0.0
 11
20.522745
 21
-1.774999999999999
 31
0.0
  0
LINE
  5
73
330
A
100
AcDbEntity
  8
1
390
1D
100
AcDbLine
 10
21.0
 20
-1.177
 30
0.0
 11
21.0
 21
-1.039962999999999
 31
0.0
  0
LINE
  5
74
330
A
100
AcDbEntity
  8
1
390
1D
100
AcDbLine
 10
18.303255
 20
-1.774999999999999
 30
0.0
 11
18.406745
 21
-1.774999999999999
 31
0.0
  0
LINE
  5
75
330
A
100
AcDbEntity
  8
1
390
1D
100
AcDbLine
 10
20.868
 20
-1.177
 30
0.0
 11
21.0
 21
-1.177
 31
0.0
  0
LINE
  5
76
330
A
100
AcDbEntity
  8
1
390
1D
100
AcDbLine
 10
19.361255
 20
-1.774999999999999
 30
0.0
 11
19.464745
 21
-1.774999999999999
 31
0.0
  0
LINE
  5
77
330
A
100
AcDbEntity
  8
1
390
1D
100
AcDbLine
 10
20.419255
 20
-1.774999999999999
 30
0.0
 11
20.522745
 21
-1.774999999999999
 31
0.0
  0
LINE
  5
78
330
A
100
AcDbEntity
  8
SK1
390
1D
100
AcDbLine
 10
-35.6
 20
3.0
 30
0.0
 11
-36.0
 21
2.6
 31
0.0
  0
LINE
  5
7A
330
A
100
AcDbEntity
  8
SK1
390
1D
100
AcDbLine
 10
-35.6
 20
3.0
 30
0.0
 11
-35.6
 21
2.268619999999999
 31
0.0
  0
LINE
  5
7B
330
A
100
AcDbEntity
  8
SK1
390
1D
100
AcDbLine
 10
-35.6
 20
2.268619999999999
 30
0.0
 11
-35.6
 21
-3.0
 31
0.0
  0
LINE
  5
7C
330
A
100
AcDbEntity
  8
SK1
390
1D
100
AcDbLine
 10
-36.0
 20
-2.6
 30
0.0
 11
-35.6
 21
-3.0
 31
0.0
  0
LINE
  5
7D
330
A
100
AcDbEntity
  8
SK1
390
1D
100
AcDbLine
 10
-36.0
 20
2.6
 30
0.0
 11
-36.0
 21
1.966138
 31
0.0
  0
LINE
  5
7E
330
A
100
AcDbEntity
  8
SK1
390
1D
100
AcDbLine
 10
-36.0
 20
1.966138
 30
0.0
 11
-36.0
 21
-2.6
 31
0.0
  0
LINE
  5
7F
330
A
100
AcDbEntity
  8
SK1
390
1D
100
AcDbLine
 10
-35.6
 20
-3.0
 30
0.0
 11
-0.388894
 21
-3.0
 31
0.0
  0
LINE
  5
80
330
A
100
AcDbEntity
  8
SK1
390
1D
100
AcDbLine
 10
-0.388894
 20
3.0
 30
0.0
 11
-0.388894
 21
2.268619999999999
 31
0.0
  0
LINE
  5
81
330
A
100
AcDbEntity
  8
SK1
390
1D
100
AcDbLine
 10
-0.388894
 20
2.268619999999999
 30
0.0
 11
-0.388894
 21
-3.0
 31
0.0
  0
LINE
  5
82
330
A
100
AcDbEntity
  8
SK1
390
1D
100
AcDbLine
 10
-0.388894
 20
3.0
 30
0.0
 11
-35.6
 21
3.0
 31
0.0
  0
LINE
  5
83
330
A
100
AcDbEntity
  8
SK1
390
1D
100
AcDbLine
 10
0.0
 20
2.858454
 30
0.0
 11
0.0
 21
-2.858454
 31
0.0
  0
LINE
  5
84
330
A
100
AcDbEntity
  8
SK1
390
1D
100
AcDbLine
 10
-0.388894
 20
-3.0
 30
0.0
 11
0.0
 21
-2.858454
 31
0.0
  0
LINE
  5
85
330
A
100
AcDbEntity
  8
SK1
390
1D
100
AcDbLine
 10
0.0
 20
2.858454
 30
0.0
 11
-0.388894
 21
3.0
 31
0.0
  0
ARC
  5
88
330
A
100
AcDbEntity
  8
1
390
1D
100
AcDbCircle
 10
-5.605307999999999
 20
-5.075
 30
0.0
 40
4.0
210
0.0
220
0.0
230
-1.0
100
AcDbArc
 50
70.0
 51
90.0
  0
ARC
  5
89
330
A
100
AcDbEntity
  8
1
390
1D
100
AcDbCircle
 10
-5.605307999999999
 20
5.075
 30
0.0
 40
4.0
210
0.0
220
0.0
230
-1.0
100
AcDbArc
 50
270.0
 51
290.0
  0
SPLINE
  5
8A
330
A
100
AcDbEntity
  8
1
390
1D
100
AcDbSpline
210
0.0
220
0.0
230
1.0
 70
     8
 71
     3
 72
    20
 73
    16
 74
     0
 42
0.0000000001
 43
0.0000000001
 40
0.0
 40
0.0
 40
0.0
 40
0.0
 40
0.2500000000000111
 40
0.2500000000000111
 40
0.3750000000000243
 40
0.3750000000000243
 40
0.4375000000000237
 40
0.4375000000000237
 40
0.500000000000023
 40
0.500000000000023
 40
0.6250000000000215
 40
0.6250000000000215
 40
0.7500000000000203
 40
0.7500000000000203
 40
1.0
 40
1.0
 40
1.0
 40
1.0
 10
16.96568606433544
 20
-0.3491357624679949
 30
0.0000000000000001
 10
16.87443332865894
 20
-0.311103269868056
 30
0.0000000000000001
 10
16.78442604413368
 20
-0.2699224126733384
 30
0.0
 10
16.65182055876949
 20
-0.2022312385865348
 30
0.0
 10
16.607199536167
 20
-0.1798312041440795
 30
0.0
 10
16.54428675041873
 20
-0.1404133805226024
 30
-0.0000000000000001
 10
16.52401965059533
 20
-0.1262650234817215
 30
-0.0000000000000001
 10
16.48898688532364
 20
-0.0901353894799968
 30
-0.0000000000000001
 10
16.47362816878535
 20
-0.064406945545727
 30
0.0
 10
16.50143377450701
 20
0.0061627918135514
 30
0.0000000000000002
 10
16.56209556284698
 20
0.0173212611509825
 30
-0.0000000000000001
 10
16.65950219338936
 20
0.0402002238668047
 30
0.0000000000000001
 10
16.70866698070603
 20
0.04643585226205
 30
0.0
 10
16.85633070140045
 20
0.0596292265874467
 30
0.0000000000000001
 10
16.95528654014464
 20
0.0604680162335853
 30
0.0000000000000001
 10
17.05446625321474
 20
0.0578399013799071
 30
0.0
  0
SPLINE
  5
8B
330
A
100
AcDbEntity
  8
1
390
1D
100
AcDbSpline
210
0.0
220
0.0
230
1.0
 70
    28
 71
     2
 72
     6
 73
     3
 74
     0
 42
0.0000000001
 43
0.0000000001
 40
0.0
 40
0.0
 40
0.0
 40
1.0
 40
1.0
 40
1.0
 10
20.9999999999999
 20
-0.5270234270866129
 30
0.0000000000000001
 41
0.8259029904222273
 10
21.00000000000001
 20
-0.5202870454495326
 30
0.0
 41
0.7097208694227996
 10
21.0
 20
-0.7416140535121941
 30
-0.0000000000000001
 41
1.0
  0
SPLINE
  5
8C
330
A
100
AcDbEntity
  8
1
390
1D
100
AcDbSpline
210
-0.0000000012737272
220
-0.0000000073670849
230
1.0
 70
     8
 71
     3
 72
     8
 73
     4
 74
     0
 42
0.0000000001
 43
0.0000000001
 40
0.0
 40
0.0
 40
0.0
 40
0.0
 40
1.0
 40
1.0
 40
1.0
 40
1.0
 10
17.82500000002841
 20
-0.0185936117246683
 30
0.0
 10
17.86933240025502
 20
-0.0262655146931365
 30
0.0000000000000001
 10
17.91366582157917
 20
-0.0339306997509539
 30
0.0
 10
17.95799999999997
 20
-0.0415884941060085
 30
0.0
  0
SPLINE
  5
8D
330
A
100
AcDbEntity
  8
1
390
1D
100
AcDbSpline
210
0.0
220
0.0
230
1.0
 70
    28
 71
     2
 72
     6
 73
     3
 74
     0
 42
0.0000000001
 43
0.0000000001
 40
0.0
 40
0.0
 40
0.0
 40
1.0
 40
1.0
 40
1.0
 10
17.82500000000001
 20
-0.0185936117199253
 30
0.0
 41
0.8855360409072329
 10
17.82499999999993
 20
-0.0308701612091879
 30
0.0000000000000001
 41
0.8283923728919539
 10
17.825
 20
-0.0637343609964531
 30
0.0000000000000001
 41
0.8064201487729079
  0
SPLINE
  5
8E
330
A
100
AcDbEntity
  8
1
390
1D
100
AcDbSpline
210
0.0000000000010773
220
0.0000000000068277
230
1.0
 70
     8
 71
     3
 72
     8
 73
     4
 74
     0
 42
0.0000000001
 43
0.0000000001
 40
0.0
 40
0.0
 40
0.0
 40
0.0
 40
1.0
 40
1.0
 40
1.0
 40
1.0
 10
17.82500000000005
 20
-0.0637343609810159
 30
0.0000000000000001
 10
17.56808069161872
 20
-0.0237295350530644
 30
0.0
 10
17.31122684546415
 20
0.0167926663022513
 30
-0.0000000000000001
 10
17.0544723758594
 20
0.0578397391338967
 30
0.0000000000000001
  0
SPLINE
  5
8F
330
A
100
AcDbEntity
  8
1
390
1D
100
AcDbSpline
210
-0.0000000000000286
220
0.0000000000000071
230
1.0
 70
     8
 71
     3
 72
    17
 73
    13
 74
     0
 42
0.0000000001
 43
0.0000000001
 40
0.0
 40
0.0
 40
0.0
 40
0.0
 40
0.1017363153929833
 40
0.2097544848709446
 40
0.3320783875261011
 40
0.4487373532096823
 40
0.5587956801842972
 40
0.6616719542958263
 40
0.7571141410699033
 40
0.8451426271424063
 40
0.9259824304839892
 40
1.0
 40
1.0
 40
1.0
 40
1.0
 10
17.05399288150528
 20
0.0579666729540804
 30
0.0000000000000002
 10
17.05103756871642
 20
0.050528413152847
 30
0.0000000000000001
 10
17.04494446313009
 20
0.0351926075762776
 30
0.0
 10
17.03504318984432
 20
0.0069736622766641
 30
0.0
 10
17.02488670679344
 20
-0.0254004238578318
 30
0.0
 10
17.01531652319642
 20
-0.0607963845922086
 30
0.0
 10
17.00674553339314
 20
-0.0960459993855238
 30
0.0000000000000001
 10
16.99921169753839
 20
-0.1301241722874806
 30
0.0000000000000001
 10
16.99270114724266
 20
-0.1622580815854349
 30
0.0000000000000001
 10
16.98724711026932
 20
-0.1919363920154638
 30
0.0000000000000001
 10
16.98275852328163
 20
-0.2189838494312539
 30
0.0000000000000001
 10
16.9805212569097
 20
-0.2357732967782908
 30
0.0000000000000001
 10
16.97945190505288
 20
-0.2437981913196836
 30
0.0000000000000001
  0
SPLINE
  5
90
330
A
100
AcDbEntity
  8
1
390
1D
100
AcDbSpline
210
-0.0000000000003697
220
-0.0000000000001272
230
1.0
 70
     8
 71
     3
 72
    12
 73
     8
 74
     0
 42
0.0000000001
 43
0.0000000001
 40
0.0
 40
0.0
 40
0.0
 40
0.0
 40
0.4999999999999972
 40
0.4999999999999972
 40
0.7499999999999986
 40
0.7499999999999986
 40
1.0
 40
1.0
 40
1.0
 40
1.0
 10
18.28908428661151
 20
-1.636937018528441
 30
0.0000000000000001
 10
18.23471695807609
 20
-1.497123928276436
 30
-0.0000000000000001
 10
18.18024329533415
 20
-1.34638235515581
 30
-0.0000000000000001
 10
18.09686138493457
 20
-1.103987097447258
 30
-0.0000000000000001
 10
18.06866968931648
 20
-1.020049459203847
 30
0.0000000000000001
 10
18.01303580146254
 20
-0.8509053097835703
 30
0.0000000000000001
 10
17.9854207121187
 20
-0.7652224523884571
 30
0.0
 10
17.95799999999997
 20
-0.6783653574865412
 30
0.0000000000000001
  0
SPLINE
  5
91
330
A
100
AcDbEntity
  8
1
390
1D
100
AcDbSpline
210
-0.0000000000068519
220
-0.0000000000735324
230
1.0
 70
     8
 71
     3
 72
     8
 73
     4
 74
     0
 42
0.0000000001
 43
0.0000000001
 40
0.0
 40
0.0
 40
0.0
 40
0.0
 40
1.0
 40
1.0
 40
1.0
 40
1.0
 10
18.42074203310716
 20
-1.64920506249598
 30
-0.0000000000000001
 10
18.37685611760855
 20
-1.645219928423728
 30
0.0000000000000001
 10
18.33297020211
 20
-1.641130378578964
 30
0.0000000000000002
 10
18.28908428661151
 20
-1.636937018528441
 30
0.0
  0
SPLINE
  5
92
330
A
100
AcDbEntity
  8
1
390
1D
100
AcDbSpline
210
0.000000000092623
220
0.0000000006036303
230
1.0
 70
     8
 71
     3
 72
     8
 73
     4
 74
     0
 42
0.0000000001
 43
0.0000000001
 40
0.0
 40
0.0
 40
0.0
 40
0.0
 40
1.0
 40
1.0
 40
1.0
 40
1.0
 10
20.86799999999999
 20
-0.5235554831743912
 30
0.0
 10
20.91199993255316
 20
-0.5303401368499863
 30
0.0000000000000001
 10
20.95599996169142
 20
-0.5370920706501466
 30
0.0
 10
21.0000000000004
 20
-0.5438098574828132
 30
0.0000000000000001
  0
SPLINE
  5
93
330
A
100
AcDbEntity
  8
1
390
1D
100
AcDbSpline
210
0.0000000000701243
220
0.0000000004301079
230
1.0
 70
     8
 71
     3
 72
     8
 73
     4
 74
     0
 42
0.0000000001
 43
0.0000000001
 40
0.0
 40
0.0
 40
0.0
 40
0.0
 40
1.0
 40
1.0
 40
1.0
 40
1.0
 10
19.81
 20
-0.3548389849134424
 30
0.0
 10
19.89800021855575
 20
-0.3692756166113327
 30
0.0
 10
19.98600052676948
 20
-0.3836263483008224
 30
0.0000000000000002
 10
20.07400000000001
 20
-0.3978801588060605
 30
0.0000000000000001
  0
SPLINE
  5
94
330
A
100
AcDbEntity
  8
1
390
1D
100
AcDbSpline
210
0.0
220
0.0
230
1.0
 70
    28
 71
     2
 72
     6
 73
     3
 74
     0
 42
0.0000000001
 43
0.0000000001
 40
0.0
 40
0.0
 40
0.0
 40
1.0
 40
1.0
 40
1.0
 10
20.999999999995
 20
-0.7416140535116825
 30
0.0000000000000001
 41
1.0
 10
20.99999999999502
 20
-0.8956124025890941
 30
0.0000000000000001
 41
0.9835396928448108
 10
20.99999999999497
 20
-1.039962588322719
 30
0.0
 41
0.9753467507526957
  0
SPLINE
  5
95
330
A
100
AcDbEntity
  8
1
390
1D
100
AcDbSpline
210
0.0
220
0.0
230
1.0
 70
     8
 71
     3
 72
     8
 73
     4
 74
     0
 42
0.0000000001
 43
0.0000000001
 40
0.0
 40
0.0
 40
0.0
 40
0.0
 40
1.0
 40
1.0
 40
1.0
 40
1.0
 10
18.75200000000001
 20
-0.1777756497240262
 30
0.0
 10
18.83999924375007
 20
-0.192743842408504
 30
0.0
 10
18.92799972346472
 20
-0.207663582338796
 30
0.0
 10
19.01600000000002
 20
-0.2225265128772094
 30
0.0
  0
SPLINE
  5
96
330
A
100
AcDbEntity
  8
1
390
1D
100
AcDbSpline
210
-0.0000000001264217
220
-0.0000000008541848
230
1.0
 70
     8
 71
     3
 72
     8
 73
     4
 74
     0
 42
0.0000000001
 43
0.0000000001
 40
0.0
 40
0.0
 40
0.0
 40
0.0
 40
1.0
 40
1.0
 40
1.0
 40
1.0
 10
17.95799999999997
 20
-0.6783653574865412
 30
-0.0000000000000001
 10
17.91366812348673
 20
-0.671843709976713
 30
0.0
 10
17.86933478731368
 20
-0.6652815660012266
 30
0.0000000000000001
 10
17.82499999999999
 20
-0.6586812197957102
 30
0.0
  0
SPLINE
  5
97
330
A
100
AcDbEntity
  8
1
390
1D
100
AcDbSpline
210
0.0
220
0.0
230
1.0
 70
    28
 71
     2
 72
     6
 73
     3
 74
     0
 42
0.0000000001
 43
0.0000000001
 40
0.0
 40
0.0
 40
0.0
 40
1.0
 40
1.0
 40
1.0
 10
17.82500000000002
 20
-0.4779082374989447
 30
0.0000000000000001
 41
0.9888877557261185
 10
17.82499999999997
 20
-0.5676629859193274
 30
0.0000000000000001
 41
0.9811371700196124
 10
17.82499999999994
 20
-0.6586812198014048
 30
0.0000000000000001
 41
0.9761599472225526
  0
SPLINE
  5
98
330
A
100
AcDbEntity
  8
1
390
1D
100
AcDbSpline
210
-0.0000000000001984
220
0.0000000000000827
230
1.0
 70
     8
 71
     3
 72
    12
 73
     8
 74
     0
 42
0.0000000001
 43
0.0000000001
 40
0.0
 40
0.0
 40
0.0
 40
0.0
 40
0.5000000000000038
 40
0.5000000000000038
 40
0.7500000000000019
 40
0.7500000000000019
 40
1.0
 40
1.0
 40
1.0
 40
1.0
 10
19.81
 20
-0.9217732287488049
 30
-0.0000000000000001
 10
19.75577613831405
 20
-1.07059271420104
 30
0.0000000000000001
 10
19.70036599158328
 20
-1.212043293638884
 30
0.0
 10
19.6165329549396
 20
-1.413936458586021
 30
0.0000000000000001
 10
19.58832923448938
 20
-1.479745043954323
 30
0.0000000000000001
 10
19.53232950485864
 20
-1.606090676639041
 30
-0.0000000000000001
 10
19.50451696741026
 20
-1.666686577531664
 30
0.0000000000000001
 10
19.47685796773311
 20
-1.724638241317336
 30
0.0000000000000001
  0
SPLINE
  5
99
330
A
100
AcDbEntity
  8
1
390
1D
100
AcDbSpline
210
0.0000000000000411
220
0.0000000000000171
230
1.0
 70
     8
 71
     3
 72
     8
 73
     4
 74
     0
 42
0.0000000001
 43
0.0000000001
 40
0.0
 40
0.0
 40
0.0
 40
0.0
 40
1.0
 40
1.0
 40
1.0
 40
1.0
 10
20.40937501478004
 20
-1.756232671456757
 30
0.0
 10
20.29993965959557
 20
-1.554261605743704
 30
0.0000000000000001
 10
20.18541216454156
 20
-1.276379357954227
 30
0.0
 10
20.07400000000001
 20
-0.9508530162253235
 30
-0.0000000000000001
  0
SPLINE
  5
9A
330
A
100
AcDbEntity
  8
1
390
1D
100
AcDbSpline
210
0.0000000000000135
220
0.0000000000010074
230
1.0
 70
     8
 71
     3
 72
     8
 73
     4
 74
     0
 42
0.0000000001
 43
0.0000000001
 40
0.0
 40
0.0
 40
0.0
 40
0.0
 40
1.0
 40
1.0
 40
1.0
 40
1.0
 10
20.53231482062387
 20
-1.757875514160786
 30
0.0
 10
20.49133488534261
 20
-1.757427249681541
 30
0.0000000000000001
 10
20.45035495006147
 20
-1.756879471093611
 30
0.0000000000000001
 10
20.40937501478044
 20
-1.756232671457496
 30
0.0
  0
SPLINE
  5
9B
330
A
100
AcDbEntity
  8
1
390
1D
100
AcDbSpline
210
0.0000000000046723
220
0.0000000000424163
230
1.0
 70
     8
 71
     3
 72
     8
 73
     4
 74
     0
 42
0.0000000001
 43
0.0000000001
 40
0.0
 40
0.0
 40
0.0
 40
0.0
 40
1.0
 40
1.0
 40
1.0
 40
1.0
 10
20.07400000000001
 20
-0.9508530162253235
 30
0.0000000000000001
 10
19.98599953011416
 20
-0.9414229724948198
 30
0.0
 10
19.89799922830514
 20
-0.9317267932839286
 30
0.0
 10
19.81
 20
-0.9217732287488049
 30
-0.0000000000000001
  0
SPLINE
  5
9C
330
A
100
AcDbEntity
  8
1
390
1D
100
AcDbSpline
210
0.0000000000002777
220
0.0000000000022902
230
1.0
 70
     8
 71
     2
 72
     6
 73
     3
 74
     0
 42
0.0000000001
 43
0.0000000001
 40
0.0
 40
0.0
 40
0.0
 40
1.0
 40
1.0
 40
1.0
 10
20.80988049297827
 20
1.024688370995306
 30
0.0000000000000001
 10
20.5011804067297
 20
1.060548811670117
 30
0.0000000000000001
 10
20.19184621868447
 20
1.099642059887572
 30
0.0
  0
SPLINE
  5
9D
330
A
100
AcDbEntity
  8
1
390
1D
100
AcDbSpline
210
0.0000000000334884
220
0.0000000002002282
230
1.0
 70
     8
 71
     3
 72
     8
 73
     4
 74
     0
 42
0.0000000001
 43
0.0000000001
 40
0.0
 40
0.0
 40
0.0
 40
0.0
 40
1.0
 40
1.0
 40
1.0
 40
1.0
 10
18.42074203310716
 20
1.333474765624429
 30
0.0000000000000001
 10
18.37685611760861
 20
1.340900050525305
 30
0.0000000000000001
 10
18.33297020211006
 20
1.348240468033055
 30
0.0
 10
18.28908428661151
 20
1.355494503897319
 30
0.0
  0
SPLINE
  5
9E
330
A
100
AcDbEntity
  8
1
390
1D
100
AcDbSpline
210
0.0000000000001388
220
-0.0000000000000642
230
1.0
 70
     8
 71
     3
 72
    12
 73
     8
 74
     0
 42
0.0000000001
 43
0.0000000001
 40
0.0
 40
0.0
 40
0.0
 40
0.0
 40
0.4999999999999963
 40
0.4999999999999963
 40
0.7499999999999982
 40
0.7499999999999982
 40
1.0
 40
1.0
 40
1.0
 40
1.0
 10
20.86799999999999
 20
-1.028524926079114
 30
0.0000000000000001
 10
20.81311077063663
 20
-1.169772748274453
 30
0.0
 10
20.75712718331624
 20
-1.301351417868772
 30
0.0000000000000001
 10
20.67264148518302
 20
-1.484878917612264
 30
0.0
 10
20.64425005888694
 20
-1.543940314835993
 30
0.0
 10
20.58795713075614
 20
-1.655665294924518
 30
-0.0000000000000001
 10
20.56003996187678
 20
-1.708388064822202
 30
0.0
 10
20.53231482062426
 20
-1.757875514160843
 30
0.0
  0
SPLINE
  5
9F
330
A
100
AcDbEntity
  8
1
390
1D
100
AcDbSpline
210
-0.00000000000046
220
-0.0000000000065495
230
1.0
 70
     8
 71
     3
 72
     8
 73
     4
 74
     0
 42
0.0000000001
 43
0.0000000001
 40
0.0
 40
0.0
 40
0.0
 40
0.0
 40
1.0
 40
1.0
 40
1.0
 40
1.0
 10
20.07400000000001
 20
1.076180747507919
 30
0.0000000000000001
 10
19.98599953011416
 20
1.082659885753799
 30
-0.0000000000000001
 10
19.89799922830514
 20
1.088842372539374
 30
0.0000000000000001
 10
19.81
 20
1.094722031554226
 30
0.0000000000000001
  0
SPLINE
  5
A0
330
A
100
AcDbEntity
  8
1
390
1D
100
AcDbSpline
210
-0.0000000000344384
220
-0.000000000155793
230
1.0
 70
     8
 71
     3
 72
     8
 73
     4
 74
     0
 42
0.0000000001
 43
0.0000000001
 40
0.0
 40
0.0
 40
0.0
 40
0.0
 40
1.0
 40
1.0
 40
1.0
 40
1.0
 10
20.53231482062387
 20
0.916962959059788
 30
0.0000000000000001
 10
20.49133488534261
 20
0.9260748557097711
 30
-0.0000000000000001
 10
20.45035495006147
 20
0.9351339284061735
 30
0.0
 10
20.40937501478044
 20
0.9441389442255854
 30
0.0000000000000001
  0
SPLINE
  5
A1
330
A
100
AcDbEntity
  8
1
390
1D
100
AcDbSpline
210
-0.0000000000121732
220
-0.0000000001283528
230
1.0
 70
     8
 71
     3
 72
     8
 73
     4
 74
     0
 42
0.0000000001
 43
0.0000000001
 40
0.0
 40
0.0
 40
0.0
 40
0.0
 40
1.0
 40
1.0
 40
1.0
 40
1.0
 10
21.0
 20
0.9973230073680952
 30
0.0
 10
20.95600000364607
 20
1.001565155096556
 30
-0.0000000000000001
 10
20.91199993215622
 20
1.005738392578223
 30
-0.0000000000000001
 10
20.86799999999999
 20
1.009842030137974
 30
0.0000000000000001
  0
SPLINE
  5
A2
330
A
100
AcDbEntity
  8
1
390
1D
100
AcDbSpline
210
0.0000000000000826
220
0.000000000001968
230
1.0
 70
     8
 71
     3
 72
     8
 73
     4
 74
     0
 42
0.0000000001
 43
0.0000000001
 40
0.0
 40
0.0
 40
0.0
 40
0.0
 40
1.0
 40
1.0
 40
1.0
 40
1.0
 10
19.01600000000002
 20
1.139407336121792
 30
0.0000000000000001
 10
18.9280018971856
 20
1.143417526920132
 30
0.0000000000000001
 10
18.84000181120223
 20
1.147110067029757
 30
0.0
 10
18.75200000000001
 20
1.15048189741384
 30
0.0000000000000001
  0
SPLINE
  5
A3
330
A
100
AcDbEntity
  8
1
390
1D
100
AcDbSpline
210
-0.0000000000341422
220
-0.0000000001738587
230
1.0
 70
     8
 71
     3
 72
     8
 73
     4
 74
     0
 42
0.0000000001
 43
0.0000000001
 40
0.0
 40
0.0
 40
0.0
 40
0.0
 40
1.0
 40
1.0
 40
1.0
 40
1.0
 10
19.47685796773277
 20
1.139183703218577
 30
0.0
 10
19.43419506968218
 20
1.147630950557527
 30
-0.0000000000000001
 10
19.3915321716317
 20
1.156009474024983
 30
0.0000000000000001
 10
19.34886927358127
 20
1.164317882472915
 30
0.0
  0
SPLINE
  5
A4
330
A
100
AcDbEntity
  8
1
390
1D
100
AcDbSpline
210
0.0000000000032338
220
0.0000000000244828
230
1.0
 70
     8
 71
     3
 72
     8
 73
     4
 74
     0
 42
0.0000000001
 43
0.0000000001
 40
0.0
 40
0.0
 40
0.0
 40
0.0
 40
1.0
 40
1.0
 40
1.0
 40
1.0
 10
19.01600000000002
 20
-0.8252617667270101
 30
0.0000000000000001
 10
18.9280018971856
 20
-0.8138572670907818
 30
0.0000000000000001
 10
18.84000181120223
 20
-0.8022294954558333
 30
-0.0000000000000001
 10
18.75200000000001
 20
-0.7903927620673131
 30
0.0000000000000001
  0
SPLINE
  5
A5
330
A
100
AcDbEntity
  8
1
390
1D
100
AcDbSpline
210
0.0000000000017437
220
0.0000000000321931
230
1.0
 70
     8
 71
     3
 72
     8
 73
     4
 74
     0
 42
0.0000000001
 43
0.0000000001
 40
0.0
 40
0.0
 40
0.0
 40
0.0
 40
1.0
 40
1.0
 40
1.0
 40
1.0
 10
19.47685796773277
 20
-1.724638241317336
 30
0.0000000000000001
 10
19.43419506968218
 20
-1.72243054120969
 30
0.0
 10
19.3915321716317
 20
-1.720119573291071
 30
0.0
 10
19.34886927358127
 20
-1.717705893898085
 30
0.0
  0
SPLINE
  5
A6
330
A
100
AcDbEntity
  8
1
390
1D
100
AcDbSpline
210
0.0
220
0.0
230
1.0
 70
     8
 71
     3
 72
    12
 73
     8
 74
     0
 42
0.0000000001
 43
0.0000000001
 40
0.0
 40
0.0
 40
0.0
 40
0.0
 40
0.5
 40
0.5
 40
0.75
 40
0.75
 40
1.0
 40
1.0
 40
1.0
 40
1.0
 10
18.75200000000001
 20
-0.7903927620673131
 30
0.0
 10
18.6982642601846
 20
-0.9434691728381496
 30
-0.0000000000000001
 10
18.64328649651839
 20
-1.09174008312658
 30
0.0000000000000001
 10
18.55993896907694
 20
-1.307637849338334
 30
0.0000000000000001
 10
18.53187350523621
 20
-1.378772759532807
 30
0.0000000000000002
 10
18.47609042207642
 20
-1.516972874884573
 30
-0.0000000000000001
 10
18.44835434317201
 20
-1.584098910783836
 30
0.0000000000000001
 10
18.42074203310722
 20
-1.64920506249598
 30
0.0
  0
SPLINE
  5
A7
330
A
100
AcDbEntity
  8
1
390
1D
100
AcDbSpline
210
0.0
220
0.0
230
1.0
 70
     8
 71
     3
 72
    12
 73
     8
 74
     0
 42
0.0000000001
 43
0.0000000001
 40
0.0
 40
0.0
 40
0.0
 40
0.0
 40
0.4999999999999972
 40
0.4999999999999972
 40
0.7499999999999986
 40
0.7499999999999986
 40
1.0
 40
1.0
 40
1.0
 40
1.0
 10
19.34886927358127
 20
-1.717705893898085
 30
0.0000000000000001
 10
19.29431930153038
 20
-1.595851834760082
 30
0.0000000000000001
 10
19.23956180708905
 20
-1.459691038512743
 30
0.0000000000000001
 10
19.15568316903801
 20
-1.234140697756402
 30
0.0
 10
19.1273201055526
 20
-1.15498854626054
 30
0.0000000000000001
 10
19.07134970163344
 20
-0.9933458272440704
 30
0.0000000000000001
 10
19.04356727461789
 20
-0.9104183025489758
 30
0.0000000000000001
 10
19.01600000000002
 20
-0.8252617667270101
 30
0.0000000000000001
  0
SPLINE
  5
A8
330
A
100
AcDbEntity
  8
1
390
1D
100
AcDbSpline
210
0.0000000000063311
220
0.0000000000730661
230
1.0
 70
     8
 71
     3
 72
     8
 73
     4
 74
     0
 42
0.0000000001
 43
0.0000000001
 40
0.0
 40
0.0
 40
0.0
 40
0.0
 40
1.0
 40
1.0
 40
1.0
 40
1.0
 10
21.0
 20
-1.039962588322453
 30
0.0000000000000001
 10
20.95600000364601
 20
-1.0362216867764
 30
-0.0000000000000001
 10
20.91199993215622
 20
-1.032408928628796
 30
0.0
 10
20.86799999999999
 20
-1.028524926079114
 30
0.0
  0
SPLINE
  5
A9
330
A
100
AcDbEntity
  8
1
390
1D
100
AcDbSpline
210
0.0
220
0.0
230
1.0
 70
    24
 71
     3
 72
     8
 73
     4
 74
     0
 42
0.0000000001
 43
0.0000000001
 40
0.0
 40
0.0
 40
0.0
 40
0.0
 40
1.0
 40
1.0
 40
1.0
 40
1.0
 10
16.96556904503973
 20
-0.3491325587706911
 30
-0.0000000000000001
 10
16.97019666504497
 20
-0.3140211029566444
 30
0.0
 10
16.9748242850502
 20
-0.2789096471425978
 30
-0.0000000000000001
 10
16.97945190505544
 20
-0.2437981913285512
 30
0.0
  0
SPLINE
  5
AA
330
A
100
AcDbEntity
  8
1
390
1D
100
AcDbSpline
210
0.0000000000052108
220
0.0000000000347619
230
1.0
 70
     8
 71
     3
 72
     8
 73
     4
 74
     0
 42
0.0000000001
 43
0.0000000001
 40
0.0
 40
0.0
 40
0.0
 40
0.0
 40
1.0
 40
1.0
 40
1.0
 40
1.0
 10
16.96556797692392
 20
-0.3491400947900729
 30
-0.0000000000000001
 10
17.2521486516888
 20
-0.3925711745219473
 30
0.0000000000000001
 10
17.5385961999703
 20
-0.43569287489197
 30
0.0000000000000001
 10
17.82499999999999
 20
-0.4779082375020495
 30
0.0000000000000001
  0
SPLINE
  5
AB
330
A
100
AcDbEntity
  8
1
390
1D
100
AcDbSpline
210
-0.000000000029463
220
-0.0000000000110334
230
-1.0
 70
     8
 71
     3
 72
     8
 73
     4
 74
     0
 42
0.0000000001
 43
0.0000000001
 40
0.0
 40
0.0
 40
0.0
 40
0.0
 40
1.0
 40
1.0
 40
1.0
 40
1.0
 10
18.30325546097538
 20
-1.674782349742201
 30
0.0
 10
18.2984592833518
 20
-1.662212210895575
 30
0.0
 10
18.2937340608222
 20
-1.649596904414523
 30
0.0000000000000002
 10
18.28908428661146
 20
-1.636937018528441
 30
-0.0000000000000001
  0
SPLINE
  5
AC
330
A
100
AcDbEntity
  8
1
390
1D
100
AcDbSpline
210
0.0000000004553761
220
0.0000000020547805
230
1.0
 70
     8
 71
     3
 72
     8
 73
     4
 74
     0
 42
0.0000000001
 43
0.0000000001
 40
0.0
 40
0.0
 40
0.0
 40
0.0
 40
1.0
 40
1.0
 40
1.0
 40
1.0
 10
20.52274453902459
 20
0.9048007381387037
 30
0.0000000000000002
 10
20.48824524767622
 20
0.9124797650270579
 30
-0.0000000000000001
 10
20.45374892849685
 20
0.920124901026895
 30
-0.0000000000000001
 10
20.41925546097536
 20
0.9277357198112097
 30
0.0
  0
SPLINE
  5
AD
330
A
100
AcDbEntity
  8
1
390
1D
100
AcDbSpline
210
0.0000000002059339
220
0.0000000008497401
230
1.0
 70
     8
 71
     3
 72
     8
 73
     4
 74
     0
 42
0.0000000001
 43
0.0000000001
 40
0.0
 40
0.0
 40
0.0
 40
0.0
 40
1.0
 40
1.0
 40
1.0
 40
1.0
 10
20.41925546097542
 20
-0.7481537779875679
 30
0.0000000000000001
 10
20.45375148660781
 20
-0.7565449607042752
 30
-0.0000000000000001
 10
20.48824774815841
 20
-0.7649054214776357
 30
0.0000000000000001
 10
20.52274453902464
 20
-0.7732341747868646
 30
0.0000000000000001
  0
SPLINE
  5
AE
330
A
100
AcDbEntity
  8
1
390
1D
100
AcDbSpline
210
0.0000000000001772
220
-0.0000000000003136
230
-1.0
 70
     8
 71
     3
 72
     8
 73
     4
 74
     0
 42
0.0000000001
 43
0.0000000001
 40
0.0
 40
0.0
 40
0.0
 40
0.0
 40
1.0
 40
1.0
 40
1.0
 40
1.0
 10
20.83025997725093
 20
-0.5448807938649339
 30
0.0
 10
20.84297264469285
 20
-0.5355444567587142
 30
0.0
 10
20.85555713539873
 20
-0.5284852423174016
 30
-0.0000000000000001
 10
20.86800000000005
 20
-0.5235554831743912
 30
-0.0000000000000001
  0
SPLINE
  5
AF
330
A
100
AcDbEntity
  8
1
390
1D
100
AcDbSpline
210
-0.0000000000099275
220
0.0000000000131498
230
-1.0
 70
     8
 71
     3
 72
    12
 73
     8
 74
     0
 42
0.0000000001
 43
0.0000000001
 40
0.0
 40
0.0
 40
0.0
 40
0.0
 40
0.2499788436087754
 40
0.2499788436087754
 40
0.6249759253072825
 40
0.6249759253072825
 40
1.0
 40
1.0
 40
1.0
 40
1.0
 10
20.6940885308756
 20
-0.6476426338491592
 30
-0.0000000000000001
 10
20.70543500755684
 20
-0.6388452054544587
 30
0.0
 10
20.71678182066324
 20
-0.630107534503054
 30
0.0000000000000002
 10
20.74515024497225
 20
-0.6084098352935144
 30
-0.0000000000000001
 10
20.76217220982414
 20
-0.5955233245543355
 30
-0.0000000000000001
 10
20.79621631880304
 20
-0.5700091989207863
 30
0.0000000000000001
 10
20.81323877079637
 20
-0.5573813742616949
 30
0.0
 10
20.83025997725093
 20
-0.5448807938649339
 30
0.0000000000000001
  0
SPLINE
  5
B0
330
A
100
AcDbEntity
  8
1
390
1D
100
AcDbSpline
210
0.00000000000172
220
-0.0000000000023466
230
1.0
 70
     8
 71
     3
 72
    10
 73
     6
 74
     0
 42
0.0000000001
 43
0.0000000001
 40
0.0
 40
0.0
 40
0.0
 40
0.0
 40
0.4998616652264059
 40
0.4998616652264059
 40
1.0
 40
1.0
 40
1.0
 40
1.0
 10
20.52274453902464
 20
-0.7732341747868646
 30
-0.0000000000000001
 10
20.55128044355206
 20
-0.7535263598630309
 30
0.0000000000000001
 10
20.57982879912504
 20
-0.7332057100039151
 30
0.0000000000000003
 10
20.63694660627516
 20
-0.6913408211332808
 30
0.0000000000000001
 10
20.66552006949428
 20
-0.6697930335204774
 30
0.0000000000000001
 10
20.6940885308756
 20
-0.6476426338491592
 30
0.0000000000000001
  0
SPLINE
  5
B1
330
A
100
AcDbEntity
  8
1
390
1D
100
AcDbSpline
210
-0.0000000002577458
220
0.0000000002028271
230
1.0
 70
     8
 71
     3
 72
     8
 73
     4
 74
     0
 42
0.0000000001
 43
0.0000000001
 40
0.0
 40
0.0
 40
0.0
 40
0.0
 40
1.0
 40
1.0
 40
1.0
 40
1.0
 10
20.53231482062387
 20
0.916962959059788
 30
-0.0000000000000001
 10
20.52916232543976
 20
0.912885632885434
 30
0.0
 10
20.52597179290581
 20
0.9088314455543695
 30
0.0000000000000002
 10
20.52274453902464
 20
0.9048007381387037
 30
0.0
  0
SPLINE
  5
B2
330
A
100
AcDbEntity
  8
1
390
1D
100
AcDbSpline
210
0.0000000000000011
220
-0.0000000000000039
230
1.0
 70
     8
 71
     3
 72
     8
 73
     4
 74
     0
 42
0.0000000001
 43
0.0000000001
 40
0.0
 40
0.0
 40
0.0
 40
0.0
 40
1.0
 40
1.0
 40
1.0
 40
1.0
 10
20.86799999999999
 20
1.009842030137974
 30
0.0000000000000001
 10
20.75822154127326
 20
1.05006142402459
 30
0.0
 10
20.64321538563433
 20
1.01924029134301
 30
0.0000000000000001
 10
20.53231482062426
 20
0.9169629590596741
 30
-0.0000000000000002
  0
SPLINE
  5
B3
330
A
100
AcDbEntity
  8
1
390
1D
100
AcDbSpline
210
-0.0000000020532298
220
-0.0000000012368007
230
-1.0
 70
     8
 71
     3
 72
     8
 73
     4
 74
     0
 42
0.0000000001
 43
0.0000000001
 40
0.0
 40
0.0
 40
0.0
 40
0.0
 40
1.0
 40
1.0
 40
1.0
 40
1.0
 10
20.41925546097542
 20
0.9277357198112097
 30
0.0000000000000001
 10
20.415926818863
 20
0.9332177061002651
 30
0.0000000000000001
 10
20.41263283200419
 20
0.9386853780571298
 30
0.0000000000000001
 10
20.40937501478044
 20
0.9441389442255854
 30
-0.0000000000000002
  0
SPLINE
  5
B4
330
A
100
AcDbEntity
  8
1
390
1D
100
AcDbSpline
210
0.0000000000013463
220
0.0000000000012093
230
1.0
 70
     8
 71
     3
 72
    10
 73
     6
 74
     0
 42
0.0000000001
 43
0.0000000001
 40
0.0
 40
0.0
 40
0.0
 40
0.0
 40
0.4998656146111927
 40
0.4998656146111927
 40
1.0
 40
1.0
 40
1.0
 40
1.0
 10
20.24861785335378
 20
-0.5581907939481426
 30
0.0000000000000002
 10
20.27705953302478
 20
-0.588770632091439
 30
-0.0000000000000001
 10
20.30550192443377
 20
-0.6198953890553299
 30
0.0000000000000001
 10
20.36238346266168
 20
-0.683221818670063
 30
0.0000000000000001
 10
20.3908264613284
 20
-0.7154283036372249
 30
0.0000000000000001
 10
20.41925546097536
 20
-0.7481537779875679
 30
0.0000000000000001
  0
SPLINE
  5
B5
330
A
100
AcDbEntity
  8
1
390
1D
100
AcDbSpline
210
-0.0000000000016997
220
-0.0000000000017237
230
1.0
 70
     8
 71
     3
 72
    12
 73
     8
 74
     0
 42
0.0000000001
 43
0.0000000001
 40
0.0
 40
0.0
 40
0.0
 40
0.0
 40
0.2496348700528949
 40
0.2496348700528949
 40
0.6245795889067446
 40
0.6245795889067446
 40
1.0
 40
1.0
 40
1.0
 40
1.0
 10
20.11405113602007
 20
-0.4253123419736653
 30
0.0000000000000002
 10
20.1253138909413
 20
-0.4354371175092524
 30
0.0
 10
20.13656246808551
 20
-0.4458014851677489
 30
0.0000000000000001
 10
20.16466267589203
 20
-0.4723160702778273
 30
0.0
 10
20.18149773531775
 20
-0.4887639952919471
 30
0.0
 10
20.21510580824452
 20
-0.5227021217426682
 30
0.0000000000000001
 10
20.2318840439375
 20
-0.5401989879300686
 30
-0.0000000000000001
 10
20.24861785335378
 20
-0.5581907939481426
 30
0.0
  0
SPLINE
  5
B6
330
A
100
AcDbEntity
  8
1
390
1D
100
AcDbSpline
210
-0.0000000000001263
220
-0.0000000000001843
230
1.0
 70
     8
 71
     3
 72
     8
 73
     4
 74
     0
 42
0.0000000001
 43
0.0000000001
 40
0.0
 40
0.0
 40
0.0
 40
0.0
 40
1.0
 40
1.0
 40
1.0
 40
1.0
 10
20.07400000000001
 20
-0.3978801588060605
 30
0.0000000000000001
 10
20.08743020172494
 20
-0.4041921082504132
 30
0.0000000000000001
 10
20.10077504231214
 20
-0.4133776537269683
 30
0.0000000000000001
 10
20.11405113602007
 20
-0.4253123419736653
 30
0.0
  0
SPLINE
  5
B7
330
A
100
AcDbEntity
  8
1
390
1D
100
AcDbSpline
210
0.0000000000000012
220
0.0000000000000031
230
1.0
 70
     8
 71
     3
 72
     8
 73
     4
 74
     0
 42
0.0000000001
 43
0.0000000001
 40
0.0
 40
0.0
 40
0.0
 40
0.0
 40
1.0
 40
1.0
 40
1.0
 40
1.0
 10
20.40937501478004
 20
0.944138944226097
 30
0.0000000000000003
 10
20.29993965959557
 20
1.08744487644435
 30
0.0000000000000001
 10
20.18541216454156
 20
1.13607296692129
 30
0.0
 10
20.07400000000001
 20
1.076180747507919
 30
0.0
  0
SPLINE
  5
B8
330
A
100
AcDbEntity
  8
1
390
1D
100
AcDbSpline
210
-0.0000000005959981
220
-0.0000000029805621
230
1.0
 70
     8
 71
     3
 72
     8
 73
     4
 74
     0
 42
0.0000000001
 43
0.0000000001
 40
0.0
 40
0.0
 40
0.0
 40
0.0
 40
1.0
 40
1.0
 40
1.0
 40
1.0
 10
19.46474453902835
 20
1.129288243210282
 30
-0.0000000000000001
 10
19.43024694654008
 20
1.13622650580828
 30
-0.0000000000000001
 10
19.3957506597024
 20
1.143124685232465
 30
0.0000000000000001
 10
19.36125546097537
 20
1.149982004805053
 30
0.0000000000000003
  0
SPLINE
  5
B9
330
A
100
AcDbEntity
  8
1
390
1D
100
AcDbSpline
210
0.0000000002940208
220
0.0000000011416281
230
1.0
 70
     8
 71
     3
 72
     8
 73
     4
 74
     0
 42
0.0000000001
 43
0.0000000001
 40
0.0
 40
0.0
 40
0.0
 40
0.0
 40
1.0
 40
1.0
 40
1.0
 40
1.0
 10
19.36125546097537
 20
-0.4823248058538638
 30
0.0000000000000001
 10
19.39575109673098
 20
-0.4912284980090931
 30
0.0000000000000001
 10
19.43024735405106
 20
-0.5001131970067832
 30
0.0000000000000002
 10
19.46474453905296
 20
-0.5089777958943956
 30
0.0000000000000001
  0
SPLINE
  5
BA
330
A
100
AcDbEntity
  8
1
390
1D
100
AcDbSpline
210
0.0000000000000194
220
-0.0000000000000743
230
1.0
 70
     8
 71
     3
 72
     8
 73
     4
 74
     0
 42
0.0000000001
 43
0.0000000001
 40
0.0
 40
0.0
 40
0.0
 40
0.0
 40
1.0
 40
1.0
 40
1.0
 40
1.0
 10
19.76885662843648
 20
-0.3655967539759786
 30
0.0
 10
19.78276211621483
 20
-0.3591815321174749
 30
0.0000000000000002
 10
19.79648301935964
 20
-0.3556717494145119
 30
0.0000000000000002
 10
19.81
 20
-0.3548389849133855
 30
0.0
  0
SPLINE
  5
BB
330
A
100
AcDbEntity
  8
1
390
1D
100
AcDbSpline
210
-0.0000000000017759
220
0.0000000000036694
230
1.0
 70
     8
 71
     3
 72
    12
 73
     8
 74
     0
 42
0.0000000001
 43
0.0000000001
 40
0.0
 40
0.0
 40
0.0
 40
0.0
 40
0.2499772924865554
 40
0.2499772924865554
 40
0.6249741622006514
 40
0.6249741622006514
 40
1.0
 40
1.0
 40
1.0
 40
1.0
 10
19.63432277474436
 20
-0.4306638114542238
 30
0.0000000000000001
 10
19.64553389224818
 20
-0.424985797495765
 30
-0.0000000000000002
 10
19.65674511333485
 20
-0.4193731464761754
 30
0.0000000000000002
 10
19.68477393933864
 20
-0.4055018710180321
 30
0.0000000000000001
 10
19.70159156937802
 20
-0.3973236205448529
 30
-0.0000000000000001
 10
19.73522552859811
 20
-0.3812497548619831
 30
0.0000000000000002
 10
19.75204218470662
 20
-0.3733540069881087
 30
0.0
 10
19.76885662843648
 20
-0.3655967539759786
 30
-0.0000000000000001
  0
SPLINE
  5
BC
330
A
100
AcDbEntity
  8
1
390
1D
100
AcDbSpline
210
-0.000000000000495
220
0.0000000000010719
230
-1.0
 70
     8
 71
     3
 72
    10
 73
     6
 74
     0
 42
0.0000000001
 43
0.0000000001
 40
0.0
 40
0.0
 40
0.0
 40
0.0
 40
0.499864459345264
 40
0.499864459345264
 40
1.0
 40
1.0
 40
1.0
 40
1.0
 10
19.46474453902459
 20
-0.5089777958871196
 30
0.0000000000000001
 10
19.49298315956946
 20
-0.4971970983842199
 30
0.0000000000000002
 10
19.52123536731
 20
-0.4847807793454423
 30
0.0000000000000001
 10
19.57776413788395
 20
-0.4586762829084706
 30
0.0000000000000001
 10
19.6060445855768
 20
-0.4449856623098755
 30
0.0000000000000002
 10
19.63432277474436
 20
-0.4306638114542238
 30
0.0000000000000002
  0
SPLINE
  5
BD
330
A
100
AcDbEntity
  8
1
390
1D
100
AcDbSpline
210
-0.0000000000373059
220
0.0000000000456718
230
-1.0
 70
     8
 71
     3
 72
     8
 73
     4
 74
     0
 42
0.0000000001
 43
0.0000000001
 40
0.0
 40
0.0
 40
0.0
 40
0.0
 40
1.0
 40
1.0
 40
1.0
 40
1.0
 10
19.47685796773277
 20
1.139183703218577
 30
0.0000000000000001
 10
19.47288032943902
 20
1.135849135120964
 30
0.0
 10
19.46884163118284
 20
1.132550425623377
 30
0.0000000000000001
 10
19.46474453902459
 20
1.129288243211022
 30
0.0
  0
SPLINE
  5
BE
330
A
100
AcDbEntity
  8
1
390
1D
100
AcDbSpline
210
-0.0000000000000003
220
-0.0000000000000024
230
1.0
 70
     8
 71
     3
 72
    12
 73
     8
 74
     0
 42
0.0000000001
 43
0.0000000001
 40
0.0
 40
0.0
 40
0.0
 40
0.0
 40
0.5000000000000038
 40
0.5000000000000038
 40
0.7500000000000019
 40
0.7500000000000019
 40
1.0
 40
1.0
 40
1.0
 40
1.0
 10
19.81
 20
1.094722031554226
 30
0.0000000000000001
 10
19.75577613831405
 20
1.137614409643276
 30
0.0
 10
19.70036599158328
 20
1.162470591001977
 30
0.0
 10
19.6165329549396
 20
1.173811401520822
 30
0.0000000000000001
 10
19.58832923448938
 20
1.173180133837149
 30
0.0000000000000003
 10
19.53232950485864
 20
1.162912472390531
 30
0.0000000000000003
 10
19.50451696741032
 20
1.153323446736522
 30
0.0
 10
19.47685796773317
 20
1.139183703218464
 30
0.0
  0
SPLINE
  5
BF
330
A
100
AcDbEntity
  8
1
390
1D
100
AcDbSpline
210
-0.00000000136203
220
-0.0000000011768499
230
-1.0
 70
     8
 71
     3
 72
     8
 73
     4
 74
     0
 42
0.0000000001
 43
0.0000000001
 40
0.0
 40
0.0
 40
0.0
 40
0.0
 40
1.0
 40
1.0
 40
1.0
 40
1.0
 10
19.36125546097537
 20
1.149982004805053
 30
0.0000000000000001
 10
19.35707155836235
 20
1.15478749381134
 30
0.0000000000000002
 10
19.35294183446479
 20
1.159565970301571
 30
0.0000000000000001
 10
19.34886927358127
 20
1.164317882472915
 30
-0.0000000000000001
  0
SPLINE
  5
C0
330
A
100
AcDbEntity
  8
1
390
1D
100
AcDbSpline
210
0.0000000000038878
220
0.0000000000044992
230
-1.0
 70
     8
 71
     3
 72
    10
 73
     6
 74
     0
 42
0.0000000001
 43
0.0000000001
 40
0.0
 40
0.0
 40
0.0
 40
0.0
 40
0.4998680844738936
 40
0.4998680844738936
 40
1.0
 40
1.0
 40
1.0
 40
1.0
 10
19.19248330731358
 20
-0.3364901722505351
 30
0.0000000000000002
 10
19.22061831835583
 20
-0.3596202157624475
 30
0.0
 10
19.24875150037758
 20
-0.3833418247730833
 30
0.0
 10
19.30501083664456
 20
-0.4319576165925129
 30
0.0000000000000001
 10
19.33314072261294
 20
-0.4568556106638654
 30
0.0000000000000001
 10
19.36125546097537
 20
-0.4823248058538638
 30
-0.0000000000000001
  0
SPLINE
  5
C1
330
A
100
AcDbEntity
  8
1
390
1D
100
AcDbSpline
210
0.0000000000007128
220
0.0000000000009804
230
1.0
 70
     8
 71
     3
 72
    12
 73
     8
 74
     0
 42
0.0000000001
 43
0.0000000001
 40
0.0
 40
0.0
 40
0.0
 40
0.0
 40
0.2496347842471553
 40
0.2496347842471553
 40
0.624579113814007
 40
0.624579113814007
 40
1.0
 40
1.0
 40
1.0
 40
1.0
 10
19.0592684672082
 20
-0.2394374670774369
 30
0.0
 10
19.07041698526501
 20
-0.2465139506560945
 30
0.0000000000000001
 10
19.08155186551812
 20
-0.2538448916954508
 30
-0.0000000000000001
 10
19.10936878341862
 20
-0.2728117815936457
 30
0.0000000000000001
 10
19.12603479126761
 20
-0.2847650513605231
 30
-0.0000000000000001
 10
19.15930614865755
 20
-0.3097917748087866
 30
0.0
 10
19.17591668015865
 20
-0.3228706003099546
 30
0.0000000000000002
 10
19.19248330731358
 20
-0.3364901722505351
 30
0.0000000000000001
  0
SPLINE
  5
C2
330
A
100
AcDbEntity
  8
1
390
1D
100
AcDbSpline
210
-0.0000000000000286
220
-0.0000000000000733
230
1.0
 70
     8
 71
     3
 72
     8
 73
     4
 74
     0
 42
0.0000000001
 43
0.0000000001
 40
0.0
 40
0.0
 40
0.0
 40
0.0
 40
1.0
 40
1.0
 40
1.0
 40
1.0
 10
19.01600000000002
 20
-0.2225265128772094
 30
0.0
 10
19.03048068615635
 20
-0.2246343778349456
 30
0.0
 10
19.04489934604112
 20
-0.2303167167265201
 30
0.0000000000000001
 10
19.05926846720826
 20
-0.2394374670774369
 30
-0.0000000000000001
  0
SPLINE
  5
C3
330
A
100
AcDbEntity
  8
1
390
1D
100
AcDbSpline
210
-0.0000000000000001
220
0.0000000000000017
230
1.0
 70
     8
 71
     3
 72
     8
 73
     4
 74
     0
 42
0.0000000001
 43
0.0000000001
 40
0.0
 40
0.0
 40
0.0
 40
0.0
 40
1.0
 40
1.0
 40
1.0
 40
1.0
 10
19.34886927358127
 20
1.164317882472915
 30
0.0000000000000003
 10
19.23976932947949
 20
1.256703808607369
 30
0.0
 10
19.12626909847143
 20
1.251612590721493
 30
0.0
 10
19.01599999999996
 20
1.139407336121792
 30
0.0000000000000001
  0
SPLINE
  5
C4
330
A
100
AcDbEntity
  8
1
390
1D
100
AcDbSpline
210
0.0000000000417411
220
0.0000000002407241
230
1.0
 70
     8
 71
     3
 72
     8
 73
     4
 74
     0
 42
0.0000000001
 43
0.0000000001
 40
0.0
 40
0.0
 40
0.0
 40
0.0
 40
1.0
 40
1.0
 40
1.0
 40
1.0
 10
18.40674453902795
 20
1.328658424243087
 30
0.0
 10
18.37224961326706
 20
1.334689219991162
 30
0.0
 10
18.33775335441976
 20
1.340671096573942
 30
0.0000000000000001
 10
18.30325546097538
 20
1.346603125579235
 30
-0.0000000000000001
  0
SPLINE
  5
C5
330
A
100
AcDbEntity
  8
1
390
1D
100
AcDbSpline
210
0.0000000040991068
220
0.0000000154299379
230
-0.9999999999999998
 70
     8
 71
     3
 72
     8
 73
     4
 74
     0
 42
0.0000000001
 43
0.0000000001
 40
0.0
 40
0.0
 40
0.0
 40
0.0
 40
1.0
 40
1.0
 40
1.0
 40
1.0
 10
18.30325546097538
 20
-0.2045059997338967
 30
0.0000000000000001
 10
18.33775156741683
 20
-0.2136776856614802
 30
0.0
 10
18.37224783140312
 20
-0.2228422828241037
 30
0.0000000000000001
 10
18.40674453902909
 20
-0.2319987237777923
 30
0.0
  0
SPLINE
  5
C6
330
A
100
AcDbEntity
  8
1
390
1D
100
AcDbSpline
210
-0.0000000000000014
220
-0.0000000000000275
230
1.0
 70
     8
 71
     3
 72
     8
 73
     4
 74
     0
 42
0.0000000001
 43
0.0000000001
 40
0.0
 40
0.0
 40
0.0
 40
0.0
 40
1.0
 40
1.0
 40
1.0
 40
1.0
 10
18.70778813224689
 20
-0.1755879974516574
 30
-0.0000000000000001
 10
18.72278192337291
 20
-0.1729551641694798
 30
0.0
 10
18.73752788648875
 20
-0.1737885887259267
 30
0.0000000000000002
 10
18.75200000000001
 20
-0.1777756497240262
 30
0.0
  0
SPLINE
  5
C7
330
A
100
AcDbEntity
  8
1
390
1D
100
AcDbSpline
210
-0.0000000000007618
220
0.0000000000038163
230
1.0
 70
     8
 71
     3
 72
    12
 73
     8
 74
     0
 42
0.0000000001
 43
0.0000000001
 40
0.0
 40
0.0
 40
0.0
 40
0.0
 40
0.2499761795961404
 40
0.2499761795961404
 40
0.6249728937121923
 40
0.6249728937121923
 40
1.0
 40
1.0
 40
1.0
 40
1.0
 10
18.57440104230841
 20
-0.2021668218885679
 30
0.0000000000000002
 10
18.58551788662101
 20
-0.199682695245599
 30
-0.0000000000000001
 10
18.59663456003506
 20
-0.1972673817158466
 30
-0.0000000000000001
 10
18.62442627580776
 20
-0.1913980955205261
 30
0.0
 10
18.64110095971881
 20
-0.1880287200713156
 30
0.0
 10
18.67444733881922
 20
-0.1815871660560333
 30
-0.0000000000000001
 10
18.6911193746306
 20
-0.1785149463104858
 30
0.0
 10
18.70778813224689
 20
-0.1755879974516574
 30
-0.0000000000000001
  0
SPLINE
  5
C8
330
A
100
AcDbEntity
  8
1
390
1D
100
AcDbSpline
210
0.000000000000009
220
-0.0000000000000507
230
1.0
 70
     8
 71
     3
 72
    10
 73
     6
 74
     0
 42
0.0000000001
 43
0.0000000001
 40
0.0
 40
0.0
 40
0.0
 40
0.0
 40
0.4998686685506013
 40
0.4998686685506013
 40
1.0
 40
1.0
 40
1.0
 40
1.0
 10
18.4067445390246
 20
-0.2319987237765986
 30
0.0000000000000001
 10
18.43466047084246
 20
-0.2283008206872523
 30
-0.0000000000000001
 10
18.46259084181281
 20
-0.2239673746183257
 30
0.0
 10
18.51847859144937
 20
-0.2140251004619813
 30
-0.0000000000000001
 10
18.54643968779612
 20
-0.2084149570393379
 30
0.0000000000000001
 10
18.57440104230841
 20
-0.2021668218885679
 30
0.0
  0
SPLINE
  5
C9
330
A
100
AcDbEntity
  8
1
390
1D
100
AcDbSpline
210
-0.0000000000205882
220
0.0000000000598443
230
-1.0
 70
     8
 71
     3
 72
     8
 73
     4
 74
     0
 42
0.0000000001
 43
0.0000000001
 40
0.0
 40
0.0
 40
0.0
 40
0.0
 40
1.0
 40
1.0
 40
1.0
 40
1.0
 10
18.42074203310716
 20
1.333474765624429
 30
0.0
 10
18.41615676414642
 20
1.33182371195187
 30
0.0
 10
18.41148955730114
 20
1.330217939099896
 30
-0.0000000000000001
 10
18.4067445390246
 20
1.328658424243712
 30
-0.0000000000000001
  0
SPLINE
  5
CA
330
A
100
AcDbEntity
  8
1
390
1D
100
AcDbSpline
210
0.0
220
0.0
230
1.0
 70
     8
 71
     3
 72
     8
 73
     4
 74
     0
 42
0.0000000001
 43
0.0000000001
 40
0.0
 40
0.0
 40
0.0
 40
0.0
 40
1.0
 40
1.0
 40
1.0
 40
1.0
 10
18.75200000000001
 20
1.15048189741384
 30
0.0000000000000001
 10
18.64452852036925
 20
1.280831414693182
 30
-0.0000000000000001
 10
18.53119127336652
 20
1.34264060768237
 30
0.0
 10
18.42074203310716
 20
1.333474765624429
 30
0.0000000000000002
  0
SPLINE
  5
CB
330
A
100
AcDbEntity
  8
1
390
1D
100
AcDbSpline
210
-0.0000000028027676
220
-0.0000000044672854
230
1.0
 70
     8
 71
     3
 72
     8
 73
     4
 74
     0
 42
0.0000000001
 43
0.0000000001
 40
0.0
 40
0.0
 40
0.0
 40
0.0
 40
1.0
 40
1.0
 40
1.0
 40
1.0
 10
18.30325546097538
 20
1.346603125579235
 30
0.0000000000000001
 10
18.2984592833518
 20
1.349607299949184
 30
0.0
 10
18.2937340608222
 20
1.352570852948133
 30
0.0000000000000001
 10
18.28908428661146
 20
1.355494503897319
 30
0.0000000000000001
  0
SPLINE
  5
CC
330
A
100
AcDbEntity
  8
1
390
1D
100
AcDbSpline
210
0.0000000000002324
220
0.0000000000003925
230
1.0
 70
     8
 71
     3
 72
    10
 73
     6
 74
     0
 42
0.0000000001
 43
0.0000000001
 40
0.0
 40
0.0
 40
0.0
 40
0.0
 40
0.4998722806903805
 40
0.4998722806903805
 40
1.0
 40
1.0
 40
1.0
 40
1.0
 10
18.13630775385536
 20
-0.1056714647869512
 30
0.0000000000000001
 10
18.16414163084983
 20
-0.1209188294813544
 30
0.0
 10
18.19197193069953
 20
-0.1367809712098733
 30
0.0000000000000002
 10
18.24762285252518
 20
-0.1697283245056838
 30
0.0000000000000002
 10
18.27544704372883
 20
-0.1868162581532715
 30
0.0000000000000002
 10
18.30325546097538
 20
-0.2045059997338967
 30
0.0
  0
SPLINE
  5
CD
330
A
100
AcDbEntity
  8
1
390
1D
100
AcDbSpline
210
-0.0000000000000602
220
-0.0000000000001333
230
1.0
 70
     8
 71
     3
 72
     8
 73
     4
 74
     0
 42
0.0000000001
 43
0.0000000001
 40
0.0
 40
0.0
 40
0.0
 40
0.0
 40
1.0
 40
1.0
 40
1.0
 40
1.0
 10
18.0037216171811
 20
-0.0458269600250674
 30
0.0
 10
18.04816731974023
 20
-0.0616159382364003
 30
0.0000000000000002
 10
18.09237424857406
 20
-0.0816047428759816
 30
0.0
 10
18.13630775385542
 20
-0.1056714647869512
 30
0.0
  0
SPLINE
  5
CE
330
A
100
AcDbEntity
  8
1
390
1D
100
AcDbSpline
210
-0.0000000000000015
220
-0.0000000000000165
230
1.0
 70
     8
 71
     3
 72
     8
 73
     4
 74
     0
 42
0.0000000001
 43
0.0000000001
 40
0.0
 40
0.0
 40
0.0
 40
0.0
 40
1.0
 40
1.0
 40
1.0
 40
1.0
 10
17.95799999999997
 20
-0.0415884941060085
 30
0.0000000000000001
 10
17.97327226508071
 20
-0.038964670884468
 30
0.0
 10
17.98851046564243
 20
-0.0404233208341793
 30
0.0000000000000002
 10
18.0037216171811
 20
-0.0458269600250674
 30
0.0
  0
SPLINE
  5
CF
330
A
100
AcDbEntity
  8
1
390
1D
100
AcDbSpline
210
-0.0000000000000006
220
0.000000000000001
230
1.0
 70
     8
 71
     3
 72
     8
 73
     4
 74
     0
 42
0.0000000001
 43
0.0000000001
 40
0.0
 40
0.0
 40
0.0
 40
0.0
 40
1.0
 40
1.0
 40
1.0
 40
1.0
 10
18.28908428661151
 20
1.355494503897319
 30
-0.0000000000000001
 10
18.18034962954061
 20
1.394528031713492
 30
0.0000000000000001
 10
18.06768284847487
 20
1.335002968337959
 30
0.0
 10
17.95800000000003
 20
1.172166520916504
 30
0.0000000000000001
  0
SPLINE
  5
D0
330
A
100
AcDbEntity
  8
1
390
1D
100
AcDbSpline
210
0.0000000000004629
220
0.0000000000320112
230
1.0
 70
     8
 71
     3
 72
     8
 73
     4
 74
     0
 42
0.0000000001
 43
0.0000000001
 40
0.0
 40
0.0
 40
0.0
 40
0.0
 40
1.0
 40
1.0
 40
1.0
 40
1.0
 10
17.95800000000003
 20
1.172166520916504
 30
0.0
 10
17.91366812348673
 20
1.172889021495449
 30
0.0000000000000001
 10
17.86933478731368
 20
1.173529985377115
 30
0.0
 10
17.82499999999999
 20
1.174089707569067
 30
-0.0000000000000002
  0
SPLINE
  5
D1
330
A
100
AcDbEntity
  8
1
390
1D
100
AcDbSpline
210
-0.0000000000010592
220
-0.00000000000721
230
1.0
 70
     8
 71
     2
 72
     6
 73
     3
 74
     0
 42
0.0000000001
 43
0.0000000001
 40
0.0
 40
0.0
 40
0.0
 40
1.0
 40
1.0
 40
1.0
 10
18.47677804957374
 20
1.332145976741174
 30
-0.0000000000000001
 10
18.36565286394745
 20
1.347898074119314
 30
0.0000000000000001
 10
18.25450786352172
 20
1.36479800968027
 30
0.0
  0
SPLINE
  5
D2
330
A
100
AcDbEntity
  8
1
390
1D
100
AcDbSpline
210
-0.000000000001461
220
-0.0000000000108734
230
1.0
 70
     8
 71
     3
 72
    10
 73
     6
 74
     0
 42
0.0000000001
 43
0.0000000001
 40
0.0
 40
0.0
 40
0.0
 40
0.0
 40
0.1790770538768303
 40
0.558213655402763
 40
1.0
 40
1.0
 40
1.0
 40
1.0
 10
19.64261279492081
 20
1.17028394430406
 30
0.0
 10
19.617788981518
 20
1.173551702701672
 30
0.0
 10
19.54037014024402
 20
1.183781846708541
 30
-0.0000000000000001
 10
19.40137696343618
 20
1.202349931721925
 30
0.0
 10
19.28716603663173
 20
1.217896732737188
 30
0.0
 10
19.22564760349422
 20
1.226350242214949
 30
0.0
  0
SPLINE
  5
D3
330
A
100
AcDbEntity
  8
1
390
1D
100
AcDbSpline
210
-0.0000000000382941
220
0.0000000000155733
230
-1.0
 70
     8
 71
     3
 72
     8
 73
     4
 74
     0
 42
0.0000000001
 43
0.0000000001
 40
0.0
 40
0.0
 40
0.0
 40
0.0
 40
1.0
 40
1.0
 40
1.0
 40
1.0
 10
18.42074203310716
 20
-1.64920506249598
 30
0.0000000000000001
 10
18.41615676414636
 20
-1.660674594671491
 30
0.0
 10
18.41148955730114
 20
-1.672148673105709
 30
-0.0000000000000001
 10
18.4067445390246
 20
-1.683627423522523
 30
0.0000000000000001
  0
SPLINE
  5
D4
330
A
100
AcDbEntity
  8
1
390
1D
100
AcDbSpline
210
-0.000000000161099
220
-0.0000000000706749
230
1.0
 70
     8
 71
     3
 72
     8
 73
     4
 74
     0
 42
0.0000000001
 43
0.0000000001
 40
0.0
 40
0.0
 40
0.0
 40
0.0
 40
1.0
 40
1.0
 40
1.0
 40
1.0
 10
19.36125546097537
 20
-1.745941381995294
 30
-0.0000000000000001
 10
19.35707155836235
 20
-1.736565761255179
 30
0.0
 10
19.35294183446479
 20
-1.727153786423456
 30
0.0000000000000001
 10
19.34886927358127
 20
-1.717705893898085
 30
0.0
  0
SPLINE
  5
D5
330
A
100
AcDbEntity
  8
1
390
1D
100
AcDbSpline
210
-0.0000000000660791
220
0.0000000000308294
230
1.0
 70
     8
 71
     3
 72
     8
 73
     4
 74
     0
 42
0.0000000001
 43
0.0000000001
 40
0.0
 40
0.0
 40
0.0
 40
0.0
 40
1.0
 40
1.0
 40
1.0
 40
1.0
 10
19.47685796773277
 20
-1.724638241317336
 30
0.0000000000000001
 10
19.47288032943902
 20
-1.733284146452263
 30
-0.0000000000000002
 10
19.46884163118284
 20
-1.741939190382823
 30
-0.0000000000000001
 10
19.46474453902459
 20
-1.750603563495928
 30
0.0000000000000001
  0
SPLINE
  5
D6
330
A
100
AcDbEntity
  8
1
390
1D
100
AcDbSpline
210
0.0000000002816409
220
0.0000000001533275
230
1.0
 70
     8
 71
     3
 72
     8
 73
     4
 74
     0
 42
0.0000000001
 43
0.0000000001
 40
0.0
 40
0.0
 40
0.0
 40
0.0
 40
1.0
 40
1.0
 40
1.0
 40
1.0
 10
20.41925546097542
 20
-1.774382482349665
 30
0.0000000000000001
 10
20.415926818863
 20
-1.768356282705155
 30
0.0
 10
20.41263283200419
 20
-1.762306264821291
 30
-0.0000000000000001
 10
20.40937501478044
 20
-1.756232671457496
 30
0.0
  0
SPLINE
  5
D7
330
A
100
AcDbEntity
  8
1
390
1D
100
AcDbSpline
210
-0.000000001232746
220
0.0000000006935483
230
1.0
 70
     8
 71
     3
 72
     8
 73
     4
 74
     0
 42
0.0000000001
 43
0.0000000001
 40
0.0
 40
0.0
 40
0.0
 40
0.0
 40
1.0
 40
1.0
 40
1.0
 40
1.0
 10
20.53231482062387
 20
-1.757875514160786
 30
-0.0000000000000001
 10
20.52916232543981
 20
-1.763536736269486
 30
0.0
 10
20.52597179290581
 20
-1.769207130251515
 30
-0.0000000000000001
 10
20.52274453902459
 20
-1.77488684090855
 30
0.0000000000000002
  0
SPLINE
  5
D8
330
A
100
AcDbEntity
  8
1
390
1D
100
AcDbSpline
210
-0.0000000000111117
220
-0.0000000001300092
230
1.0
 70
     8
 71
     3
 72
     8
 73
     4
 74
     0
 42
0.0000000001
 43
0.0000000001
 40
0.0
 40
0.0
 40
0.0
 40
0.0
 40
1.0
 40
1.0
 40
1.0
 40
1.0
 10
18.40674453902852
 20
-1.683627423523149
 30
0.0
 10
18.37224961326746
 20
-1.68074695047892
 30
-0.0000000000000001
 10
18.33775335441993
 20
-1.677798543463609
 30
0.0
 10
18.30325546097532
 20
-1.674782349742485
 30
0.0000000000000001
  0
SPLINE
  5
D9
330
A
100
AcDbEntity
  8
1
390
1D
100
AcDbSpline
210
-0.0000000000022236
220
-0.0000000000493595
230
1.0
 70
     8
 71
     3
 72
     8
 73
     4
 74
     0
 42
0.0000000001
 43
0.0000000001
 40
0.0
 40
0.0
 40
0.0
 40
0.0
 40
1.0
 40
1.0
 40
1.0
 40
1.0
 10
19.46474453902835
 20
-1.750603563496099
 30
0.0
 10
19.43024694654008
 20
-1.74911765706139
 30
0.0000000000000001
 10
19.3957506597024
 20
-1.747563615641694
 30
0.0000000000000001
 10
19.36125546097537
 20
-1.745941381995294
 30
0.0000000000000001
  0
SPLINE
  5
DA
330
A
100
AcDbEntity
  8
1
390
1D
100
AcDbSpline
210
-0.000000000004977
220
-0.0000000000030514
230
1.0
 70
     8
 71
     3
 72
     8
 73
     4
 74
     0
 42
0.0000000001
 43
0.0000000001
 40
0.0
 40
0.0
 40
0.0
 40
0.0
 40
1.0
 40
1.0
 40
1.0
 40
1.0
 10
19.76885662843648
 20
1.21641994369827
 30
0.0
 10
19.78276211621483
 20
1.19309929219952
 30
0.0
 10
19.79648301935964
 20
1.170759376602291
 30
-0.0000000000000001
 10
19.81
 20
1.149306173654281
 30
0.0
  0
SPLINE
  5
DB
330
A
100
AcDbEntity
  8
1
390
1D
100
AcDbSpline
210
0.0000000000000557
220
-0.000000000001646
230
1.0
 70
     8
 71
     3
 72
     8
 73
     4
 74
     0
 42
0.0000000001
 43
0.0000000001
 40
0.0
 40
0.0
 40
0.0
 40
0.0
 40
1.0
 40
1.0
 40
1.0
 40
1.0
 10
19.81
 20
1.149306173654167
 30
0.0
 10
19.89800021855575
 20
1.15257134365055
 30
-0.0000000000000001
 10
19.98600052676943
 20
1.155551679484176
 30
0.0
 10
20.07400000000001
 20
1.158244663162235
 30
0.0
  0
SPLINE
  5
DC
330
A
100
AcDbEntity
  8
1
390
1D
100
AcDbSpline
210
0.0
220
0.0
230
1.0
 70
     8
 71
     3
 72
     8
 73
     4
 74
     0
 42
0.0000000001
 43
0.0000000001
 40
0.0
 40
0.0
 40
0.0
 40
0.0
 40
1.0
 40
1.0
 40
1.0
 40
1.0
 10
20.07400000000001
 20
1.158244663162122
 30
0.0
 10
20.08743020172494
 20
1.180842635130944
 30
0.0
 10
20.10077504231214
 20
1.203854565756274
 30
0.0
 10
20.11405113602013
 20
1.227255509584437
 30
0.0
  0
SPLINE
  5
DD
330
A
100
AcDbEntity
  8
1
390
1D
100
AcDbSpline
210
0.0000000002517543
220
0.0000000001469327
230
-1.0
 70
     8
 71
     3
 72
     8
 73
     4
 74
     0
 42
0.0000000001
 43
0.0000000001
 40
0.0
 40
0.0
 40
0.0
 40
0.0
 40
1.0
 40
1.0
 40
1.0
 40
1.0
 10
20.83025997725093
 20
1.239361644621908
 30
0.0
 10
20.84297264469285
 20
1.217420752383133
 30
0.0
 10
20.85555713539873
 20
1.195876870512677
 30
0.0
 10
20.86799999999999
 20
1.174692848280301
 30
-0.0000000000000001
  0
SPLINE
  5
DE
330
A
100
AcDbEntity
  8
1
390
1D
100
AcDbSpline
210
-0.0000000000000685
220
0.000000000007517
230
1.0
 70
     8
 71
     3
 72
     8
 73
     4
 74
     0
 42
0.0000000001
 43
0.0000000001
 40
0.0
 40
0.0
 40
0.0
 40
0.0
 40
1.0
 40
1.0
 40
1.0
 40
1.0
 10
20.86799999999999
 20
1.174692848280301
 30
0.0000000000000001
 10
20.91199993255316
 20
1.175166933372054
 30
0.0
 10
20.95599996169136
 20
1.175568010544964
 30
0.0000000000000001
 10
21.00000000000034
 20
1.175896012313274
 30
0.0
  0
SPLINE
  5
DF
330
A
100
AcDbEntity
  8
1
390
1D
100
AcDbSpline
210
0.0
220
0.0
230
1.0
 70
    28
 71
     2
 72
     6
 73
     3
 74
     0
 42
0.0000000001
 43
0.0000000001
 40
0.0
 40
0.0
 40
0.0
 40
1.0
 40
1.0
 40
1.0
 10
20.99999999999998
 20
1.175896012313492
 30
0.0
 41
0.9050322903240381
 10
20.99999999999994
 20
1.065004318316402
 30
0.0
 41
0.7885068382505223
 10
20.99999999999997
 20
0.9960150123134551
 30
0.0
 41
0.7928497563659201
  0
SPLINE
  5
E0
330
A
100
AcDbEntity
  8
1
390
1D
100
AcDbSpline
210
0.0000000000000072
220
0.0000000000014844
230
1.0
 70
     8
 71
     3
 72
     8
 73
     4
 74
     0
 42
0.0000000001
 43
0.0000000001
 40
0.0
 40
0.0
 40
0.0
 40
0.0
 40
1.0
 40
1.0
 40
1.0
 40
1.0
 10
20.52274453902464
 20
-1.77488684090855
 30
0.0
 10
20.48824524767622
 20
-1.774786055522781
 30
0.0000000000000001
 10
20.45374892849662
 20
-1.774617944568547
 30
0.0000000000000001
 10
20.41925546097514
 20
-1.774382482350632
 30
0.0
  0
SPLINE
  5
E1
330
A
100
AcDbEntity
  8
1
390
1D
100
AcDbSpline
210
-0.0000000041285724
220
-0.0000000023899185
230
1.0
 70
     8
 71
     3
 72
    12
 73
     8
 74
     0
 42
0.0000000001
 43
0.0000000001
 40
0.0
 40
0.0
 40
0.0
 40
0.0
 40
0.2499788436087615
 40
0.2499788436087615
 40
0.6249759253072507
 40
0.6249759253072507
 40
1.0
 40
1.0
 40
1.0
 40
1.0
 10
20.6940885308756
 20
1.474594014846501
 30
0.0000000000000001
 10
20.70543500755684
 20
1.454975013197782
 30
0.0
 10
20.71678182066324
 20
1.435360067058127
 30
-0.0000000000000001
 10
20.74515024497225
 20
1.386331831378242
 30
-0.0000000000000001
 10
20.76217220982414
 20
1.356923712994956
 30
0.0
 10
20.79621631880304
 20
1.29812739863911
 30
-0.0000000000000001
 10
20.81323877079637
 20
1.268738678065175
 30
0.0
 10
20.83025997725093
 20
1.239361644621908
 30
0.0
  0
SPLINE
  5
E2
330
A
100
AcDbEntity
  8
1
390
1D
100
AcDbSpline
210
0.0
220
0.0
230
1.0
 70
     8
 71
     3
 72
    12
 73
     8
 74
     0
 42
0.0000000001
 43
0.0000000001
 40
0.0
 40
0.0
 40
0.0
 40
0.0
 40
0.2496348700528684
 40
0.2496348700528684
 40
0.6245795889067331
 40
0.6245795889067331
 40
1.0
 40
1.0
 40
1.0
 40
1.0
 10
20.11405113602007
 20
1.227255509584437
 30
0.0
 10
20.1253138909413
 20
1.247107666480928
 30
0.0
 10
20.13656246808551
 20
1.266966577999255
 30
-0.0000000000000001
 10
20.16466267589203
 20
1.31664294384717
 30
-0.0000000000000001
 10
20.18149773531775
 20
1.346464575444428
 30
0.0
 10
20.21510580824452
 20
1.406082871763373
 30
-0.0000000000000001
 10
20.2318840439375
 20
1.435888892613717
 30
0.0
 10
20.24861785335378
 20
1.465640732821839
 30
0.0
  0
SPLINE
  5
E3
330
A
100
AcDbEntity
  8
1
390
1D
100
AcDbSpline
210
-0.0000000000001699
220
0.0000000000078566
230
1.0
 70
     8
 71
     3
 72
     8
 73
     4
 74
     0
 42
0.0000000001
 43
0.0000000001
 40
0.0
 40
0.0
 40
0.0
 40
0.0
 40
1.0
 40
1.0
 40
1.0
 40
1.0
 10
20.41925546097542
 20
1.768052567892879
 30
0.0000000000000001
 10
20.45375148660781
 20
1.768870466684745
 30
-0.0000000000000001
 10
20.48824774815841
 20
1.769616267637672
 30
0.0000000000000001
 10
20.52274453902459
 20
1.770289893083486
 30
0.0
  0
SPLINE
  5
E4
330
A
100
AcDbEntity
  8
1
390
1D
100
AcDbSpline
210
0.0000000015686716
220
0.0000000009089773
230
1.0
 70
     8
 71
     3
 72
    10
 73
     6
 74
     0
 42
0.0000000001
 43
0.0000000001
 40
0.0
 40
0.0
 40
0.0
 40
0.0
 40
0.4998616652264228
 40
0.4998616652264228
 40
1.0
 40
1.0
 40
1.0
 40
1.0
 10
20.52274453902464
 20
1.770289893083486
 30
0.0
 10
20.55128044355206
 20
1.721142872874679
 30
-0.0000000000000001
 10
20.57982879912504
 20
1.671922442657205
 30
-0.0000000000000001
 10
20.63694660627516
 20
1.573350060719178
 30
0.0
 10
20.66552006949428
 20
1.523991260060768
 30
-0.0000000000000001
 10
20.6940885308756
 20
1.474594014846501
 30
0.0000000000000001
  0
SPLINE
  5
E5
330
A
100
AcDbEntity
  8
1
390
1D
100
AcDbSpline
210
-0.0000000002811856
220
0.0000000001586587
230
1.0
 70
     8
 71
     3
 72
    10
 73
     6
 74
     0
 42
0.0000000001
 43
0.0000000001
 40
0.0
 40
0.0
 40
0.0
 40
0.0
 40
0.4998656146111878
 40
0.4998656146111878
 40
1.0
 40
1.0
 40
1.0
 40
1.0
 10
20.24861785335378
 20
1.465640732821839
 30
0.0
 10
20.27705953302478
 20
1.516208555591276
 30
0.0000000000000001
 10
20.30550192443377
 20
1.566698999199616
 30
0.0
 10
20.36238346266168
 20
1.66751040637871
 30
0.0
 10
20.3908264613284
 20
1.717838011535889
 30
0.0
 10
20.41925546097536
 20
1.768052567892879
 30
0.0
  0
SPLINE
  5
E6
330
A
100
AcDbEntity
  8
1
390
1D
100
AcDbSpline
210
0.0
220
0.0
230
1.0
 70
     8
 71
     3
 72
    12
 73
     8
 74
     0
 42
0.0000000001
 43
0.0000000001
 40
0.0
 40
0.0
 40
0.0
 40
0.0
 40
0.2499772924865746
 40
0.2499772924865746
 40
0.6249741622006745
 40
0.6249741622006745
 40
1.0
 40
1.0
 40
1.0
 40
1.0
 10
19.63432277474436
 20
1.442745249659537
 30
-0.0000000000000001
 10
19.64553389224812
 20
1.423824527004
 30
0.0000000000000001
 10
19.65674511333485
 20
1.404919126290281
 30
-0.0000000000000001
 10
19.68477393933864
 20
1.357692366081494
 30
0.0
 10
19.70159156937802
 20
1.329390007607855
 30
0.0000000000000001
 10
19.73522552859811
 20
1.272853670448795
 30
-0.0000000000000001
 10
19.75204218470662
 20
1.244619154586815
 30
0.0
 10
19.76885662843648
 20
1.21641994369827
 30
0.0
  0
SPLINE
  5
E7
330
A
100
AcDbEntity
  8
1
390
1D
100
AcDbSpline
210
0.0000000000537181
220
-0.0000000000304734
230
1.0
 70
     8
 71
     3
 72
    12
 73
     8
 74
     0
 42
0.0000000001
 43
0.0000000001
 40
0.0
 40
0.0
 40
0.0
 40
0.0
 40
0.2496347842471845
 40
0.2496347842471845
 40
0.6245791138140183
 40
0.6245791138140183
 40
1.0
 40
1.0
 40
1.0
 40
1.0
 10
19.05926846720831
 20
1.183919642994283
 30
0.0
 10
19.07041698526507
 20
1.203301037574022
 30
0.0
 10
19.08155186551812
 20
1.222733325927435
 30
0.0
 10
19.10936878341862
 20
1.271453152693481
 30
0.0
 10
19.12603479126761
 20
1.300800356123773
 30
0.0
 10
19.15930614865755
 20
1.359669313791754
 30
0.0
 10
19.17591668015865
 20
1.389200577776307
 30
0.0000000000000001
 10
19.19248330731358
 20
1.418777546306841
 30
0.0000000000000001
  0
SPLINE
  5
E8
330
A
100
AcDbEntity
  8
1
390
1D
100
AcDbSpline
210
-0.0000000000043404
220
0.0000000000679158
230
1.0
 70
     8
 71
     3
 72
     8
 73
     4
 74
     0
 42
0.0000000001
 43
0.0000000001
 40
0.0
 40
0.0
 40
0.0
 40
0.0
 40
1.0
 40
1.0
 40
1.0
 40
1.0
 10
19.36125546097537
 20
1.720517274566418
 30
0.0000000000000001
 10
19.39575109672154
 20
1.722791919111613
 30
0.0
 10
19.43024735403213
 20
1.724996617144086
 30
0.0
 10
19.46474453902454
 20
1.727131065094284
 30
0.0
  0
SPLINE
  5
E9
330
A
100
AcDbEntity
  8
1
390
1D
100
AcDbSpline
210
0.0000000002600728
220
0.0000000001550793
230
1.0
 70
     8
 71
     3
 72
    10
 73
     6
 74
     0
 42
0.0000000001
 43
0.0000000001
 40
0.0
 40
0.0
 40
0.0
 40
0.0
 40
0.4998644593664758
 40
0.4998644593664758
 40
1.0
 40
1.0
 40
1.0
 40
1.0
 10
19.46474453902459
 20
1.727131065094284
 30
-0.0000000000000001
 10
19.49298315956946
 20
1.680079788309626
 30
0.0
 10
19.52123536731
 20
1.632850188839142
 30
-0.0000000000000002
 10
19.577764137884
 20
1.538048402732555
 30
0.0000000000000001
 10
19.60604458557674
 20
1.490469642367145
 30
-0.0000000000000001
 10
19.63432277474436
 20
1.442745249659537
 30
0.0000000000000001
  0
SPLINE
  5
EA
330
A
100
AcDbEntity
  8
1
390
1D
100
AcDbSpline
210
0.0000000017069684
220
-0.0000000009547451
230
1.0
 70
     8
 71
     3
 72
    10
 73
     6
 74
     0
 42
0.0000000001
 43
0.0000000001
 40
0.0
 40
0.0
 40
0.0
 40
0.0
 40
0.4998680844739054
 40
0.4998680844739054
 40
1.0
 40
1.0
 40
1.0
 40
1.0
 10
19.19248330731358
 20
1.418777546306841
 30
0.0
 10
19.22061831835583
 20
1.469007947970396
 30
0.0
 10
19.24875150037758
 20
1.5192739617475
 30
0.0000000000000001
 10
19.30501083664456
 20
1.619861495280019
 30
0.0
 10
19.33314072261294
 20
1.670189642791
 30
0.0
 10
19.36125546097537
 20
1.720517274566418
 30
0.0000000000000001
  0
SPLINE
  5
EB
330
A
100
AcDbEntity
  8
1
390
1D
100
AcDbSpline
210
0.0
220
0.0
230
1.0
 70
     8
 71
     3
 72
    10
 73
     6
 74
     0
 42
0.0000000001
 43
0.0000000001
 40
0.0
 40
0.0
 40
0.0
 40
0.0
 40
0.4117491972763979
 40
0.4117491972763979
 40
1.0
 40
1.0
 40
1.0
 40
1.0
 10
18.57440104230841
 20
1.37481709669987
 30
-0.0000000000000001
 10
18.58551788662101
 20
1.357038683031475
 30
0.0
 10
18.59663456003506
 20
1.339286731203856
 30
-0.0000000000000001
 10
18.6236318438518
 20
1.296237721062198
 30
0.0000000000000001
 10
18.63951217811325
 20
1.270967830459767
 30
-0.0000000000000001
 10
18.6553905973775
 20
1.245751612764365
 30
-0.0000000000000001
  0
SPLINE
  5
EC
330
A
100
AcDbEntity
  8
1
390
1D
100
AcDbSpline
210
-0.0000000000172851
220
0.0000000001656877
230
1.0
 70
     8
 71
     3
 72
     8
 73
     4
 74
     0
 42
0.0000000001
 43
0.0000000001
 40
0.0
 40
0.0
 40
0.0
 40
0.0
 40
1.0
 40
1.0
 40
1.0
 40
1.0
 10
18.30325546097538
 20
1.629211323481171
 30
0.0
 10
18.3377515674153
 20
1.632875891398725
 30
0.0
 10
18.37224783139999
 20
1.636474816181078
 30
-0.0000000000000001
 10
18.40674453902449
 20
1.640007627654767
 30
-0.0000000000000001
  0
SPLINE
  5
ED
330
A
100
AcDbEntity
  8
1
390
1D
100
AcDbSpline
210
-0.0000000000374687
220
-0.0000000000236879
230
1.0
 70
     8
 71
     3
 72
    10
 73
     6
 74
     0
 42
0.0000000001
 43
0.0000000001
 40
0.0
 40
0.0
 40
0.0
 40
0.0
 40
0.4998686685539975
 40
0.4998686685539975
 40
1.0
 40
1.0
 40
1.0
 40
1.0
 10
18.4067445390246
 20
1.640007627654767
 30
0.0
 10
18.43466047084246
 20
1.596344651941024
 30
0.0
 10
18.46259084181281
 20
1.55240960942649
 30
0.0
 10
18.51847859144937
 20
1.464007206358928
 30
0.0
 10
18.54643968779612
 20
1.41953379086874
 30
0.0
 10
18.57440104230841
 20
1.37481709669987
 30
-0.0000000000000001
  0
SPLINE
  5
EE
330
A
100
AcDbEntity
  8
1
390
1D
100
AcDbSpline
210
0.0000000001829267
220
-0.0000000001042774
230
-1.0
 70
     8
 71
     3
 72
    10
 73
     6
 74
     0
 42
0.0000000001
 43
0.0000000001
 40
0.0
 40
0.0
 40
0.0
 40
0.0
 40
0.4998722806903677
 40
0.4998722806903677
 40
1.0
 40
1.0
 40
1.0
 40
1.0
 10
18.13630775385536
 20
1.336350935390954
 30
0.0
 10
18.16414163084983
 20
1.384889938125752
 30
0.0
 10
18.19197193069948
 20
1.433570116840371
 30
0.0
 10
18.24762285252518
 20
1.5311975165406
 30
-0.0000000000000001
 10
18.27544704372883
 20
1.580151078711764
 30
0.0
 10
18.30325546097538
 20
1.629211323481171
 30
-0.0000000000000001
  0
LINE
  5
EF
330
A
100
AcDbEntity
  8
SK4
390
1D
100
AcDbLine
 10
-36.125
 20
0.0
 30
0.0
 11
21.125
 21
0.0
 31
0.0
  0
LINE
  5
F1
330
A
100
AcDbEntity
  8
4
390
1D
100
AcDbLine
 10
-0.125
 20
0.0
 30
0.0
 11
21.125
 21
0.0
 31
0.0
  0
MTEXT
  5
F3
330
A
100
AcDbEntity
  8
SK6
390
1D
100
AcDbMText
 10
2.9
 20
-50.453125
 30
0.0
 40
4.5
 41
0.0
 71
     7
 72
     5
  1
\W01.000;\Fsimplex.shx;
  7
SIMPLEX
 73
     2
 44
0.9036139999999999
1001
ACAD
1000
MTEXTBEGIN
1070
    73
1070
     2
1070
    44
1040
0.9036139999999999
1070
    74
1070
     0
1000
MTEXTEND
  0
DIMENSION
  5
100
330
A
100
AcDbEntity
  8
2
390
1D
100
AcDbDimension
  2
_D0
 10
21.0
 20
78.43
 30
0.0
 11
10.5
 21
79.5
 31
0.0
 70
    33
  1
 <> 
 71
     5
 42
-1.0
  3
Standard
100
AcDbAlignedDimension
 13
0.0
 23
0.0
 33
0.0
 14
21.0
 24
0.0
 34
0.0
1001
ACAD
1000
DSTYLE
1002
{
1070
   271
1070
     3
1070
   272
1070
     3
1070
    77
1070
     1
1070
    73
1070
     0
1070
   179
1070
     3
1070
   171
1070
     3
1070
   274
1070
     3
1070
   177
1070
     7
1070
   176
1070
     7
1070
   178
1070
     7
1070
    78
1070
     8
1070
    47
1040
0.005
1070
    48
1040
-0.005
1070
    41
1040
4.57
1070
   147
1040
1.5
1070
    42
1040
0.0
1070
    44
1040
3.5
1070
   140
1040
4.57
1070
     6
1000
_CLOSEDFILLED
1070
     7
1000
_CLOSEDFILLED
1002
}
  0
DIMENSION
  5
10C
330
A
100
AcDbEntity
  8
SK2
390
1D
100
AcDbDimension
  2
_D1
 10
-56.5
 20
17.043698
 30
0.0
 11
-56.5
 21
17.043698
 31
0.0
 70
    32
  1
%%c <> 
 71
     0
 72
     0
 41
0.0
 42
-1.0
 53
90.0
  3
Standard
100
AcDbAlignedDimension
 13
-35.6
 23
3.0
 33
0.0
 14
-35.6
 24
-3.0
 34
0.0
 50
90.0
100
AcDbRotatedDimension
1001
ACAD
1000
DSTYLE
1002
{
1070
   271
1070
     3
1070
   272
1070
     3
1070
    77
1070
     1
1070
    73
1070
     0
1070
   179
1070
     3
1070
   171
1070
     3
1070
   274
1070
     3
1070
   177
1070
     7
1070
   176
1070
     7
1070
   178
1070
     7
1070
    78
1070
     8
1070
    47
1040
0.005
1070
    48
1040
-0.005
1070
    41
1040
4.57
1070
   147
1040
1.5
1070
    42
1040
0.0
1070
    44
1040
3.5
1070
   140
1040
4.57
1070
     6
1000
_CLOSEDFILLED
1070
     7
1000
_CLOSEDFILLED
1002
}
  0
DIMENSION
  5
117
330
A
100
AcDbEntity
  8
2
390
1D
100
AcDbDimension
  2
_D2
 10
66.5
 20
23.287792
 30
0.0
 11
66.5
 21
23.287792
 31
0.0
 70
    32
  1
%%c <> 
 71
     0
 72
     0
 41
0.0
 42
-1.0
 53
90.0
  3
Standard
100
AcDbAlignedDimension
 13
21.0
 23
-1.774999999999999
 33
0.0
 14
21.0
 24
1.774999999999999
 34
0.0
 50
90.0
100
AcDbRotatedDimension
1001
ACAD
1000
DSTYLE
1002
{
1070
   271
1070
     3
1070
   272
1070
     3
1070
    77
1070
     1
1070
    73
1070
     0
1070
   179
1070
     3
1070
   177
1070
     7
1070
   176
1070
     7
1070
   178
1070
     7
1070
    78
1070
     8
1070
    47
1040
0.005
1070
    48
1040
-0.005
1070
    41
1040
4.57
1070
   147
1040
1.5
1070
    42
1040
0.0
1070
    44
1040
2.0
1070
   140
1040
4.57
1070
     6
1000
_CLOSEDFILLED
1070
     7
1000
_CLOSEDFILLED
1002
}
  0
DIMENSION
  5
121
330
A
100
AcDbEntity
  8
SK2
390
1D
100
AcDbDimension
  2
_D3
 10
-7.5
 20
94.50000000000001
 30
0.0
 11
-7.5
 21
94.50000000000001
 31
0.0
 70
    32
  1
 <> 
 71
     5
 42
-1.0
  3
Standard
100
AcDbAlignedDimension
 13
-36.0
 23
0.0
 33
0.0
 14
21.0
 24
0.0
 34
0.0
100
AcDbRotatedDimension
1001
ACAD
1000
DSTYLE
1002
{
1070
   271
1070
     3
1070
   272
1070
     3
1070
    77
1070
     1
1070
    73
1070
     0
1070
   179
1070
     3
1070
   177
1070
     7
1070
   176
1070
     7
1070
   178
1070
     7
1070
    78
1070
     8
1070
    47
1040
0.005
1070
    48
1040
-0.005
1070
    41
1040
4.57
1070
   147
1040
1.5
1070
    42
1040
0.0
1070
    44
1040
2.0
1070
   140
1040
4.57
1070
     6
1000
_CLOSEDFILLED
1070
     7
1000
_CLOSEDFILLED
1002
}
  0
DIMENSION
  5
12B
330
A
100
AcDbEntity
  8
2
390
1D
100
AcDbDimension
  2
_D4
 10
39.28999000000001
 20
49.500007
 30
0.0
 11
39.28999000000001
 21
49.500007
 31
0.0
 70
    32
  1
 <> 
 71
     5
 42
-1.0
  3
Standard
100
AcDbAlignedDimension
 13
17.825
 23
0.0
 33
0.0
 14
21.0
 24
0.0
 34
0.0
100
AcDbRotatedDimension
1001
ACAD
1000
DSTYLE
1002
{
1070
   271
1070
     3
1070
   272
1070
     3
1070
    77
1070
     1
1070
    73
1070
     0
1070
   179
1070
     3
1070
   177
1070
     7
1070
   176
1070
     7
1070
   178
1070
     7
1070
    78
1070
     8
1070
    47
1040
0.005
1070
    48
1040
-0.005
1070
    41
1040
4.57
1070
   147
1040
1.5
1070
    42
1040
0.0
1070
    44
1040
2.0
1070
   140
1040
4.57
1070
     6
1000
_CLOSEDFILLED
1070
     7
1000
_CLOSEDFILLED
1002
}
  0
DIMENSION
  5
135
330
A
100
AcDbEntity
  8
2
390
1D
100
AcDbDimension
  2
_D5
 10
36.800292
 20
64.5
 30
0.0
 11
36.800292
 21
64.5
 31
0.0
 70
    32
  1
 <> 
 71
     5
 42
-1.0
  3
Standard
100
AcDbAlignedDimension
 13
21.0
 23
0.0
 33
0.0
 14
4.9
 24
0.0
 34
0.0
100
AcDbRotatedDimension
1001
ACAD
1000
DSTYLE
1002
{
1070
   271
1070
     3
1070
   272
1070
     3
1070
    77
1070
     1
1070
    73
1070
     0
1070
   179
1070
     3
1070
   171
1070
     3
1070
   274
1070
     3
1070
   177
1070
     7
1070
   176
1070
     7
1070
   178
1070
     7
1070
    78
1070
     8
1070
    47
1040
0.005
1070
    48
1040
-0.005
1070
    41
1040
4.57
1070
   147
1040
1.5
1070
    42
1040
0.0
1070
    44
1040
3.5
1070
   140
1040
4.57
1070
     6
1000
_CLOSEDFILLED
1070
     7
1000
_CLOSEDFILLED
1002
}
  0
ENDSEC
  0
SECTION
  2
OBJECTS
  0
DICTIONARY
  5
19
330
0
100
AcDbDictionary
281
     1
  3
ACAD_COLOR
350
1C7
  3
ACAD_GROUP
350
1A
  3
ACAD_LAYOUT
350
1E
  3
ACAD_MATERIAL
350
19A
  3
ACAD_MLEADERSTYLE
350
18D
  3
ACAD_MLINESTYLE
350
1B
  3
ACAD_PLOTSETTINGS
350
22
  3
ACAD_PLOTSTYLENAME
350
1F
  3
ACAD_SCALELIST
350
14E
  3
ACAD_TABLESTYLE
350
1C8
  3
ACAD_VISUALSTYLE
350
1B3
  3
ACAD_WIPEOUT_VARS
350
23
  3
ACDB_RECOMPOSE_DATA
350
1ED
  3
AcDbVariableDictionary
350
18A
  3
ASE_INDEX_DICTIONARY
350
1E2
  3
DWGPROPS
350
1EE
  0
DICTIONARY
  5
1CD
330
14
100
AcDbDictionary
280
     1
281
     1
  3
ADSK_XREC_LAYER_RECONCILED
360
1CE
  0
DICTIONARY
  5
1CF
330
18F
100
AcDbDictionary
280
     1
281
     1
  3
ADSK_XREC_LAYER_RECONCILED
360
1D0
  0
DICTIONARY
  5
1D1
330
190
100
AcDbDictionary
280
     1
281
     1
  3
ADSK_XREC_LAYER_RECONCILED
360
1D2
  0
DICTIONARY
  5
1D3
330
191
100
AcDbDictionary
280
     1
281
     1
  3
ADSK_XREC_LAYER_RECONCILED
360
1D4
  0
DICTIONARY
  5
1D5
330
192
100
AcDbDictionary
280
     1
281
     1
  3
ADSK_XREC_LAYER_RECONCILED
360
1D6
  0
DICTIONARY
  5
1D7
330
193
100
AcDbDictionary
280
     1
281
     1
  3
ADSK_XREC_LAYER_RECONCILED
360
1D8
  0
DICTIONARY
  5
1D9
330
194
100
AcDbDictionary
280
     1
281
     1
  3
ADSK_XREC_LAYER_RECONCILED
360
1DA
  0
DICTIONARY
  5
1DB
330
195
100
AcDbDictionary
280
     1
281
     1
  3
ADSK_XREC_LAYER_RECONCILED
360
1DC
  0
DICTIONARY
  5
1DD
330
196
100
AcDbDictionary
280
     1
281
     1
  3
ADSK_XREC_LAYER_RECONCILED
360
1DE
  0
DICTIONARY
  5
1DF
330
197
100
AcDbDictionary
280
     1
281
     1
  3
ADSK_XREC_LAYER_RECONCILED
360
1E0
  0
DICTIONARY
  5
1C7
102
{ACAD_REACTORS
330
19
102
}
330
19
100
AcDbDictionary
281
     1
  0
DICTIONARY
  5
1A
102
{ACAD_REACTORS
330
19
102
}
330
19
100
AcDbDictionary
281
     1
  0
DICTIONARY
  5
1E
102
{ACAD_REACTORS
330
19
102
}
330
19
100
AcDbDictionary
281
     1
  3
Layout1
350
21
  3
Model
350
20
  0
DICTIONARY
  5
19A
102
{ACAD_REACTORS
330
19
102
}
330
19
100
AcDbDictionary
281
     1
  3
ByBlock
350
1A3
  3
ByLayer
350
19B
  3
Global
350
1AB
  0
DICTIONARY
  5
18D
102
{ACAD_REACTORS
330
19
102
}
330
19
100
AcDbDictionary
281
     1
  3
Standard
350
1CA
  0
DICTIONARY
  5
1B
102
{ACAD_REACTORS
330
19
102
}
330
19
100
AcDbDictionary
281
     1
  3
Standard
350
1C
  0
DICTIONARY
  5
22
102
{ACAD_REACTORS
330
19
102
}
330
19
100
AcDbDictionary
281
     1
  0
ACDBDICTIONARYWDFLT
  5
1F
102
{ACAD_REACTORS
330
19
102
}
330
19
100
AcDbDictionary
281
     1
  3
Normal
350
1D
100
AcDbDictionaryWithDefault
340
1D
  0
DICTIONARY
  5
14E
102
{ACAD_REACTORS
330
19
102
}
330
19
100
AcDbDictionary
281
     1
  3
A0
350
14F
  3
A1
350
150
  3
A2
350
151
  3
A3
350
152
  3
A4
350
153
  3
A5
350
154
  3
A6
350
155
  3
A7
350
156
  3
A8
350
157
  3
A9
350
158
  3
B0
350
159
  3
B1
350
15A
  3
B2
350
15B
  3
B3
350
15C
  3
B4
350
15D
  3
B5
350
15E
  3
B6
350
15F
  3
B7
350
160
  3
B8
350
161
  3
B9
350
162
  3
C0
350
163
  3
C1
350
164
  3
C2
350
165
  3
C3
350
166
  3
C4
350
167
  3
C5
350
168
  3
C6
350
169
  3
C7
350
16A
  3
C8
350
16B
  3
C9
350
16C
  3
D0
350
16D
  3
D1
350
16E
  3
D2
350
16F
  0
DICTIONARY
  5
1C8
102
{ACAD_REACTORS
330
19
102
}
330
19
100
AcDbDictionary
281
     1
  3
Standard
350
1C9
  0
DICTIONARY
  5
1B3
102
{ACAD_REACTORS
330
19
102
}
330
19
100
AcDbDictionary
281
     1
  3
2dWireframe
350
1B9
  3
3D Hidden
350
1BB
  3
3dWireframe
350
1BA
  3
Basic
350
1B8
  3
Brighten
350
1BF
  3
ColorChange
350
1C3
  3
Conceptual
350
1BC
  3
Dim
350
1BE
  3
EdgeColorOff
350
1C6
  3
Facepattern
350
1C2
  3
Flat
350
1B4
  3
FlatWithEdges
350
1B5
  3
Gouraud
350
1B6
  3
GouraudWithEdges
350
1B7
  3
JitterOff
350
1C4
  3
Linepattern
350
1C1
  3
OverhangOff
350
1C5
  3
Realistic
350
1BD
  3
Thicken
350
1C0
  0
WIPEOUTVARIABLES
  5
23
330
19
100
AcDbWipeoutVariables
 70
     1
  0
XRECORD
  5
1ED
102
{ACAD_REACTORS
330
19
102
}
330
19
100
AcDbXrecord
280
     1
 90
        1
330
1C9
  0
DICTIONARY
  5
18A
102
{ACAD_REACTORS
330
19
102
}
330
19
100
AcDbDictionary
281
     1
  3
CANNOSCALE
350
18B
  3
CMLEADERSTYLE
350
1E6
  3
CTABLESTYLE
350
1E5
  3
DIMASSOC
350
1E9
  3
INDEXCTL
350
1E8
  3
SORTENTS
350
1E7
  3
XCLIPFRAME
350
1EA
  0
DICTIONARY
  5
1E2
102
{ACAD_REACTORS
330
19
102
}
330
19
100
AcDbDictionary
281
     1
  3
ASEBlockHierarchyIndexRecord
350
1E4
1001
DCO15
1040
1871115738.494
  0
XRECORD
  5
1EE
102
{ACAD_REACTORS
330
19
102
}
330
19
100
AcDbXrecord
280
     1
  1
DWGPROPS COOKIE
  2

  3

  4

  6

  7

  8
tdm012
  9

300
=
301
=
302
=
303
=
304
=
305
=
306
=
307
=
308
=
309
=
 40
0.0034667476851852
 41
2457459.640543785
 42
2457459.644010347
  1

 90
        0
  0
XRECORD
  5
1CE
102
{ACAD_REACTORS
330
1CD
102
}
330
1CD
100
AcDbXrecord
280
     1
290
     1
  0
XRECORD
  5
1D0
102
{ACAD_REACTORS
330
1CF
102
}
330
1CF
100
AcDbXrecord
280
     1
290
     1
  0
XRECORD
  5
1D2
102
{ACAD_REACTORS
330
1D1
102
}
330
1D1
100
AcDbXrecord
280
     1
290
     1
  0
XRECORD
  5
1D4
102
{ACAD_REACTORS
330
1D3
102
}
330
1D3
100
AcDbXrecord
280
     1
290
     1
  0
XRECORD
  5
1D6
102
{ACAD_REACTORS
330
1D5
102
}
330
1D5
100
AcDbXrecord
280
     1
290
     1
  0
XRECORD
  5
1D8
102
{ACAD_REACTORS
330
1D7
102
}
330
1D7
100
AcDbXrecord
280
     1
290
     1
  0
XRECORD
  5
1DA
102
{ACAD_REACTORS
330
1D9
102
}
330
1D9
100
AcDbXrecord
280
     1
290
     1
  0
XRECORD
  5
1DC
102
{ACAD_REACTORS
330
1DB
102
}
330
1DB
100
AcDbXrecord
280
     1
290
     1
  0
XRECORD
  5
1DE
102
{ACAD_REACTORS
330
1DD
102
}
330
1DD
100
AcDbXrecord
280
     1
290
     1
  0
XRECORD
  5
1E0
102
{ACAD_REACTORS
330
1DF
102
}
330
1DF
100
AcDbXrecord
280
     1
290
     1
  0
LAYOUT
  5
21
102
{ACAD_XDICTIONARY
360
1F1
102
}
102
{ACAD_REACTORS
330
1E
102
}
330
1E
100
AcDbPlotSettings
  1

  2

  4

  6

 40
0.0
 41
0.0
 42
0.0
 43
0.0
 44
0.0
 45
0.0
 46
0.0
 47
0.0
 48
0.0
 49
0.0
140
0.0
141
0.0
142
1.0
143
1.0
 70
     0
 72
     0
 73
     0
 74
     0
  7

 75
     0
147
1.0
148
0.0
149
0.0
100
AcDbLayout
  1
Layout1
 70
     0
 71
     1
 10
-0.5
 20
-0.5
 11
5.0
 21
5.0
 12
0.0
 22
0.0
 32
0.0
 14
-0.5
 24
-0.5
 34
-0.5
 15
5.0
 25
5.0
 35
5.0
146
0.0
 13
0.0
 23
0.0
 33
0.0
 16
1.0
 26
0.0
 36
0.0
 17
0.0
 27
1.0
 37
0.0
 76
     0
330
B
  0
LAYOUT
  5
20
102
{ACAD_XDICTIONARY
360
1EF
102
}
102
{ACAD_REACTORS
330
1E
102
}
330
1E
100
AcDbPlotSettings
  1

  2

  4

  6

 40
0.0
 41
0.0
 42
0.0
 43
0.0
 44
0.0
 45
0.0
 46
0.0
 47
0.0
 48
0.0
 49
0.0
140
0.0
141
0.0
142
1.0
143
1.0
 70
  1024
 72
     0
 73
     0
 74
     0
  7

 75
     0
147
1.0
148
0.0
149
0.0
100
AcDbLayout
  1
Model
 70
     0
 71
     0
 10
0.0
 20
0.0
 11
0.0
 21
0.0
 12
0.0
 22
0.0
 32
0.0
 14
-58.83260433333334
 24
-50.453125
 34
-0.0000000000000002
 15
74.2125
 25
96.83260433333334
 35
0.0000000000000003
146
0.0
 13
0.0
 23
0.0
 33
0.0
 16
0.0
 26
0.0
 36
0.0
 17
0.0
 27
0.0
 37
0.0
 76
     0
330
A
331
13E
  0
MATERIAL
  5
1A3
102
{ACAD_XDICTIONARY
360
1A4
102
}
102
{ACAD_REACTORS
330
19A
102
}
330
19A
100
AcDbMaterial
  1
ByBlock
 72
     0
 43
0.0208333333333333
 43
0.0
 43
0.0
 43
0.0
 43
0.0
 43
0.0208333333333333
 43
0.0
 43
0.0
 43
0.0
 43
0.0
 43
1.0
 43
0.0
 43
0.0
 43
0.0
 43
0.0
 43
1.0
 77
     0
 47
0.0208333333333333
 47
0.0
 47
0.0
 47
0.0
 47
0.0
 47
0.0208333333333333
 47
0.0
 47
0.0
 47
0.0
 47
0.0
 47
1.0
 47
0.0
 47
0.0
 47
0.0
 47
0.0
 47
1.0
171
     0
 49
0.0208333333333333
 49
0.0
 49
0.0
 49
0.0
 49
0.0
 49
0.0208333333333333
 49
0.0
 49
0.0
 49
0.0
 49
0.0
 49
1.0
 49
0.0
 49
0.0
 49
0.0
 49
0.0
 49
1.0
175
     0
142
0.0208333333333333
142
0.0
142
0.0
142
0.0
142
0.0
142
0.0208333333333333
142
0.0
142
0.0
142
0.0
142
0.0
142
1.0
142
0.0
142
0.0
142
0.0
142
0.0
142
1.0
179
     0
144
0.0208333333333333
144
0.0
144
0.0
144
0.0
144
0.0
144
0.0208333333333333
144
0.0
144
0.0
144
0.0
144
0.0
144
1.0
144
0.0
144
0.0
144
0.0
144
0.0
144
1.0
147
0.0208333333333333
147
0.0
147
0.0
147
0.0
147
0.0
147
0.0208333333333333
147
0.0
147
0.0
147
0.0
147
0.0
147
1.0
147
0.0
147
0.0
147
0.0
147
0.0
147
1.0
  0
MATERIAL
  5
19B
102
{ACAD_XDICTIONARY
360
19C
102
}
102
{ACAD_REACTORS
330
19A
102
}
330
19A
100
AcDbMaterial
  1
ByLayer
 72
     0
 43
0.0208333333333333
 43
0.0
 43
0.0
 43
0.0
 43
0.0
 43
0.0208333333333333
 43
0.0
 43
0.0
 43
0.0
 43
0.0
 43
1.0
 43
0.0
 43
0.0
 43
0.0
 43
0.0
 43
1.0
 77
     0
 47
0.0208333333333333
 47
0.0
 47
0.0
 47
0.0
 47
0.0
 47
0.0208333333333333
 47
0.0
 47
0.0
 47
0.0
 47
0.0
 47
1.0
 47
0.0
 47
0.0
 47
0.0
 47
0.0
 47
1.0
171
     0
 49
0.0208333333333333
 49
0.0
 49
0.0
 49
0.0
 49
0.0
 49
0.0208333333333333
 49
0.0
 49
0.0
 49
0.0
 49
0.0
 49
1.0
 49
0.0
 49
0.0
 49
0.0
 49
0.0
 49
1.0
175
     0
142
0.0208333333333333
142
0.0
142
0.0
142
0.0
142
0.0
142
0.0208333333333333
142
0.0
142
0.0
142
0.0
142
0.0
142
1.0
142
0.0
142
0.0
142
0.0
142
0.0
142
1.0
179
     0
144
0.0208333333333333
144
0.0
144
0.0
144
0.0
144
0.0
144
0.0208333333333333
144
0.0
144
0.0
144
0.0
144
0.0
144
1.0
144
0.0
144
0.0
144
0.0
144
0.0
144
1.0
147
0.0208333333333333
147
0.0
147
0.0
147
0.0
147
0.0
147
0.0208333333333333
147
0.0
147
0.0
147
0.0
147
0.0
147
1.0
147
0.0
147
0.0
147
0.0
147
0.0
147
1.0
  0
MATERIAL
  5
1AB
102
{ACAD_XDICTIONARY
360
1AC
102
}
102
{ACAD_REACTORS
330
19A
102
}
330
19A
100
AcDbMaterial
  1
Global
 72
     0
 43
0.0208333333333333
 43
0.0
 43
0.0
 43
0.0
 43
0.0
 43
0.0208333333333333
 43
0.0
 43
0.0
 43
0.0
 43
0.0
 43
1.0
 43
0.0
 43
0.0
 43
0.0
 43
0.0
 43
1.0
 77
     0
 47
0.0208333333333333
 47
0.0
 47
0.0
 47
0.0
 47
0.0
 47
0.0208333333333333
 47
0.0
 47
0.0
 47
0.0
 47
0.0
 47
1.0
 47
0.0
 47
0.0
 47
0.0
 47
0.0
 47
1.0
171
     0
 49
0.0208333333333333
 49
0.0
 49
0.0
 49
0.0
 49
0.0
 49
0.0208333333333333
 49
0.0
 49
0.0
 49
0.0
 49
0.0
 49
1.0
 49
0.0
 49
0.0
 49
0.0
 49
0.0
 49
1.0
175
     0
142
0.0208333333333333
142
0.0
142
0.0
142
0.0
142
0.0
142
0.0208333333333333
142
0.0
142
0.0
142
0.0
142
0.0
142
1.0
142
0.0
142
0.0
142
0.0
142
0.0
142
1.0
179
     0
144
0.0208333333333333
144
0.0
144
0.0
144
0.0
144
0.0
144
0.0208333333333333
144
0.0
144
0.0
144
0.0
144
0.0
144
1.0
144
0.0
144
0.0
144
0.0
144
0.0
144
1.0
147
0.0208333333333333
147
0.0
147
0.0
147
0.0
147
0.0
147
0.0208333333333333
147
0.0
147
0.0
147
0.0
147
0.0
147
1.0
147
0.0
147
0.0
147
0.0
147
0.0
147
1.0
  0
MLEADERSTYLE
  5
1CA
102
{ACAD_REACTORS
330
18D
102
}
330
18D
100
AcDbMLeaderStyle
170
     2
171
     1
172
     0
 90
        2
 40
0.0
 41
0.0
173
     1
 91
-1056964608
340
11
 92
       -2
290
     1
 42
2.0
291
     1
 43
0.36
  3
Standard
 44
4.0
300

342
17
174
     1
178
     6
175
     1
176
     0
 93
-1056964608
 45
4.0
292
     0
297
     0
 46
4.0
 94
-1056964608
 47
1.0
 49
1.0
140
1.0
293
     1
141
0.0
294
     1
177
     0
142
1.0
295
     0
296
     0
143
0.125
1001
ACAD_MLEADERVER
1070
     2
  0
MLINESTYLE
  5
1C
102
{ACAD_REACTORS
330
1B
102
}
330
1B
100
AcDbMlineStyle
  2
STANDARD
 70
     0
  3

 62
     0
 51
90.0
 52
90.0
 71
     2
 49
0.5
 62
   256
  6
BYLAYER
 49
-0.5
 62
   256
  6
BYLAYER
  0
ACDBPLACEHOLDER
  5
1D
102
{ACAD_REACTORS
330
1F
102
}
330
1F
  0
SCALE
  5
14F
102
{ACAD_REACTORS
330
14E
102
}
330
14E
100
AcDbScale
 70
     0
300
1:1
140
1.0
141
1.0
290
     1
  0
SCALE
  5
150
102
{ACAD_REACTORS
330
14E
102
}
330
14E
100
AcDbScale
 70
     0
300
1:2
140
1.0
141
2.0
290
     0
  0
SCALE
  5
151
102
{ACAD_REACTORS
330
14E
102
}
330
14E
100
AcDbScale
 70
     0
300
1:4
140
1.0
141
4.0
290
     0
  0
SCALE
  5
152
102
{ACAD_REACTORS
330
14E
102
}
330
14E
100
AcDbScale
 70
     0
300
1:5
140
1.0
141
5.0
290
     0
  0
SCALE
  5
153
102
{ACAD_REACTORS
330
14E
102
}
330
14E
100
AcDbScale
 70
     0
300
1:8
140
1.0
141
8.0
290
     0
  0
SCALE
  5
154
102
{ACAD_REACTORS
330
14E
102
}
330
14E
100
AcDbScale
 70
     0
300
1:10
140
1.0
141
10.0
290
     0
  0
SCALE
  5
155
102
{ACAD_REACTORS
330
14E
102
}
330
14E
100
AcDbScale
 70
     0
300
1:16
140
1.0
141
16.0
290
     0
  0
SCALE
  5
156
102
{ACAD_REACTORS
330
14E
102
}
330
14E
100
AcDbScale
 70
     0
300
1:20
140
1.0
141
20.0
290
     0
  0
SCALE
  5
157
102
{ACAD_REACTORS
330
14E
102
}
330
14E
100
AcDbScale
 70
     0
300
1:30
140
1.0
141
30.0
290
     0
  0
SCALE
  5
158
102
{ACAD_REACTORS
330
14E
102
}
330
14E
100
AcDbScale
 70
     0
300
1:40
140
1.0
141
40.0
290
     0
  0
SCALE
  5
159
102
{ACAD_REACTORS
330
14E
102
}
330
14E
100
AcDbScale
 70
     0
300
1:50
140
1.0
141
50.0
290
     0
  0
SCALE
  5
15A
102
{ACAD_REACTORS
330
14E
102
}
330
14E
100
AcDbScale
 70
     0
300
1:100
140
1.0
141
100.0
290
     0
  0
SCALE
  5
15B
102
{ACAD_REACTORS
330
14E
102
}
330
14E
100
AcDbScale
 70
     0
300
2:1
140
2.0
141
1.0
290
     0
  0
SCALE
  5
15C
102
{ACAD_REACTORS
330
14E
102
}
330
14E
100
AcDbScale
 70
     0
300
4:1
140
4.0
141
1.0
290
     0
  0
SCALE
  5
15D
102
{ACAD_REACTORS
330
14E
102
}
330
14E
100
AcDbScale
 70
     0
300
8:1
140
8.0
141
1.0
290
     0
  0
SCALE
  5
15E
102
{ACAD_REACTORS
330
14E
102
}
330
14E
100
AcDbScale
 70
     0
300
10:1
140
10.0
141
1.0
290
     0
  0
SCALE
  5
15F
102
{ACAD_REACTORS
330
14E
102
}
330
14E
100
AcDbScale
 70
     0
300
100:1
140
100.0
141
1.0
290
     0
  0
SCALE
  5
160
102
{ACAD_REACTORS
330
14E
102
}
330
14E
100
AcDbScale
 70
     0
300
1/128" = 1'-0"
140
0.0078125
141
12.0
290
     0
  0
SCALE
  5
161
102
{ACAD_REACTORS
330
14E
102
}
330
14E
100
AcDbScale
 70
     0
300
1/64" = 1'-0"
140
0.015625
141
12.0
290
     0
  0
SCALE
  5
162
102
{ACAD_REACTORS
330
14E
102
}
330
14E
100
AcDbScale
 70
     0
300
1/32" = 1'-0"
140
0.03125
141
12.0
290
     0
  0
SCALE
  5
163
102
{ACAD_REACTORS
330
14E
102
}
330
14E
100
AcDbScale
 70
     0
300
1/16" = 1'-0"
140
0.0625
141
12.0
290
     0
  0
SCALE
  5
164
102
{ACAD_REACTORS
330
14E
102
}
330
14E
100
AcDbScale
 70
     0
300
3/32" = 1'-0"
140
0.09375
141
12.0
290
     0
  0
SCALE
  5
165
102
{ACAD_REACTORS
330
14E
102
}
330
14E
100
AcDbScale
 70
     0
300
1/8" = 1'-0"
140
0.125
141
12.0
290
     0
  0
SCALE
  5
166
102
{ACAD_REACTORS
330
14E
102
}
330
14E
100
AcDbScale
 70
     0
300
3/16" = 1'-0"
140
0.1875
141
12.0
290
     0
  0
SCALE
  5
167
102
{ACAD_REACTORS
330
14E
102
}
330
14E
100
AcDbScale
 70
     0
300
1/4" = 1'-0"
140
0.25
141
12.0
290
     0
  0
SCALE
  5
168
102
{ACAD_REACTORS
330
14E
102
}
330
14E
100
AcDbScale
 70
     0
300
3/8" = 1'-0"
140
0.375
141
12.0
290
     0
  0
SCALE
  5
169
102
{ACAD_REACTORS
330
14E
102
}
330
14E
100
AcDbScale
 70
     0
300
1/2" = 1'-0"
140
0.5
141
12.0
290
     0
  0
SCALE
  5
16A
102
{ACAD_REACTORS
330
14E
102
}
330
14E
100
AcDbScale
 70
     0
300
3/4" = 1'-0"
140
0.75
141
12.0
290
     0
  0
SCALE
  5
16B
102
{ACAD_REACTORS
330
14E
102
}
330
14E
100
AcDbScale
 70
     0
300
1" = 1'-0"
140
1.0
141
12.0
290
     0
  0
SCALE
  5
16C
102
{ACAD_REACTORS
330
14E
102
}
330
14E
100
AcDbScale
 70
     0
300
1-1/2" = 1'-0"
140
1.5
141
12.0
290
     0
  0
SCALE
  5
16D
102
{ACAD_REACTORS
330
14E
102
}
330
14E
100
AcDbScale
 70
     0
300
3" = 1'-0"
140
3.0
141
12.0
290
     0
  0
SCALE
  5
16E
102
{ACAD_REACTORS
330
14E
102
}
330
14E
100
AcDbScale
 70
     0
300
6" = 1'-0"
140
6.0
141
12.0
290
     0
  0
SCALE
  5
16F
102
{ACAD_REACTORS
330
14E
102
}
330
14E
100
AcDbScale
 70
     0
300
1'-0" = 1'-0"
140
12.0
141
12.0
290
     0
  0
TABLESTYLE
  5
1C9
102
{ACAD_XDICTIONARY
360
1EB
102
}
102
{ACAD_REACTORS
330
1C8
102
}
330
1C8
100
AcDbTableStyle
  3
Standard
 70
     0
 71
     0
 40
1.5
 41
1.5
280
     0
281
     0
  7
Standard
140
4.5
170
     2
 62
     0
 63
     7
283
     0
274
    -2
284
     1
 64
     0
275
    -2
285
     1
 65
     0
276
    -2
286
     1
 66
     0
277
    -2
287
     1
 67
     0
278
    -2
288
     1
 68
     0
279
    -2
289
     1
 69
     0
  7
Standard
140
6.0
170
     5
 62
     0
 63
     7
283
     0
274
    -2
284
     1
 64
     0
275
    -2
285
     1
 65
     0
276
    -2
286
     1
 66
     0
277
    -2
287
     1
 67
     0
278
    -2
288
     1
 68
     0
279
    -2
289
     1
 69
     0
  7
Standard
140
4.5
170
     5
 62
     0
 63
     7
283
     0
274
    -2
284
     1
 64
     0
275
    -2
285
     1
 65
     0
276
    -2
286
     1
 66
     0
277
    -2
287
     1
 67
     0
278
    -2
288
     1
 68
     0
279
    -2
289
     1
 69
     0
  0
VISUALSTYLE
  5
1B9
102
{ACAD_XDICTIONARY
360
200
102
}
102
{ACAD_REACTORS
330
1B3
102
}
330
1B3
100
AcDbVisualStyle
  2
2dWireframe
 70
     4
 71
     0
 72
     2
 73
     0
 90
        0
 40
-0.6
 41
-30.0
 62
     5
 63
     7
 74
     1
 91
        4
 64
     7
 65
   257
 75
     1
175
     1
 42
1.0
 92
        0
 66
   257
 43
1.0
 76
     1
 77
     6
 78
     2
 67
     7
 79
     5
170
     0
171
     0
290
     0
174
     0
 93
        1
 44
0.0
173
     0
291
     0
 45
0.0
1001
ACAD
1000
AcDbSavedByObjectVersion
1070
     0
  0
VISUALSTYLE
  5
1BB
102
{ACAD_XDICTIONARY
360
204
102
}
102
{ACAD_REACTORS
330
1B3
102
}
330
1B3
100
AcDbVisualStyle
  2
3D Hidden
 70
     6
 71
     1
 72
     2
 73
     2
 90
        0
 40
-0.6
 41
-30.0
 62
     5
 63
     7
 74
     2
 91
        2
 64
     7
 65
   257
 75
     2
175
     1
 42
179.0
 92
        0
 66
   257
 43
1.0
 76
     1
 77
     6
 78
     2
 67
     7
 79
     3
170
     0
171
     0
290
     0
174
     0
 93
        1
 44
0.0
173
     0
291
     0
 45
0.0
1001
ACAD
1000
AcDbSavedByObjectVersion
1070
     0
  0
VISUALSTYLE
  5
1BA
102
{ACAD_XDICTIONARY
360
202
102
}
102
{ACAD_REACTORS
330
1B3
102
}
330
1B3
100
AcDbVisualStyle
  2
3dWireframe
 70
     5
 71
     0
 72
     2
 73
     0
 90
        0
 40
-0.6
 41
-30.0
 62
     5
 63
     7
 74
     1
 91
        4
 64
     7
 65
   257
 75
     1
175
     1
 42
1.0
 92
        0
 66
   257
 43
1.0
 76
     1
 77
     6
 78
     2
 67
     7
 79
     5
170
     0
171
     0
290
     0
174
     0
 93
        1
 44
0.0
173
     0
291
     0
 45
0.0
1001
ACAD
1000
AcDbSavedByObjectVersion
1070
     0
  0
VISUALSTYLE
  5
1B8
102
{ACAD_XDICTIONARY
360
1FE
102
}
102
{ACAD_REACTORS
330
1B3
102
}
330
1B3
100
AcDbVisualStyle
  2
Basic
 70
     7
 71
     1
 72
     0
 73
     1
 90
        0
 40
-0.6
 41
-30.0
 62
     5
 63
     7
 74
     0
 91
        4
 64
     7
 65
   257
 75
     1
175
     1
 42
1.0
 92
        8
 66
     7
 43
1.0
 76
     1
 77
     6
 78
     2
 67
     7
 79
     5
170
     0
171
     0
290
     0
174
     0
 93
        1
 44
0.0
173
     0
291
     1
 45
0.0
1001
ACAD
1000
AcDbSavedByObjectVersion
1070
     0
  0
VISUALSTYLE
  5
1BF
102
{ACAD_XDICTIONARY
360
20C
102
}
102
{ACAD_REACTORS
330
1B3
102
}
330
1B3
100
AcDbVisualStyle
  2
Brighten
 70
    12
 71
     2
 72
     2
 73
     0
 90
        0
 40
-0.6
 41
-30.0
 62
     5
 63
     7
 74
     1
 91
        4
 64
     7
 65
   257
 75
     1
175
     1
 42
1.0
 92
        8
 66
     7
 43
1.0
 76
     1
 77
     6
 78
     2
 67
     7
 79
     5
170
     0
171
     0
290
     0
174
     0
 93
        1
 44
50.0
173
     0
291
     1
 45
0.0
1001
ACAD
1000
AcDbSavedByObjectVersion
1070
     0
  0
VISUALSTYLE
  5
1C3
102
{ACAD_XDICTIONARY
360
214
102
}
102
{ACAD_REACTORS
330
1B3
102
}
330
1B3
100
AcDbVisualStyle
  2
ColorChange
 70
    16
 71
     2
 72
     2
 73
     3
 90
        0
 40
-0.6
 41
-30.0
 62
     5
 63
     8
 74
     1
 91
        4
 64
     7
 65
   257
 75
     1
175
     1
 42
1.0
 92
        8
 66
     8
 43
1.0
 76
     1
 77
     6
 78
     2
 67
     7
 79
     5
170
     0
171
     0
290
     0
174
     0
 93
        1
 44
0.0
173
     0
291
     1
 45
0.0
1001
ACAD
1000
AcDbSavedByObjectVersion
1070
     0
  0
VISUALSTYLE
  5
1BC
102
{ACAD_XDICTIONARY
360
206
102
}
102
{ACAD_REACTORS
330
1B3
102
}
330
1B3
100
AcDbVisualStyle
  2
Conceptual
 70
     9
 71
     3
 72
     2
 73
     0
 90
        0
 40
-0.6
 41
-30.0
 62
     5
 63
     7
 74
     2
 91
        2
 64
     7
 65
   257
 75
     1
175
     1
 42
179.0
 92
        8
 66
     7
 43
1.0
 76
     1
 77
     6
 78
     2
 67
     7
 79
     3
170
     0
171
     0
290
     0
174
     0
 93
        1
 44
0.0
173
     0
291
     0
 45
0.0
1001
ACAD
1000
AcDbSavedByObjectVersion
1070
     0
  0
VISUALSTYLE
  5
1BE
102
{ACAD_XDICTIONARY
360
20A
102
}
102
{ACAD_REACTORS
330
1B3
102
}
330
1B3
100
AcDbVisualStyle
  2
Dim
 70
    11
 71
     2
 72
     2
 73
     0
 90
        0
 40
-0.6
 41
-30.0
 62
     5
 63
     7
 74
     1
 91
        4
 64
     7
 65
   257
 75
     1
175
     1
 42
1.0
 92
        8
 66
     7
 43
1.0
 76
     1
 77
     6
 78
     2
 67
     7
 79
     5
170
     0
171
     0
290
     0
174
     0
 93
        1
 44
-50.0
173
     0
291
     1
 45
0.0
1001
ACAD
1000
AcDbSavedByObjectVersion
1070
     0
  0
VISUALSTYLE
  5
1C6
102
{ACAD_XDICTIONARY
360
21A
102
}
102
{ACAD_REACTORS
330
1B3
102
}
330
1B3
100
AcDbVisualStyle
  2
EdgeColorOff
 70
    22
 71
     2
 72
     2
 73
     0
 90
        0
 40
-0.6
 41
-30.0
 62
     5
 63
     7
 74
     1
 91
        4
 64
     7
 65
   257
 75
     1
175
     1
 42
1.0
 92
        8
 66
     7
 43
1.0
 76
     1
 77
     6
 78
     2
 67
     7
 79
     5
170
     0
171
     0
290
     0
174
     0
 93
        1
 44
0.0
173
     0
291
     1
 45
0.0
1001
ACAD
1000
AcDbSavedByObjectVersion
1070
     0
  0
VISUALSTYLE
  5
1C2
102
{ACAD_XDICTIONARY
360
212
102
}
102
{ACAD_REACTORS
330
1B3
102
}
330
1B3
100
AcDbVisualStyle
  2
Facepattern
 70
    15
 71
     2
 72
     2
 73
     0
 90
        0
 40
-0.6
 41
-30.0
 62
     5
 63
     7
 74
     1
 91
        4
 64
     7
 65
   257
 75
     1
175
     1
 42
1.0
 92
        8
 66
     7
 43
1.0
 76
     1
 77
     6
 78
     2
 67
     7
 79
     5
170
     0
171
     0
290
     0
174
     0
 93
        1
 44
0.0
173
     0
291
     1
 45
0.0
1001
ACAD
1000
AcDbSavedByObjectVersion
1070
     0
  0
VISUALSTYLE
  5
1B4
102
{ACAD_XDICTIONARY
360
1F6
102
}
102
{ACAD_REACTORS
330
1B3
102
}
330
1B3
100
AcDbVisualStyle
  2
Flat
 70
     0
 71
     2
 72
     1
 73
     1
 90
        2
 40
-0.6
 41
30.0
 62
     5
 63
     7
 74
     0
 91
        4
 64
     7
 65
   257
 75
     1
175
     1
 42
1.0
 92
        8
 66
     7
 43
1.0
 76
     1
 77
     6
 78
     2
 67
     7
 79
     5
170
     0
171
     0
290
     0
174
     0
 93
       13
 44
0.0
173
     0
291
     1
 45
0.0
1001
ACAD
1000
AcDbSavedByObjectVersion
1070
     0
  0
VISUALSTYLE
  5
1B5
102
{ACAD_XDICTIONARY
360
1F8
102
}
102
{ACAD_REACTORS
330
1B3
102
}
330
1B3
100
AcDbVisualStyle
  2
FlatWithEdges
 70
     1
 71
     2
 72
     1
 73
     1
 90
        2
 40
-0.6
 41
30.0
 62
     5
 63
     7
 74
     1
 91
        4
 64
     7
 65
   257
 75
     1
175
     1
 42
1.0
 92
        0
 66
   257
 43
1.0
 76
     1
 77
     6
 78
     2
 67
     7
 79
     5
170
     0
171
     0
290
     0
174
     0
 93
       13
 44
0.0
173
     0
291
     1
 45
0.0
1001
ACAD
1000
AcDbSavedByObjectVersion
1070
     0
  0
VISUALSTYLE
  5
1B6
102
{ACAD_XDICTIONARY
360
1FA
102
}
102
{ACAD_REACTORS
330
1B3
102
}
330
1B3
100
AcDbVisualStyle
  2
Gouraud
 70
     2
 71
     2
 72
     2
 73
     1
 90
        2
 40
-0.6
 41
30.0
 62
     5
 63
     7
 74
     0
 91
        4
 64
     7
 65
   257
 75
     1
175
     1
 42
1.0
 92
        0
 66
     7
 43
1.0
 76
     1
 77
     6
 78
     2
 67
     7
 79
     5
170
     0
171
     0
290
     0
174
     0
 93
       13
 44
0.0
173
     0
291
     1
 45
0.0
1001
ACAD
1000
AcDbSavedByObjectVersion
1070
     0
  0
VISUALSTYLE
  5
1B7
102
{ACAD_XDICTIONARY
360
1FC
102
}
102
{ACAD_REACTORS
330
1B3
102
}
330
1B3
100
AcDbVisualStyle
  2
GouraudWithEdges
 70
     3
 71
     2
 72
     2
 73
     1
 90
        2
 40
-0.6
 41
30.0
 62
     5
 63
     7
 74
     1
 91
        4
 64
     7
 65
   257
 75
     1
175
     1
 42
1.0
 92
        0
 66
   257
 43
1.0
 76
     1
 77
     6
 78
     2
 67
     7
 79
     5
170
     0
171
     0
290
     0
174
     0
 93
       13
 44
0.0
173
     0
291
     1
 45
0.0
1001
ACAD
1000
AcDbSavedByObjectVersion
1070
     0
  0
VISUALSTYLE
  5
1C4
102
{ACAD_XDICTIONARY
360
216
102
}
102
{ACAD_REACTORS
330
1B3
102
}
330
1B3
100
AcDbVisualStyle
  2
JitterOff
 70
    20
 71
     2
 72
     2
 73
     0
 90
        0
 40
-0.6
 41
-30.0
 62
     5
 63
     7
 74
     1
 91
        4
 64
     7
 65
   257
 75
     1
175
     1
 42
1.0
 92
       10
 66
     7
 43
1.0
 76
     1
 77
     6
 78
     2
 67
     7
 79
     5
170
     0
171
     0
290
     0
174
     0
 93
        1
 44
0.0
173
     0
291
     1
 45
0.0
1001
ACAD
1000
AcDbSavedByObjectVersion
1070
     0
  0
VISUALSTYLE
  5
1C1
102
{ACAD_XDICTIONARY
360
210
102
}
102
{ACAD_REACTORS
330
1B3
102
}
330
1B3
100
AcDbVisualStyle
  2
Linepattern
 70
    14
 71
     2
 72
     2
 73
     0
 90
        0
 40
-0.6
 41
-30.0
 62
     5
 63
     7
 74
     1
 91
        4
 64
     7
 65
   257
 75
     7
175
     7
 42
1.0
 92
        8
 66
     7
 43
1.0
 76
     1
 77
     6
 78
     2
 67
     7
 79
     5
170
     0
171
     0
290
     0
174
     0
 93
        1
 44
0.0
173
     0
291
     1
 45
0.0
1001
ACAD
1000
AcDbSavedByObjectVersion
1070
     0
  0
VISUALSTYLE
  5
1C5
102
{ACAD_XDICTIONARY
360
218
102
}
102
{ACAD_REACTORS
330
1B3
102
}
330
1B3
100
AcDbVisualStyle
  2
OverhangOff
 70
    21
 71
     2
 72
     2
 73
     0
 90
        0
 40
-0.6
 41
-30.0
 62
     5
 63
     7
 74
     1
 91
        4
 64
     7
 65
   257
 75
     1
175
     1
 42
1.0
 92
        9
 66
     7
 43
1.0
 76
     1
 77
     6
 78
     2
 67
     7
 79
     5
170
     0
171
     0
290
     0
174
     0
 93
        1
 44
0.0
173
     0
291
     1
 45
0.0
1001
ACAD
1000
AcDbSavedByObjectVersion
1070
     0
  0
VISUALSTYLE
  5
1BD
102
{ACAD_XDICTIONARY
360
208
102
}
102
{ACAD_REACTORS
330
1B3
102
}
330
1B3
100
AcDbVisualStyle
  2
Realistic
 70
     8
 71
     2
 72
     2
 73
     0
 90
        0
 40
-0.6
 41
-30.0
 62
     5
 63
     7
 74
     1
 91
        0
 64
     7
 65
   257
 75
     1
175
     1
 42
1.0
 92
        8
 66
     8
 43
1.0
 76
     1
 77
     6
 78
     2
 67
     7
 79
     5
170
     0
171
     0
290
     0
174
     0
 93
       13
 44
0.0
173
     0
291
     0
 45
0.0
1001
ACAD
1000
AcDbSavedByObjectVersion
1070
     0
  0
VISUALSTYLE
  5
1C0
102
{ACAD_XDICTIONARY
360
20E
102
}
102
{ACAD_REACTORS
330
1B3
102
}
330
1B3
100
AcDbVisualStyle
  2
Thicken
 70
    13
 71
     2
 72
     2
 73
     0
 90
        0
 40
-0.6
 41
-30.0
 62
     5
 63
     7
 74
     1
 91
        4
 64
     7
 65
   257
 75
     1
175
     1
 42
1.0
 92
       12
 66
     7
 43
1.0
 76
     1
 77
     6
 78
     2
 67
     7
 79
     5
170
     0
171
     0
290
     0
174
     0
 93
        1
 44
0.0
173
     0
291
     1
 45
0.0
1001
ACAD
1000
AcDbSavedByObjectVersion
1070
     0
  0
DICTIONARYVAR
  5
18B
102
{ACAD_REACTORS
330
18A
102
}
330
18A
100
DictionaryVariables
280
     0
  1
1:1
  0
DICTIONARYVAR
  5
1E6
102
{ACAD_REACTORS
330
18A
102
}
330
18A
100
DictionaryVariables
280
     0
  1
STANDARD
  0
DICTIONARYVAR
  5
1E5
102
{ACAD_REACTORS
330
18A
102
}
330
18A
100
DictionaryVariables
280
     0
  1
STANDARD
  0
DICTIONARYVAR
  5
1E9
102
{ACAD_REACTORS
330
18A
102
}
330
18A
100
DictionaryVariables
280
     0
  1
1
  0
DICTIONARYVAR
  5
1E8
102
{ACAD_REACTORS
330
18A
102
}
330
18A
100
DictionaryVariables
280
     0
  1
0
  0
DICTIONARYVAR
  5
1E7
102
{ACAD_REACTORS
330
18A
102
}
330
18A
100
DictionaryVariables
280
     0
  1
127
  0
DICTIONARYVAR
  5
1EA
102
{ACAD_REACTORS
330
18A
102
}
330
18A
100
DictionaryVariables
280
     0
  1
2
  0
XRECORD
  5
1E4
102
{ACAD_REACTORS
330
1E2
102
}
330
1E2
100
AcDbXrecord
280
     1
  0
DICTIONARY
  5
1F1
330
21
100
AcDbDictionary
280
     1
281
     1
  3
ACAD_XREC_ROUNDTRIP
360
1F2
  0
DICTIONARY
  5
1EF
330
20
100
AcDbDictionary
280
     1
281
     1
  3
ACAD_XREC_ROUNDTRIP
360
1F0
  0
DICTIONARY
  5
1A4
330
1A3
100
AcDbDictionary
280
     1
281
     1
  3
ACAD_XREC_ROUNDTRIP
360
1F4
  3
BUMPTILE
360
1A6
  3
DIFFUSETILE
360
1A5
  3
OPACITYTILE
360
1A9
  3
REFLECTIONTILE
360
1A8
  3
REFRACTIONTILE
360
1AA
  3
SPECULARTILE
360
1A7
  0
DICTIONARY
  5
19C
330
19B
100
AcDbDictionary
280
     1
281
     1
  3
ACAD_XREC_ROUNDTRIP
360
1F3
  3
BUMPTILE
360
19E
  3
DIFFUSETILE
360
19D
  3
OPACITYTILE
360
1A1
  3
REFLECTIONTILE
360
1A0
  3
REFRACTIONTILE
360
1A2
  3
SPECULARTILE
360
19F
  0
DICTIONARY
  5
1AC
330
1AB
100
AcDbDictionary
280
     1
281
     1
  3
ACAD_XREC_ROUNDTRIP
360
1F5
  3
BUMPTILE
360
1AE
  3
DIFFUSETILE
360
1AD
  3
OPACITYTILE
360
1B1
  3
REFLECTIONTILE
360
1B0
  3
REFRACTIONTILE
360
1B2
  3
SPECULARTILE
360
1AF
  0
DICTIONARY
  5
1EB
330
1C9
100
AcDbDictionary
280
     1
281
     1
  3
ACAD_ROUNDTRIP_2008_TABLESTYLE_CELLSTYLEMAP
360
1EC
  3
ACAD_XREC_ROUNDTRIP
360
21C
  0
DICTIONARY
  5
200
330
1B9
100
AcDbDictionary
280
     1
281
     1
  3
ACAD_XREC_ROUNDTRIP
360
201
  0
DICTIONARY
  5
204
330
1BB
100
AcDbDictionary
280
     1
281
     1
  3
ACAD_XREC_ROUNDTRIP
360
205
  0
DICTIONARY
  5
202
330
1BA
100
AcDbDictionary
280
     1
281
     1
  3
ACAD_XREC_ROUNDTRIP
360
203
  0
DICTIONARY
  5
1FE
330
1B8
100
AcDbDictionary
280
     1
281
     1
  3
ACAD_XREC_ROUNDTRIP
360
1FF
  0
DICTIONARY
  5
20C
330
1BF
100
AcDbDictionary
280
     1
281
     1
  3
ACAD_XREC_ROUNDTRIP
360
20D
  0
DICTIONARY
  5
214
330
1C3
100
AcDbDictionary
280
     1
281
     1
  3
ACAD_XREC_ROUNDTRIP
360
215
  0
DICTIONARY
  5
206
330
1BC
100
AcDbDictionary
280
     1
281
     1
  3
ACAD_XREC_ROUNDTRIP
360
207
  0
DICTIONARY
  5
20A
330
1BE
100
AcDbDictionary
280
     1
281
     1
  3
ACAD_XREC_ROUNDTRIP
360
20B
  0
DICTIONARY
  5
21A
330
1C6
100
AcDbDictionary
280
     1
281
     1
  3
ACAD_XREC_ROUNDTRIP
360
21B
  0
DICTIONARY
  5
212
330
1C2
100
AcDbDictionary
280
     1
281
     1
  3
ACAD_XREC_ROUNDTRIP
360
213
  0
DICTIONARY
  5
1F6
330
1B4
100
AcDbDictionary
280
     1
281
     1
  3
ACAD_XREC_ROUNDTRIP
360
1F7
  0
DICTIONARY
  5
1F8
330
1B5
100
AcDbDictionary
280
     1
281
     1
  3
ACAD_XREC_ROUNDTRIP
360
1F9
  0
DICTIONARY
  5
1FA
330
1B6
100
AcDbDictionary
280
     1
281
     1
  3
ACAD_XREC_ROUNDTRIP
360
1FB
  0
DICTIONARY
  5
1FC
330
1B7
100
AcDbDictionary
280
     1
281
     1
  3
ACAD_XREC_ROUNDTRIP
360
1FD
  0
DICTIONARY
  5
216
330
1C4
100
AcDbDictionary
280
     1
281
     1
  3
ACAD_XREC_ROUNDTRIP
360
217
  0
DICTIONARY
  5
210
330
1C1
100
AcDbDictionary
280
     1
281
     1
  3
ACAD_XREC_ROUNDTRIP
360
211
  0
DICTIONARY
  5
218
330
1C5
100
AcDbDictionary
280
     1
281
     1
  3
ACAD_XREC_ROUNDTRIP
360
219
  0
DICTIONARY
  5
208
330
1BD
100
AcDbDictionary
280
     1
281
     1
  3
ACAD_XREC_ROUNDTRIP
360
209
  0
DICTIONARY
  5
20E
330
1C0
100
AcDbDictionary
280
     1
281
     1
  3
ACAD_XREC_ROUNDTRIP
360
20F
  0
XRECORD
  5
1F2
102
{ACAD_REACTORS
330
1F1
102
}
330
1F1
100
AcDbXrecord
280
     1
102
SHADEPLOT
 70
     0
102
SHADEPLOTRESLEVEL
 70
     2
102
SHADEPLOTCUSTOMDPI
 70
   300
  0
XRECORD
  5
1F0
102
{ACAD_REACTORS
330
1EF
102
}
330
1EF
100
AcDbXrecord
280
     1
102
SHADEPLOT
 70
     0
102
SHADEPLOTRESLEVEL
 70
     2
102
SHADEPLOTCUSTOMDPI
 70
   300
  0
XRECORD
  5
1F4
102
{ACAD_REACTORS
330
1A4
102
}
330
1A4
100
AcDbXrecord
280
     1
102
MATERIAL
148
0.0
149
0.0
149
0.0
 93
        0
 94
      127
282
     0
 72
     0
 77
     0
171
     0
175
     0
179
     0
273
     0
  0
XRECORD
  5
1A6
102
{ACAD_REACTORS
330
1A4
102
}
330
1A4
100
AcDbXrecord
280
     1
270
     1
271
     1
  0
XRECORD
  5
1A5
102
{ACAD_REACTORS
330
1A4
102
}
330
1A4
100
AcDbXrecord
280
     1
270
     1
271
     1
  0
XRECORD
  5
1A9
102
{ACAD_REACTORS
330
1A4
102
}
330
1A4
100
AcDbXrecord
280
     1
270
     1
271
     1
  0
XRECORD
  5
1A8
102
{ACAD_REACTORS
330
1A4
102
}
330
1A4
100
AcDbXrecord
280
     1
270
     1
271
     1
  0
XRECORD
  5
1AA
102
{ACAD_REACTORS
330
1A4
102
}
330
1A4
100
AcDbXrecord
280
     1
270
     1
271
     1
  0
XRECORD
  5
1A7
102
{ACAD_REACTORS
330
1A4
102
}
330
1A4
100
AcDbXrecord
280
     1
270
     1
271
     1
  0
XRECORD
  5
1F3
102
{ACAD_REACTORS
330
19C
102
}
330
19C
100
AcDbXrecord
280
     1
102
MATERIAL
148
0.0
149
0.0
149
0.0
 93
        0
 94
      127
282
     0
 72
     0
 77
     0
171
     0
175
     0
179
     0
273
     0
  0
XRECORD
  5
19E
102
{ACAD_REACTORS
330
19C
102
}
330
19C
100
AcDbXrecord
280
     1
270
     1
271
     1
  0
XRECORD
  5
19D
102
{ACAD_REACTORS
330
19C
102
}
330
19C
100
AcDbXrecord
280
     1
270
     1
271
     1
  0
XRECORD
  5
1A1
102
{ACAD_REACTORS
330
19C
102
}
330
19C
100
AcDbXrecord
280
     1
270
     1
271
     1
  0
XRECORD
  5
1A0
102
{ACAD_REACTORS
330
19C
102
}
330
19C
100
AcDbXrecord
280
     1
270
     1
271
     1
  0
XRECORD
  5
1A2
102
{ACAD_REACTORS
330
19C
102
}
330
19C
100
AcDbXrecord
280
     1
270
     1
271
     1
  0
XRECORD
  5
19F
102
{ACAD_REACTORS
330
19C
102
}
330
19C
100
AcDbXrecord
280
     1
270
     1
271
     1
  0
XRECORD
  5
1F5
102
{ACAD_REACTORS
330
1AC
102
}
330
1AC
100
AcDbXrecord
280
     1
102
MATERIAL
148
0.0
149
0.0
149
0.0
 93
        0
 94
      127
282
     0
 72
     0
 77
     0
171
     0
175
     0
179
     0
273
     0
  0
XRECORD
  5
1AE
102
{ACAD_REACTORS
330
1AC
102
}
330
1AC
100
AcDbXrecord
280
     1
270
     1
271
     1
  0
XRECORD
  5
1AD
102
{ACAD_REACTORS
330
1AC
102
}
330
1AC
100
AcDbXrecord
280
     1
270
     1
271
     1
  0
XRECORD
  5
1B1
102
{ACAD_REACTORS
330
1AC
102
}
330
1AC
100
AcDbXrecord
280
     1
270
     1
271
     1
  0
XRECORD
  5
1B0
102
{ACAD_REACTORS
330
1AC
102
}
330
1AC
100
AcDbXrecord
280
     1
270
     1
271
     1
  0
XRECORD
  5
1B2
102
{ACAD_REACTORS
330
1AC
102
}
330
1AC
100
AcDbXrecord
280
     1
270
     1
271
     1
  0
XRECORD
  5
1AF
102
{ACAD_REACTORS
330
1AC
102
}
330
1AC
100
AcDbXrecord
280
     1
270
     1
271
     1
  0
CELLSTYLEMAP
  5
1EC
102
{ACAD_REACTORS
330
1EB
102
}
330
1EB
100
AcDbCellStyleMap
 90
        3
300
CELLSTYLE
  1
TABLEFORMAT_BEGIN
 90
        5
170
     1
 91
        0
 92
    32768
 62
   257
 93
        1
300
CONTENTFORMAT
  1
CONTENTFORMAT_BEGIN
 90
        0
 91
        0
 92
      512
 93
        0
300

 40
0.0
140
1.0
 94
        5
 62
     0
340
17
144
6.0
309
CONTENTFORMAT_END
171
     1
301
MARGIN
  1
CELLMARGIN_BEGIN
 40
1.5
 40
1.5
 40
1.5
 40
1.5
 40
4.5
 40
4.5
309
CELLMARGIN_END
 94
        6
 95
        1
302
GRIDFORMAT
  1
GRIDFORMAT_BEGIN
 90
        0
 91
        1
 62
     0
 92
       -2
340
0
 93
        0
 40
1.125
309
GRIDFORMAT_END
 95
        2
302
GRIDFORMAT
  1
GRIDFORMAT_BEGIN
 90
        0
 91
        1
 62
     0
 92
       -2
340
0
 93
        0
 40
1.125
309
GRIDFORMAT_END
 95
        4
302
GRIDFORMAT
  1
GRIDFORMAT_BEGIN
 90
        0
 91
        1
 62
     0
 92
       -2
340
0
 93
        0
 40
1.125
309
GRIDFORMAT_END
 95
        8
302
GRIDFORMAT
  1
GRIDFORMAT_BEGIN
 90
        0
 91
        1
 62
     0
 92
       -2
340
0
 93
        0
 40
1.125
309
GRIDFORMAT_END
 95
       16
302
GRIDFORMAT
  1
GRIDFORMAT_BEGIN
 90
        0
 91
        1
 62
     0
 92
       -2
340
0
 93
        0
 40
1.125
309
GRIDFORMAT_END
 95
       32
302
GRIDFORMAT
  1
GRIDFORMAT_BEGIN
 90
        0
 91
        1
 62
     0
 92
       -2
340
0
 93
        0
 40
1.125
309
GRIDFORMAT_END
309
TABLEFORMAT_END
  1
CELLSTYLE_BEGIN
 90
        1
 91
        1
300
_TITLE
309
CELLSTYLE_END
300
CELLSTYLE
  1
TABLEFORMAT_BEGIN
 90
        5
170
     1
 91
        0
 92
        0
 62
   257
 93
        1
300
CONTENTFORMAT
  1
CONTENTFORMAT_BEGIN
 90
        0
 91
        0
 92
      512
 93
        0
300

 40
0.0
140
1.0
 94
        5
 62
     0
340
17
144
4.5
309
CONTENTFORMAT_END
171
     1
301
MARGIN
  1
CELLMARGIN_BEGIN
 40
1.5
 40
1.5
 40
1.5
 40
1.5
 40
4.5
 40
4.5
309
CELLMARGIN_END
 94
        6
 95
        1
302
GRIDFORMAT
  1
GRIDFORMAT_BEGIN
 90
        0
 91
        1
 62
     0
 92
       -2
340
0
 93
        0
 40
1.125
309
GRIDFORMAT_END
 95
        2
302
GRIDFORMAT
  1
GRIDFORMAT_BEGIN
 90
        0
 91
        1
 62
     0
 92
       -2
340
0
 93
        0
 40
1.125
309
GRIDFORMAT_END
 95
        4
302
GRIDFORMAT
  1
GRIDFORMAT_BEGIN
 90
        0
 91
        1
 62
     0
 92
       -2
340
0
 93
        0
 40
1.125
309
GRIDFORMAT_END
 95
        8
302
GRIDFORMAT
  1
GRIDFORMAT_BEGIN
 90
        0
 91
        1
 62
     0
 92
       -2
340
0
 93
        0
 40
1.125
309
GRIDFORMAT_END
 95
       16
302
GRIDFORMAT
  1
GRIDFORMAT_BEGIN
 90
        0
 91
        1
 62
     0
 92
       -2
340
0
 93
        0
 40
1.125
309
GRIDFORMAT_END
 95
       32
302
GRIDFORMAT
  1
GRIDFORMAT_BEGIN
 90
        0
 91
        1
 62
     0
 92
       -2
340
0
 93
        0
 40
1.125
309
GRIDFORMAT_END
309
TABLEFORMAT_END
  1
CELLSTYLE_BEGIN
 90
        2
 91
        1
300
_HEADER
309
CELLSTYLE_END
300
CELLSTYLE
  1
TABLEFORMAT_BEGIN
 90
        5
170
     1
 91
        0
 92
        0
 62
   257
 93
        1
300
CONTENTFORMAT
  1
CONTENTFORMAT_BEGIN
 90
        0
 91
        0
 92
      512
 93
        0
300

 40
0.0
140
1.0
 94
        2
 62
     0
340
17
144
4.5
309
CONTENTFORMAT_END
171
     1
301
MARGIN
  1
CELLMARGIN_BEGIN
 40
1.5
 40
1.5
 40
1.5
 40
1.5
 40
4.5
 40
4.5
309
CELLMARGIN_END
 94
        6
 95
        1
302
GRIDFORMAT
  1
GRIDFORMAT_BEGIN
 90
        0
 91
        1
 62
     0
 92
       -2
340
0
 93
        0
 40
1.125
309
GRIDFORMAT_END
 95
        2
302
GRIDFORMAT
  1
GRIDFORMAT_BEGIN
 90
        0
 91
        1
 62
     0
 92
       -2
340
0
 93
        0
 40
1.125
309
GRIDFORMAT_END
 95
        4
302
GRIDFORMAT
  1
GRIDFORMAT_BEGIN
 90
        0
 91
        1
 62
     0
 92
       -2
340
0
 93
        0
 40
1.125
309
GRIDFORMAT_END
 95
        8
302
GRIDFORMAT
  1
GRIDFORMAT_BEGIN
 90
        0
 91
        1
 62
     0
 92
       -2
340
0
 93
        0
 40
1.125
309
GRIDFORMAT_END
 95
       16
302
GRIDFORMAT
  1
GRIDFORMAT_BEGIN
 90
        0
 91
        1
 62
     0
 92
       -2
340
0
 93
        0
 40
1.125
309
GRIDFORMAT_END
 95
       32
302
GRIDFORMAT
  1
GRIDFORMAT_BEGIN
 90
        0
 91
        1
 62
     0
 92
       -2
340
0
 93
        0
 40
1.125
309
GRIDFORMAT_END
309
TABLEFORMAT_END
  1
CELLSTYLE_BEGIN
 90
        3
 91
        2
300
_DATA
309
CELLSTYLE_END
  0
XRECORD
  5
21C
102
{ACAD_REACTORS
330
1EB
102
}
330
1EB
100
AcDbXrecord
280
     1
102
ACAD_ROUNDTRIP_PRE2007_TABLESTYLE
 90
      512
 91
        0
  1

 92
      512
 93
        0
  2

 94
      512
 95
        0
  3

  0
XRECORD
  5
201
102
{ACAD_REACTORS
330
200
102
}
330
200
100
AcDbXrecord
280
     1
102
RTVSPropertyOp0
 70
     1
102
RTVSPropertyOp1
 70
     1
102
RTVSPropertyOp2
 70
     1
102
RTVSPropertyOp3
 70
     1
102
RTVSPropertyOp4
 70
     1
102
RTVSPropertyOp5
 70
     1
102
RTVSPropertyOp6
 70
     1
102
RTVSPropertyOp7
 70
     1
102
RTVSPropertyOp8
 70
     1
102
RTVSPropertyOp9
 70
     1
102
RTVSPropertyOp10
 70
     1
102
RTVSPropertyOp11
 70
     1
102
RTVSPropertyOp12
 70
     1
102
RTVSPropertyOp13
 70
     1
102
RTVSPropertyOp14
 70
     1
102
RTVSPropertyOp15
 70
     1
102
RTVSPropertyOp16
 70
     1
102
RTVSPropertyOp17
 70
     1
102
RTVSPropertyOp18
 70
     1
102
RTVSPropertyOp19
 70
     1
102
RTVSPropertyOp20
 70
     1
102
RTVSPropertyOp21
 70
     1
102
RTVSPropertyOp22
 70
     1
102
RTVSPropertyOp23
 70
     1
102
RTVSPropertyOp24
 70
     1
102
RTVSPropertyOp25
 70
     1
102
RTVSPropertyOp26
 70
     1
102
RTVSPropertyOp27
 70
     1
  0
XRECORD
  5
205
102
{ACAD_REACTORS
330
204
102
}
330
204
100
AcDbXrecord
280
     1
102
RTVSPropertyOp0
 70
     1
102
RTVSPropertyOp1
 70
     1
102
RTVSPropertyOp2
 70
     1
102
RTVSPropertyOp3
 70
     1
102
RTVSPropertyOp4
 70
     1
102
RTVSPropertyOp5
 70
     1
102
RTVSPropertyOp6
 70
     1
102
RTVSPropertyOp7
 70
     1
102
RTVSPropertyOp8
 70
     1
102
RTVSPropertyOp9
 70
     1
102
RTVSPropertyOp10
 70
     1
102
RTVSPropertyOp11
 70
     1
102
RTVSPropertyOp12
 70
     1
102
RTVSPropertyOp13
 70
     1
102
RTVSPropertyOp14
 70
     1
102
RTVSPropertyOp15
 70
     1
102
RTVSPropertyOp16
 70
     1
102
RTVSPropertyOp17
 70
     1
102
RTVSPropertyOp18
 70
     1
102
RTVSPropertyOp19
 70
     1
102
RTVSPropertyOp20
 70
     1
102
RTVSPropertyOp21
 70
     1
102
RTVSPropertyOp22
 70
     1
102
RTVSPropertyOp23
 70
     1
102
RTVSPropertyOp24
 70
     1
102
RTVSPropertyOp25
 70
     1
102
RTVSPropertyOp26
 70
     1
102
RTVSPropertyOp27
 70
     1
  0
XRECORD
  5
203
102
{ACAD_REACTORS
330
202
102
}
330
202
100
AcDbXrecord
280
     1
102
RTVSPropertyOp0
 70
     1
102
RTVSPropertyOp1
 70
     1
102
RTVSPropertyOp2
 70
     1
102
RTVSPropertyOp3
 70
     1
102
RTVSPropertyOp4
 70
     1
102
RTVSPropertyOp5
 70
     1
102
RTVSPropertyOp6
 70
     1
102
RTVSPropertyOp7
 70
     1
102
RTVSPropertyOp8
 70
     1
102
RTVSPropertyOp9
 70
     1
102
RTVSPropertyOp10
 70
     1
102
RTVSPropertyOp11
 70
     1
102
RTVSPropertyOp12
 70
     1
102
RTVSPropertyOp13
 70
     1
102
RTVSPropertyOp14
 70
     1
102
RTVSPropertyOp15
 70
     1
102
RTVSPropertyOp16
 70
     1
102
RTVSPropertyOp17
 70
     1
102
RTVSPropertyOp18
 70
     1
102
RTVSPropertyOp19
 70
     1
102
RTVSPropertyOp20
 70
     1
102
RTVSPropertyOp21
 70
     1
102
RTVSPropertyOp22
 70
     1
102
RTVSPropertyOp23
 70
     1
102
RTVSPropertyOp24
 70
     1
102
RTVSPropertyOp25
 70
     1
102
RTVSPropertyOp26
 70
     1
102
RTVSPropertyOp27
 70
     1
  0
XRECORD
  5
1FF
102
{ACAD_REACTORS
330
1FE
102
}
330
1FE
100
AcDbXrecord
280
     1
102
RTVSPropertyOp0
 70
     1
102
RTVSPropertyOp1
 70
     1
102
RTVSPropertyOp2
 70
     1
102
RTVSPropertyOp3
 70
     1
102
RTVSPropertyOp4
 70
     1
102
RTVSPropertyOp5
 70
     1
102
RTVSPropertyOp6
 70
     1
102
RTVSPropertyOp7
 70
     1
102
RTVSPropertyOp8
 70
     1
102
RTVSPropertyOp9
 70
     1
102
RTVSPropertyOp10
 70
     1
102
RTVSPropertyOp11
 70
     1
102
RTVSPropertyOp12
 70
     1
102
RTVSPropertyOp13
 70
     1
102
RTVSPropertyOp14
 70
     1
102
RTVSPropertyOp15
 70
     1
102
RTVSPropertyOp16
 70
     1
102
RTVSPropertyOp17
 70
     1
102
RTVSPropertyOp18
 70
     1
102
RTVSPropertyOp19
 70
     1
102
RTVSPropertyOp20
 70
     1
102
RTVSPropertyOp21
 70
     1
102
RTVSPropertyOp22
 70
     1
102
RTVSPropertyOp23
 70
     1
102
RTVSPropertyOp24
 70
     1
102
RTVSPropertyOp25
 70
     1
102
RTVSPropertyOp26
 70
     1
102
RTVSPropertyOp27
 70
     1
  0
XRECORD
  5
20D
102
{ACAD_REACTORS
330
20C
102
}
330
20C
100
AcDbXrecord
280
     1
102
RTVSPropertyOp0
 70
     1
102
RTVSPropertyOp1
 70
     1
102
RTVSPropertyOp2
 70
     1
102
RTVSPropertyOp3
 70
     1
102
RTVSPropertyOp4
 70
     1
102
RTVSPropertyOp5
 70
     1
102
RTVSPropertyOp6
 70
     1
102
RTVSPropertyOp7
 70
     1
102
RTVSPropertyOp8
 70
     1
102
RTVSPropertyOp9
 70
     1
102
RTVSPropertyOp10
 70
     1
102
RTVSPropertyOp11
 70
     1
102
RTVSPropertyOp12
 70
     1
102
RTVSPropertyOp13
 70
     1
102
RTVSPropertyOp14
 70
     1
102
RTVSPropertyOp15
 70
     1
102
RTVSPropertyOp16
 70
     1
102
RTVSPropertyOp17
 70
     1
102
RTVSPropertyOp18
 70
     1
102
RTVSPropertyOp19
 70
     1
102
RTVSPropertyOp20
 70
     1
102
RTVSPropertyOp21
 70
     1
102
RTVSPropertyOp22
 70
     1
102
RTVSPropertyOp23
 70
     1
102
RTVSPropertyOp24
 70
     1
102
RTVSPropertyOp25
 70
     1
102
RTVSPropertyOp26
 70
     1
102
RTVSPropertyOp27
 70
     1
  0
XRECORD
  5
215
102
{ACAD_REACTORS
330
214
102
}
330
214
100
AcDbXrecord
280
     1
102
RTVSPropertyOp0
 70
     1
102
RTVSPropertyOp1
 70
     1
102
RTVSPropertyOp2
 70
     1
102
RTVSPropertyOp3
 70
     1
102
RTVSPropertyOp4
 70
     1
102
RTVSPropertyOp5
 70
     1
102
RTVSPropertyOp6
 70
     1
102
RTVSPropertyOp7
 70
     1
102
RTVSPropertyOp8
 70
     1
102
RTVSPropertyOp9
 70
     1
102
RTVSPropertyOp10
 70
     1
102
RTVSPropertyOp11
 70
     1
102
RTVSPropertyOp12
 70
     1
102
RTVSPropertyOp13
 70
     1
102
RTVSPropertyOp14
 70
     1
102
RTVSPropertyOp15
 70
     1
102
RTVSPropertyOp16
 70
     1
102
RTVSPropertyOp17
 70
     1
102
RTVSPropertyOp18
 70
     1
102
RTVSPropertyOp19
 70
     1
102
RTVSPropertyOp20
 70
     1
102
RTVSPropertyOp21
 70
     1
102
RTVSPropertyOp22
 70
     1
102
RTVSPropertyOp23
 70
     1
102
RTVSPropertyOp24
 70
     1
102
RTVSPropertyOp25
 70
     1
102
RTVSPropertyOp26
 70
     1
102
RTVSPropertyOp27
 70
     1
  0
XRECORD
  5
207
102
{ACAD_REACTORS
330
206
102
}
330
206
100
AcDbXrecord
280
     1
102
RTVSPropertyOp0
 70
     1
102
RTVSPropertyOp1
 70
     1
102
RTVSPropertyOp2
 70
     1
102
RTVSPropertyOp3
 70
     1
102
RTVSPropertyOp4
 70
     1
102
RTVSPropertyOp5
 70
     1
102
RTVSPropertyOp6
 70
     1
102
RTVSPropertyOp7
 70
     1
102
RTVSPropertyOp8
 70
     1
102
RTVSPropertyOp9
 70
     1
102
RTVSPropertyOp10
 70
     1
102
RTVSPropertyOp11
 70
     1
102
RTVSPropertyOp12
 70
     1
102
RTVSPropertyOp13
 70
     1
102
RTVSPropertyOp14
 70
     1
102
RTVSPropertyOp15
 70
     1
102
RTVSPropertyOp16
 70
     1
102
RTVSPropertyOp17
 70
     1
102
RTVSPropertyOp18
 70
     1
102
RTVSPropertyOp19
 70
     1
102
RTVSPropertyOp20
 70
     1
102
RTVSPropertyOp21
 70
     1
102
RTVSPropertyOp22
 70
     1
102
RTVSPropertyOp23
 70
     1
102
RTVSPropertyOp24
 70
     1
102
RTVSPropertyOp25
 70
     1
102
RTVSPropertyOp26
 70
     1
102
RTVSPropertyOp27
 70
     1
  0
XRECORD
  5
20B
102
{ACAD_REACTORS
330
20A
102
}
330
20A
100
AcDbXrecord
280
     1
102
RTVSPropertyOp0
 70
     1
102
RTVSPropertyOp1
 70
     1
102
RTVSPropertyOp2
 70
     1
102
RTVSPropertyOp3
 70
     1
102
RTVSPropertyOp4
 70
     1
102
RTVSPropertyOp5
 70
     1
102
RTVSPropertyOp6
 70
     1
102
RTVSPropertyOp7
 70
     1
102
RTVSPropertyOp8
 70
     1
102
RTVSPropertyOp9
 70
     1
102
RTVSPropertyOp10
 70
     1
102
RTVSPropertyOp11
 70
     1
102
RTVSPropertyOp12
 70
     1
102
RTVSPropertyOp13
 70
     1
102
RTVSPropertyOp14
 70
     1
102
RTVSPropertyOp15
 70
     1
102
RTVSPropertyOp16
 70
     1
102
RTVSPropertyOp17
 70
     1
102
RTVSPropertyOp18
 70
     1
102
RTVSPropertyOp19
 70
     1
102
RTVSPropertyOp20
 70
     1
102
RTVSPropertyOp21
 70
     1
102
RTVSPropertyOp22
 70
     1
102
RTVSPropertyOp23
 70
     1
102
RTVSPropertyOp24
 70
     1
102
RTVSPropertyOp25
 70
     1
102
RTVSPropertyOp26
 70
     1
102
RTVSPropertyOp27
 70
     1
  0
XRECORD
  5
21B
102
{ACAD_REACTORS
330
21A
102
}
330
21A
100
AcDbXrecord
280
     1
102
RTVSPropertyOp0
 70
     0
102
RTVSPropertyOp1
 70
     0
102
RTVSPropertyOp2
 70
     0
102
RTVSPropertyOp3
 70
     0
102
RTVSPropertyOp4
 70
     0
102
RTVSPropertyOp5
 70
     0
102
RTVSPropertyOp6
 70
     0
102
RTVSPropertyOp7
 70
     0
102
RTVSPropertyOp8
 70
     0
102
RTVSPropertyOp9
 70
     0
102
RTVSPropertyOp10
 70
     0
102
RTVSPropertyOp11
 70
     0
102
RTVSPropertyOp12
 70
     0
102
RTVSPropertyOp13
 70
     0
102
RTVSPropertyOp14
 70
     2
102
RTVSPropertyOp15
 70
     0
102
RTVSPropertyOp16
 70
     0
102
RTVSPropertyOp17
 70
     0
102
RTVSPropertyOp18
 70
     0
102
RTVSPropertyOp19
 70
     0
102
RTVSPropertyOp20
 70
     0
102
RTVSPropertyOp21
 70
     0
102
RTVSPropertyOp22
 70
     0
102
RTVSPropertyOp23
 70
     0
102
RTVSPropertyOp24
 70
     0
102
RTVSPropertyOp25
 70
     0
102
RTVSPropertyOp26
 70
     0
102
RTVSPropertyOp27
 70
     0
  0
XRECORD
  5
213
102
{ACAD_REACTORS
330
212
102
}
330
212
100
AcDbXrecord
280
     1
102
RTVSPropertyOp0
 70
     1
102
RTVSPropertyOp1
 70
     1
102
RTVSPropertyOp2
 70
     1
102
RTVSPropertyOp3
 70
     1
102
RTVSPropertyOp4
 70
     1
102
RTVSPropertyOp5
 70
     1
102
RTVSPropertyOp6
 70
     1
102
RTVSPropertyOp7
 70
     1
102
RTVSPropertyOp8
 70
     1
102
RTVSPropertyOp9
 70
     1
102
RTVSPropertyOp10
 70
     1
102
RTVSPropertyOp11
 70
     1
102
RTVSPropertyOp12
 70
     1
102
RTVSPropertyOp13
 70
     1
102
RTVSPropertyOp14
 70
     1
102
RTVSPropertyOp15
 70
     1
102
RTVSPropertyOp16
 70
     1
102
RTVSPropertyOp17
 70
     1
102
RTVSPropertyOp18
 70
     1
102
RTVSPropertyOp19
 70
     1
102
RTVSPropertyOp20
 70
     1
102
RTVSPropertyOp21
 70
     1
102
RTVSPropertyOp22
 70
     1
102
RTVSPropertyOp23
 70
     1
102
RTVSPropertyOp24
 70
     1
102
RTVSPropertyOp25
 70
     1
102
RTVSPropertyOp26
 70
     1
102
RTVSPropertyOp27
 70
     1
  0
XRECORD
  5
1F7
102
{ACAD_REACTORS
330
1F6
102
}
330
1F6
100
AcDbXrecord
280
     1
102
RTVSPropertyOp0
 70
     1
102
RTVSPropertyOp1
 70
     1
102
RTVSPropertyOp2
 70
     1
102
RTVSPropertyOp3
 70
     1
102
RTVSPropertyOp4
 70
     1
102
RTVSPropertyOp5
 70
     1
102
RTVSPropertyOp6
 70
     1
102
RTVSPropertyOp7
 70
     1
102
RTVSPropertyOp8
 70
     1
102
RTVSPropertyOp9
 70
     1
102
RTVSPropertyOp10
 70
     1
102
RTVSPropertyOp11
 70
     1
102
RTVSPropertyOp12
 70
     1
102
RTVSPropertyOp13
 70
     1
102
RTVSPropertyOp14
 70
     1
102
RTVSPropertyOp15
 70
     1
102
RTVSPropertyOp16
 70
     1
102
RTVSPropertyOp17
 70
     1
102
RTVSPropertyOp18
 70
     1
102
RTVSPropertyOp19
 70
     1
102
RTVSPropertyOp20
 70
     1
102
RTVSPropertyOp21
 70
     1
102
RTVSPropertyOp22
 70
     1
102
RTVSPropertyOp23
 70
     1
102
RTVSPropertyOp24
 70
     1
102
RTVSPropertyOp25
 70
     1
102
RTVSPropertyOp26
 70
     1
102
RTVSPropertyOp27
 70
     1
  0
XRECORD
  5
1F9
102
{ACAD_REACTORS
330
1F8
102
}
330
1F8
100
AcDbXrecord
280
     1
102
RTVSPropertyOp0
 70
     1
102
RTVSPropertyOp1
 70
     1
102
RTVSPropertyOp2
 70
     1
102
RTVSPropertyOp3
 70
     1
102
RTVSPropertyOp4
 70
     1
102
RTVSPropertyOp5
 70
     1
102
RTVSPropertyOp6
 70
     1
102
RTVSPropertyOp7
 70
     1
102
RTVSPropertyOp8
 70
     1
102
RTVSPropertyOp9
 70
     1
102
RTVSPropertyOp10
 70
     1
102
RTVSPropertyOp11
 70
     1
102
RTVSPropertyOp12
 70
     1
102
RTVSPropertyOp13
 70
     1
102
RTVSPropertyOp14
 70
     1
102
RTVSPropertyOp15
 70
     1
102
RTVSPropertyOp16
 70
     1
102
RTVSPropertyOp17
 70
     1
102
RTVSPropertyOp18
 70
     1
102
RTVSPropertyOp19
 70
     1
102
RTVSPropertyOp20
 70
     1
102
RTVSPropertyOp21
 70
     1
102
RTVSPropertyOp22
 70
     1
102
RTVSPropertyOp23
 70
     1
102
RTVSPropertyOp24
 70
     1
102
RTVSPropertyOp25
 70
     1
102
RTVSPropertyOp26
 70
     1
102
RTVSPropertyOp27
 70
     1
  0
XRECORD
  5
1FB
102
{ACAD_REACTORS
330
1FA
102
}
330
1FA
100
AcDbXrecord
280
     1
102
RTVSPropertyOp0
 70
     1
102
RTVSPropertyOp1
 70
     1
102
RTVSPropertyOp2
 70
     1
102
RTVSPropertyOp3
 70
     1
102
RTVSPropertyOp4
 70
     1
102
RTVSPropertyOp5
 70
     1
102
RTVSPropertyOp6
 70
     1
102
RTVSPropertyOp7
 70
     1
102
RTVSPropertyOp8
 70
     1
102
RTVSPropertyOp9
 70
     1
102
RTVSPropertyOp10
 70
     1
102
RTVSPropertyOp11
 70
     1
102
RTVSPropertyOp12
 70
     1
102
RTVSPropertyOp13
 70
     1
102
RTVSPropertyOp14
 70
     1
102
RTVSPropertyOp15
 70
     1
102
RTVSPropertyOp16
 70
     1
102
RTVSPropertyOp17
 70
     1
102
RTVSPropertyOp18
 70
     1
102
RTVSPropertyOp19
 70
     1
102
RTVSPropertyOp20
 70
     1
102
RTVSPropertyOp21
 70
     1
102
RTVSPropertyOp22
 70
     1
102
RTVSPropertyOp23
 70
     1
102
RTVSPropertyOp24
 70
     1
102
RTVSPropertyOp25
 70
     1
102
RTVSPropertyOp26
 70
     1
102
RTVSPropertyOp27
 70
     1
  0
XRECORD
  5
1FD
102
{ACAD_REACTORS
330
1FC
102
}
330
1FC
100
AcDbXrecord
280
     1
102
RTVSPropertyOp0
 70
     1
102
RTVSPropertyOp1
 70
     1
102
RTVSPropertyOp2
 70
     1
102
RTVSPropertyOp3
 70
     1
102
RTVSPropertyOp4
 70
     1
102
RTVSPropertyOp5
 70
     1
102
RTVSPropertyOp6
 70
     1
102
RTVSPropertyOp7
 70
     1
102
RTVSPropertyOp8
 70
     1
102
RTVSPropertyOp9
 70
     1
102
RTVSPropertyOp10
 70
     1
102
RTVSPropertyOp11
 70
     1
102
RTVSPropertyOp12
 70
     1
102
RTVSPropertyOp13
 70
     1
102
RTVSPropertyOp14
 70
     1
102
RTVSPropertyOp15
 70
     1
102
RTVSPropertyOp16
 70
     1
102
RTVSPropertyOp17
 70
     1
102
RTVSPropertyOp18
 70
     1
102
RTVSPropertyOp19
 70
     1
102
RTVSPropertyOp20
 70
     1
102
RTVSPropertyOp21
 70
     1
102
RTVSPropertyOp22
 70
     1
102
RTVSPropertyOp23
 70
     1
102
RTVSPropertyOp24
 70
     1
102
RTVSPropertyOp25
 70
     1
102
RTVSPropertyOp26
 70
     1
102
RTVSPropertyOp27
 70
     1
  0
XRECORD
  5
217
102
{ACAD_REACTORS
330
216
102
}
330
216
100
AcDbXrecord
280
     1
102
RTVSPropertyOp0
 70
     0
102
RTVSPropertyOp1
 70
     0
102
RTVSPropertyOp2
 70
     0
102
RTVSPropertyOp3
 70
     0
102
RTVSPropertyOp4
 70
     0
102
RTVSPropertyOp5
 70
     0
102
RTVSPropertyOp6
 70
     0
102
RTVSPropertyOp7
 70
     0
102
RTVSPropertyOp8
 70
     0
102
RTVSPropertyOp9
 70
     0
102
RTVSPropertyOp10
 70
     0
102
RTVSPropertyOp11
 70
     0
102
RTVSPropertyOp12
 70
     0
102
RTVSPropertyOp13
 70
     0
102
RTVSPropertyOp14
 70
     2
102
RTVSPropertyOp15
 70
     0
102
RTVSPropertyOp16
 70
     0
102
RTVSPropertyOp17
 70
     0
102
RTVSPropertyOp18
 70
     0
102
RTVSPropertyOp19
 70
     0
102
RTVSPropertyOp20
 70
     0
102
RTVSPropertyOp21
 70
     0
102
RTVSPropertyOp22
 70
     0
102
RTVSPropertyOp23
 70
     0
102
RTVSPropertyOp24
 70
     0
102
RTVSPropertyOp25
 70
     0
102
RTVSPropertyOp26
 70
     0
102
RTVSPropertyOp27
 70
     0
  0
XRECORD
  5
211
102
{ACAD_REACTORS
330
210
102
}
330
210
100
AcDbXrecord
280
     1
102
RTVSPropertyOp0
 70
     1
102
RTVSPropertyOp1
 70
     1
102
RTVSPropertyOp2
 70
     1
102
RTVSPropertyOp3
 70
     1
102
RTVSPropertyOp4
 70
     1
102
RTVSPropertyOp5
 70
     1
102
RTVSPropertyOp6
 70
     1
102
RTVSPropertyOp7
 70
     1
102
RTVSPropertyOp8
 70
     1
102
RTVSPropertyOp9
 70
     1
102
RTVSPropertyOp10
 70
     1
102
RTVSPropertyOp11
 70
     1
102
RTVSPropertyOp12
 70
     1
102
RTVSPropertyOp13
 70
     1
102
RTVSPropertyOp14
 70
     1
102
RTVSPropertyOp15
 70
     1
102
RTVSPropertyOp16
 70
     1
102
RTVSPropertyOp17
 70
     1
102
RTVSPropertyOp18
 70
     1
102
RTVSPropertyOp19
 70
     1
102
RTVSPropertyOp20
 70
     1
102
RTVSPropertyOp21
 70
     1
102
RTVSPropertyOp22
 70
     1
102
RTVSPropertyOp23
 70
     1
102
RTVSPropertyOp24
 70
     1
102
RTVSPropertyOp25
 70
     1
102
RTVSPropertyOp26
 70
     1
102
RTVSPropertyOp27
 70
     1
  0
XRECORD
  5
219
102
{ACAD_REACTORS
330
218
102
}
330
218
100
AcDbXrecord
280
     1
102
RTVSPropertyOp0
 70
     0
102
RTVSPropertyOp1
 70
     0
102
RTVSPropertyOp2
 70
     0
102
RTVSPropertyOp3
 70
     0
102
RTVSPropertyOp4
 70
     0
102
RTVSPropertyOp5
 70
     0
102
RTVSPropertyOp6
 70
     0
102
RTVSPropertyOp7
 70
     0
102
RTVSPropertyOp8
 70
     0
102
RTVSPropertyOp9
 70
     0
102
RTVSPropertyOp10
 70
     0
102
RTVSPropertyOp11
 70
     0
102
RTVSPropertyOp12
 70
     0
102
RTVSPropertyOp13
 70
     0
102
RTVSPropertyOp14
 70
     2
102
RTVSPropertyOp15
 70
     0
102
RTVSPropertyOp16
 70
     0
102
RTVSPropertyOp17
 70
     0
102
RTVSPropertyOp18
 70
     0
102
RTVSPropertyOp19
 70
     0
102
RTVSPropertyOp20
 70
     0
102
RTVSPropertyOp21
 70
     0
102
RTVSPropertyOp22
 70
     0
102
RTVSPropertyOp23
 70
     0
102
RTVSPropertyOp24
 70
     0
102
RTVSPropertyOp25
 70
     0
102
RTVSPropertyOp26
 70
     0
102
RTVSPropertyOp27
 70
     0
  0
XRECORD
  5
209
102
{ACAD_REACTORS
330
208
102
}
330
208
100
AcDbXrecord
280
     1
102
RTVSPropertyOp0
 70
     1
102
RTVSPropertyOp1
 70
     1
102
RTVSPropertyOp2
 70
     1
102
RTVSPropertyOp3
 70
     1
102
RTVSPropertyOp4
 70
     1
102
RTVSPropertyOp5
 70
     1
102
RTVSPropertyOp6
 70
     1
102
RTVSPropertyOp7
 70
     1
102
RTVSPropertyOp8
 70
     1
102
RTVSPropertyOp9
 70
     1
102
RTVSPropertyOp10
 70
     1
102
RTVSPropertyOp11
 70
     1
102
RTVSPropertyOp12
 70
     1
102
RTVSPropertyOp13
 70
     1
102
RTVSPropertyOp14
 70
     1
102
RTVSPropertyOp15
 70
     1
102
RTVSPropertyOp16
 70
     1
102
RTVSPropertyOp17
 70
     1
102
RTVSPropertyOp18
 70
     1
102
RTVSPropertyOp19
 70
     1
102
RTVSPropertyOp20
 70
     1
102
RTVSPropertyOp21
 70
     1
102
RTVSPropertyOp22
 70
     1
102
RTVSPropertyOp23
 70
     1
102
RTVSPropertyOp24
 70
     1
102
RTVSPropertyOp25
 70
     1
102
RTVSPropertyOp26
 70
     1
102
RTVSPropertyOp27
 70
     1
  0
XRECORD
  5
20F
102
{ACAD_REACTORS
330
20E
102
}
330
20E
100
AcDbXrecord
280
     1
102
RTVSPropertyOp0
 70
     1
102
RTVSPropertyOp1
 70
     1
102
RTVSPropertyOp2
 70
     1
102
RTVSPropertyOp3
 70
     1
102
RTVSPropertyOp4
 70
     1
102
RTVSPropertyOp5
 70
     1
102
RTVSPropertyOp6
 70
     1
102
RTVSPropertyOp7
 70
     1
102
RTVSPropertyOp8
 70
     1
102
RTVSPropertyOp9
 70
     1
102
RTVSPropertyOp10
 70
     1
102
RTVSPropertyOp11
 70
     1
102
RTVSPropertyOp12
 70
     1
102
RTVSPropertyOp13
 70
     1
102
RTVSPropertyOp14
 70
     1
102
RTVSPropertyOp15
 70
     1
102
RTVSPropertyOp16
 70
     1
102
RTVSPropertyOp17
 70
     1
102
RTVSPropertyOp18
 70
     1
102
RTVSPropertyOp19
 70
     1
102
RTVSPropertyOp20
 70
     1
102
RTVSPropertyOp21
 70
     1
102
RTVSPropertyOp22
 70
     1
102
RTVSPropertyOp23
 70
     1
102
RTVSPropertyOp24
 70
     1
102
RTVSPropertyOp25
 70
     1
102
RTVSPropertyOp26
 70
     1
102
RTVSPropertyOp27
 70
     1
  0
ENDSEC
  0
EOF
