  0
SECTION
  2
HEADER
  9
$ACADVER
  1
AC1015
  9
$ACADMAINTVER
 70
    20
  9
$DWGCODEPAGE
  3
ANSI_1252
  9
$INSBASE
 10
0.0
 20
0.0
 30
0.0
  9
$EXTMIN
 10
-66.9696927879134
 20
-24.07410724582923
 30
-0.0015258207003583
  9
$EXTMAX
 10
60.25388795377478
 20
93.97300054588027
 30
0.0000000349246037
  9
$LIMMIN
 10
0.0
 20
0.0
  9
$LIMMAX
 10
1.0
 20
1.0
  9
$ORTHOMODE
 70
     0
  9
$REGENMODE
 70
     1
  9
$FILLMODE
 70
     1
  9
$QTEXTMODE
 70
     0
  9
$MIRRTEXT
 70
     1
  9
$LTSCALE
 40
1.0
  9
$ATTMODE
 70
     1
  9
$TEXTSIZE
 40
0.2
  9
$TRACEWID
 40
0.05
  9
$TEXTSTYLE
  7
SIMPLEX
  9
$CLAYER
  8
1
  9
$CELTYPE
  6
BYLAYER
  9
$CECOLOR
 62
   256
  9
$CELTSCALE
 40
1.0
  9
$DISPSILH
 70
     0
  9
$DIMSCALE
 40
1.0
  9
$DIMASZ
 40
2.5
  9
$DIMEXO
 40
1.25
  9
$DIMDLI
 40
0.38
  9
$DIMRND
 40
0.0
  9
$DIMDLE
 40
0.0
  9
$DIMEXE
 40
0.0
  9
$DIMTP
 40
1.0
  9
$DIMTM
 40
1.0
  9
$DIMTXT
 40
3.5
  9
$DIMCEN
 40
0.09
  9
$DIMTSZ
 40
0.0
  9
$DIMTOL
 70
     0
  9
$DIMLIM
 70
     0
  9
$DIMTIH
 70
     0
  9
$DIMTOH
 70
     1
  9
$DIMSE1
 70
     0
  9
$DIMSE2
 70
     0
  9
$DIMTAD
 70
     0
  9
$DIMZIN
 70
     8
  9
$DIMBLK
  1
VDDIM_DEFAULT
  9
$DIMASO
 70
     1
  9
$DIMSHO
 70
     1
  9
$DIMPOST
  1

  9
$DIMAPOST
  1

  9
$DIMALT
 70
     0
  9
$DIMALTD
 70
     2
  9
$DIMALTF
 40
25.4
  9
$DIMLFAC
 40
1.0
  9
$DIMTOFL
 70
     0
  9
$DIMTVP
 40
0.0
  9
$DIMTIX
 70
     0
  9
$DIMSOXD
 70
     0
  9
$DIMSAH
 70
     0
  9
$DIMBLK1
  1

  9
$DIMBLK2
  1

  9
$DIMSTYLE
  2
STANDARD
  9
$DIMCLRD
 70
     0
  9
$DIMCLRE
 70
     0
  9
$DIMCLRT
 70
     0
  9
$DIMTFAC
 40
1.0
  9
$DIMGAP
 40
0.09
  9
$DIMJUST
 70
     0
  9
$DIMSD1
 70
     0
  9
$DIMSD2
 70
     0
  9
$DIMTOLJ
 70
     1
  9
$DIMTZIN
 70
     0
  9
$DIMALTZ
 70
     0
  9
$DIMALTTZ
 70
     0
  9
$DIMUPT
 70
     0
  9
$DIMDEC
 70
     4
  9
$DIMTDEC
 70
     4
  9
$DIMALTU
 70
     2
  9
$DIMALTTD
 70
     2
  9
$DIMTXSTY
  7
SIMPLEX
  9
$DIMAUNIT
 70
     0
  9
$DIMADEC
 70
     2
  9
$DIMALTRND
 40
0.0
  9
$DIMAZIN
 70
     2
  9
$DIMDSEP
 70
    46
  9
$DIMATFIT
 70
     3
  9
$DIMFRAC
 70
     0
  9
$DIMLDRBLK
  1

  9
$DIMLUNIT
 70
     2
  9
$DIMLWD
 70
    -2
  9
$DIMLWE
 70
    -2
  9
$DIMTMOVE
 70
     0
  9
$LUNITS
 70
     2
  9
$LUPREC
 70
     4
  9
$SKETCHINC
 40
0.1
  9
$FILLETRAD
 40
0.5
  9
$AUNITS
 70
     0
  9
$AUPREC
 70
     0
  9
$MENU
  1

  9
$ELEVATION
 40
0.0
  9
$PELEVATION
 40
0.0
  9
$THICKNESS
 40
0.0
  9
$LIMCHECK
 70
     0
  9
$CHAMFERA
 40
0.0
  9
$CHAMFERB
 40
0.0
  9
$CHAMFERC
 40
0.0
  9
$CHAMFERD
 40
0.0
  9
$SKPOLY
 70
     0
  9
$TDCREATE
 40
2456819.000160116
  9
$TDUCREATE
 40
2456818.916826783
  9
$TDUPDATE
 40
2456819.000163912
  9
$TDUUPDATE
 40
2456818.916830579
  9
$TDINDWG
 40
0.0000046528
  9
$TDUSRTIMER
 40
0.0000046528
  9
$USRTIMER
 70
     1
  9
$ANGBASE
 50
0.0
  9
$ANGDIR
 70
     0
  9
$PDMODE
 70
     1
  9
$PDSIZE
 40
0.0
  9
$PLINEWID
 40
0.0
  9
$SPLFRAME
 70
     0
  9
$SPLINETYPE
 70
     6
  9
$SPLINESEGS
 70
     8
  9
$HANDSEED
  5
89E
  9
$SURFTAB1
 70
     6
  9
$SURFTAB2
 70
     6
  9
$SURFTYPE
 70
     6
  9
$SURFU
 70
     6
  9
$SURFV
 70
     6
  9
$UCSBASE
  2

  9
$UCSNAME
  2

  9
$UCSORG
 10
0.0
 20
0.0
 30
0.0
  9
$UCSXDIR
 10
1.0
 20
0.0
 30
0.0
  9
$UCSYDIR
 10
0.0
 20
1.0
 30
0.0
  9
$UCSORTHOREF
  2

  9
$UCSORTHOVIEW
 70
     0
  9
$UCSORGTOP
 10
0.0
 20
0.0
 30
0.0
  9
$UCSORGBOTTOM
 10
0.0
 20
0.0
 30
0.0
  9
$UCSORGLEFT
 10
0.0
 20
0.0
 30
0.0
  9
$UCSORGRIGHT
 10
0.0
 20
0.0
 30
0.0
  9
$UCSORGFRONT
 10
0.0
 20
0.0
 30
0.0
  9
$UCSORGBACK
 10
0.0
 20
0.0
 30
0.0
  9
$PUCSBASE
  2

  9
$PUCSNAME
  2

  9
$PUCSORG
 10
0.0
 20
0.0
 30
0.0
  9
$PUCSXDIR
 10
1.0
 20
0.0
 30
0.0
  9
$PUCSYDIR
 10
0.0
 20
1.0
 30
0.0
  9
$PUCSORTHOREF
  2

  9
$PUCSORTHOVIEW
 70
     0
  9
$PUCSORGTOP
 10
0.0
 20
0.0
 30
0.0
  9
$PUCSORGBOTTOM
 10
0.0
 20
0.0
 30
0.0
  9
$PUCSORGLEFT
 10
0.0
 20
0.0
 30
0.0
  9
$PUCSORGRIGHT
 10
0.0
 20
0.0
 30
0.0
  9
$PUCSORGFRONT
 10
0.0
 20
0.0
 30
0.0
  9
$PUCSORGBACK
 10
0.0
 20
0.0
 30
0.0
  9
$USERI1
 70
     0
  9
$USERI2
 70
     0
  9
$USERI3
 70
     0
  9
$USERI4
 70
     0
  9
$USERI5
 70
     0
  9
$USERR1
 40
0.0
  9
$USERR2
 40
0.0
  9
$USERR3
 40
0.0
  9
$USERR4
 40
0.0
  9
$USERR5
 40
0.0
  9
$WORLDVIEW
 70
     1
  9
$SHADEDGE
 70
     3
  9
$SHADEDIF
 70
    70
  9
$TILEMODE
 70
     1
  9
$MAXACTVP
 70
    64
  9
$PINSBASE
 10
0.0
 20
0.0
 30
0.0
  9
$PLIMCHECK
 70
     0
  9
$PEXTMIN
 10
1.000000000000000E+20
 20
1.000000000000000E+20
 30
1.000000000000000E+20
  9
$PEXTMAX
 10
-1.000000000000000E+20
 20
-1.000000000000000E+20
 30
-1.000000000000000E+20
  9
$PLIMMIN
 10
0.0
 20
0.0
  9
$PLIMMAX
 10
12.0
 20
9.0
  9
$UNITMODE
 70
     0
  9
$VISRETAIN
 70
     1
  9
$PLINEGEN
 70
     0
  9
$PSLTSCALE
 70
     1
  9
$TREEDEPTH
 70
  3020
  9
$CMLSTYLE
  2
Standard
  9
$CMLJUST
 70
     0
  9
$CMLSCALE
 40
1.0
  9
$PROXYGRAPHICS
 70
     1
  9
$MEASUREMENT
 70
     1
  9
$CELWEIGHT
370
    -1
  9
$ENDCAPS
280
     0
  9
$JOINSTYLE
280
     0
  9
$LWDISPLAY
290
     0
  9
$INSUNITS
 70
     4
  9
$HYPERLINKBASE
  1

  9
$STYLESHEET
  1

  9
$XEDIT
290
     1
  9
$CEPSNTYPE
380
     0
  9
$PSTYLEMODE
290
     1
  9
$FINGERPRINTGUID
  2
{05C63161-91BC-4489-B67F-C4D7BE6D2FD2}
  9
$VERSIONGUID
  2
{F1EF0DFD-2A63-4492-80B9-92DA50819AAB}
  9
$EXTNAMES
290
     1
  9
$PSVPSCALE
 40
0.0
  9
$OLESTARTUP
290
     0
  0
ENDSEC
  0
SECTION
  2
CLASSES
  0
CLASS
  1
ACDBDICTIONARYWDFLT
  2
AcDbDictionaryWithDefault
  3
ObjectDBX Classes
 90
        0
280
     0
281
     0
  0
CLASS
  1
IMAGEDEF
  2
AcDbRasterImageDef
  3
ISM
 90
    32768
280
     0
281
     0
  0
CLASS
  1
IMAGE
  2
AcDbRasterImage
  3
ISM
 90
    34943
280
     0
281
     1
  0
CLASS
  1
IMAGEDEF_REACTOR
  2
AcDbRasterImageDefReactor
  3
ISM
 90
    32769
280
     0
281
     0
  0
CLASS
  1
ACDBPLACEHOLDER
  2
AcDbPlaceHolder
  3
ObjectDBX Classes
 90
        0
280
     0
281
     0
  0
CLASS
  1
LAYOUT
  2
AcDbLayout
  3
ObjectDBX Classes
 90
        0
280
     0
281
     0
  0
CLASS
  1
MATERIAL
  2
AcDbMaterial
  3
ObjectDBX Classes
 90
     1153
280
     0
281
     0
  0
CLASS
  1
VISUALSTYLE
  2
AcDbVisualStyle
  3
ObjectDBX Classes
 90
     4095
280
     0
281
     0
  0
CLASS
  1
TABLESTYLE
  2
AcDbTableStyle
  3
ObjectDBX Classes
 90
     4095
280
     0
281
     0
  0
CLASS
  1
SCALE
  2
AcDbScale
  3
ObjectDBX Classes
 90
     1153
280
     0
281
     0
  0
CLASS
  1
MLEADERSTYLE
  2
AcDbMLeaderStyle
  3
ACDB_MLEADERSTYLE_CLASS
 90
     4095
280
     0
281
     0
  0
CLASS
  1
ACDBSECTIONVIEWSTYLE
  2
AcDbSectionViewStyle
  3
ObjectDBX Classes
 90
     1025
280
     0
281
     0
  0
CLASS
  1
ACDBDETAILVIEWSTYLE
  2
AcDbDetailViewStyle
  3
ObjectDBX Classes
 90
     1025
280
     0
281
     0
  0
CLASS
  1
EXACXREFPANELOBJECT
  2
ExAcXREFPanelObject
  3
EXAC_ESW
 90
     1025
280
     0
281
     0
  0
CLASS
  1
NPOCOLLECTION
  2
AcDbImpNonPersistentObjectsCollection
  3
ObjectDBX Classes
 90
     1153
280
     0
281
     0
  0
CLASS
  1
DICTIONARYVAR
  2
AcDbDictionaryVar
  3
ObjectDBX Classes
 90
        0
280
     0
281
     0
  0
CLASS
  1
CELLSTYLEMAP
  2
AcDbCellStyleMap
  3
ObjectDBX Classes
 90
     1152
280
     0
281
     0
  0
ENDSEC
  0
SECTION
  2
TABLES
  0
TABLE
  2
VPORT
  5
777
330
0
100
AcDbSymbolTable
 70
     1
  0
VPORT
  5
778
330
777
100
AcDbSymbolTableRecord
100
AcDbViewportTableRecord
  2
*Active
 70
     0
 10
0.0
 20
0.0
 11
1.0
 21
1.0
 12
-3.357902417069325
 22
34.94944665002552
 13
0.0
 23
0.0
 14
1.0
 24
1.0
 15
1.0
 25
1.0
 16
0.0
 26
0.0
 36
1.0
 17
0.0
 27
0.0
 37
0.0
 40
132.1048175978461
 41
2.220359281437125
 42
1.0
 43
0.0
 44
0.0
 50
0.0
 51
0.0
 71
     0
 72
   100
 73
     1
 74
     3
 75
     0
 76
     0
 77
     0
 78
     0
281
     0
 65
     1
110
0.0
120
0.0
130
0.0
111
1.0
121
0.0
131
0.0
112
0.0
122
1.0
132
0.0
 79
     0
146
0.0
1001
ACAD_NAV_VCDISPLAY
1070
     3
  0
ENDTAB
  0
TABLE
  2
LTYPE
  5
779
330
0
100
AcDbSymbolTable
 70
    30
  0
LTYPE
  5
12
330
779
100
AcDbSymbolTableRecord
100
AcDbLinetypeTableRecord
  2
BYBLOCK
 70
     0
  3
BYBLOCK________________________________________
 72
    65
 73
     0
 40
0.0
  0
LTYPE
  5
13
330
779
100
AcDbSymbolTableRecord
100
AcDbLinetypeTableRecord
  2
BYLAYER
 70
     0
  3
BYLAYER________________________________________
 72
    65
 73
     0
 40
0.0
  0
LTYPE
  5
14
330
779
100
AcDbSymbolTableRecord
100
AcDbLinetypeTableRecord
  2
CONTINUOUS
 70
     0
  3
Solid line
 72
    65
 73
     0
 40
0.0
  0
LTYPE
  5
20
330
779
100
AcDbSymbolTableRecord
100
AcDbLinetypeTableRecord
  2
HIDDEN
 70
     0
  3
Hidden __ __ __ __ __ __ __ __ __ __ __ __ __ _
 72
    65
 73
     2
 40
9.524999999999996
 49
6.349999999999997
 74
     0
 49
-3.174999999999998
 74
     0
  0
LTYPE
  5
351
330
779
100
AcDbSymbolTableRecord
100
AcDbLinetypeTableRecord
  2
CENTER
 70
     0
  3
Dash dot __ . __ . __ . __ . __ . __ . __ . __
 72
    65
 73
     4
 40
25.4
 49
12.7
 74
     0
 49
-6.349999999999997
 74
     0
 49
0.0
 74
     0
 49
-6.349999999999997
 74
     0
  0
LTYPE
  5
717
330
779
100
AcDbSymbolTableRecord
100
AcDbLinetypeTableRecord
  2
DASHDOT
 70
     0
  3
Dashdot __ . __ . __ . __ . __ . __ . __ . __
 72
    65
 73
     4
 40
1.0
 49
0.5
 74
     0
 49
-0.25
 74
     0
 49
0.0
 74
     0
 49
-0.25
 74
     0
  0
LTYPE
  5
718
330
779
100
AcDbSymbolTableRecord
100
AcDbLinetypeTableRecord
  2
DASHED
 70
     0
  3
Dashed __ __ __ __ __ __ __ __ __ __ __ __ __ _
 72
    65
 73
     2
 40
0.75
 49
0.5
 74
     0
 49
-0.25
 74
     0
  0
LTYPE
  5
719
330
779
100
AcDbSymbolTableRecord
100
AcDbLinetypeTableRecord
  2
HIDDEN2
 70
     0
  3
Hidden2 _ _ _ _ _ _ _ _ _ _ _ _ _ _ _ _ _ 
 72
    65
 73
     2
 40
0.1875
 49
0.125
 74
     0
 49
-0.0625
 74
     0
  0
LTYPE
  5
71A
330
779
100
AcDbSymbolTableRecord
100
AcDbLinetypeTableRecord
  2
BORDER
 70
     0
  3
Border __ __ . __ __ . __ __ . __ __ . __ __ .
 72
    65
 73
     6
 40
1.75
 49
0.5
 74
     0
 49
-0.25
 74
     0
 49
0.5
 74
     0
 49
-0.25
 74
     0
 49
0.0
 74
     0
 49
-0.25
 74
     0
  0
LTYPE
  5
71B
330
779
100
AcDbSymbolTableRecord
100
AcDbLinetypeTableRecord
  2
BORDER2
 70
     0
  3
Border2 __.__.__.__.__.__.__.__.__.__.__.
 72
    65
 73
     6
 40
0.875
 49
0.25
 74
     0
 49
-0.125
 74
     0
 49
0.25
 74
     0
 49
-0.125
 74
     0
 49
0.0
 74
     0
 49
-0.125
 74
     0
  0
LTYPE
  5
71C
330
779
100
AcDbSymbolTableRecord
100
AcDbLinetypeTableRecord
  2
BORDERX2
 70
     0
  3
Borderx2  ____  ____  .  ____  ____  .  ___
 72
    65
 73
     6
 40
3.5
 49
1.0
 74
     0
 49
-0.5
 74
     0
 49
1.0
 74
     0
 49
-0.5
 74
     0
 49
0.0
 74
     0
 49
-0.5
 74
     0
  0
LTYPE
  5
71D
330
779
100
AcDbSymbolTableRecord
100
AcDbLinetypeTableRecord
  2
CENTER2
 70
     0
  3
Center2  ___ _ ___ _ ___ _ ___ _ ___ _ ___
 72
    65
 73
     4
 40
1.125
 49
0.75
 74
     0
 49
-0.125
 74
     0
 49
0.125
 74
     0
 49
-0.125
 74
     0
  0
LTYPE
  5
71E
330
779
100
AcDbSymbolTableRecord
100
AcDbLinetypeTableRecord
  2
CENTERX2
 70
     0
  3
Centerx2  ________  __  ________  __  _____
 72
    65
 73
     4
 40
4.0
 49
2.5
 74
     0
 49
-0.5
 74
     0
 49
0.5
 74
     0
 49
-0.5
 74
     0
  0
LTYPE
  5
71F
330
779
100
AcDbSymbolTableRecord
100
AcDbLinetypeTableRecord
  2
DASHDOT2
 70
     0
  3
Dashdot2  _._._._._._._._._._._._._._._.
 72
    65
 73
     4
 40
0.5
 49
0.25
 74
     0
 49
-0.125
 74
     0
 49
0.0
 74
     0
 49
-0.125
 74
     0
  0
LTYPE
  5
720
330
779
100
AcDbSymbolTableRecord
100
AcDbLinetypeTableRecord
  2
DASHDOTX2
 70
     0
  3
Dashdotx2 ____  .  ____  .  ____  .  ___
 72
    65
 73
     4
 40
2.0
 49
1.0
 74
     0
 49
-0.5
 74
     0
 49
0.0
 74
     0
 49
-0.5
 74
     0
  0
LTYPE
  5
721
330
779
100
AcDbSymbolTableRecord
100
AcDbLinetypeTableRecord
  2
DASHED2
 70
     0
  3
Dashed2 _ _ _ _ _ _ _ _ _ _ _ _ _ _ _ _ _ 
 72
    65
 73
     2
 40
0.375
 49
0.25
 74
     0
 49
-0.125
 74
     0
  0
LTYPE
  5
722
330
779
100
AcDbSymbolTableRecord
100
AcDbLinetypeTableRecord
  2
DASHEDX2
 70
     0
  3
Dashedx2 ____  ____  ____  ____  ____  ___
 72
    65
 73
     2
 40
1.5
 49
1.0
 74
     0
 49
-0.5
 74
     0
  0
LTYPE
  5
723
330
779
100
AcDbSymbolTableRecord
100
AcDbLinetypeTableRecord
  2
DIVIDE
 70
     0
  3
Divide ____ . . ____ . . ____ . . ____ . . ____
 72
    65
 73
     6
 40
1.25
 49
0.5
 74
     0
 49
-0.25
 74
     0
 49
0.0
 74
     0
 49
-0.25
 74
     0
 49
0.0
 74
     0
 49
-0.25
 74
     0
  0
LTYPE
  5
724
330
779
100
AcDbSymbolTableRecord
100
AcDbLinetypeTableRecord
  2
DIVIDE2
 70
     0
  3
Divide2 __..__..__..__..__..__..__..__.._
 72
    65
 73
     6
 40
0.625
 49
0.25
 74
     0
 49
-0.125
 74
     0
 49
0.0
 74
     0
 49
-0.125
 74
     0
 49
0.0
 74
     0
 49
-0.125
 74
     0
  0
LTYPE
  5
725
330
779
100
AcDbSymbolTableRecord
100
AcDbLinetypeTableRecord
  2
DIVIDEX2
 70
     0
  3
Dividex2 ________  .  .  ________  .  .  _
 72
    65
 73
     6
 40
2.5
 49
1.0
 74
     0
 49
-0.5
 74
     0
 49
0.0
 74
     0
 49
-0.5
 74
     0
 49
0.0
 74
     0
 49
-0.5
 74
     0
  0
LTYPE
  5
726
330
779
100
AcDbSymbolTableRecord
100
AcDbLinetypeTableRecord
  2
DOT
 70
     0
  3
Dot . . . . . . . . . . . . . . . . . . . . . . . .
 72
    65
 73
     2
 40
0.25
 49
0.0
 74
     0
 49
-0.25
 74
     0
  0
LTYPE
  5
727
330
779
100
AcDbSymbolTableRecord
100
AcDbLinetypeTableRecord
  2
DOT2
 70
     0
  3
Dot2 ........................................
 72
    65
 73
     2
 40
0.125
 49
0.0
 74
     0
 49
-0.125
 74
     0
  0
LTYPE
  5
728
330
779
100
AcDbSymbolTableRecord
100
AcDbLinetypeTableRecord
  2
DOTX2
 70
     0
  3
Dotx2 .  .  .  .  .  .  .  .  .  .  .  .  .  .
 72
    65
 73
     2
 40
0.5
 49
0.0
 74
     0
 49
-0.5
 74
     0
  0
LTYPE
  5
729
330
779
100
AcDbSymbolTableRecord
100
AcDbLinetypeTableRecord
  2
HIDDENX2
 70
     0
  3
Hiddenx2 ____ ____ ____ ____ ____ ____ ____ 
 72
    65
 73
     2
 40
0.75
 49
0.5
 74
     0
 49
-0.25
 74
     0
  0
LTYPE
  5
72A
330
779
100
AcDbSymbolTableRecord
100
AcDbLinetypeTableRecord
  2
PHANTOM
 70
     0
  3
Phantom ______  __  __  ______  __  __  ______ 
 72
    65
 73
     6
 40
2.5
 49
1.25
 74
     0
 49
-0.25
 74
     0
 49
0.25
 74
     0
 49
-0.25
 74
     0
 49
0.25
 74
     0
 49
-0.25
 74
     0
  0
LTYPE
  5
72B
330
779
100
AcDbSymbolTableRecord
100
AcDbLinetypeTableRecord
  2
PHANTOM2
 70
     0
  3
Phantom2 ___ _ _ ___ _ _ ___ _ _ ___ _ _
 72
    65
 73
     6
 40
1.25
 49
0.625
 74
     0
 49
-0.125
 74
     0
 49
0.125
 74
     0
 49
-0.125
 74
     0
 49
0.125
 74
     0
 49
-0.125
 74
     0
  0
LTYPE
  5
72C
330
779
100
AcDbSymbolTableRecord
100
AcDbLinetypeTableRecord
  2
PHANTOMX2
 70
     0
  3
Phantomx2 ____________    ____    ____   _
 72
    65
 73
     6
 40
5.0
 49
2.5
 74
     0
 49
-0.5
 74
     0
 49
0.5
 74
     0
 49
-0.5
 74
     0
 49
0.5
 74
     0
 49
-0.5
 74
     0
  0
LTYPE
  5
72D
330
779
100
AcDbSymbolTableRecord
100
AcDbLinetypeTableRecord
  2
DASHED0
 70
     0
  3
Dashed0 __ __ __ __ __ __ __ __ __ __ __ __ __ _
 72
    65
 73
     2
 40
1.0
 49
0.5
 74
     0
 49
-0.5
 74
     0
  0
LTYPE
  5
72E
330
779
100
AcDbSymbolTableRecord
100
AcDbLinetypeTableRecord
  2
DOT0
 70
     0
  3
Dot0 ........................................
 72
    65
 73
     8
 40
1.0
 49
0.0
 74
     0
 49
-0.25
 74
     0
 49
0.0
 74
     0
 49
-0.25
 74
     0
 49
0.0
 74
     0
 49
-0.25
 74
     0
 49
0.0
 74
     0
 49
-0.25
 74
     0
  0
LTYPE
  5
72F
330
779
100
AcDbSymbolTableRecord
100
AcDbLinetypeTableRecord
  2
DASHDOT0
 70
     0
  3
Dashdot __ . __ . __ . __ . __ . __ . __ . __
 72
    65
 73
     4
 40
1.0
 49
0.4
 74
     0
 49
-0.3
 74
     0
 49
0.0
 74
     0
 49
-0.3
 74
     0
  0
LTYPE
  5
730
330
779
100
AcDbSymbolTableRecord
100
AcDbLinetypeTableRecord
  2
DASHDOTDOT0
 70
     0
  3
Dashdot __ . . __ . . __ . . __ . . __ . . __ . . __ . . __
 72
    65
 73
     6
 40
1.0
 49
0.3
 74
     0
 49
-0.23
 74
     0
 49
0.0
 74
     0
 49
-0.24
 74
     0
 49
0.0
 74
     0
 49
-0.23
 74
     0
  0
LTYPE
  5
731
330
779
100
AcDbSymbolTableRecord
100
AcDbLinetypeTableRecord
  2
INVISIBLE
 70
     0
  3
Invisible(                        )
 72
    65
 73
     2
 40
2.0
 49
-1.0
 74
     0
 49
-1.0
 74
     0
  0
ENDTAB
  0
TABLE
  2
LAYER
  5
77B
330
0
100
AcDbSymbolTable
 70
    16
  0
LAYER
  5
F
102
{ACAD_XDICTIONARY
360
830
102
}
330
77B
100
AcDbSymbolTableRecord
100
AcDbLayerTableRecord
  2
0
 70
     0
 62
     7
  6
CONTINUOUS
370
    -3
390
77A
  0
LAYER
  5
23
102
{ACAD_XDICTIONARY
360
832
102
}
330
77B
100
AcDbSymbolTableRecord
100
AcDbLayerTableRecord
  2
1
 70
     0
 62
     4
  6
CONTINUOUS
370
    -3
390
77A
  0
LAYER
  5
24
102
{ACAD_XDICTIONARY
360
834
102
}
330
77B
100
AcDbSymbolTableRecord
100
AcDbLayerTableRecord
  2
SK1
 70
     0
 62
     4
  6
CONTINUOUS
370
    -3
390
77A
  0
LAYER
  5
25
102
{ACAD_XDICTIONARY
360
836
102
}
330
77B
100
AcDbSymbolTableRecord
100
AcDbLayerTableRecord
  2
2
 70
     0
 62
     7
  6
CONTINUOUS
370
    -3
390
77A
  0
LAYER
  5
26
102
{ACAD_XDICTIONARY
360
838
102
}
330
77B
100
AcDbSymbolTableRecord
100
AcDbLayerTableRecord
  2
2L
 70
     0
 62
     7
  6
CONTINUOUS
370
    -3
390
77A
  0
LAYER
  5
27
102
{ACAD_XDICTIONARY
360
83A
102
}
330
77B
100
AcDbSymbolTableRecord
100
AcDbLayerTableRecord
  2
SK2
 70
     0
 62
     7
  6
CONTINUOUS
370
    -3
390
77A
  0
LAYER
  5
28
102
{ACAD_XDICTIONARY
360
83C
102
}
330
77B
100
AcDbSymbolTableRecord
100
AcDbLayerTableRecord
  2
3
 70
     0
 62
     1
  6
HIDDEN
370
    -3
390
77A
  0
LAYER
  5
29
102
{ACAD_XDICTIONARY
360
83E
102
}
330
77B
100
AcDbSymbolTableRecord
100
AcDbLayerTableRecord
  2
SK3
 70
     0
 62
     1
  6
HIDDEN
370
    -3
390
77A
  0
LAYER
  5
2A
102
{ACAD_XDICTIONARY
360
840
102
}
330
77B
100
AcDbSymbolTableRecord
100
AcDbLayerTableRecord
  2
4
 70
     0
 62
     2
  6
CENTER
370
    -3
390
77A
  0
LAYER
  5
2B
102
{ACAD_XDICTIONARY
360
842
102
}
330
77B
100
AcDbSymbolTableRecord
100
AcDbLayerTableRecord
  2
SK4
 70
     0
 62
     2
  6
CENTER
370
    -3
390
77A
  0
LAYER
  5
2C
102
{ACAD_XDICTIONARY
360
844
102
}
330
77B
100
AcDbSymbolTableRecord
100
AcDbLayerTableRecord
  2
5
 70
     1
 62
     7
  6
CONTINUOUS
370
    -3
390
77A
  0
LAYER
  5
2D
102
{ACAD_XDICTIONARY
360
846
102
}
330
77B
100
AcDbSymbolTableRecord
100
AcDbLayerTableRecord
  2
6
 70
     0
 62
     5
  6
CONTINUOUS
370
    -3
390
77A
  0
LAYER
  5
2E
102
{ACAD_XDICTIONARY
360
848
102
}
330
77B
100
AcDbSymbolTableRecord
100
AcDbLayerTableRecord
  2
SK6
 70
     0
 62
     5
  6
CONTINUOUS
370
    -3
390
77A
  0
LAYER
  5
2F
330
77B
100
AcDbSymbolTableRecord
100
AcDbLayerTableRecord
  2
DEFPOINTS
 70
     0
 62
     7
  6
CONTINUOUS
290
     0
370
    -3
390
77A
  0
LAYER
  5
375
102
{ACAD_XDICTIONARY
360
84A
102
}
330
77B
100
AcDbSymbolTableRecord
100
AcDbLayerTableRecord
  2
CUT
 70
     0
 62
     1
  6
CONTINUOUS
370
    -3
390
77A
  0
LAYER
  5
376
102
{ACAD_XDICTIONARY
360
84C
102
}
330
77B
100
AcDbSymbolTableRecord
100
AcDbLayerTableRecord
  2
NOCUT
 70
     0
 62
     7
  6
CONTINUOUS
370
    -3
390
77A
  0
ENDTAB
  0
TABLE
  2
STYLE
  5
77C
330
0
100
AcDbSymbolTable
 70
     4
  0
STYLE
  5
10
330
77C
100
AcDbSymbolTableRecord
100
AcDbTextStyleTableRecord
  2
STANDARD
 70
     0
 40
0.0
 41
1.0
 50
0.0
 71
     0
 42
0.2
  3
txt
  4

1001
ACAD
1000
txt
1071
        0
  0
STYLE
  5
1D
330
77C
100
AcDbSymbolTableRecord
100
AcDbTextStyleTableRecord
  2
TXT
 70
     0
 40
8.0
 41
1.0
 50
0.0
 71
     0
 42
0.2
  3
txt
  4

1001
ACAD
1000
txt
1071
        0
  0
STYLE
  5
1E
330
77C
100
AcDbSymbolTableRecord
100
AcDbTextStyleTableRecord
  2
SIMPLEX
 70
     0
 40
0.0
 41
1.0
 50
0.0
 71
     0
 42
0.2
  3
simplex.shx
  4

1001
ACAD
1000
simplex.shx
1071
        0
  0
STYLE
  5
34C
330
77C
100
AcDbSymbolTableRecord
100
AcDbTextStyleTableRecord
  2

 70
     1
 40
0.0
 41
1.0
 50
0.0
 71
     0
 42
0.2
  3
ltypeshp.shx
  4

  0
ENDTAB
  0
TABLE
  2
VIEW
  5
77D
330
0
100
AcDbSymbolTable
 70
     0
  0
ENDTAB
  0
TABLE
  2
UCS
  5
77E
330
0
100
AcDbSymbolTable
 70
     0
  0
ENDTAB
  0
TABLE
  2
APPID
  5
77F
330
0
100
AcDbSymbolTable
 70
    12
  0
APPID
  5
780
330
77F
100
AcDbSymbolTableRecord
100
AcDbRegAppTableRecord
  2
VDEXTRAPARAM
 70
     0
  0
APPID
  5
781
330
77F
100
AcDbSymbolTableRecord
100
AcDbRegAppTableRecord
  2
VDEXTRASOLID2D
 70
     0
  0
APPID
  5
782
330
77F
100
AcDbSymbolTableRecord
100
AcDbRegAppTableRecord
  2
VD_TEMPHATCH
 70
     0
  0
APPID
  5
783
330
77F
100
AcDbSymbolTableRecord
100
AcDbRegAppTableRecord
  2
ACAD
 70
     0
  0
APPID
  5
784
330
77F
100
AcDbSymbolTableRecord
100
AcDbRegAppTableRecord
  2
PE_URL
 70
     0
  0
APPID
  5
785
330
77F
100
AcDbSymbolTableRecord
100
AcDbRegAppTableRecord
  2
VD_EX_PRINTER_DWG_STYLE_SHEET
 70
     0
  0
APPID
  5
786
330
77F
100
AcDbSymbolTableRecord
100
AcDbRegAppTableRecord
  2
VD_EX_PRINTER_SIZEX
 70
     0
  0
APPID
  5
787
330
77F
100
AcDbSymbolTableRecord
100
AcDbRegAppTableRecord
  2
VD_EX_PRINTER_AVSIZEX
 70
     0
  0
APPID
  5
788
330
77F
100
AcDbSymbolTableRecord
100
AcDbRegAppTableRecord
  2
VD_EX_PRINTER_SIZEY
 70
     0
  0
APPID
  5
789
330
77F
100
AcDbSymbolTableRecord
100
AcDbRegAppTableRecord
  2
VD_EX_PRINTER_AVSIZEY
 70
     0
  0
APPID
  5
859
330
77F
100
AcDbSymbolTableRecord
100
AcDbRegAppTableRecord
  2
ACAD_NAV_VCDISPLAY
 70
     0
  0
APPID
  5
89D
330
77F
100
AcDbSymbolTableRecord
100
AcDbRegAppTableRecord
  2
ACAD_MLEADERVER
 70
     0
  0
ENDTAB
  0
TABLE
  2
DIMSTYLE
  5
7B8
330
0
100
AcDbSymbolTable
 70
     1
100
AcDbDimStyleTable
 71
     1
340
3F
  0
DIMSTYLE
105
3F
102
{ACAD_REACTORS
330
6C7
330
6D5
330
6E2
330
6EF
330
6FC
102
}
330
7B8
100
AcDbSymbolTableRecord
100
AcDbDimStyleTableRecord
  2
STANDARD
 70
     0
 41
2.5
 42
0.0
 44
1.25
 47
1.0
 48
1.0
 73
     0
 77
     1
 78
     8
 79
     2
140
3.5
147
0.625
179
     2
271
     2
340
1E
  0
ENDTAB
  0
TABLE
  2
BLOCK_RECORD
  5
78A
330
0
100
AcDbSymbolTable
 70
     7
  0
BLOCK_RECORD
  5
78B
330
78A
100
AcDbSymbolTableRecord
100
AcDbBlockTableRecord
  2
*Model_Space
340
18
  0
BLOCK_RECORD
  5
78C
330
78A
100
AcDbSymbolTableRecord
100
AcDbBlockTableRecord
  2
*Paper_Space
340
33B
  0
BLOCK_RECORD
  5
78D
330
78A
100
AcDbSymbolTableRecord
100
AcDbBlockTableRecord
  2
VDDIM_DEFAULT
340
0
  0
BLOCK_RECORD
  5
78E
330
78A
100
AcDbSymbolTableRecord
100
AcDbBlockTableRecord
  2
VDDIM_NONE
340
0
  0
BLOCK_RECORD
  5
78F
330
78A
100
AcDbSymbolTableRecord
100
AcDbBlockTableRecord
  2
*D2
340
0
  0
BLOCK_RECORD
  5
797
330
78A
100
AcDbSymbolTableRecord
100
AcDbBlockTableRecord
  2
*D3
340
0
  0
BLOCK_RECORD
  5
79F
330
78A
100
AcDbSymbolTableRecord
100
AcDbBlockTableRecord
  2
*D4
340
0
  0
BLOCK_RECORD
  5
7A7
330
78A
100
AcDbSymbolTableRecord
100
AcDbBlockTableRecord
  2
*D5
340
0
  0
BLOCK_RECORD
  5
7AF
330
78A
100
AcDbSymbolTableRecord
100
AcDbBlockTableRecord
  2
*D6
340
0
  0
ENDTAB
  0
ENDSEC
  0
SECTION
  2
BLOCKS
  0
BLOCK
  5
7B9
330
78B
100
AcDbEntity
  8
1
100
AcDbBlockBegin
  2
*Model_Space
 70
     0
 10
0.0
 20
0.0
 30
0.0
  3
*Model_Space
  1

  0
ENDBLK
  5
7BA
330
78B
100
AcDbEntity
  8
1
100
AcDbBlockEnd
  0
BLOCK
  5
7BB
330
78C
100
AcDbEntity
 67
     1
  8
1
100
AcDbBlockBegin
  2
*Paper_Space
 70
     0
 10
0.0
 20
0.0
 30
0.0
  3
*Paper_Space
  1

  0
ENDBLK
  5
7BC
330
78C
100
AcDbEntity
 67
     1
  8
1
100
AcDbBlockEnd
  0
BLOCK
  5
771
330
78D
100
AcDbEntity
  8
0
100
AcDbBlockBegin
  2
VDDIM_DEFAULT
 70
     0
 10
0.0
 20
0.0
 30
0.0
  3
VDDIM_DEFAULT
  1

  0
HATCH
  5
772
330
78D
100
AcDbEntity
  8
0
  6
Continuous
 62
     0
370
    -2
100
AcDbHatch
 10
0.0
 20
0.0
 30
0.0
210
0.0
220
0.0
230
-1.0
  2
SOLID
 70
     1
 71
     0
 91
        1
 92
        2
 72
     0
 73
     1
 93
        3
 10
0.0
 20
0.0
 10
1.0
 20
-0.1665
 10
1.0
 20
0.1665
 97
        0
 75
     0
 76
     1
 98
        1
 10
0.0
 20
0.0
  0
ENDBLK
  5
7BD
330
78D
100
AcDbEntity
  8
0
100
AcDbBlockEnd
  0
BLOCK
  5
774
330
78E
100
AcDbEntity
  8
0
100
AcDbBlockBegin
  2
VDDIM_NONE
 70
     0
 10
0.0
 20
0.0
 30
0.0
  3
VDDIM_NONE
  1

  0
ENDBLK
  5
7BE
330
78E
100
AcDbEntity
  8
0
100
AcDbBlockEnd
  0
BLOCK
  5
790
330
78F
100
AcDbEntity
  8
0
100
AcDbBlockBegin
  2
*D2
 70
     1
 10
0.0
 20
0.0
 30
0.0
  3
*D2
  1

  0
LINE
  5
791
330
78F
100
AcDbEntity
  8
SK2
100
AcDbLine
 10
-48.0
 20
6.799999999999999
 30
0.0
 11
-48.0
 21
91.25
 31
0.0
  0
LINE
  5
792
330
78F
100
AcDbEntity
  8
SK2
100
AcDbLine
 10
44.0
 20
6.799999999999999
 30
0.0
 11
44.0
 21
91.25
 31
0.0
  0
LINE
  5
793
330
78F
100
AcDbEntity
  8
SK2
100
AcDbLine
 10
-45.49999999999999
 20
90.0
 30
0.0
 11
41.5
 21
90.0
 31
0.0
  0
LWPOLYLINE
  5
794
102
{ACAD_REACTORS
330
7BF
102
}
330
78F
100
AcDbEntity
  8
SK2
100
AcDbPolyline
 90
        3
 70
     1
 43
0.0
 10
-45.49999999999999
 20
90.41666666666669
 10
-45.49999999999999
 20
89.58333333333332
 10
-48.0
 20
90.0
  0
HATCH
  5
7BF
330
78F
100
AcDbEntity
  8
SK2
100
AcDbHatch
 10
0.0
 20
0.0
 30
0.0
210
0.0
220
0.0
230
1.0
  2
SOLID
 70
     1
 71
     1
 91
        1
 92
        1
 93
        3
 72
     1
 10
-45.49999999999999
 20
90.41666666666669
 11
-45.49999999999999
 21
89.58333333333332
 72
     1
 10
-45.49999999999999
 20
89.58333333333332
 11
-48.0
 21
90.0
 72
     1
 10
-48.0
 20
90.0
 11
-45.49999999999999
 21
90.41666666666669
 97
        1
330
794
 75
     0
 76
     1
 98
        1
 10
0.0
 20
0.0
1001
VD_TEMPHATCH
1000
VD_TEMPHATCH
  0
LWPOLYLINE
  5
795
102
{ACAD_REACTORS
330
7C0
102
}
330
78F
100
AcDbEntity
  8
SK2
100
AcDbPolyline
 90
        3
 70
     1
 43
0.0
 10
41.5
 20
89.58333333333332
 10
41.5
 20
90.41666666666669
 10
44.0
 20
90.0
  0
HATCH
  5
7C0
330
78F
100
AcDbEntity
  8
SK2
100
AcDbHatch
 10
0.0
 20
0.0
 30
0.0
210
0.0
220
0.0
230
1.0
  2
SOLID
 70
     1
 71
     1
 91
        1
 92
        1
 93
        3
 72
     1
 10
41.5
 20
89.58333333333332
 11
41.5
 21
90.41666666666669
 72
     1
 10
41.5
 20
90.41666666666669
 11
44.0
 21
90.0
 72
     1
 10
44.0
 20
90.0
 11
41.5
 21
89.58333333333332
 97
        1
330
795
 75
     0
 76
     1
 98
        1
 10
0.0
 20
0.0
1001
VD_TEMPHATCH
1000
VD_TEMPHATCH
  0
MTEXT
  5
796
330
78F
100
AcDbEntity
  8
SK2
100
AcDbMText
 10
-2.0
 20
92.39074999999999
 30
0.0
 40
3.5
 41
5.037407841823055
 71
     5
 72
     1
  1
92
  7
SIMPLEX
 73
     1
 44
1.0
1001
ACAD
1000
MTEXTBEGIN
1070
    73
1070
     1
1070
    44
1040
1.0
1070
    74
1070
     0
1000
MTEXTEND
  0
ENDBLK
  5
7C1
330
78F
100
AcDbEntity
  8
0
100
AcDbBlockEnd
  0
BLOCK
  5
798
330
797
100
AcDbEntity
  8
0
100
AcDbBlockBegin
  2
*D3
 70
     1
 10
0.0
 20
0.0
 30
0.0
  3
*D3
  1

  0
LINE
  5
799
330
797
100
AcDbEntity
  8
2
100
AcDbLine
 10
9.599999999999999
 20
6.799999999999999
 30
0.0
 11
9.599999999999999
 21
61.25
 31
0.0
  0
LINE
  5
79A
330
797
100
AcDbEntity
  8
2
100
AcDbLine
 10
44.0
 20
6.799999999999999
 30
0.0
 11
44.0
 21
61.25
 31
0.0
  0
LINE
  5
79B
330
797
100
AcDbEntity
  8
2
100
AcDbLine
 10
12.1
 20
60.0
 30
0.0
 11
41.5
 21
60.0
 31
0.0
  0
LWPOLYLINE
  5
79C
102
{ACAD_REACTORS
330
7C2
102
}
330
797
100
AcDbEntity
  8
2
100
AcDbPolyline
 90
        3
 70
     1
 43
0.0
 10
12.1
 20
60.41666666666666
 10
12.1
 20
59.58333333333334
 10
9.599999999999999
 20
60.0
  0
HATCH
  5
7C2
330
797
100
AcDbEntity
  8
2
100
AcDbHatch
 10
0.0
 20
0.0
 30
0.0
210
0.0
220
0.0
230
1.0
  2
SOLID
 70
     1
 71
     1
 91
        1
 92
        1
 93
        3
 72
     1
 10
12.1
 20
60.41666666666666
 11
12.1
 21
59.58333333333334
 72
     1
 10
12.1
 20
59.58333333333334
 11
9.599999999999999
 21
60.0
 72
     1
 10
9.599999999999999
 20
60.0
 11
12.1
 21
60.41666666666666
 97
        1
330
79C
 75
     0
 76
     1
 98
        1
 10
0.0
 20
0.0
1001
VD_TEMPHATCH
1000
VD_TEMPHATCH
  0
LWPOLYLINE
  5
79D
102
{ACAD_REACTORS
330
7C3
102
}
330
797
100
AcDbEntity
  8
2
100
AcDbPolyline
 90
        3
 70
     1
 43
0.0
 10
41.5
 20
59.58333333333334
 10
41.5
 20
60.41666666666666
 10
44.0
 20
60.0
  0
HATCH
  5
7C3
330
797
100
AcDbEntity
  8
2
100
AcDbHatch
 10
0.0
 20
0.0
 30
0.0
210
0.0
220
0.0
230
1.0
  2
SOLID
 70
     1
 71
     1
 91
        1
 92
        1
 93
        3
 72
     1
 10
41.5
 20
59.58333333333334
 11
41.5
 21
60.41666666666666
 72
     1
 10
41.5
 20
60.41666666666666
 11
44.0
 21
60.0
 72
     1
 10
44.0
 20
60.0
 11
41.5
 21
59.58333333333334
 97
        1
330
79D
 75
     0
 76
     1
 98
        1
 10
0.0
 20
0.0
1001
VD_TEMPHATCH
1000
VD_TEMPHATCH
  0
MTEXT
  5
79E
330
797
100
AcDbEntity
  8
2
100
AcDbMText
 10
26.8
 20
62.438
 30
0.0
 40
3.5
 41
9.183101541554961
 71
     5
 72
     1
  1
34.4
  7
SIMPLEX
 73
     1
 44
1.0
1001
ACAD
1000
MTEXTBEGIN
1070
    73
1070
     1
1070
    44
1040
1.0
1070
    74
1070
     0
1000
MTEXTEND
  0
ENDBLK
  5
7C4
330
797
100
AcDbEntity
  8
0
100
AcDbBlockEnd
  0
BLOCK
  5
7A0
330
79F
100
AcDbEntity
  8
0
100
AcDbBlockBegin
  2
*D4
 70
     1
 10
0.0
 20
0.0
 30
0.0
  3
*D4
  1

  0
LINE
  5
7A1
330
79F
100
AcDbEntity
  8
SK2
100
AcDbLine
 10
-48.0
 20
9.0
 30
0.0
 11
-64.25000000004593
 21
8.999999999917069
 31
0.0
  0
LINE
  5
7A2
330
79F
100
AcDbEntity
  8
SK2
100
AcDbLine
 10
-48.0
 20
-9.0
 30
0.0
 11
-64.24999999995407
 21
-9.00000000008293
 31
0.0
  0
LINE
  5
7A3
330
79F
100
AcDbEntity
  8
SK2
100
AcDbLine
 10
-63.00000000003317
 20
6.499999999923447
 30
0.0
 11
-62.99999999996683
 21
-6.500000000076552
 31
0.0
  0
LWPOLYLINE
  5
7A4
102
{ACAD_REACTORS
330
7C5
102
}
330
79F
100
AcDbEntity
  8
SK2
100
AcDbPolyline
 90
        3
 70
     1
 43
0.0
 10
-62.5833333333665
 20
6.499999999925574
 10
-63.41666666669983
 20
6.499999999921321
 10
-63.00000000004593
 20
8.999999999923447
  0
HATCH
  5
7C5
330
79F
100
AcDbEntity
  8
SK2
100
AcDbHatch
 10
0.0
 20
0.0
 30
0.0
210
0.0
220
0.0
230
1.0
  2
SOLID
 70
     1
 71
     1
 91
        1
 92
        1
 93
        3
 72
     1
 10
-62.5833333333665
 20
6.499999999925574
 11
-63.41666666669983
 21
6.499999999921321
 72
     1
 10
-63.41666666669983
 20
6.499999999921321
 11
-63.00000000004593
 21
8.999999999923447
 72
     1
 10
-63.00000000004593
 20
8.999999999923447
 11
-62.5833333333665
 21
6.499999999925574
 97
        1
330
7A4
 75
     0
 76
     1
 98
        1
 10
0.0
 20
0.0
1001
VD_TEMPHATCH
1000
VD_TEMPHATCH
  0
LWPOLYLINE
  5
7A5
102
{ACAD_REACTORS
330
7C6
102
}
330
79F
100
AcDbEntity
  8
SK2
100
AcDbPolyline
 90
        3
 70
     1
 43
0.0
 10
-63.4166666666335
 20
-6.500000000078678
 10
-62.58333333330017
 20
-6.500000000074425
 10
-62.99999999995407
 20
-9.000000000076552
  0
HATCH
  5
7C6
330
79F
100
AcDbEntity
  8
SK2
100
AcDbHatch
 10
0.0
 20
0.0
 30
0.0
210
0.0
220
0.0
230
1.0
  2
SOLID
 70
     1
 71
     1
 91
        1
 92
        1
 93
        3
 72
     1
 10
-63.4166666666335
 20
-6.500000000078678
 11
-62.58333333330017
 21
-6.500000000074425
 72
     1
 10
-62.58333333330017
 20
-6.500000000074425
 11
-62.99999999995407
 21
-9.000000000076552
 72
     1
 10
-62.99999999995407
 20
-9.000000000076552
 11
-63.4166666666335
 21
-6.500000000078678
 97
        1
330
7A5
 75
     0
 76
     1
 98
        1
 10
0.0
 20
0.0
1001
VD_TEMPHATCH
1000
VD_TEMPHATCH
  0
MTEXT
  5
7A6
102
{ACAD_XDICTIONARY
360
863
102
}
330
79F
100
AcDbEntity
  8
SK2
100
AcDbMText
 10
-65.39075
 20
-0.0000000000887528
 30
0.0
 40
3.5
 41
8.935321715817693
 71
     5
 72
     1
  1
\U+00D818
  7
SIMPLEX
 11
0.0000000000001002
 21
1.0
 31
0.0
 73
     1
 44
1.0
1001
ACAD
1000
MTEXTBEGIN
1070
    73
1070
     1
1070
    44
1040
1.0
1070
    74
1070
     0
1000
MTEXTEND
  0
ENDBLK
  5
7C7
330
79F
100
AcDbEntity
  8
0
100
AcDbBlockEnd
  0
BLOCK
  5
7A8
330
7A7
100
AcDbEntity
  8
0
100
AcDbBlockBegin
  2
*D5
 70
     1
 10
0.0
 20
0.0
 30
0.0
  3
*D5
  1

  0
LINE
  5
7A9
330
7A7
100
AcDbEntity
  8
2
100
AcDbLine
 10
0.0
 20
0.0
 30
0.0
 11
0.0
 21
76.25
 31
0.0
  0
LINE
  5
7AA
330
7A7
100
AcDbEntity
  8
2
100
AcDbLine
 10
44.0
 20
0.0
 30
0.0
 11
44.0
 21
76.25
 31
0.0
  0
LINE
  5
7AB
330
7A7
100
AcDbEntity
  8
2
100
AcDbLine
 10
2.5
 20
75.0
 30
0.0
 11
41.5
 21
75.0
 31
0.0
  0
LWPOLYLINE
  5
7AC
102
{ACAD_REACTORS
330
7C8
102
}
330
7A7
100
AcDbEntity
  8
2
100
AcDbPolyline
 90
        3
 70
     1
 43
0.0
 10
2.5
 20
75.41666666666667
 10
2.5
 20
74.58333333333333
 10
0.0
 20
75.0
  0
HATCH
  5
7C8
330
7A7
100
AcDbEntity
  8
2
100
AcDbHatch
 10
0.0
 20
0.0
 30
0.0
210
0.0
220
0.0
230
1.0
  2
SOLID
 70
     1
 71
     1
 91
        1
 92
        1
 93
        3
 72
     1
 10
2.5
 20
75.41666666666667
 11
2.5
 21
74.58333333333333
 72
     1
 10
2.5
 20
74.58333333333333
 11
0.0
 21
75.0
 72
     1
 10
0.0
 20
75.0
 11
2.5
 21
75.41666666666667
 97
        1
330
7AC
 75
     0
 76
     1
 98
        1
 10
0.0
 20
0.0
1001
VD_TEMPHATCH
1000
VD_TEMPHATCH
  0
LWPOLYLINE
  5
7AD
102
{ACAD_REACTORS
330
7C9
102
}
330
7A7
100
AcDbEntity
  8
2
100
AcDbPolyline
 90
        3
 70
     1
 43
0.0
 10
41.5
 20
74.58333333333333
 10
41.5
 20
75.41666666666667
 10
44.0
 20
75.0
  0
HATCH
  5
7C9
330
7A7
100
AcDbEntity
  8
2
100
AcDbHatch
 10
0.0
 20
0.0
 30
0.0
210
0.0
220
0.0
230
1.0
  2
SOLID
 70
     1
 71
     1
 91
        1
 92
        1
 93
        3
 72
     1
 10
41.5
 20
74.58333333333333
 11
41.5
 21
75.41666666666667
 72
     1
 10
41.5
 20
75.41666666666667
 11
44.0
 21
75.0
 72
     1
 10
44.0
 20
75.0
 11
41.5
 21
74.58333333333333
 97
        1
330
7AD
 75
     0
 76
     1
 98
        1
 10
0.0
 20
0.0
1001
VD_TEMPHATCH
1000
VD_TEMPHATCH
  0
MTEXT
  5
7AE
330
7A7
100
AcDbEntity
  8
2
100
AcDbMText
 10
22.0
 20
77.41525
 30
0.0
 40
3.5
 41
5.201763572386057
 71
     5
 72
     1
  1
44
  7
SIMPLEX
 73
     1
 44
1.0
1001
ACAD
1000
MTEXTBEGIN
1070
    73
1070
     1
1070
    44
1040
1.0
1070
    74
1070
     0
1000
MTEXTEND
  0
ENDBLK
  5
7CA
330
7A7
100
AcDbEntity
  8
0
100
AcDbBlockEnd
  0
BLOCK
  5
7B0
330
7AF
100
AcDbEntity
  8
0
100
AcDbBlockBegin
  2
*D6
 70
     1
 10
0.0
 20
0.0
 30
0.0
  3
*D6
  1

  0
LINE
  5
7B1
330
7AF
100
AcDbEntity
  8
2
100
AcDbLine
 10
44.0
 20
6.799999999999999
 30
0.0
 11
60.25000000000001
 21
6.800000000000056
 31
0.0
  0
LINE
  5
7B2
330
7AF
100
AcDbEntity
  8
2
100
AcDbLine
 10
44.0
 20
-6.799999999999999
 30
0.0
 11
60.25000000000006
 21
-6.799999999999942
 31
0.0
  0
LINE
  5
7B3
330
7AF
100
AcDbEntity
  8
2
100
AcDbLine
 10
59.00000000000006
 20
-6.799999999999947
 30
0.0
 11
59.00000000000011
 21
-24.07049999999995
 31
0.0
  0
LINE
  5
7B4
330
7AF
100
AcDbEntity
  8
2
100
AcDbLine
 10
59.00000000000001
 20
4.300000000000052
 30
0.0
 11
59.00000000000005
 21
-4.299999999999947
 31
0.0
  0
LWPOLYLINE
  5
7B5
102
{ACAD_REACTORS
330
7CB
102
}
330
7AF
100
AcDbEntity
  8
2
100
AcDbPolyline
 90
        3
 70
     1
 43
0.0
 10
59.41666666666668
 20
4.300000000000054
 10
58.58333333333335
 20
4.30000000000005
 10
59.00000000000001
 20
6.800000000000052
  0
HATCH
  5
7CB
330
7AF
100
AcDbEntity
  8
2
100
AcDbHatch
 10
0.0
 20
0.0
 30
0.0
210
0.0
220
0.0
230
1.0
  2
SOLID
 70
     1
 71
     1
 91
        1
 92
        1
 93
        3
 72
     1
 10
59.41666666666668
 20
4.300000000000054
 11
58.58333333333335
 21
4.30000000000005
 72
     1
 10
58.58333333333335
 20
4.30000000000005
 11
59.00000000000001
 21
6.800000000000052
 72
     1
 10
59.00000000000001
 20
6.800000000000052
 11
59.41666666666668
 21
4.300000000000054
 97
        1
330
7B5
 75
     0
 76
     1
 98
        1
 10
0.0
 20
0.0
1001
VD_TEMPHATCH
1000
VD_TEMPHATCH
  0
LWPOLYLINE
  5
7B6
102
{ACAD_REACTORS
330
7CC
102
}
330
7AF
100
AcDbEntity
  8
2
100
AcDbPolyline
 90
        3
 70
     1
 43
0.0
 10
58.58333333333338
 20
-4.299999999999949
 10
59.4166666666667
 20
-4.299999999999945
 10
59.00000000000006
 20
-6.799999999999947
  0
HATCH
  5
7CC
330
7AF
100
AcDbEntity
  8
2
100
AcDbHatch
 10
0.0
 20
0.0
 30
0.0
210
0.0
220
0.0
230
1.0
  2
SOLID
 70
     1
 71
     1
 91
        1
 92
        1
 93
        3
 72
     1
 10
58.58333333333338
 20
-4.299999999999949
 11
59.4166666666667
 21
-4.299999999999945
 72
     1
 10
59.4166666666667
 20
-4.299999999999945
 11
59.00000000000006
 21
-6.799999999999947
 72
     1
 10
59.00000000000006
 20
-6.799999999999947
 11
58.58333333333338
 21
-4.299999999999949
 97
        1
330
7B6
 75
     0
 76
     1
 98
        1
 10
0.0
 20
0.0
1001
VD_TEMPHATCH
1000
VD_TEMPHATCH
  0
MTEXT
  5
7B7
102
{ACAD_XDICTIONARY
360
865
102
}
330
7AF
100
AcDbEntity
  8
2
100
AcDbMText
 10
56.6022500000001
 20
-16.68524999999995
 30
0.0
 40
3.5
 41
13.05198558981233
 71
     5
 72
     1
  1
\U+00D813.6
  7
SIMPLEX
 11
0.0000000000001002
 21
1.0
 31
0.0
 73
     1
 44
1.0
1001
ACAD
1000
MTEXTBEGIN
1070
    73
1070
     1
1070
    44
1040
1.0
1070
    74
1070
     0
1000
MTEXTEND
  0
ENDBLK
  5
7CD
330
7AF
100
AcDbEntity
  8
0
100
AcDbBlockEnd
  0
ENDSEC
  0
SECTION
  2
ENTITIES
  0
LINE
  5
3C2
330
78B
100
AcDbEntity
  8
SK4
100
AcDbLine
 10
-50.0
 20
0.0
 30
0.0
 11
7.399999999999998
 21
0.0
 31
0.0
  0
LINE
  5
3C3
330
78B
100
AcDbEntity
  8
4
100
AcDbLine
 10
5.399999999999999
 20
0.0
 30
0.0
 11
46.0
 21
0.0
 31
0.0
  0
LINE
  5
3C4
330
78B
100
AcDbEntity
  8
SK4
100
AcDbLine
 10
5.399999999999999
 20
0.0
 30
0.0
 11
46.0
 21
0.0
 31
0.0
  0
LINE
  5
3C5
330
78B
100
AcDbEntity
  8
1
100
AcDbLine
 10
9.0
 20
7.36894985757519
 30
0.0
 11
7.399999999999998
 21
8.891599607928952
 31
0.0
  0
LINE
  5
3C6
330
78B
100
AcDbEntity
  8
1
100
AcDbLine
 10
7.399999999999998
 20
8.891599607928958
 30
0.0
 11
7.399999999999998
 21
6.049649536438384
 31
0.0
  0
ARC
  5
3C7
330
78B
100
AcDbEntity
  8
1
100
AcDbCircle
 10
35.40897991488033
 20
44.16533458094815
 30
0.0
 40
47.30012034521606
100
AcDbArc
 50
233.6900172446856
 51
236.0597446762352
  0
LINE
  5
3C8
330
78B
100
AcDbEntity
  8
1
100
AcDbLine
 10
9.599999999999999
 20
-5.810770000000001
 30
0.0
 11
9.599999999999999
 21
-5.79680295088253
 31
0.0
  0
LINE
  5
3C9
330
78B
100
AcDbEntity
  8
1
100
AcDbLine
 10
9.599999999999999
 20
-5.796802950882527
 30
0.0
 11
9.26191745106545
 21
-6.396345878882092
 31
0.0
  0
LINE
  5
3CA
330
78B
100
AcDbEntity
  8
1
100
AcDbLine
 10
9.0
 20
7.36894985757519
 30
0.0
 11
9.000000000000007
 21
4.924210038389509
 31
0.0
  0
LINE
  5
3CB
330
78B
100
AcDbEntity
  8
1
100
AcDbLine
 10
9.0
 20
4.63193639740538
 30
0.0
 11
9.0
 21
4.924210038389509
 31
0.0
  0
LINE
  5
3CC
330
78B
100
AcDbEntity
  8
1
100
AcDbLine
 10
2.199999999999989
 20
6.882771598015952
 30
0.0
 11
2.199999999999986
 21
-0.1967167624736157
 31
0.0
  0
LINE
  5
3CD
330
78B
100
AcDbEntity
  8
1
100
AcDbLine
 10
9.0
 20
-0.2884692562829351
 30
0.0
 11
9.0
 21
-0.6771838720336864
 31
0.0
  0
LINE
  5
3CE
330
78B
100
AcDbEntity
  8
1
100
AcDbLine
 10
9.000000000000008
 20
-0.2884692562829367
 30
0.0
 11
9.306137877429666
 21
0.050530945479317
 31
0.0
  0
LINE
  5
3CF
330
78B
100
AcDbEntity
  8
1
100
AcDbLine
 10
9.306137877429666
 20
0.050530945479317
 30
0.0
 11
9.599999999999999
 21
0.4026456774133079
 31
0.0
  0
LINE
  5
3D0
330
78B
100
AcDbEntity
  8
1
100
AcDbLine
 10
2.200000000000012
 20
6.882771598015949
 30
0.0
 11
7.399999999999987
 21
6.049649536438428
 31
0.0
  0
LINE
  5
3D1
330
78B
100
AcDbEntity
  8
1
100
AcDbLine
 10
2.200000000000009
 20
-5.798918444809049
 30
0.0
 11
7.399999999999995
 21
-6.663463100090757
 31
0.0
  0
LINE
  5
3D2
330
78B
100
AcDbEntity
  8
1
100
AcDbLine
 10
7.399999999999998
 20
-1.392643677427076
 30
0.0
 11
7.399999999999998
 21
-6.663463100090735
 31
0.0
  0
LINE
  5
3D3
330
78B
100
AcDbEntity
  8
1
100
AcDbLine
 10
2.200000000000009
 20
-0.1967167624736209
 30
0.0
 11
7.399999999999987
 21
-1.392643677427086
 31
0.0
  0
ARC
  5
3D4
330
78B
100
AcDbEntity
  8
1
100
AcDbCircle
 10
1.341237613481969
 20
-160.2947603574738
 30
0.0
 40
169.2947916415778
100
AcDbArc
 50
87.94904724065139
 51
89.70936098003539
  0
LINE
  5
3D5
330
78B
100
AcDbEntity
  8
1
100
AcDbLine
 10
2.200000000000002
 20
9.000000000000039
 30
0.0
 11
2.200000000000002
 21
8.999999478648492
 31
0.0
  0
LINE
  5
3D6
330
78B
100
AcDbEntity
  8
1
100
AcDbLine
 10
2.200000000000002
 20
8.999999478648492
 30
0.0
 11
2.200000000000001
 21
8.999849064387282
 31
0.0
  0
LINE
  5
3D7
330
78B
100
AcDbEntity
  8
1
100
AcDbLine
 10
2.200000000000001
 20
8.999849064387282
 30
0.0
 11
2.200000000000001
 21
8.997849882908839
 31
0.0
  0
LINE
  5
3D8
330
78B
100
AcDbEntity
  8
1
100
AcDbLine
 10
2.200000000000002
 20
9.0
 30
0.0
 11
-0.0000000000000004
 21
9.0
 31
0.0
  0
ARC
  5
3D9
330
78B
100
AcDbEntity
  8
1
100
AcDbCircle
 10
1.341237613477594
 20
160.2947603577329
 30
0.0
 40
169.2947916418369
100
AcDbArc
 50
270.2906390199657
 51
272.050952759347
  0
LINE
  5
3DA
330
78B
100
AcDbEntity
  8
1
100
AcDbLine
 10
9.599999999999999
 20
4.012734110192876
 30
0.0
 11
9.599999999999999
 21
5.810770000000001
 31
0.0
  0
LINE
  5
3DB
330
78B
100
AcDbEntity
  8
1
100
AcDbLine
 10
9.000000000000005
 20
6.843923252651183
 30
0.0
 11
9.261917451194285
 21
6.396345878890926
 31
0.0
  0
LINE
  5
3DC
330
78B
100
AcDbEntity
  8
1
100
AcDbLine
 10
9.599999999999999
 20
4.012734110192877
 30
0.0
 11
9.000000000000007
 21
4.631936397405375
 31
0.0
  0
LINE
  5
3DD
330
78B
100
AcDbEntity
  8
1
100
AcDbLine
 10
9.0
 20
-6.843923252651185
 30
0.0
 11
9.0
 21
-7.368949857575193
 31
0.0
  0
LINE
  5
3DE
330
78B
100
AcDbEntity
  8
1
100
AcDbLine
 10
9.000000000000008
 20
-0.6771838720336848
 30
0.0
 11
9.000000000000005
 21
-5.523780906030217
 31
0.0
  0
LINE
  5
3DF
330
78B
100
AcDbEntity
  8
1
100
AcDbLine
 10
9.599999999999999
 20
-5.810770000000001
 30
0.0
 11
9.261917451065446
 21
-6.396345878882103
 31
0.0
  0
LINE
  5
3E0
330
78B
100
AcDbEntity
  8
1
100
AcDbLine
 10
9.000000000000005
 20
-6.843923252651183
 30
0.0
 11
9.26191745106545
 21
-6.396345878882092
 31
0.0
  0
LINE
  5
3E1
330
78B
100
AcDbEntity
  8
1
100
AcDbLine
 10
9.000000000000003
 20
-0.6771838720336843
 30
0.0
 11
8.205388278481589
 21
-1.055226861151945
 31
0.0
  0
LINE
  5
3E2
330
78B
100
AcDbEntity
  8
1
100
AcDbLine
 10
8.205388278481589
 20
-1.055226861151945
 30
0.0
 11
7.400000000000002
 21
-1.392643677427079
 31
0.0
  0
LINE
  5
3E3
330
78B
100
AcDbEntity
  8
1
100
AcDbLine
 10
2.199999999999996
 20
-5.798918444809047
 30
0.0
 11
2.200000000000016
 21
-8.99999999999996
 31
0.0
  0
LINE
  5
3E4
330
78B
100
AcDbEntity
  8
1
100
AcDbLine
 10
9.0
 20
-7.368949857575193
 30
0.0
 11
7.399999999999996
 21
-8.891599607928961
 31
0.0
  0
LINE
  5
3E5
330
78B
100
AcDbEntity
  8
1
100
AcDbLine
 10
9.599999999999999
 20
-4.202738744413529
 30
0.0
 11
9.000000000000007
 21
-5.046549832349947
 31
0.0
  0
ARC
  5
3E6
330
78B
100
AcDbEntity
  8
1
100
AcDbCircle
 10
-22.74418439713593
 20
37.3457874098584
 30
0.0
 40
53.34315344936428
100
AcDbArc
 50
304.4092362406711
 51
306.5193169202926
  0
LINE
  5
3E7
330
78B
100
AcDbEntity
  8
1
100
AcDbLine
 10
9.599999999999999
 20
3.696741590322961
 30
0.0
 11
9.599999999999999
 21
4.012734110192875
 31
0.0
  0
LINE
  5
3E8
330
78B
100
AcDbEntity
  8
1
100
AcDbLine
 10
9.599999999999999
 20
2.102126288799384
 30
0.0
 11
9.599999999999999
 21
3.696741590322961
 31
0.0
  0
LINE
  5
3E9
330
78B
100
AcDbEntity
  8
1
100
AcDbLine
 10
9.599999999999999
 20
0.4026456774133044
 30
0.0
 11
9.599999999999999
 21
2.102126288799384
 31
0.0
  0
LINE
  5
3EA
330
78B
100
AcDbEntity
  8
1
100
AcDbLine
 10
9.599999999999999
 20
-4.202738744413529
 30
0.0
 11
9.599999999999999
 21
0.4026456774133055
 31
0.0
  0
LINE
  5
3EB
330
78B
100
AcDbEntity
  8
1
100
AcDbLine
 10
9.599999999999999
 20
-5.796802950882527
 30
0.0
 11
9.599999999999999
 21
-4.20273874441353
 31
0.0
  0
LINE
  5
3EC
330
78B
100
AcDbEntity
  8
1
100
AcDbLine
 10
2.200000000000016
 20
-8.999999999999957
 30
0.0
 11
0.0000000000000002
 21
-8.99999999999996
 31
0.0
  0
LINE
  5
3ED
330
78B
100
AcDbEntity
  8
1
100
AcDbLine
 10
9.600000000000006
 20
5.810769999999993
 30
0.0
 11
9.261917451093832
 21
6.396345878832933
 31
0.0
  0
LINE
  5
3EE
330
78B
100
AcDbEntity
  8
1
 62
     1
100
AcDbLine
 10
43.99999999999999
 20
5.097127918819208
 30
0.0
 11
44.0
 21
5.11795
 31
0.0
  0
LINE
  5
3EF
330
78B
100
AcDbEntity
  8
1
 62
     1
100
AcDbLine
 10
44.0
 20
5.097127918819208
 30
0.0
 11
43.99999999999999
 21
3.956257147991132
 31
0.0
  0
LINE
  5
3F0
330
78B
100
AcDbEntity
  8
1
 62
     1
100
AcDbLine
 10
42.97113247308103
 20
6.799999999999999
 30
0.0
 11
43.02886752691896
 21
6.799999999999999
 31
0.0
  0
LINE
  5
3F1
330
78B
100
AcDbEntity
  8
1
 62
     1
100
AcDbLine
 10
44.0
 20
-3.246758626918401
 30
0.0
 11
43.5367297411326
 21
-4.32104544684484
 31
0.0
  0
LINE
  5
3F2
330
78B
100
AcDbEntity
  8
1
 62
     1
100
AcDbLine
 10
43.5367297411326
 20
-4.32104544684484
 30
0.0
 11
43.02886752690238
 21
-5.371896360365514
 31
0.0
  0
LINE
  5
3F3
330
78B
100
AcDbEntity
  8
1
 62
     1
100
AcDbLine
 10
43.02886752691896
 20
-6.799999999999998
 30
0.0
 11
43.02886752691899
 21
-6.799638201386947
 31
0.0
  0
LINE
  5
3F4
330
78B
100
AcDbEntity
  8
1
 62
     1
100
AcDbLine
 10
43.02886752691899
 20
-6.799638201386947
 30
0.0
 11
43.02886752691896
 21
-6.69576405766845
 31
0.0
  0
LINE
  5
3F5
330
78B
100
AcDbEntity
  8
1
 62
     1
100
AcDbLine
 10
43.02886752691896
 20
-6.69576405766845
 30
0.0
 11
43.02886752691896
 21
-5.37189636033253
 31
0.0
  0
LINE
  5
3F6
330
78B
100
AcDbEntity
  8
1
 62
     1
100
AcDbLine
 10
44.0
 20
-5.11795
 30
0.0
 11
44.0
 21
-5.117557133064855
 31
0.0
  0
LINE
  5
3F7
330
78B
100
AcDbEntity
  8
1
 62
     1
100
AcDbLine
 10
44.0
 20
-5.117557133064855
 30
0.0
 11
43.99999999999999
 21
-4.995947405478433
 31
0.0
  0
LINE
  5
3F8
330
78B
100
AcDbEntity
  8
1
 62
     1
100
AcDbLine
 10
43.99999999999999
 20
-4.995947405478433
 30
0.0
 11
43.99999999999999
 21
-3.246758626918401
 31
0.0
  0
LINE
  5
3F9
330
78B
100
AcDbEntity
  8
1
 62
     1
100
AcDbLine
 10
43.02886752691896
 20
4.169260065508772
 30
0.0
 11
42.97113247308103
 21
4.177218095734454
 31
0.0
  0
LINE
  5
3FA
330
78B
100
AcDbEntity
  8
1
 62
     1
100
AcDbLine
 10
42.97113247308103
 20
-0.8689768089993929
 30
0.0
 11
42.97113247308103
 21
4.177218095710456
 31
0.0
  0
LINE
  5
3FB
330
78B
100
AcDbEntity
  8
1
 62
     1
100
AcDbLine
 10
43.02886752691896
 20
-0.8789726594522715
 30
0.0
 11
42.97113247308103
 21
-0.8689768079688773
 31
0.0
  0
LINE
  5
3FC
330
78B
100
AcDbEntity
  8
1
 62
     1
100
AcDbLine
 10
41.02886752691897
 20
4.439473697495445
 30
0.0
 11
40.97113247308103
 21
4.447103676582596
 31
0.0
  0
LINE
  5
3FD
330
78B
100
AcDbEntity
  8
1
 62
     1
100
AcDbLine
 10
40.97113247308103
 20
-0.5216854107676661
 30
0.0
 11
40.97113247308103
 21
4.447103676815734
 31
0.0
  0
LINE
  5
3FE
330
78B
100
AcDbEntity
  8
1
 62
     1
100
AcDbLine
 10
41.02886752691897
 20
-0.5317345516133396
 30
0.0
 11
40.97113247308103
 21
-0.5216854107676654
 31
0.0
  0
LINE
  5
3FF
330
78B
100
AcDbEntity
  8
1
 62
     1
100
AcDbLine
 10
39.02886752691897
 20
4.697988064366978
 30
0.0
 11
38.97113247308104
 21
4.705270073226992
 31
0.0
  0
LINE
  5
400
330
78B
100
AcDbEntity
  8
1
 62
     1
100
AcDbLine
 10
38.97113247308103
 20
-0.1730174750904601
 30
0.0
 11
38.97113247308103
 21
4.70527007448586
 31
0.0
  0
LINE
  5
401
330
78B
100
AcDbEntity
  8
1
 62
     1
100
AcDbLine
 10
39.02886752691897
 20
-0.183093486854514
 30
0.0
 11
38.97113247308103
 21
-0.1730174750838901
 31
0.0
  0
LINE
  5
402
330
78B
100
AcDbEntity
  8
1
 62
     1
100
AcDbLine
 10
37.02886752691898
 20
4.944119048497658
 30
0.0
 11
36.97113247308101
 21
4.951033727475047
 31
0.0
  0
LINE
  5
403
330
78B
100
AcDbEntity
  8
1
 62
     1
100
AcDbLine
 10
36.97113247308101
 20
0.1761065417562553
 30
0.0
 11
36.97113247308101
 21
4.951033727622456
 31
0.0
  0
LINE
  5
404
330
78B
100
AcDbEntity
  8
1
 62
     1
100
AcDbLine
 10
35.02886752691897
 20
5.177217089372062
 30
0.0
 11
34.97113247308103
 21
5.18374624355241
 31
0.0
  0
LINE
  5
405
330
78B
100
AcDbEntity
  8
1
 62
     1
100
AcDbLine
 10
34.97113247308103
 20
0.524766298181577
 30
0.0
 11
34.97113247308103
 21
5.183746244270713
 31
0.0
  0
LINE
  5
406
330
78B
100
AcDbEntity
  8
1
 62
     1
100
AcDbLine
 10
35.02886752691897
 20
0.5147163366837193
 30
0.0
 11
34.97113247308103
 21
0.5247662981856775
 31
0.0
  0
LINE
  5
407
330
78B
100
AcDbEntity
  8
1
 62
     1
100
AcDbLine
 10
33.02886752691894
 20
5.396668285412524
 30
0.0
 11
32.97113247308103
 21
5.402794733323181
 31
0.0
  0
LINE
  5
408
330
78B
100
AcDbEntity
  8
1
 62
     1
100
AcDbLine
 10
32.97113247308103
 20
0.872042848877504
 30
0.0
 11
32.97113247308103
 21
5.402794738167398
 31
0.0
  0
LINE
  5
409
330
78B
100
AcDbEntity
  8
1
 62
     1
100
AcDbLine
 10
31.02886752691897
 20
5.601893744521832
 30
0.0
 11
30.97113247308103
 21
5.607601326724823
 31
0.0
  0
LINE
  5
40A
330
78B
100
AcDbEntity
  8
1
 62
     1
100
AcDbLine
 10
30.97113247308105
 20
1.217020590011407
 30
0.0
 11
30.97113247308104
 21
5.607601327492015
 31
0.0
  0
LINE
  5
40B
330
78B
100
AcDbEntity
  8
1
 62
     1
100
AcDbLine
 10
31.02886752691897
 20
1.207102542454163
 30
0.0
 11
30.97113247308105
 21
1.217020590011407
 31
0.0
  0
LINE
  5
40C
330
78B
100
AcDbEntity
  8
1
 62
     1
100
AcDbLine
 10
31.02886752691897
 20
1.207102542454165
 30
0.0
 11
31.02886752691897
 21
5.601893744521832
 31
0.0
  0
LINE
  5
40D
330
78B
100
AcDbEntity
  8
1
 62
     1
100
AcDbLine
 10
29.02886752691897
 20
5.792352855958983
 30
0.0
 11
28.97113247308104
 21
5.797626506010539
 31
0.0
  0
LINE
  5
40E
330
78B
100
AcDbEntity
  8
1
 62
     1
100
AcDbLine
 10
28.97113247308105
 20
1.558790330831896
 30
0.0
 11
28.97113247308105
 21
5.797626507280243
 31
0.0
  0
LINE
  5
40F
330
78B
100
AcDbEntity
  8
1
 62
     1
100
AcDbLine
 10
27.02886752691896
 20
5.967543604924922
 30
0.0
 11
26.97113247308105
 21
5.97236943508324
 31
0.0
  0
LINE
  5
410
330
78B
100
AcDbEntity
  8
1
 62
     1
100
AcDbLine
 10
26.97113247308105
 20
1.896451227123927
 30
0.0
 11
26.97113247308104
 21
5.972369435258196
 31
0.0
  0
LINE
  5
411
330
78B
100
AcDbEntity
  8
1
 62
     1
100
AcDbLine
 10
27.02886752691895
 20
1.886769620980754
 30
0.0
 11
26.97113247308106
 21
1.896451226915969
 31
0.0
  0
LINE
  5
412
330
78B
100
AcDbEntity
  8
1
 62
     1
100
AcDbLine
 10
25.02886752691897
 20
6.127003887762643
 30
0.0
 11
24.97113247308103
 21
6.131369192992939
 31
0.0
  0
LINE
  5
413
330
78B
100
AcDbEntity
  8
1
 62
     1
100
AcDbLine
 10
24.97113247308105
 20
2.229113058232543
 30
0.0
 11
24.97113247308103
 21
6.131369195088216
 31
0.0
  0
LINE
  5
414
330
78B
100
AcDbEntity
  8
1
 62
     1
100
AcDbLine
 10
23.02886752691897
 20
6.270313482592822
 30
0.0
 11
22.97113247308103
 21
6.274206743463787
 31
0.0
  0
LINE
  5
415
330
78B
100
AcDbEntity
  8
1
 62
     1
100
AcDbLine
 10
22.97113247308104
 20
2.555898936256229
 30
0.0
 11
22.97113247308103
 21
6.27420674346379
 31
0.0
  0
LINE
  5
416
330
78B
100
AcDbEntity
  8
1
 62
     1
100
AcDbLine
 10
21.02886752691897
 20
6.397094823263548
 30
0.0
 11
20.97113247308103
 21
6.400505760429152
 31
0.0
  0
LINE
  5
417
330
78B
100
AcDbEntity
  8
1
 62
     1
100
AcDbLine
 10
20.97113247308103
 20
2.875947608351244
 30
0.0
 11
20.97113247308103
 21
6.400505761004763
 31
0.0
  0
LINE
  5
418
330
78B
100
AcDbEntity
  8
1
 62
     1
100
AcDbLine
 10
19.02886752691897
 20
6.507013566230403
 30
0.0
 11
18.97113247308103
 21
6.509933209994358
 31
0.0
  0
LINE
  5
419
330
78B
100
AcDbEntity
  8
1
 62
     1
100
AcDbLine
 10
18.97113247308103
 20
3.188415387575637
 30
0.0
 11
18.97113247308103
 21
6.509933211618384
 31
0.0
  0
LINE
  5
41A
330
78B
100
AcDbEntity
  8
1
 62
     1
100
AcDbLine
 10
19.02886752691896
 20
3.179509116057377
 30
0.0
 11
18.97113247308103
 21
3.188415387230417
 31
0.0
  0
LINE
  5
41B
330
78B
100
AcDbEntity
  8
1
 62
     1
100
AcDbLine
 10
17.02886752691896
 20
6.599779857123461
 30
0.0
 11
16.97113247308104
 21
6.602200509872256
 31
0.0
  0
LINE
  5
41C
330
78B
100
AcDbEntity
  8
1
 62
     1
100
AcDbLine
 10
16.97113247308104
 20
3.492478467895468
 30
0.0
 11
16.97113247308103
 21
6.602200510078504
 31
0.0
  0
LINE
  5
41D
330
78B
100
AcDbEntity
  8
1
 62
     1
100
AcDbLine
 10
15.02886752691897
 20
6.675149344632901
 30
0.0
 11
14.97113247308104
 21
6.677064613822048
 31
0.0
  0
LINE
  5
41E
330
78B
100
AcDbEntity
  8
1
 62
     1
100
AcDbLine
 10
14.97113247308103
 20
3.787335487781891
 30
0.0
 11
14.97113247308103
 21
6.677064615293192
 31
0.0
  0
LINE
  5
41F
330
78B
100
AcDbEntity
  8
1
 62
     1
100
AcDbLine
 10
15.02886752691897
 20
3.778959959400776
 30
0.0
 11
14.97113247308103
 21
3.787335490675614
 31
0.0
  0
LINE
  5
420
330
78B
100
AcDbEntity
  8
1
 62
     1
100
AcDbLine
 10
13.02886752691897
 20
6.732923331984097
 30
0.0
 11
12.97113247308103
 21
6.734328175438968
 31
0.0
  0
LINE
  5
421
330
78B
100
AcDbEntity
  8
1
 62
     1
100
AcDbLine
 10
12.97113247308104
 20
4.07220923977641
 30
0.0
 11
12.97113247308103
 21
6.734328175438968
 31
0.0
  0
LINE
  5
422
330
78B
100
AcDbEntity
  8
1
 62
     1
100
AcDbLine
 10
13.02886752691897
 20
4.064132564597993
 30
0.0
 11
12.97113247308104
 21
4.072209239146459
 31
0.0
  0
LINE
  5
423
330
78B
100
AcDbEntity
  8
1
 62
     1
100
AcDbLine
 10
11.02886752691898
 20
6.772949445041912
 30
0.0
 11
10.97113247308103
 21
6.773840167197556
 31
0.0
  0
LINE
  5
424
330
78B
100
AcDbEntity
  8
1
 62
     1
100
AcDbLine
 10
10.97113247308105
 20
4.346348705336557
 30
0.0
 11
10.97113247308104
 21
6.773840167197556
 31
0.0
  0
LINE
  5
425
330
78B
100
AcDbEntity
  8
1
 62
     1
100
AcDbLine
 10
11.02886752691898
 20
4.338592159408719
 30
0.0
 11
10.97113247308105
 21
4.346348705336559
 31
0.0
  0
LINE
  5
426
330
78B
100
AcDbEntity
  8
1
 62
     1
100
AcDbLine
 10
11.02886752691898
 20
4.33859215940872
 30
0.0
 11
11.02886752691898
 21
6.772949445041912
 31
0.0
  0
LINE
  5
427
330
78B
100
AcDbEntity
  8
1
 62
     1
100
AcDbLine
 10
42.97113247308103
 20
-6.799999999999998
 30
0.0
 11
42.0
 21
-5.11795
 31
0.0
  0
LINE
  5
428
330
78B
100
AcDbEntity
  8
1
 62
     1
100
AcDbLine
 10
41.02886752690237
 20
-5.150832290958721
 30
0.0
 11
41.53673149648024
 21
-4.107629969992155
 31
0.0
  0
LINE
  5
429
330
78B
100
AcDbEntity
  8
1
 62
     1
100
AcDbLine
 10
41.53673149648024
 20
-4.107629969992155
 30
0.0
 11
42.0
 21
-3.039423214939075
 31
0.0
  0
LINE
  5
42A
330
78B
100
AcDbEntity
  8
1
 62
     1
100
AcDbLine
 10
41.02886752691897
 20
-6.799999999999998
 30
0.0
 11
41.02886752691897
 21
-6.799579725412843
 31
0.0
  0
LINE
  5
42B
330
78B
100
AcDbEntity
  8
1
 62
     1
100
AcDbLine
 10
41.02886752691897
 20
-6.799579725412843
 30
0.0
 11
41.02886752691897
 21
-6.678965965199695
 31
0.0
  0
LINE
  5
42C
330
78B
100
AcDbEntity
  8
1
 62
     1
100
AcDbLine
 10
41.02886752691897
 20
-6.678965965199695
 30
0.0
 11
41.02886752691897
 21
-5.150832290925995
 31
0.0
  0
LINE
  5
42D
330
78B
100
AcDbEntity
  8
1
 62
     1
100
AcDbLine
 10
42.0
 20
-5.11795
 30
0.0
 11
42.00000000000001
 21
-5.117512086992059
 31
0.0
  0
LINE
  5
42E
330
78B
100
AcDbEntity
  8
1
 62
     1
100
AcDbLine
 10
42.00000000000001
 20
-5.117512086992059
 30
0.0
 11
41.99999999999999
 21
-4.981501286891159
 31
0.0
  0
LINE
  5
42F
330
78B
100
AcDbEntity
  8
1
 62
     1
100
AcDbLine
 10
41.99999999999999
 20
-4.981501286891159
 30
0.0
 11
42.00000000000001
 21
-3.039423214939075
 31
0.0
  0
LINE
  5
430
330
78B
100
AcDbEntity
  8
1
 62
     1
100
AcDbLine
 10
43.02886752691896
 20
-0.8789726594522715
 30
0.0
 11
43.02886752691896
 21
4.169260065508776
 31
0.0
  0
ARC
  5
431
330
78B
100
AcDbEntity
  8
1
 62
     1
100
AcDbCircle
 10
38.0966465790496
 20
11.7903324498348
 30
0.0
 40
13.59552773537067
100
AcDbArc
 50
291.2712007231915
 51
295.49215084982
  0
LINE
  5
432
330
78B
100
AcDbEntity
  8
1
 62
     1
100
AcDbLine
 10
44.0
 20
-0.4611932151428066
 30
0.0
 11
44.0
 21
3.956257147991136
 31
0.0
  0
LINE
  5
433
330
78B
100
AcDbEntity
  8
1
 62
     1
100
AcDbLine
 10
40.97113247308103
 20
-6.799999999999998
 30
0.0
 11
40.11919089528885
 21
-5.324394590185058
 31
0.0
  0
LINE
  5
434
330
78B
100
AcDbEntity
  8
1
 62
     1
100
AcDbLine
 10
40.0
 20
-5.117552753339318
 30
0.0
 11
40.0
 21
-5.078838570316134
 31
0.0
  0
LINE
  5
435
330
78B
100
AcDbEntity
  8
1
 62
     1
100
AcDbLine
 10
40.0
 20
-5.078838570316134
 30
0.0
 11
40.0
 21
-2.824081162939747
 31
0.0
  0
LINE
  5
436
330
78B
100
AcDbEntity
  8
1
 62
     1
100
AcDbLine
 10
40.052007352422
 20
-5.207885941050347
 30
0.0
 11
40.0
 21
-5.117552753339318
 31
0.0
  0
LINE
  5
437
330
78B
100
AcDbEntity
  8
1
 62
     1
100
AcDbLine
 10
38.97113247308103
 20
-6.799999999999998
 30
0.0
 11
38.65444151304807
 21
-6.25147542267488
 31
0.0
  0
LINE
  5
438
330
78B
100
AcDbEntity
  8
1
 62
     1
100
AcDbLine
 10
38.97113247308103
 20
-6.799999999999998
 30
0.0
 11
38.97113247308103
 21
-6.799514989265652
 31
0.0
  0
LINE
  5
439
330
78B
100
AcDbEntity
  8
1
 62
     1
100
AcDbLine
 10
38.97113247308103
 20
-6.799514989265652
 30
0.0
 11
38.97113247308102
 21
-6.660387545399464
 31
0.0
  0
LINE
  5
43A
330
78B
100
AcDbEntity
  8
1
 62
     1
100
AcDbLine
 10
38.97113247308102
 20
-6.660387545399464
 30
0.0
 11
38.97113247308103
 21
-4.909219237800953
 31
0.0
  0
LINE
  5
43B
330
78B
100
AcDbEntity
  8
1
 62
     1
100
AcDbLine
 10
38.00000000000001
 20
-2.601290238577969
 30
0.0
 11
38.46453053334427
 21
-3.761747140153348
 31
0.0
  0
LINE
  5
43C
330
78B
100
AcDbEntity
  8
1
 62
     1
100
AcDbLine
 10
38.46453053334427
 20
-3.761747140153348
 30
0.0
 11
38.97113247309763
 21
-4.909219236450791
 31
0.0
  0
LINE
  5
43D
330
78B
100
AcDbEntity
  8
1
 62
     1
100
AcDbLine
 10
34.05200795084244
 20
-5.140290372112898
 30
0.0
 11
34.97113247309764
 21
-6.779721257742852
 31
0.0
  0
LINE
  5
43E
330
78B
100
AcDbEntity
  8
1
 62
     1
100
AcDbLine
 10
34.97113247308103
 20
-6.779721257713535
 30
0.0
 11
34.97113247308103
 21
-4.40099703192462
 31
0.0
  0
LINE
  5
43F
330
78B
100
AcDbEntity
  8
1
 62
     1
100
AcDbLine
 10
28.05200805295483
 20
-4.950960983479339
 30
0.0
 11
28.97113247308932
 21
-6.618925343641737
 31
0.0
  0
LINE
  5
440
330
78B
100
AcDbEntity
  8
1
 62
     1
100
AcDbLine
 10
28.97113247308104
 20
-6.618925343626788
 30
0.0
 11
28.97113247308105
 21
-3.553523164703098
 31
0.0
  0
LINE
  5
441
330
78B
100
AcDbEntity
  8
1
 62
     1
100
AcDbLine
 10
30.0520081863505
 20
-5.027378621238793
 30
0.0
 11
30.97113247309571
 21
-6.690206340901694
 31
0.0
  0
LINE
  5
442
330
78B
100
AcDbEntity
  8
1
 62
     1
100
AcDbLine
 10
30.97113247308104
 20
-6.690206340875315
 30
0.0
 11
30.97113247308105
 21
-3.846401870828087
 31
0.0
  0
LINE
  5
443
330
78B
100
AcDbEntity
  8
1
 62
     1
100
AcDbLine
 10
30.0520081863505
 20
-5.027378621238793
 30
0.0
 11
30.0
 21
-4.933626494889765
 31
0.0
  0
LINE
  5
444
330
78B
100
AcDbEntity
  8
1
 62
     1
100
AcDbLine
 10
32.0
 20
-1.894218209694372
 30
0.0
 11
32.46453052419655
 21
-3.015326699280663
 31
0.0
  0
LINE
  5
445
330
78B
100
AcDbEntity
  8
1
 62
     1
100
AcDbLine
 10
32.46453052419655
 20
-3.015326699280663
 30
0.0
 11
32.97113247309764
 21
-4.129141437632085
 31
0.0
  0
LINE
  5
446
330
78B
100
AcDbEntity
  8
1
 62
     1
100
AcDbLine
 10
36.0
 20
-5.084054146225135
 30
0.0
 11
36.0
 21
-2.371643859143689
 31
0.0
  0
LINE
  5
447
330
78B
100
AcDbEntity
  8
1
 62
     1
100
AcDbLine
 10
36.05200818209108
 20
-5.17648789287108
 30
0.0
 11
36.00000000000001
 21
-5.084054146225135
 31
0.0
  0
LINE
  5
448
330
78B
100
AcDbEntity
  8
1
 62
     1
100
AcDbLine
 10
20.00000000000001
 20
-0.3633036243983074
 30
0.0
 11
20.97113247308932
 21
-2.296415903841427
 31
0.0
  0
LINE
  5
449
330
78B
100
AcDbEntity
  8
1
 62
     1
100
AcDbLine
 10
22.00000000000001
 20
-0.624839816330736
 30
0.0
 11
22.97113247308932
 21
-2.621894303811096
 31
0.0
  0
LINE
  5
44A
330
78B
100
AcDbEntity
  8
1
 62
     1
100
AcDbLine
 10
22.0
 20
-4.552323983569698
 30
0.0
 11
22.0
 21
-0.6248398163308214
 31
0.0
  0
LINE
  5
44B
330
78B
100
AcDbEntity
  8
1
 62
     1
100
AcDbLine
 10
22.052008147634
 20
-4.644382334025848
 30
0.0
 11
22.00000000000001
 21
-4.552323983569698
 31
0.0
  0
LINE
  5
44C
330
78B
100
AcDbEntity
  8
1
 62
     1
100
AcDbLine
 10
24.97113247308103
 20
-6.424255207696622
 30
0.0
 11
24.97113247308104
 21
-2.940461153207658
 31
0.0
  0
LINE
  5
44D
330
78B
100
AcDbEntity
  8
1
 62
     1
100
AcDbLine
 10
14.05200808001978
 20
-4.066151026059214
 30
0.0
 11
14.97113247308862
 21
-5.647662337747972
 31
0.0
  0
LINE
  5
44E
330
78B
100
AcDbEntity
  8
1
 62
     1
100
AcDbLine
 10
14.97113247308103
 20
-5.647662334363898
 30
0.0
 11
14.97113247308104
 21
-1.287170588228151
 31
0.0
  0
LINE
  5
44F
330
78B
100
AcDbEntity
  8
1
 62
     1
100
AcDbLine
 10
14.0
 20
0.4242835649436222
 30
0.0
 11
14.97113247308862
 21
-1.287170588240772
 31
0.0
  0
LINE
  5
450
330
78B
100
AcDbEntity
  8
1
 62
     1
100
AcDbLine
 10
12.0
 20
-3.809246109585945
 30
0.0
 11
12.0
 21
0.6854978304752015
 31
0.0
  0
LINE
  5
451
330
78B
100
AcDbEntity
  8
1
 62
     1
100
AcDbLine
 10
12.05200794269438
 20
-3.893768986636545
 30
0.0
 11
12.00000000000001
 21
-3.809246109585945
 31
0.0
  0
LINE
  5
452
330
78B
100
AcDbEntity
  8
1
 62
     1
100
AcDbLine
 10
16.0
 20
0.1619507415719085
 30
0.0
 11
16.97113247308932
 21
-1.62817333990157
 31
0.0
  0
LINE
  5
453
330
78B
100
AcDbEntity
  8
1
 62
     1
100
AcDbLine
 10
16.0
 20
-4.139576310048068
 30
0.0
 11
16.0
 21
0.1619507415719081
 31
0.0
  0
LINE
  5
454
330
78B
100
AcDbEntity
  8
1
 62
     1
100
AcDbLine
 10
16.05200818447538
 20
-4.227814777734126
 30
0.0
 11
16.00000000000001
 21
-4.139576310048068
 31
0.0
  0
LINE
  5
455
330
78B
100
AcDbEntity
  8
1
 62
     1
100
AcDbLine
 10
18.05200803340826
 20
-4.378333723295133
 30
0.0
 11
18.97113247308932
 21
-6.006164110016248
 31
0.0
  0
LINE
  5
456
330
78B
100
AcDbEntity
  8
1
 62
     1
100
AcDbLine
 10
18.97113247308103
 20
-6.006164110001562
 30
0.0
 11
18.97113247308103
 21
-1.964884113699338
 31
0.0
  0
LINE
  5
457
330
78B
100
AcDbEntity
  8
1
 62
     1
100
AcDbLine
 10
18.00000000000001
 20
-0.1008094475310766
 30
0.0
 11
18.97113247308932
 21
-1.964884113714265
 31
0.0
  0
LINE
  5
458
330
78B
100
AcDbEntity
  8
1
 62
     1
100
AcDbLine
 10
26.05200798772477
 20
-4.861492854587112
 30
0.0
 11
26.97113247308932
 21
-6.530196991158515
 31
0.0
  0
LINE
  5
459
330
78B
100
AcDbEntity
  8
1
 62
     1
100
AcDbLine
 10
26.97113247308103
 20
-6.530196991053046
 30
0.0
 11
26.97113247308105
 21
-3.251277184245254
 31
0.0
  0
LINE
  5
45A
330
78B
100
AcDbEntity
  8
1
 62
     1
100
AcDbLine
 10
26.05200798772477
 20
-4.861492854587111
 30
0.0
 11
26.0
 21
-4.768095871913951
 31
0.0
  0
LINE
  5
45B
330
78B
100
AcDbEntity
  8
1
 62
     1
100
AcDbLine
 10
10.00000000000001
 20
0.9449059118771655
 30
0.0
 11
10.97113247308469
 21
-0.5958937734760608
 31
0.0
  0
LINE
  5
45C
330
78B
100
AcDbEntity
  8
1
 62
     1
100
AcDbLine
 10
10.05200817377595
 20
-3.711123536242797
 30
0.0
 11
10.0
 21
-3.628794702436767
 31
0.0
  0
ARC
  5
45D
330
78B
100
AcDbEntity
  8
1
 62
     1
100
AcDbCircle
 10
29.35749370146777
 20
-19.4305150217641
 30
0.0
 40
23.01870295025355
100
AcDbArc
 50
53.74246078767725
 51
56.53090465892485
  0
LINE
  5
45E
330
78B
100
AcDbEntity
  8
1
 62
     1
100
AcDbLine
 10
37.02886752691898
 20
0.1660302792621399
 30
0.0
 11
36.97113247308102
 21
0.1761065415789851
 31
0.0
  0
ARC
  5
45F
330
78B
100
AcDbEntity
  8
1
 62
     1
100
AcDbCircle
 10
30.60654872685198
 20
-13.32203325103011
 30
0.0
 40
14.92335359280435
100
AcDbArc
 50
64.75539027750579
 51
68.59885821171388
  0
ARC
  5
460
330
78B
100
AcDbEntity
  8
1
 62
     1
100
AcDbCircle
 10
34.65368119345956
 20
11.29396232221961
 30
0.0
 40
10.78575869682539
100
AcDbArc
 50
271.9934528679391
 51
276.8922093045624
  0
LINE
  5
461
330
78B
100
AcDbEntity
  8
1
 62
     1
100
AcDbLine
 10
33.02886752691897
 20
0.8620456665446312
 30
0.0
 11
32.97113247308103
 21
0.8720428486676778
 31
0.0
  0
ARC
  5
462
330
78B
100
AcDbEntity
  8
1
 62
     1
100
AcDbCircle
 10
29.60677748227337
 20
-10.72485649904937
 30
0.0
 40
12.07501508463558
100
AcDbArc
 50
73.82212542563573
 51
78.31660830307644
  0
LINE
  5
463
330
78B
100
AcDbEntity
  8
1
 62
     1
100
AcDbLine
 10
30.05200818635052
 20
1.359797336177817
 30
0.0
 11
30.40375826052468
 21
1.314341604331734
 31
0.0
  0
LINE
  5
464
330
78B
100
AcDbEntity
  8
1
 62
     1
100
AcDbLine
 10
29.02886752691897
 20
1.548977573085688
 30
0.0
 11
28.97113247308105
 21
1.558790330757999
 31
0.0
  0
ARC
  5
465
330
78B
100
AcDbEntity
  8
1
 62
     1
100
AcDbCircle
 10
27.84370701889932
 20
-9.129691255891975
 30
0.0
 40
10.74774987614234
100
AcDbArc
 50
83.97868292377086
 51
88.88948630864724
  0
LINE
  5
466
330
78B
100
AcDbEntity
  8
1
 62
     1
100
AcDbLine
 10
25.02886752691897
 20
2.2195881109117
 30
0.0
 11
24.97113247308105
 21
2.229113058179173
 31
0.0
  0
ARC
  5
467
330
78B
100
AcDbEntity
  8
1
 62
     1
100
AcDbCircle
 10
25.82840138037575
 20
-8.441445677669147
 30
0.0
 40
10.70493064263865
100
AcDbArc
 50
94.59325724337103
 51
99.55193977678431
  0
LINE
  5
468
330
78B
100
AcDbEntity
  8
1
 62
     1
100
AcDbLine
 10
23.02886752691897
 20
2.5465557683199
 30
0.0
 11
22.97113247308104
 21
2.555898935620803
 31
0.0
  0
ARC
  5
469
330
78B
100
AcDbEntity
  8
1
 62
     1
100
AcDbCircle
 10
24.86998039325683
 20
-8.417205626764294
 30
0.0
 40
11.13618629826858
100
AcDbArc
 50
99.81756046447022
 51
104.6578586742349
  0
LINE
  5
46A
330
78B
100
AcDbEntity
  8
1
 62
     1
100
AcDbLine
 10
21.02886752691897
 20
2.866810852547144
 30
0.0
 11
20.97113247308103
 21
2.875947608351247
 31
0.0
  0
ARC
  5
46B
330
78B
100
AcDbEntity
  8
1
 62
     1
100
AcDbCircle
 10
24.01502029997985
 20
-8.598682435826169
 30
0.0
 40
11.8715019268765
100
AcDbArc
 50
104.8567401809282
 51
109.501143094834
  0
LINE
  5
46C
330
78B
100
AcDbEntity
  8
1
 62
     1
100
AcDbLine
 10
17.02886752691895
 20
3.483826157598744
 30
0.0
 11
16.97113247308103
 21
3.492478466148437
 31
0.0
  0
ARC
  5
46D
330
78B
100
AcDbEntity
  8
1
 62
     1
100
AcDbCircle
 10
22.8112938766134
 20
-9.564588042641544
 30
0.0
 40
14.30366708491654
100
AcDbArc
 50
114.0980009688618
 51
118.2003449214225
  0
ARC
  5
46E
330
78B
100
AcDbEntity
  8
1
 62
     1
100
AcDbCircle
 10
33.16560539823401
 20
25.78119853183907
 30
0.0
 40
28.51383846109206
100
AcDbArc
 50
230.5007875835584
 51
232.8550422512197
  0
LINE
  5
46F
330
78B
100
AcDbEntity
  8
1
 62
     1
100
AcDbLine
 10
43.02886752691896
 20
6.74295239964924
 30
0.0
 11
42.97113247308103
 21
6.744247866356679
 31
0.0
  0
LINE
  5
470
330
78B
100
AcDbEntity
  8
1
 62
     1
100
AcDbLine
 10
42.97113247308103
 20
6.744247868029559
 30
0.0
 11
42.97113247308103
 21
6.8
 31
0.0
  0
LINE
  5
471
330
78B
100
AcDbEntity
  8
1
 62
     1
100
AcDbLine
 10
41.02886752691896
 20
6.779178295827641
 30
0.0
 11
40.971132473081
 21
6.779959020568828
 31
0.0
  0
LINE
  5
472
330
78B
100
AcDbEntity
  8
1
 62
     1
100
AcDbLine
 10
40.97113247308103
 20
6.799999999999999
 30
0.0
 11
41.02886752691897
 21
6.799999999999999
 31
0.0
  0
LINE
  5
473
330
78B
100
AcDbEntity
  8
1
 62
     1
100
AcDbLine
 10
40.97113247308103
 20
6.779959021424257
 30
0.0
 11
40.97113247308103
 21
6.8
 31
0.0
  0
LINE
  5
474
330
78B
100
AcDbEntity
  8
1
 62
     1
100
AcDbLine
 10
38.97113247308103
 20
6.799999999999999
 30
0.0
 11
39.02886752691897
 21
6.799999999999999
 31
0.0
  0
LINE
  5
475
330
78B
100
AcDbEntity
  8
1
 62
     1
100
AcDbLine
 10
38.97113247308103
 20
6.797798537270233
 30
0.0
 11
38.97113247308103
 21
6.8
 31
0.0
  0
LINE
  5
476
330
78B
100
AcDbEntity
  8
1
 62
     1
100
AcDbLine
 10
37.02886752691898
 20
6.797972781572019
 30
0.0
 11
36.97113247308103
 21
6.797719212055663
 31
0.0
  0
LINE
  5
477
330
78B
100
AcDbEntity
  8
1
 62
     1
100
AcDbLine
 10
35.02886752691897
 20
6.780491655680353
 30
0.0
 11
34.97113247308103
 21
6.779721257713537
 31
0.0
  0
LINE
  5
478
330
78B
100
AcDbEntity
  8
1
 62
     1
100
AcDbLine
 10
33.02886752691897
 20
6.745137304039295
 30
0.0
 11
32.97113247308104
 21
6.743852109122916
 31
0.0
  0
LINE
  5
479
330
78B
100
AcDbEntity
  8
1
 62
     1
100
AcDbLine
 10
31.02886752691897
 20
6.692002947698147
 30
0.0
 11
30.97113247308104
 21
6.690206340875318
 31
0.0
  0
LINE
  5
47A
330
78B
100
AcDbEntity
  8
1
 62
     1
100
AcDbLine
 10
29.02886752691897
 20
6.621228620650994
 30
0.0
 11
28.97113247308103
 21
6.618925343626782
 31
0.0
  0
LINE
  5
47B
330
78B
100
AcDbEntity
  8
1
 62
     1
100
AcDbLine
 10
27.02886752691897
 20
6.533000871806453
 30
0.0
 11
26.97113247308103
 21
6.530196991143541
 31
0.0
  0
LINE
  5
47C
330
78B
100
AcDbEntity
  8
1
 62
     1
100
AcDbLine
 10
25.02886752691898
 20
6.427552303785588
 30
0.0
 11
24.97113247308103
 21
6.42425520769662
 31
0.0
  0
LINE
  5
47D
330
78B
100
AcDbEntity
  8
1
 62
     1
100
AcDbLine
 10
23.02886752691897
 20
6.305160878300208
 30
0.0
 11
22.97113247308103
 21
6.301379263910742
 31
0.0
  0
LINE
  5
47E
330
78B
100
AcDbEntity
  8
1
 62
     1
100
AcDbLine
 10
43.02886752691896
 20
6.742952399649237
 30
0.0
 11
43.02886752691896
 21
6.799999999999999
 31
0.0
  0
LINE
  5
47F
330
78B
100
AcDbEntity
  8
1
 62
     1
100
AcDbLine
 10
43.94799155966138
 20
5.185716606126383
 30
0.0
 11
43.02886752690237
 21
6.742952399677383
 31
0.0
  0
LINE
  5
480
330
78B
100
AcDbEntity
  8
1
 62
     1
100
AcDbLine
 10
41.02886752691897
 20
-0.5317345516133352
 30
0.0
 11
41.02886752691897
 21
4.439473697495445
 31
0.0
  0
ARC
  5
481
330
78B
100
AcDbEntity
  8
1
 62
     1
100
AcDbCircle
 10
37.43363039967781
 20
11.38562456904723
 30
0.0
 40
12.44786513145363
100
AcDbArc
 50
286.7875486985801
 51
291.2637311130645
  0
LINE
  5
482
330
78B
100
AcDbEntity
  8
1
 62
     1
100
AcDbLine
 10
41.99999999999999
 20
-0.1989756841897909
 30
0.0
 11
42.00000000000001
 21
4.11768365989781
 31
0.0
  0
LINE
  5
483
330
78B
100
AcDbEntity
  8
1
 62
     1
100
AcDbLine
 10
42.05200949379492
 20
-0.2286984562263668
 30
0.0
 11
42.0
 21
-0.1989756841897911
 31
0.0
  0
LINE
  5
484
330
78B
100
AcDbEntity
  8
1
 62
     1
100
AcDbLine
 10
37.02886752691898
 20
0.1660302792621399
 30
0.0
 11
37.02886752691898
 21
4.944119048497658
 31
0.0
  0
ARC
  5
485
330
78B
100
AcDbEntity
  8
1
 62
     1
100
AcDbCircle
 10
35.66676226509807
 20
11.13401984007267
 30
0.0
 40
11.05223899957064
100
AcDbArc
 50
277.079268052656
 51
281.9117186748171
  0
LINE
  5
486
330
78B
100
AcDbEntity
  8
1
 62
     1
100
AcDbLine
 10
37.94799175409804
 20
0.3197725945532577
 30
0.0
 11
38.0
 21
0.3263390877944419
 31
0.0
  0
LINE
  5
487
330
78B
100
AcDbEntity
  8
1
 62
     1
100
AcDbLine
 10
36.0
 20
0.5880524132685905
 30
0.0
 11
36.0
 21
4.535274810624604
 31
0.0
  0
LINE
  5
488
330
78B
100
AcDbEntity
  8
1
 62
     1
100
AcDbLine
 10
33.02886752691897
 20
0.8620456665446312
 30
0.0
 11
33.02886752691896
 21
5.396668281031123
 31
0.0
  0
ARC
  5
489
330
78B
100
AcDbEntity
  8
1
 62
     1
100
AcDbCircle
 10
33.61873815370213
 20
11.65144012750354
 30
0.0
 40
10.80548364819959
100
AcDbArc
 50
266.8706784160939
 51
271.7461306674469
  0
LINE
  5
48A
330
78B
100
AcDbEntity
  8
1
 62
     1
100
AcDbLine
 10
34.0
 20
0.8482155996855517
 30
0.0
 11
34.0
 21
4.651021441865596
 31
0.0
  0
LINE
  5
48B
330
78B
100
AcDbEntity
  8
1
 62
     1
100
AcDbLine
 10
34.05200795084244
 20
0.8372545839200798
 30
0.0
 11
34.00178085418134
 21
0.8479899047275591
 31
0.0
  0
ARC
  5
48C
330
78B
100
AcDbEntity
  8
1
 62
     1
100
AcDbCircle
 10
30.23668682002607
 20
-11.89062778629822
 30
0.0
 40
13.28743278218914
100
AcDbArc
 50
69.12631421370519
 51
73.31332628809819
  0
LINE
  5
48D
330
78B
100
AcDbEntity
  8
1
 62
     1
100
AcDbLine
 10
35.02886752691897
 20
0.5147163366837193
 30
0.0
 11
35.02886752691897
 21
5.177217089372062
 31
0.0
  0
LINE
  5
48E
330
78B
100
AcDbEntity
  8
1
 62
     1
100
AcDbLine
 10
38.0
 20
0.3263390877944581
 30
0.0
 11
38.00000000000001
 21
4.407573175476379
 31
0.0
  0
ARC
  5
48F
330
78B
100
AcDbEntity
  8
1
 62
     1
100
AcDbCircle
 10
30.64027661590998
 20
-15.03867373275722
 30
0.0
 40
17.0408221666548
100
AcDbArc
 50
60.73331292588863
 51
64.21852645790245
  0
LINE
  5
490
330
78B
100
AcDbEntity
  8
1
 62
     1
100
AcDbLine
 10
40.0
 20
0.0637653455189011
 30
0.0
 11
40.0
 21
4.268252310680436
 31
0.0
  0
LINE
  5
491
330
78B
100
AcDbEntity
  8
1
 62
     1
100
AcDbLine
 10
40.052007352422
 20
0.03864682079029
 30
0.0
 11
40.0
 21
0.0637653455189011
 31
0.0
  0
ARC
  5
492
330
78B
100
AcDbEntity
  8
1
 62
     1
100
AcDbCircle
 10
30.25447221897836
 20
-17.06513645003824
 30
0.0
 40
19.71119771110477
100
AcDbArc
 50
57.06529065272348
 51
60.19468760922915
  0
LINE
  5
493
330
78B
100
AcDbEntity
  8
1
 62
     1
100
AcDbLine
 10
39.02886752691897
 20
-0.183093486854514
 30
0.0
 11
39.02886752691897
 21
4.697988064366978
 31
0.0
  0
ARC
  5
494
330
78B
100
AcDbEntity
  8
1
 62
     1
100
AcDbCircle
 10
36.60892299229589
 20
11.16598712229835
 30
0.0
 40
11.60421423607285
100
AcDbArc
 50
282.0368159715696
 51
286.7230784188546
  0
LINE
  5
495
330
78B
100
AcDbEntity
  8
1
 62
     1
100
AcDbLine
 10
29.02886752691897
 20
1.548977573085688
 30
0.0
 11
29.02886752691897
 21
5.792352855958983
 31
0.0
  0
ARC
  5
496
330
78B
100
AcDbEntity
  8
1
 62
     1
100
AcDbCircle
 10
31.69361400060119
 20
12.99009471161636
 30
0.0
 40
11.74730529740393
100
AcDbArc
 50
256.8890022503643
 51
261.4543268374477
  0
LINE
  5
497
330
78B
100
AcDbEntity
  8
1
 62
     1
100
AcDbLine
 10
29.94799181966435
 20
1.373218007045402
 30
0.0
 11
29.99999999999999
 21
1.361154587628357
 31
0.0
  0
LINE
  5
498
330
78B
100
AcDbEntity
  8
1
 62
     1
100
AcDbLine
 10
30.0
 20
1.361154587628357
 30
0.0
 11
30.0
 21
4.845462494002065
 31
0.0
  0
ARC
  5
499
330
78B
100
AcDbEntity
  8
1
 62
     1
100
AcDbCircle
 10
32.61374959274142
 20
12.21376862852428
 30
0.0
 40
11.12015578314924
100
AcDbArc
 50
261.8061336882765
 51
266.5676787269628
  0
LINE
  5
49A
330
78B
100
AcDbEntity
  8
1
 62
     1
100
AcDbLine
 10
31.94799195971677
 20
1.113565924459257
 30
0.0
 11
31.96973183224278
 21
1.111504386833146
 31
0.0
  0
LINE
  5
49B
330
78B
100
AcDbEntity
  8
1
 62
     1
100
AcDbLine
 10
31.96973183224278
 20
1.111504386833146
 30
0.0
 11
31.96973419751547
 21
1.111504080192782
 31
0.0
  0
LINE
  5
49C
330
78B
100
AcDbEntity
  8
1
 62
     1
100
AcDbLine
 10
32.0
 20
1.106142952855807
 30
0.0
 11
32.0
 21
4.754508342253932
 31
0.0
  0
LINE
  5
49D
330
78B
100
AcDbEntity
  8
1
 62
     1
100
AcDbLine
 10
32.0520080600768
 20
1.099975683042998
 30
0.0
 11
32.02943515341336
 21
1.10376428452955
 31
0.0
  0
LINE
  5
49E
330
78B
100
AcDbEntity
  8
1
 62
     1
100
AcDbLine
 10
32.02943515341336
 20
1.10376428452955
 30
0.0
 11
32.02943308834607
 21
1.10376455224728
 31
0.0
  0
LINE
  5
49F
330
78B
100
AcDbEntity
  8
1
 62
     1
100
AcDbLine
 10
26.0
 20
1.859751047516071
 30
0.0
 11
26.0
 21
4.988846849908021
 31
0.0
  0
ARC
  5
4A0
330
78B
100
AcDbEntity
  8
1
 62
     1
100
AcDbCircle
 10
26.83802465207609
 20
-8.676720584870995
 30
0.0
 40
10.57399091876285
100
AcDbArc
 50
89.27872982353772
 51
94.26301031076416
  0
LINE
  5
4A1
330
78B
100
AcDbEntity
  8
1
 62
     1
100
AcDbLine
 10
18.0
 20
2.793108520882716
 30
0.0
 11
18.0
 21
5.11695707015297
 31
0.0
  0
ARC
  5
4A2
330
78B
100
AcDbEntity
  8
1
 62
     1
100
AcDbCircle
 10
23.3130953362904
 20
-8.981988012306537
 30
0.0
 40
12.92175199017715
100
AcDbArc
 50
109.6345748126313
 51
114.0259047305089
  0
LINE
  5
4A3
330
78B
100
AcDbEntity
  8
1
 62
     1
100
AcDbLine
 10
17.02886752691895
 20
3.483826157598744
 30
0.0
 11
17.02886752691896
 21
6.599779857123461
 31
0.0
  0
ARC
  5
4A4
330
78B
100
AcDbEntity
  8
1
 62
     1
100
AcDbCircle
 10
31.55675255438865
 20
22.99213547002539
 30
0.0
 40
24.32349827811238
100
AcDbArc
 50
233.3248556169337
 51
235.9794410540642
  0
LINE
  5
4A5
330
78B
100
AcDbEntity
  8
1
 62
     1
100
AcDbLine
 10
17.94799198523099
 20
2.831926050468661
 30
0.0
 11
18.0
 21
2.793108520882712
 31
0.0
  0
LINE
  5
4A6
330
78B
100
AcDbEntity
  8
1
 62
     1
100
AcDbLine
 10
16.0
 20
3.009538199755703
 30
0.0
 11
16.0
 21
5.11795
 31
0.0
  0
LINE
  5
4A7
330
78B
100
AcDbEntity
  8
1
 62
     1
100
AcDbLine
 10
16.05200818447538
 20
3.041244279585054
 30
0.0
 11
16.00000000000001
 21
3.009538199755704
 31
0.0
  0
LINE
  5
4A8
330
78B
100
AcDbEntity
  8
1
 62
     1
100
AcDbLine
 10
27.02886752691895
 20
1.886769620980754
 30
0.0
 11
27.02886752691896
 21
5.967543604924922
 31
0.0
  0
ARC
  5
4A9
330
78B
100
AcDbEntity
  8
1
 62
     1
100
AcDbCircle
 10
30.91667937681261
 20
13.99163252966103
 30
0.0
 40
12.71384236778166
100
AcDbArc
 50
252.1941406821162
 51
256.4967483469047
  0
LINE
  5
4AA
330
78B
100
AcDbEntity
  8
1
 62
     1
100
AcDbLine
 10
27.94799192411471
 20
1.629250179634442
 30
0.0
 11
28.0
 21
1.612578180751027
 31
0.0
  0
LINE
  5
4AB
330
78B
100
AcDbEntity
  8
1
 62
     1
100
AcDbLine
 10
28.0
 20
1.612578180751083
 30
0.0
 11
28.0
 21
4.923643959527912
 31
0.0
  0
LINE
  5
4AC
330
78B
100
AcDbEntity
  8
1
 62
     1
100
AcDbLine
 10
11.94799206140784
 20
3.469019006994578
 30
0.0
 11
11.02886752691533
 21
4.338592159412282
 31
0.0
  0
LINE
  5
4AD
330
78B
100
AcDbEntity
  8
1
 62
     1
100
AcDbLine
 10
12.0
 20
3.418048606896093
 30
0.0
 11
12.0
 21
5.11795
 31
0.0
  0
LINE
  5
4AE
330
78B
100
AcDbEntity
  8
1
 62
     1
100
AcDbLine
 10
12.05200794269438
 20
3.458633151931354
 30
0.0
 11
12.00000000000001
 21
3.418048606896093
 31
0.0
  0
ARC
  5
4AF
330
78B
100
AcDbEntity
  8
1
 62
     1
100
AcDbCircle
 10
22.58485252392138
 20
-11.32369698629518
 30
0.0
 40
18.15097892075163
100
AcDbArc
 50
121.9820378176322
 51
125.4709888222006
  0
LINE
  5
4B0
330
78B
100
AcDbEntity
  8
1
 62
     1
100
AcDbLine
 10
14.0
 20
3.218034756252075
 30
0.0
 11
14.0
 21
5.11795
 31
0.0
  0
LINE
  5
4B1
330
78B
100
AcDbEntity
  8
1
 62
     1
100
AcDbLine
 10
14.05200808001978
 20
3.254227790385208
 30
0.0
 11
14.00000000000001
 21
3.218034756252048
 31
0.0
  0
ARC
  5
4B2
330
78B
100
AcDbEntity
  8
1
 62
     1
100
AcDbCircle
 10
22.55437604619851
 20
-10.34520416067752
 30
0.0
 40
16.038539322721
100
AcDbArc
 50
118.2171342901284
 51
122.0136321809148
  0
LINE
  5
4B3
330
78B
100
AcDbEntity
  8
1
 62
     1
100
AcDbLine
 10
15.02886752691897
 20
3.778959959400776
 30
0.0
 11
15.02886752691897
 21
6.675149344632901
 31
0.0
  0
LINE
  5
4B4
330
78B
100
AcDbEntity
  8
1
 62
     1
100
AcDbLine
 10
25.02886752691897
 20
2.2195881109117
 30
0.0
 11
25.02886752691897
 21
6.127003887762643
 31
0.0
  0
ARC
  5
4B5
330
78B
100
AcDbEntity
  8
1
 62
     1
100
AcDbCircle
 10
30.34527089276791
 20
15.23214898844074
 30
0.0
 40
14.05666295371668
100
AcDbArc
 50
247.7770712042256
 51
251.7704153465865
  0
LINE
  5
4B6
330
78B
100
AcDbEntity
  8
1
 62
     1
100
AcDbLine
 10
25.94799201724668
 20
1.880987658212744
 30
0.0
 11
26.0
 21
1.859751047516071
 31
0.0
  0
LINE
  5
4B7
330
78B
100
AcDbEntity
  8
1
 62
     1
100
AcDbLine
 10
23.02886752691897
 20
2.5465557683199
 30
0.0
 11
23.02886752691897
 21
6.27031348842072
 31
0.0
  0
ARC
  5
4B8
330
78B
100
AcDbEntity
  8
1
 62
     1
100
AcDbCircle
 10
30.0465811683329
 20
16.72881171634876
 30
0.0
 40
15.82351123706719
100
AcDbArc
 50
243.6727126834018
 51
247.3305985081041
  0
LINE
  5
4B9
330
78B
100
AcDbEntity
  8
1
 62
     1
100
AcDbLine
 10
23.94799189512511
 20
2.127767065478452
 30
0.0
 11
24.0
 21
2.10202171526394
 31
0.0
  0
LINE
  5
4BA
330
78B
100
AcDbEntity
  8
1
 62
     1
100
AcDbLine
 10
24.00000000000001
 20
2.102021715263957
 30
0.0
 11
24.00000000000001
 21
5.040899345337246
 31
0.0
  0
LINE
  5
4BB
330
78B
100
AcDbEntity
  8
1
 62
     1
100
AcDbLine
 10
22.0
 20
2.338751494091688
 30
0.0
 11
22.0
 21
5.07966410370092
 31
0.0
  0
LINE
  5
4BC
330
78B
100
AcDbEntity
  8
1
 62
     1
100
AcDbLine
 10
21.02886752691897
 20
2.866810852547143
 30
0.0
 11
21.02886752691897
 21
6.397094823263548
 31
0.0
  0
ARC
  5
4BD
330
78B
100
AcDbEntity
  8
1
 62
     1
100
AcDbCircle
 10
30.09370440785737
 20
18.50267444878726
 30
0.0
 40
18.0734696144745
100
AcDbArc
 50
239.8971372672532
 51
243.2113872766497
  0
LINE
  5
4BE
330
78B
100
AcDbEntity
  8
1
 62
     1
100
AcDbLine
 10
21.9479918341464
 20
2.368937708643922
 30
0.0
 11
22.00000000000001
 21
2.33875149409169
 31
0.0
  0
LINE
  5
4BF
330
78B
100
AcDbEntity
  8
1
 62
     1
100
AcDbLine
 10
20.00000000000001
 20
2.569316320122077
 30
0.0
 11
20.0
 21
5.105038949802347
 31
0.0
  0
LINE
  5
4C0
330
78B
100
AcDbEntity
  8
1
 62
     1
100
AcDbLine
 10
19.02886752691896
 20
3.179509116057377
 30
0.0
 11
19.02886752691897
 21
6.507013566230403
 31
0.0
  0
ARC
  5
4C1
330
78B
100
AcDbEntity
  8
1
 62
     1
100
AcDbCircle
 10
30.56705566503769
 20
20.57960390967937
 30
0.0
 40
20.87802537349879
100
AcDbArc
 50
236.4512181969241
 51
239.4277775503812
  0
LINE
  5
4C2
330
78B
100
AcDbEntity
  8
1
 62
     1
100
AcDbLine
 10
19.94799199073165
 20
2.603863673979676
 30
0.0
 11
20.0
 21
2.569316320122073
 31
0.0
  0
LINE
  5
4C3
330
78B
100
AcDbEntity
  8
1
 62
     1
100
AcDbLine
 10
13.02886752691897
 20
4.064132564597993
 30
0.0
 11
13.02886752691897
 21
6.732923331984099
 31
0.0
  0
ARC
  5
4C4
330
78B
100
AcDbEntity
  8
1
 62
     1
100
AcDbCircle
 10
35.51327972653047
 20
28.99861521564737
 30
0.0
 40
33.57494268249997
100
AcDbArc
 50
227.9577655886559
 51
230.0362325730723
  0
LINE
  5
4C5
330
78B
100
AcDbEntity
  8
1
 62
     1
100
AcDbLine
 10
10.0
 20
3.609052674881156
 30
0.0
 11
10.0
 21
5.11795
 31
0.0
  0
LINE
  5
4C6
330
78B
100
AcDbEntity
  8
1
 62
     1
100
AcDbLine
 10
10.05200817377595
 20
3.653922066581421
 30
0.0
 11
10.0
 21
3.609052674881156
 31
0.0
  0
ARC
  5
4C7
330
78B
100
AcDbEntity
  8
1
 62
     1
100
AcDbCircle
 10
22.94325811372202
 20
-12.5012799859771
 30
0.0
 40
20.66820820089184
100
AcDbArc
 50
125.3980547235699
 51
128.5885642513889
  0
LINE
  5
4C8
330
78B
100
AcDbEntity
  8
1
 62
     1
100
AcDbLine
 10
39.02886752691897
 20
6.797534610067937
 30
0.0
 11
38.97113247308103
 21
6.797798537270233
 31
0.0
  0
LINE
  5
4C9
330
78B
100
AcDbEntity
  8
1
 62
     1
100
AcDbLine
 10
38.0520082482424
 20
5.199040025453905
 30
0.0
 11
38.6544415125604
 21
6.251475422693896
 31
0.0
  0
LINE
  5
4CA
330
78B
100
AcDbEntity
  8
1
 62
     1
100
AcDbLine
 10
34.05200795084244
 20
5.1402903721129
 30
0.0
 11
34.97113247309764
 21
6.779721257742853
 31
0.0
  0
LINE
  5
4CB
330
78B
100
AcDbEntity
  8
1
 62
     1
100
AcDbLine
 10
30.05200818635049
 20
5.027378621238793
 30
0.0
 11
30.97113247309571
 21
6.690206340901696
 31
0.0
  0
LINE
  5
4CC
330
78B
100
AcDbEntity
  8
1
 62
     1
100
AcDbLine
 10
28.08914157895661
 20
5.018823270335079
 30
0.0
 11
28.97113247308932
 21
6.618925343641737
 31
0.0
  0
LINE
  5
4CD
330
78B
100
AcDbEntity
  8
1
 62
     1
100
AcDbLine
 10
26.32122317616191
 20
5.352203621652967
 30
0.0
 11
26.97113247308931
 21
6.530196991158515
 31
0.0
  0
LINE
  5
4CE
330
78B
100
AcDbEntity
  8
1
 62
     1
100
AcDbLine
 10
41.02886752691896
 20
6.779178295827641
 30
0.0
 11
41.02886752691897
 21
6.8
 31
0.0
  0
LINE
  5
4CF
330
78B
100
AcDbEntity
  8
1
 62
     1
100
AcDbLine
 10
41.94799067177234
 20
5.203601153732742
 30
0.0
 11
41.02886752690237
 21
6.77917829585608
 31
0.0
  0
LINE
  5
4D0
330
78B
100
AcDbEntity
  8
1
 62
     1
100
AcDbLine
 10
42.0
 20
5.114080648523369
 30
0.0
 11
42.0
 21
5.11699013430091
 31
0.0
  0
LINE
  5
4D1
330
78B
100
AcDbEntity
  8
1
 62
     1
100
AcDbLine
 10
42.0
 20
5.11699013430091
 30
0.0
 11
41.99999999999999
 21
5.117710976435111
 31
0.0
  0
LINE
  5
4D2
330
78B
100
AcDbEntity
  8
1
 62
     1
100
AcDbLine
 10
41.99999999999999
 20
5.117710976435111
 30
0.0
 11
42.0
 21
5.11789036249428
 31
0.0
  0
LINE
  5
4D3
330
78B
100
AcDbEntity
  8
1
 62
     1
100
AcDbLine
 10
42.0
 20
5.11789036249428
 30
0.0
 11
42.0
 21
5.117935105454001
 31
0.0
  0
LINE
  5
4D4
330
78B
100
AcDbEntity
  8
1
 62
     1
100
AcDbLine
 10
42.0
 20
5.117935105454001
 30
0.0
 11
42.0
 21
5.117946278219295
 31
0.0
  0
LINE
  5
4D5
330
78B
100
AcDbEntity
  8
1
 62
     1
100
AcDbLine
 10
42.0
 20
5.117946278219295
 30
0.0
 11
42.0
 21
5.117949069786921
 31
0.0
  0
LINE
  5
4D6
330
78B
100
AcDbEntity
  8
1
 62
     1
100
AcDbLine
 10
42.0
 20
5.117949069786921
 30
0.0
 11
42.0
 21
5.117949767475749
 31
0.0
  0
LINE
  5
4D7
330
78B
100
AcDbEntity
  8
1
 62
     1
100
AcDbLine
 10
42.0
 20
5.117949767475749
 30
0.0
 11
42.0
 21
5.117949941872565
 31
0.0
  0
LINE
  5
4D8
330
78B
100
AcDbEntity
  8
1
 62
     1
100
AcDbLine
 10
42.0
 20
5.117949941872565
 30
0.0
 11
42.0
 21
5.117949985468594
 31
0.0
  0
LINE
  5
4D9
330
78B
100
AcDbEntity
  8
1
 62
     1
100
AcDbLine
 10
42.0
 20
5.117949985468594
 30
0.0
 11
42.0
 21
5.117949996367204
 31
0.0
  0
LINE
  5
4DA
330
78B
100
AcDbEntity
  8
1
 62
     1
100
AcDbLine
 10
42.0
 20
5.117949996367204
 30
0.0
 11
42.0
 21
5.117949999091807
 31
0.0
  0
LINE
  5
4DB
330
78B
100
AcDbEntity
  8
1
 62
     1
100
AcDbLine
 10
42.0
 20
5.117949999091807
 30
0.0
 11
42.0
 21
5.117949999772951
 31
0.0
  0
LINE
  5
4DC
330
78B
100
AcDbEntity
  8
1
 62
     1
100
AcDbLine
 10
42.0
 20
5.117949999772951
 30
0.0
 11
42.0
 21
5.117949999943237
 31
0.0
  0
LINE
  5
4DD
330
78B
100
AcDbEntity
  8
1
 62
     1
100
AcDbLine
 10
42.0
 20
5.117949999943237
 30
0.0
 11
42.0
 21
5.117949999985809
 31
0.0
  0
LINE
  5
4DE
330
78B
100
AcDbEntity
  8
1
 62
     1
100
AcDbLine
 10
42.0
 20
5.117949999985809
 30
0.0
 11
42.0
 21
5.117949999996452
 31
0.0
  0
LINE
  5
4DF
330
78B
100
AcDbEntity
  8
1
 62
     1
100
AcDbLine
 10
42.0
 20
5.117949999996452
 30
0.0
 11
42.0
 21
5.117949999999113
 31
0.0
  0
LINE
  5
4E0
330
78B
100
AcDbEntity
  8
1
 62
     1
100
AcDbLine
 10
42.0
 20
5.117949999999113
 30
0.0
 11
42.00000000000001
 21
5.117949999999895
 31
0.0
  0
LINE
  5
4E1
330
78B
100
AcDbEntity
  8
1
 62
     1
100
AcDbLine
 10
42.00000000000001
 20
5.117949999999895
 30
0.0
 11
42.0
 21
5.11795
 31
0.0
  0
LINE
  5
4E2
330
78B
100
AcDbEntity
  8
1
 62
     1
100
AcDbLine
 10
42.05200949379491
 20
5.203009244723415
 30
0.0
 11
42.97113247309763
 21
6.744247868056977
 31
0.0
  0
LINE
  5
4E3
330
78B
100
AcDbEntity
  8
1
 62
     1
100
AcDbLine
 10
37.94799175409803
 20
5.198204609181343
 30
0.0
 11
37.02886752690237
 21
6.797972782143204
 31
0.0
  0
LINE
  5
4E4
330
78B
100
AcDbEntity
  8
1
 62
     1
100
AcDbLine
 10
37.94799175409804
 20
5.198204609181344
 30
0.0
 11
37.99999999999999
 21
5.107535120023892
 31
0.0
  0
LINE
  5
4E5
330
78B
100
AcDbEntity
  8
1
 62
     1
100
AcDbLine
 10
36.05200818209108
 20
5.176487892871079
 30
0.0
 11
36.00000000000001
 21
5.084054146225135
 31
0.0
  0
LINE
  5
4E6
330
78B
100
AcDbEntity
  8
1
 62
     1
100
AcDbLine
 10
36.05200818209108
 20
5.176487892871078
 30
0.0
 11
36.97113247309764
 21
6.797719212084619
 31
0.0
  0
LINE
  5
4E7
330
78B
100
AcDbEntity
  8
1
 62
     1
100
AcDbLine
 10
33.9479920358602
 20
5.138036202356245
 30
0.0
 11
33.02886752690237
 21
6.745137305435748
 31
0.0
  0
LINE
  5
4E8
330
78B
100
AcDbEntity
  8
1
 62
     1
100
AcDbLine
 10
35.9479918107046
 20
5.174941059414901
 30
0.0
 11
35.02886752690237
 21
6.780491655709226
 31
0.0
  0
LINE
  5
4E9
330
78B
100
AcDbEntity
  8
1
 62
     1
100
AcDbLine
 10
38.0520082482424
 20
5.199040025453908
 30
0.0
 11
37.99999999999999
 21
5.107535120023892
 31
0.0
  0
LINE
  5
4EA
330
78B
100
AcDbEntity
  8
1
 62
     1
100
AcDbLine
 10
39.02886752691897
 20
6.797534610067937
 30
0.0
 11
39.02886752691897
 21
6.8
 31
0.0
  0
LINE
  5
4EB
330
78B
100
AcDbEntity
  8
1
 62
     1
100
AcDbLine
 10
39.94799264234173
 20
5.207764176693452
 30
0.0
 11
39.7678172795353
 21
5.520102088624238
 31
0.0
  0
LINE
  5
4EC
330
78B
100
AcDbEntity
  8
1
 62
     1
100
AcDbLine
 10
40.052007352422
 20
5.207885941050348
 30
0.0
 11
40.0
 21
5.11755275333932
 31
0.0
  0
LINE
  5
4ED
330
78B
100
AcDbEntity
  8
1
 62
     1
100
AcDbLine
 10
40.052007352422
 20
5.207885941050347
 30
0.0
 11
40.1191908952286
 21
5.324394590190608
 31
0.0
  0
LINE
  5
4EE
330
78B
100
AcDbEntity
  8
1
 62
     1
100
AcDbLine
 10
29.94799181966435
 20
5.023729371032712
 30
0.0
 11
29.02886752691068
 21
6.621228623017545
 31
0.0
  0
LINE
  5
4EF
330
78B
100
AcDbEntity
  8
1
 62
     1
100
AcDbLine
 10
31.94799195971676
 20
5.087588121441093
 30
0.0
 11
31.02886752690429
 21
6.692002947723612
 31
0.0
  0
LINE
  5
4F0
330
78B
100
AcDbEntity
  8
1
 62
     1
100
AcDbLine
 10
31.94799195971677
 20
5.087588121441093
 30
0.0
 11
32.0
 21
4.996985088065346
 31
0.0
  0
LINE
  5
4F1
330
78B
100
AcDbEntity
  8
1
 62
     1
100
AcDbLine
 10
32.05200806007679
 20
5.090543764212017
 30
0.0
 11
32.0
 21
4.996985088065346
 31
0.0
  0
LINE
  5
4F2
330
78B
100
AcDbEntity
  8
1
 62
     1
100
AcDbLine
 10
32.05200806007679
 20
5.090543764212016
 30
0.0
 11
32.97113247309764
 21
6.74385210915252
 31
0.0
  0
LINE
  5
4F3
330
78B
100
AcDbEntity
  8
1
 62
     1
100
AcDbLine
 10
27.88660987095725
 20
5.053623668956852
 30
0.0
 11
27.02886752691068
 21
6.533000872304348
 31
0.0
  0
LINE
  5
4F4
330
78B
100
AcDbEntity
  8
1
 62
     1
100
AcDbLine
 10
25.56349746367088
 20
5.51800308610482
 30
0.0
 11
25.02886752691068
 21
6.427552303799611
 31
0.0
  0
LINE
  5
4F5
330
78B
100
AcDbEntity
  8
1
 62
     1
100
AcDbLine
 10
24.59950977660245
 20
5.752603873077253
 30
0.0
 11
24.97113247308933
 21
6.424255207711584
 31
0.0
  0
LINE
  5
4F6
330
78B
100
AcDbEntity
  8
1
 62
     1
100
AcDbLine
 10
23.104315609201
 20
6.179172557818324
 30
0.0
 11
23.02886752691068
 21
6.305160879708864
 31
0.0
  0
LINE
  5
4F7
330
78B
100
AcDbEntity
  8
1
 62
     1
100
AcDbLine
 10
22.93343756363741
 20
6.233566305618669
 30
0.0
 11
22.97113247308932
 21
6.301379263925648
 31
0.0
  0
LINE
  5
4F8
330
78B
100
AcDbEntity
  8
1
 62
     1
100
AcDbLine
 10
42.97113247308103
 20
-6.799999999999998
 30
0.0
 11
42.971132473081
 21
-6.799636574425241
 31
0.0
  0
LINE
  5
4F9
330
78B
100
AcDbEntity
  8
1
 62
     1
100
AcDbLine
 10
42.971132473081
 20
-6.799636574425241
 30
0.0
 11
42.97113247308103
 21
-6.695296478955031
 31
0.0
  0
LINE
  5
4FA
330
78B
100
AcDbEntity
  8
1
 62
     1
100
AcDbLine
 10
42.97113247308103
 20
-6.695296478955031
 30
0.0
 11
42.97113247308103
 21
-5.365710481592484
 31
0.0
  0
LINE
  5
4FB
330
78B
100
AcDbEntity
  8
1
 62
     1
100
AcDbLine
 10
40.97113247308103
 20
-6.799999999999998
 30
0.0
 11
40.97113247308103
 21
-6.799577972230811
 31
0.0
  0
LINE
  5
4FC
330
78B
100
AcDbEntity
  8
1
 62
     1
100
AcDbLine
 10
40.97113247308103
 20
-6.799577972230811
 30
0.0
 11
40.97113247308103
 21
-6.678462580639345
 31
0.0
  0
LINE
  5
4FD
330
78B
100
AcDbEntity
  8
1
 62
     1
100
AcDbLine
 10
40.97113247308103
 20
-6.678462580639345
 30
0.0
 11
40.97113247308103
 21
-5.144246192364046
 31
0.0
  0
LINE
  5
4FE
330
78B
100
AcDbEntity
  8
1
 62
     1
100
AcDbLine
 10
39.02886752691897
 20
-4.91618837587266
 30
0.0
 11
38.97113247308103
 21
-4.909219236876161
 31
0.0
  0
LINE
  5
4FF
330
78B
100
AcDbEntity
  8
1
 62
     1
100
AcDbLine
 10
37.02886752691898
 20
-4.668585099822281
 30
0.0
 11
36.97113247308101
 21
-4.661251443225096
 31
0.0
  0
LINE
  5
500
330
78B
100
AcDbEntity
  8
1
 62
     1
100
AcDbLine
 10
36.97113247308103
 20
-6.79771921205566
 30
0.0
 11
36.97113247308102
 21
-6.207009061542549
 31
0.0
  0
LINE
  5
501
330
78B
100
AcDbEntity
  8
1
 62
     1
100
AcDbLine
 10
36.97113247308102
 20
-6.207009061542549
 30
0.0
 11
36.97113247308101
 21
-4.661251444402558
 31
0.0
  0
LINE
  5
502
330
78B
100
AcDbEntity
  8
1
 62
     1
100
AcDbLine
 10
33.02886752691897
 20
-6.745137305406881
 30
0.0
 11
33.02886752691896
 21
-4.137145317157426
 31
0.0
  0
LINE
  5
503
330
78B
100
AcDbEntity
  8
1
 62
     1
100
AcDbLine
 10
33.02886752691897
 20
-4.137145320573829
 30
0.0
 11
32.97113247308103
 21
-4.129141436568556
 31
0.0
  0
LINE
  5
504
330
78B
100
AcDbEntity
  8
1
 62
     1
100
AcDbLine
 10
32.97113247308103
 20
-6.743852109122914
 30
0.0
 11
32.97113247308103
 21
-4.129141437563096
 31
0.0
  0
LINE
  5
505
330
78B
100
AcDbEntity
  8
1
 62
     1
100
AcDbLine
 10
23.02886752691897
 20
-2.631191508410759
 30
0.0
 11
22.97113247308103
 21
-2.621894303795171
 31
0.0
  0
LINE
  5
506
330
78B
100
AcDbEntity
  8
1
 62
     1
100
AcDbLine
 10
22.97113247308103
 20
-6.301379263910742
 30
0.0
 11
22.97113247308103
 21
-2.621894303795171
 31
0.0
  0
LINE
  5
507
330
78B
100
AcDbEntity
  8
1
 62
     1
100
AcDbLine
 10
21.02886752691897
 20
-2.305900653145041
 30
0.0
 11
20.97113247308103
 21
-2.296415903825976
 31
0.0
  0
LINE
  5
508
330
78B
100
AcDbEntity
  8
1
 62
     1
100
AcDbLine
 10
20.97113247308103
 20
-6.161893000857672
 30
0.0
 11
20.97113247308103
 21
-2.296415903825976
 31
0.0
  0
LINE
  5
509
330
78B
100
AcDbEntity
  8
1
 62
     1
100
AcDbLine
 10
19.02886752691895
 20
-1.974531449237576
 30
0.0
 11
18.97113247308103
 21
-1.964884113699338
 31
0.0
  0
LINE
  5
50A
330
78B
100
AcDbEntity
  8
1
 62
     1
100
AcDbLine
 10
17.02886752691895
 20
-1.637957825314017
 30
0.0
 11
16.97113247308103
 21
-1.628173340851343
 31
0.0
  0
LINE
  5
50B
330
78B
100
AcDbEntity
  8
1
 62
     1
100
AcDbLine
 10
16.97113247308103
 20
-5.834603169992502
 30
0.0
 11
16.97113247308104
 21
-1.62817334129395
 31
0.0
  0
LINE
  5
50C
330
78B
100
AcDbEntity
  8
1
 62
     1
100
AcDbLine
 10
15.02886752691897
 20
-1.297066392613321
 30
0.0
 11
14.97113247308104
 21
-1.287170587966157
 31
0.0
  0
LINE
  5
50D
330
78B
100
AcDbEntity
  8
1
 62
     1
100
AcDbLine
 10
13.02886752691897
 20
-0.9527556904181432
 30
0.0
 11
12.97113247308104
 21
-0.9427746403741288
 31
0.0
  0
LINE
  5
50E
330
78B
100
AcDbEntity
  8
1
 62
     1
100
AcDbLine
 10
12.97113247308104
 20
-5.445834362839146
 30
0.0
 11
12.97113247308104
 21
-0.942774640672304
 31
0.0
  0
LINE
  5
50F
330
78B
100
AcDbEntity
  8
1
 62
     1
100
AcDbLine
 10
11.02886752691898
 20
-5.236088050635027
 30
0.0
 11
10.97113247308103
 21
-5.229651320271669
 31
0.0
  0
LINE
  5
510
330
78B
100
AcDbEntity
  8
1
 62
     1
100
AcDbLine
 10
11.02886752691899
 20
-0.6059338162000716
 30
0.0
 11
10.97113247308105
 21
-0.595893773470571
 31
0.0
  0
LINE
  5
511
330
78B
100
AcDbEntity
  8
1
 62
     1
100
AcDbLine
 10
10.97113247308104
 20
-5.229651320271672
 30
0.0
 11
10.97113247308105
 21
-0.5958937734705672
 31
0.0
  0
LINE
  5
512
330
78B
100
AcDbEntity
  8
1
 62
     1
100
AcDbLine
 10
42.0
 20
-5.11795
 30
0.0
 11
41.02886752691897
 21
-6.799999999999998
 31
0.0
  0
LINE
  5
513
330
78B
100
AcDbEntity
  8
1
 62
     1
100
AcDbLine
 10
44.0
 20
-5.11795
 30
0.0
 11
43.02886752691896
 21
-6.799999999999998
 31
0.0
  0
LINE
  5
514
330
78B
100
AcDbEntity
  8
1
 62
     1
100
AcDbLine
 10
37.94799175409803
 20
-5.198204609181342
 30
0.0
 11
37.02886752690237
 21
-6.797972782143204
 31
0.0
  0
LINE
  5
515
330
78B
100
AcDbEntity
  8
1
 62
     1
100
AcDbLine
 10
37.94799175409804
 20
-5.198204609181344
 30
0.0
 11
38.0
 21
-5.107535120023892
 31
0.0
  0
LINE
  5
516
330
78B
100
AcDbEntity
  8
1
 62
     1
100
AcDbLine
 10
38.0
 20
-5.107535120023892
 30
0.0
 11
37.99999999999999
 21
-2.601290238577981
 31
0.0
  0
LINE
  5
517
330
78B
100
AcDbEntity
  8
1
 62
     1
100
AcDbLine
 10
37.02886752690237
 20
-4.668585099854217
 30
0.0
 11
37.53673139609322
 21
-3.648913151317632
 31
0.0
  0
LINE
  5
518
330
78B
100
AcDbEntity
  8
1
 62
     1
100
AcDbLine
 10
37.53673139609322
 20
-3.648913151317632
 30
0.0
 11
38.00000000000001
 21
-2.60129023857797
 31
0.0
  0
LINE
  5
519
330
78B
100
AcDbEntity
  8
1
 62
     1
100
AcDbLine
 10
37.02886752691898
 20
-6.797972782114395
 30
0.0
 11
37.02886752691896
 21
-6.211118875486154
 31
0.0
  0
LINE
  5
51A
330
78B
100
AcDbEntity
  8
1
 62
     1
100
AcDbLine
 10
37.02886752691896
 20
-6.211118875486154
 30
0.0
 11
37.02886752691898
 21
-4.668585099822281
 31
0.0
  0
LINE
  5
51B
330
78B
100
AcDbEntity
  8
1
 62
     1
100
AcDbLine
 10
34.0
 20
-5.047171732658804
 30
0.0
 11
34.0
 21
-2.135746181035202
 31
0.0
  0
LINE
  5
51C
330
78B
100
AcDbEntity
  8
1
 62
     1
100
AcDbLine
 10
33.02886752690237
 20
-4.137145320604628
 30
0.0
 11
33.53673137916045
 21
-3.151747268703946
 31
0.0
  0
LINE
  5
51D
330
78B
100
AcDbEntity
  8
1
 62
     1
100
AcDbLine
 10
33.53673137916045
 20
-3.151747268703946
 30
0.0
 11
34.0
 21
-2.135746181035198
 31
0.0
  0
LINE
  5
51E
330
78B
100
AcDbEntity
  8
1
 62
     1
100
AcDbLine
 10
28.0
 20
-4.923643959527913
 30
0.0
 11
28.08914157895673
 21
-5.018823270335076
 31
0.0
  0
LINE
  5
51F
330
78B
100
AcDbEntity
  8
1
 62
     1
100
AcDbLine
 10
35.02886752691897
 20
-6.780491655680352
 30
0.0
 11
35.02886752691897
 21
-4.408675903159259
 31
0.0
  0
LINE
  5
520
330
78B
100
AcDbEntity
  8
1
 62
     1
100
AcDbLine
 10
39.02886752690237
 20
-4.916188375905024
 30
0.0
 11
39.53673137942885
 21
-3.883391100239937
 31
0.0
  0
LINE
  5
521
330
78B
100
AcDbEntity
  8
1
 62
     1
100
AcDbLine
 10
39.53673137942885
 20
-3.883391100239937
 30
0.0
 11
40.0
 21
-2.824081162939747
 31
0.0
  0
LINE
  5
522
330
78B
100
AcDbEntity
  8
1
 62
     1
100
AcDbLine
 10
39.02886752691897
 20
-6.799999999999998
 30
0.0
 11
39.02886752691897
 21
-6.799516868659369
 31
0.0
  0
LINE
  5
523
330
78B
100
AcDbEntity
  8
1
 62
     1
100
AcDbLine
 10
39.02886752691897
 20
-6.799516868659369
 30
0.0
 11
39.02886752691898
 21
-6.660926692723534
 31
0.0
  0
LINE
  5
524
330
78B
100
AcDbEntity
  8
1
 62
     1
100
AcDbLine
 10
39.02886752691898
 20
-6.660926692723534
 30
0.0
 11
39.02886752691897
 21
-4.91618837587266
 31
0.0
  0
LINE
  5
525
330
78B
100
AcDbEntity
  8
1
 62
     1
100
AcDbLine
 10
39.76781727465353
 20
-5.520102089436377
 30
0.0
 11
39.02886752691897
 21
-6.799999999999998
 31
0.0
  0
LINE
  5
526
330
78B
100
AcDbEntity
  8
1
 62
     1
100
AcDbLine
 10
29.94799181966435
 20
-5.023729371032712
 30
0.0
 11
30.0
 21
-4.933626494889765
 31
0.0
  0
LINE
  5
527
330
78B
100
AcDbEntity
  8
1
 62
     1
100
AcDbLine
 10
30.0
 20
-4.933626494889765
 30
0.0
 11
30.0
 21
-1.647697005434942
 31
0.0
  0
LINE
  5
528
330
78B
100
AcDbEntity
  8
1
 62
     1
100
AcDbLine
 10
29.02886752691068
 20
-3.562112911204276
 30
0.0
 11
29.53673139746583
 21
-2.621371277200822
 31
0.0
  0
LINE
  5
529
330
78B
100
AcDbEntity
  8
1
 62
     1
100
AcDbLine
 10
29.53673139746583
 20
-2.621371277200822
 30
0.0
 11
30.0
 21
-1.647697005434751
 31
0.0
  0
LINE
  5
52A
330
78B
100
AcDbEntity
  8
1
 62
     1
100
AcDbLine
 10
29.02886752691897
 20
-6.621228623003256
 30
0.0
 11
29.02886752691897
 21
-3.562112911189632
 31
0.0
  0
LINE
  5
52B
330
78B
100
AcDbEntity
  8
1
 62
     1
100
AcDbLine
 10
31.94799195971677
 20
-5.087588121441093
 30
0.0
 11
32.0
 21
-4.996985088065345
 31
0.0
  0
LINE
  5
52C
330
78B
100
AcDbEntity
  8
1
 62
     1
100
AcDbLine
 10
32.0
 20
-4.996985088065345
 30
0.0
 11
32.0
 21
-1.894218209694372
 31
0.0
  0
LINE
  5
52D
330
78B
100
AcDbEntity
  8
1
 62
     1
100
AcDbLine
 10
31.02886752690429
 20
-3.854709648636651
 30
0.0
 11
31.53673140714719
 21
-2.890368843321229
 31
0.0
  0
LINE
  5
52E
330
78B
100
AcDbEntity
  8
1
 62
     1
100
AcDbLine
 10
31.53673140714719
 20
-2.890368843321229
 30
0.0
 11
32.0
 21
-1.894218209694373
 31
0.0
  0
LINE
  5
52F
330
78B
100
AcDbEntity
  8
1
 62
     1
100
AcDbLine
 10
31.02886752691897
 20
-6.692002947698147
 30
0.0
 11
31.02886752691897
 21
-3.854709648610011
 31
0.0
  0
LINE
  5
530
330
78B
100
AcDbEntity
  8
1
 62
     1
100
AcDbLine
 10
17.02886752691068
 20
-6.599779857135391
 30
0.0
 11
17.53673235164162
 21
-5.853338231317367
 31
0.0
  0
LINE
  5
531
330
78B
100
AcDbEntity
  8
1
 62
     1
100
AcDbLine
 10
17.53673235164162
 20
-5.853338231317367
 30
0.0
 11
18.0
 21
-5.116957070152969
 31
0.0
  0
LINE
  5
532
330
78B
100
AcDbEntity
  8
1
 62
     1
100
AcDbLine
 10
17.94799198523099
 20
-4.370786696455986
 30
0.0
 11
17.02886752691068
 21
-5.839773566139616
 31
0.0
  0
LINE
  5
533
330
78B
100
AcDbEntity
  8
1
 62
     1
100
AcDbLine
 10
17.94799198523099
 20
-4.370786696455986
 30
0.0
 11
18.0
 21
-4.288584497602021
 31
0.0
  0
LINE
  5
534
330
78B
100
AcDbEntity
  8
1
 62
     1
100
AcDbLine
 10
18.0
 20
-4.288584497602017
 30
0.0
 11
18.0
 21
-0.1008094475310779
 31
0.0
  0
LINE
  5
535
330
78B
100
AcDbEntity
  8
1
 62
     1
100
AcDbLine
 10
17.02886752691067
 20
-1.637957825325665
 30
0.0
 11
17.53673235164161
 21
-0.8882612297337482
 31
0.0
  0
LINE
  5
536
330
78B
100
AcDbEntity
  8
1
 62
     1
100
AcDbLine
 10
17.53673235164161
 20
-0.8882612297337482
 30
0.0
 11
17.77543141027181
 21
-0.4995659800683897
 31
0.0
  0
LINE
  5
537
330
78B
100
AcDbEntity
  8
1
 62
     1
100
AcDbLine
 10
17.77543141027181
 20
-0.4995659800683897
 30
0.0
 11
18.0
 21
-0.100809447531077
 31
0.0
  0
LINE
  5
538
330
78B
100
AcDbEntity
  8
1
 62
     1
100
AcDbLine
 10
17.02886752691896
 20
-5.83977356612658
 30
0.0
 11
17.02886752691895
 21
-1.637957825314017
 31
0.0
  0
LINE
  5
539
330
78B
100
AcDbEntity
  8
1
 62
     1
100
AcDbLine
 10
16.0
 20
-5.11795
 30
0.0
 11
16.0
 21
-5.117949382110898
 31
0.0
  0
LINE
  5
53A
330
78B
100
AcDbEntity
  8
1
 62
     1
100
AcDbLine
 10
16.0
 20
-5.117949382110898
 30
0.0
 11
16.0
 21
-5.11777085021744
 31
0.0
  0
LINE
  5
53B
330
78B
100
AcDbEntity
  8
1
 62
     1
100
AcDbLine
 10
16.0
 20
-5.11777085021744
 30
0.0
 11
16.0
 21
-5.115387000003449
 31
0.0
  0
LINE
  5
53C
330
78B
100
AcDbEntity
  8
1
 62
     1
100
AcDbLine
 10
16.08041209890932
 20
-5.257227775915888
 30
0.0
 11
16.0
 21
-5.117949999999992
 31
0.0
  0
LINE
  5
53D
330
78B
100
AcDbEntity
  8
1
 62
     1
100
AcDbLine
 10
27.94799192411472
 20
-4.946627786281061
 30
0.0
 11
27.99999999999999
 21
-4.857262996118873
 31
0.0
  0
LINE
  5
53E
330
78B
100
AcDbEntity
  8
1
 62
     1
100
AcDbLine
 10
28.0
 20
-4.857262996118856
 30
0.0
 11
28.0
 21
-1.396832975807877
 31
0.0
  0
LINE
  5
53F
330
78B
100
AcDbEntity
  8
1
 62
     1
100
AcDbLine
 10
27.02886752691897
 20
-6.533000872290172
 30
0.0
 11
27.02886752691895
 21
-3.260126274137196
 31
0.0
  0
LINE
  5
540
330
78B
100
AcDbEntity
  8
1
 62
     1
100
AcDbLine
 10
11.02886752691532
 20
-6.772949446914989
 30
0.0
 11
11.52125614971924
 21
-5.947158285878798
 31
0.0
  0
LINE
  5
541
330
78B
100
AcDbEntity
  8
1
 62
     1
100
AcDbLine
 10
12.0
 20
-5.11795
 30
0.0
 11
11.52125614971924
 21
-5.947158285878797
 31
0.0
  0
LINE
  5
542
330
78B
100
AcDbEntity
  8
1
 62
     1
100
AcDbLine
 10
11.94799206140784
 20
-3.884518922084583
 30
0.0
 11
12.00000000000001
 21
-3.809246109585945
 31
0.0
  0
LINE
  5
543
330
78B
100
AcDbEntity
  8
1
 62
     1
100
AcDbLine
 10
11.02886752691533
 20
-0.6059338162043063
 30
0.0
 11
11.53672999348561
 21
0.0203529677093249
 31
0.0
  0
LINE
  5
544
330
78B
100
AcDbEntity
  8
1
 62
     1
100
AcDbLine
 10
11.53672999348561
 20
0.0203529677093249
 30
0.0
 11
11.77543134678113
 21
0.3478104865710407
 31
0.0
  0
LINE
  5
545
330
78B
100
AcDbEntity
  8
1
 62
     1
100
AcDbLine
 10
11.77543134678113
 20
0.3478104865710407
 30
0.0
 11
12.0
 21
0.6854978304751997
 31
0.0
  0
LINE
  5
546
330
78B
100
AcDbEntity
  8
1
 62
     1
100
AcDbLine
 10
11.02886752691898
 20
-5.236088050665039
 30
0.0
 11
11.02886752691898
 21
-0.6059338162000696
 31
0.0
  0
LINE
  5
547
330
78B
100
AcDbEntity
  8
1
 62
     1
100
AcDbLine
 10
13.02886752691532
 20
-6.732923331989837
 30
0.0
 11
13.73223268243678
 21
-5.58173638238538
 31
0.0
  0
LINE
  5
548
330
78B
100
AcDbEntity
  8
1
 62
     1
100
AcDbLine
 10
14.0
 20
-5.11795
 30
0.0
 11
13.73223268243678
 21
-5.58173638238538
 31
0.0
  0
LINE
  5
549
330
78B
100
AcDbEntity
  8
1
 62
     1
100
AcDbLine
 10
13.94799189744837
 20
-4.057446216730144
 30
0.0
 11
13.02886752691532
 21
-5.451864497347063
 31
0.0
  0
LINE
  5
54A
330
78B
100
AcDbEntity
  8
1
 62
     1
100
AcDbLine
 10
13.94799189744838
 20
-4.057446216730144
 30
0.0
 11
14.0
 21
-3.97965633064638
 31
0.0
  0
LINE
  5
54B
330
78B
100
AcDbEntity
  8
1
 62
     1
100
AcDbLine
 10
14.0
 20
-3.979656330646358
 30
0.0
 11
14.0
 21
0.4242835649436225
 31
0.0
  0
LINE
  5
54C
330
78B
100
AcDbEntity
  8
1
 62
     1
100
AcDbLine
 10
13.02886752691532
 20
-0.9527556904226786
 30
0.0
 11
13.53673159272487
 21
-0.2835307506543449
 31
0.0
  0
LINE
  5
54D
330
78B
100
AcDbEntity
  8
1
 62
     1
100
AcDbLine
 10
13.53673159272487
 20
-0.2835307506543449
 30
0.0
 11
13.77543039291642
 21
0.065274301680244
 31
0.0
  0
LINE
  5
54E
330
78B
100
AcDbEntity
  8
1
 62
     1
100
AcDbLine
 10
13.77543039291642
 20
0.065274301680244
 30
0.0
 11
14.0
 21
0.4242835649436212
 31
0.0
  0
LINE
  5
54F
330
78B
100
AcDbEntity
  8
1
 62
     1
100
AcDbLine
 10
13.02886752691897
 20
-5.451864497341635
 30
0.0
 11
13.02886752691897
 21
-0.9527556904181432
 31
0.0
  0
LINE
  5
550
330
78B
100
AcDbEntity
  8
1
 62
     1
100
AcDbLine
 10
14.0
 20
-5.11795
 30
0.0
 11
14.0
 21
-5.100332896882193
 31
0.0
  0
LINE
  5
551
330
78B
100
AcDbEntity
  8
1
 62
     1
100
AcDbLine
 10
14.22554201575248
 20
-5.508600048384077
 30
0.0
 11
14.0
 21
-5.117949999999992
 31
0.0
  0
LINE
  5
552
330
78B
100
AcDbEntity
  8
1
 62
     1
100
AcDbLine
 10
15.02886752691138
 20
-6.675149344644344
 30
0.0
 11
15.90686254102854
 21
-5.279268735811522
 31
0.0
  0
LINE
  5
553
330
78B
100
AcDbEntity
  8
1
 62
     1
100
AcDbLine
 10
16.0
 20
-5.11795
 30
0.0
 11
15.90686254102854
 21
-5.279268735811521
 31
0.0
  0
LINE
  5
554
330
78B
100
AcDbEntity
  8
1
 62
     1
100
AcDbLine
 10
15.94799182474848
 20
-4.219678102933545
 30
0.0
 11
16.00000000000001
 21
-4.139576310048068
 31
0.0
  0
LINE
  5
555
330
78B
100
AcDbEntity
  8
1
 62
     1
100
AcDbLine
 10
15.02886752691137
 20
-1.297066392623356
 30
0.0
 11
15.53673267675839
 21
-0.586668169382275
 31
0.0
  0
LINE
  5
556
330
78B
100
AcDbEntity
  8
1
 62
     1
100
AcDbLine
 10
15.53673267675839
 20
-0.586668169382275
 30
0.0
 11
15.77543187461687
 21
-0.2174304259314595
 31
0.0
  0
LINE
  5
557
330
78B
100
AcDbEntity
  8
1
 62
     1
100
AcDbLine
 10
15.77543187461687
 20
-0.2174304259314595
 30
0.0
 11
16.0
 21
0.1619507415719075
 31
0.0
  0
LINE
  5
558
330
78B
100
AcDbEntity
  8
1
 62
     1
100
AcDbLine
 10
15.02886752691897
 20
-5.653269994016357
 30
0.0
 11
15.02886752691897
 21
-1.297066392613321
 31
0.0
  0
LINE
  5
559
330
78B
100
AcDbEntity
  8
1
 62
     1
100
AcDbLine
 10
25.56349746367086
 20
-5.518003086104853
 30
0.0
 11
26.00000000000001
 21
-4.988846849908019
 31
0.0
  0
LINE
  5
55A
330
78B
100
AcDbEntity
  8
1
 62
     1
100
AcDbLine
 10
25.94799201724668
 20
-4.85648703831192
 30
0.0
 11
26.0
 21
-4.768095871913952
 31
0.0
  0
LINE
  5
55B
330
78B
100
AcDbEntity
  8
1
 62
     1
100
AcDbLine
 10
26.0
 20
-4.768095871913952
 30
0.0
 11
26.0
 21
-1.142286877567456
 31
0.0
  0
LINE
  5
55C
330
78B
100
AcDbEntity
  8
1
 62
     1
100
AcDbLine
 10
25.02886752691068
 20
-2.949546297216358
 30
0.0
 11
25.53673353119697
 21
-2.063370308297983
 31
0.0
  0
LINE
  5
55D
330
78B
100
AcDbEntity
  8
1
 62
     1
100
AcDbLine
 10
25.53673353119697
 20
-2.063370308297983
 30
0.0
 11
26.00000000000001
 21
-1.142286877567457
 31
0.0
  0
LINE
  5
55E
330
78B
100
AcDbEntity
  8
1
 62
     1
100
AcDbLine
 10
25.02886752691897
 20
-6.427552303785588
 30
0.0
 11
25.02886752691897
 21
-2.949546296230418
 31
0.0
  0
LINE
  5
55F
330
78B
100
AcDbEntity
  8
1
 62
     1
100
AcDbLine
 10
23.10431560920102
 20
-6.179172557818302
 30
0.0
 11
24.0
 21
-5.040899345337246
 31
0.0
  0
LINE
  5
560
330
78B
100
AcDbEntity
  8
1
 62
     1
100
AcDbLine
 10
23.9479918951251
 20
-4.753545039432964
 30
0.0
 11
23.02886752691068
 21
-6.305160879708862
 31
0.0
  0
LINE
  5
561
330
78B
100
AcDbEntity
  8
1
 62
     1
100
AcDbLine
 10
23.94799189512511
 20
-4.753545039432964
 30
0.0
 11
24.0
 21
-4.666360135165184
 31
0.0
  0
LINE
  5
562
330
78B
100
AcDbEntity
  8
1
 62
     1
100
AcDbLine
 10
24.0
 20
-4.666360135165177
 30
0.0
 11
24.00000000000001
 21
-0.8847293330044591
 31
0.0
  0
LINE
  5
563
330
78B
100
AcDbEntity
  8
1
 62
     1
100
AcDbLine
 10
23.02886752691068
 20
-2.631191508993424
 30
0.0
 11
23.53673354391505
 21
-1.775841525629128
 31
0.0
  0
LINE
  5
564
330
78B
100
AcDbEntity
  8
1
 62
     1
100
AcDbLine
 10
23.53673354391505
 20
-1.775841525629128
 30
0.0
 11
24.00000000000001
 21
-0.8847293330044585
 31
0.0
  0
LINE
  5
565
330
78B
100
AcDbEntity
  8
1
 62
     1
100
AcDbLine
 10
23.02886752691897
 20
-6.305160879695032
 30
0.0
 11
23.02886752691897
 21
-2.631191508980141
 31
0.0
  0
LINE
  5
566
330
78B
100
AcDbEntity
  8
1
 62
     1
100
AcDbLine
 10
21.02886752691068
 20
-6.39709482327421
 30
0.0
 11
21.53673350783353
 21
-5.731439789200819
 31
0.0
  0
LINE
  5
567
330
78B
100
AcDbEntity
  8
1
 62
     1
100
AcDbLine
 10
21.53673350783353
 20
-5.731439789200819
 30
0.0
 11
22.0
 21
-5.079664103700927
 31
0.0
  0
LINE
  5
568
330
78B
100
AcDbEntity
  8
1
 62
     1
100
AcDbLine
 10
21.02886752691068
 20
-2.305900653157789
 30
0.0
 11
21.53673350783355
 21
-1.483631500762211
 31
0.0
  0
LINE
  5
569
330
78B
100
AcDbEntity
  8
1
 62
     1
100
AcDbLine
 10
21.53673350783355
 20
-1.483631500762211
 30
0.0
 11
21.77543223932198
 21
-1.059142707644427
 31
0.0
  0
LINE
  5
56A
330
78B
100
AcDbEntity
  8
1
 62
     1
100
AcDbLine
 10
21.77543223932198
 20
-1.059142707644427
 30
0.0
 11
22.00000000000001
 21
-0.6248398163307364
 31
0.0
  0
LINE
  5
56B
330
78B
100
AcDbEntity
  8
1
 62
     1
100
AcDbLine
 10
21.02886752691897
 20
-6.166149165866644
 30
0.0
 11
21.02886752691897
 21
-2.30590065314504
 31
0.0
  0
LINE
  5
56C
330
78B
100
AcDbEntity
  8
1
 62
     1
100
AcDbLine
 10
19.02886752691068
 20
-6.507013566241702
 30
0.0
 11
19.53673232579022
 21
-5.800033809610987
 31
0.0
  0
LINE
  5
56D
330
78B
100
AcDbEntity
  8
1
 62
     1
100
AcDbLine
 10
19.53673232579022
 20
-5.800033809610987
 30
0.0
 11
20.00000000000001
 21
-5.105038949802349
 31
0.0
  0
LINE
  5
56E
330
78B
100
AcDbEntity
  8
1
 62
     1
100
AcDbLine
 10
19.94799199073165
 20
-4.51037419393674
 30
0.0
 11
20.0
 21
-4.426288044135215
 31
0.0
  0
LINE
  5
56F
330
78B
100
AcDbEntity
  8
1
 62
     1
100
AcDbLine
 10
20.0
 20
-4.426288044135214
 30
0.0
 11
20.00000000000001
 21
-0.36330362439831
 31
0.0
  0
LINE
  5
570
330
78B
100
AcDbEntity
  8
1
 62
     1
100
AcDbLine
 10
19.02886752691896
 20
-6.010883610660588
 30
0.0
 11
19.02886752691895
 21
-1.974531450469577
 31
0.0
  0
LINE
  5
571
330
78B
100
AcDbEntity
  8
1
 62
     1
100
AcDbLine
 10
12.0
 20
-5.11795
 30
0.0
 11
12.0
 21
-5.117939286205536
 31
0.0
  0
LINE
  5
572
330
78B
100
AcDbEntity
  8
1
 62
     1
100
AcDbLine
 10
12.0
 20
-5.117939286205536
 30
0.0
 11
12.0
 21
-5.114812253416035
 31
0.0
  0
LINE
  5
573
330
78B
100
AcDbEntity
  8
1
 62
     1
100
AcDbLine
 10
12.0
 20
-5.114812253416035
 30
0.0
 11
12.0
 21
-5.071834473532617
 31
0.0
  0
LINE
  5
574
330
78B
100
AcDbEntity
  8
1
 62
     1
100
AcDbLine
 10
12.39122319640894
 20
-5.795568137340105
 30
0.0
 11
12.0
 21
-5.117949999999992
 31
0.0
  0
LINE
  5
575
330
78B
100
AcDbEntity
  8
1
 62
     1
100
AcDbLine
 10
12.39122319640894
 20
-5.795568137340104
 30
0.0
 11
12.97113247308468
 21
-6.734328175444539
 31
0.0
  0
LINE
  5
576
330
78B
100
AcDbEntity
  8
1
 62
     1
100
AcDbLine
 10
10.58070651353188
 20
-6.123762716762888
 30
0.0
 11
10.97113247308469
 21
-6.773840167203416
 31
0.0
  0
LINE
  5
577
330
78B
100
AcDbEntity
  8
1
 62
     1
100
AcDbLine
 10
10.58070651353188
 20
-6.123762716762888
 30
0.0
 11
10.00000000000001
 21
-5.117950000000011
 31
0.0
  0
LINE
  5
578
330
78B
100
AcDbEntity
  8
1
 62
     1
100
AcDbLine
 10
40.052007352422
 20
-5.207885941050347
 30
0.0
 11
40.11919089528885
 21
-5.324394590185058
 31
0.0
  0
LINE
  5
579
330
78B
100
AcDbEntity
  8
1
 62
     1
100
AcDbLine
 10
38.0520082482424
 20
-5.199040025453906
 30
0.0
 11
38.65444151304807
 21
-6.251475422674878
 31
0.0
  0
LINE
  5
57A
330
78B
100
AcDbEntity
  8
1
 62
     1
100
AcDbLine
 10
39.94799264234173
 20
-5.207764176693453
 30
0.0
 11
39.76781727465353
 21
-5.520102089436377
 31
0.0
  0
LINE
  5
57B
330
78B
100
AcDbEntity
  8
1
 62
     1
100
AcDbLine
 10
36.05200818209108
 20
-5.176487892871078
 30
0.0
 11
36.97113247309764
 21
-6.797719212084619
 31
0.0
  0
LINE
  5
57C
330
78B
100
AcDbEntity
  8
1
 62
     1
100
AcDbLine
 10
37.02886752691898
 20
-6.797972782114395
 30
0.0
 11
36.97113247308103
 21
-6.797719210186408
 31
0.0
  0
LINE
  5
57D
330
78B
100
AcDbEntity
  8
1
 62
     1
100
AcDbLine
 10
35.9479918107046
 20
-5.174941059414901
 30
0.0
 11
35.02886752690237
 21
-6.780491655709226
 31
0.0
  0
LINE
  5
57E
330
78B
100
AcDbEntity
  8
1
 62
     1
100
AcDbLine
 10
35.02886752691897
 20
-6.780491655680352
 30
0.0
 11
34.97113247308104
 21
-6.779721257513418
 31
0.0
  0
LINE
  5
57F
330
78B
100
AcDbEntity
  8
1
 62
     1
100
AcDbLine
 10
32.0520080600768
 20
-5.090543764212017
 30
0.0
 11
32.97113247309764
 21
-6.74385210915252
 31
0.0
  0
LINE
  5
580
330
78B
100
AcDbEntity
  8
1
 62
     1
100
AcDbLine
 10
33.9479920358602
 20
-5.138036202356243
 30
0.0
 11
33.02886752690237
 21
-6.745137305435748
 31
0.0
  0
LINE
  5
581
330
78B
100
AcDbEntity
  8
1
 62
     1
100
AcDbLine
 10
33.02886752691897
 20
-6.745137305406881
 30
0.0
 11
32.97113247308103
 21
-6.743852107627186
 31
0.0
  0
LINE
  5
582
330
78B
100
AcDbEntity
  8
1
 62
     1
100
AcDbLine
 10
31.94799195971676
 20
-5.087588121441093
 30
0.0
 11
31.02886752690429
 21
-6.692002947723612
 31
0.0
  0
LINE
  5
583
330
78B
100
AcDbEntity
  8
1
 62
     1
100
AcDbLine
 10
31.02886752691897
 20
-6.692002947698148
 30
0.0
 11
30.97113247308104
 21
-6.690206340875315
 31
0.0
  0
LINE
  5
584
330
78B
100
AcDbEntity
  8
1
 62
     1
100
AcDbLine
 10
29.94799181966435
 20
-5.023729371032711
 30
0.0
 11
29.02886752691068
 21
-6.621228623017544
 31
0.0
  0
LINE
  5
585
330
78B
100
AcDbEntity
  8
1
 62
     1
100
AcDbLine
 10
29.02886752691897
 20
-6.621228623003256
 30
0.0
 11
28.97113247308103
 21
-6.61892534296065
 31
0.0
  0
LINE
  5
586
330
78B
100
AcDbEntity
  8
1
 62
     1
100
AcDbLine
 10
27.94799192411472
 20
-4.946627786281061
 30
0.0
 11
27.02886752691068
 21
-6.533000872304347
 31
0.0
  0
LINE
  5
587
330
78B
100
AcDbEntity
  8
1
 62
     1
100
AcDbLine
 10
27.02886752691897
 20
-6.533000872290172
 30
0.0
 11
26.97113247308104
 21
-6.530196989264245
 31
0.0
  0
LINE
  5
588
330
78B
100
AcDbEntity
  8
1
 62
     1
100
AcDbLine
 10
24.05200812794667
 20
-4.759210282020648
 30
0.0
 11
24.97113247308932
 21
-6.424255207711579
 31
0.0
  0
LINE
  5
589
330
78B
100
AcDbEntity
  8
1
 62
     1
100
AcDbLine
 10
25.94799201724668
 20
-4.85648703831192
 30
0.0
 11
25.02886752691068
 21
-6.427552303799611
 31
0.0
  0
LINE
  5
58A
330
78B
100
AcDbEntity
  8
1
 62
     1
100
AcDbLine
 10
25.02886752691897
 20
-6.427552303785588
 30
0.0
 11
24.97113247308103
 21
-6.424255207531327
 31
0.0
  0
LINE
  5
58B
330
78B
100
AcDbEntity
  8
1
 62
     1
100
AcDbLine
 10
22.052008147634
 20
-4.644382334025848
 30
0.0
 11
22.97113247308932
 21
-6.301379263925648
 31
0.0
  0
LINE
  5
58C
330
78B
100
AcDbEntity
  8
1
 62
     1
100
AcDbLine
 10
23.02886752691897
 20
-6.305160879695032
 30
0.0
 11
22.97113247308103
 21
-6.301379262586269
 31
0.0
  0
LINE
  5
58D
330
78B
100
AcDbEntity
  8
1
 62
     1
100
AcDbLine
 10
20.05200799618935
 20
-4.517311639069912
 30
0.0
 11
20.97113247308932
 21
-6.161893000872482
 31
0.0
  0
LINE
  5
58E
330
78B
100
AcDbEntity
  8
1
 62
     1
100
AcDbLine
 10
21.9479918341464
 20
-4.63807269882034
 30
0.0
 11
21.02886752691068
 21
-6.166149165880243
 31
0.0
  0
LINE
  5
58F
330
78B
100
AcDbEntity
  8
1
 62
     1
100
AcDbLine
 10
21.02886752691897
 20
-6.166149165804708
 30
0.0
 11
20.97113247308103
 21
-6.161893000857672
 31
0.0
  0
LINE
  5
590
330
78B
100
AcDbEntity
  8
1
 62
     1
100
AcDbLine
 10
19.94799199073165
 20
-4.510374193936739
 30
0.0
 11
19.02886752691068
 21
-6.010883610673919
 31
0.0
  0
LINE
  5
591
330
78B
100
AcDbEntity
  8
1
 62
     1
100
AcDbLine
 10
19.02886752691896
 20
-6.010883610660588
 30
0.0
 11
18.97113247308103
 21
-6.006164109475181
 31
0.0
  0
LINE
  5
592
330
78B
100
AcDbEntity
  8
1
 62
     1
100
AcDbLine
 10
16.05200818447538
 20
-4.227814777734126
 30
0.0
 11
16.97113247308932
 21
-5.834603170007009
 31
0.0
  0
LINE
  5
593
330
78B
100
AcDbEntity
  8
1
 62
     1
100
AcDbLine
 10
17.02886752691896
 20
-5.83977356612658
 30
0.0
 11
16.97113247308104
 21
-5.834603168094491
 31
0.0
  0
LINE
  5
594
330
78B
100
AcDbEntity
  8
1
 62
     1
100
AcDbLine
 10
15.94799182474848
 20
-4.219678102933545
 30
0.0
 11
15.02886752691138
 21
-5.653269994027988
 31
0.0
  0
LINE
  5
595
330
78B
100
AcDbEntity
  8
1
 62
     1
100
AcDbLine
 10
15.02886752691897
 20
-5.653269994016356
 30
0.0
 11
14.97113247308103
 21
-5.647662337734871
 31
0.0
  0
LINE
  5
596
330
78B
100
AcDbEntity
  8
1
 62
     1
100
AcDbLine
 10
12.05200794269438
 20
-3.893768986636545
 30
0.0
 11
12.97113247308468
 21
-5.445834362845332
 31
0.0
  0
LINE
  5
597
330
78B
100
AcDbEntity
  8
1
 62
     1
100
AcDbLine
 10
13.02886752691897
 20
-5.451864497341635
 30
0.0
 11
12.97113247308104
 21
-5.445834361586844
 31
0.0
  0
LINE
  5
598
330
78B
100
AcDbEntity
  8
1
 62
     1
100
AcDbLine
 10
10.05200817377595
 20
-3.711123536242799
 30
0.0
 11
10.97113247308469
 21
-5.229651320277731
 31
0.0
  0
LINE
  5
599
330
78B
100
AcDbEntity
  8
1
 62
     1
100
AcDbLine
 10
11.94799206140784
 20
-3.884518922084583
 30
0.0
 11
11.02886752691533
 21
-5.236088050670291
 31
0.0
  0
LINE
  5
59A
330
78B
100
AcDbEntity
  8
1
 62
     1
100
AcDbLine
 10
39.94799264234172
 20
-5.207764176693451
 30
0.0
 11
40.0
 21
-5.117552753339318
 31
0.0
  0
LINE
  5
59B
330
78B
100
AcDbEntity
  8
1
 62
     1
100
AcDbLine
 10
38.0520082482424
 20
-5.199040025453908
 30
0.0
 11
38.0
 21
-5.107535120023892
 31
0.0
  0
LINE
  5
59C
330
78B
100
AcDbEntity
  8
1
 62
     1
100
AcDbLine
 10
35.9479918107046
 20
-5.174941059414902
 30
0.0
 11
36.00000000000001
 21
-5.084054146225135
 31
0.0
  0
LINE
  5
59D
330
78B
100
AcDbEntity
  8
1
 62
     1
100
AcDbLine
 10
34.05200795084244
 20
-5.1402903721129
 30
0.0
 11
33.99999999999999
 21
-5.047171732658804
 31
0.0
  0
LINE
  5
59E
330
78B
100
AcDbEntity
  8
1
 62
     1
100
AcDbLine
 10
33.9479920358602
 20
-5.138036202356245
 30
0.0
 11
33.99999999999999
 21
-5.047171732658804
 31
0.0
  0
LINE
  5
59F
330
78B
100
AcDbEntity
  8
1
 62
     1
100
AcDbLine
 10
32.0520080600768
 20
-5.090543764212019
 30
0.0
 11
32.0
 21
-4.996985088065345
 31
0.0
  0
LINE
  5
5A0
330
78B
100
AcDbEntity
  8
1
 62
     1
100
AcDbLine
 10
28.05200805295483
 20
-4.950960983479339
 30
0.0
 11
28.0
 21
-4.857262996118872
 31
0.0
  0
LINE
  5
5A1
330
78B
100
AcDbEntity
  8
1
 62
     1
100
AcDbLine
 10
24.05200812794667
 20
-4.759210282020648
 30
0.0
 11
24.00000000000001
 21
-4.666360135165183
 31
0.0
  0
LINE
  5
5A2
330
78B
100
AcDbEntity
  8
1
 62
     1
100
AcDbLine
 10
21.9479918341464
 20
-4.63807269882034
 30
0.0
 11
22.00000000000001
 21
-4.552323983569698
 31
0.0
  0
LINE
  5
5A3
330
78B
100
AcDbEntity
  8
1
 62
     1
100
AcDbLine
 10
20.05200799618935
 20
-4.517311639069914
 30
0.0
 11
20.0
 21
-4.426288044135215
 31
0.0
  0
LINE
  5
5A4
330
78B
100
AcDbEntity
  8
1
 62
     1
100
AcDbLine
 10
18.05200803340826
 20
-4.378333723295133
 30
0.0
 11
18.00000000000001
 21
-4.28858449760202
 31
0.0
  0
LINE
  5
5A5
330
78B
100
AcDbEntity
  8
1
 62
     1
100
AcDbLine
 10
14.05200808001978
 20
-4.066151026059213
 30
0.0
 11
14.0
 21
-3.979656330646379
 31
0.0
  0
LINE
  5
5A6
330
78B
100
AcDbEntity
  8
1
 62
     1
100
AcDbLine
 10
10.0
 20
-5.029966701698885
 30
0.0
 11
10.28071413089851
 21
-5.58401149993028
 31
0.0
  0
LINE
  5
5A7
330
78B
100
AcDbEntity
  8
1
 62
     1
100
AcDbLine
 10
10.28071413089851
 20
-5.58401149993028
 30
0.0
 11
10.58070651353188
 21
-6.123762716762888
 31
0.0
  0
LINE
  5
5A8
330
78B
100
AcDbEntity
  8
1
 62
     1
100
AcDbLine
 10
11.02886752691897
 20
-6.77294944504191
 30
0.0
 11
10.97113247308103
 21
-6.773840167197553
 31
0.0
  0
LINE
  5
5A9
330
78B
100
AcDbEntity
  8
1
 62
     1
100
AcDbLine
 10
12.0
 20
-5.071834473532656
 30
0.0
 11
11.52125614971924
 21
-5.947158285878798
 31
0.0
  0
LINE
  5
5AA
330
78B
100
AcDbEntity
  8
1
 62
     1
100
AcDbLine
 10
12.0
 20
-5.071834473532656
 30
0.0
 11
12.39122319640894
 21
-5.795568137340104
 31
0.0
  0
LINE
  5
5AB
330
78B
100
AcDbEntity
  8
1
 62
     1
100
AcDbLine
 10
13.02886752691897
 20
-6.732923331984096
 30
0.0
 11
12.97113247308103
 21
-6.734328175438965
 31
0.0
  0
LINE
  5
5AC
330
78B
100
AcDbEntity
  8
1
 62
     1
100
AcDbLine
 10
14.0
 20
-5.100332896882195
 30
0.0
 11
13.73223268243678
 21
-5.58173638238538
 31
0.0
  0
ARC
  5
5AD
330
78B
100
AcDbEntity
  8
1
 62
     1
100
AcDbCircle
 10
24.4534927521843
 20
0.4091123137458199
 30
0.0
 40
11.816498032149
100
AcDbArc
 50
207.7911802933797
 51
210.0529189999743
  0
LINE
  5
5AE
330
78B
100
AcDbEntity
  8
1
 62
     1
100
AcDbLine
 10
14.22554201575248
 20
-5.508600048384077
 30
0.0
 11
14.58802820358884
 21
-6.102939769142038
 31
0.0
  0
LINE
  5
5AF
330
78B
100
AcDbEntity
  8
1
 62
     1
100
AcDbLine
 10
14.58802820358884
 20
-6.102939769142038
 30
0.0
 11
14.97113247308862
 21
-6.677064615304145
 31
0.0
  0
LINE
  5
5B0
330
78B
100
AcDbEntity
  8
1
 62
     1
100
AcDbLine
 10
15.02886752691897
 20
-6.675149344632897
 30
0.0
 11
14.97113247308103
 21
-6.677064613822044
 31
0.0
  0
LINE
  5
5B1
330
78B
100
AcDbEntity
  8
1
 62
     1
100
AcDbLine
 10
16.00000000000001
 20
-5.115387000003451
 30
0.0
 11
15.90686254102854
 21
-5.279268735811522
 31
0.0
  0
LINE
  5
5B2
330
78B
100
AcDbEntity
  8
1
 62
     1
100
AcDbLine
 10
16.00000000000001
 20
-5.115387000003451
 30
0.0
 11
16.08041209890932
 21
-5.257227775915889
 31
0.0
  0
LINE
  5
5B3
330
78B
100
AcDbEntity
  8
1
 62
     1
100
AcDbLine
 10
16.08041209890932
 20
-5.257227775915889
 30
0.0
 11
16.50925979581158
 21
-5.945026668972575
 31
0.0
  0
LINE
  5
5B4
330
78B
100
AcDbEntity
  8
1
 62
     1
100
AcDbLine
 10
16.50925979581158
 20
-5.945026668972575
 30
0.0
 11
16.97113247308932
 21
-6.602200510089767
 31
0.0
  0
LINE
  5
5B5
330
78B
100
AcDbEntity
  8
1
 62
     1
100
AcDbLine
 10
17.02886752691896
 20
-6.599779857123459
 30
0.0
 11
16.97113247308103
 21
-6.602200509872253
 31
0.0
  0
LINE
  5
5B6
330
78B
100
AcDbEntity
  8
1
 62
     1
100
AcDbLine
 10
18.0
 20
-5.116957070152969
 30
0.0
 11
18.22556302112239
 21
-5.479610404086481
 31
0.0
  0
LINE
  5
5B7
330
78B
100
AcDbEntity
  8
1
 62
     1
100
AcDbLine
 10
18.22556302112239
 20
-5.479610404086481
 30
0.0
 11
18.46452934197521
 21
-5.832350150508547
 31
0.0
  0
LINE
  5
5B8
330
78B
100
AcDbEntity
  8
1
 62
     1
100
AcDbLine
 10
18.46452934197521
 20
-5.832350150508547
 30
0.0
 11
18.97113247308932
 21
-6.509933211628868
 31
0.0
  0
LINE
  5
5B9
330
78B
100
AcDbEntity
  8
1
 62
     1
100
AcDbLine
 10
19.02886752691897
 20
-6.507013566230403
 30
0.0
 11
18.97113247308104
 21
-6.509933209994359
 31
0.0
  0
LINE
  5
5BA
330
78B
100
AcDbEntity
  8
1
 62
     1
100
AcDbLine
 10
20.00000000000001
 20
-5.105038949802349
 30
0.0
 11
20.22556300102451
 21
-5.44340244802825
 31
0.0
  0
LINE
  5
5BB
330
78B
100
AcDbEntity
  8
1
 62
     1
100
AcDbLine
 10
20.22556300102451
 20
-5.44340244802825
 30
0.0
 11
20.4645293121415
 21
-5.771817198913661
 31
0.0
  0
LINE
  5
5BC
330
78B
100
AcDbEntity
  8
1
 62
     1
100
AcDbLine
 10
20.4645293121415
 20
-5.771817198913661
 30
0.0
 11
20.97113247308932
 21
-6.400505761014465
 31
0.0
  0
LINE
  5
5BD
330
78B
100
AcDbEntity
  8
1
 62
     1
100
AcDbLine
 10
21.02886752691897
 20
-6.397094823263545
 30
0.0
 11
20.97113247308103
 21
-6.400505760429153
 31
0.0
  0
LINE
  5
5BE
330
78B
100
AcDbEntity
  8
1
 62
     1
100
AcDbLine
 10
22.0
 20
-5.079664103700927
 30
0.0
 11
22.21714056234001
 21
-5.381682791364215
 31
0.0
  0
LINE
  5
5BF
330
78B
100
AcDbEntity
  8
1
 62
     1
100
AcDbLine
 10
22.21714056234001
 20
-5.381682791364215
 30
0.0
 11
22.44684649742281
 21
-5.674437588145492
 31
0.0
  0
LINE
  5
5C0
330
78B
100
AcDbEntity
  8
1
 62
     1
100
AcDbLine
 10
22.44684649742281
 20
-5.674437588145492
 30
0.0
 11
22.93343756363739
 21
-6.233566305618627
 31
0.0
  0
LINE
  5
5C1
330
78B
100
AcDbEntity
  8
1
 62
     1
100
AcDbLine
 10
24.0
 20
-5.040899345337246
 30
0.0
 11
24.28961320017891
 21
-5.404723538559551
 31
0.0
  0
LINE
  5
5C2
330
78B
100
AcDbEntity
  8
1
 62
     1
100
AcDbLine
 10
24.28961320017891
 20
-5.404723538559551
 30
0.0
 11
24.59950977660255
 21
-5.752603873077211
 31
0.0
  0
ARC
  5
5C3
330
78B
100
AcDbEntity
  8
1
 62
     1
100
AcDbCircle
 10
31.19335589483227
 20
-0.7197928694621823
 30
0.0
 40
6.72279366226733
100
AcDbArc
 50
219.4209646991141
 51
223.5552019817544
  0
LINE
  5
5C4
330
78B
100
AcDbEntity
  8
1
 62
     1
100
AcDbLine
 10
27.88660987095721
 20
-5.053623668956923
 30
0.0
 11
28.0
 21
-4.923643959527912
 31
0.0
  0
LINE
  5
5C5
330
78B
100
AcDbEntity
  8
1
 62
     1
100
AcDbLine
 10
44.0
 20
5.097127918819207
 30
0.0
 11
43.94799155966138
 21
5.185716606126382
 31
0.0
  0
LINE
  5
5C6
330
78B
100
AcDbEntity
  8
1
 62
     1
100
AcDbLine
 10
42.05200949379492
 20
5.203009244723413
 30
0.0
 11
42.0
 21
5.114080648523367
 31
0.0
  0
LINE
  5
5C7
330
78B
100
AcDbEntity
  8
1
 62
     1
100
AcDbLine
 10
41.94799067177232
 20
5.203601153732742
 30
0.0
 11
42.0
 21
5.114080648523367
 31
0.0
  0
LINE
  5
5C8
330
78B
100
AcDbEntity
  8
1
 62
     1
100
AcDbLine
 10
39.94799264234172
 20
5.207764176693451
 30
0.0
 11
40.0
 21
5.11755275333932
 31
0.0
  0
LINE
  5
5C9
330
78B
100
AcDbEntity
  8
1
 62
     1
100
AcDbLine
 10
35.9479918107046
 20
5.174941059414902
 30
0.0
 11
36.00000000000001
 21
5.084054146225135
 31
0.0
  0
LINE
  5
5CA
330
78B
100
AcDbEntity
  8
1
 62
     1
100
AcDbLine
 10
34.05200795084244
 20
5.1402903721129
 30
0.0
 11
34.0
 21
5.047171732658804
 31
0.0
  0
LINE
  5
5CB
330
78B
100
AcDbEntity
  8
1
 62
     1
100
AcDbLine
 10
33.9479920358602
 20
5.138036202356245
 30
0.0
 11
34.0
 21
5.047171732658804
 31
0.0
  0
LINE
  5
5CC
330
78B
100
AcDbEntity
  8
1
 62
     1
100
AcDbLine
 10
30.05200818635049
 20
5.027378621238795
 30
0.0
 11
30.0
 21
4.933626494889766
 31
0.0
  0
LINE
  5
5CD
330
78B
100
AcDbEntity
  8
1
 62
     1
100
AcDbLine
 10
29.94799181966435
 20
5.023729371032709
 30
0.0
 11
30.0
 21
4.933626494889766
 31
0.0
  0
LINE
  5
5CE
330
78B
100
AcDbEntity
  8
1
 62
     1
100
AcDbLine
 10
11.02886752691532
 20
6.772949446914988
 30
0.0
 11
11.52125614972248
 21
5.947158285879185
 31
0.0
  0
LINE
  5
5CF
330
78B
100
AcDbEntity
  8
1
 62
     1
100
AcDbLine
 10
13.02886752691533
 20
6.732923331989837
 30
0.0
 11
13.73223268252058
 21
5.581736382396723
 31
0.0
  0
LINE
  5
5D0
330
78B
100
AcDbEntity
  8
1
 62
     1
100
AcDbLine
 10
15.02886752691138
 20
6.675149344644344
 30
0.0
 11
15.90686254127145
 21
5.279268735854491
 31
0.0
  0
LINE
  5
5D1
330
78B
100
AcDbEntity
  8
1
 62
     1
100
AcDbLine
 10
17.02886752691068
 20
6.599779857135393
 30
0.0
 11
17.53673235164164
 21
5.853338231317369
 31
0.0
  0
LINE
  5
5D2
330
78B
100
AcDbEntity
  8
1
 62
     1
100
AcDbLine
 10
17.53673235164164
 20
5.853338231317369
 30
0.0
 11
18.00000000000001
 21
5.11695707015297
 31
0.0
  0
LINE
  5
5D3
330
78B
100
AcDbEntity
  8
1
 62
     1
100
AcDbLine
 10
18.0
 20
5.11695707015297
 30
0.0
 11
18.22556302112239
 21
5.479610404086481
 31
0.0
  0
LINE
  5
5D4
330
78B
100
AcDbEntity
  8
1
 62
     1
100
AcDbLine
 10
18.22556302112239
 20
5.479610404086481
 30
0.0
 11
18.46452934197521
 21
5.832350150508545
 31
0.0
  0
LINE
  5
5D5
330
78B
100
AcDbEntity
  8
1
 62
     1
100
AcDbLine
 10
18.46452934197521
 20
5.832350150508545
 30
0.0
 11
18.97113247308932
 21
6.509933211628868
 31
0.0
  0
LINE
  5
5D6
330
78B
100
AcDbEntity
  8
1
 62
     1
100
AcDbLine
 10
19.02886752691068
 20
6.507013566241704
 30
0.0
 11
19.53673232579021
 21
5.800033809610981
 31
0.0
  0
LINE
  5
5D7
330
78B
100
AcDbEntity
  8
1
 62
     1
100
AcDbLine
 10
19.53673232579021
 20
5.800033809610981
 30
0.0
 11
20.00000000000001
 21
5.105038949802349
 31
0.0
  0
LINE
  5
5D8
330
78B
100
AcDbEntity
  8
1
 62
     1
100
AcDbLine
 10
20.00000000000001
 20
5.105038949802349
 30
0.0
 11
20.22556300102451
 21
5.44340244802825
 31
0.0
  0
LINE
  5
5D9
330
78B
100
AcDbEntity
  8
1
 62
     1
100
AcDbLine
 10
20.22556300102451
 20
5.44340244802825
 30
0.0
 11
20.46452931214149
 21
5.771817198913659
 31
0.0
  0
LINE
  5
5DA
330
78B
100
AcDbEntity
  8
1
 62
     1
100
AcDbLine
 10
20.46452931214149
 20
5.771817198913659
 30
0.0
 11
20.97113247308932
 21
6.400505761014464
 31
0.0
  0
LINE
  5
5DB
330
78B
100
AcDbEntity
  8
1
 62
     1
100
AcDbLine
 10
21.02886752691068
 20
6.397094823274212
 30
0.0
 11
21.53673350783355
 21
5.731439789200819
 31
0.0
  0
LINE
  5
5DC
330
78B
100
AcDbEntity
  8
1
 62
     1
100
AcDbLine
 10
21.53673350783355
 20
5.731439789200819
 30
0.0
 11
22.0
 21
5.079664103700928
 31
0.0
  0
LINE
  5
5DD
330
78B
100
AcDbEntity
  8
1
 62
     1
100
AcDbLine
 10
22.0
 20
5.079664103700928
 30
0.0
 11
22.22556300411029
 21
5.392845907829327
 31
0.0
  0
LINE
  5
5DE
330
78B
100
AcDbEntity
  8
1
 62
     1
100
AcDbLine
 10
22.22556300411029
 20
5.392845907829327
 30
0.0
 11
22.46452931320403
 21
5.69606999091397
 31
0.0
  0
LINE
  5
5DF
330
78B
100
AcDbEntity
  8
1
 62
     1
100
AcDbLine
 10
22.46452931320403
 20
5.69606999091397
 30
0.0
 11
22.97113247308932
 21
6.274206743472685
 31
0.0
  0
LINE
  5
5E0
330
78B
100
AcDbEntity
  8
1
 62
     1
100
AcDbLine
 10
23.02886752691068
 20
6.270313488430715
 30
0.0
 11
24.0
 21
5.040899345337246
 31
0.0
  0
LINE
  5
5E1
330
78B
100
AcDbEntity
  8
1
 62
     1
100
AcDbLine
 10
24.0
 20
5.040899345337246
 30
0.0
 11
24.2255630302601
 21
5.328073963685377
 31
0.0
  0
LINE
  5
5E2
330
78B
100
AcDbEntity
  8
1
 62
     1
100
AcDbLine
 10
24.2255630302601
 20
5.328073963685377
 30
0.0
 11
24.46452935293303
 21
5.605308156568925
 31
0.0
  0
LINE
  5
5E3
330
78B
100
AcDbEntity
  8
1
 62
     1
100
AcDbLine
 10
24.46452935293303
 20
5.605308156568925
 30
0.0
 11
24.71381211206691
 21
5.872967267593651
 31
0.0
  0
LINE
  5
5E4
330
78B
100
AcDbEntity
  8
1
 62
     1
100
AcDbLine
 10
24.71381211206691
 20
5.872967267593651
 30
0.0
 11
24.97113247308932
 21
6.131369195096283
 31
0.0
  0
LINE
  5
5E5
330
78B
100
AcDbEntity
  8
1
 62
     1
100
AcDbLine
 10
25.02886752691068
 20
6.127003887771946
 30
0.0
 11
26.00000000000001
 21
4.988846849908021
 31
0.0
  0
LINE
  5
5E6
330
78B
100
AcDbEntity
  8
1
 62
     1
100
AcDbLine
 10
26.00000000000001
 20
4.988846849908019
 30
0.0
 11
26.22556300846756
 21
5.249257182656332
 31
0.0
  0
LINE
  5
5E7
330
78B
100
AcDbEntity
  8
1
 62
     1
100
AcDbLine
 10
26.22556300846756
 20
5.249257182656332
 30
0.0
 11
26.46452932424444
 21
5.499770637501976
 31
0.0
  0
LINE
  5
5E8
330
78B
100
AcDbEntity
  8
1
 62
     1
100
AcDbLine
 10
26.46452932424444
 20
5.499770637501976
 30
0.0
 11
26.7138120944395
 21
5.740712474989671
 31
0.0
  0
LINE
  5
5E9
330
78B
100
AcDbEntity
  8
1
 62
     1
100
AcDbLine
 10
26.7138120944395
 20
5.740712474989671
 30
0.0
 11
26.97113247308932
 21
5.972369435265414
 31
0.0
  0
LINE
  5
5EA
330
78B
100
AcDbEntity
  8
1
 62
     1
100
AcDbLine
 10
27.02886752691068
 20
5.9675436049335
 30
0.0
 11
28.0
 21
4.923643959527912
 31
0.0
  0
LINE
  5
5EB
330
78B
100
AcDbEntity
  8
1
 62
     1
100
AcDbLine
 10
28.0
 20
4.923643959527912
 30
0.0
 11
28.22556299694401
 21
5.156603582522004
 31
0.0
  0
LINE
  5
5EC
330
78B
100
AcDbEntity
  8
1
 62
     1
100
AcDbLine
 10
28.22556299694401
 20
5.156603582522004
 30
0.0
 11
28.46452930609528
 21
5.379735911105099
 31
0.0
  0
LINE
  5
5ED
330
78B
100
AcDbEntity
  8
1
 62
     1
100
AcDbLine
 10
28.46452930609528
 20
5.379735911105099
 30
0.0
 11
28.71381207871887
 21
5.593325263775964
 31
0.0
  0
LINE
  5
5EE
330
78B
100
AcDbEntity
  8
1
 62
     1
100
AcDbLine
 10
28.71381207871887
 20
5.593325263775964
 30
0.0
 11
28.97113247308933
 21
5.797626507286591
 31
0.0
  0
LINE
  5
5EF
330
78B
100
AcDbEntity
  8
1
 62
     1
100
AcDbLine
 10
29.02886752691068
 20
5.792352855966822
 30
0.0
 11
30.0
 21
4.84546249400213
 31
0.0
  0
LINE
  5
5F0
330
78B
100
AcDbEntity
  8
1
 62
     1
100
AcDbLine
 10
30.0
 20
4.84546249400213
 30
0.0
 11
30.22556316147648
 21
5.050358076495758
 31
0.0
  0
LINE
  5
5F1
330
78B
100
AcDbEntity
  8
1
 62
     1
100
AcDbLine
 10
30.22556316147648
 20
5.050358076495758
 30
0.0
 11
30.46453051134202
 21
5.245521535041567
 31
0.0
  0
LINE
  5
5F2
330
78B
100
AcDbEntity
  8
1
 62
     1
100
AcDbLine
 10
30.46453051134202
 20
5.245521535041567
 30
0.0
 11
30.71381271915818
 21
5.431194917313857
 31
0.0
  0
LINE
  5
5F3
330
78B
100
AcDbEntity
  8
1
 62
     1
100
AcDbLine
 10
30.71381271915818
 20
5.431194917313857
 30
0.0
 11
30.97113247309573
 21
5.607601327501692
 31
0.0
  0
LINE
  5
5F4
330
78B
100
AcDbEntity
  8
1
 62
     1
100
AcDbLine
 10
31.02886752690429
 20
5.601893744534374
 30
0.0
 11
32.0
 21
4.754508342253933
 31
0.0
  0
LINE
  5
5F5
330
78B
100
AcDbEntity
  8
1
 62
     1
100
AcDbLine
 10
32.0
 20
4.754508342253933
 30
0.0
 11
32.22556316422066
 21
4.930799008222114
 31
0.0
  0
LINE
  5
5F6
330
78B
100
AcDbEntity
  8
1
 62
     1
100
AcDbLine
 10
32.22556316422066
 20
4.930799008222114
 30
0.0
 11
32.46453052419655
 21
5.097478791720179
 31
0.0
  0
LINE
  5
5F7
330
78B
100
AcDbEntity
  8
1
 62
     1
100
AcDbLine
 10
32.46453052419655
 20
5.097478791720179
 30
0.0
 11
32.71381273424586
 21
5.254747434716609
 31
0.0
  0
LINE
  5
5F8
330
78B
100
AcDbEntity
  8
1
 62
     1
100
AcDbLine
 10
32.71381273424586
 20
5.254747434716609
 30
0.0
 11
32.97113247309764
 21
5.402794738690388
 31
0.0
  0
LINE
  5
5F9
330
78B
100
AcDbEntity
  8
1
 62
     1
100
AcDbLine
 10
33.02886752690237
 20
5.39666828669228
 30
0.0
 11
34.0
 21
4.651021441865599
 31
0.0
  0
LINE
  5
5FA
330
78B
100
AcDbEntity
  8
1
 62
     1
100
AcDbLine
 10
34.0
 20
4.651021441865598
 30
0.0
 11
34.22556314209645
 21
4.798242393128598
 31
0.0
  0
LINE
  5
5FB
330
78B
100
AcDbEntity
  8
1
 62
     1
100
AcDbLine
 10
34.22556314209645
 20
4.798242393128598
 30
0.0
 11
34.46453049149265
 21
4.935999014976118
 31
0.0
  0
LINE
  5
5FC
330
78B
100
AcDbEntity
  8
1
 62
     1
100
AcDbLine
 10
34.46453049149265
 20
4.935999014976118
 30
0.0
 11
34.71381270602048
 21
5.064448274783412
 31
0.0
  0
LINE
  5
5FD
330
78B
100
AcDbEntity
  8
1
 62
     1
100
AcDbLine
 10
34.71381270602048
 20
5.064448274783412
 30
0.0
 11
34.97113247309764
 21
5.183746244278017
 31
0.0
  0
LINE
  5
5FE
330
78B
100
AcDbEntity
  8
1
 62
     1
100
AcDbLine
 10
35.02886752690237
 20
5.177217089383074
 30
0.0
 11
36.0
 21
4.535274810624603
 31
0.0
  0
LINE
  5
5FF
330
78B
100
AcDbEntity
  8
1
 62
     1
100
AcDbLine
 10
36.0
 20
4.535274810624603
 30
0.0
 11
36.22556314624067
 21
4.653038059839007
 31
0.0
  0
LINE
  5
600
330
78B
100
AcDbEntity
  8
1
 62
     1
100
AcDbLine
 10
36.22556314624067
 20
4.653038059839007
 30
0.0
 11
36.46453049469691
 21
4.761508427323605
 31
0.0
  0
LINE
  5
601
330
78B
100
AcDbEntity
  8
1
 62
     1
100
AcDbLine
 10
36.46453049469691
 20
4.761508427323605
 30
0.0
 11
36.71381270518846
 21
4.860799677349058
 31
0.0
  0
LINE
  5
602
330
78B
100
AcDbEntity
  8
1
 62
     1
100
AcDbLine
 10
36.71381270518846
 20
4.860799677349058
 30
0.0
 11
36.97113247309761
 21
4.951033727627908
 31
0.0
  0
LINE
  5
603
330
78B
100
AcDbEntity
  8
1
 62
     1
100
AcDbLine
 10
37.02886752690237
 20
4.94411904850704
 30
0.0
 11
37.99999999999999
 21
4.407573175476384
 31
0.0
  0
LINE
  5
604
330
78B
100
AcDbEntity
  8
1
 62
     1
100
AcDbLine
 10
37.99999999999999
 20
4.407573175476382
 30
0.0
 11
38.2255631734397
 21
4.49556831577654
 31
0.0
  0
LINE
  5
605
330
78B
100
AcDbEntity
  8
1
 62
     1
100
AcDbLine
 10
38.2255631734397
 20
4.49556831577654
 30
0.0
 11
38.46453053334428
 21
4.574466495292806
 31
0.0
  0
LINE
  5
606
330
78B
100
AcDbEntity
  8
1
 62
     1
100
AcDbLine
 10
38.46453053334428
 20
4.574466495292806
 30
0.0
 11
38.71381273031943
 21
4.644337933241066
 31
0.0
  0
LINE
  5
607
330
78B
100
AcDbEntity
  8
1
 62
     1
100
AcDbLine
 10
38.71381273031943
 20
4.644337933241066
 30
0.0
 11
38.97113247309763
 21
4.705270076079845
 31
0.0
  0
LINE
  5
608
330
78B
100
AcDbEntity
  8
1
 62
     1
100
AcDbLine
 10
39.02886752690237
 20
4.697988064374712
 30
0.0
 11
40.0
 21
4.268252310680436
 31
0.0
  0
LINE
  5
609
330
78B
100
AcDbEntity
  8
1
 62
     1
100
AcDbLine
 10
40.0
 20
4.268252310680436
 30
0.0
 11
40.225563134598
 21
4.326247343296473
 31
0.0
  0
LINE
  5
60A
330
78B
100
AcDbEntity
  8
1
 62
     1
100
AcDbLine
 10
40.225563134598
 20
4.326247343296473
 30
0.0
 11
40.46453047986049
 21
4.375365517797807
 31
0.0
  0
LINE
  5
60B
330
78B
100
AcDbEntity
  8
1
 62
     1
100
AcDbLine
 10
40.46453047986049
 20
4.375365517797807
 30
0.0
 11
40.71381269220927
 21
4.415633392467587
 31
0.0
  0
LINE
  5
60C
330
78B
100
AcDbEntity
  8
1
 62
     1
100
AcDbLine
 10
40.71381269220927
 20
4.415633392467587
 30
0.0
 11
40.97113247309763
 21
4.447103676817457
 31
0.0
  0
LINE
  5
60D
330
78B
100
AcDbEntity
  8
1
 62
     1
100
AcDbLine
 10
41.02886752690237
 20
4.439473697501523
 30
0.0
 11
42.0
 21
4.117683659897808
 31
0.0
  0
LINE
  5
60E
330
78B
100
AcDbEntity
  8
1
 62
     1
100
AcDbLine
 10
42.0
 20
4.117683659897808
 30
0.0
 11
42.22556319601567
 21
4.145526213668604
 31
0.0
  0
LINE
  5
60F
330
78B
100
AcDbEntity
  8
1
 62
     1
100
AcDbLine
 10
42.22556319601567
 20
4.145526213668604
 30
0.0
 11
42.4645305739556
 21
4.164735152404519
 31
0.0
  0
LINE
  5
610
330
78B
100
AcDbEntity
  8
1
 62
     1
100
AcDbLine
 10
42.4645305739556
 20
4.164735152404519
 30
0.0
 11
42.71381277003857
 21
4.17529319070628
 31
0.0
  0
LINE
  5
611
330
78B
100
AcDbEntity
  8
1
 62
     1
100
AcDbLine
 10
42.71381277003857
 20
4.17529319070628
 30
0.0
 11
42.97113247309764
 21
4.177218095710297
 31
0.0
  0
ARC
  5
612
330
78B
100
AcDbEntity
  8
1
 62
     1
100
AcDbCircle
 10
46.01837079905227
 20
15.47457066772875
 30
0.0
 40
11.69382857763747
100
AcDbArc
 50
255.1881034569941
 51
260.0608878508104
  0
LINE
  5
613
330
78B
100
AcDbEntity
  8
1
 62
     1
100
AcDbLine
 10
44.0
 20
-0.461193215142807
 30
0.0
 11
43.94799155966138
 21
-0.4815936668455155
 31
0.0
  0
LINE
  5
614
330
78B
100
AcDbEntity
  8
1
 62
     1
100
AcDbLine
 10
41.94799067177232
 20
-0.2148027709448631
 30
0.0
 11
42.0
 21
-0.1989756841897916
 31
0.0
  0
LINE
  5
615
330
78B
100
AcDbEntity
  8
1
 62
     1
100
AcDbLine
 10
39.94799264234172
 20
0.0525540308988847
 30
0.0
 11
40.0
 21
0.0637653455189007
 31
0.0
  0
LINE
  5
616
330
78B
100
AcDbEntity
  8
1
 62
     1
100
AcDbLine
 10
38.0520082482424
 20
0.3058897302848679
 30
0.0
 11
38.0
 21
0.3263390877944423
 31
0.0
  0
LINE
  5
617
330
78B
100
AcDbEntity
  8
1
 62
     1
100
AcDbLine
 10
36.05200818209106
 20
0.5723264932532855
 30
0.0
 11
36.0
 21
0.5880524132685802
 31
0.0
  0
LINE
  5
618
330
78B
100
AcDbEntity
  8
1
 62
     1
100
AcDbLine
 10
35.9479918107046
 20
0.586148173652807
 30
0.0
 11
36.00000000000001
 21
0.5880524132685787
 31
0.0
  0
LINE
  5
619
330
78B
100
AcDbEntity
  8
1
 62
     1
100
AcDbLine
 10
33.9479920358602
 20
0.8509785961514138
 30
0.0
 11
33.99816826877375
 21
0.8484583167782705
 31
0.0
  0
LINE
  5
61A
330
78B
100
AcDbEntity
  8
1
 62
     1
100
AcDbLine
 10
30.05200818635052
 20
1.359797336177815
 30
0.0
 11
29.99999999999999
 21
1.361154587628357
 31
0.0
  0
LINE
  5
61B
330
78B
100
AcDbEntity
  8
1
 62
     1
100
AcDbLine
 10
28.05200805295483
 20
1.616034507744348
 30
0.0
 11
28.00000000000001
 21
1.612578180751027
 31
0.0
  0
LINE
  5
61C
330
78B
100
AcDbEntity
  8
1
 62
     1
100
AcDbLine
 10
26.05200798772477
 20
1.868011841003456
 30
0.0
 11
26.0
 21
1.859751047516071
 31
0.0
  0
LINE
  5
61D
330
78B
100
AcDbEntity
  8
1
 62
     1
100
AcDbLine
 10
24.05200812794667
 20
2.115065255400498
 30
0.0
 11
24.0
 21
2.10202171526394
 31
0.0
  0
LINE
  5
61E
330
78B
100
AcDbEntity
  8
1
 62
     1
100
AcDbLine
 10
22.052008147634
 20
2.356543365538588
 30
0.0
 11
22.00000000000001
 21
2.33875149409169
 31
0.0
  0
LINE
  5
61F
330
78B
100
AcDbEntity
  8
1
 62
     1
100
AcDbLine
 10
20.05200799618935
 20
2.591809545773934
 30
0.0
 11
20.00000000000001
 21
2.569316320122073
 31
0.0
  0
LINE
  5
620
330
78B
100
AcDbEntity
  8
1
 62
     1
100
AcDbLine
 10
18.05200803340826
 20
2.820243898135316
 30
0.0
 11
18.0
 21
2.793108520882712
 31
0.0
  0
LINE
  5
621
330
78B
100
AcDbEntity
  8
1
 62
     1
100
AcDbLine
 10
15.94799182474848
 20
3.052523727041328
 30
0.0
 11
16.00000000000001
 21
3.009538199755704
 31
0.0
  0
LINE
  5
622
330
78B
100
AcDbEntity
  8
1
 62
     1
100
AcDbLine
 10
13.94799189744838
 20
3.265074774531266
 30
0.0
 11
14.00000000000001
 21
3.218034756252048
 31
0.0
  0
LINE
  5
623
330
78B
100
AcDbEntity
  8
1
 62
     1
100
AcDbLine
 10
11.94799206140784
 20
3.469019006994578
 30
0.0
 11
12.00000000000001
 21
3.418048606896093
 31
0.0
  0
LINE
  5
624
330
78B
100
AcDbEntity
  8
1
 62
     1
100
AcDbLine
 10
9.947991835970446
 20
3.66381951310044
 30
0.0
 11
10.0
 21
3.609052674881158
 31
0.0
  0
LINE
  5
625
330
78B
100
AcDbEntity
  8
1
 62
     1
100
AcDbLine
 10
9.599999999999999
 20
0.4026456774133044
 30
0.0
 11
9.599999999999999
 21
2.102126288799384
 31
0.0
  0
LINE
  5
626
330
78B
100
AcDbEntity
  8
1
 62
     1
100
AcDbLine
 10
9.599999999999999
 20
0.4026456774133079
 30
0.0
 11
9.805521657818992
 21
0.6698782492996215
 31
0.0
  0
LINE
  5
627
330
78B
100
AcDbEntity
  8
1
 62
     1
100
AcDbLine
 10
9.805521657818992
 20
0.6698782492996215
 30
0.0
 11
10.0
 21
0.9449059118771652
 31
0.0
  0
LINE
  5
628
330
78B
100
AcDbEntity
  8
1
 62
     1
100
AcDbLine
 10
12.0
 20
0.6854978304752009
 30
0.0
 11
12.97113247308468
 21
-0.9427746419477875
 31
0.0
  0
LINE
  5
629
330
78B
100
AcDbEntity
  8
1
 62
     1
100
AcDbLine
 10
19.02886752691067
 20
-1.974531450481759
 30
0.0
 11
19.53673232579021
 21
-1.187512021100467
 31
0.0
  0
LINE
  5
62A
330
78B
100
AcDbEntity
  8
1
 62
     1
100
AcDbLine
 10
19.53673232579021
 20
-1.187512021100467
 30
0.0
 11
19.77543139338299
 21
-0.780383594477848
 31
0.0
  0
LINE
  5
62B
330
78B
100
AcDbEntity
  8
1
 62
     1
100
AcDbLine
 10
19.77543139338299
 20
-0.780383594477848
 30
0.0
 11
20.0
 21
-0.3633036243983085
 31
0.0
  0
LINE
  5
62C
330
78B
100
AcDbEntity
  8
1
 62
     1
100
AcDbLine
 10
24.00000000000001
 20
-0.884729333004458
 30
0.0
 11
24.97113247308933
 21
-2.940461153224029
 31
0.0
  0
LINE
  5
62D
330
78B
100
AcDbEntity
  8
1
 62
     1
100
AcDbLine
 10
25.02886752691897
 20
-2.949546295427322
 30
0.0
 11
24.97113247308104
 21
-2.940461153207658
 31
0.0
  0
LINE
  5
62E
330
78B
100
AcDbEntity
  8
1
 62
     1
100
AcDbLine
 10
26.00000000000001
 20
-1.142286877567457
 30
0.0
 11
26.97113247308932
 21
-3.251277184262006
 31
0.0
  0
LINE
  5
62F
330
78B
100
AcDbEntity
  8
1
 62
     1
100
AcDbLine
 10
27.02886752691896
 20
-3.260126274235373
 30
0.0
 11
26.97113247308105
 21
-3.251277184245254
 31
0.0
  0
LINE
  5
630
330
78B
100
AcDbEntity
  8
1
 62
     1
100
AcDbLine
 10
27.02886752691068
 20
-3.26012627415143
 30
0.0
 11
27.53673232499703
 21
-2.345462119325306
 31
0.0
  0
LINE
  5
631
330
78B
100
AcDbEntity
  8
1
 62
     1
100
AcDbLine
 10
27.53673232499703
 20
-2.345462119325306
 30
0.0
 11
27.99999999999999
 21
-1.396832975807879
 31
0.0
  0
LINE
  5
632
330
78B
100
AcDbEntity
  8
1
 62
     1
100
AcDbLine
 10
28.0
 20
-1.396832975807877
 30
0.0
 11
28.97113247308933
 21
-3.553523164720203
 31
0.0
  0
LINE
  5
633
330
78B
100
AcDbEntity
  8
1
 62
     1
100
AcDbLine
 10
29.02886752691897
 20
-3.562112911189632
 30
0.0
 11
28.97113247308105
 21
-3.553523163502851
 31
0.0
  0
LINE
  5
634
330
78B
100
AcDbEntity
  8
1
 62
     1
100
AcDbLine
 10
30.0
 20
-1.647697005434749
 30
0.0
 11
30.97113247309573
 21
-3.846401870858938
 31
0.0
  0
LINE
  5
635
330
78B
100
AcDbEntity
  8
1
 62
     1
100
AcDbLine
 10
31.02886752691897
 20
-3.854709648610011
 30
0.0
 11
30.97113247308105
 21
-3.846401870777922
 31
0.0
  0
LINE
  5
636
330
78B
100
AcDbEntity
  8
1
 62
     1
100
AcDbLine
 10
34.0
 20
-2.135746181035196
 30
0.0
 11
34.46453049149265
 21
-3.272980013441893
 31
0.0
  0
LINE
  5
637
330
78B
100
AcDbEntity
  8
1
 62
     1
100
AcDbLine
 10
34.46453049149265
 20
-3.272980013441893
 30
0.0
 11
34.97113247309764
 21
-4.400997031960422
 31
0.0
  0
LINE
  5
638
330
78B
100
AcDbEntity
  8
1
 62
     1
100
AcDbLine
 10
35.02886752691897
 20
-4.408675901880788
 30
0.0
 11
34.97113247308103
 21
-4.40099703192462
 31
0.0
  0
LINE
  5
639
330
78B
100
AcDbEntity
  8
1
 62
     1
100
AcDbLine
 10
35.02886752690237
 20
-4.408675902103807
 30
0.0
 11
35.53673137515811
 21
-3.404817669073923
 31
0.0
  0
LINE
  5
63A
330
78B
100
AcDbEntity
  8
1
 62
     1
100
AcDbLine
 10
35.53673137515811
 20
-3.404817669073923
 30
0.0
 11
36.0
 21
-2.371643859143689
 31
0.0
  0
LINE
  5
63B
330
78B
100
AcDbEntity
  8
1
 62
     1
100
AcDbLine
 10
36.0
 20
-2.371643859143687
 30
0.0
 11
36.46453049469692
 21
-3.522005392737142
 31
0.0
  0
LINE
  5
63C
330
78B
100
AcDbEntity
  8
1
 62
     1
100
AcDbLine
 10
36.46453049469692
 20
-3.522005392737142
 30
0.0
 11
36.97113247309761
 21
-4.661251444438694
 31
0.0
  0
LINE
  5
63D
330
78B
100
AcDbEntity
  8
1
 62
     1
100
AcDbLine
 10
40.0
 20
-2.824081162939744
 30
0.0
 11
40.46453047986049
 21
-3.991573716187719
 31
0.0
  0
LINE
  5
63E
330
78B
100
AcDbEntity
  8
1
 62
     1
100
AcDbLine
 10
40.46453047986049
 20
-3.991573716187719
 30
0.0
 11
40.97113247309761
 21
-5.144246192400549
 31
0.0
  0
LINE
  5
63F
330
78B
100
AcDbEntity
  8
1
 62
     1
100
AcDbLine
 10
41.02886752691897
 20
-5.150832290925995
 30
0.0
 11
40.97113247308103
 21
-5.144246192281913
 31
0.0
  0
LINE
  5
640
330
78B
100
AcDbEntity
  8
1
 62
     1
100
AcDbLine
 10
42.0
 20
-3.039423214939073
 30
0.0
 11
42.4645305739556
 21
-4.210874869591108
 31
0.0
  0
LINE
  5
641
330
78B
100
AcDbEntity
  8
1
 62
     1
100
AcDbLine
 10
42.4645305739556
 20
-4.210874869591108
 30
0.0
 11
42.97113247309763
 21
-5.365710482430201
 31
0.0
  0
LINE
  5
642
330
78B
100
AcDbEntity
  8
1
 62
     1
100
AcDbLine
 10
43.02886752691896
 20
-5.37189636033253
 30
0.0
 11
42.97113247308103
 21
-5.365710480276485
 31
0.0
  0
LINE
  5
643
330
78B
100
AcDbEntity
  8
1
 62
     1
100
AcDbLine
 10
44.0
 20
-1.42745936403142
 30
0.0
 11
44.0
 21
-3.246758626918401
 31
0.0
  0
LINE
  5
644
330
78B
100
AcDbEntity
  8
1
 62
     1
100
AcDbLine
 10
9.947991835970439
 20
-3.701352559469917
 30
0.0
 11
9.599999999999999
 21
-4.202738744413529
 31
0.0
  0
LINE
  5
645
330
78B
100
AcDbEntity
  8
1
 62
     1
100
AcDbLine
 10
9.947991835970439
 20
3.663819513100441
 30
0.0
 11
9.599999999999999
 21
4.012734110192877
 31
0.0
  0
LINE
  5
646
330
78B
100
AcDbEntity
  8
1
 62
     1
100
AcDbLine
 10
9.947991835970446
 20
-3.701352559469917
 30
0.0
 11
9.999999999999996
 21
-3.628794702436767
 31
0.0
  0
LINE
  5
647
330
78B
100
AcDbEntity
  8
1
 62
     1
100
AcDbLine
 10
10.0
 20
-3.628794702436767
 30
0.0
 11
10.0
 21
0.9449059118771662
 31
0.0
  0
LINE
  5
648
330
78B
100
AcDbEntity
  8
1
 62
     1
100
AcDbLine
 10
10.0
 20
-5.11795
 30
0.0
 11
10.0
 21
-5.117929889531104
 31
0.0
  0
LINE
  5
649
330
78B
100
AcDbEntity
  8
1
 62
     1
100
AcDbLine
 10
10.0
 20
-5.117929889531104
 30
0.0
 11
9.999999999999998
 21
-5.11203198305696
 31
0.0
  0
LINE
  5
64A
330
78B
100
AcDbEntity
  8
1
 62
     1
100
AcDbLine
 10
9.999999999999998
 20
-5.11203198305696
 30
0.0
 11
10.0
 21
-5.029966701698888
 31
0.0
  0
LINE
  5
64B
330
78B
100
AcDbEntity
  8
1
 62
     1
100
AcDbLine
 10
10.0
 20
-5.029966701698888
 30
0.0
 11
9.599999999999999
 21
-5.796802950882527
 31
0.0
  0
LINE
  5
64C
330
78B
100
AcDbEntity
  8
1
 62
     1
100
AcDbLine
 10
10.0
 20
-5.11795
 30
0.0
 11
9.599999999999999
 21
-5.810770000000001
 31
0.0
  0
LINE
  5
64D
330
78B
100
AcDbEntity
  8
1
 62
     1
100
AcDbLine
 10
9.599999999999999
 20
-5.810770000000001
 30
0.0
 11
9.599999999999999
 21
-5.79680295088253
 31
0.0
  0
LINE
  5
64E
330
78B
100
AcDbEntity
  8
1
 62
     1
100
AcDbLine
 10
9.599999999999999
 20
-5.796802950882527
 30
0.0
 11
9.599999999999999
 21
-4.20273874441353
 31
0.0
  0
LINE
  5
64F
330
78B
100
AcDbEntity
  8
1
 62
     1
100
AcDbLine
 10
9.599999999999999
 20
-4.202738744413529
 30
0.0
 11
9.599999999999999
 21
0.4026456774133055
 31
0.0
  0
LINE
  5
650
330
78B
100
AcDbEntity
  8
1
 62
     1
100
AcDbLine
 10
9.599999999999999
 20
2.102126288799384
 30
0.0
 11
9.599999999999999
 21
3.696741590322961
 31
0.0
  0
LINE
  5
651
330
78B
100
AcDbEntity
  8
1
 62
     1
100
AcDbLine
 10
9.599999999999999
 20
3.696741590322969
 30
0.0
 11
9.599999999999999
 21
4.012734110192877
 31
0.0
  0
LINE
  5
652
330
78B
100
AcDbEntity
  8
1
 62
     1
100
AcDbLine
 10
9.599999999999999
 20
4.012734110192876
 30
0.0
 11
9.599999999999999
 21
5.810770000000001
 31
0.0
  0
ARC
  5
653
330
78B
100
AcDbEntity
  8
1
 62
     1
100
AcDbCircle
 10
28.7637789533589
 20
-9.948001697188134
 30
0.0
 40
11.3811222713778
100
AcDbArc
 50
78.81669389616931
 51
81.71503878912004
  0
LINE
  5
654
330
78B
100
AcDbEntity
  8
1
 62
     1
100
AcDbLine
 10
44.0
 20
5.11795
 30
0.0
 11
43.02886752690237
 21
6.800000000028743
 31
0.0
  0
LINE
  5
655
330
78B
100
AcDbEntity
  8
1
 62
     1
100
AcDbLine
 10
16.08041209864807
 20
5.257227775883167
 30
0.0
 11
16.50925973760531
 21
5.945026622358757
 31
0.0
  0
LINE
  5
656
330
78B
100
AcDbEntity
  8
1
 62
     1
100
AcDbLine
 10
16.50925973760531
 20
5.945026622358757
 30
0.0
 11
16.97113247308932
 21
6.602200510089765
 31
0.0
  0
LINE
  5
657
330
78B
100
AcDbEntity
  8
1
 62
     1
100
AcDbLine
 10
16.08041209882984
 20
5.257227775778219
 30
0.0
 11
16.0
 21
5.117949999999999
 31
0.0
  0
LINE
  5
658
330
78B
100
AcDbEntity
  8
1
 62
     1
100
AcDbLine
 10
12.0
 20
5.11795
 30
0.0
 11
11.52125614971989
 21
5.947158285877684
 31
0.0
  0
LINE
  5
659
330
78B
100
AcDbEntity
  8
1
 62
     1
100
AcDbLine
 10
12.3912231963613
 20
5.795568137336295
 30
0.0
 11
12.97113247308468
 21
6.734328175444539
 31
0.0
  0
LINE
  5
65A
330
78B
100
AcDbEntity
  8
1
 62
     1
100
AcDbLine
 10
12.39122319639539
 20
5.795568137316633
 30
0.0
 11
12.0
 21
5.11795
 31
0.0
  0
LINE
  5
65B
330
78B
100
AcDbEntity
  8
1
 62
     1
100
AcDbLine
 10
14.22554201573629
 20
5.50860004838244
 30
0.0
 11
14.58802820149228
 21
6.102939759895482
 31
0.0
  0
LINE
  5
65C
330
78B
100
AcDbEntity
  8
1
 62
     1
100
AcDbLine
 10
14.58802820149228
 20
6.102939759895482
 30
0.0
 11
14.97113247308862
 21
6.677064615304145
 31
0.0
  0
LINE
  5
65D
330
78B
100
AcDbEntity
  8
1
 62
     1
100
AcDbLine
 10
14.22554201574772
 20
5.50860004837584
 30
0.0
 11
14.00000000000001
 21
5.11795
 31
0.0
  0
LINE
  5
65E
330
78B
100
AcDbEntity
  8
1
 62
     1
100
AcDbLine
 10
16.0
 20
5.11795
 30
0.0
 11
15.90686254107066
 21
5.279268735738564
 31
0.0
  0
LINE
  5
65F
330
78B
100
AcDbEntity
  8
1
 62
     1
100
AcDbLine
 10
14.00000000000001
 20
5.11795
 30
0.0
 11
13.73223268245282
 21
5.581736382357602
 31
0.0
  0
LINE
  5
660
330
78B
100
AcDbEntity
  8
1
 62
     1
100
AcDbLine
 10
10.58070651339011
 20
6.123762716753951
 30
0.0
 11
10.97113247308469
 21
6.773840167203416
 31
0.0
  0
LINE
  5
661
330
78B
100
AcDbEntity
  8
1
 62
     1
100
AcDbLine
 10
10.58070651349257
 20
6.123762716694791
 30
0.0
 11
10.0
 21
5.11795
 31
0.0
  0
LINE
  5
662
330
78B
100
AcDbEntity
  8
1
 62
     1
100
AcDbLine
 10
42.0
 20
5.11795
 30
0.0
 11
41.02886752690237
 21
6.800000000028743
 31
0.0
  0
LINE
  5
663
330
78B
100
AcDbEntity
  8
1
 62
     1
100
AcDbLine
 10
42.97113247309763
 20
6.800000000028745
 30
0.0
 11
42.0
 21
5.11795
 31
0.0
  0
LINE
  5
664
330
78B
100
AcDbEntity
  8
1
 62
     1
100
AcDbLine
 10
38.6544415125604
 20
6.251475422693896
 30
0.0
 11
38.65445473086977
 21
6.251498317462664
 31
0.0
  0
LINE
  5
665
330
78B
100
AcDbEntity
  8
1
 62
     1
100
AcDbLine
 10
38.65445473086978
 20
6.251498317462665
 30
0.0
 11
38.97113247309763
 21
6.797798537298751
 31
0.0
  0
LINE
  5
666
330
78B
100
AcDbEntity
  8
1
 62
     1
100
AcDbLine
 10
38.97113247309763
 20
6.800000000028743
 30
0.0
 11
38.65444151293438
 21
6.251475422477981
 31
0.0
  0
LINE
  5
667
330
78B
100
AcDbEntity
  8
1
 62
     1
100
AcDbLine
 10
39.7678172795353
 20
5.520102088624238
 30
0.0
 11
39.7677866552129
 21
5.52015513148137
 31
0.0
  0
LINE
  5
668
330
78B
100
AcDbEntity
  8
1
 62
     1
100
AcDbLine
 10
39.76778665521289
 20
5.52015513148137
 30
0.0
 11
39.02886752690237
 21
6.797534610096597
 31
0.0
  0
LINE
  5
669
330
78B
100
AcDbEntity
  8
1
 62
     1
100
AcDbLine
 10
39.76781727622564
 20
5.520102086713393
 30
0.0
 11
39.02886752690237
 21
6.800000000028745
 31
0.0
  0
LINE
  5
66A
330
78B
100
AcDbEntity
  8
1
 62
     1
100
AcDbLine
 10
40.1191908952286
 20
5.324394590190608
 30
0.0
 11
40.11920259360311
 21
5.324414852356508
 31
0.0
  0
LINE
  5
66B
330
78B
100
AcDbEntity
  8
1
 62
     1
100
AcDbLine
 10
40.11920259360313
 20
5.324414852356509
 30
0.0
 11
40.97113247309763
 21
6.779959021452259
 31
0.0
  0
LINE
  5
66C
330
78B
100
AcDbEntity
  8
1
 62
     1
100
AcDbLine
 10
40.97113247309763
 20
6.800000000028744
 30
0.0
 11
40.11919089527618
 21
5.32439459016313
 31
0.0
  0
LINE
  5
66D
330
78B
100
AcDbEntity
  8
1
 62
     1
100
AcDbLine
 10
42.97113247308103
 20
-6.799999999999998
 30
0.0
 11
43.02886752691896
 21
-6.799999999999998
 31
0.0
  0
LINE
  5
66E
330
78B
100
AcDbEntity
  8
1
 62
     1
100
AcDbLine
 10
40.97113247308103
 20
-6.799999999999998
 30
0.0
 11
41.02886752691897
 21
-6.799999999999998
 31
0.0
  0
LINE
  5
66F
330
78B
100
AcDbEntity
  8
1
 62
     1
100
AcDbLine
 10
38.97113247308103
 20
-6.799999999999998
 30
0.0
 11
39.02886752691897
 21
-6.799999999999998
 31
0.0
  0
LINE
  5
670
330
78B
100
AcDbEntity
  8
1
 62
     1
100
AcDbLine
 10
44.0
 20
-0.4611932151428083
 30
0.0
 11
44.0
 21
-1.42745936403142
 31
0.0
  0
ARC
  5
671
330
78B
100
AcDbEntity
  8
1
 62
     1
100
AcDbCircle
 10
33.96179218981663
 20
0.5395968210501952
 30
0.0
 40
0.3109748982303083
100
AcDbArc
 50
82.61180386863566
 51
82.94254352150899
  0
LINE
  5
672
330
78B
100
AcDbEntity
  8
1
 62
     1
100
AcDbLine
 10
33.99816826877375
 20
0.8484583167782705
 30
0.0
 11
33.99816992145524
 21
0.8484581024951108
 31
0.0
  0
ARC
  5
673
330
78B
100
AcDbEntity
  8
1
 62
     1
100
AcDbCircle
 10
33.95577711254107
 20
0.5215090897245207
 30
0.0
 40
0.329685922106716
100
AcDbArc
 50
82.29131411483981
 51
82.6121421246462
  0
LINE
  5
674
330
78B
100
AcDbEntity
  8
1
 62
     1
100
AcDbLine
 10
32.02943308834607
 20
1.103764552247278
 30
0.0
 11
32.0
 21
1.106142952855807
 31
0.0
  0
LINE
  5
675
330
78B
100
AcDbEntity
  8
1
 62
     1
100
AcDbLine
 10
32.02943519946953
 20
1.103764639784307
 30
0.0
 11
32.02943313440384
 21
1.103764907508979
 31
0.0
  0
LINE
  5
676
330
78B
100
AcDbEntity
  8
1
 62
     1
100
AcDbLine
 10
31.96973419751548
 20
1.111504080192782
 30
0.0
 11
32.0
 21
1.106142952855805
 31
0.0
  0
LINE
  5
677
330
78B
100
AcDbEntity
  8
1
 62
     1
100
AcDbLine
 10
31.96973423651985
 20
1.111504381062005
 30
0.0
 11
31.96973187880885
 21
1.111504686713197
 31
0.0
  0
LINE
  5
678
330
78B
100
AcDbEntity
  8
1
 62
     1
100
AcDbLine
 10
10.0
 20
5.11795
 30
0.0
 11
9.599999999999987
 21
5.810770000000023
 31
0.0
  0
LINE
  5
679
330
78B
100
AcDbEntity
  8
SK1
100
AcDbLine
 10
-47.09999999999999
 20
9.0
 30
0.0
 11
-48.0
 21
8.099999999999999
 31
0.0
  0
LINE
  5
67A
330
78B
100
AcDbEntity
  8
SK1
100
AcDbLine
 10
-48.0
 20
8.099999999999999
 30
0.0
 11
-48.0
 21
8.091947034315925
 31
0.0
  0
LINE
  5
67B
330
78B
100
AcDbEntity
  8
SK1
100
AcDbLine
 10
-48.0
 20
8.091947034315925
 30
0.0
 11
-48.0
 21
7.3732144408297
 31
0.0
  0
LINE
  5
67C
330
78B
100
AcDbEntity
  8
SK1
100
AcDbLine
 10
-48.0
 20
7.3732144408297
 30
0.0
 11
-48.0
 21
-8.099999999999999
 31
0.0
  0
LINE
  5
67D
330
78B
100
AcDbEntity
  8
SK1
100
AcDbLine
 10
-19.0
 20
-5.400000000000074
 30
0.0
 11
-19.0
 21
5.40000000000012
 31
0.0
  0
LINE
  5
67E
330
78B
100
AcDbEntity
  8
SK1
100
AcDbLine
 10
-17.16830669265018
 20
-0.0000012528518177
 30
0.0
 11
-17.17550508078502
 21
-0.3567618457492561
 31
0.0
  0
LINE
  5
67F
330
78B
100
AcDbEntity
  8
SK1
100
AcDbLine
 10
-17.17550508078502
 20
-0.3567618457492561
 30
0.0
 11
-17.19725191461395
 21
-0.7149754848450483
 31
0.0
  0
LINE
  5
680
330
78B
100
AcDbEntity
  8
SK1
100
AcDbLine
 10
-17.19725191461395
 20
-0.7149754848450483
 30
0.0
 11
-17.23372513794683
 21
-1.073789891521591
 31
0.0
  0
LINE
  5
681
330
78B
100
AcDbEntity
  8
SK1
100
AcDbLine
 10
-17.23372513794683
 20
-1.073789891521591
 30
0.0
 11
-17.28503394820268
 21
-1.432333117347998
 31
0.0
  0
LINE
  5
682
330
78B
100
AcDbEntity
  8
SK1
100
AcDbLine
 10
-17.28503394820268
 20
-1.432333117347998
 30
0.0
 11
-17.35121635105225
 21
-1.789720249702238
 31
0.0
  0
LINE
  5
683
330
78B
100
AcDbEntity
  8
SK1
100
AcDbLine
 10
-17.35121635105225
 20
-1.789720249702238
 30
0.0
 11
-17.43223753214081
 21
-2.145060442438588
 31
0.0
  0
LINE
  5
684
330
78B
100
AcDbEntity
  8
SK1
100
AcDbLine
 10
-17.43223753214081
 20
-2.145060442438588
 30
0.0
 11
-17.52798909519097
 21
-2.497464158571011
 31
0.0
  0
LINE
  5
685
330
78B
100
AcDbEntity
  8
SK1
100
AcDbLine
 10
-17.52798909519097
 20
-2.497464158571011
 30
0.0
 11
-17.63828919712045
 21
-2.846050504081156
 31
0.0
  0
LINE
  5
686
330
78B
100
AcDbEntity
  8
SK1
100
AcDbLine
 10
-17.63828919712045
 20
-2.846050504081156
 30
0.0
 11
-17.76288359075352
 21
-3.189954527474229
 31
0.0
  0
LINE
  5
687
330
78B
100
AcDbEntity
  8
SK1
100
AcDbLine
 10
-17.76288359075352
 20
-3.189954527474229
 30
0.0
 11
-17.90144756496567
 21
-3.528334358845726
 31
0.0
  0
LINE
  5
688
330
78B
100
AcDbEntity
  8
SK1
100
AcDbLine
 10
-17.90144756496567
 20
-3.528334358845726
 30
0.0
 11
-18.05358875143106
 21
-3.86037806507845
 31
0.0
  0
LINE
  5
689
330
78B
100
AcDbEntity
  8
SK1
100
AcDbLine
 10
-18.05358875143106
 20
-3.86037806507845
 30
0.0
 11
-18.21885074730541
 21
-4.185310104287456
 31
0.0
  0
LINE
  5
68A
330
78B
100
AcDbEntity
  8
SK1
100
AcDbLine
 10
-18.21885074730541
 20
-4.185310104287456
 30
0.0
 11
-18.39671748489653
 21
-4.502397272532383
 31
0.0
  0
LINE
  5
68B
330
78B
100
AcDbEntity
  8
SK1
100
AcDbLine
 10
-18.39671748489653
 20
-4.502397272532383
 30
0.0
 11
-18.58661826330919
 21
-4.810954048733349
 31
0.0
  0
LINE
  5
68C
330
78B
100
AcDbEntity
  8
SK1
100
AcDbLine
 10
-18.58661826330919
 20
-4.810954048733349
 30
0.0
 11
-18.78793334374417
 21
-5.110347259140233
 31
0.0
  0
LINE
  5
68D
330
78B
100
AcDbEntity
  8
SK1
100
AcDbLine
 10
-18.78793334374417
 20
-5.110347259140233
 30
0.0
 11
-18.99999999999999
 21
-5.400000000000074
 31
0.0
  0
LINE
  5
68E
330
78B
100
AcDbEntity
  8
SK1
100
AcDbLine
 10
-29.0
 20
-5.400000000000036
 30
0.0
 11
-29.0
 21
5.40000000000007
 31
0.0
  0
LINE
  5
68F
330
78B
100
AcDbEntity
  8
SK1
100
AcDbLine
 10
-29.0
 20
5.40000000000007
 30
0.0
 11
-29.20207292714536
 21
5.124555160142417
 31
0.0
  0
LINE
  5
690
330
78B
100
AcDbEntity
  8
SK1
100
AcDbLine
 10
-29.20207292714536
 20
5.124555160142417
 30
0.0
 11
-29.39564575438756
 21
4.838400000000065
 31
0.0
  0
LINE
  5
691
330
78B
100
AcDbEntity
  8
SK1
100
AcDbLine
 10
-29.39564575438756
 20
4.838400000000065
 30
0.0
 11
-29.57994980172056
 21
4.541852001617534
 31
0.0
  0
LINE
  5
692
330
78B
100
AcDbEntity
  8
SK1
100
AcDbLine
 10
-29.57994980172056
 20
4.541852001617534
 30
0.0
 11
-29.75422665596759
 21
4.235294117647121
 31
0.0
  0
LINE
  5
693
330
78B
100
AcDbEntity
  8
SK1
100
AcDbLine
 10
-29.75422665596759
 20
4.235294117647121
 30
0.0
 11
-29.91773499729075
 21
3.919175257732019
 31
0.0
  0
LINE
  5
694
330
78B
100
AcDbEntity
  8
SK1
100
AcDbLine
 10
-29.91773499729075
 20
3.919175257732019
 30
0.0
 11
-30.06975765537404
 21
3.594009983361122
 31
0.0
  0
LINE
  5
695
330
78B
100
AcDbEntity
  8
SK1
100
AcDbLine
 10
-30.06975765537404
 20
3.594009983361122
 30
0.0
 11
-30.20960878787255
 21
3.260377358490622
 31
0.0
  0
LINE
  5
696
330
78B
100
AcDbEntity
  8
SK1
100
AcDbLine
 10
-30.20960878787255
 20
3.260377358490622
 30
0.0
 11
-30.33664106212017
 21
2.91891891891897
 31
0.0
  0
LINE
  5
697
330
78B
100
AcDbEntity
  8
SK1
100
AcDbLine
 10
-30.33664106212017
 20
2.91891891891897
 30
0.0
 11
-30.45025271210913
 21
2.570335741606509
 31
0.0
  0
LINE
  5
698
330
78B
100
AcDbEntity
  8
SK1
100
AcDbLine
 10
-30.45025271210913
 20
2.570335741606509
 30
0.0
 11
-30.54989433698834
 21
2.21538461538466
 31
0.0
  0
LINE
  5
699
330
78B
100
AcDbEntity
  8
SK1
100
AcDbLine
 10
-30.54989433698834
 20
2.21538461538466
 30
0.0
 11
-30.6350753052728
 21
1.854873336195834
 31
0.0
  0
LINE
  5
69A
330
78B
100
AcDbEntity
  8
SK1
100
AcDbLine
 10
-30.6350753052728
 20
1.854873336195834
 30
0.0
 11
-30.70536963098091
 21
1.489655172413832
 31
0.0
  0
LINE
  5
69B
330
78B
100
AcDbEntity
  8
SK1
100
AcDbLine
 10
-30.70536963098091
 20
1.489655172413832
 30
0.0
 11
-30.7604211942234
 21
1.120622568093418
 31
0.0
  0
LINE
  5
69C
330
78B
100
AcDbEntity
  8
SK1
100
AcDbLine
 10
-30.7604211942234
 20
1.120622568093418
 30
0.0
 11
-30.79994818937154
 21
0.748700173310255
 31
0.0
  0
LINE
  5
69D
330
78B
100
AcDbEntity
  8
SK1
100
AcDbLine
 10
-30.79994818937154
 20
0.748700173310255
 30
0.0
 11
-30.82374669864118
 21
0.3748373101952536
 31
0.0
  0
LINE
  5
69E
330
78B
100
AcDbEntity
  8
SK1
100
AcDbLine
 10
-30.82374669864118
 20
0.3748373101952536
 30
0.0
 11
-30.83169330734985
 21
0.0000000000000213
 31
0.0
  0
LINE
  5
69F
330
78B
100
AcDbEntity
  8
SK1
100
AcDbLine
 10
-30.83169330734985
 20
0.0000000000000213
 30
0.0
 11
-30.82374669864118
 21
-0.3748373101952107
 31
0.0
  0
LINE
  5
6A0
330
78B
100
AcDbEntity
  8
SK1
100
AcDbLine
 10
-30.82374669864118
 20
-0.3748373101952107
 30
0.0
 11
-30.79994818937154
 21
-0.7487001733102126
 31
0.0
  0
LINE
  5
6A1
330
78B
100
AcDbEntity
  8
SK1
100
AcDbLine
 10
-30.79994818937154
 20
-0.7487001733102126
 30
0.0
 11
-30.7604211942234
 21
-1.120622568093375
 31
0.0
  0
LINE
  5
6A2
330
78B
100
AcDbEntity
  8
SK1
100
AcDbLine
 10
-30.7604211942234
 20
-1.120622568093375
 30
0.0
 11
-30.7053696309809
 21
-1.489655172413788
 31
0.0
  0
LINE
  5
6A3
330
78B
100
AcDbEntity
  8
SK1
100
AcDbLine
 10
-30.7053696309809
 20
-1.489655172413788
 30
0.0
 11
-30.6350753052728
 21
-1.854873336195792
 31
0.0
  0
LINE
  5
6A4
330
78B
100
AcDbEntity
  8
SK1
100
AcDbLine
 10
-30.6350753052728
 20
-1.854873336195792
 30
0.0
 11
-30.54989433698834
 21
-2.215384615384619
 31
0.0
  0
LINE
  5
6A5
330
78B
100
AcDbEntity
  8
SK1
100
AcDbLine
 10
-30.54989433698834
 20
-2.215384615384619
 30
0.0
 11
-30.45025271210913
 21
-2.570335741606466
 31
0.0
  0
LINE
  5
6A6
330
78B
100
AcDbEntity
  8
SK1
100
AcDbLine
 10
-30.45025271210913
 20
-2.570335741606466
 30
0.0
 11
-30.33664106212017
 21
-2.91891891891893
 31
0.0
  0
LINE
  5
6A7
330
78B
100
AcDbEntity
  8
SK1
100
AcDbLine
 10
-30.33664106212017
 20
-2.91891891891893
 30
0.0
 11
-30.20960878787255
 21
-3.26037735849058
 31
0.0
  0
LINE
  5
6A8
330
78B
100
AcDbEntity
  8
SK1
100
AcDbLine
 10
-30.20960878787255
 20
-3.26037735849058
 30
0.0
 11
-30.06975765537404
 21
-3.59400998336108
 31
0.0
  0
LINE
  5
6A9
330
78B
100
AcDbEntity
  8
SK1
100
AcDbLine
 10
-30.06975765537404
 20
-3.59400998336108
 30
0.0
 11
-29.91773499729075
 21
-3.919175257731978
 31
0.0
  0
LINE
  5
6AA
330
78B
100
AcDbEntity
  8
SK1
100
AcDbLine
 10
-29.91773499729075
 20
-3.919175257731978
 30
0.0
 11
-29.75422665596759
 21
-4.235294117647081
 31
0.0
  0
LINE
  5
6AB
330
78B
100
AcDbEntity
  8
SK1
100
AcDbLine
 10
-29.75422665596759
 20
-4.235294117647081
 30
0.0
 11
-29.57994980172056
 21
-4.541852001617492
 31
0.0
  0
LINE
  5
6AC
330
78B
100
AcDbEntity
  8
SK1
100
AcDbLine
 10
-29.57994980172056
 20
-4.541852001617492
 30
0.0
 11
-29.39564575438757
 21
-4.838400000000025
 31
0.0
  0
LINE
  5
6AD
330
78B
100
AcDbEntity
  8
SK1
100
AcDbLine
 10
-29.39564575438757
 20
-4.838400000000025
 30
0.0
 11
-29.20207292714536
 21
-5.124555160142376
 31
0.0
  0
LINE
  5
6AE
330
78B
100
AcDbEntity
  8
SK1
100
AcDbLine
 10
-29.20207292714536
 20
-5.124555160142376
 30
0.0
 11
-29.0
 21
-5.400000000000028
 31
0.0
  0
LINE
  5
6AF
330
78B
100
AcDbEntity
  8
SK1
100
AcDbLine
 10
-0.0000000000000004
 20
9.0
 30
0.0
 11
-47.09999999999999
 21
9.0
 31
0.0
  0
LINE
  5
6B0
330
78B
100
AcDbEntity
  8
SK1
100
AcDbLine
 10
-47.09999999999999
 20
9.0
 30
0.0
 11
-47.09999999999999
 21
8.991052260351029
 31
0.0
  0
LINE
  5
6B1
330
78B
100
AcDbEntity
  8
SK1
100
AcDbLine
 10
-47.09999999999999
 20
8.991052260351029
 30
0.0
 11
-47.09999999999999
 21
8.192460489810782
 31
0.0
  0
LINE
  5
6B2
330
78B
100
AcDbEntity
  8
SK1
100
AcDbLine
 10
-47.09999999999999
 20
8.192460489810782
 30
0.0
 11
-47.09999999999999
 21
-9.0
 31
0.0
  0
LINE
  5
6B3
330
78B
100
AcDbEntity
  8
SK1
100
AcDbLine
 10
-29.0
 20
5.400000000000011
 30
0.0
 11
-19.0
 21
5.400000000000019
 31
0.0
  0
LINE
  5
6B4
330
78B
100
AcDbEntity
  8
SK1
100
AcDbLine
 10
-19.0
 20
5.400000000000117
 30
0.0
 11
-18.78793329822572
 21
5.110347194294593
 31
0.0
  0
LINE
  5
6B5
330
78B
100
AcDbEntity
  8
SK1
100
AcDbLine
 10
-18.78793329822572
 20
5.110347194294593
 30
0.0
 11
-18.58661817715401
 21
4.810953914876923
 31
0.0
  0
LINE
  5
6B6
330
78B
100
AcDbEntity
  8
SK1
100
AcDbLine
 10
-18.58661817715401
 20
4.810953914876923
 30
0.0
 11
-18.39671736341043
 21
4.502397065899968
 31
0.0
  0
LINE
  5
6B7
330
78B
100
AcDbEntity
  8
SK1
100
AcDbLine
 10
-18.39671736341043
 20
4.502397065899968
 30
0.0
 11
-18.21885059617773
 21
4.185309821561681
 31
0.0
  0
LINE
  5
6B8
330
78B
100
AcDbEntity
  8
SK1
100
AcDbLine
 10
-18.21885059617773
 20
4.185309821561681
 30
0.0
 11
-18.05358857668769
 21
3.860377703432972
 31
0.0
  0
LINE
  5
6B9
330
78B
100
AcDbEntity
  8
SK1
100
AcDbLine
 10
-18.05358857668769
 20
3.860377703432972
 30
0.0
 11
-17.90144737291628
 21
3.528333915982728
 31
0.0
  0
LINE
  5
6BA
330
78B
100
AcDbEntity
  8
SK1
100
AcDbLine
 10
-17.90144737291628
 20
3.528333915982728
 30
0.0
 11
-17.76288338793388
 21
3.189954001655439
 31
0.0
  0
LINE
  5
6BB
330
78B
100
AcDbEntity
  8
SK1
100
AcDbLine
 10
-17.76288338793388
 20
3.189954001655439
 30
0.0
 11
-17.63828899023081
 21
2.846049894151624
 31
0.0
  0
LINE
  5
6BC
330
78B
100
AcDbEntity
  8
SK1
100
AcDbLine
 10
-17.63828899023081
 20
2.846049894151624
 30
0.0
 11
-17.52798889103164
 21
2.497463463975164
 31
0.0
  0
LINE
  5
6BD
330
78B
100
AcDbEntity
  8
SK1
100
AcDbLine
 10
-17.52798889103164
 20
2.497463463975164
 30
0.0
 11
-17.43223733754592
 21
2.145059663228172
 31
0.0
  0
LINE
  5
6BE
330
78B
100
AcDbEntity
  8
SK1
100
AcDbLine
 10
-17.43223733754592
 20
2.145059663228172
 30
0.0
 11
-17.35121617282315
 21
1.789719386535997
 31
0.0
  0
LINE
  5
6BF
330
78B
100
AcDbEntity
  8
SK1
100
AcDbLine
 10
-17.35121617282315
 20
1.789719386535997
 30
0.0
 11
-17.28503379304205
 21
1.432332171483133
 31
0.0
  0
LINE
  5
6C0
330
78B
100
AcDbEntity
  8
SK1
100
AcDbLine
 10
-17.28503379304205
 20
1.432332171483133
 30
0.0
 11
-17.23372501239472
 21
1.07378886479722
 31
0.0
  0
LINE
  5
6C1
330
78B
100
AcDbEntity
  8
SK1
100
AcDbLine
 10
-17.23372501239472
 20
1.07378886479722
 30
0.0
 11
-17.19725182498691
 21
0.7149743796581021
 31
0.0
  0
LINE
  5
6C2
330
78B
100
AcDbEntity
  8
SK1
100
AcDbLine
 10
-17.19725182498691
 20
0.7149743796581021
 30
0.0
 11
-17.17550503311931
 21
0.3567606650233801
 31
0.0
  0
LINE
  5
6C3
330
78B
100
AcDbEntity
  8
SK1
100
AcDbLine
 10
-17.17550503311931
 20
0.3567606650233801
 30
0.0
 11
-17.16830669265009
 21
0.0000000000000324
 31
0.0
  0
LINE
  5
6C4
330
78B
100
AcDbEntity
  8
SK1
100
AcDbLine
 10
-29.0
 20
-5.399999999999983
 30
0.0
 11
-19.0
 21
-5.399999999999975
 31
0.0
  0
LINE
  5
6C5
330
78B
100
AcDbEntity
  8
SK1
100
AcDbLine
 10
-47.1
 20
-9.000000000000003
 30
0.0
 11
-48.0
 21
-8.100000000000001
 31
0.0
  0
LINE
  5
6C6
330
78B
100
AcDbEntity
  8
SK1
100
AcDbLine
 10
0.0000000000000002
 20
-8.99999999999996
 30
0.0
 11
-47.09999999999999
 21
-9.0
 31
0.0
  0
DIMENSION
  5
6C7
330
78B
100
AcDbEntity
  8
2
100
AcDbDimension
  2
*D6
 10
59.00000000000006
 20
-6.799999999999947
 30
0.0
 11
56.6022500000001
 21
-16.68524999999995
 31
0.0
 70
    32
  1
Ø<>
 71
     0
 42
13.6
  3
STANDARD
100
AcDbAlignedDimension
 13
44.0
 23
6.799999999999999
 33
0.0
 14
44.0
 24
-6.799999999999999
 34
0.0
 50
90.00000000000021
100
AcDbRotatedDimension
  0
DIMENSION
  5
6D5
330
78B
100
AcDbEntity
  8
2
100
AcDbDimension
  2
*D5
 10
44.0
 20
75.0
 30
0.0
 11
22.0
 21
77.41525
 31
0.0
 70
    32
  1
<>
 71
     0
 42
44.0
  3
STANDARD
100
AcDbAlignedDimension
 13
0.0
 23
0.0
 33
0.0
 14
44.0
 24
0.0
 34
0.0
100
AcDbRotatedDimension
  0
DIMENSION
  5
6E2
330
78B
100
AcDbEntity
  8
SK2
100
AcDbDimension
  2
*D4
 10
-62.99999999995407
 20
-9.000000000076552
 30
0.0
 11
-65.39075
 21
-0.0000000000887528
 31
0.0
 70
    32
  1
Ø<>
 71
     0
 42
18.0
  3
STANDARD
100
AcDbAlignedDimension
 13
-48.0
 23
9.0
 33
0.0
 14
-48.0
 24
-9.0
 34
0.0
 50
90.00000000029237
100
AcDbRotatedDimension
  0
DIMENSION
  5
6EF
330
78B
100
AcDbEntity
  8
2
100
AcDbDimension
  2
*D3
 10
44.0
 20
60.0
 30
0.0
 11
26.8
 21
62.438
 31
0.0
 70
    32
  1
<>
 71
     0
 42
34.40000000000006
  3
STANDARD
100
AcDbAlignedDimension
 13
9.599999999999999
 23
6.799999999999999
 33
0.0
 14
44.0
 24
6.799999999999999
 34
0.0
100
AcDbRotatedDimension
  0
DIMENSION
  5
6FC
330
78B
100
AcDbEntity
  8
SK2
100
AcDbDimension
  2
*D2
 10
44.0
 20
90.0
 30
0.0
 11
-2.0
 21
92.39074999999999
 31
0.0
 70
    32
  1
<>
 71
     0
 42
92.0
  3
STANDARD
100
AcDbAlignedDimension
 13
-48.0
 23
6.799999999999999
 33
0.0
 14
44.0
 24
6.799999999999999
 34
0.0
100
AcDbRotatedDimension
  0
VIEWPORT
  5
7CE
102
{ACAD_XDICTIONARY
360
867
102
}
330
78C
100
AcDbEntity
 67
     1
  8
0
100
AcDbViewport
 10
105.029
 20
148.463
 30
0.0
 40
24.97
 41
311.7723
 68
     1
 69
     1
 12
105.029
 22
148.463
 13
0.0
 23
0.0
 14
1.0
 24
1.0
 15
1.0
 25
1.0
 16
0.0
 26
0.0
 36
1.0
 17
0.0
 27
0.0
 37
0.0
 42
50.0
 43
0.0
 44
0.0
 45
311.7723
 50
0.0
 51
0.0
 72
  1000
 90
    32800
  1

281
     0
 71
     1
 74
     0
110
0.0
120
0.0
130
0.0
111
1.0
121
0.0
131
0.0
112
0.0
122
1.0
132
0.0
 79
     0
146
0.0
  0
ENDSEC
  0
SECTION
  2
OBJECTS
  0
DICTIONARY
  5
7CF
330
0
100
AcDbDictionary
281
     1
  3
ACAD_CIP_PREVIOUS_PRODUCT_INFO
350
82D
  3
ACAD_COLOR
350
80F
  3
ACAD_DETAILVIEWSTYLE
350
828
  3
ACAD_GROUP
350
7D0
  3
ACAD_LAYOUT
350
7D1
  3
ACAD_MATERIAL
350
7DD
  3
ACAD_MLEADERSTYLE
350
824
  3
ACAD_MLINESTYLE
350
7D2
  3
ACAD_PLOTSETTINGS
350
7D3
  3
ACAD_PLOTSTYLENAME
350
7D4
  3
ACAD_SCALELIST
350
812
  3
ACAD_SECTIONVIEWSTYLE
350
826
  3
ACAD_TABLESTYLE
350
810
  3
ACAD_VISUALSTYLE
350
7F6
  3
ACDB_RECOMPOSE_DATA
350
85C
  3
AcDbVariableDictionary
350
84E
  3
DWGPROPS
350
85D
  3
VECTORDRAW_OBJECTS
350
7D5
  0
DICTIONARY
  5
830
330
F
100
AcDbDictionary
280
     1
281
     1
  3
ADSK_XREC_LAYER_RECONCILED
360
831
  0
DICTIONARY
  5
832
330
23
100
AcDbDictionary
280
     1
281
     1
  3
ADSK_XREC_LAYER_RECONCILED
360
833
  0
DICTIONARY
  5
834
330
24
100
AcDbDictionary
280
     1
281
     1
  3
ADSK_XREC_LAYER_RECONCILED
360
835
  0
DICTIONARY
  5
836
330
25
100
AcDbDictionary
280
     1
281
     1
  3
ADSK_XREC_LAYER_RECONCILED
360
837
  0
DICTIONARY
  5
838
330
26
100
AcDbDictionary
280
     1
281
     1
  3
ADSK_XREC_LAYER_RECONCILED
360
839
  0
DICTIONARY
  5
83A
330
27
100
AcDbDictionary
280
     1
281
     1
  3
ADSK_XREC_LAYER_RECONCILED
360
83B
  0
DICTIONARY
  5
83C
330
28
100
AcDbDictionary
280
     1
281
     1
  3
ADSK_XREC_LAYER_RECONCILED
360
83D
  0
DICTIONARY
  5
83E
330
29
100
AcDbDictionary
280
     1
281
     1
  3
ADSK_XREC_LAYER_RECONCILED
360
83F
  0
DICTIONARY
  5
840
330
2A
100
AcDbDictionary
280
     1
281
     1
  3
ADSK_XREC_LAYER_RECONCILED
360
841
  0
DICTIONARY
  5
842
330
2B
100
AcDbDictionary
280
     1
281
     1
  3
ADSK_XREC_LAYER_RECONCILED
360
843
  0
DICTIONARY
  5
844
330
2C
100
AcDbDictionary
280
     1
281
     1
  3
ADSK_XREC_LAYER_RECONCILED
360
845
  0
DICTIONARY
  5
846
330
2D
100
AcDbDictionary
280
     1
281
     1
  3
ADSK_XREC_LAYER_RECONCILED
360
847
  0
DICTIONARY
  5
848
330
2E
100
AcDbDictionary
280
     1
281
     1
  3
ADSK_XREC_LAYER_RECONCILED
360
849
  0
DICTIONARY
  5
84A
330
375
100
AcDbDictionary
280
     1
281
     1
  3
ADSK_XREC_LAYER_RECONCILED
360
84B
  0
DICTIONARY
  5
84C
330
376
100
AcDbDictionary
280
     1
281
     1
  3
ADSK_XREC_LAYER_RECONCILED
360
84D
  0
DICTIONARY
  5
863
330
7A6
100
AcDbDictionary
280
     1
281
     1
  3
ACAD_MTEXT_RT
360
864
  0
DICTIONARY
  5
865
330
7B7
100
AcDbDictionary
280
     1
281
     1
  3
ACAD_MTEXT_RT
360
866
  0
DICTIONARY
  5
867
330
7CE
100
AcDbDictionary
280
     1
281
     1
  3
ACAD_XREC_ROUNDTRIP
360
868
  0
XRECORD
  5
82D
102
{ACAD_REACTORS
330
7CF
102
}
330
7CF
100
AcDbXrecord
280
     1
300
AMECH_PP
300
2013
300
PDSU_F_S
  0
DICTIONARY
  5
80F
102
{ACAD_REACTORS
330
7CF
102
}
330
7CF
100
AcDbDictionary
281
     1
  0
DICTIONARY
  5
828
102
{ACAD_REACTORS
330
7CF
102
}
330
7CF
100
AcDbDictionary
281
     1
  3
Metric50
350
829
  0
DICTIONARY
  5
7D0
102
{ACAD_REACTORS
330
7CF
102
}
330
7CF
100
AcDbDictionary
281
     1
  0
DICTIONARY
  5
7D1
102
{ACAD_REACTORS
330
7CF
102
}
330
7CF
100
AcDbDictionary
281
     1
  3
Layout1
350
33B
  3
Model
350
18
  0
DICTIONARY
  5
7DD
102
{ACAD_REACTORS
330
7CF
102
}
330
7CF
100
AcDbDictionary
281
     1
  3
ByBlock
350
7E6
  3
ByLayer
350
7DE
  3
Global
350
7EE
  0
DICTIONARY
  5
824
102
{ACAD_REACTORS
330
7CF
102
}
330
7CF
100
AcDbDictionary
281
     1
  3
Standard
350
825
  0
DICTIONARY
  5
7D2
102
{ACAD_REACTORS
330
7CF
102
}
330
7CF
100
AcDbDictionary
281
     1
  3
Standard
350
7D7
  0
DICTIONARY
  5
7D3
102
{ACAD_REACTORS
330
7CF
102
}
330
7CF
100
AcDbDictionary
281
     1
  0
ACDBDICTIONARYWDFLT
  5
7D4
102
{ACAD_REACTORS
330
7CF
102
}
330
7CF
100
AcDbDictionary
281
     1
  3
Normal
350
77A
100
AcDbDictionaryWithDefault
340
77A
  0
DICTIONARY
  5
812
102
{ACAD_REACTORS
330
7CF
102
}
330
7CF
100
AcDbDictionary
281
     1
  3
A0
350
813
  3
A1
350
814
  3
A2
350
815
  3
A3
350
816
  3
A4
350
817
  3
A5
350
818
  3
A6
350
819
  3
A7
350
81A
  3
A8
350
81B
  3
A9
350
81C
  3
B0
350
81D
  3
B1
350
81E
  3
B2
350
81F
  3
B3
350
820
  3
B4
350
821
  3
B5
350
822
  3
B6
350
823
  0
DICTIONARY
  5
826
102
{ACAD_REACTORS
330
7CF
102
}
330
7CF
100
AcDbDictionary
281
     1
  3
Metric50
350
827
  0
DICTIONARY
  5
810
102
{ACAD_REACTORS
330
7CF
102
}
330
7CF
100
AcDbDictionary
281
     1
  3
Standard
350
811
  0
DICTIONARY
  5
7F6
102
{ACAD_REACTORS
330
7CF
102
}
330
7CF
100
AcDbDictionary
281
     1
  3
2dWireframe
350
7FC
  3
Basic
350
7FB
  3
Brighten
350
802
  3
ColorChange
350
806
  3
Conceptual
350
7FF
  3
Dim
350
801
  3
EdgeColorOff
350
80E
  3
Facepattern
350
805
  3
Flat
350
7F7
  3
FlatWithEdges
350
7F8
  3
Gouraud
350
7F9
  3
GouraudWithEdges
350
7FA
  3
Hidden
350
7FE
  3
JitterOff
350
80C
  3
Linepattern
350
804
  3
OverhangOff
350
80D
  3
Realistic
350
800
  3
Shaded
350
80B
  3
Shaded with edges
350
80A
  3
Shades of Gray
350
807
  3
Sketchy
350
808
  3
Thicken
350
803
  3
Wireframe
350
7FD
  3
X-Ray
350
809
  0
XRECORD
  5
85C
102
{ACAD_REACTORS
330
7CF
102
}
330
7CF
100
AcDbXrecord
280
     1
 90
        1
330
811
  0
DICTIONARY
  5
84E
102
{ACAD_REACTORS
330
7CF
102
}
330
7CF
100
AcDbDictionary
281
     1
  3
CANNOSCALE
350
853
  3
CMLEADERSTYLE
350
850
  3
CTABLESTYLE
350
84F
  3
CVIEWDETAILSTYLE
350
851
  3
CVIEWSECTIONSTYLE
350
852
  3
DIMASSOC
350
857
  3
HIDETEXT
350
856
  3
INDEXCTL
350
855
  3
SORTENTS
350
854
  3
XCLIPFRAME
350
858
  0
XRECORD
  5
85D
102
{ACAD_REACTORS
330
7CF
102
}
330
7CF
100
AcDbXrecord
280
     1
  1
DWGPROPS COOKIE
  2

  3

  4

  6

  7

  8
Micke
  9

300
=
301
=
302
=
303
=
304
=
305
=
306
=
307
=
308
=
309
=
 40
0.0000038425925926
 41
2456819.000160116
 42
2456819.000163912
  1

 90
        0
  0
DICTIONARY
  5
7D5
102
{ACAD_REACTORS
330
7CF
102
}
330
7CF
100
AcDbDictionary
281
     1
  3
SERIALNO
350
7D8
  0
XRECORD
  5
831
102
{ACAD_REACTORS
330
830
102
}
330
830
100
AcDbXrecord
280
     1
290
     1
  0
XRECORD
  5
833
102
{ACAD_REACTORS
330
832
102
}
330
832
100
AcDbXrecord
280
     1
290
     1
  0
XRECORD
  5
835
102
{ACAD_REACTORS
330
834
102
}
330
834
100
AcDbXrecord
280
     1
290
     1
  0
XRECORD
  5
837
102
{ACAD_REACTORS
330
836
102
}
330
836
100
AcDbXrecord
280
     1
290
     1
  0
XRECORD
  5
839
102
{ACAD_REACTORS
330
838
102
}
330
838
100
AcDbXrecord
280
     1
290
     1
  0
XRECORD
  5
83B
102
{ACAD_REACTORS
330
83A
102
}
330
83A
100
AcDbXrecord
280
     1
290
     1
  0
XRECORD
  5
83D
102
{ACAD_REACTORS
330
83C
102
}
330
83C
100
AcDbXrecord
280
     1
290
     1
  0
XRECORD
  5
83F
102
{ACAD_REACTORS
330
83E
102
}
330
83E
100
AcDbXrecord
280
     1
290
     1
  0
XRECORD
  5
841
102
{ACAD_REACTORS
330
840
102
}
330
840
100
AcDbXrecord
280
     1
290
     1
  0
XRECORD
  5
843
102
{ACAD_REACTORS
330
842
102
}
330
842
100
AcDbXrecord
280
     1
290
     1
  0
XRECORD
  5
845
102
{ACAD_REACTORS
330
844
102
}
330
844
100
AcDbXrecord
280
     1
290
     1
  0
XRECORD
  5
847
102
{ACAD_REACTORS
330
846
102
}
330
846
100
AcDbXrecord
280
     1
290
     1
  0
XRECORD
  5
849
102
{ACAD_REACTORS
330
848
102
}
330
848
100
AcDbXrecord
280
     1
290
     1
  0
XRECORD
  5
84B
102
{ACAD_REACTORS
330
84A
102
}
330
84A
100
AcDbXrecord
280
     1
290
     1
  0
XRECORD
  5
84D
102
{ACAD_REACTORS
330
84C
102
}
330
84C
100
AcDbXrecord
280
     1
290
     1
  0
XRECORD
  5
864
102
{ACAD_REACTORS
330
863
102
}
330
863
100
AcDbXrecord
280
     1
 40
2519.0
  1
Ø18
  0
XRECORD
  5
866
102
{ACAD_REACTORS
330
865
102
}
330
865
100
AcDbXrecord
280
     1
 40
3528.0
  1
Ø13.6
  0
XRECORD
  5
868
102
{ACAD_REACTORS
330
867
102
}
330
867
100
AcDbXrecord
280
     1
102
SHADEPLOT
 70
     0
  0
ACDBDETAILVIEWSTYLE
  5
829
102
{ACAD_REACTORS
330
828
102
}
330
828
100
AcDbModelDocViewStyle
 70
     0
  3
Metric50
290
     0
100
AcDbDetailViewStyle
 70
     0
 71
     0
 90
        3
 71
     1
340
10
 40
5.0
340
0
 40
5.0
300

 40
0.0
280
     1
 71
     2
340
14
 90
       25
 71
     3
340
10
 40
5.0
 90
        0
 40
15.0
 90
        1
300
%<\AcVar ViewDetailId>% (%<\AcVar ViewScale \f "%sn">%)
 71
     4
340
14
 90
       25
340
14
 90
       25
280
     0
  0
LAYOUT
  5
33B
102
{ACAD_XDICTIONARY
360
860
102
}
102
{ACAD_REACTORS
330
7D1
102
}
330
7D1
100
AcDbPlotSettings
  1

  2
Lexmark Optra PS2
  4

  6

 40
0.0
 41
0.0
 42
0.0
 43
0.0
 44
210.058
 45
296.926
 46
0.0
 47
0.0
 48
0.0
 49
0.0
140
12.0
141
9.0
142
1.0
143
1.0
 70
   688
 72
     1
 73
     0
 74
     4
  7
monochrome.ctb
 75
    16
147
1.0
148
0.0
149
0.0
100
AcDbLayout
  1
Layout1
 70
     1
 71
     1
 10
0.0
 20
0.0
 11
12.0
 21
9.0
 12
0.0
 22
0.0
 32
0.0
 14
1.000000000000000E+20
 24
1.000000000000000E+20
 34
1.000000000000000E+20
 15
-1.000000000000000E+20
 25
-1.000000000000000E+20
 35
-1.000000000000000E+20
146
0.0
 13
0.0
 23
0.0
 33
0.0
 16
1.0
 26
0.0
 36
0.0
 17
0.0
 27
1.0
 37
0.0
 76
     0
330
78C
331
7CE
  0
LAYOUT
  5
18
102
{ACAD_XDICTIONARY
360
85E
102
}
102
{ACAD_REACTORS
330
7D1
102
}
330
7D1
100
AcDbPlotSettings
  1
VectorDraw Printer Drawing
  2
Lexmark Optra Rx
  4

  6

 40
6.604
 41
5.333999999999999
 42
6.858
 43
7.112
 44
209.804
 45
296.672
 46
0.0
 47
0.0
 48
-63.41536749746754
 49
-172.5806175652011
140
501.2557437677013
141
392.0904936999676
142
1.0
143
2.976565420630885
 70
   688
 72
     1
 73
     1
 74
     4
  7
monochrome.ctb
 75
     0
147
1.0
148
63.41536749746754
149
172.5806175652011
100
AcDbLayout
  1
Model
 70
     1
 71
     0
 10
1.0
 20
0.0
 11
0.0
 21
1.0
 12
0.0
 22
0.0
 32
0.0
 14
60.25000000000006
 24
-24.07049999999995
 34
-67.14075000000042
 15
94.14075
 25
0.0
 35
0.0
146
0.0
 13
0.0
 23
0.0
 33
0.0
 16
1.0
 26
0.0
 36
0.0
 17
0.0
 27
1.0
 37
0.0
 76
     0
330
78B
331
778
1001
VD_EX_PRINTER_DWG_STYLE_SHEET
1000
monochrome.ctb
1001
VD_EX_PRINTER_SIZEX
1040
209.9733276367186
1001
VD_EX_PRINTER_AVSIZEX
1040
209.9733276367186
1001
VD_EX_PRINTER_SIZEY
1040
296.9259948730469
1001
VD_EX_PRINTER_AVSIZEY
1040
296.9259948730469
  0
MATERIAL
  5
7E6
102
{ACAD_XDICTIONARY
360
7E7
102
}
102
{ACAD_REACTORS
330
7DD
102
}
330
7DD
100
AcDbMaterial
  1
ByBlock
 72
     0
 43
0.0008202099737533
 43
0.0
 43
0.0
 43
0.0
 43
0.0
 43
0.0008202099737533
 43
0.0
 43
0.0
 43
0.0
 43
0.0
 43
1.0
 43
0.0
 43
0.0
 43
0.0
 43
0.0
 43
1.0
 77
     0
 47
0.0008202099737533
 47
0.0
 47
0.0
 47
0.0
 47
0.0
 47
0.0008202099737533
 47
0.0
 47
0.0
 47
0.0
 47
0.0
 47
1.0
 47
0.0
 47
0.0
 47
0.0
 47
0.0
 47
1.0
171
     0
 49
0.0008202099737533
 49
0.0
 49
0.0
 49
0.0
 49
0.0
 49
0.0008202099737533
 49
0.0
 49
0.0
 49
0.0
 49
0.0
 49
1.0
 49
0.0
 49
0.0
 49
0.0
 49
0.0
 49
1.0
175
     0
142
0.0008202099737533
142
0.0
142
0.0
142
0.0
142
0.0
142
0.0008202099737533
142
0.0
142
0.0
142
0.0
142
0.0
142
1.0
142
0.0
142
0.0
142
0.0
142
0.0
142
1.0
179
     0
144
0.0008202099737533
144
0.0
144
0.0
144
0.0
144
0.0
144
0.0008202099737533
144
0.0
144
0.0
144
0.0
144
0.0
144
1.0
144
0.0
144
0.0
144
0.0
144
0.0
144
1.0
147
0.0008202099737533
147
0.0
147
0.0
147
0.0
147
0.0
147
0.0008202099737533
147
0.0
147
0.0
147
0.0
147
0.0
147
1.0
147
0.0
147
0.0
147
0.0
147
0.0
147
1.0
  0
MATERIAL
  5
7DE
102
{ACAD_XDICTIONARY
360
7DF
102
}
102
{ACAD_REACTORS
330
7DD
102
}
330
7DD
100
AcDbMaterial
  1
ByLayer
 72
     0
 43
0.0008202099737533
 43
0.0
 43
0.0
 43
0.0
 43
0.0
 43
0.0008202099737533
 43
0.0
 43
0.0
 43
0.0
 43
0.0
 43
1.0
 43
0.0
 43
0.0
 43
0.0
 43
0.0
 43
1.0
 77
     0
 47
0.0008202099737533
 47
0.0
 47
0.0
 47
0.0
 47
0.0
 47
0.0008202099737533
 47
0.0
 47
0.0
 47
0.0
 47
0.0
 47
1.0
 47
0.0
 47
0.0
 47
0.0
 47
0.0
 47
1.0
171
     0
 49
0.0008202099737533
 49
0.0
 49
0.0
 49
0.0
 49
0.0
 49
0.0008202099737533
 49
0.0
 49
0.0
 49
0.0
 49
0.0
 49
1.0
 49
0.0
 49
0.0
 49
0.0
 49
0.0
 49
1.0
175
     0
142
0.0008202099737533
142
0.0
142
0.0
142
0.0
142
0.0
142
0.0008202099737533
142
0.0
142
0.0
142
0.0
142
0.0
142
1.0
142
0.0
142
0.0
142
0.0
142
0.0
142
1.0
179
     0
144
0.0008202099737533
144
0.0
144
0.0
144
0.0
144
0.0
144
0.0008202099737533
144
0.0
144
0.0
144
0.0
144
0.0
144
1.0
144
0.0
144
0.0
144
0.0
144
0.0
144
1.0
147
0.0008202099737533
147
0.0
147
0.0
147
0.0
147
0.0
147
0.0008202099737533
147
0.0
147
0.0
147
0.0
147
0.0
147
1.0
147
0.0
147
0.0
147
0.0
147
0.0
147
1.0
  0
MATERIAL
  5
7EE
102
{ACAD_XDICTIONARY
360
7EF
102
}
102
{ACAD_REACTORS
330
7DD
102
}
330
7DD
100
AcDbMaterial
  1
Global
 72
     0
 43
0.0008202099737533
 43
0.0
 43
0.0
 43
0.0
 43
0.0
 43
0.0008202099737533
 43
0.0
 43
0.0
 43
0.0
 43
0.0
 43
1.0
 43
0.0
 43
0.0
 43
0.0
 43
0.0
 43
1.0
 77
     0
 47
0.0008202099737533
 47
0.0
 47
0.0
 47
0.0
 47
0.0
 47
0.0008202099737533
 47
0.0
 47
0.0
 47
0.0
 47
0.0
 47
1.0
 47
0.0
 47
0.0
 47
0.0
 47
0.0
 47
1.0
171
     0
 49
0.0008202099737533
 49
0.0
 49
0.0
 49
0.0
 49
0.0
 49
0.0008202099737533
 49
0.0
 49
0.0
 49
0.0
 49
0.0
 49
1.0
 49
0.0
 49
0.0
 49
0.0
 49
0.0
 49
1.0
175
     0
142
0.0008202099737533
142
0.0
142
0.0
142
0.0
142
0.0
142
0.0008202099737533
142
0.0
142
0.0
142
0.0
142
0.0
142
1.0
142
0.0
142
0.0
142
0.0
142
0.0
142
1.0
179
     0
144
0.0008202099737533
144
0.0
144
0.0
144
0.0
144
0.0
144
0.0008202099737533
144
0.0
144
0.0
144
0.0
144
0.0
144
1.0
144
0.0
144
0.0
144
0.0
144
0.0
144
1.0
147
0.0008202099737533
147
0.0
147
0.0
147
0.0
147
0.0
147
0.0008202099737533
147
0.0
147
0.0
147
0.0
147
0.0
147
1.0
147
0.0
147
0.0
147
0.0
147
0.0
147
1.0
  0
MLEADERSTYLE
  5
825
102
{ACAD_REACTORS
330
824
102
}
330
824
100
AcDbMLeaderStyle
170
     2
171
     1
172
     0
 90
        2
 40
0.0
 41
0.0
173
     1
 91
-1056964608
340
12
 92
       -2
290
     1
 42
2.0
291
     1
 43
0.36
  3
Standard
 44
4.0
300

342
10
174
     1
178
     6
175
     1
176
     0
 93
-1056964608
 45
4.0
292
     0
297
     0
 46
4.0
 94
-1056964608
 47
1.0
 49
1.0
140
1.0
293
     1
141
0.0
294
     1
177
     0
142
1.0
295
     0
296
     0
143
0.125
1001
ACAD_MLEADERVER
1070
     2
  0
MLINESTYLE
  5
7D7
102
{ACAD_REACTORS
330
7D2
102
}
330
7D2
100
AcDbMlineStyle
  2
STANDARD
 70
     0
  3

 62
   256
 51
90.0
 52
90.0
 71
     2
 49
0.5
 62
   256
  6
BYLAYER
 49
-0.5
 62
   256
  6
BYLAYER
  0
ACDBPLACEHOLDER
  5
77A
102
{ACAD_REACTORS
330
7D4
102
}
330
7D4
  0
SCALE
  5
813
102
{ACAD_REACTORS
330
812
102
}
330
812
100
AcDbScale
 70
     0
300
1:1
140
1.0
141
1.0
290
     1
  0
SCALE
  5
814
102
{ACAD_REACTORS
330
812
102
}
330
812
100
AcDbScale
 70
     0
300
1:2
140
1.0
141
2.0
290
     0
  0
SCALE
  5
815
102
{ACAD_REACTORS
330
812
102
}
330
812
100
AcDbScale
 70
     0
300
1:4
140
1.0
141
4.0
290
     0
  0
SCALE
  5
816
102
{ACAD_REACTORS
330
812
102
}
330
812
100
AcDbScale
 70
     0
300
1:5
140
1.0
141
5.0
290
     0
  0
SCALE
  5
817
102
{ACAD_REACTORS
330
812
102
}
330
812
100
AcDbScale
 70
     0
300
1:8
140
1.0
141
8.0
290
     0
  0
SCALE
  5
818
102
{ACAD_REACTORS
330
812
102
}
330
812
100
AcDbScale
 70
     0
300
1:10
140
1.0
141
10.0
290
     0
  0
SCALE
  5
819
102
{ACAD_REACTORS
330
812
102
}
330
812
100
AcDbScale
 70
     0
300
1:16
140
1.0
141
16.0
290
     0
  0
SCALE
  5
81A
102
{ACAD_REACTORS
330
812
102
}
330
812
100
AcDbScale
 70
     0
300
1:20
140
1.0
141
20.0
290
     0
  0
SCALE
  5
81B
102
{ACAD_REACTORS
330
812
102
}
330
812
100
AcDbScale
 70
     0
300
1:30
140
1.0
141
30.0
290
     0
  0
SCALE
  5
81C
102
{ACAD_REACTORS
330
812
102
}
330
812
100
AcDbScale
 70
     0
300
1:40
140
1.0
141
40.0
290
     0
  0
SCALE
  5
81D
102
{ACAD_REACTORS
330
812
102
}
330
812
100
AcDbScale
 70
     0
300
1:50
140
1.0
141
50.0
290
     0
  0
SCALE
  5
81E
102
{ACAD_REACTORS
330
812
102
}
330
812
100
AcDbScale
 70
     0
300
1:100
140
1.0
141
100.0
290
     0
  0
SCALE
  5
81F
102
{ACAD_REACTORS
330
812
102
}
330
812
100
AcDbScale
 70
     0
300
2:1
140
2.0
141
1.0
290
     0
  0
SCALE
  5
820
102
{ACAD_REACTORS
330
812
102
}
330
812
100
AcDbScale
 70
     0
300
4:1
140
4.0
141
1.0
290
     0
  0
SCALE
  5
821
102
{ACAD_REACTORS
330
812
102
}
330
812
100
AcDbScale
 70
     0
300
8:1
140
8.0
141
1.0
290
     0
  0
SCALE
  5
822
102
{ACAD_REACTORS
330
812
102
}
330
812
100
AcDbScale
 70
     0
300
10:1
140
10.0
141
1.0
290
     0
  0
SCALE
  5
823
102
{ACAD_REACTORS
330
812
102
}
330
812
100
AcDbScale
 70
     0
300
100:1
140
100.0
141
1.0
290
     0
  0
ACDBSECTIONVIEWSTYLE
  5
827
102
{ACAD_REACTORS
330
826
102
}
330
826
100
AcDbModelDocViewStyle
 70
     0
  3
Metric50
290
     0
100
AcDbSectionViewStyle
 70
     0
 71
     0
 90
      102
 71
     1
340
10
 40
5.0
340
0
340
0
 40
5.0
300
I, O, Q, S, X, Z
 40
10.0
 90
        0
 40
2.5
 90
        0
 71
     2
340
14
 90
       25
340
14
 90
       50
 40
5.0
 40
2.5
 40
5.0
 71
     3
340
10
 40
5.0
 90
        0
 40
15.0
 90
        1
300
%<\AcVar ViewSectionStartId>%-%<\AcVar ViewSectionEndId>% (%<\AcVar ViewScale \f "%sn">%)
 71
     4
300
ANSI31
 40
1.0
 90
        0
290
     0
290
     0
 90
        6
 40
0.0
 40
1.570796326794896
 40
0.2617993877991494
 40
1.308996938995747
 40
-0.2617993877991494
 40
1.832595714594046
  0
TABLESTYLE
  5
811
102
{ACAD_XDICTIONARY
360
85A
102
}
102
{ACAD_REACTORS
330
810
102
}
330
810
100
AcDbTableStyle
  3
Standard
 70
     0
 71
     0
 40
1.5
 41
1.5
280
     0
281
     0
  7
STANDARD
140
4.5
170
     2
 62
     0
 63
     7
283
     0
274
    -2
284
     1
 64
     0
275
    -2
285
     1
 65
     0
276
    -2
286
     1
 66
     0
277
    -2
287
     1
 67
     0
278
    -2
288
     1
 68
     0
279
    -2
289
     1
 69
     0
  7
STANDARD
140
6.0
170
     5
 62
     0
 63
     7
283
     0
274
    -2
284
     1
 64
     0
275
    -2
285
     1
 65
     0
276
    -2
286
     1
 66
     0
277
    -2
287
     1
 67
     0
278
    -2
288
     1
 68
     0
279
    -2
289
     1
 69
     0
  7
STANDARD
140
4.5
170
     5
 62
     0
 63
     7
283
     0
274
    -2
284
     1
 64
     0
275
    -2
285
     1
 65
     0
276
    -2
286
     1
 66
     0
277
    -2
287
     1
 67
     0
278
    -2
288
     1
 68
     0
279
    -2
289
     1
 69
     0
  0
VISUALSTYLE
  5
7FC
102
{ACAD_XDICTIONARY
360
876
102
}
102
{ACAD_REACTORS
330
7F6
102
}
330
7F6
100
AcDbVisualStyle
  2
2dWireframe
 70
     4
 71
     0
 72
     2
 73
     0
 90
        0
 40
-0.6
 41
-30.0
 62
     5
 63
     7
 74
     1
 91
        4
 64
     7
 65
   257
 75
     1
175
     1
 42
1.0
 92
        0
 66
   257
 43
1.0
 76
     1
 77
     6
 78
     2
 67
     7
 79
     5
170
     0
171
     0
290
     0
174
     0
 93
        1
 44
0.0
173
     0
291
     0
 45
0.0
1001
ACAD
1000
AcDbSavedByObjectVersion
1070
     0
  0
VISUALSTYLE
  5
7FB
102
{ACAD_XDICTIONARY
360
874
102
}
102
{ACAD_REACTORS
330
7F6
102
}
330
7F6
100
AcDbVisualStyle
  2
Basic
 70
     7
 71
     1
 72
     0
 73
     1
 90
        0
 40
-0.6
 41
-30.0
 62
     5
 63
     7
 74
     0
 91
        4
 64
     7
 65
   257
 75
     1
175
     1
 42
1.0
 92
        8
 66
     7
 43
1.0
 76
     1
 77
     6
 78
     2
 67
     7
 79
     5
170
     0
171
     0
290
     0
174
     0
 93
        1
 44
0.0
173
     0
291
     1
 45
0.0
1001
ACAD
1000
AcDbSavedByObjectVersion
1070
     0
  0
VISUALSTYLE
  5
802
102
{ACAD_XDICTIONARY
360
882
102
}
102
{ACAD_REACTORS
330
7F6
102
}
330
7F6
100
AcDbVisualStyle
  2
Brighten
 70
    12
 71
     2
 72
     2
 73
     0
 90
        0
 40
-0.6
 41
-30.0
 62
     5
 63
     7
 74
     1
 91
        4
 64
     7
 65
   257
 75
     1
175
     1
 42
1.0
 92
        8
 66
     7
 43
1.0
 76
     1
 77
     6
 78
     2
 67
     7
 79
     5
170
     0
171
     0
290
     0
174
     0
 93
        1
 44
50.0
173
     0
291
     1
 45
0.0
1001
ACAD
1000
AcDbSavedByObjectVersion
1070
     0
  0
VISUALSTYLE
  5
806
102
{ACAD_XDICTIONARY
360
88A
102
}
102
{ACAD_REACTORS
330
7F6
102
}
330
7F6
100
AcDbVisualStyle
  2
ColorChange
 70
    16
 71
     2
 72
     2
 73
     3
 90
        0
 40
-0.6
 41
-30.0
 62
     5
 63
     8
 74
     1
 91
        4
 64
     7
 65
   257
 75
     1
175
     1
 42
1.0
 92
        8
 66
     8
 43
1.0
 76
     1
 77
     6
 78
     2
 67
     7
 79
     5
170
     0
171
     0
290
     0
174
     0
 93
        1
 44
0.0
173
     0
291
     1
 45
0.0
1001
ACAD
1000
AcDbSavedByObjectVersion
1070
     0
  0
VISUALSTYLE
  5
7FF
102
{ACAD_XDICTIONARY
360
87C
102
}
102
{ACAD_REACTORS
330
7F6
102
}
330
7F6
100
AcDbVisualStyle
  2
Conceptual
 70
     9
 71
     3
 72
     2
 73
     0
 90
        0
 40
-0.6
 41
-30.0
 62
     5
 63
     7
 74
     2
 91
        2
 64
     7
 65
   257
 75
     1
175
     1
 42
179.0
 92
        8
 66
     7
 43
1.0
 76
     1
 77
     6
 78
     2
 67
     7
 79
     3
170
     0
171
     0
290
     0
174
     0
 93
        1
 44
0.0
173
     0
291
     0
 45
0.0
1001
ACAD
1000
AcDbSavedByObjectVersion
1070
     0
  0
VISUALSTYLE
  5
801
102
{ACAD_XDICTIONARY
360
880
102
}
102
{ACAD_REACTORS
330
7F6
102
}
330
7F6
100
AcDbVisualStyle
  2
Dim
 70
    11
 71
     2
 72
     2
 73
     0
 90
        0
 40
-0.6
 41
-30.0
 62
     5
 63
     7
 74
     1
 91
        4
 64
     7
 65
   257
 75
     1
175
     1
 42
1.0
 92
        8
 66
     7
 43
1.0
 76
     1
 77
     6
 78
     2
 67
     7
 79
     5
170
     0
171
     0
290
     0
174
     0
 93
        1
 44
-50.0
173
     0
291
     1
 45
0.0
1001
ACAD
1000
AcDbSavedByObjectVersion
1070
     0
  0
VISUALSTYLE
  5
80E
102
{ACAD_XDICTIONARY
360
89A
102
}
102
{ACAD_REACTORS
330
7F6
102
}
330
7F6
100
AcDbVisualStyle
  2
EdgeColorOff
 70
    22
 71
     2
 72
     2
 73
     0
 90
        0
 40
-0.6
 41
-30.0
 62
     5
 63
     7
 74
     1
 91
        4
 64
     7
 65
   257
 75
     1
175
     1
 42
1.0
 92
        8
 66
     7
 43
1.0
 76
     1
 77
     6
 78
     2
 67
     7
 79
     5
170
     0
171
     0
290
     0
174
     0
 93
        1
 44
0.0
173
     0
291
     1
 45
0.0
1001
ACAD
1000
AcDbSavedByObjectVersion
1070
     0
  0
VISUALSTYLE
  5
805
102
{ACAD_XDICTIONARY
360
888
102
}
102
{ACAD_REACTORS
330
7F6
102
}
330
7F6
100
AcDbVisualStyle
  2
Facepattern
 70
    15
 71
     2
 72
     2
 73
     0
 90
        0
 40
-0.6
 41
-30.0
 62
     5
 63
     7
 74
     1
 91
        4
 64
     7
 65
   257
 75
     1
175
     1
 42
1.0
 92
        8
 66
     7
 43
1.0
 76
     1
 77
     6
 78
     2
 67
     7
 79
     5
170
     0
171
     0
290
     0
174
     0
 93
        1
 44
0.0
173
     0
291
     1
 45
0.0
1001
ACAD
1000
AcDbSavedByObjectVersion
1070
     0
  0
VISUALSTYLE
  5
7F7
102
{ACAD_XDICTIONARY
360
86C
102
}
102
{ACAD_REACTORS
330
7F6
102
}
330
7F6
100
AcDbVisualStyle
  2
Flat
 70
     0
 71
     2
 72
     1
 73
     1
 90
        2
 40
-0.6
 41
30.0
 62
     5
 63
     7
 74
     0
 91
        0
 64
     7
 65
   257
 75
     1
175
     1
 42
1.0
 92
        8
 66
     7
 43
1.0
 76
     1
 77
     6
 78
     2
 67
     7
 79
     5
170
     0
171
     0
290
     0
174
     0
 93
       13
 44
0.0
173
     0
291
     1
 45
0.0
1001
ACAD
1000
AcDbSavedByObjectVersion
1070
     0
  0
VISUALSTYLE
  5
7F8
102
{ACAD_XDICTIONARY
360
86E
102
}
102
{ACAD_REACTORS
330
7F6
102
}
330
7F6
100
AcDbVisualStyle
  2
FlatWithEdges
 70
     1
 71
     2
 72
     1
 73
     1
 90
        2
 40
-0.6
 41
30.0
 62
     5
 63
     7
 74
     1
 91
        0
 64
     7
 65
   257
 75
     1
175
     1
 42
1.0
 92
        0
 66
   257
 43
1.0
 76
     1
 77
     6
 78
     2
 67
     7
 79
     5
170
     0
171
     0
290
     0
174
     0
 93
       13
 44
0.0
173
     0
291
     1
 45
0.0
1001
ACAD
1000
AcDbSavedByObjectVersion
1070
     0
  0
VISUALSTYLE
  5
7F9
102
{ACAD_XDICTIONARY
360
870
102
}
102
{ACAD_REACTORS
330
7F6
102
}
330
7F6
100
AcDbVisualStyle
  2
Gouraud
 70
     2
 71
     2
 72
     2
 73
     1
 90
        2
 40
-0.6
 41
30.0
 62
     5
 63
     7
 74
     0
 91
        0
 64
     7
 65
   257
 75
     1
175
     1
 42
1.0
 92
        0
 66
     7
 43
1.0
 76
     1
 77
     6
 78
     2
 67
     7
 79
     5
170
     0
171
     0
290
     0
174
     0
 93
       13
 44
0.0
173
     0
291
     1
 45
0.0
1001
ACAD
1000
AcDbSavedByObjectVersion
1070
     0
  0
VISUALSTYLE
  5
7FA
102
{ACAD_XDICTIONARY
360
872
102
}
102
{ACAD_REACTORS
330
7F6
102
}
330
7F6
100
AcDbVisualStyle
  2
GouraudWithEdges
 70
     3
 71
     2
 72
     2
 73
     1
 90
        2
 40
-0.6
 41
30.0
 62
     5
 63
     7
 74
     1
 91
        0
 64
     7
 65
   257
 75
     1
175
     1
 42
1.0
 92
        0
 66
   257
 43
1.0
 76
     1
 77
     6
 78
     2
 67
     7
 79
     5
170
     0
171
     0
290
     0
174
     0
 93
       13
 44
0.0
173
     0
291
     1
 45
0.0
1001
ACAD
1000
AcDbSavedByObjectVersion
1070
     0
  0
VISUALSTYLE
  5
7FE
102
{ACAD_XDICTIONARY
360
87A
102
}
102
{ACAD_REACTORS
330
7F6
102
}
330
7F6
100
AcDbVisualStyle
  2
Hidden
 70
     6
 71
     1
 72
     2
 73
     2
 90
        0
 40
-0.6
 41
-30.0
 62
     5
 63
     7
 74
     2
 91
        2
 64
     7
 65
   257
 75
     2
175
     1
 42
40.0
 92
        0
 66
   257
 43
1.0
 76
     1
 77
     6
 78
     2
 67
     7
 79
     3
170
     0
171
     0
290
     0
174
     0
 93
        1
 44
0.0
173
     0
291
     0
 45
0.0
1001
ACAD
1000
AcDbSavedByObjectVersion
1070
     0
  0
VISUALSTYLE
  5
80C
102
{ACAD_XDICTIONARY
360
896
102
}
102
{ACAD_REACTORS
330
7F6
102
}
330
7F6
100
AcDbVisualStyle
  2
JitterOff
 70
    20
 71
     2
 72
     2
 73
     0
 90
        0
 40
-0.6
 41
-30.0
 62
     5
 63
     7
 74
     1
 91
        4
 64
     7
 65
   257
 75
     1
175
     1
 42
1.0
 92
       10
 66
     7
 43
1.0
 76
     1
 77
     6
 78
     2
 67
     7
 79
     5
170
     0
171
     0
290
     0
174
     0
 93
        1
 44
0.0
173
     0
291
     1
 45
0.0
1001
ACAD
1000
AcDbSavedByObjectVersion
1070
     0
  0
VISUALSTYLE
  5
804
102
{ACAD_XDICTIONARY
360
886
102
}
102
{ACAD_REACTORS
330
7F6
102
}
330
7F6
100
AcDbVisualStyle
  2
Linepattern
 70
    14
 71
     2
 72
     2
 73
     0
 90
        0
 40
-0.6
 41
-30.0
 62
     5
 63
     7
 74
     1
 91
        4
 64
     7
 65
   257
 75
     7
175
     7
 42
1.0
 92
        8
 66
     7
 43
1.0
 76
     1
 77
     6
 78
     2
 67
     7
 79
     5
170
     0
171
     0
290
     0
174
     0
 93
        1
 44
0.0
173
     0
291
     1
 45
0.0
1001
ACAD
1000
AcDbSavedByObjectVersion
1070
     0
  0
VISUALSTYLE
  5
80D
102
{ACAD_XDICTIONARY
360
898
102
}
102
{ACAD_REACTORS
330
7F6
102
}
330
7F6
100
AcDbVisualStyle
  2
OverhangOff
 70
    21
 71
     2
 72
     2
 73
     0
 90
        0
 40
-0.6
 41
-30.0
 62
     5
 63
     7
 74
     1
 91
        4
 64
     7
 65
   257
 75
     1
175
     1
 42
1.0
 92
        9
 66
     7
 43
1.0
 76
     1
 77
     6
 78
     2
 67
     7
 79
     5
170
     0
171
     0
290
     0
174
     0
 93
        1
 44
0.0
173
     0
291
     1
 45
0.0
1001
ACAD
1000
AcDbSavedByObjectVersion
1070
     0
  0
VISUALSTYLE
  5
800
102
{ACAD_XDICTIONARY
360
87E
102
}
102
{ACAD_REACTORS
330
7F6
102
}
330
7F6
100
AcDbVisualStyle
  2
Realistic
 70
     8
 71
     2
 72
     3
 73
     0
 90
        2
 40
-0.6
 41
30.0
 62
     5
 63
     7
 74
     0
 91
        0
 64
     7
 65
   257
 75
     1
175
     1
 42
1.0
 92
        8
 66
   257
 43
1.0
 76
     1
 77
     6
 78
     2
 67
     7
 79
     3
170
     0
171
     0
290
     0
174
     0
 93
       13
 44
0.0
173
     0
291
     0
 45
0.0
1001
ACAD
1000
AcDbSavedByObjectVersion
1070
     0
  0
VISUALSTYLE
  5
80B
102
{ACAD_XDICTIONARY
360
894
102
}
102
{ACAD_REACTORS
330
7F6
102
}
330
7F6
100
AcDbVisualStyle
  2
Shaded
 70
    27
 71
     2
 72
     2
 73
     1
 90
        2
 40
-0.6
 41
30.0
 62
     5
 63
     7
 74
     0
 91
        4
 64
     7
 65
   257
 75
     1
175
     1
 42
1.0
 92
        8
 66
   257
 43
1.0
 76
     1
 77
     6
 78
     2
 67
     8
 79
     3
170
     0
171
     0
290
     0
174
     0
 93
        5
 44
0.0
173
     0
291
     0
 45
0.0
1001
ACAD
1000
AcDbSavedByObjectVersion
1070
     0
  0
VISUALSTYLE
  5
80A
102
{ACAD_XDICTIONARY
360
892
102
}
102
{ACAD_REACTORS
330
7F6
102
}
330
7F6
100
AcDbVisualStyle
  2
Shaded with edges
 70
    26
 71
     2
 72
     2
 73
     1
 90
        2
 40
-0.6
 41
30.0
 62
     5
 63
     7
 74
     1
 91
       10
 64
     7
 65
   257
 75
     2
175
     1
 42
1.0
 92
        8
 66
   257
 43
1.0
 76
     1
 77
     6
 78
     2
 67
     7
 79
     3
170
     0
171
     0
290
     0
174
     0
 93
        5
 44
0.0
173
     0
291
     0
 45
0.0
1001
ACAD
1000
AcDbSavedByObjectVersion
1070
     0
  0
VISUALSTYLE
  5
807
102
{ACAD_XDICTIONARY
360
88C
102
}
102
{ACAD_REACTORS
330
7F6
102
}
330
7F6
100
AcDbVisualStyle
  2
Shades of Gray
 70
    23
 71
     2
 72
     2
 73
     3
 90
        0
 40
-0.6
 41
-30.0
 62
     5
 63
     7
 74
     2
 91
        2
 64
     7
 65
     7
 75
     1
175
     1
 42
40.0
 92
        8
 66
     7
 43
1.0
 76
     1
 77
     6
 78
     2
 67
     7
 79
     3
170
     0
171
     0
290
     0
174
     0
 93
        1
 44
0.0
173
     0
291
     0
 45
0.0
1001
ACAD
1000
AcDbSavedByObjectVersion
1070
     0
  0
VISUALSTYLE
  5
808
102
{ACAD_XDICTIONARY
360
88E
102
}
102
{ACAD_REACTORS
330
7F6
102
}
330
7F6
100
AcDbVisualStyle
  2
Sketchy
 70
    24
 71
     1
 72
     2
 73
     2
 90
        0
 40
-0.6
 41
-30.0
 62
     5
 63
     7
 74
     2
 91
        2
 64
     7
 65
     7
 75
     1
175
     1
 42
40.0
 92
       11
 66
     7
 43
1.0
 76
     1
 77
     6
 78
     2
 67
     7
 79
     6
170
     0
171
     0
290
     0
174
     0
 93
        1
 44
0.0
173
     0
291
     0
 45
0.0
1001
ACAD
1000
AcDbSavedByObjectVersion
1070
     0
  0
VISUALSTYLE
  5
803
102
{ACAD_XDICTIONARY
360
884
102
}
102
{ACAD_REACTORS
330
7F6
102
}
330
7F6
100
AcDbVisualStyle
  2
Thicken
 70
    13
 71
     2
 72
     2
 73
     0
 90
        0
 40
-0.6
 41
-30.0
 62
     5
 63
     7
 74
     1
 91
        4
 64
     7
 65
   257
 75
     1
175
     1
 42
1.0
 92
       12
 66
     7
 43
1.0
 76
     1
 77
     6
 78
     2
 67
     7
 79
     5
170
     0
171
     0
290
     0
174
     0
 93
        1
 44
0.0
173
     0
291
     1
 45
0.0
1001
ACAD
1000
AcDbSavedByObjectVersion
1070
     0
  0
VISUALSTYLE
  5
7FD
102
{ACAD_XDICTIONARY
360
878
102
}
102
{ACAD_REACTORS
330
7F6
102
}
330
7F6
100
AcDbVisualStyle
  2
Wireframe
 70
     5
 71
     0
 72
     2
 73
     0
 90
        0
 40
-0.6
 41
-30.0
 62
     5
 63
     7
 74
     1
 91
        4
 64
     7
 65
   257
 75
     1
175
     1
 42
1.0
 92
        0
 66
   257
 43
1.0
 76
     1
 77
     6
 78
     2
 67
     7
 79
     3
170
     0
171
     0
290
     0
174
     0
 93
        1
 44
0.0
173
     0
291
     0
 45
0.0
1001
ACAD
1000
AcDbSavedByObjectVersion
1070
     0
  0
VISUALSTYLE
  5
809
102
{ACAD_XDICTIONARY
360
890
102
}
102
{ACAD_REACTORS
330
7F6
102
}
330
7F6
100
AcDbVisualStyle
  2
X-Ray
 70
    25
 71
     2
 72
     2
 73
     1
 90
        1
 40
0.5
 41
-30.0
 62
     5
 63
     7
 74
     1
 91
        0
 64
     7
 65
   257
 75
     1
175
     1
 42
1.0
 92
        8
 66
     7
 43
1.0
 76
     1
 77
     6
 78
     2
 67
     7
 79
     3
170
     0
171
     0
290
     0
174
     0
 93
       13
 44
0.0
173
     0
291
     0
 45
0.0
1001
ACAD
1000
AcDbSavedByObjectVersion
1070
     0
  0
DICTIONARYVAR
  5
853
102
{ACAD_REACTORS
330
84E
102
}
330
84E
100
DictionaryVariables
280
     0
  1
1:1
  0
DICTIONARYVAR
  5
850
102
{ACAD_REACTORS
330
84E
102
}
330
84E
100
DictionaryVariables
280
     0
  1
STANDARD
  0
DICTIONARYVAR
  5
84F
102
{ACAD_REACTORS
330
84E
102
}
330
84E
100
DictionaryVariables
280
     0
  1
STANDARD
  0
DICTIONARYVAR
  5
851
102
{ACAD_REACTORS
330
84E
102
}
330
84E
100
DictionaryVariables
280
     0
  1
Metric50
  0
DICTIONARYVAR
  5
852
102
{ACAD_REACTORS
330
84E
102
}
330
84E
100
DictionaryVariables
280
     0
  1
Metric50
  0
DICTIONARYVAR
  5
857
102
{ACAD_REACTORS
330
84E
102
}
330
84E
100
DictionaryVariables
280
     0
  1
1
  0
DICTIONARYVAR
  5
856
102
{ACAD_REACTORS
330
84E
102
}
330
84E
100
DictionaryVariables
280
     0
  1
1
  0
DICTIONARYVAR
  5
855
102
{ACAD_REACTORS
330
84E
102
}
330
84E
100
DictionaryVariables
280
     0
  1
0
  0
DICTIONARYVAR
  5
854
102
{ACAD_REACTORS
330
84E
102
}
330
84E
100
DictionaryVariables
280
     0
  1
127
  0
DICTIONARYVAR
  5
858
102
{ACAD_REACTORS
330
84E
102
}
330
84E
100
DictionaryVariables
280
     0
  1
2
  0
XRECORD
  5
7D8
102
{ACAD_REACTORS
330
7D5
102
}
330
7D5
100
AcDbXrecord
280
     1
1000
udnjVM6OT3ptXXPNDrqErnGX8
1070
     5
1070
     1
  0
DICTIONARY
  5
860
330
33B
100
AcDbDictionary
280
     1
281
     1
  3
ACAD_XREC_ROUNDTRIP
360
861
  0
DICTIONARY
  5
85E
330
18
100
AcDbDictionary
280
     1
281
     1
  3
ACAD_XREC_ROUNDTRIP
360
85F
  0
DICTIONARY
  5
7E7
330
7E6
100
AcDbDictionary
280
     1
281
     1
  3
ACAD_XREC_ROUNDTRIP
360
86A
  3
BUMPTILE
360
7E9
  3
DIFFUSETILE
360
7E8
  3
OPACITYTILE
360
7EC
  3
REFLECTIONTILE
360
7EB
  3
REFRACTIONTILE
360
7ED
  3
SPECULARTILE
360
7EA
  0
DICTIONARY
  5
7DF
330
7DE
100
AcDbDictionary
280
     1
281
     1
  3
ACAD_XREC_ROUNDTRIP
360
869
  3
BUMPTILE
360
7E1
  3
DIFFUSETILE
360
7E0
  3
OPACITYTILE
360
7E4
  3
REFLECTIONTILE
360
7E3
  3
REFRACTIONTILE
360
7E5
  3
SPECULARTILE
360
7E2
  0
DICTIONARY
  5
7EF
330
7EE
100
AcDbDictionary
280
     1
281
     1
  3
ACAD_XREC_ROUNDTRIP
360
86B
  3
BUMPTILE
360
7F1
  3
DIFFUSETILE
360
7F0
  3
OPACITYTILE
360
7F4
  3
REFLECTIONTILE
360
7F3
  3
REFRACTIONTILE
360
7F5
  3
SPECULARTILE
360
7F2
  0
DICTIONARY
  5
85A
330
811
100
AcDbDictionary
280
     1
281
     1
  3
ACAD_ROUNDTRIP_2008_TABLESTYLE_CELLSTYLEMAP
360
85B
  3
ACAD_XREC_ROUNDTRIP
360
89C
  0
DICTIONARY
  5
876
330
7FC
100
AcDbDictionary
280
     1
281
     1
  3
ACAD_XREC_ROUNDTRIP
360
877
  0
DICTIONARY
  5
874
330
7FB
100
AcDbDictionary
280
     1
281
     1
  3
ACAD_XREC_ROUNDTRIP
360
875
  0
DICTIONARY
  5
882
330
802
100
AcDbDictionary
280
     1
281
     1
  3
ACAD_XREC_ROUNDTRIP
360
883
  0
DICTIONARY
  5
88A
330
806
100
AcDbDictionary
280
     1
281
     1
  3
ACAD_XREC_ROUNDTRIP
360
88B
  0
DICTIONARY
  5
87C
330
7FF
100
AcDbDictionary
280
     1
281
     1
  3
ACAD_XREC_ROUNDTRIP
360
87D
  0
DICTIONARY
  5
880
330
801
100
AcDbDictionary
280
     1
281
     1
  3
ACAD_XREC_ROUNDTRIP
360
881
  0
DICTIONARY
  5
89A
330
80E
100
AcDbDictionary
280
     1
281
     1
  3
ACAD_XREC_ROUNDTRIP
360
89B
  0
DICTIONARY
  5
888
330
805
100
AcDbDictionary
280
     1
281
     1
  3
ACAD_XREC_ROUNDTRIP
360
889
  0
DICTIONARY
  5
86C
330
7F7
100
AcDbDictionary
280
     1
281
     1
  3
ACAD_XREC_ROUNDTRIP
360
86D
  0
DICTIONARY
  5
86E
330
7F8
100
AcDbDictionary
280
     1
281
     1
  3
ACAD_XREC_ROUNDTRIP
360
86F
  0
DICTIONARY
  5
870
330
7F9
100
AcDbDictionary
280
     1
281
     1
  3
ACAD_XREC_ROUNDTRIP
360
871
  0
DICTIONARY
  5
872
330
7FA
100
AcDbDictionary
280
     1
281
     1
  3
ACAD_XREC_ROUNDTRIP
360
873
  0
DICTIONARY
  5
87A
330
7FE
100
AcDbDictionary
280
     1
281
     1
  3
ACAD_XREC_ROUNDTRIP
360
87B
  0
DICTIONARY
  5
896
330
80C
100
AcDbDictionary
280
     1
281
     1
  3
ACAD_XREC_ROUNDTRIP
360
897
  0
DICTIONARY
  5
886
330
804
100
AcDbDictionary
280
     1
281
     1
  3
ACAD_XREC_ROUNDTRIP
360
887
  0
DICTIONARY
  5
898
330
80D
100
AcDbDictionary
280
     1
281
     1
  3
ACAD_XREC_ROUNDTRIP
360
899
  0
DICTIONARY
  5
87E
330
800
100
AcDbDictionary
280
     1
281
     1
  3
ACAD_XREC_ROUNDTRIP
360
87F
  0
DICTIONARY
  5
894
330
80B
100
AcDbDictionary
280
     1
281
     1
  3
ACAD_XREC_ROUNDTRIP
360
895
  0
DICTIONARY
  5
892
330
80A
100
AcDbDictionary
280
     1
281
     1
  3
ACAD_XREC_ROUNDTRIP
360
893
  0
DICTIONARY
  5
88C
330
807
100
AcDbDictionary
280
     1
281
     1
  3
ACAD_XREC_ROUNDTRIP
360
88D
  0
DICTIONARY
  5
88E
330
808
100
AcDbDictionary
280
     1
281
     1
  3
ACAD_XREC_ROUNDTRIP
360
88F
  0
DICTIONARY
  5
884
330
803
100
AcDbDictionary
280
     1
281
     1
  3
ACAD_XREC_ROUNDTRIP
360
885
  0
DICTIONARY
  5
878
330
7FD
100
AcDbDictionary
280
     1
281
     1
  3
ACAD_XREC_ROUNDTRIP
360
879
  0
DICTIONARY
  5
890
330
809
100
AcDbDictionary
280
     1
281
     1
  3
ACAD_XREC_ROUNDTRIP
360
891
  0
XRECORD
  5
861
102
{ACAD_REACTORS
330
860
102
}
330
860
100
AcDbXrecord
280
     1
102
SHADEPLOT
 70
     0
102
SHADEPLOTRESLEVEL
 70
     2
102
SHADEPLOTCUSTOMDPI
 70
   300
  0
XRECORD
  5
85F
102
{ACAD_REACTORS
330
85E
102
}
330
85E
100
AcDbXrecord
280
     1
102
SHADEPLOT
 70
     0
102
SHADEPLOTRESLEVEL
 70
     2
102
SHADEPLOTCUSTOMDPI
 70
   300
  0
XRECORD
  5
86A
102
{ACAD_REACTORS
330
7E7
102
}
330
7E7
100
AcDbXrecord
280
     1
102
MATERIAL
148
0.0
149
0.0
149
0.0
 93
        0
 94
      127
282
     0
 72
     0
 77
     0
171
     0
175
     0
179
     0
273
     0
  0
XRECORD
  5
7E9
102
{ACAD_REACTORS
330
7E7
102
}
330
7E7
100
AcDbXrecord
280
     1
270
     1
271
     1
  0
XRECORD
  5
7E8
102
{ACAD_REACTORS
330
7E7
102
}
330
7E7
100
AcDbXrecord
280
     1
270
     1
271
     1
  0
XRECORD
  5
7EC
102
{ACAD_REACTORS
330
7E7
102
}
330
7E7
100
AcDbXrecord
280
     1
270
     1
271
     1
  0
XRECORD
  5
7EB
102
{ACAD_REACTORS
330
7E7
102
}
330
7E7
100
AcDbXrecord
280
     1
270
     1
271
     1
  0
XRECORD
  5
7ED
102
{ACAD_REACTORS
330
7E7
102
}
330
7E7
100
AcDbXrecord
280
     1
270
     1
271
     1
  0
XRECORD
  5
7EA
102
{ACAD_REACTORS
330
7E7
102
}
330
7E7
100
AcDbXrecord
280
     1
270
     1
271
     1
  0
XRECORD
  5
869
102
{ACAD_REACTORS
330
7DF
102
}
330
7DF
100
AcDbXrecord
280
     1
102
MATERIAL
148
0.0
149
0.0
149
0.0
 93
        0
 94
      127
282
     0
 72
     0
 77
     0
171
     0
175
     0
179
     0
273
     0
  0
XRECORD
  5
7E1
102
{ACAD_REACTORS
330
7DF
102
}
330
7DF
100
AcDbXrecord
280
     1
270
     1
271
     1
  0
XRECORD
  5
7E0
102
{ACAD_REACTORS
330
7DF
102
}
330
7DF
100
AcDbXrecord
280
     1
270
     1
271
     1
  0
XRECORD
  5
7E4
102
{ACAD_REACTORS
330
7DF
102
}
330
7DF
100
AcDbXrecord
280
     1
270
     1
271
     1
  0
XRECORD
  5
7E3
102
{ACAD_REACTORS
330
7DF
102
}
330
7DF
100
AcDbXrecord
280
     1
270
     1
271
     1
  0
XRECORD
  5
7E5
102
{ACAD_REACTORS
330
7DF
102
}
330
7DF
100
AcDbXrecord
280
     1
270
     1
271
     1
  0
XRECORD
  5
7E2
102
{ACAD_REACTORS
330
7DF
102
}
330
7DF
100
AcDbXrecord
280
     1
270
     1
271
     1
  0
XRECORD
  5
86B
102
{ACAD_REACTORS
330
7EF
102
}
330
7EF
100
AcDbXrecord
280
     1
102
MATERIAL
148
0.0
149
0.0
149
0.0
 93
        0
 94
      127
282
     0
 72
     0
 77
     0
171
     0
175
     0
179
     0
273
     0
  0
XRECORD
  5
7F1
102
{ACAD_REACTORS
330
7EF
102
}
330
7EF
100
AcDbXrecord
280
     1
270
     1
271
     1
  0
XRECORD
  5
7F0
102
{ACAD_REACTORS
330
7EF
102
}
330
7EF
100
AcDbXrecord
280
     1
270
     1
271
     1
  0
XRECORD
  5
7F4
102
{ACAD_REACTORS
330
7EF
102
}
330
7EF
100
AcDbXrecord
280
     1
270
     1
271
     1
  0
XRECORD
  5
7F3
102
{ACAD_REACTORS
330
7EF
102
}
330
7EF
100
AcDbXrecord
280
     1
270
     1
271
     1
  0
XRECORD
  5
7F5
102
{ACAD_REACTORS
330
7EF
102
}
330
7EF
100
AcDbXrecord
280
     1
270
     1
271
     1
  0
XRECORD
  5
7F2
102
{ACAD_REACTORS
330
7EF
102
}
330
7EF
100
AcDbXrecord
280
     1
270
     1
271
     1
  0
CELLSTYLEMAP
  5
85B
102
{ACAD_REACTORS
330
85A
102
}
330
85A
100
AcDbCellStyleMap
 90
        3
300
CELLSTYLE
  1
TABLEFORMAT_BEGIN
 90
        5
170
     1
 91
        0
 92
    32768
 62
   257
 93
        1
300
CONTENTFORMAT
  1
CONTENTFORMAT_BEGIN
 90
        0
 91
        0
 92
      512
 93
        0
300

 40
0.0
140
1.0
 94
        5
 62
     0
340
10
144
6.0
309
CONTENTFORMAT_END
171
     1
301
MARGIN
  1
CELLMARGIN_BEGIN
 40
1.5
 40
1.5
 40
1.5
 40
1.5
 40
4.5
 40
4.5
309
CELLMARGIN_END
 94
        6
 95
        1
302
GRIDFORMAT
  1
GRIDFORMAT_BEGIN
 90
        0
 91
        1
 62
     0
 92
       -2
340
0
 93
        0
 40
1.125
309
GRIDFORMAT_END
 95
        2
302
GRIDFORMAT
  1
GRIDFORMAT_BEGIN
 90
        0
 91
        1
 62
     0
 92
       -2
340
0
 93
        0
 40
1.125
309
GRIDFORMAT_END
 95
        4
302
GRIDFORMAT
  1
GRIDFORMAT_BEGIN
 90
        0
 91
        1
 62
     0
 92
       -2
340
0
 93
        0
 40
1.125
309
GRIDFORMAT_END
 95
        8
302
GRIDFORMAT
  1
GRIDFORMAT_BEGIN
 90
        0
 91
        1
 62
     0
 92
       -2
340
0
 93
        0
 40
1.125
309
GRIDFORMAT_END
 95
       16
302
GRIDFORMAT
  1
GRIDFORMAT_BEGIN
 90
        0
 91
        1
 62
     0
 92
       -2
340
0
 93
        0
 40
1.125
309
GRIDFORMAT_END
 95
       32
302
GRIDFORMAT
  1
GRIDFORMAT_BEGIN
 90
        0
 91
        1
 62
     0
 92
       -2
340
0
 93
        0
 40
1.125
309
GRIDFORMAT_END
309
TABLEFORMAT_END
  1
CELLSTYLE_BEGIN
 90
        1
 91
        1
300
_TITLE
309
CELLSTYLE_END
300
CELLSTYLE
  1
TABLEFORMAT_BEGIN
 90
        5
170
     1
 91
        0
 92
        0
 62
   257
 93
        1
300
CONTENTFORMAT
  1
CONTENTFORMAT_BEGIN
 90
        0
 91
        0
 92
      512
 93
        0
300

 40
0.0
140
1.0
 94
        5
 62
     0
340
10
144
4.5
309
CONTENTFORMAT_END
171
     1
301
MARGIN
  1
CELLMARGIN_BEGIN
 40
1.5
 40
1.5
 40
1.5
 40
1.5
 40
4.5
 40
4.5
309
CELLMARGIN_END
 94
        6
 95
        1
302
GRIDFORMAT
  1
GRIDFORMAT_BEGIN
 90
        0
 91
        1
 62
     0
 92
       -2
340
0
 93
        0
 40
1.125
309
GRIDFORMAT_END
 95
        2
302
GRIDFORMAT
  1
GRIDFORMAT_BEGIN
 90
        0
 91
        1
 62
     0
 92
       -2
340
0
 93
        0
 40
1.125
309
GRIDFORMAT_END
 95
        4
302
GRIDFORMAT
  1
GRIDFORMAT_BEGIN
 90
        0
 91
        1
 62
     0
 92
       -2
340
0
 93
        0
 40
1.125
309
GRIDFORMAT_END
 95
        8
302
GRIDFORMAT
  1
GRIDFORMAT_BEGIN
 90
        0
 91
        1
 62
     0
 92
       -2
340
0
 93
        0
 40
1.125
309
GRIDFORMAT_END
 95
       16
302
GRIDFORMAT
  1
GRIDFORMAT_BEGIN
 90
        0
 91
        1
 62
     0
 92
       -2
340
0
 93
        0
 40
1.125
309
GRIDFORMAT_END
 95
       32
302
GRIDFORMAT
  1
GRIDFORMAT_BEGIN
 90
        0
 91
        1
 62
     0
 92
       -2
340
0
 93
        0
 40
1.125
309
GRIDFORMAT_END
309
TABLEFORMAT_END
  1
CELLSTYLE_BEGIN
 90
        2
 91
        1
300
_HEADER
309
CELLSTYLE_END
300
CELLSTYLE
  1
TABLEFORMAT_BEGIN
 90
        5
170
     1
 91
        0
 92
        0
 62
   257
 93
        1
300
CONTENTFORMAT
  1
CONTENTFORMAT_BEGIN
 90
        0
 91
        0
 92
      512
 93
        0
300

 40
0.0
140
1.0
 94
        2
 62
     0
340
10
144
4.5
309
CONTENTFORMAT_END
171
     1
301
MARGIN
  1
CELLMARGIN_BEGIN
 40
1.5
 40
1.5
 40
1.5
 40
1.5
 40
4.5
 40
4.5
309
CELLMARGIN_END
 94
        6
 95
        1
302
GRIDFORMAT
  1
GRIDFORMAT_BEGIN
 90
        0
 91
        1
 62
     0
 92
       -2
340
0
 93
        0
 40
1.125
309
GRIDFORMAT_END
 95
        2
302
GRIDFORMAT
  1
GRIDFORMAT_BEGIN
 90
        0
 91
        1
 62
     0
 92
       -2
340
0
 93
        0
 40
1.125
309
GRIDFORMAT_END
 95
        4
302
GRIDFORMAT
  1
GRIDFORMAT_BEGIN
 90
        0
 91
        1
 62
     0
 92
       -2
340
0
 93
        0
 40
1.125
309
GRIDFORMAT_END
 95
        8
302
GRIDFORMAT
  1
GRIDFORMAT_BEGIN
 90
        0
 91
        1
 62
     0
 92
       -2
340
0
 93
        0
 40
1.125
309
GRIDFORMAT_END
 95
       16
302
GRIDFORMAT
  1
GRIDFORMAT_BEGIN
 90
        0
 91
        1
 62
     0
 92
       -2
340
0
 93
        0
 40
1.125
309
GRIDFORMAT_END
 95
       32
302
GRIDFORMAT
  1
GRIDFORMAT_BEGIN
 90
        0
 91
        1
 62
     0
 92
       -2
340
0
 93
        0
 40
1.125
309
GRIDFORMAT_END
309
TABLEFORMAT_END
  1
CELLSTYLE_BEGIN
 90
        3
 91
        2
300
_DATA
309
CELLSTYLE_END
  0
XRECORD
  5
89C
102
{ACAD_REACTORS
330
85A
102
}
330
85A
100
AcDbXrecord
280
     1
102
ACAD_ROUNDTRIP_PRE2007_TABLESTYLE
 90
      512
 91
        0
  1

 92
      512
 93
        0
  2

 94
      512
 95
        0
  3

  0
XRECORD
  5
877
102
{ACAD_REACTORS
330
876
102
}
330
876
100
AcDbXrecord
280
     1
102
RTVSPost2010Prop28
280
     1
102
RTVSPost2010PropOp28
 70
     1
102
RTVSPost2010Prop29
280
     1
102
RTVSPost2010PropOp29
 70
     1
102
RTVSPost2010Prop30
280
     0
102
RTVSPost2010PropOp30
 70
     1
102
RTVSPost2010Prop31
280
     0
102
RTVSPost2010PropOp31
 70
     1
102
RTVSPost2010Prop32
280
     0
102
RTVSPost2010PropOp32
 70
     1
102
RTVSPost2010Prop33
280
     0
102
RTVSPost2010PropOp33
 70
     1
102
RTVSPost2010Prop34
280
     0
102
RTVSPost2010PropOp34
 70
     1
102
RTVSPost2010Prop35
280
     0
102
RTVSPost2010PropOp35
 70
     1
102
RTVSPost2010Prop36
280
     0
102
RTVSPost2010PropOp36
 70
     1
102
RTVSPost2010Prop37
 90
       50
102
RTVSPost2010PropOp37
 70
     1
102
RTVSPost2010Prop38
140
0.0
102
RTVSPost2010PropOp38
 70
     1
102
RTVSPost2010Prop39
140
1.0
102
RTVSPost2010PropOp39
 70
     1
102
RTVSPost2010Prop40
 90
        0
102
RTVSPost2010PropOp40
 70
     1
102
RTVSPost2010Prop41ColorIndex
 90
       18
102
RTVSPost2010Prop41ColorRGB
 90
        0
102
RTVSPost2010PropOp41
 70
     1
102
RTVSPost2010Prop42
 90
       50
102
RTVSPost2010PropOp42
 70
     1
102
RTVSPost2010Prop43
 90
        3
102
RTVSPost2010PropOp43
 70
     1
102
RTVSPost2010Prop44ColorIndex
 90
        5
102
RTVSPost2010Prop44ColorRGB
 90
      255
102
RTVSPost2010PropOp44
 70
     1
102
RTVSPost2010Prop45
280
     0
102
RTVSPost2010PropOp45
 70
     1
102
RTVSPost2010Prop46
 90
       50
102
RTVSPost2010PropOp46
 70
     1
102
RTVSPost2010Prop47
 90
       50
102
RTVSPost2010PropOp47
 70
     1
102
RTVSPost2010Prop48
 90
       50
102
RTVSPost2010PropOp48
 70
     1
102
RTVSPost2010Prop49
280
     0
102
RTVSPost2010PropOp49
 70
     1
102
RTVSPost2010Prop50
 90
       50
102
RTVSPost2010PropOp50
 70
     1
102
RTVSPost2010Prop51ColorIndex
 90
      256
102
RTVSPost2010Prop51ColorRGB
 90
-16777216
102
RTVSPost2010PropOp51
 70
     0
102
RTVSPost2010Prop52
140
1.0
102
RTVSPost2010PropOp52
 70
     0
102
RTVSPost2010Prop53
 90
        2
102
RTVSPost2010PropOp53
 70
     1
102
RTVSPost2010Prop54
  1
strokes_ogs.tif
102
RTVSPost2010PropOp54
 70
     1
102
RTVSPost2010Prop55
280
     0
102
RTVSPost2010PropOp55
 70
     1
102
RTVSPost2010Prop56
140
1.0
102
RTVSPost2010PropOp56
 70
     1
102
RTVSPost2010Prop57
140
1.0
102
RTVSPost2010PropOp57
 70
     1
102
RTVSPropertyOp0
 70
     1
102
RTVSPropertyOp1
 70
     1
102
RTVSPropertyOp2
 70
     1
102
RTVSPropertyOp3
 70
     1
102
RTVSPropertyOp4
 70
     1
102
RTVSPropertyOp5
 70
     1
102
RTVSPropertyOp6
 70
     1
102
RTVSPropertyOp7
 70
     1
102
RTVSPropertyOp8
 70
     1
102
RTVSPropertyOp9
 70
     1
102
RTVSPropertyOp10
 70
     1
102
RTVSPropertyOp11
 70
     1
102
RTVSPropertyOp12
 70
     1
102
RTVSPropertyOp13
 70
     1
102
RTVSPropertyOp14
 70
     1
102
RTVSPropertyOp15
 70
     1
102
RTVSPropertyOp16
 70
     1
102
RTVSPropertyOp17
 70
     1
102
RTVSPropertyOp18
 70
     1
102
RTVSPropertyOp19
 70
     1
102
RTVSPropertyOp20
 70
     1
102
RTVSPropertyOp21
 70
     1
102
RTVSPropertyOp22
 70
     1
102
RTVSPropertyOp23
 70
     1
102
RTVSPropertyOp24
 70
     1
102
RTVSPropertyOp25
 70
     1
102
RTVSPropertyOp26
 70
     1
102
RTVSPropertyOp27
 70
     1
102
RTVSPropertyOp28
 70
     1
102
RTVSPropertyOp29
 70
     1
102
RTVSPropertyOp30
 70
     1
102
RTVSPropertyOp31
 70
     1
102
RTVSPropertyOp32
 70
     1
102
RTVSPropertyOp33
 70
     1
102
RTVSPropertyOp34
 70
     1
102
RTVSPropertyOp35
 70
     1
102
RTVSPropertyOp36
 70
     1
102
RTVSPropertyOp37
 70
     1
102
RTVSPropertyOp38
 70
     1
102
RTVSPropertyOp39
 70
     1
102
RTVSPropertyOp40
 70
     1
102
RTVSPropertyOp41
 70
     1
102
RTVSPropertyOp42
 70
     1
102
RTVSPropertyOp43
 70
     1
102
RTVSPropertyOp44
 70
     1
102
RTVSPropertyOp45
 70
     1
102
RTVSPropertyOp46
 70
     1
102
RTVSPropertyOp47
 70
     1
102
RTVSPropertyOp48
 70
     1
102
RTVSPropertyOp49
 70
     1
102
RTVSPropertyOp50
 70
     1
102
RTVSPropertyOp51
 70
     0
102
RTVSPropertyOp52
 70
     0
102
RTVSPropertyOp53
 70
     1
102
RTVSPropertyOp54
 70
     1
102
RTVSPropertyOp55
 70
     1
102
RTVSPropertyOp56
 70
     1
102
RTVSPropertyOp57
 70
     1
102
RTVSPropertyOp58
 70
     1
102
RTVSPropertyOp59
 70
     1
102
RTVSPropertyOp60
 70
     1
102
RTVSPropertyOp61
 70
     1
102
RTVSPropertyOp62
 70
     1
  0
XRECORD
  5
875
102
{ACAD_REACTORS
330
874
102
}
330
874
100
AcDbXrecord
280
     1
102
RTVSPost2010Prop28
280
     0
102
RTVSPost2010PropOp28
 70
     1
102
RTVSPost2010Prop29
280
     1
102
RTVSPost2010PropOp29
 70
     1
102
RTVSPost2010Prop30
280
     1
102
RTVSPost2010PropOp30
 70
     1
102
RTVSPost2010Prop31
280
     0
102
RTVSPost2010PropOp31
 70
     1
102
RTVSPost2010Prop32
280
     0
102
RTVSPost2010PropOp32
 70
     1
102
RTVSPost2010Prop33
280
     0
102
RTVSPost2010PropOp33
 70
     1
102
RTVSPost2010Prop34
280
     0
102
RTVSPost2010PropOp34
 70
     1
102
RTVSPost2010Prop35
280
     0
102
RTVSPost2010PropOp35
 70
     1
102
RTVSPost2010Prop36
280
     0
102
RTVSPost2010PropOp36
 70
     1
102
RTVSPost2010Prop37
 90
       50
102
RTVSPost2010PropOp37
 70
     1
102
RTVSPost2010Prop38
140
0.0
102
RTVSPost2010PropOp38
 70
     1
102
RTVSPost2010Prop39
140
1.0
102
RTVSPost2010PropOp39
 70
     1
102
RTVSPost2010Prop40
 90
        0
102
RTVSPost2010PropOp40
 70
     1
102
RTVSPost2010Prop41ColorIndex
 90
       18
102
RTVSPost2010Prop41ColorRGB
 90
        0
102
RTVSPost2010PropOp41
 70
     1
102
RTVSPost2010Prop42
 90
       50
102
RTVSPost2010PropOp42
 70
     1
102
RTVSPost2010Prop43
 90
        3
102
RTVSPost2010PropOp43
 70
     1
102
RTVSPost2010Prop44ColorIndex
 90
        5
102
RTVSPost2010Prop44ColorRGB
 90
      255
102
RTVSPost2010PropOp44
 70
     1
102
RTVSPost2010Prop45
280
     0
102
RTVSPost2010PropOp45
 70
     1
102
RTVSPost2010Prop46
 90
       50
102
RTVSPost2010PropOp46
 70
     1
102
RTVSPost2010Prop47
 90
       50
102
RTVSPost2010PropOp47
 70
     1
102
RTVSPost2010Prop48
 90
       50
102
RTVSPost2010PropOp48
 70
     1
102
RTVSPost2010Prop49
280
     0
102
RTVSPost2010PropOp49
 70
     1
102
RTVSPost2010Prop50
 90
       50
102
RTVSPost2010PropOp50
 70
     1
102
RTVSPost2010Prop51ColorIndex
 90
      256
102
RTVSPost2010Prop51ColorRGB
 90
-16777216
102
RTVSPost2010PropOp51
 70
     0
102
RTVSPost2010Prop52
140
1.0
102
RTVSPost2010PropOp52
 70
     0
102
RTVSPost2010Prop53
 90
        2
102
RTVSPost2010PropOp53
 70
     1
102
RTVSPost2010Prop54
  1
strokes_ogs.tif
102
RTVSPost2010PropOp54
 70
     1
102
RTVSPost2010Prop55
280
     0
102
RTVSPost2010PropOp55
 70
     1
102
RTVSPost2010Prop56
140
1.0
102
RTVSPost2010PropOp56
 70
     1
102
RTVSPost2010Prop57
140
1.0
102
RTVSPost2010PropOp57
 70
     1
102
RTVSPropertyOp0
 70
     1
102
RTVSPropertyOp1
 70
     1
102
RTVSPropertyOp2
 70
     1
102
RTVSPropertyOp3
 70
     1
102
RTVSPropertyOp4
 70
     1
102
RTVSPropertyOp5
 70
     1
102
RTVSPropertyOp6
 70
     1
102
RTVSPropertyOp7
 70
     1
102
RTVSPropertyOp8
 70
     1
102
RTVSPropertyOp9
 70
     1
102
RTVSPropertyOp10
 70
     1
102
RTVSPropertyOp11
 70
     1
102
RTVSPropertyOp12
 70
     1
102
RTVSPropertyOp13
 70
     1
102
RTVSPropertyOp14
 70
     1
102
RTVSPropertyOp15
 70
     1
102
RTVSPropertyOp16
 70
     1
102
RTVSPropertyOp17
 70
     1
102
RTVSPropertyOp18
 70
     1
102
RTVSPropertyOp19
 70
     1
102
RTVSPropertyOp20
 70
     1
102
RTVSPropertyOp21
 70
     1
102
RTVSPropertyOp22
 70
     1
102
RTVSPropertyOp23
 70
     1
102
RTVSPropertyOp24
 70
     1
102
RTVSPropertyOp25
 70
     1
102
RTVSPropertyOp26
 70
     1
102
RTVSPropertyOp27
 70
     1
102
RTVSPropertyOp28
 70
     1
102
RTVSPropertyOp29
 70
     1
102
RTVSPropertyOp30
 70
     1
102
RTVSPropertyOp31
 70
     1
102
RTVSPropertyOp32
 70
     1
102
RTVSPropertyOp33
 70
     1
102
RTVSPropertyOp34
 70
     1
102
RTVSPropertyOp35
 70
     1
102
RTVSPropertyOp36
 70
     1
102
RTVSPropertyOp37
 70
     1
102
RTVSPropertyOp38
 70
     1
102
RTVSPropertyOp39
 70
     1
102
RTVSPropertyOp40
 70
     1
102
RTVSPropertyOp41
 70
     1
102
RTVSPropertyOp42
 70
     1
102
RTVSPropertyOp43
 70
     1
102
RTVSPropertyOp44
 70
     1
102
RTVSPropertyOp45
 70
     1
102
RTVSPropertyOp46
 70
     1
102
RTVSPropertyOp47
 70
     1
102
RTVSPropertyOp48
 70
     1
102
RTVSPropertyOp49
 70
     1
102
RTVSPropertyOp50
 70
     1
102
RTVSPropertyOp51
 70
     0
102
RTVSPropertyOp52
 70
     0
102
RTVSPropertyOp53
 70
     1
102
RTVSPropertyOp54
 70
     1
102
RTVSPropertyOp55
 70
     1
102
RTVSPropertyOp56
 70
     1
102
RTVSPropertyOp57
 70
     1
102
RTVSPropertyOp58
 70
     1
102
RTVSPropertyOp59
 70
     1
102
RTVSPropertyOp60
 70
     1
102
RTVSPropertyOp61
 70
     1
102
RTVSPropertyOp62
 70
     1
  0
XRECORD
  5
883
102
{ACAD_REACTORS
330
882
102
}
330
882
100
AcDbXrecord
280
     1
102
RTVSPost2010Prop28
280
     0
102
RTVSPost2010PropOp28
 70
     1
102
RTVSPost2010Prop29
280
     1
102
RTVSPost2010PropOp29
 70
     1
102
RTVSPost2010Prop30
280
     1
102
RTVSPost2010PropOp30
 70
     1
102
RTVSPost2010Prop31
280
     0
102
RTVSPost2010PropOp31
 70
     1
102
RTVSPost2010Prop32
280
     0
102
RTVSPost2010PropOp32
 70
     1
102
RTVSPost2010Prop33
280
     0
102
RTVSPost2010PropOp33
 70
     1
102
RTVSPost2010Prop34
280
     0
102
RTVSPost2010PropOp34
 70
     1
102
RTVSPost2010Prop35
280
     0
102
RTVSPost2010PropOp35
 70
     1
102
RTVSPost2010Prop36
280
     0
102
RTVSPost2010PropOp36
 70
     1
102
RTVSPost2010Prop37
 90
       50
102
RTVSPost2010PropOp37
 70
     1
102
RTVSPost2010Prop38
140
0.0
102
RTVSPost2010PropOp38
 70
     1
102
RTVSPost2010Prop39
140
1.0
102
RTVSPost2010PropOp39
 70
     1
102
RTVSPost2010Prop40
 90
        0
102
RTVSPost2010PropOp40
 70
     1
102
RTVSPost2010Prop41ColorIndex
 90
       18
102
RTVSPost2010Prop41ColorRGB
 90
        0
102
RTVSPost2010PropOp41
 70
     1
102
RTVSPost2010Prop42
 90
       50
102
RTVSPost2010PropOp42
 70
     1
102
RTVSPost2010Prop43
 90
        3
102
RTVSPost2010PropOp43
 70
     1
102
RTVSPost2010Prop44ColorIndex
 90
        5
102
RTVSPost2010Prop44ColorRGB
 90
      255
102
RTVSPost2010PropOp44
 70
     1
102
RTVSPost2010Prop45
280
     0
102
RTVSPost2010PropOp45
 70
     1
102
RTVSPost2010Prop46
 90
       50
102
RTVSPost2010PropOp46
 70
     1
102
RTVSPost2010Prop47
 90
       50
102
RTVSPost2010PropOp47
 70
     1
102
RTVSPost2010Prop48
 90
       50
102
RTVSPost2010PropOp48
 70
     1
102
RTVSPost2010Prop49
280
     0
102
RTVSPost2010PropOp49
 70
     1
102
RTVSPost2010Prop50
 90
       50
102
RTVSPost2010PropOp50
 70
     1
102
RTVSPost2010Prop51ColorIndex
 90
      256
102
RTVSPost2010Prop51ColorRGB
 90
-16777216
102
RTVSPost2010PropOp51
 70
     0
102
RTVSPost2010Prop52
140
1.0
102
RTVSPost2010PropOp52
 70
     0
102
RTVSPost2010Prop53
 90
        2
102
RTVSPost2010PropOp53
 70
     1
102
RTVSPost2010Prop54
  1
strokes_ogs.tif
102
RTVSPost2010PropOp54
 70
     1
102
RTVSPost2010Prop55
280
     0
102
RTVSPost2010PropOp55
 70
     1
102
RTVSPost2010Prop56
140
1.0
102
RTVSPost2010PropOp56
 70
     1
102
RTVSPost2010Prop57
140
1.0
102
RTVSPost2010PropOp57
 70
     1
102
RTVSPropertyOp0
 70
     1
102
RTVSPropertyOp1
 70
     1
102
RTVSPropertyOp2
 70
     1
102
RTVSPropertyOp3
 70
     1
102
RTVSPropertyOp4
 70
     1
102
RTVSPropertyOp5
 70
     1
102
RTVSPropertyOp6
 70
     1
102
RTVSPropertyOp7
 70
     1
102
RTVSPropertyOp8
 70
     1
102
RTVSPropertyOp9
 70
     1
102
RTVSPropertyOp10
 70
     1
102
RTVSPropertyOp11
 70
     1
102
RTVSPropertyOp12
 70
     1
102
RTVSPropertyOp13
 70
     1
102
RTVSPropertyOp14
 70
     1
102
RTVSPropertyOp15
 70
     1
102
RTVSPropertyOp16
 70
     1
102
RTVSPropertyOp17
 70
     1
102
RTVSPropertyOp18
 70
     1
102
RTVSPropertyOp19
 70
     1
102
RTVSPropertyOp20
 70
     1
102
RTVSPropertyOp21
 70
     1
102
RTVSPropertyOp22
 70
     1
102
RTVSPropertyOp23
 70
     1
102
RTVSPropertyOp24
 70
     1
102
RTVSPropertyOp25
 70
     1
102
RTVSPropertyOp26
 70
     1
102
RTVSPropertyOp27
 70
     1
102
RTVSPropertyOp28
 70
     1
102
RTVSPropertyOp29
 70
     1
102
RTVSPropertyOp30
 70
     1
102
RTVSPropertyOp31
 70
     1
102
RTVSPropertyOp32
 70
     1
102
RTVSPropertyOp33
 70
     1
102
RTVSPropertyOp34
 70
     1
102
RTVSPropertyOp35
 70
     1
102
RTVSPropertyOp36
 70
     1
102
RTVSPropertyOp37
 70
     1
102
RTVSPropertyOp38
 70
     1
102
RTVSPropertyOp39
 70
     1
102
RTVSPropertyOp40
 70
     1
102
RTVSPropertyOp41
 70
     1
102
RTVSPropertyOp42
 70
     1
102
RTVSPropertyOp43
 70
     1
102
RTVSPropertyOp44
 70
     1
102
RTVSPropertyOp45
 70
     1
102
RTVSPropertyOp46
 70
     1
102
RTVSPropertyOp47
 70
     1
102
RTVSPropertyOp48
 70
     1
102
RTVSPropertyOp49
 70
     1
102
RTVSPropertyOp50
 70
     1
102
RTVSPropertyOp51
 70
     0
102
RTVSPropertyOp52
 70
     0
102
RTVSPropertyOp53
 70
     1
102
RTVSPropertyOp54
 70
     1
102
RTVSPropertyOp55
 70
     1
102
RTVSPropertyOp56
 70
     1
102
RTVSPropertyOp57
 70
     1
102
RTVSPropertyOp58
 70
     1
102
RTVSPropertyOp59
 70
     1
102
RTVSPropertyOp60
 70
     1
102
RTVSPropertyOp61
 70
     1
102
RTVSPropertyOp62
 70
     1
  0
XRECORD
  5
88B
102
{ACAD_REACTORS
330
88A
102
}
330
88A
100
AcDbXrecord
280
     1
102
RTVSPost2010Prop28
280
     0
102
RTVSPost2010PropOp28
 70
     1
102
RTVSPost2010Prop29
280
     1
102
RTVSPost2010PropOp29
 70
     1
102
RTVSPost2010Prop30
280
     1
102
RTVSPost2010PropOp30
 70
     1
102
RTVSPost2010Prop31
280
     0
102
RTVSPost2010PropOp31
 70
     1
102
RTVSPost2010Prop32
280
     0
102
RTVSPost2010PropOp32
 70
     1
102
RTVSPost2010Prop33
280
     0
102
RTVSPost2010PropOp33
 70
     1
102
RTVSPost2010Prop34
280
     0
102
RTVSPost2010PropOp34
 70
     1
102
RTVSPost2010Prop35
280
     0
102
RTVSPost2010PropOp35
 70
     1
102
RTVSPost2010Prop36
280
     0
102
RTVSPost2010PropOp36
 70
     1
102
RTVSPost2010Prop37
 90
       50
102
RTVSPost2010PropOp37
 70
     1
102
RTVSPost2010Prop38
140
0.0
102
RTVSPost2010PropOp38
 70
     1
102
RTVSPost2010Prop39
140
1.0
102
RTVSPost2010PropOp39
 70
     1
102
RTVSPost2010Prop40
 90
        0
102
RTVSPost2010PropOp40
 70
     1
102
RTVSPost2010Prop41ColorIndex
 90
       18
102
RTVSPost2010Prop41ColorRGB
 90
        0
102
RTVSPost2010PropOp41
 70
     1
102
RTVSPost2010Prop42
 90
       50
102
RTVSPost2010PropOp42
 70
     1
102
RTVSPost2010Prop43
 90
        3
102
RTVSPost2010PropOp43
 70
     1
102
RTVSPost2010Prop44ColorIndex
 90
        5
102
RTVSPost2010Prop44ColorRGB
 90
      255
102
RTVSPost2010PropOp44
 70
     1
102
RTVSPost2010Prop45
280
     0
102
RTVSPost2010PropOp45
 70
     1
102
RTVSPost2010Prop46
 90
       50
102
RTVSPost2010PropOp46
 70
     1
102
RTVSPost2010Prop47
 90
       50
102
RTVSPost2010PropOp47
 70
     1
102
RTVSPost2010Prop48
 90
       50
102
RTVSPost2010PropOp48
 70
     1
102
RTVSPost2010Prop49
280
     0
102
RTVSPost2010PropOp49
 70
     1
102
RTVSPost2010Prop50
 90
       50
102
RTVSPost2010PropOp50
 70
     1
102
RTVSPost2010Prop51ColorIndex
 90
      256
102
RTVSPost2010Prop51ColorRGB
 90
-16777216
102
RTVSPost2010PropOp51
 70
     0
102
RTVSPost2010Prop52
140
1.0
102
RTVSPost2010PropOp52
 70
     0
102
RTVSPost2010Prop53
 90
        2
102
RTVSPost2010PropOp53
 70
     1
102
RTVSPost2010Prop54
  1
strokes_ogs.tif
102
RTVSPost2010PropOp54
 70
     1
102
RTVSPost2010Prop55
280
     0
102
RTVSPost2010PropOp55
 70
     1
102
RTVSPost2010Prop56
140
1.0
102
RTVSPost2010PropOp56
 70
     1
102
RTVSPost2010Prop57
140
1.0
102
RTVSPost2010PropOp57
 70
     1
102
RTVSPropertyOp0
 70
     1
102
RTVSPropertyOp1
 70
     1
102
RTVSPropertyOp2
 70
     1
102
RTVSPropertyOp3
 70
     1
102
RTVSPropertyOp4
 70
     1
102
RTVSPropertyOp5
 70
     1
102
RTVSPropertyOp6
 70
     1
102
RTVSPropertyOp7
 70
     1
102
RTVSPropertyOp8
 70
     1
102
RTVSPropertyOp9
 70
     1
102
RTVSPropertyOp10
 70
     1
102
RTVSPropertyOp11
 70
     1
102
RTVSPropertyOp12
 70
     1
102
RTVSPropertyOp13
 70
     1
102
RTVSPropertyOp14
 70
     1
102
RTVSPropertyOp15
 70
     1
102
RTVSPropertyOp16
 70
     1
102
RTVSPropertyOp17
 70
     1
102
RTVSPropertyOp18
 70
     1
102
RTVSPropertyOp19
 70
     1
102
RTVSPropertyOp20
 70
     1
102
RTVSPropertyOp21
 70
     1
102
RTVSPropertyOp22
 70
     1
102
RTVSPropertyOp23
 70
     1
102
RTVSPropertyOp24
 70
     1
102
RTVSPropertyOp25
 70
     1
102
RTVSPropertyOp26
 70
     1
102
RTVSPropertyOp27
 70
     1
102
RTVSPropertyOp28
 70
     1
102
RTVSPropertyOp29
 70
     1
102
RTVSPropertyOp30
 70
     1
102
RTVSPropertyOp31
 70
     1
102
RTVSPropertyOp32
 70
     1
102
RTVSPropertyOp33
 70
     1
102
RTVSPropertyOp34
 70
     1
102
RTVSPropertyOp35
 70
     1
102
RTVSPropertyOp36
 70
     1
102
RTVSPropertyOp37
 70
     1
102
RTVSPropertyOp38
 70
     1
102
RTVSPropertyOp39
 70
     1
102
RTVSPropertyOp40
 70
     1
102
RTVSPropertyOp41
 70
     1
102
RTVSPropertyOp42
 70
     1
102
RTVSPropertyOp43
 70
     1
102
RTVSPropertyOp44
 70
     1
102
RTVSPropertyOp45
 70
     1
102
RTVSPropertyOp46
 70
     1
102
RTVSPropertyOp47
 70
     1
102
RTVSPropertyOp48
 70
     1
102
RTVSPropertyOp49
 70
     1
102
RTVSPropertyOp50
 70
     1
102
RTVSPropertyOp51
 70
     0
102
RTVSPropertyOp52
 70
     0
102
RTVSPropertyOp53
 70
     1
102
RTVSPropertyOp54
 70
     1
102
RTVSPropertyOp55
 70
     1
102
RTVSPropertyOp56
 70
     1
102
RTVSPropertyOp57
 70
     1
102
RTVSPropertyOp58
 70
     1
102
RTVSPropertyOp59
 70
     1
102
RTVSPropertyOp60
 70
     1
102
RTVSPropertyOp61
 70
     1
102
RTVSPropertyOp62
 70
     1
  0
XRECORD
  5
87D
102
{ACAD_REACTORS
330
87C
102
}
330
87C
100
AcDbXrecord
280
     1
102
RTVSPost2010Prop28
280
     0
102
RTVSPost2010PropOp28
 70
     1
102
RTVSPost2010Prop29
280
     1
102
RTVSPost2010PropOp29
 70
     1
102
RTVSPost2010Prop30
280
     1
102
RTVSPost2010PropOp30
 70
     1
102
RTVSPost2010Prop31
280
     0
102
RTVSPost2010PropOp31
 70
     1
102
RTVSPost2010Prop32
280
     0
102
RTVSPost2010PropOp32
 70
     1
102
RTVSPost2010Prop33
280
     0
102
RTVSPost2010PropOp33
 70
     1
102
RTVSPost2010Prop34
280
     0
102
RTVSPost2010PropOp34
 70
     1
102
RTVSPost2010Prop35
280
     0
102
RTVSPost2010PropOp35
 70
     1
102
RTVSPost2010Prop36
280
     0
102
RTVSPost2010PropOp36
 70
     1
102
RTVSPost2010Prop37
 90
       50
102
RTVSPost2010PropOp37
 70
     1
102
RTVSPost2010Prop38
140
0.0
102
RTVSPost2010PropOp38
 70
     1
102
RTVSPost2010Prop39
140
1.0
102
RTVSPost2010PropOp39
 70
     1
102
RTVSPost2010Prop40
 90
        0
102
RTVSPost2010PropOp40
 70
     1
102
RTVSPost2010Prop41ColorIndex
 90
       18
102
RTVSPost2010Prop41ColorRGB
 90
        0
102
RTVSPost2010PropOp41
 70
     1
102
RTVSPost2010Prop42
 90
       50
102
RTVSPost2010PropOp42
 70
     1
102
RTVSPost2010Prop43
 90
        3
102
RTVSPost2010PropOp43
 70
     1
102
RTVSPost2010Prop44ColorIndex
 90
        5
102
RTVSPost2010Prop44ColorRGB
 90
      255
102
RTVSPost2010PropOp44
 70
     1
102
RTVSPost2010Prop45
280
     0
102
RTVSPost2010PropOp45
 70
     1
102
RTVSPost2010Prop46
 90
       50
102
RTVSPost2010PropOp46
 70
     1
102
RTVSPost2010Prop47
 90
       50
102
RTVSPost2010PropOp47
 70
     1
102
RTVSPost2010Prop48
 90
       50
102
RTVSPost2010PropOp48
 70
     1
102
RTVSPost2010Prop49
280
     0
102
RTVSPost2010PropOp49
 70
     1
102
RTVSPost2010Prop50
 90
       50
102
RTVSPost2010PropOp50
 70
     1
102
RTVSPost2010Prop51ColorIndex
 90
      256
102
RTVSPost2010Prop51ColorRGB
 90
-16777216
102
RTVSPost2010PropOp51
 70
     0
102
RTVSPost2010Prop52
140
1.0
102
RTVSPost2010PropOp52
 70
     0
102
RTVSPost2010Prop53
 90
        2
102
RTVSPost2010PropOp53
 70
     1
102
RTVSPost2010Prop54
  1
strokes_ogs.tif
102
RTVSPost2010PropOp54
 70
     1
102
RTVSPost2010Prop55
280
     0
102
RTVSPost2010PropOp55
 70
     1
102
RTVSPost2010Prop56
140
1.0
102
RTVSPost2010PropOp56
 70
     1
102
RTVSPost2010Prop57
140
1.0
102
RTVSPost2010PropOp57
 70
     1
102
RTVSPropertyOp0
 70
     1
102
RTVSPropertyOp1
 70
     1
102
RTVSPropertyOp2
 70
     1
102
RTVSPropertyOp3
 70
     1
102
RTVSPropertyOp4
 70
     1
102
RTVSPropertyOp5
 70
     1
102
RTVSPropertyOp6
 70
     1
102
RTVSPropertyOp7
 70
     1
102
RTVSPropertyOp8
 70
     1
102
RTVSPropertyOp9
 70
     1
102
RTVSPropertyOp10
 70
     1
102
RTVSPropertyOp11
 70
     1
102
RTVSPropertyOp12
 70
     1
102
RTVSPropertyOp13
 70
     1
102
RTVSPropertyOp14
 70
     1
102
RTVSPropertyOp15
 70
     1
102
RTVSPropertyOp16
 70
     1
102
RTVSPropertyOp17
 70
     1
102
RTVSPropertyOp18
 70
     1
102
RTVSPropertyOp19
 70
     1
102
RTVSPropertyOp20
 70
     1
102
RTVSPropertyOp21
 70
     1
102
RTVSPropertyOp22
 70
     1
102
RTVSPropertyOp23
 70
     1
102
RTVSPropertyOp24
 70
     1
102
RTVSPropertyOp25
 70
     1
102
RTVSPropertyOp26
 70
     1
102
RTVSPropertyOp27
 70
     1
102
RTVSPropertyOp28
 70
     1
102
RTVSPropertyOp29
 70
     1
102
RTVSPropertyOp30
 70
     1
102
RTVSPropertyOp31
 70
     1
102
RTVSPropertyOp32
 70
     1
102
RTVSPropertyOp33
 70
     1
102
RTVSPropertyOp34
 70
     1
102
RTVSPropertyOp35
 70
     1
102
RTVSPropertyOp36
 70
     1
102
RTVSPropertyOp37
 70
     1
102
RTVSPropertyOp38
 70
     1
102
RTVSPropertyOp39
 70
     1
102
RTVSPropertyOp40
 70
     1
102
RTVSPropertyOp41
 70
     1
102
RTVSPropertyOp42
 70
     1
102
RTVSPropertyOp43
 70
     1
102
RTVSPropertyOp44
 70
     1
102
RTVSPropertyOp45
 70
     1
102
RTVSPropertyOp46
 70
     1
102
RTVSPropertyOp47
 70
     1
102
RTVSPropertyOp48
 70
     1
102
RTVSPropertyOp49
 70
     1
102
RTVSPropertyOp50
 70
     1
102
RTVSPropertyOp51
 70
     0
102
RTVSPropertyOp52
 70
     0
102
RTVSPropertyOp53
 70
     1
102
RTVSPropertyOp54
 70
     1
102
RTVSPropertyOp55
 70
     1
102
RTVSPropertyOp56
 70
     1
102
RTVSPropertyOp57
 70
     1
102
RTVSPropertyOp58
 70
     1
102
RTVSPropertyOp59
 70
     1
102
RTVSPropertyOp60
 70
     1
102
RTVSPropertyOp61
 70
     1
102
RTVSPropertyOp62
 70
     1
  0
XRECORD
  5
881
102
{ACAD_REACTORS
330
880
102
}
330
880
100
AcDbXrecord
280
     1
102
RTVSPost2010Prop28
280
     0
102
RTVSPost2010PropOp28
 70
     1
102
RTVSPost2010Prop29
280
     1
102
RTVSPost2010PropOp29
 70
     1
102
RTVSPost2010Prop30
280
     1
102
RTVSPost2010PropOp30
 70
     1
102
RTVSPost2010Prop31
280
     0
102
RTVSPost2010PropOp31
 70
     1
102
RTVSPost2010Prop32
280
     0
102
RTVSPost2010PropOp32
 70
     1
102
RTVSPost2010Prop33
280
     0
102
RTVSPost2010PropOp33
 70
     1
102
RTVSPost2010Prop34
280
     0
102
RTVSPost2010PropOp34
 70
     1
102
RTVSPost2010Prop35
280
     0
102
RTVSPost2010PropOp35
 70
     1
102
RTVSPost2010Prop36
280
     0
102
RTVSPost2010PropOp36
 70
     1
102
RTVSPost2010Prop37
 90
       50
102
RTVSPost2010PropOp37
 70
     1
102
RTVSPost2010Prop38
140
0.0
102
RTVSPost2010PropOp38
 70
     1
102
RTVSPost2010Prop39
140
1.0
102
RTVSPost2010PropOp39
 70
     1
102
RTVSPost2010Prop40
 90
        0
102
RTVSPost2010PropOp40
 70
     1
102
RTVSPost2010Prop41ColorIndex
 90
       18
102
RTVSPost2010Prop41ColorRGB
 90
        0
102
RTVSPost2010PropOp41
 70
     1
102
RTVSPost2010Prop42
 90
       50
102
RTVSPost2010PropOp42
 70
     1
102
RTVSPost2010Prop43
 90
        3
102
RTVSPost2010PropOp43
 70
     1
102
RTVSPost2010Prop44ColorIndex
 90
        5
102
RTVSPost2010Prop44ColorRGB
 90
      255
102
RTVSPost2010PropOp44
 70
     1
102
RTVSPost2010Prop45
280
     0
102
RTVSPost2010PropOp45
 70
     1
102
RTVSPost2010Prop46
 90
       50
102
RTVSPost2010PropOp46
 70
     1
102
RTVSPost2010Prop47
 90
       50
102
RTVSPost2010PropOp47
 70
     1
102
RTVSPost2010Prop48
 90
       50
102
RTVSPost2010PropOp48
 70
     1
102
RTVSPost2010Prop49
280
     0
102
RTVSPost2010PropOp49
 70
     1
102
RTVSPost2010Prop50
 90
       50
102
RTVSPost2010PropOp50
 70
     1
102
RTVSPost2010Prop51ColorIndex
 90
      256
102
RTVSPost2010Prop51ColorRGB
 90
-16777216
102
RTVSPost2010PropOp51
 70
     0
102
RTVSPost2010Prop52
140
1.0
102
RTVSPost2010PropOp52
 70
     0
102
RTVSPost2010Prop53
 90
        2
102
RTVSPost2010PropOp53
 70
     1
102
RTVSPost2010Prop54
  1
strokes_ogs.tif
102
RTVSPost2010PropOp54
 70
     1
102
RTVSPost2010Prop55
280
     0
102
RTVSPost2010PropOp55
 70
     1
102
RTVSPost2010Prop56
140
1.0
102
RTVSPost2010PropOp56
 70
     1
102
RTVSPost2010Prop57
140
1.0
102
RTVSPost2010PropOp57
 70
     1
102
RTVSPropertyOp0
 70
     1
102
RTVSPropertyOp1
 70
     1
102
RTVSPropertyOp2
 70
     1
102
RTVSPropertyOp3
 70
     1
102
RTVSPropertyOp4
 70
     1
102
RTVSPropertyOp5
 70
     1
102
RTVSPropertyOp6
 70
     1
102
RTVSPropertyOp7
 70
     1
102
RTVSPropertyOp8
 70
     1
102
RTVSPropertyOp9
 70
     1
102
RTVSPropertyOp10
 70
     1
102
RTVSPropertyOp11
 70
     1
102
RTVSPropertyOp12
 70
     1
102
RTVSPropertyOp13
 70
     1
102
RTVSPropertyOp14
 70
     1
102
RTVSPropertyOp15
 70
     1
102
RTVSPropertyOp16
 70
     1
102
RTVSPropertyOp17
 70
     1
102
RTVSPropertyOp18
 70
     1
102
RTVSPropertyOp19
 70
     1
102
RTVSPropertyOp20
 70
     1
102
RTVSPropertyOp21
 70
     1
102
RTVSPropertyOp22
 70
     1
102
RTVSPropertyOp23
 70
     1
102
RTVSPropertyOp24
 70
     1
102
RTVSPropertyOp25
 70
     1
102
RTVSPropertyOp26
 70
     1
102
RTVSPropertyOp27
 70
     1
102
RTVSPropertyOp28
 70
     1
102
RTVSPropertyOp29
 70
     1
102
RTVSPropertyOp30
 70
     1
102
RTVSPropertyOp31
 70
     1
102
RTVSPropertyOp32
 70
     1
102
RTVSPropertyOp33
 70
     1
102
RTVSPropertyOp34
 70
     1
102
RTVSPropertyOp35
 70
     1
102
RTVSPropertyOp36
 70
     1
102
RTVSPropertyOp37
 70
     1
102
RTVSPropertyOp38
 70
     1
102
RTVSPropertyOp39
 70
     1
102
RTVSPropertyOp40
 70
     1
102
RTVSPropertyOp41
 70
     1
102
RTVSPropertyOp42
 70
     1
102
RTVSPropertyOp43
 70
     1
102
RTVSPropertyOp44
 70
     1
102
RTVSPropertyOp45
 70
     1
102
RTVSPropertyOp46
 70
     1
102
RTVSPropertyOp47
 70
     1
102
RTVSPropertyOp48
 70
     1
102
RTVSPropertyOp49
 70
     1
102
RTVSPropertyOp50
 70
     1
102
RTVSPropertyOp51
 70
     0
102
RTVSPropertyOp52
 70
     0
102
RTVSPropertyOp53
 70
     1
102
RTVSPropertyOp54
 70
     1
102
RTVSPropertyOp55
 70
     1
102
RTVSPropertyOp56
 70
     1
102
RTVSPropertyOp57
 70
     1
102
RTVSPropertyOp58
 70
     1
102
RTVSPropertyOp59
 70
     1
102
RTVSPropertyOp60
 70
     1
102
RTVSPropertyOp61
 70
     1
102
RTVSPropertyOp62
 70
     1
  0
XRECORD
  5
89B
102
{ACAD_REACTORS
330
89A
102
}
330
89A
100
AcDbXrecord
280
     1
102
RTVSPost2010Prop28
280
     0
102
RTVSPost2010PropOp28
 70
     1
102
RTVSPost2010Prop29
280
     1
102
RTVSPost2010PropOp29
 70
     1
102
RTVSPost2010Prop30
280
     1
102
RTVSPost2010PropOp30
 70
     1
102
RTVSPost2010Prop31
280
     0
102
RTVSPost2010PropOp31
 70
     1
102
RTVSPost2010Prop32
280
     0
102
RTVSPost2010PropOp32
 70
     1
102
RTVSPost2010Prop33
280
     0
102
RTVSPost2010PropOp33
 70
     1
102
RTVSPost2010Prop34
280
     0
102
RTVSPost2010PropOp34
 70
     1
102
RTVSPost2010Prop35
280
     0
102
RTVSPost2010PropOp35
 70
     1
102
RTVSPost2010Prop36
280
     0
102
RTVSPost2010PropOp36
 70
     1
102
RTVSPost2010Prop37
 90
       50
102
RTVSPost2010PropOp37
 70
     0
102
RTVSPost2010Prop38
140
0.0
102
RTVSPost2010PropOp38
 70
     0
102
RTVSPost2010Prop39
140
1.0
102
RTVSPost2010PropOp39
 70
     0
102
RTVSPost2010Prop40
 90
        0
102
RTVSPost2010PropOp40
 70
     0
102
RTVSPost2010Prop41ColorIndex
 90
       18
102
RTVSPost2010Prop41ColorRGB
 90
        0
102
RTVSPost2010PropOp41
 70
     0
102
RTVSPost2010Prop42
 90
       50
102
RTVSPost2010PropOp42
 70
     0
102
RTVSPost2010Prop43
 90
        3
102
RTVSPost2010PropOp43
 70
     0
102
RTVSPost2010Prop44ColorIndex
 90
        5
102
RTVSPost2010Prop44ColorRGB
 90
      255
102
RTVSPost2010PropOp44
 70
     0
102
RTVSPost2010Prop45
280
     0
102
RTVSPost2010PropOp45
 70
     1
102
RTVSPost2010Prop46
 90
       50
102
RTVSPost2010PropOp46
 70
     0
102
RTVSPost2010Prop47
 90
       50
102
RTVSPost2010PropOp47
 70
     0
102
RTVSPost2010Prop48
 90
       50
102
RTVSPost2010PropOp48
 70
     0
102
RTVSPost2010Prop49
280
     0
102
RTVSPost2010PropOp49
 70
     1
102
RTVSPost2010Prop50
 90
       50
102
RTVSPost2010PropOp50
 70
     0
102
RTVSPost2010Prop51ColorIndex
 90
      256
102
RTVSPost2010Prop51ColorRGB
 90
-16777216
102
RTVSPost2010PropOp51
 70
     0
102
RTVSPost2010Prop52
140
1.0
102
RTVSPost2010PropOp52
 70
     0
102
RTVSPost2010Prop53
 90
        2
102
RTVSPost2010PropOp53
 70
     0
102
RTVSPost2010Prop54
  1
strokes_ogs.tif
102
RTVSPost2010PropOp54
 70
     0
102
RTVSPost2010Prop55
280
     0
102
RTVSPost2010PropOp55
 70
     1
102
RTVSPost2010Prop56
140
1.0
102
RTVSPost2010PropOp56
 70
     0
102
RTVSPost2010Prop57
140
1.0
102
RTVSPost2010PropOp57
 70
     0
102
RTVSPropertyOp0
 70
     0
102
RTVSPropertyOp1
 70
     0
102
RTVSPropertyOp2
 70
     0
102
RTVSPropertyOp3
 70
     0
102
RTVSPropertyOp4
 70
     0
102
RTVSPropertyOp5
 70
     0
102
RTVSPropertyOp6
 70
     0
102
RTVSPropertyOp7
 70
     0
102
RTVSPropertyOp8
 70
     0
102
RTVSPropertyOp9
 70
     0
102
RTVSPropertyOp10
 70
     0
102
RTVSPropertyOp11
 70
     0
102
RTVSPropertyOp12
 70
     0
102
RTVSPropertyOp13
 70
     0
102
RTVSPropertyOp14
 70
     2
102
RTVSPropertyOp15
 70
     0
102
RTVSPropertyOp16
 70
     0
102
RTVSPropertyOp17
 70
     0
102
RTVSPropertyOp18
 70
     0
102
RTVSPropertyOp19
 70
     0
102
RTVSPropertyOp20
 70
     0
102
RTVSPropertyOp21
 70
     0
102
RTVSPropertyOp22
 70
     0
102
RTVSPropertyOp23
 70
     0
102
RTVSPropertyOp24
 70
     0
102
RTVSPropertyOp25
 70
     0
102
RTVSPropertyOp26
 70
     0
102
RTVSPropertyOp27
 70
     0
102
RTVSPropertyOp28
 70
     1
102
RTVSPropertyOp29
 70
     1
102
RTVSPropertyOp30
 70
     1
102
RTVSPropertyOp31
 70
     1
102
RTVSPropertyOp32
 70
     1
102
RTVSPropertyOp33
 70
     1
102
RTVSPropertyOp34
 70
     1
102
RTVSPropertyOp35
 70
     1
102
RTVSPropertyOp36
 70
     1
102
RTVSPropertyOp37
 70
     0
102
RTVSPropertyOp38
 70
     0
102
RTVSPropertyOp39
 70
     0
102
RTVSPropertyOp40
 70
     0
102
RTVSPropertyOp41
 70
     0
102
RTVSPropertyOp42
 70
     0
102
RTVSPropertyOp43
 70
     0
102
RTVSPropertyOp44
 70
     0
102
RTVSPropertyOp45
 70
     1
102
RTVSPropertyOp46
 70
     0
102
RTVSPropertyOp47
 70
     0
102
RTVSPropertyOp48
 70
     0
102
RTVSPropertyOp49
 70
     1
102
RTVSPropertyOp50
 70
     0
102
RTVSPropertyOp51
 70
     0
102
RTVSPropertyOp52
 70
     0
102
RTVSPropertyOp53
 70
     0
102
RTVSPropertyOp54
 70
     0
102
RTVSPropertyOp55
 70
     1
102
RTVSPropertyOp56
 70
     0
102
RTVSPropertyOp57
 70
     0
102
RTVSPropertyOp58
 70
     0
102
RTVSPropertyOp59
 70
     0
102
RTVSPropertyOp60
 70
     0
102
RTVSPropertyOp61
 70
     0
102
RTVSPropertyOp62
 70
     0
  0
XRECORD
  5
889
102
{ACAD_REACTORS
330
888
102
}
330
888
100
AcDbXrecord
280
     1
102
RTVSPost2010Prop28
280
     0
102
RTVSPost2010PropOp28
 70
     1
102
RTVSPost2010Prop29
280
     1
102
RTVSPost2010PropOp29
 70
     1
102
RTVSPost2010Prop30
280
     1
102
RTVSPost2010PropOp30
 70
     1
102
RTVSPost2010Prop31
280
     0
102
RTVSPost2010PropOp31
 70
     1
102
RTVSPost2010Prop32
280
     0
102
RTVSPost2010PropOp32
 70
     1
102
RTVSPost2010Prop33
280
     0
102
RTVSPost2010PropOp33
 70
     1
102
RTVSPost2010Prop34
280
     0
102
RTVSPost2010PropOp34
 70
     1
102
RTVSPost2010Prop35
280
     0
102
RTVSPost2010PropOp35
 70
     1
102
RTVSPost2010Prop36
280
     0
102
RTVSPost2010PropOp36
 70
     1
102
RTVSPost2010Prop37
 90
       50
102
RTVSPost2010PropOp37
 70
     1
102
RTVSPost2010Prop38
140
0.0
102
RTVSPost2010PropOp38
 70
     1
102
RTVSPost2010Prop39
140
1.0
102
RTVSPost2010PropOp39
 70
     1
102
RTVSPost2010Prop40
 90
        0
102
RTVSPost2010PropOp40
 70
     1
102
RTVSPost2010Prop41ColorIndex
 90
       18
102
RTVSPost2010Prop41ColorRGB
 90
        0
102
RTVSPost2010PropOp41
 70
     1
102
RTVSPost2010Prop42
 90
       50
102
RTVSPost2010PropOp42
 70
     1
102
RTVSPost2010Prop43
 90
        3
102
RTVSPost2010PropOp43
 70
     1
102
RTVSPost2010Prop44ColorIndex
 90
        5
102
RTVSPost2010Prop44ColorRGB
 90
      255
102
RTVSPost2010PropOp44
 70
     1
102
RTVSPost2010Prop45
280
     0
102
RTVSPost2010PropOp45
 70
     1
102
RTVSPost2010Prop46
 90
       50
102
RTVSPost2010PropOp46
 70
     1
102
RTVSPost2010Prop47
 90
       50
102
RTVSPost2010PropOp47
 70
     1
102
RTVSPost2010Prop48
 90
       50
102
RTVSPost2010PropOp48
 70
     1
102
RTVSPost2010Prop49
280
     0
102
RTVSPost2010PropOp49
 70
     1
102
RTVSPost2010Prop50
 90
       50
102
RTVSPost2010PropOp50
 70
     1
102
RTVSPost2010Prop51ColorIndex
 90
      256
102
RTVSPost2010Prop51ColorRGB
 90
-16777216
102
RTVSPost2010PropOp51
 70
     0
102
RTVSPost2010Prop52
140
1.0
102
RTVSPost2010PropOp52
 70
     0
102
RTVSPost2010Prop53
 90
        2
102
RTVSPost2010PropOp53
 70
     1
102
RTVSPost2010Prop54
  1
strokes_ogs.tif
102
RTVSPost2010PropOp54
 70
     1
102
RTVSPost2010Prop55
280
     0
102
RTVSPost2010PropOp55
 70
     1
102
RTVSPost2010Prop56
140
1.0
102
RTVSPost2010PropOp56
 70
     1
102
RTVSPost2010Prop57
140
1.0
102
RTVSPost2010PropOp57
 70
     1
102
RTVSPropertyOp0
 70
     1
102
RTVSPropertyOp1
 70
     1
102
RTVSPropertyOp2
 70
     1
102
RTVSPropertyOp3
 70
     1
102
RTVSPropertyOp4
 70
     1
102
RTVSPropertyOp5
 70
     1
102
RTVSPropertyOp6
 70
     1
102
RTVSPropertyOp7
 70
     1
102
RTVSPropertyOp8
 70
     1
102
RTVSPropertyOp9
 70
     1
102
RTVSPropertyOp10
 70
     1
102
RTVSPropertyOp11
 70
     1
102
RTVSPropertyOp12
 70
     1
102
RTVSPropertyOp13
 70
     1
102
RTVSPropertyOp14
 70
     1
102
RTVSPropertyOp15
 70
     1
102
RTVSPropertyOp16
 70
     1
102
RTVSPropertyOp17
 70
     1
102
RTVSPropertyOp18
 70
     1
102
RTVSPropertyOp19
 70
     1
102
RTVSPropertyOp20
 70
     1
102
RTVSPropertyOp21
 70
     1
102
RTVSPropertyOp22
 70
     1
102
RTVSPropertyOp23
 70
     1
102
RTVSPropertyOp24
 70
     1
102
RTVSPropertyOp25
 70
     1
102
RTVSPropertyOp26
 70
     1
102
RTVSPropertyOp27
 70
     1
102
RTVSPropertyOp28
 70
     1
102
RTVSPropertyOp29
 70
     1
102
RTVSPropertyOp30
 70
     1
102
RTVSPropertyOp31
 70
     1
102
RTVSPropertyOp32
 70
     1
102
RTVSPropertyOp33
 70
     1
102
RTVSPropertyOp34
 70
     1
102
RTVSPropertyOp35
 70
     1
102
RTVSPropertyOp36
 70
     1
102
RTVSPropertyOp37
 70
     1
102
RTVSPropertyOp38
 70
     1
102
RTVSPropertyOp39
 70
     1
102
RTVSPropertyOp40
 70
     1
102
RTVSPropertyOp41
 70
     1
102
RTVSPropertyOp42
 70
     1
102
RTVSPropertyOp43
 70
     1
102
RTVSPropertyOp44
 70
     1
102
RTVSPropertyOp45
 70
     1
102
RTVSPropertyOp46
 70
     1
102
RTVSPropertyOp47
 70
     1
102
RTVSPropertyOp48
 70
     1
102
RTVSPropertyOp49
 70
     1
102
RTVSPropertyOp50
 70
     1
102
RTVSPropertyOp51
 70
     0
102
RTVSPropertyOp52
 70
     0
102
RTVSPropertyOp53
 70
     1
102
RTVSPropertyOp54
 70
     1
102
RTVSPropertyOp55
 70
     1
102
RTVSPropertyOp56
 70
     1
102
RTVSPropertyOp57
 70
     1
102
RTVSPropertyOp58
 70
     1
102
RTVSPropertyOp59
 70
     1
102
RTVSPropertyOp60
 70
     1
102
RTVSPropertyOp61
 70
     1
102
RTVSPropertyOp62
 70
     1
  0
XRECORD
  5
86D
102
{ACAD_REACTORS
330
86C
102
}
330
86C
100
AcDbXrecord
280
     1
102
RTVSPost2010Prop28
280
     0
102
RTVSPost2010PropOp28
 70
     1
102
RTVSPost2010Prop29
280
     1
102
RTVSPost2010PropOp29
 70
     1
102
RTVSPost2010Prop30
280
     1
102
RTVSPost2010PropOp30
 70
     1
102
RTVSPost2010Prop31
280
     0
102
RTVSPost2010PropOp31
 70
     1
102
RTVSPost2010Prop32
280
     0
102
RTVSPost2010PropOp32
 70
     1
102
RTVSPost2010Prop33
280
     0
102
RTVSPost2010PropOp33
 70
     1
102
RTVSPost2010Prop34
280
     0
102
RTVSPost2010PropOp34
 70
     1
102
RTVSPost2010Prop35
280
     0
102
RTVSPost2010PropOp35
 70
     1
102
RTVSPost2010Prop36
280
     0
102
RTVSPost2010PropOp36
 70
     1
102
RTVSPost2010Prop37
 90
       50
102
RTVSPost2010PropOp37
 70
     1
102
RTVSPost2010Prop38
140
0.0
102
RTVSPost2010PropOp38
 70
     1
102
RTVSPost2010Prop39
140
1.0
102
RTVSPost2010PropOp39
 70
     1
102
RTVSPost2010Prop40
 90
        0
102
RTVSPost2010PropOp40
 70
     1
102
RTVSPost2010Prop41ColorIndex
 90
       18
102
RTVSPost2010Prop41ColorRGB
 90
        0
102
RTVSPost2010PropOp41
 70
     1
102
RTVSPost2010Prop42
 90
       50
102
RTVSPost2010PropOp42
 70
     1
102
RTVSPost2010Prop43
 90
        3
102
RTVSPost2010PropOp43
 70
     1
102
RTVSPost2010Prop44ColorIndex
 90
        5
102
RTVSPost2010Prop44ColorRGB
 90
      255
102
RTVSPost2010PropOp44
 70
     1
102
RTVSPost2010Prop45
280
     0
102
RTVSPost2010PropOp45
 70
     1
102
RTVSPost2010Prop46
 90
       50
102
RTVSPost2010PropOp46
 70
     1
102
RTVSPost2010Prop47
 90
       50
102
RTVSPost2010PropOp47
 70
     1
102
RTVSPost2010Prop48
 90
       50
102
RTVSPost2010PropOp48
 70
     1
102
RTVSPost2010Prop49
280
     0
102
RTVSPost2010PropOp49
 70
     1
102
RTVSPost2010Prop50
 90
       50
102
RTVSPost2010PropOp50
 70
     1
102
RTVSPost2010Prop51ColorIndex
 90
      256
102
RTVSPost2010Prop51ColorRGB
 90
-16777216
102
RTVSPost2010PropOp51
 70
     0
102
RTVSPost2010Prop52
140
1.0
102
RTVSPost2010PropOp52
 70
     0
102
RTVSPost2010Prop53
 90
        2
102
RTVSPost2010PropOp53
 70
     1
102
RTVSPost2010Prop54
  1
strokes_ogs.tif
102
RTVSPost2010PropOp54
 70
     1
102
RTVSPost2010Prop55
280
     0
102
RTVSPost2010PropOp55
 70
     1
102
RTVSPost2010Prop56
140
1.0
102
RTVSPost2010PropOp56
 70
     1
102
RTVSPost2010Prop57
140
1.0
102
RTVSPost2010PropOp57
 70
     1
102
RTVSPropertyOp0
 70
     1
102
RTVSPropertyOp1
 70
     1
102
RTVSPropertyOp2
 70
     1
102
RTVSPropertyOp3
 70
     1
102
RTVSPropertyOp4
 70
     1
102
RTVSPropertyOp5
 70
     1
102
RTVSPropertyOp6
 70
     1
102
RTVSPropertyOp7
 70
     1
102
RTVSPropertyOp8
 70
     1
102
RTVSPropertyOp9
 70
     1
102
RTVSPropertyOp10
 70
     1
102
RTVSPropertyOp11
 70
     1
102
RTVSPropertyOp12
 70
     1
102
RTVSPropertyOp13
 70
     1
102
RTVSPropertyOp14
 70
     1
102
RTVSPropertyOp15
 70
     1
102
RTVSPropertyOp16
 70
     1
102
RTVSPropertyOp17
 70
     1
102
RTVSPropertyOp18
 70
     1
102
RTVSPropertyOp19
 70
     1
102
RTVSPropertyOp20
 70
     1
102
RTVSPropertyOp21
 70
     1
102
RTVSPropertyOp22
 70
     1
102
RTVSPropertyOp23
 70
     1
102
RTVSPropertyOp24
 70
     1
102
RTVSPropertyOp25
 70
     1
102
RTVSPropertyOp26
 70
     1
102
RTVSPropertyOp27
 70
     1
102
RTVSPropertyOp28
 70
     1
102
RTVSPropertyOp29
 70
     1
102
RTVSPropertyOp30
 70
     1
102
RTVSPropertyOp31
 70
     1
102
RTVSPropertyOp32
 70
     1
102
RTVSPropertyOp33
 70
     1
102
RTVSPropertyOp34
 70
     1
102
RTVSPropertyOp35
 70
     1
102
RTVSPropertyOp36
 70
     1
102
RTVSPropertyOp37
 70
     1
102
RTVSPropertyOp38
 70
     1
102
RTVSPropertyOp39
 70
     1
102
RTVSPropertyOp40
 70
     1
102
RTVSPropertyOp41
 70
     1
102
RTVSPropertyOp42
 70
     1
102
RTVSPropertyOp43
 70
     1
102
RTVSPropertyOp44
 70
     1
102
RTVSPropertyOp45
 70
     1
102
RTVSPropertyOp46
 70
     1
102
RTVSPropertyOp47
 70
     1
102
RTVSPropertyOp48
 70
     1
102
RTVSPropertyOp49
 70
     1
102
RTVSPropertyOp50
 70
     1
102
RTVSPropertyOp51
 70
     0
102
RTVSPropertyOp52
 70
     0
102
RTVSPropertyOp53
 70
     1
102
RTVSPropertyOp54
 70
     1
102
RTVSPropertyOp55
 70
     1
102
RTVSPropertyOp56
 70
     1
102
RTVSPropertyOp57
 70
     1
102
RTVSPropertyOp58
 70
     1
102
RTVSPropertyOp59
 70
     1
102
RTVSPropertyOp60
 70
     1
102
RTVSPropertyOp61
 70
     1
102
RTVSPropertyOp62
 70
     1
  0
XRECORD
  5
86F
102
{ACAD_REACTORS
330
86E
102
}
330
86E
100
AcDbXrecord
280
     1
102
RTVSPost2010Prop28
280
     0
102
RTVSPost2010PropOp28
 70
     1
102
RTVSPost2010Prop29
280
     1
102
RTVSPost2010PropOp29
 70
     1
102
RTVSPost2010Prop30
280
     1
102
RTVSPost2010PropOp30
 70
     1
102
RTVSPost2010Prop31
280
     0
102
RTVSPost2010PropOp31
 70
     1
102
RTVSPost2010Prop32
280
     0
102
RTVSPost2010PropOp32
 70
     1
102
RTVSPost2010Prop33
280
     0
102
RTVSPost2010PropOp33
 70
     1
102
RTVSPost2010Prop34
280
     0
102
RTVSPost2010PropOp34
 70
     1
102
RTVSPost2010Prop35
280
     0
102
RTVSPost2010PropOp35
 70
     1
102
RTVSPost2010Prop36
280
     0
102
RTVSPost2010PropOp36
 70
     1
102
RTVSPost2010Prop37
 90
       50
102
RTVSPost2010PropOp37
 70
     1
102
RTVSPost2010Prop38
140
0.0
102
RTVSPost2010PropOp38
 70
     1
102
RTVSPost2010Prop39
140
1.0
102
RTVSPost2010PropOp39
 70
     1
102
RTVSPost2010Prop40
 90
        0
102
RTVSPost2010PropOp40
 70
     1
102
RTVSPost2010Prop41ColorIndex
 90
       18
102
RTVSPost2010Prop41ColorRGB
 90
        0
102
RTVSPost2010PropOp41
 70
     1
102
RTVSPost2010Prop42
 90
       50
102
RTVSPost2010PropOp42
 70
     1
102
RTVSPost2010Prop43
 90
        3
102
RTVSPost2010PropOp43
 70
     1
102
RTVSPost2010Prop44ColorIndex
 90
        5
102
RTVSPost2010Prop44ColorRGB
 90
      255
102
RTVSPost2010PropOp44
 70
     1
102
RTVSPost2010Prop45
280
     0
102
RTVSPost2010PropOp45
 70
     1
102
RTVSPost2010Prop46
 90
       50
102
RTVSPost2010PropOp46
 70
     1
102
RTVSPost2010Prop47
 90
       50
102
RTVSPost2010PropOp47
 70
     1
102
RTVSPost2010Prop48
 90
       50
102
RTVSPost2010PropOp48
 70
     1
102
RTVSPost2010Prop49
280
     0
102
RTVSPost2010PropOp49
 70
     1
102
RTVSPost2010Prop50
 90
       50
102
RTVSPost2010PropOp50
 70
     1
102
RTVSPost2010Prop51ColorIndex
 90
      256
102
RTVSPost2010Prop51ColorRGB
 90
-16777216
102
RTVSPost2010PropOp51
 70
     0
102
RTVSPost2010Prop52
140
1.0
102
RTVSPost2010PropOp52
 70
     0
102
RTVSPost2010Prop53
 90
        2
102
RTVSPost2010PropOp53
 70
     1
102
RTVSPost2010Prop54
  1
strokes_ogs.tif
102
RTVSPost2010PropOp54
 70
     1
102
RTVSPost2010Prop55
280
     0
102
RTVSPost2010PropOp55
 70
     1
102
RTVSPost2010Prop56
140
1.0
102
RTVSPost2010PropOp56
 70
     1
102
RTVSPost2010Prop57
140
1.0
102
RTVSPost2010PropOp57
 70
     1
102
RTVSPropertyOp0
 70
     1
102
RTVSPropertyOp1
 70
     1
102
RTVSPropertyOp2
 70
     1
102
RTVSPropertyOp3
 70
     1
102
RTVSPropertyOp4
 70
     1
102
RTVSPropertyOp5
 70
     1
102
RTVSPropertyOp6
 70
     1
102
RTVSPropertyOp7
 70
     1
102
RTVSPropertyOp8
 70
     1
102
RTVSPropertyOp9
 70
     1
102
RTVSPropertyOp10
 70
     1
102
RTVSPropertyOp11
 70
     1
102
RTVSPropertyOp12
 70
     1
102
RTVSPropertyOp13
 70
     1
102
RTVSPropertyOp14
 70
     1
102
RTVSPropertyOp15
 70
     1
102
RTVSPropertyOp16
 70
     1
102
RTVSPropertyOp17
 70
     1
102
RTVSPropertyOp18
 70
     1
102
RTVSPropertyOp19
 70
     1
102
RTVSPropertyOp20
 70
     1
102
RTVSPropertyOp21
 70
     1
102
RTVSPropertyOp22
 70
     1
102
RTVSPropertyOp23
 70
     1
102
RTVSPropertyOp24
 70
     1
102
RTVSPropertyOp25
 70
     1
102
RTVSPropertyOp26
 70
     1
102
RTVSPropertyOp27
 70
     1
102
RTVSPropertyOp28
 70
     1
102
RTVSPropertyOp29
 70
     1
102
RTVSPropertyOp30
 70
     1
102
RTVSPropertyOp31
 70
     1
102
RTVSPropertyOp32
 70
     1
102
RTVSPropertyOp33
 70
     1
102
RTVSPropertyOp34
 70
     1
102
RTVSPropertyOp35
 70
     1
102
RTVSPropertyOp36
 70
     1
102
RTVSPropertyOp37
 70
     1
102
RTVSPropertyOp38
 70
     1
102
RTVSPropertyOp39
 70
     1
102
RTVSPropertyOp40
 70
     1
102
RTVSPropertyOp41
 70
     1
102
RTVSPropertyOp42
 70
     1
102
RTVSPropertyOp43
 70
     1
102
RTVSPropertyOp44
 70
     1
102
RTVSPropertyOp45
 70
     1
102
RTVSPropertyOp46
 70
     1
102
RTVSPropertyOp47
 70
     1
102
RTVSPropertyOp48
 70
     1
102
RTVSPropertyOp49
 70
     1
102
RTVSPropertyOp50
 70
     1
102
RTVSPropertyOp51
 70
     0
102
RTVSPropertyOp52
 70
     0
102
RTVSPropertyOp53
 70
     1
102
RTVSPropertyOp54
 70
     1
102
RTVSPropertyOp55
 70
     1
102
RTVSPropertyOp56
 70
     1
102
RTVSPropertyOp57
 70
     1
102
RTVSPropertyOp58
 70
     1
102
RTVSPropertyOp59
 70
     1
102
RTVSPropertyOp60
 70
     1
102
RTVSPropertyOp61
 70
     1
102
RTVSPropertyOp62
 70
     1
  0
XRECORD
  5
871
102
{ACAD_REACTORS
330
870
102
}
330
870
100
AcDbXrecord
280
     1
102
RTVSPost2010Prop28
280
     0
102
RTVSPost2010PropOp28
 70
     1
102
RTVSPost2010Prop29
280
     1
102
RTVSPost2010PropOp29
 70
     1
102
RTVSPost2010Prop30
280
     1
102
RTVSPost2010PropOp30
 70
     1
102
RTVSPost2010Prop31
280
     0
102
RTVSPost2010PropOp31
 70
     1
102
RTVSPost2010Prop32
280
     0
102
RTVSPost2010PropOp32
 70
     1
102
RTVSPost2010Prop33
280
     0
102
RTVSPost2010PropOp33
 70
     1
102
RTVSPost2010Prop34
280
     0
102
RTVSPost2010PropOp34
 70
     1
102
RTVSPost2010Prop35
280
     0
102
RTVSPost2010PropOp35
 70
     1
102
RTVSPost2010Prop36
280
     0
102
RTVSPost2010PropOp36
 70
     1
102
RTVSPost2010Prop37
 90
       50
102
RTVSPost2010PropOp37
 70
     1
102
RTVSPost2010Prop38
140
0.0
102
RTVSPost2010PropOp38
 70
     1
102
RTVSPost2010Prop39
140
1.0
102
RTVSPost2010PropOp39
 70
     1
102
RTVSPost2010Prop40
 90
        0
102
RTVSPost2010PropOp40
 70
     1
102
RTVSPost2010Prop41ColorIndex
 90
       18
102
RTVSPost2010Prop41ColorRGB
 90
        0
102
RTVSPost2010PropOp41
 70
     1
102
RTVSPost2010Prop42
 90
       50
102
RTVSPost2010PropOp42
 70
     1
102
RTVSPost2010Prop43
 90
        3
102
RTVSPost2010PropOp43
 70
     1
102
RTVSPost2010Prop44ColorIndex
 90
        5
102
RTVSPost2010Prop44ColorRGB
 90
      255
102
RTVSPost2010PropOp44
 70
     1
102
RTVSPost2010Prop45
280
     0
102
RTVSPost2010PropOp45
 70
     1
102
RTVSPost2010Prop46
 90
       50
102
RTVSPost2010PropOp46
 70
     1
102
RTVSPost2010Prop47
 90
       50
102
RTVSPost2010PropOp47
 70
     1
102
RTVSPost2010Prop48
 90
       50
102
RTVSPost2010PropOp48
 70
     1
102
RTVSPost2010Prop49
280
     0
102
RTVSPost2010PropOp49
 70
     1
102
RTVSPost2010Prop50
 90
       50
102
RTVSPost2010PropOp50
 70
     1
102
RTVSPost2010Prop51ColorIndex
 90
      256
102
RTVSPost2010Prop51ColorRGB
 90
-16777216
102
RTVSPost2010PropOp51
 70
     0
102
RTVSPost2010Prop52
140
1.0
102
RTVSPost2010PropOp52
 70
     0
102
RTVSPost2010Prop53
 90
        2
102
RTVSPost2010PropOp53
 70
     1
102
RTVSPost2010Prop54
  1
strokes_ogs.tif
102
RTVSPost2010PropOp54
 70
     1
102
RTVSPost2010Prop55
280
     0
102
RTVSPost2010PropOp55
 70
     1
102
RTVSPost2010Prop56
140
1.0
102
RTVSPost2010PropOp56
 70
     1
102
RTVSPost2010Prop57
140
1.0
102
RTVSPost2010PropOp57
 70
     1
102
RTVSPropertyOp0
 70
     1
102
RTVSPropertyOp1
 70
     1
102
RTVSPropertyOp2
 70
     1
102
RTVSPropertyOp3
 70
     1
102
RTVSPropertyOp4
 70
     1
102
RTVSPropertyOp5
 70
     1
102
RTVSPropertyOp6
 70
     1
102
RTVSPropertyOp7
 70
     1
102
RTVSPropertyOp8
 70
     1
102
RTVSPropertyOp9
 70
     1
102
RTVSPropertyOp10
 70
     1
102
RTVSPropertyOp11
 70
     1
102
RTVSPropertyOp12
 70
     1
102
RTVSPropertyOp13
 70
     1
102
RTVSPropertyOp14
 70
     1
102
RTVSPropertyOp15
 70
     1
102
RTVSPropertyOp16
 70
     1
102
RTVSPropertyOp17
 70
     1
102
RTVSPropertyOp18
 70
     1
102
RTVSPropertyOp19
 70
     1
102
RTVSPropertyOp20
 70
     1
102
RTVSPropertyOp21
 70
     1
102
RTVSPropertyOp22
 70
     1
102
RTVSPropertyOp23
 70
     1
102
RTVSPropertyOp24
 70
     1
102
RTVSPropertyOp25
 70
     1
102
RTVSPropertyOp26
 70
     1
102
RTVSPropertyOp27
 70
     1
102
RTVSPropertyOp28
 70
     1
102
RTVSPropertyOp29
 70
     1
102
RTVSPropertyOp30
 70
     1
102
RTVSPropertyOp31
 70
     1
102
RTVSPropertyOp32
 70
     1
102
RTVSPropertyOp33
 70
     1
102
RTVSPropertyOp34
 70
     1
102
RTVSPropertyOp35
 70
     1
102
RTVSPropertyOp36
 70
     1
102
RTVSPropertyOp37
 70
     1
102
RTVSPropertyOp38
 70
     1
102
RTVSPropertyOp39
 70
     1
102
RTVSPropertyOp40
 70
     1
102
RTVSPropertyOp41
 70
     1
102
RTVSPropertyOp42
 70
     1
102
RTVSPropertyOp43
 70
     1
102
RTVSPropertyOp44
 70
     1
102
RTVSPropertyOp45
 70
     1
102
RTVSPropertyOp46
 70
     1
102
RTVSPropertyOp47
 70
     1
102
RTVSPropertyOp48
 70
     1
102
RTVSPropertyOp49
 70
     1
102
RTVSPropertyOp50
 70
     1
102
RTVSPropertyOp51
 70
     0
102
RTVSPropertyOp52
 70
     0
102
RTVSPropertyOp53
 70
     1
102
RTVSPropertyOp54
 70
     1
102
RTVSPropertyOp55
 70
     1
102
RTVSPropertyOp56
 70
     1
102
RTVSPropertyOp57
 70
     1
102
RTVSPropertyOp58
 70
     1
102
RTVSPropertyOp59
 70
     1
102
RTVSPropertyOp60
 70
     1
102
RTVSPropertyOp61
 70
     1
102
RTVSPropertyOp62
 70
     1
  0
XRECORD
  5
873
102
{ACAD_REACTORS
330
872
102
}
330
872
100
AcDbXrecord
280
     1
102
RTVSPost2010Prop28
280
     0
102
RTVSPost2010PropOp28
 70
     1
102
RTVSPost2010Prop29
280
     1
102
RTVSPost2010PropOp29
 70
     1
102
RTVSPost2010Prop30
280
     1
102
RTVSPost2010PropOp30
 70
     1
102
RTVSPost2010Prop31
280
     0
102
RTVSPost2010PropOp31
 70
     1
102
RTVSPost2010Prop32
280
     0
102
RTVSPost2010PropOp32
 70
     1
102
RTVSPost2010Prop33
280
     0
102
RTVSPost2010PropOp33
 70
     1
102
RTVSPost2010Prop34
280
     0
102
RTVSPost2010PropOp34
 70
     1
102
RTVSPost2010Prop35
280
     0
102
RTVSPost2010PropOp35
 70
     1
102
RTVSPost2010Prop36
280
     0
102
RTVSPost2010PropOp36
 70
     1
102
RTVSPost2010Prop37
 90
       50
102
RTVSPost2010PropOp37
 70
     1
102
RTVSPost2010Prop38
140
0.0
102
RTVSPost2010PropOp38
 70
     1
102
RTVSPost2010Prop39
140
1.0
102
RTVSPost2010PropOp39
 70
     1
102
RTVSPost2010Prop40
 90
        0
102
RTVSPost2010PropOp40
 70
     1
102
RTVSPost2010Prop41ColorIndex
 90
       18
102
RTVSPost2010Prop41ColorRGB
 90
        0
102
RTVSPost2010PropOp41
 70
     1
102
RTVSPost2010Prop42
 90
       50
102
RTVSPost2010PropOp42
 70
     1
102
RTVSPost2010Prop43
 90
        3
102
RTVSPost2010PropOp43
 70
     1
102
RTVSPost2010Prop44ColorIndex
 90
        5
102
RTVSPost2010Prop44ColorRGB
 90
      255
102
RTVSPost2010PropOp44
 70
     1
102
RTVSPost2010Prop45
280
     0
102
RTVSPost2010PropOp45
 70
     1
102
RTVSPost2010Prop46
 90
       50
102
RTVSPost2010PropOp46
 70
     1
102
RTVSPost2010Prop47
 90
       50
102
RTVSPost2010PropOp47
 70
     1
102
RTVSPost2010Prop48
 90
       50
102
RTVSPost2010PropOp48
 70
     1
102
RTVSPost2010Prop49
280
     0
102
RTVSPost2010PropOp49
 70
     1
102
RTVSPost2010Prop50
 90
       50
102
RTVSPost2010PropOp50
 70
     1
102
RTVSPost2010Prop51ColorIndex
 90
      256
102
RTVSPost2010Prop51ColorRGB
 90
-16777216
102
RTVSPost2010PropOp51
 70
     0
102
RTVSPost2010Prop52
140
1.0
102
RTVSPost2010PropOp52
 70
     0
102
RTVSPost2010Prop53
 90
        2
102
RTVSPost2010PropOp53
 70
     1
102
RTVSPost2010Prop54
  1
strokes_ogs.tif
102
RTVSPost2010PropOp54
 70
     1
102
RTVSPost2010Prop55
280
     0
102
RTVSPost2010PropOp55
 70
     1
102
RTVSPost2010Prop56
140
1.0
102
RTVSPost2010PropOp56
 70
     1
102
RTVSPost2010Prop57
140
1.0
102
RTVSPost2010PropOp57
 70
     1
102
RTVSPropertyOp0
 70
     1
102
RTVSPropertyOp1
 70
     1
102
RTVSPropertyOp2
 70
     1
102
RTVSPropertyOp3
 70
     1
102
RTVSPropertyOp4
 70
     1
102
RTVSPropertyOp5
 70
     1
102
RTVSPropertyOp6
 70
     1
102
RTVSPropertyOp7
 70
     1
102
RTVSPropertyOp8
 70
     1
102
RTVSPropertyOp9
 70
     1
102
RTVSPropertyOp10
 70
     1
102
RTVSPropertyOp11
 70
     1
102
RTVSPropertyOp12
 70
     1
102
RTVSPropertyOp13
 70
     1
102
RTVSPropertyOp14
 70
     1
102
RTVSPropertyOp15
 70
     1
102
RTVSPropertyOp16
 70
     1
102
RTVSPropertyOp17
 70
     1
102
RTVSPropertyOp18
 70
     1
102
RTVSPropertyOp19
 70
     1
102
RTVSPropertyOp20
 70
     1
102
RTVSPropertyOp21
 70
     1
102
RTVSPropertyOp22
 70
     1
102
RTVSPropertyOp23
 70
     1
102
RTVSPropertyOp24
 70
     1
102
RTVSPropertyOp25
 70
     1
102
RTVSPropertyOp26
 70
     1
102
RTVSPropertyOp27
 70
     1
102
RTVSPropertyOp28
 70
     1
102
RTVSPropertyOp29
 70
     1
102
RTVSPropertyOp30
 70
     1
102
RTVSPropertyOp31
 70
     1
102
RTVSPropertyOp32
 70
     1
102
RTVSPropertyOp33
 70
     1
102
RTVSPropertyOp34
 70
     1
102
RTVSPropertyOp35
 70
     1
102
RTVSPropertyOp36
 70
     1
102
RTVSPropertyOp37
 70
     1
102
RTVSPropertyOp38
 70
     1
102
RTVSPropertyOp39
 70
     1
102
RTVSPropertyOp40
 70
     1
102
RTVSPropertyOp41
 70
     1
102
RTVSPropertyOp42
 70
     1
102
RTVSPropertyOp43
 70
     1
102
RTVSPropertyOp44
 70
     1
102
RTVSPropertyOp45
 70
     1
102
RTVSPropertyOp46
 70
     1
102
RTVSPropertyOp47
 70
     1
102
RTVSPropertyOp48
 70
     1
102
RTVSPropertyOp49
 70
     1
102
RTVSPropertyOp50
 70
     1
102
RTVSPropertyOp51
 70
     0
102
RTVSPropertyOp52
 70
     0
102
RTVSPropertyOp53
 70
     1
102
RTVSPropertyOp54
 70
     1
102
RTVSPropertyOp55
 70
     1
102
RTVSPropertyOp56
 70
     1
102
RTVSPropertyOp57
 70
     1
102
RTVSPropertyOp58
 70
     1
102
RTVSPropertyOp59
 70
     1
102
RTVSPropertyOp60
 70
     1
102
RTVSPropertyOp61
 70
     1
102
RTVSPropertyOp62
 70
     1
  0
XRECORD
  5
87B
102
{ACAD_REACTORS
330
87A
102
}
330
87A
100
AcDbXrecord
280
     1
102
RTVSPost2010Prop28
280
     0
102
RTVSPost2010PropOp28
 70
     1
102
RTVSPost2010Prop29
280
     1
102
RTVSPost2010PropOp29
 70
     1
102
RTVSPost2010Prop30
280
     1
102
RTVSPost2010PropOp30
 70
     1
102
RTVSPost2010Prop31
280
     0
102
RTVSPost2010PropOp31
 70
     1
102
RTVSPost2010Prop32
280
     0
102
RTVSPost2010PropOp32
 70
     1
102
RTVSPost2010Prop33
280
     0
102
RTVSPost2010PropOp33
 70
     1
102
RTVSPost2010Prop34
280
     0
102
RTVSPost2010PropOp34
 70
     1
102
RTVSPost2010Prop35
280
     0
102
RTVSPost2010PropOp35
 70
     1
102
RTVSPost2010Prop36
280
     0
102
RTVSPost2010PropOp36
 70
     1
102
RTVSPost2010Prop37
 90
       50
102
RTVSPost2010PropOp37
 70
     1
102
RTVSPost2010Prop38
140
0.0
102
RTVSPost2010PropOp38
 70
     1
102
RTVSPost2010Prop39
140
1.0
102
RTVSPost2010PropOp39
 70
     1
102
RTVSPost2010Prop40
 90
        0
102
RTVSPost2010PropOp40
 70
     1
102
RTVSPost2010Prop41ColorIndex
 90
       18
102
RTVSPost2010Prop41ColorRGB
 90
        0
102
RTVSPost2010PropOp41
 70
     1
102
RTVSPost2010Prop42
 90
       50
102
RTVSPost2010PropOp42
 70
     1
102
RTVSPost2010Prop43
 90
        3
102
RTVSPost2010PropOp43
 70
     1
102
RTVSPost2010Prop44ColorIndex
 90
        5
102
RTVSPost2010Prop44ColorRGB
 90
      255
102
RTVSPost2010PropOp44
 70
     1
102
RTVSPost2010Prop45
280
     0
102
RTVSPost2010PropOp45
 70
     1
102
RTVSPost2010Prop46
 90
       50
102
RTVSPost2010PropOp46
 70
     1
102
RTVSPost2010Prop47
 90
       50
102
RTVSPost2010PropOp47
 70
     1
102
RTVSPost2010Prop48
 90
       50
102
RTVSPost2010PropOp48
 70
     1
102
RTVSPost2010Prop49
280
     0
102
RTVSPost2010PropOp49
 70
     1
102
RTVSPost2010Prop50
 90
       50
102
RTVSPost2010PropOp50
 70
     1
102
RTVSPost2010Prop51ColorIndex
 90
      256
102
RTVSPost2010Prop51ColorRGB
 90
-16777216
102
RTVSPost2010PropOp51
 70
     0
102
RTVSPost2010Prop52
140
1.0
102
RTVSPost2010PropOp52
 70
     0
102
RTVSPost2010Prop53
 90
        2
102
RTVSPost2010PropOp53
 70
     1
102
RTVSPost2010Prop54
  1
strokes_ogs.tif
102
RTVSPost2010PropOp54
 70
     1
102
RTVSPost2010Prop55
280
     0
102
RTVSPost2010PropOp55
 70
     1
102
RTVSPost2010Prop56
140
1.0
102
RTVSPost2010PropOp56
 70
     1
102
RTVSPost2010Prop57
140
1.0
102
RTVSPost2010PropOp57
 70
     1
102
RTVSPropertyOp0
 70
     1
102
RTVSPropertyOp1
 70
     1
102
RTVSPropertyOp2
 70
     1
102
RTVSPropertyOp3
 70
     1
102
RTVSPropertyOp4
 70
     1
102
RTVSPropertyOp5
 70
     1
102
RTVSPropertyOp6
 70
     1
102
RTVSPropertyOp7
 70
     1
102
RTVSPropertyOp8
 70
     1
102
RTVSPropertyOp9
 70
     1
102
RTVSPropertyOp10
 70
     1
102
RTVSPropertyOp11
 70
     1
102
RTVSPropertyOp12
 70
     1
102
RTVSPropertyOp13
 70
     1
102
RTVSPropertyOp14
 70
     1
102
RTVSPropertyOp15
 70
     1
102
RTVSPropertyOp16
 70
     1
102
RTVSPropertyOp17
 70
     1
102
RTVSPropertyOp18
 70
     1
102
RTVSPropertyOp19
 70
     1
102
RTVSPropertyOp20
 70
     1
102
RTVSPropertyOp21
 70
     1
102
RTVSPropertyOp22
 70
     1
102
RTVSPropertyOp23
 70
     1
102
RTVSPropertyOp24
 70
     1
102
RTVSPropertyOp25
 70
     1
102
RTVSPropertyOp26
 70
     1
102
RTVSPropertyOp27
 70
     1
102
RTVSPropertyOp28
 70
     1
102
RTVSPropertyOp29
 70
     1
102
RTVSPropertyOp30
 70
     1
102
RTVSPropertyOp31
 70
     1
102
RTVSPropertyOp32
 70
     1
102
RTVSPropertyOp33
 70
     1
102
RTVSPropertyOp34
 70
     1
102
RTVSPropertyOp35
 70
     1
102
RTVSPropertyOp36
 70
     1
102
RTVSPropertyOp37
 70
     1
102
RTVSPropertyOp38
 70
     1
102
RTVSPropertyOp39
 70
     1
102
RTVSPropertyOp40
 70
     1
102
RTVSPropertyOp41
 70
     1
102
RTVSPropertyOp42
 70
     1
102
RTVSPropertyOp43
 70
     1
102
RTVSPropertyOp44
 70
     1
102
RTVSPropertyOp45
 70
     1
102
RTVSPropertyOp46
 70
     1
102
RTVSPropertyOp47
 70
     1
102
RTVSPropertyOp48
 70
     1
102
RTVSPropertyOp49
 70
     1
102
RTVSPropertyOp50
 70
     1
102
RTVSPropertyOp51
 70
     0
102
RTVSPropertyOp52
 70
     0
102
RTVSPropertyOp53
 70
     1
102
RTVSPropertyOp54
 70
     1
102
RTVSPropertyOp55
 70
     1
102
RTVSPropertyOp56
 70
     1
102
RTVSPropertyOp57
 70
     1
102
RTVSPropertyOp58
 70
     1
102
RTVSPropertyOp59
 70
     1
102
RTVSPropertyOp60
 70
     1
102
RTVSPropertyOp61
 70
     1
102
RTVSPropertyOp62
 70
     1
  0
XRECORD
  5
897
102
{ACAD_REACTORS
330
896
102
}
330
896
100
AcDbXrecord
280
     1
102
RTVSPost2010Prop28
280
     0
102
RTVSPost2010PropOp28
 70
     1
102
RTVSPost2010Prop29
280
     1
102
RTVSPost2010PropOp29
 70
     1
102
RTVSPost2010Prop30
280
     1
102
RTVSPost2010PropOp30
 70
     1
102
RTVSPost2010Prop31
280
     0
102
RTVSPost2010PropOp31
 70
     1
102
RTVSPost2010Prop32
280
     0
102
RTVSPost2010PropOp32
 70
     1
102
RTVSPost2010Prop33
280
     0
102
RTVSPost2010PropOp33
 70
     1
102
RTVSPost2010Prop34
280
     0
102
RTVSPost2010PropOp34
 70
     1
102
RTVSPost2010Prop35
280
     0
102
RTVSPost2010PropOp35
 70
     1
102
RTVSPost2010Prop36
280
     0
102
RTVSPost2010PropOp36
 70
     1
102
RTVSPost2010Prop37
 90
       50
102
RTVSPost2010PropOp37
 70
     0
102
RTVSPost2010Prop38
140
0.0
102
RTVSPost2010PropOp38
 70
     0
102
RTVSPost2010Prop39
140
1.0
102
RTVSPost2010PropOp39
 70
     0
102
RTVSPost2010Prop40
 90
        0
102
RTVSPost2010PropOp40
 70
     0
102
RTVSPost2010Prop41ColorIndex
 90
       18
102
RTVSPost2010Prop41ColorRGB
 90
        0
102
RTVSPost2010PropOp41
 70
     0
102
RTVSPost2010Prop42
 90
       50
102
RTVSPost2010PropOp42
 70
     0
102
RTVSPost2010Prop43
 90
        3
102
RTVSPost2010PropOp43
 70
     0
102
RTVSPost2010Prop44ColorIndex
 90
        5
102
RTVSPost2010Prop44ColorRGB
 90
      255
102
RTVSPost2010PropOp44
 70
     0
102
RTVSPost2010Prop45
280
     0
102
RTVSPost2010PropOp45
 70
     1
102
RTVSPost2010Prop46
 90
       50
102
RTVSPost2010PropOp46
 70
     0
102
RTVSPost2010Prop47
 90
       50
102
RTVSPost2010PropOp47
 70
     0
102
RTVSPost2010Prop48
 90
       50
102
RTVSPost2010PropOp48
 70
     0
102
RTVSPost2010Prop49
280
     0
102
RTVSPost2010PropOp49
 70
     1
102
RTVSPost2010Prop50
 90
       50
102
RTVSPost2010PropOp50
 70
     0
102
RTVSPost2010Prop51ColorIndex
 90
      256
102
RTVSPost2010Prop51ColorRGB
 90
-16777216
102
RTVSPost2010PropOp51
 70
     0
102
RTVSPost2010Prop52
140
1.0
102
RTVSPost2010PropOp52
 70
     0
102
RTVSPost2010Prop53
 90
        2
102
RTVSPost2010PropOp53
 70
     0
102
RTVSPost2010Prop54
  1
strokes_ogs.tif
102
RTVSPost2010PropOp54
 70
     0
102
RTVSPost2010Prop55
280
     0
102
RTVSPost2010PropOp55
 70
     1
102
RTVSPost2010Prop56
140
1.0
102
RTVSPost2010PropOp56
 70
     0
102
RTVSPost2010Prop57
140
1.0
102
RTVSPost2010PropOp57
 70
     0
102
RTVSPropertyOp0
 70
     0
102
RTVSPropertyOp1
 70
     0
102
RTVSPropertyOp2
 70
     0
102
RTVSPropertyOp3
 70
     0
102
RTVSPropertyOp4
 70
     0
102
RTVSPropertyOp5
 70
     0
102
RTVSPropertyOp6
 70
     0
102
RTVSPropertyOp7
 70
     0
102
RTVSPropertyOp8
 70
     0
102
RTVSPropertyOp9
 70
     0
102
RTVSPropertyOp10
 70
     0
102
RTVSPropertyOp11
 70
     0
102
RTVSPropertyOp12
 70
     0
102
RTVSPropertyOp13
 70
     0
102
RTVSPropertyOp14
 70
     2
102
RTVSPropertyOp15
 70
     0
102
RTVSPropertyOp16
 70
     0
102
RTVSPropertyOp17
 70
     0
102
RTVSPropertyOp18
 70
     0
102
RTVSPropertyOp19
 70
     0
102
RTVSPropertyOp20
 70
     0
102
RTVSPropertyOp21
 70
     0
102
RTVSPropertyOp22
 70
     0
102
RTVSPropertyOp23
 70
     0
102
RTVSPropertyOp24
 70
     0
102
RTVSPropertyOp25
 70
     0
102
RTVSPropertyOp26
 70
     0
102
RTVSPropertyOp27
 70
     0
102
RTVSPropertyOp28
 70
     1
102
RTVSPropertyOp29
 70
     1
102
RTVSPropertyOp30
 70
     1
102
RTVSPropertyOp31
 70
     1
102
RTVSPropertyOp32
 70
     1
102
RTVSPropertyOp33
 70
     1
102
RTVSPropertyOp34
 70
     1
102
RTVSPropertyOp35
 70
     1
102
RTVSPropertyOp36
 70
     1
102
RTVSPropertyOp37
 70
     0
102
RTVSPropertyOp38
 70
     0
102
RTVSPropertyOp39
 70
     0
102
RTVSPropertyOp40
 70
     0
102
RTVSPropertyOp41
 70
     0
102
RTVSPropertyOp42
 70
     0
102
RTVSPropertyOp43
 70
     0
102
RTVSPropertyOp44
 70
     0
102
RTVSPropertyOp45
 70
     1
102
RTVSPropertyOp46
 70
     0
102
RTVSPropertyOp47
 70
     0
102
RTVSPropertyOp48
 70
     0
102
RTVSPropertyOp49
 70
     1
102
RTVSPropertyOp50
 70
     0
102
RTVSPropertyOp51
 70
     0
102
RTVSPropertyOp52
 70
     0
102
RTVSPropertyOp53
 70
     0
102
RTVSPropertyOp54
 70
     0
102
RTVSPropertyOp55
 70
     1
102
RTVSPropertyOp56
 70
     0
102
RTVSPropertyOp57
 70
     0
102
RTVSPropertyOp58
 70
     0
102
RTVSPropertyOp59
 70
     0
102
RTVSPropertyOp60
 70
     0
102
RTVSPropertyOp61
 70
     0
102
RTVSPropertyOp62
 70
     0
  0
XRECORD
  5
887
102
{ACAD_REACTORS
330
886
102
}
330
886
100
AcDbXrecord
280
     1
102
RTVSPost2010Prop28
280
     0
102
RTVSPost2010PropOp28
 70
     1
102
RTVSPost2010Prop29
280
     1
102
RTVSPost2010PropOp29
 70
     1
102
RTVSPost2010Prop30
280
     1
102
RTVSPost2010PropOp30
 70
     1
102
RTVSPost2010Prop31
280
     0
102
RTVSPost2010PropOp31
 70
     1
102
RTVSPost2010Prop32
280
     0
102
RTVSPost2010PropOp32
 70
     1
102
RTVSPost2010Prop33
280
     0
102
RTVSPost2010PropOp33
 70
     1
102
RTVSPost2010Prop34
280
     0
102
RTVSPost2010PropOp34
 70
     1
102
RTVSPost2010Prop35
280
     0
102
RTVSPost2010PropOp35
 70
     1
102
RTVSPost2010Prop36
280
     0
102
RTVSPost2010PropOp36
 70
     1
102
RTVSPost2010Prop37
 90
       50
102
RTVSPost2010PropOp37
 70
     1
102
RTVSPost2010Prop38
140
0.0
102
RTVSPost2010PropOp38
 70
     1
102
RTVSPost2010Prop39
140
1.0
102
RTVSPost2010PropOp39
 70
     1
102
RTVSPost2010Prop40
 90
        0
102
RTVSPost2010PropOp40
 70
     1
102
RTVSPost2010Prop41ColorIndex
 90
       18
102
RTVSPost2010Prop41ColorRGB
 90
        0
102
RTVSPost2010PropOp41
 70
     1
102
RTVSPost2010Prop42
 90
       50
102
RTVSPost2010PropOp42
 70
     1
102
RTVSPost2010Prop43
 90
        3
102
RTVSPost2010PropOp43
 70
     1
102
RTVSPost2010Prop44ColorIndex
 90
        5
102
RTVSPost2010Prop44ColorRGB
 90
      255
102
RTVSPost2010PropOp44
 70
     1
102
RTVSPost2010Prop45
280
     0
102
RTVSPost2010PropOp45
 70
     1
102
RTVSPost2010Prop46
 90
       50
102
RTVSPost2010PropOp46
 70
     1
102
RTVSPost2010Prop47
 90
       50
102
RTVSPost2010PropOp47
 70
     1
102
RTVSPost2010Prop48
 90
       50
102
RTVSPost2010PropOp48
 70
     1
102
RTVSPost2010Prop49
280
     0
102
RTVSPost2010PropOp49
 70
     1
102
RTVSPost2010Prop50
 90
       50
102
RTVSPost2010PropOp50
 70
     1
102
RTVSPost2010Prop51ColorIndex
 90
      256
102
RTVSPost2010Prop51ColorRGB
 90
-16777216
102
RTVSPost2010PropOp51
 70
     0
102
RTVSPost2010Prop52
140
1.0
102
RTVSPost2010PropOp52
 70
     0
102
RTVSPost2010Prop53
 90
        2
102
RTVSPost2010PropOp53
 70
     1
102
RTVSPost2010Prop54
  1
strokes_ogs.tif
102
RTVSPost2010PropOp54
 70
     1
102
RTVSPost2010Prop55
280
     0
102
RTVSPost2010PropOp55
 70
     1
102
RTVSPost2010Prop56
140
1.0
102
RTVSPost2010PropOp56
 70
     1
102
RTVSPost2010Prop57
140
1.0
102
RTVSPost2010PropOp57
 70
     1
102
RTVSPropertyOp0
 70
     1
102
RTVSPropertyOp1
 70
     1
102
RTVSPropertyOp2
 70
     1
102
RTVSPropertyOp3
 70
     1
102
RTVSPropertyOp4
 70
     1
102
RTVSPropertyOp5
 70
     1
102
RTVSPropertyOp6
 70
     1
102
RTVSPropertyOp7
 70
     1
102
RTVSPropertyOp8
 70
     1
102
RTVSPropertyOp9
 70
     1
102
RTVSPropertyOp10
 70
     1
102
RTVSPropertyOp11
 70
     1
102
RTVSPropertyOp12
 70
     1
102
RTVSPropertyOp13
 70
     1
102
RTVSPropertyOp14
 70
     1
102
RTVSPropertyOp15
 70
     1
102
RTVSPropertyOp16
 70
     1
102
RTVSPropertyOp17
 70
     1
102
RTVSPropertyOp18
 70
     1
102
RTVSPropertyOp19
 70
     1
102
RTVSPropertyOp20
 70
     1
102
RTVSPropertyOp21
 70
     1
102
RTVSPropertyOp22
 70
     1
102
RTVSPropertyOp23
 70
     1
102
RTVSPropertyOp24
 70
     1
102
RTVSPropertyOp25
 70
     1
102
RTVSPropertyOp26
 70
     1
102
RTVSPropertyOp27
 70
     1
102
RTVSPropertyOp28
 70
     1
102
RTVSPropertyOp29
 70
     1
102
RTVSPropertyOp30
 70
     1
102
RTVSPropertyOp31
 70
     1
102
RTVSPropertyOp32
 70
     1
102
RTVSPropertyOp33
 70
     1
102
RTVSPropertyOp34
 70
     1
102
RTVSPropertyOp35
 70
     1
102
RTVSPropertyOp36
 70
     1
102
RTVSPropertyOp37
 70
     1
102
RTVSPropertyOp38
 70
     1
102
RTVSPropertyOp39
 70
     1
102
RTVSPropertyOp40
 70
     1
102
RTVSPropertyOp41
 70
     1
102
RTVSPropertyOp42
 70
     1
102
RTVSPropertyOp43
 70
     1
102
RTVSPropertyOp44
 70
     1
102
RTVSPropertyOp45
 70
     1
102
RTVSPropertyOp46
 70
     1
102
RTVSPropertyOp47
 70
     1
102
RTVSPropertyOp48
 70
     1
102
RTVSPropertyOp49
 70
     1
102
RTVSPropertyOp50
 70
     1
102
RTVSPropertyOp51
 70
     0
102
RTVSPropertyOp52
 70
     0
102
RTVSPropertyOp53
 70
     1
102
RTVSPropertyOp54
 70
     1
102
RTVSPropertyOp55
 70
     1
102
RTVSPropertyOp56
 70
     1
102
RTVSPropertyOp57
 70
     1
102
RTVSPropertyOp58
 70
     1
102
RTVSPropertyOp59
 70
     1
102
RTVSPropertyOp60
 70
     1
102
RTVSPropertyOp61
 70
     1
102
RTVSPropertyOp62
 70
     1
  0
XRECORD
  5
899
102
{ACAD_REACTORS
330
898
102
}
330
898
100
AcDbXrecord
280
     1
102
RTVSPost2010Prop28
280
     0
102
RTVSPost2010PropOp28
 70
     1
102
RTVSPost2010Prop29
280
     1
102
RTVSPost2010PropOp29
 70
     1
102
RTVSPost2010Prop30
280
     1
102
RTVSPost2010PropOp30
 70
     1
102
RTVSPost2010Prop31
280
     0
102
RTVSPost2010PropOp31
 70
     1
102
RTVSPost2010Prop32
280
     0
102
RTVSPost2010PropOp32
 70
     1
102
RTVSPost2010Prop33
280
     0
102
RTVSPost2010PropOp33
 70
     1
102
RTVSPost2010Prop34
280
     0
102
RTVSPost2010PropOp34
 70
     1
102
RTVSPost2010Prop35
280
     0
102
RTVSPost2010PropOp35
 70
     1
102
RTVSPost2010Prop36
280
     0
102
RTVSPost2010PropOp36
 70
     1
102
RTVSPost2010Prop37
 90
       50
102
RTVSPost2010PropOp37
 70
     0
102
RTVSPost2010Prop38
140
0.0
102
RTVSPost2010PropOp38
 70
     0
102
RTVSPost2010Prop39
140
1.0
102
RTVSPost2010PropOp39
 70
     0
102
RTVSPost2010Prop40
 90
        0
102
RTVSPost2010PropOp40
 70
     0
102
RTVSPost2010Prop41ColorIndex
 90
       18
102
RTVSPost2010Prop41ColorRGB
 90
        0
102
RTVSPost2010PropOp41
 70
     0
102
RTVSPost2010Prop42
 90
       50
102
RTVSPost2010PropOp42
 70
     0
102
RTVSPost2010Prop43
 90
        3
102
RTVSPost2010PropOp43
 70
     0
102
RTVSPost2010Prop44ColorIndex
 90
        5
102
RTVSPost2010Prop44ColorRGB
 90
      255
102
RTVSPost2010PropOp44
 70
     0
102
RTVSPost2010Prop45
280
     0
102
RTVSPost2010PropOp45
 70
     1
102
RTVSPost2010Prop46
 90
       50
102
RTVSPost2010PropOp46
 70
     0
102
RTVSPost2010Prop47
 90
       50
102
RTVSPost2010PropOp47
 70
     0
102
RTVSPost2010Prop48
 90
       50
102
RTVSPost2010PropOp48
 70
     0
102
RTVSPost2010Prop49
280
     0
102
RTVSPost2010PropOp49
 70
     1
102
RTVSPost2010Prop50
 90
       50
102
RTVSPost2010PropOp50
 70
     0
102
RTVSPost2010Prop51ColorIndex
 90
      256
102
RTVSPost2010Prop51ColorRGB
 90
-16777216
102
RTVSPost2010PropOp51
 70
     0
102
RTVSPost2010Prop52
140
1.0
102
RTVSPost2010PropOp52
 70
     0
102
RTVSPost2010Prop53
 90
        2
102
RTVSPost2010PropOp53
 70
     0
102
RTVSPost2010Prop54
  1
strokes_ogs.tif
102
RTVSPost2010PropOp54
 70
     0
102
RTVSPost2010Prop55
280
     0
102
RTVSPost2010PropOp55
 70
     1
102
RTVSPost2010Prop56
140
1.0
102
RTVSPost2010PropOp56
 70
     0
102
RTVSPost2010Prop57
140
1.0
102
RTVSPost2010PropOp57
 70
     0
102
RTVSPropertyOp0
 70
     0
102
RTVSPropertyOp1
 70
     0
102
RTVSPropertyOp2
 70
     0
102
RTVSPropertyOp3
 70
     0
102
RTVSPropertyOp4
 70
     0
102
RTVSPropertyOp5
 70
     0
102
RTVSPropertyOp6
 70
     0
102
RTVSPropertyOp7
 70
     0
102
RTVSPropertyOp8
 70
     0
102
RTVSPropertyOp9
 70
     0
102
RTVSPropertyOp10
 70
     0
102
RTVSPropertyOp11
 70
     0
102
RTVSPropertyOp12
 70
     0
102
RTVSPropertyOp13
 70
     0
102
RTVSPropertyOp14
 70
     2
102
RTVSPropertyOp15
 70
     0
102
RTVSPropertyOp16
 70
     0
102
RTVSPropertyOp17
 70
     0
102
RTVSPropertyOp18
 70
     0
102
RTVSPropertyOp19
 70
     0
102
RTVSPropertyOp20
 70
     0
102
RTVSPropertyOp21
 70
     0
102
RTVSPropertyOp22
 70
     0
102
RTVSPropertyOp23
 70
     0
102
RTVSPropertyOp24
 70
     0
102
RTVSPropertyOp25
 70
     0
102
RTVSPropertyOp26
 70
     0
102
RTVSPropertyOp27
 70
     0
102
RTVSPropertyOp28
 70
     1
102
RTVSPropertyOp29
 70
     1
102
RTVSPropertyOp30
 70
     1
102
RTVSPropertyOp31
 70
     1
102
RTVSPropertyOp32
 70
     1
102
RTVSPropertyOp33
 70
     1
102
RTVSPropertyOp34
 70
     1
102
RTVSPropertyOp35
 70
     1
102
RTVSPropertyOp36
 70
     1
102
RTVSPropertyOp37
 70
     0
102
RTVSPropertyOp38
 70
     0
102
RTVSPropertyOp39
 70
     0
102
RTVSPropertyOp40
 70
     0
102
RTVSPropertyOp41
 70
     0
102
RTVSPropertyOp42
 70
     0
102
RTVSPropertyOp43
 70
     0
102
RTVSPropertyOp44
 70
     0
102
RTVSPropertyOp45
 70
     1
102
RTVSPropertyOp46
 70
     0
102
RTVSPropertyOp47
 70
     0
102
RTVSPropertyOp48
 70
     0
102
RTVSPropertyOp49
 70
     1
102
RTVSPropertyOp50
 70
     0
102
RTVSPropertyOp51
 70
     0
102
RTVSPropertyOp52
 70
     0
102
RTVSPropertyOp53
 70
     0
102
RTVSPropertyOp54
 70
     0
102
RTVSPropertyOp55
 70
     1
102
RTVSPropertyOp56
 70
     0
102
RTVSPropertyOp57
 70
     0
102
RTVSPropertyOp58
 70
     0
102
RTVSPropertyOp59
 70
     0
102
RTVSPropertyOp60
 70
     0
102
RTVSPropertyOp61
 70
     0
102
RTVSPropertyOp62
 70
     0
  0
XRECORD
  5
87F
102
{ACAD_REACTORS
330
87E
102
}
330
87E
100
AcDbXrecord
280
     1
102
RTVSPost2010Prop28
280
     0
102
RTVSPost2010PropOp28
 70
     1
102
RTVSPost2010Prop29
280
     1
102
RTVSPost2010PropOp29
 70
     1
102
RTVSPost2010Prop30
280
     1
102
RTVSPost2010PropOp30
 70
     1
102
RTVSPost2010Prop31
280
     0
102
RTVSPost2010PropOp31
 70
     1
102
RTVSPost2010Prop32
280
     0
102
RTVSPost2010PropOp32
 70
     1
102
RTVSPost2010Prop33
280
     0
102
RTVSPost2010PropOp33
 70
     1
102
RTVSPost2010Prop34
280
     0
102
RTVSPost2010PropOp34
 70
     1
102
RTVSPost2010Prop35
280
     0
102
RTVSPost2010PropOp35
 70
     1
102
RTVSPost2010Prop36
280
     0
102
RTVSPost2010PropOp36
 70
     1
102
RTVSPost2010Prop37
 90
       50
102
RTVSPost2010PropOp37
 70
     1
102
RTVSPost2010Prop38
140
0.0
102
RTVSPost2010PropOp38
 70
     1
102
RTVSPost2010Prop39
140
1.0
102
RTVSPost2010PropOp39
 70
     1
102
RTVSPost2010Prop40
 90
        0
102
RTVSPost2010PropOp40
 70
     1
102
RTVSPost2010Prop41ColorIndex
 90
       18
102
RTVSPost2010Prop41ColorRGB
 90
        0
102
RTVSPost2010PropOp41
 70
     1
102
RTVSPost2010Prop42
 90
       50
102
RTVSPost2010PropOp42
 70
     1
102
RTVSPost2010Prop43
 90
        3
102
RTVSPost2010PropOp43
 70
     1
102
RTVSPost2010Prop44ColorIndex
 90
        5
102
RTVSPost2010Prop44ColorRGB
 90
      255
102
RTVSPost2010PropOp44
 70
     1
102
RTVSPost2010Prop45
280
     0
102
RTVSPost2010PropOp45
 70
     1
102
RTVSPost2010Prop46
 90
       50
102
RTVSPost2010PropOp46
 70
     1
102
RTVSPost2010Prop47
 90
       50
102
RTVSPost2010PropOp47
 70
     1
102
RTVSPost2010Prop48
 90
       50
102
RTVSPost2010PropOp48
 70
     1
102
RTVSPost2010Prop49
280
     0
102
RTVSPost2010PropOp49
 70
     1
102
RTVSPost2010Prop50
 90
       50
102
RTVSPost2010PropOp50
 70
     1
102
RTVSPost2010Prop51ColorIndex
 90
      256
102
RTVSPost2010Prop51ColorRGB
 90
-16777216
102
RTVSPost2010PropOp51
 70
     0
102
RTVSPost2010Prop52
140
1.0
102
RTVSPost2010PropOp52
 70
     0
102
RTVSPost2010Prop53
 90
        2
102
RTVSPost2010PropOp53
 70
     1
102
RTVSPost2010Prop54
  1
strokes_ogs.tif
102
RTVSPost2010PropOp54
 70
     1
102
RTVSPost2010Prop55
280
     0
102
RTVSPost2010PropOp55
 70
     1
102
RTVSPost2010Prop56
140
1.0
102
RTVSPost2010PropOp56
 70
     1
102
RTVSPost2010Prop57
140
1.0
102
RTVSPost2010PropOp57
 70
     1
102
RTVSPropertyOp0
 70
     1
102
RTVSPropertyOp1
 70
     1
102
RTVSPropertyOp2
 70
     1
102
RTVSPropertyOp3
 70
     1
102
RTVSPropertyOp4
 70
     1
102
RTVSPropertyOp5
 70
     1
102
RTVSPropertyOp6
 70
     1
102
RTVSPropertyOp7
 70
     1
102
RTVSPropertyOp8
 70
     1
102
RTVSPropertyOp9
 70
     1
102
RTVSPropertyOp10
 70
     1
102
RTVSPropertyOp11
 70
     1
102
RTVSPropertyOp12
 70
     1
102
RTVSPropertyOp13
 70
     1
102
RTVSPropertyOp14
 70
     1
102
RTVSPropertyOp15
 70
     1
102
RTVSPropertyOp16
 70
     1
102
RTVSPropertyOp17
 70
     1
102
RTVSPropertyOp18
 70
     1
102
RTVSPropertyOp19
 70
     1
102
RTVSPropertyOp20
 70
     1
102
RTVSPropertyOp21
 70
     1
102
RTVSPropertyOp22
 70
     1
102
RTVSPropertyOp23
 70
     1
102
RTVSPropertyOp24
 70
     1
102
RTVSPropertyOp25
 70
     1
102
RTVSPropertyOp26
 70
     1
102
RTVSPropertyOp27
 70
     1
102
RTVSPropertyOp28
 70
     1
102
RTVSPropertyOp29
 70
     1
102
RTVSPropertyOp30
 70
     1
102
RTVSPropertyOp31
 70
     1
102
RTVSPropertyOp32
 70
     1
102
RTVSPropertyOp33
 70
     1
102
RTVSPropertyOp34
 70
     1
102
RTVSPropertyOp35
 70
     1
102
RTVSPropertyOp36
 70
     1
102
RTVSPropertyOp37
 70
     1
102
RTVSPropertyOp38
 70
     1
102
RTVSPropertyOp39
 70
     1
102
RTVSPropertyOp40
 70
     1
102
RTVSPropertyOp41
 70
     1
102
RTVSPropertyOp42
 70
     1
102
RTVSPropertyOp43
 70
     1
102
RTVSPropertyOp44
 70
     1
102
RTVSPropertyOp45
 70
     1
102
RTVSPropertyOp46
 70
     1
102
RTVSPropertyOp47
 70
     1
102
RTVSPropertyOp48
 70
     1
102
RTVSPropertyOp49
 70
     1
102
RTVSPropertyOp50
 70
     1
102
RTVSPropertyOp51
 70
     0
102
RTVSPropertyOp52
 70
     0
102
RTVSPropertyOp53
 70
     1
102
RTVSPropertyOp54
 70
     1
102
RTVSPropertyOp55
 70
     1
102
RTVSPropertyOp56
 70
     1
102
RTVSPropertyOp57
 70
     1
102
RTVSPropertyOp58
 70
     1
102
RTVSPropertyOp59
 70
     1
102
RTVSPropertyOp60
 70
     1
102
RTVSPropertyOp61
 70
     1
102
RTVSPropertyOp62
 70
     1
  0
XRECORD
  5
895
102
{ACAD_REACTORS
330
894
102
}
330
894
100
AcDbXrecord
280
     1
102
RTVSPost2010Prop28
280
     0
102
RTVSPost2010PropOp28
 70
     1
102
RTVSPost2010Prop29
280
     1
102
RTVSPost2010PropOp29
 70
     1
102
RTVSPost2010Prop30
280
     1
102
RTVSPost2010PropOp30
 70
     1
102
RTVSPost2010Prop31
280
     0
102
RTVSPost2010PropOp31
 70
     1
102
RTVSPost2010Prop32
280
     0
102
RTVSPost2010PropOp32
 70
     1
102
RTVSPost2010Prop33
280
     0
102
RTVSPost2010PropOp33
 70
     1
102
RTVSPost2010Prop34
280
     0
102
RTVSPost2010PropOp34
 70
     1
102
RTVSPost2010Prop35
280
     0
102
RTVSPost2010PropOp35
 70
     1
102
RTVSPost2010Prop36
280
     0
102
RTVSPost2010PropOp36
 70
     1
102
RTVSPost2010Prop37
 90
       50
102
RTVSPost2010PropOp37
 70
     1
102
RTVSPost2010Prop38
140
0.0
102
RTVSPost2010PropOp38
 70
     1
102
RTVSPost2010Prop39
140
1.0
102
RTVSPost2010PropOp39
 70
     1
102
RTVSPost2010Prop40
 90
        0
102
RTVSPost2010PropOp40
 70
     1
102
RTVSPost2010Prop41ColorIndex
 90
       18
102
RTVSPost2010Prop41ColorRGB
 90
        0
102
RTVSPost2010PropOp41
 70
     1
102
RTVSPost2010Prop42
 90
       50
102
RTVSPost2010PropOp42
 70
     1
102
RTVSPost2010Prop43
 90
        3
102
RTVSPost2010PropOp43
 70
     1
102
RTVSPost2010Prop44ColorIndex
 90
        5
102
RTVSPost2010Prop44ColorRGB
 90
      255
102
RTVSPost2010PropOp44
 70
     1
102
RTVSPost2010Prop45
280
     0
102
RTVSPost2010PropOp45
 70
     1
102
RTVSPost2010Prop46
 90
       50
102
RTVSPost2010PropOp46
 70
     1
102
RTVSPost2010Prop47
 90
       50
102
RTVSPost2010PropOp47
 70
     1
102
RTVSPost2010Prop48
 90
       50
102
RTVSPost2010PropOp48
 70
     1
102
RTVSPost2010Prop49
280
     0
102
RTVSPost2010PropOp49
 70
     1
102
RTVSPost2010Prop50
 90
       50
102
RTVSPost2010PropOp50
 70
     1
102
RTVSPost2010Prop51ColorIndex
 90
      256
102
RTVSPost2010Prop51ColorRGB
 90
-16777216
102
RTVSPost2010PropOp51
 70
     0
102
RTVSPost2010Prop52
140
1.0
102
RTVSPost2010PropOp52
 70
     0
102
RTVSPost2010Prop53
 90
        2
102
RTVSPost2010PropOp53
 70
     1
102
RTVSPost2010Prop54
  1
strokes_ogs.tif
102
RTVSPost2010PropOp54
 70
     1
102
RTVSPost2010Prop55
280
     0
102
RTVSPost2010PropOp55
 70
     1
102
RTVSPost2010Prop56
140
1.0
102
RTVSPost2010PropOp56
 70
     1
102
RTVSPost2010Prop57
140
1.0
102
RTVSPost2010PropOp57
 70
     1
102
RTVSPropertyOp0
 70
     1
102
RTVSPropertyOp1
 70
     1
102
RTVSPropertyOp2
 70
     1
102
RTVSPropertyOp3
 70
     1
102
RTVSPropertyOp4
 70
     1
102
RTVSPropertyOp5
 70
     1
102
RTVSPropertyOp6
 70
     1
102
RTVSPropertyOp7
 70
     1
102
RTVSPropertyOp8
 70
     1
102
RTVSPropertyOp9
 70
     1
102
RTVSPropertyOp10
 70
     1
102
RTVSPropertyOp11
 70
     1
102
RTVSPropertyOp12
 70
     1
102
RTVSPropertyOp13
 70
     1
102
RTVSPropertyOp14
 70
     1
102
RTVSPropertyOp15
 70
     1
102
RTVSPropertyOp16
 70
     1
102
RTVSPropertyOp17
 70
     1
102
RTVSPropertyOp18
 70
     1
102
RTVSPropertyOp19
 70
     1
102
RTVSPropertyOp20
 70
     1
102
RTVSPropertyOp21
 70
     1
102
RTVSPropertyOp22
 70
     1
102
RTVSPropertyOp23
 70
     1
102
RTVSPropertyOp24
 70
     1
102
RTVSPropertyOp25
 70
     1
102
RTVSPropertyOp26
 70
     1
102
RTVSPropertyOp27
 70
     1
102
RTVSPropertyOp28
 70
     1
102
RTVSPropertyOp29
 70
     1
102
RTVSPropertyOp30
 70
     1
102
RTVSPropertyOp31
 70
     1
102
RTVSPropertyOp32
 70
     1
102
RTVSPropertyOp33
 70
     1
102
RTVSPropertyOp34
 70
     1
102
RTVSPropertyOp35
 70
     1
102
RTVSPropertyOp36
 70
     1
102
RTVSPropertyOp37
 70
     1
102
RTVSPropertyOp38
 70
     1
102
RTVSPropertyOp39
 70
     1
102
RTVSPropertyOp40
 70
     1
102
RTVSPropertyOp41
 70
     1
102
RTVSPropertyOp42
 70
     1
102
RTVSPropertyOp43
 70
     1
102
RTVSPropertyOp44
 70
     1
102
RTVSPropertyOp45
 70
     1
102
RTVSPropertyOp46
 70
     1
102
RTVSPropertyOp47
 70
     1
102
RTVSPropertyOp48
 70
     1
102
RTVSPropertyOp49
 70
     1
102
RTVSPropertyOp50
 70
     1
102
RTVSPropertyOp51
 70
     0
102
RTVSPropertyOp52
 70
     0
102
RTVSPropertyOp53
 70
     1
102
RTVSPropertyOp54
 70
     1
102
RTVSPropertyOp55
 70
     1
102
RTVSPropertyOp56
 70
     1
102
RTVSPropertyOp57
 70
     1
102
RTVSPropertyOp58
 70
     1
102
RTVSPropertyOp59
 70
     1
102
RTVSPropertyOp60
 70
     1
102
RTVSPropertyOp61
 70
     1
102
RTVSPropertyOp62
 70
     1
  0
XRECORD
  5
893
102
{ACAD_REACTORS
330
892
102
}
330
892
100
AcDbXrecord
280
     1
102
RTVSPost2010Prop28
280
     0
102
RTVSPost2010PropOp28
 70
     1
102
RTVSPost2010Prop29
280
     1
102
RTVSPost2010PropOp29
 70
     1
102
RTVSPost2010Prop30
280
     1
102
RTVSPost2010PropOp30
 70
     1
102
RTVSPost2010Prop31
280
     0
102
RTVSPost2010PropOp31
 70
     1
102
RTVSPost2010Prop32
280
     0
102
RTVSPost2010PropOp32
 70
     1
102
RTVSPost2010Prop33
280
     0
102
RTVSPost2010PropOp33
 70
     1
102
RTVSPost2010Prop34
280
     0
102
RTVSPost2010PropOp34
 70
     1
102
RTVSPost2010Prop35
280
     0
102
RTVSPost2010PropOp35
 70
     1
102
RTVSPost2010Prop36
280
     0
102
RTVSPost2010PropOp36
 70
     1
102
RTVSPost2010Prop37
 90
       50
102
RTVSPost2010PropOp37
 70
     1
102
RTVSPost2010Prop38
140
0.0
102
RTVSPost2010PropOp38
 70
     1
102
RTVSPost2010Prop39
140
1.0
102
RTVSPost2010PropOp39
 70
     1
102
RTVSPost2010Prop40
 90
        0
102
RTVSPost2010PropOp40
 70
     1
102
RTVSPost2010Prop41ColorIndex
 90
       18
102
RTVSPost2010Prop41ColorRGB
 90
        0
102
RTVSPost2010PropOp41
 70
     1
102
RTVSPost2010Prop42
 90
       50
102
RTVSPost2010PropOp42
 70
     1
102
RTVSPost2010Prop43
 90
        3
102
RTVSPost2010PropOp43
 70
     1
102
RTVSPost2010Prop44ColorIndex
 90
        5
102
RTVSPost2010Prop44ColorRGB
 90
      255
102
RTVSPost2010PropOp44
 70
     1
102
RTVSPost2010Prop45
280
     0
102
RTVSPost2010PropOp45
 70
     1
102
RTVSPost2010Prop46
 90
       50
102
RTVSPost2010PropOp46
 70
     1
102
RTVSPost2010Prop47
 90
       50
102
RTVSPost2010PropOp47
 70
     1
102
RTVSPost2010Prop48
 90
       50
102
RTVSPost2010PropOp48
 70
     1
102
RTVSPost2010Prop49
280
     0
102
RTVSPost2010PropOp49
 70
     1
102
RTVSPost2010Prop50
 90
       50
102
RTVSPost2010PropOp50
 70
     1
102
RTVSPost2010Prop51ColorIndex
 90
      256
102
RTVSPost2010Prop51ColorRGB
 90
-16777216
102
RTVSPost2010PropOp51
 70
     0
102
RTVSPost2010Prop52
140
1.0
102
RTVSPost2010PropOp52
 70
     0
102
RTVSPost2010Prop53
 90
        2
102
RTVSPost2010PropOp53
 70
     1
102
RTVSPost2010Prop54
  1
strokes_ogs.tif
102
RTVSPost2010PropOp54
 70
     1
102
RTVSPost2010Prop55
280
     0
102
RTVSPost2010PropOp55
 70
     1
102
RTVSPost2010Prop56
140
1.0
102
RTVSPost2010PropOp56
 70
     1
102
RTVSPost2010Prop57
140
1.0
102
RTVSPost2010PropOp57
 70
     1
102
RTVSPropertyOp0
 70
     1
102
RTVSPropertyOp1
 70
     1
102
RTVSPropertyOp2
 70
     1
102
RTVSPropertyOp3
 70
     1
102
RTVSPropertyOp4
 70
     1
102
RTVSPropertyOp5
 70
     1
102
RTVSPropertyOp6
 70
     1
102
RTVSPropertyOp7
 70
     1
102
RTVSPropertyOp8
 70
     1
102
RTVSPropertyOp9
 70
     1
102
RTVSPropertyOp10
 70
     1
102
RTVSPropertyOp11
 70
     1
102
RTVSPropertyOp12
 70
     1
102
RTVSPropertyOp13
 70
     1
102
RTVSPropertyOp14
 70
     1
102
RTVSPropertyOp15
 70
     1
102
RTVSPropertyOp16
 70
     1
102
RTVSPropertyOp17
 70
     1
102
RTVSPropertyOp18
 70
     1
102
RTVSPropertyOp19
 70
     1
102
RTVSPropertyOp20
 70
     1
102
RTVSPropertyOp21
 70
     1
102
RTVSPropertyOp22
 70
     1
102
RTVSPropertyOp23
 70
     1
102
RTVSPropertyOp24
 70
     1
102
RTVSPropertyOp25
 70
     1
102
RTVSPropertyOp26
 70
     1
102
RTVSPropertyOp27
 70
     1
102
RTVSPropertyOp28
 70
     1
102
RTVSPropertyOp29
 70
     1
102
RTVSPropertyOp30
 70
     1
102
RTVSPropertyOp31
 70
     1
102
RTVSPropertyOp32
 70
     1
102
RTVSPropertyOp33
 70
     1
102
RTVSPropertyOp34
 70
     1
102
RTVSPropertyOp35
 70
     1
102
RTVSPropertyOp36
 70
     1
102
RTVSPropertyOp37
 70
     1
102
RTVSPropertyOp38
 70
     1
102
RTVSPropertyOp39
 70
     1
102
RTVSPropertyOp40
 70
     1
102
RTVSPropertyOp41
 70
     1
102
RTVSPropertyOp42
 70
     1
102
RTVSPropertyOp43
 70
     1
102
RTVSPropertyOp44
 70
     1
102
RTVSPropertyOp45
 70
     1
102
RTVSPropertyOp46
 70
     1
102
RTVSPropertyOp47
 70
     1
102
RTVSPropertyOp48
 70
     1
102
RTVSPropertyOp49
 70
     1
102
RTVSPropertyOp50
 70
     1
102
RTVSPropertyOp51
 70
     0
102
RTVSPropertyOp52
 70
     0
102
RTVSPropertyOp53
 70
     1
102
RTVSPropertyOp54
 70
     1
102
RTVSPropertyOp55
 70
     1
102
RTVSPropertyOp56
 70
     1
102
RTVSPropertyOp57
 70
     1
102
RTVSPropertyOp58
 70
     1
102
RTVSPropertyOp59
 70
     1
102
RTVSPropertyOp60
 70
     1
102
RTVSPropertyOp61
 70
     1
102
RTVSPropertyOp62
 70
     1
  0
XRECORD
  5
88D
102
{ACAD_REACTORS
330
88C
102
}
330
88C
100
AcDbXrecord
280
     1
102
RTVSPost2010Prop28
280
     0
102
RTVSPost2010PropOp28
 70
     1
102
RTVSPost2010Prop29
280
     1
102
RTVSPost2010PropOp29
 70
     1
102
RTVSPost2010Prop30
280
     1
102
RTVSPost2010PropOp30
 70
     1
102
RTVSPost2010Prop31
280
     0
102
RTVSPost2010PropOp31
 70
     1
102
RTVSPost2010Prop32
280
     0
102
RTVSPost2010PropOp32
 70
     1
102
RTVSPost2010Prop33
280
     0
102
RTVSPost2010PropOp33
 70
     1
102
RTVSPost2010Prop34
280
     0
102
RTVSPost2010PropOp34
 70
     1
102
RTVSPost2010Prop35
280
     0
102
RTVSPost2010PropOp35
 70
     1
102
RTVSPost2010Prop36
280
     0
102
RTVSPost2010PropOp36
 70
     1
102
RTVSPost2010Prop37
 90
       50
102
RTVSPost2010PropOp37
 70
     1
102
RTVSPost2010Prop38
140
0.0
102
RTVSPost2010PropOp38
 70
     1
102
RTVSPost2010Prop39
140
1.0
102
RTVSPost2010PropOp39
 70
     1
102
RTVSPost2010Prop40
 90
        0
102
RTVSPost2010PropOp40
 70
     1
102
RTVSPost2010Prop41ColorIndex
 90
       18
102
RTVSPost2010Prop41ColorRGB
 90
        0
102
RTVSPost2010PropOp41
 70
     1
102
RTVSPost2010Prop42
 90
       50
102
RTVSPost2010PropOp42
 70
     1
102
RTVSPost2010Prop43
 90
        3
102
RTVSPost2010PropOp43
 70
     1
102
RTVSPost2010Prop44ColorIndex
 90
        5
102
RTVSPost2010Prop44ColorRGB
 90
      255
102
RTVSPost2010PropOp44
 70
     1
102
RTVSPost2010Prop45
280
     0
102
RTVSPost2010PropOp45
 70
     1
102
RTVSPost2010Prop46
 90
       50
102
RTVSPost2010PropOp46
 70
     1
102
RTVSPost2010Prop47
 90
       50
102
RTVSPost2010PropOp47
 70
     1
102
RTVSPost2010Prop48
 90
       50
102
RTVSPost2010PropOp48
 70
     1
102
RTVSPost2010Prop49
280
     0
102
RTVSPost2010PropOp49
 70
     1
102
RTVSPost2010Prop50
 90
       50
102
RTVSPost2010PropOp50
 70
     1
102
RTVSPost2010Prop51ColorIndex
 90
      256
102
RTVSPost2010Prop51ColorRGB
 90
-16777216
102
RTVSPost2010PropOp51
 70
     0
102
RTVSPost2010Prop52
140
1.0
102
RTVSPost2010PropOp52
 70
     0
102
RTVSPost2010Prop53
 90
        2
102
RTVSPost2010PropOp53
 70
     1
102
RTVSPost2010Prop54
  1
strokes_ogs.tif
102
RTVSPost2010PropOp54
 70
     1
102
RTVSPost2010Prop55
280
     0
102
RTVSPost2010PropOp55
 70
     1
102
RTVSPost2010Prop56
140
1.0
102
RTVSPost2010PropOp56
 70
     1
102
RTVSPost2010Prop57
140
1.0
102
RTVSPost2010PropOp57
 70
     1
102
RTVSPropertyOp0
 70
     1
102
RTVSPropertyOp1
 70
     1
102
RTVSPropertyOp2
 70
     1
102
RTVSPropertyOp3
 70
     1
102
RTVSPropertyOp4
 70
     1
102
RTVSPropertyOp5
 70
     1
102
RTVSPropertyOp6
 70
     1
102
RTVSPropertyOp7
 70
     1
102
RTVSPropertyOp8
 70
     1
102
RTVSPropertyOp9
 70
     1
102
RTVSPropertyOp10
 70
     1
102
RTVSPropertyOp11
 70
     1
102
RTVSPropertyOp12
 70
     1
102
RTVSPropertyOp13
 70
     1
102
RTVSPropertyOp14
 70
     1
102
RTVSPropertyOp15
 70
     1
102
RTVSPropertyOp16
 70
     1
102
RTVSPropertyOp17
 70
     1
102
RTVSPropertyOp18
 70
     1
102
RTVSPropertyOp19
 70
     1
102
RTVSPropertyOp20
 70
     1
102
RTVSPropertyOp21
 70
     1
102
RTVSPropertyOp22
 70
     1
102
RTVSPropertyOp23
 70
     1
102
RTVSPropertyOp24
 70
     1
102
RTVSPropertyOp25
 70
     1
102
RTVSPropertyOp26
 70
     1
102
RTVSPropertyOp27
 70
     1
102
RTVSPropertyOp28
 70
     1
102
RTVSPropertyOp29
 70
     1
102
RTVSPropertyOp30
 70
     1
102
RTVSPropertyOp31
 70
     1
102
RTVSPropertyOp32
 70
     1
102
RTVSPropertyOp33
 70
     1
102
RTVSPropertyOp34
 70
     1
102
RTVSPropertyOp35
 70
     1
102
RTVSPropertyOp36
 70
     1
102
RTVSPropertyOp37
 70
     1
102
RTVSPropertyOp38
 70
     1
102
RTVSPropertyOp39
 70
     1
102
RTVSPropertyOp40
 70
     1
102
RTVSPropertyOp41
 70
     1
102
RTVSPropertyOp42
 70
     1
102
RTVSPropertyOp43
 70
     1
102
RTVSPropertyOp44
 70
     1
102
RTVSPropertyOp45
 70
     1
102
RTVSPropertyOp46
 70
     1
102
RTVSPropertyOp47
 70
     1
102
RTVSPropertyOp48
 70
     1
102
RTVSPropertyOp49
 70
     1
102
RTVSPropertyOp50
 70
     1
102
RTVSPropertyOp51
 70
     0
102
RTVSPropertyOp52
 70
     0
102
RTVSPropertyOp53
 70
     1
102
RTVSPropertyOp54
 70
     1
102
RTVSPropertyOp55
 70
     1
102
RTVSPropertyOp56
 70
     1
102
RTVSPropertyOp57
 70
     1
102
RTVSPropertyOp58
 70
     1
102
RTVSPropertyOp59
 70
     1
102
RTVSPropertyOp60
 70
     1
102
RTVSPropertyOp61
 70
     1
102
RTVSPropertyOp62
 70
     1
  0
XRECORD
  5
88F
102
{ACAD_REACTORS
330
88E
102
}
330
88E
100
AcDbXrecord
280
     1
102
RTVSPost2010Prop28
280
     0
102
RTVSPost2010PropOp28
 70
     1
102
RTVSPost2010Prop29
280
     1
102
RTVSPost2010PropOp29
 70
     1
102
RTVSPost2010Prop30
280
     1
102
RTVSPost2010PropOp30
 70
     1
102
RTVSPost2010Prop31
280
     0
102
RTVSPost2010PropOp31
 70
     1
102
RTVSPost2010Prop32
280
     0
102
RTVSPost2010PropOp32
 70
     1
102
RTVSPost2010Prop33
280
     0
102
RTVSPost2010PropOp33
 70
     1
102
RTVSPost2010Prop34
280
     0
102
RTVSPost2010PropOp34
 70
     1
102
RTVSPost2010Prop35
280
     0
102
RTVSPost2010PropOp35
 70
     1
102
RTVSPost2010Prop36
280
     0
102
RTVSPost2010PropOp36
 70
     1
102
RTVSPost2010Prop37
 90
       50
102
RTVSPost2010PropOp37
 70
     1
102
RTVSPost2010Prop38
140
0.0
102
RTVSPost2010PropOp38
 70
     1
102
RTVSPost2010Prop39
140
1.0
102
RTVSPost2010PropOp39
 70
     1
102
RTVSPost2010Prop40
 90
        0
102
RTVSPost2010PropOp40
 70
     1
102
RTVSPost2010Prop41ColorIndex
 90
       18
102
RTVSPost2010Prop41ColorRGB
 90
        0
102
RTVSPost2010PropOp41
 70
     1
102
RTVSPost2010Prop42
 90
       50
102
RTVSPost2010PropOp42
 70
     1
102
RTVSPost2010Prop43
 90
        3
102
RTVSPost2010PropOp43
 70
     1
102
RTVSPost2010Prop44ColorIndex
 90
        5
102
RTVSPost2010Prop44ColorRGB
 90
      255
102
RTVSPost2010PropOp44
 70
     1
102
RTVSPost2010Prop45
280
     0
102
RTVSPost2010PropOp45
 70
     1
102
RTVSPost2010Prop46
 90
       50
102
RTVSPost2010PropOp46
 70
     1
102
RTVSPost2010Prop47
 90
       50
102
RTVSPost2010PropOp47
 70
     1
102
RTVSPost2010Prop48
 90
       50
102
RTVSPost2010PropOp48
 70
     1
102
RTVSPost2010Prop49
280
     0
102
RTVSPost2010PropOp49
 70
     1
102
RTVSPost2010Prop50
 90
       50
102
RTVSPost2010PropOp50
 70
     1
102
RTVSPost2010Prop51ColorIndex
 90
      256
102
RTVSPost2010Prop51ColorRGB
 90
-16777216
102
RTVSPost2010PropOp51
 70
     0
102
RTVSPost2010Prop52
140
1.0
102
RTVSPost2010PropOp52
 70
     0
102
RTVSPost2010Prop53
 90
        2
102
RTVSPost2010PropOp53
 70
     1
102
RTVSPost2010Prop54
  1
strokes_ogs.tif
102
RTVSPost2010PropOp54
 70
     1
102
RTVSPost2010Prop55
280
     0
102
RTVSPost2010PropOp55
 70
     1
102
RTVSPost2010Prop56
140
1.0
102
RTVSPost2010PropOp56
 70
     1
102
RTVSPost2010Prop57
140
1.0
102
RTVSPost2010PropOp57
 70
     1
102
RTVSPropertyOp0
 70
     1
102
RTVSPropertyOp1
 70
     1
102
RTVSPropertyOp2
 70
     1
102
RTVSPropertyOp3
 70
     1
102
RTVSPropertyOp4
 70
     1
102
RTVSPropertyOp5
 70
     1
102
RTVSPropertyOp6
 70
     1
102
RTVSPropertyOp7
 70
     1
102
RTVSPropertyOp8
 70
     1
102
RTVSPropertyOp9
 70
     1
102
RTVSPropertyOp10
 70
     1
102
RTVSPropertyOp11
 70
     1
102
RTVSPropertyOp12
 70
     1
102
RTVSPropertyOp13
 70
     1
102
RTVSPropertyOp14
 70
     1
102
RTVSPropertyOp15
 70
     1
102
RTVSPropertyOp16
 70
     1
102
RTVSPropertyOp17
 70
     1
102
RTVSPropertyOp18
 70
     1
102
RTVSPropertyOp19
 70
     1
102
RTVSPropertyOp20
 70
     1
102
RTVSPropertyOp21
 70
     1
102
RTVSPropertyOp22
 70
     1
102
RTVSPropertyOp23
 70
     1
102
RTVSPropertyOp24
 70
     1
102
RTVSPropertyOp25
 70
     1
102
RTVSPropertyOp26
 70
     1
102
RTVSPropertyOp27
 70
     1
102
RTVSPropertyOp28
 70
     1
102
RTVSPropertyOp29
 70
     1
102
RTVSPropertyOp30
 70
     1
102
RTVSPropertyOp31
 70
     1
102
RTVSPropertyOp32
 70
     1
102
RTVSPropertyOp33
 70
     1
102
RTVSPropertyOp34
 70
     1
102
RTVSPropertyOp35
 70
     1
102
RTVSPropertyOp36
 70
     1
102
RTVSPropertyOp37
 70
     1
102
RTVSPropertyOp38
 70
     1
102
RTVSPropertyOp39
 70
     1
102
RTVSPropertyOp40
 70
     1
102
RTVSPropertyOp41
 70
     1
102
RTVSPropertyOp42
 70
     1
102
RTVSPropertyOp43
 70
     1
102
RTVSPropertyOp44
 70
     1
102
RTVSPropertyOp45
 70
     1
102
RTVSPropertyOp46
 70
     1
102
RTVSPropertyOp47
 70
     1
102
RTVSPropertyOp48
 70
     1
102
RTVSPropertyOp49
 70
     1
102
RTVSPropertyOp50
 70
     1
102
RTVSPropertyOp51
 70
     0
102
RTVSPropertyOp52
 70
     0
102
RTVSPropertyOp53
 70
     1
102
RTVSPropertyOp54
 70
     1
102
RTVSPropertyOp55
 70
     1
102
RTVSPropertyOp56
 70
     1
102
RTVSPropertyOp57
 70
     1
102
RTVSPropertyOp58
 70
     1
102
RTVSPropertyOp59
 70
     1
102
RTVSPropertyOp60
 70
     1
102
RTVSPropertyOp61
 70
     1
102
RTVSPropertyOp62
 70
     1
  0
XRECORD
  5
885
102
{ACAD_REACTORS
330
884
102
}
330
884
100
AcDbXrecord
280
     1
102
RTVSPost2010Prop28
280
     0
102
RTVSPost2010PropOp28
 70
     1
102
RTVSPost2010Prop29
280
     1
102
RTVSPost2010PropOp29
 70
     1
102
RTVSPost2010Prop30
280
     1
102
RTVSPost2010PropOp30
 70
     1
102
RTVSPost2010Prop31
280
     0
102
RTVSPost2010PropOp31
 70
     1
102
RTVSPost2010Prop32
280
     0
102
RTVSPost2010PropOp32
 70
     1
102
RTVSPost2010Prop33
280
     0
102
RTVSPost2010PropOp33
 70
     1
102
RTVSPost2010Prop34
280
     0
102
RTVSPost2010PropOp34
 70
     1
102
RTVSPost2010Prop35
280
     0
102
RTVSPost2010PropOp35
 70
     1
102
RTVSPost2010Prop36
280
     0
102
RTVSPost2010PropOp36
 70
     1
102
RTVSPost2010Prop37
 90
       50
102
RTVSPost2010PropOp37
 70
     1
102
RTVSPost2010Prop38
140
0.0
102
RTVSPost2010PropOp38
 70
     1
102
RTVSPost2010Prop39
140
1.0
102
RTVSPost2010PropOp39
 70
     1
102
RTVSPost2010Prop40
 90
        0
102
RTVSPost2010PropOp40
 70
     1
102
RTVSPost2010Prop41ColorIndex
 90
       18
102
RTVSPost2010Prop41ColorRGB
 90
        0
102
RTVSPost2010PropOp41
 70
     1
102
RTVSPost2010Prop42
 90
       50
102
RTVSPost2010PropOp42
 70
     1
102
RTVSPost2010Prop43
 90
        3
102
RTVSPost2010PropOp43
 70
     1
102
RTVSPost2010Prop44ColorIndex
 90
        5
102
RTVSPost2010Prop44ColorRGB
 90
      255
102
RTVSPost2010PropOp44
 70
     1
102
RTVSPost2010Prop45
280
     0
102
RTVSPost2010PropOp45
 70
     1
102
RTVSPost2010Prop46
 90
       50
102
RTVSPost2010PropOp46
 70
     1
102
RTVSPost2010Prop47
 90
       50
102
RTVSPost2010PropOp47
 70
     1
102
RTVSPost2010Prop48
 90
       50
102
RTVSPost2010PropOp48
 70
     1
102
RTVSPost2010Prop49
280
     0
102
RTVSPost2010PropOp49
 70
     1
102
RTVSPost2010Prop50
 90
       50
102
RTVSPost2010PropOp50
 70
     1
102
RTVSPost2010Prop51ColorIndex
 90
      256
102
RTVSPost2010Prop51ColorRGB
 90
-16777216
102
RTVSPost2010PropOp51
 70
     0
102
RTVSPost2010Prop52
140
1.0
102
RTVSPost2010PropOp52
 70
     0
102
RTVSPost2010Prop53
 90
        2
102
RTVSPost2010PropOp53
 70
     1
102
RTVSPost2010Prop54
  1
strokes_ogs.tif
102
RTVSPost2010PropOp54
 70
     1
102
RTVSPost2010Prop55
280
     0
102
RTVSPost2010PropOp55
 70
     1
102
RTVSPost2010Prop56
140
1.0
102
RTVSPost2010PropOp56
 70
     1
102
RTVSPost2010Prop57
140
1.0
102
RTVSPost2010PropOp57
 70
     1
102
RTVSPropertyOp0
 70
     1
102
RTVSPropertyOp1
 70
     1
102
RTVSPropertyOp2
 70
     1
102
RTVSPropertyOp3
 70
     1
102
RTVSPropertyOp4
 70
     1
102
RTVSPropertyOp5
 70
     1
102
RTVSPropertyOp6
 70
     1
102
RTVSPropertyOp7
 70
     1
102
RTVSPropertyOp8
 70
     1
102
RTVSPropertyOp9
 70
     1
102
RTVSPropertyOp10
 70
     1
102
RTVSPropertyOp11
 70
     1
102
RTVSPropertyOp12
 70
     1
102
RTVSPropertyOp13
 70
     1
102
RTVSPropertyOp14
 70
     1
102
RTVSPropertyOp15
 70
     1
102
RTVSPropertyOp16
 70
     1
102
RTVSPropertyOp17
 70
     1
102
RTVSPropertyOp18
 70
     1
102
RTVSPropertyOp19
 70
     1
102
RTVSPropertyOp20
 70
     1
102
RTVSPropertyOp21
 70
     1
102
RTVSPropertyOp22
 70
     1
102
RTVSPropertyOp23
 70
     1
102
RTVSPropertyOp24
 70
     1
102
RTVSPropertyOp25
 70
     1
102
RTVSPropertyOp26
 70
     1
102
RTVSPropertyOp27
 70
     1
102
RTVSPropertyOp28
 70
     1
102
RTVSPropertyOp29
 70
     1
102
RTVSPropertyOp30
 70
     1
102
RTVSPropertyOp31
 70
     1
102
RTVSPropertyOp32
 70
     1
102
RTVSPropertyOp33
 70
     1
102
RTVSPropertyOp34
 70
     1
102
RTVSPropertyOp35
 70
     1
102
RTVSPropertyOp36
 70
     1
102
RTVSPropertyOp37
 70
     1
102
RTVSPropertyOp38
 70
     1
102
RTVSPropertyOp39
 70
     1
102
RTVSPropertyOp40
 70
     1
102
RTVSPropertyOp41
 70
     1
102
RTVSPropertyOp42
 70
     1
102
RTVSPropertyOp43
 70
     1
102
RTVSPropertyOp44
 70
     1
102
RTVSPropertyOp45
 70
     1
102
RTVSPropertyOp46
 70
     1
102
RTVSPropertyOp47
 70
     1
102
RTVSPropertyOp48
 70
     1
102
RTVSPropertyOp49
 70
     1
102
RTVSPropertyOp50
 70
     1
102
RTVSPropertyOp51
 70
     0
102
RTVSPropertyOp52
 70
     0
102
RTVSPropertyOp53
 70
     1
102
RTVSPropertyOp54
 70
     1
102
RTVSPropertyOp55
 70
     1
102
RTVSPropertyOp56
 70
     1
102
RTVSPropertyOp57
 70
     1
102
RTVSPropertyOp58
 70
     1
102
RTVSPropertyOp59
 70
     1
102
RTVSPropertyOp60
 70
     1
102
RTVSPropertyOp61
 70
     1
102
RTVSPropertyOp62
 70
     1
  0
XRECORD
  5
879
102
{ACAD_REACTORS
330
878
102
}
330
878
100
AcDbXrecord
280
     1
102
RTVSPost2010Prop28
280
     0
102
RTVSPost2010PropOp28
 70
     1
102
RTVSPost2010Prop29
280
     1
102
RTVSPost2010PropOp29
 70
     1
102
RTVSPost2010Prop30
280
     1
102
RTVSPost2010PropOp30
 70
     1
102
RTVSPost2010Prop31
280
     0
102
RTVSPost2010PropOp31
 70
     1
102
RTVSPost2010Prop32
280
     0
102
RTVSPost2010PropOp32
 70
     1
102
RTVSPost2010Prop33
280
     0
102
RTVSPost2010PropOp33
 70
     1
102
RTVSPost2010Prop34
280
     0
102
RTVSPost2010PropOp34
 70
     1
102
RTVSPost2010Prop35
280
     0
102
RTVSPost2010PropOp35
 70
     1
102
RTVSPost2010Prop36
280
     0
102
RTVSPost2010PropOp36
 70
     1
102
RTVSPost2010Prop37
 90
       50
102
RTVSPost2010PropOp37
 70
     1
102
RTVSPost2010Prop38
140
0.0
102
RTVSPost2010PropOp38
 70
     1
102
RTVSPost2010Prop39
140
1.0
102
RTVSPost2010PropOp39
 70
     1
102
RTVSPost2010Prop40
 90
        0
102
RTVSPost2010PropOp40
 70
     1
102
RTVSPost2010Prop41ColorIndex
 90
       18
102
RTVSPost2010Prop41ColorRGB
 90
        0
102
RTVSPost2010PropOp41
 70
     1
102
RTVSPost2010Prop42
 90
       50
102
RTVSPost2010PropOp42
 70
     1
102
RTVSPost2010Prop43
 90
        3
102
RTVSPost2010PropOp43
 70
     1
102
RTVSPost2010Prop44ColorIndex
 90
        5
102
RTVSPost2010Prop44ColorRGB
 90
      255
102
RTVSPost2010PropOp44
 70
     1
102
RTVSPost2010Prop45
280
     0
102
RTVSPost2010PropOp45
 70
     1
102
RTVSPost2010Prop46
 90
       50
102
RTVSPost2010PropOp46
 70
     1
102
RTVSPost2010Prop47
 90
       50
102
RTVSPost2010PropOp47
 70
     1
102
RTVSPost2010Prop48
 90
       50
102
RTVSPost2010PropOp48
 70
     1
102
RTVSPost2010Prop49
280
     0
102
RTVSPost2010PropOp49
 70
     1
102
RTVSPost2010Prop50
 90
       50
102
RTVSPost2010PropOp50
 70
     1
102
RTVSPost2010Prop51ColorIndex
 90
      256
102
RTVSPost2010Prop51ColorRGB
 90
-16777216
102
RTVSPost2010PropOp51
 70
     0
102
RTVSPost2010Prop52
140
1.0
102
RTVSPost2010PropOp52
 70
     0
102
RTVSPost2010Prop53
 90
        2
102
RTVSPost2010PropOp53
 70
     1
102
RTVSPost2010Prop54
  1
strokes_ogs.tif
102
RTVSPost2010PropOp54
 70
     1
102
RTVSPost2010Prop55
280
     0
102
RTVSPost2010PropOp55
 70
     1
102
RTVSPost2010Prop56
140
1.0
102
RTVSPost2010PropOp56
 70
     1
102
RTVSPost2010Prop57
140
1.0
102
RTVSPost2010PropOp57
 70
     1
102
RTVSPropertyOp0
 70
     1
102
RTVSPropertyOp1
 70
     1
102
RTVSPropertyOp2
 70
     1
102
RTVSPropertyOp3
 70
     1
102
RTVSPropertyOp4
 70
     1
102
RTVSPropertyOp5
 70
     1
102
RTVSPropertyOp6
 70
     1
102
RTVSPropertyOp7
 70
     1
102
RTVSPropertyOp8
 70
     1
102
RTVSPropertyOp9
 70
     1
102
RTVSPropertyOp10
 70
     1
102
RTVSPropertyOp11
 70
     1
102
RTVSPropertyOp12
 70
     1
102
RTVSPropertyOp13
 70
     1
102
RTVSPropertyOp14
 70
     1
102
RTVSPropertyOp15
 70
     1
102
RTVSPropertyOp16
 70
     1
102
RTVSPropertyOp17
 70
     1
102
RTVSPropertyOp18
 70
     1
102
RTVSPropertyOp19
 70
     1
102
RTVSPropertyOp20
 70
     1
102
RTVSPropertyOp21
 70
     1
102
RTVSPropertyOp22
 70
     1
102
RTVSPropertyOp23
 70
     1
102
RTVSPropertyOp24
 70
     1
102
RTVSPropertyOp25
 70
     1
102
RTVSPropertyOp26
 70
     1
102
RTVSPropertyOp27
 70
     1
102
RTVSPropertyOp28
 70
     1
102
RTVSPropertyOp29
 70
     1
102
RTVSPropertyOp30
 70
     1
102
RTVSPropertyOp31
 70
     1
102
RTVSPropertyOp32
 70
     1
102
RTVSPropertyOp33
 70
     1
102
RTVSPropertyOp34
 70
     1
102
RTVSPropertyOp35
 70
     1
102
RTVSPropertyOp36
 70
     1
102
RTVSPropertyOp37
 70
     1
102
RTVSPropertyOp38
 70
     1
102
RTVSPropertyOp39
 70
     1
102
RTVSPropertyOp40
 70
     1
102
RTVSPropertyOp41
 70
     1
102
RTVSPropertyOp42
 70
     1
102
RTVSPropertyOp43
 70
     1
102
RTVSPropertyOp44
 70
     1
102
RTVSPropertyOp45
 70
     1
102
RTVSPropertyOp46
 70
     1
102
RTVSPropertyOp47
 70
     1
102
RTVSPropertyOp48
 70
     1
102
RTVSPropertyOp49
 70
     1
102
RTVSPropertyOp50
 70
     1
102
RTVSPropertyOp51
 70
     0
102
RTVSPropertyOp52
 70
     0
102
RTVSPropertyOp53
 70
     1
102
RTVSPropertyOp54
 70
     1
102
RTVSPropertyOp55
 70
     1
102
RTVSPropertyOp56
 70
     1
102
RTVSPropertyOp57
 70
     1
102
RTVSPropertyOp58
 70
     1
102
RTVSPropertyOp59
 70
     1
102
RTVSPropertyOp60
 70
     1
102
RTVSPropertyOp61
 70
     1
102
RTVSPropertyOp62
 70
     1
  0
XRECORD
  5
891
102
{ACAD_REACTORS
330
890
102
}
330
890
100
AcDbXrecord
280
     1
102
RTVSPost2010Prop28
280
     0
102
RTVSPost2010PropOp28
 70
     1
102
RTVSPost2010Prop29
280
     1
102
RTVSPost2010PropOp29
 70
     1
102
RTVSPost2010Prop30
280
     1
102
RTVSPost2010PropOp30
 70
     1
102
RTVSPost2010Prop31
280
     0
102
RTVSPost2010PropOp31
 70
     1
102
RTVSPost2010Prop32
280
     0
102
RTVSPost2010PropOp32
 70
     1
102
RTVSPost2010Prop33
280
     0
102
RTVSPost2010PropOp33
 70
     1
102
RTVSPost2010Prop34
280
     0
102
RTVSPost2010PropOp34
 70
     1
102
RTVSPost2010Prop35
280
     0
102
RTVSPost2010PropOp35
 70
     1
102
RTVSPost2010Prop36
280
     0
102
RTVSPost2010PropOp36
 70
     1
102
RTVSPost2010Prop37
 90
       50
102
RTVSPost2010PropOp37
 70
     1
102
RTVSPost2010Prop38
140
0.0
102
RTVSPost2010PropOp38
 70
     1
102
RTVSPost2010Prop39
140
1.0
102
RTVSPost2010PropOp39
 70
     1
102
RTVSPost2010Prop40
 90
        0
102
RTVSPost2010PropOp40
 70
     1
102
RTVSPost2010Prop41ColorIndex
 90
       18
102
RTVSPost2010Prop41ColorRGB
 90
        0
102
RTVSPost2010PropOp41
 70
     1
102
RTVSPost2010Prop42
 90
       50
102
RTVSPost2010PropOp42
 70
     1
102
RTVSPost2010Prop43
 90
        3
102
RTVSPost2010PropOp43
 70
     1
102
RTVSPost2010Prop44ColorIndex
 90
        5
102
RTVSPost2010Prop44ColorRGB
 90
      255
102
RTVSPost2010PropOp44
 70
     1
102
RTVSPost2010Prop45
280
     0
102
RTVSPost2010PropOp45
 70
     1
102
RTVSPost2010Prop46
 90
       50
102
RTVSPost2010PropOp46
 70
     1
102
RTVSPost2010Prop47
 90
       50
102
RTVSPost2010PropOp47
 70
     1
102
RTVSPost2010Prop48
 90
       50
102
RTVSPost2010PropOp48
 70
     1
102
RTVSPost2010Prop49
280
     0
102
RTVSPost2010PropOp49
 70
     1
102
RTVSPost2010Prop50
 90
       50
102
RTVSPost2010PropOp50
 70
     1
102
RTVSPost2010Prop51ColorIndex
 90
      256
102
RTVSPost2010Prop51ColorRGB
 90
-16777216
102
RTVSPost2010PropOp51
 70
     0
102
RTVSPost2010Prop52
140
1.0
102
RTVSPost2010PropOp52
 70
     0
102
RTVSPost2010Prop53
 90
        2
102
RTVSPost2010PropOp53
 70
     1
102
RTVSPost2010Prop54
  1
strokes_ogs.tif
102
RTVSPost2010PropOp54
 70
     1
102
RTVSPost2010Prop55
280
     0
102
RTVSPost2010PropOp55
 70
     1
102
RTVSPost2010Prop56
140
1.0
102
RTVSPost2010PropOp56
 70
     1
102
RTVSPost2010Prop57
140
1.0
102
RTVSPost2010PropOp57
 70
     1
102
RTVSPropertyOp0
 70
     1
102
RTVSPropertyOp1
 70
     1
102
RTVSPropertyOp2
 70
     1
102
RTVSPropertyOp3
 70
     1
102
RTVSPropertyOp4
 70
     1
102
RTVSPropertyOp5
 70
     1
102
RTVSPropertyOp6
 70
     1
102
RTVSPropertyOp7
 70
     1
102
RTVSPropertyOp8
 70
     1
102
RTVSPropertyOp9
 70
     1
102
RTVSPropertyOp10
 70
     1
102
RTVSPropertyOp11
 70
     1
102
RTVSPropertyOp12
 70
     1
102
RTVSPropertyOp13
 70
     1
102
RTVSPropertyOp14
 70
     1
102
RTVSPropertyOp15
 70
     1
102
RTVSPropertyOp16
 70
     1
102
RTVSPropertyOp17
 70
     1
102
RTVSPropertyOp18
 70
     1
102
RTVSPropertyOp19
 70
     1
102
RTVSPropertyOp20
 70
     1
102
RTVSPropertyOp21
 70
     1
102
RTVSPropertyOp22
 70
     1
102
RTVSPropertyOp23
 70
     1
102
RTVSPropertyOp24
 70
     1
102
RTVSPropertyOp25
 70
     1
102
RTVSPropertyOp26
 70
     1
102
RTVSPropertyOp27
 70
     1
102
RTVSPropertyOp28
 70
     1
102
RTVSPropertyOp29
 70
     1
102
RTVSPropertyOp30
 70
     1
102
RTVSPropertyOp31
 70
     1
102
RTVSPropertyOp32
 70
     1
102
RTVSPropertyOp33
 70
     1
102
RTVSPropertyOp34
 70
     1
102
RTVSPropertyOp35
 70
     1
102
RTVSPropertyOp36
 70
     1
102
RTVSPropertyOp37
 70
     1
102
RTVSPropertyOp38
 70
     1
102
RTVSPropertyOp39
 70
     1
102
RTVSPropertyOp40
 70
     1
102
RTVSPropertyOp41
 70
     1
102
RTVSPropertyOp42
 70
     1
102
RTVSPropertyOp43
 70
     1
102
RTVSPropertyOp44
 70
     1
102
RTVSPropertyOp45
 70
     1
102
RTVSPropertyOp46
 70
     1
102
RTVSPropertyOp47
 70
     1
102
RTVSPropertyOp48
 70
     1
102
RTVSPropertyOp49
 70
     1
102
RTVSPropertyOp50
 70
     1
102
RTVSPropertyOp51
 70
     0
102
RTVSPropertyOp52
 70
     0
102
RTVSPropertyOp53
 70
     1
102
RTVSPropertyOp54
 70
     1
102
RTVSPropertyOp55
 70
     1
102
RTVSPropertyOp56
 70
     1
102
RTVSPropertyOp57
 70
     1
102
RTVSPropertyOp58
 70
     1
102
RTVSPropertyOp59
 70
     1
102
RTVSPropertyOp60
 70
     1
102
RTVSPropertyOp61
 70
     1
102
RTVSPropertyOp62
 70
     1
  0
ENDSEC
  0
EOF
