  0
SECTION
  2
HEADER
  9
$ACADVER
  1
AC1015
  9
$ACADMAINTVER
 70
    20
  9
$DWGCODEPAGE
  3
ANSI_1252
  9
$INSBASE
 10
0.0
 20
0.0
 30
0.0
  9
$EXTMIN
 10
-63.97274527240316
 20
-18.71744379089341
 30
-0.0015258207003583
  9
$EXTMAX
 10
54.25361327461661
 20
93.9719916337188
 30
0.0000000349246037
  9
$LIMMIN
 10
0.0
 20
0.0
  9
$LIMMAX
 10
1.0
 20
1.0
  9
$ORTHOMODE
 70
     0
  9
$REGENMODE
 70
     1
  9
$FILLMODE
 70
     1
  9
$QTEXTMODE
 70
     0
  9
$MIRRTEXT
 70
     1
  9
$LTSCALE
 40
1.0
  9
$ATTMODE
 70
     1
  9
$TEXTSIZE
 40
0.2
  9
$TRACEWID
 40
0.05
  9
$TEXTSTYLE
  7
SIMPLEX
  9
$CLAYER
  8
1
  9
$CELTYPE
  6
BYLAYER
  9
$CECOLOR
 62
   256
  9
$CELTSCALE
 40
1.0
  9
$DISPSILH
 70
     0
  9
$DIMSCALE
 40
1.0
  9
$DIMASZ
 40
2.5
  9
$DIMEXO
 40
1.25
  9
$DIMDLI
 40
0.38
  9
$DIMRND
 40
0.0
  9
$DIMDLE
 40
0.0
  9
$DIMEXE
 40
0.0
  9
$DIMTP
 40
1.0
  9
$DIMTM
 40
1.0
  9
$DIMTXT
 40
3.5
  9
$DIMCEN
 40
0.09
  9
$DIMTSZ
 40
0.0
  9
$DIMTOL
 70
     0
  9
$DIMLIM
 70
     0
  9
$DIMTIH
 70
     0
  9
$DIMTOH
 70
     1
  9
$DIMSE1
 70
     0
  9
$DIMSE2
 70
     0
  9
$DIMTAD
 70
     0
  9
$DIMZIN
 70
     8
  9
$DIMBLK
  1
VDDIM_DEFAULT
  9
$DIMASO
 70
     1
  9
$DIMSHO
 70
     1
  9
$DIMPOST
  1

  9
$DIMAPOST
  1

  9
$DIMALT
 70
     0
  9
$DIMALTD
 70
     2
  9
$DIMALTF
 40
25.4
  9
$DIMLFAC
 40
1.0
  9
$DIMTOFL
 70
     0
  9
$DIMTVP
 40
0.0
  9
$DIMTIX
 70
     0
  9
$DIMSOXD
 70
     0
  9
$DIMSAH
 70
     0
  9
$DIMBLK1
  1

  9
$DIMBLK2
  1

  9
$DIMSTYLE
  2
STANDARD
  9
$DIMCLRD
 70
     0
  9
$DIMCLRE
 70
     0
  9
$DIMCLRT
 70
     0
  9
$DIMTFAC
 40
1.0
  9
$DIMGAP
 40
0.09
  9
$DIMJUST
 70
     0
  9
$DIMSD1
 70
     0
  9
$DIMSD2
 70
     0
  9
$DIMTOLJ
 70
     1
  9
$DIMTZIN
 70
     0
  9
$DIMALTZ
 70
     0
  9
$DIMALTTZ
 70
     0
  9
$DIMUPT
 70
     0
  9
$DIMDEC
 70
     4
  9
$DIMTDEC
 70
     4
  9
$DIMALTU
 70
     2
  9
$DIMALTTD
 70
     2
  9
$DIMTXSTY
  7
SIMPLEX
  9
$DIMAUNIT
 70
     0
  9
$DIMADEC
 70
     2
  9
$DIMALTRND
 40
0.0
  9
$DIMAZIN
 70
     2
  9
$DIMDSEP
 70
    46
  9
$DIMATFIT
 70
     3
  9
$DIMFRAC
 70
     0
  9
$DIMLDRBLK
  1

  9
$DIMLUNIT
 70
     2
  9
$DIMLWD
 70
    -2
  9
$DIMLWE
 70
    -2
  9
$DIMTMOVE
 70
     0
  9
$LUNITS
 70
     2
  9
$LUPREC
 70
     4
  9
$SKETCHINC
 40
0.1
  9
$FILLETRAD
 40
0.5
  9
$AUNITS
 70
     0
  9
$AUPREC
 70
     0
  9
$MENU
  1

  9
$ELEVATION
 40
0.0
  9
$PELEVATION
 40
0.0
  9
$THICKNESS
 40
0.0
  9
$LIMCHECK
 70
     0
  9
$CHAMFERA
 40
0.0
  9
$CHAMFERB
 40
0.0
  9
$CHAMFERC
 40
0.0
  9
$CHAMFERD
 40
0.0
  9
$SKPOLY
 70
     0
  9
$TDCREATE
 40
2456819.000139236
  9
$TDUCREATE
 40
2456818.916805903
  9
$TDUPDATE
 40
2456819.000143090
  9
$TDUUPDATE
 40
2456818.916809757
  9
$TDINDWG
 40
0.0000047222
  9
$TDUSRTIMER
 40
0.0000047222
  9
$USRTIMER
 70
     1
  9
$ANGBASE
 50
0.0
  9
$ANGDIR
 70
     0
  9
$PDMODE
 70
     1
  9
$PDSIZE
 40
0.0
  9
$PLINEWID
 40
0.0
  9
$SPLFRAME
 70
     0
  9
$SPLINETYPE
 70
     6
  9
$SPLINESEGS
 70
     8
  9
$HANDSEED
  5
852
  9
$SURFTAB1
 70
     6
  9
$SURFTAB2
 70
     6
  9
$SURFTYPE
 70
     6
  9
$SURFU
 70
     6
  9
$SURFV
 70
     6
  9
$UCSBASE
  2

  9
$UCSNAME
  2

  9
$UCSORG
 10
0.0
 20
0.0
 30
0.0
  9
$UCSXDIR
 10
1.0
 20
0.0
 30
0.0
  9
$UCSYDIR
 10
0.0
 20
1.0
 30
0.0
  9
$UCSORTHOREF
  2

  9
$UCSORTHOVIEW
 70
     0
  9
$UCSORGTOP
 10
0.0
 20
0.0
 30
0.0
  9
$UCSORGBOTTOM
 10
0.0
 20
0.0
 30
0.0
  9
$UCSORGLEFT
 10
0.0
 20
0.0
 30
0.0
  9
$UCSORGRIGHT
 10
0.0
 20
0.0
 30
0.0
  9
$UCSORGFRONT
 10
0.0
 20
0.0
 30
0.0
  9
$UCSORGBACK
 10
0.0
 20
0.0
 30
0.0
  9
$PUCSBASE
  2

  9
$PUCSNAME
  2

  9
$PUCSORG
 10
0.0
 20
0.0
 30
0.0
  9
$PUCSXDIR
 10
1.0
 20
0.0
 30
0.0
  9
$PUCSYDIR
 10
0.0
 20
1.0
 30
0.0
  9
$PUCSORTHOREF
  2

  9
$PUCSORTHOVIEW
 70
     0
  9
$PUCSORGTOP
 10
0.0
 20
0.0
 30
0.0
  9
$PUCSORGBOTTOM
 10
0.0
 20
0.0
 30
0.0
  9
$PUCSORGLEFT
 10
0.0
 20
0.0
 30
0.0
  9
$PUCSORGRIGHT
 10
0.0
 20
0.0
 30
0.0
  9
$PUCSORGFRONT
 10
0.0
 20
0.0
 30
0.0
  9
$PUCSORGBACK
 10
0.0
 20
0.0
 30
0.0
  9
$USERI1
 70
     0
  9
$USERI2
 70
     0
  9
$USERI3
 70
     0
  9
$USERI4
 70
     0
  9
$USERI5
 70
     0
  9
$USERR1
 40
0.0
  9
$USERR2
 40
0.0
  9
$USERR3
 40
0.0
  9
$USERR4
 40
0.0
  9
$USERR5
 40
0.0
  9
$WORLDVIEW
 70
     1
  9
$SHADEDGE
 70
     3
  9
$SHADEDIF
 70
    70
  9
$TILEMODE
 70
     1
  9
$MAXACTVP
 70
    64
  9
$PINSBASE
 10
0.0
 20
0.0
 30
0.0
  9
$PLIMCHECK
 70
     0
  9
$PEXTMIN
 10
1.000000000000000E+20
 20
1.000000000000000E+20
 30
1.000000000000000E+20
  9
$PEXTMAX
 10
-1.000000000000000E+20
 20
-1.000000000000000E+20
 30
-1.000000000000000E+20
  9
$PLIMMIN
 10
0.0
 20
0.0
  9
$PLIMMAX
 10
12.0
 20
9.0
  9
$UNITMODE
 70
     0
  9
$VISRETAIN
 70
     1
  9
$PLINEGEN
 70
     0
  9
$PSLTSCALE
 70
     1
  9
$TREEDEPTH
 70
  3020
  9
$CMLSTYLE
  2
Standard
  9
$CMLJUST
 70
     0
  9
$CMLSCALE
 40
1.0
  9
$PROXYGRAPHICS
 70
     1
  9
$MEASUREMENT
 70
     1
  9
$CELWEIGHT
370
    -1
  9
$ENDCAPS
280
     0
  9
$JOINSTYLE
280
     0
  9
$LWDISPLAY
290
     0
  9
$INSUNITS
 70
     4
  9
$HYPERLINKBASE
  1

  9
$STYLESHEET
  1

  9
$XEDIT
290
     1
  9
$CEPSNTYPE
380
     0
  9
$PSTYLEMODE
290
     1
  9
$FINGERPRINTGUID
  2
{9BD9C9B0-DB3F-4EEE-9594-6C614B33DCB6}
  9
$VERSIONGUID
  2
{C545ED67-F9E6-4F6E-B5E2-5B2D9CDAA42C}
  9
$EXTNAMES
290
     1
  9
$PSVPSCALE
 40
0.0
  9
$OLESTARTUP
290
     0
  0
ENDSEC
  0
SECTION
  2
CLASSES
  0
CLASS
  1
ACDBDICTIONARYWDFLT
  2
AcDbDictionaryWithDefault
  3
ObjectDBX Classes
 90
        0
280
     0
281
     0
  0
CLASS
  1
IMAGEDEF
  2
AcDbRasterImageDef
  3
ISM
 90
    32768
280
     0
281
     0
  0
CLASS
  1
IMAGE
  2
AcDbRasterImage
  3
ISM
 90
    34943
280
     0
281
     1
  0
CLASS
  1
IMAGEDEF_REACTOR
  2
AcDbRasterImageDefReactor
  3
ISM
 90
    32769
280
     0
281
     0
  0
CLASS
  1
ACDBPLACEHOLDER
  2
AcDbPlaceHolder
  3
ObjectDBX Classes
 90
        0
280
     0
281
     0
  0
CLASS
  1
LAYOUT
  2
AcDbLayout
  3
ObjectDBX Classes
 90
        0
280
     0
281
     0
  0
CLASS
  1
MATERIAL
  2
AcDbMaterial
  3
ObjectDBX Classes
 90
     1153
280
     0
281
     0
  0
CLASS
  1
VISUALSTYLE
  2
AcDbVisualStyle
  3
ObjectDBX Classes
 90
     4095
280
     0
281
     0
  0
CLASS
  1
TABLESTYLE
  2
AcDbTableStyle
  3
ObjectDBX Classes
 90
     4095
280
     0
281
     0
  0
CLASS
  1
SCALE
  2
AcDbScale
  3
ObjectDBX Classes
 90
     1153
280
     0
281
     0
  0
CLASS
  1
MLEADERSTYLE
  2
AcDbMLeaderStyle
  3
ACDB_MLEADERSTYLE_CLASS
 90
     4095
280
     0
281
     0
  0
CLASS
  1
ACDBSECTIONVIEWSTYLE
  2
AcDbSectionViewStyle
  3
ObjectDBX Classes
 90
     1025
280
     0
281
     0
  0
CLASS
  1
ACDBDETAILVIEWSTYLE
  2
AcDbDetailViewStyle
  3
ObjectDBX Classes
 90
     1025
280
     0
281
     0
  0
CLASS
  1
EXACXREFPANELOBJECT
  2
ExAcXREFPanelObject
  3
EXAC_ESW
 90
     1025
280
     0
281
     0
  0
CLASS
  1
NPOCOLLECTION
  2
AcDbImpNonPersistentObjectsCollection
  3
ObjectDBX Classes
 90
     1153
280
     0
281
     0
  0
CLASS
  1
DICTIONARYVAR
  2
AcDbDictionaryVar
  3
ObjectDBX Classes
 90
        0
280
     0
281
     0
  0
CLASS
  1
CELLSTYLEMAP
  2
AcDbCellStyleMap
  3
ObjectDBX Classes
 90
     1152
280
     0
281
     0
  0
ENDSEC
  0
SECTION
  2
TABLES
  0
TABLE
  2
VPORT
  5
72B
330
0
100
AcDbSymbolTable
 70
     1
  0
VPORT
  5
72C
330
72B
100
AcDbSymbolTableRecord
100
AcDbViewportTableRecord
  2
*Active
 70
     0
 10
0.0
 20
0.0
 11
1.0
 21
1.0
 12
-4.859565998893273
 22
37.6272739214127
 13
0.0
 23
0.0
 14
1.0
 24
1.0
 15
1.0
 25
1.0
 16
0.0
 26
0.0
 36
1.0
 17
0.0
 27
0.0
 37
0.0
 40
126.1091236410466
 41
2.220359281437125
 42
1.0
 43
0.0
 44
0.0
 50
0.0
 51
0.0
 71
     0
 72
   100
 73
     1
 74
     3
 75
     0
 76
     0
 77
     0
 78
     0
281
     0
 65
     1
110
0.0
120
0.0
130
0.0
111
1.0
121
0.0
131
0.0
112
0.0
122
1.0
132
0.0
 79
     0
146
0.0
1001
ACAD_NAV_VCDISPLAY
1070
     3
  0
ENDTAB
  0
TABLE
  2
LTYPE
  5
72D
330
0
100
AcDbSymbolTable
 70
    30
  0
LTYPE
  5
12
330
72D
100
AcDbSymbolTableRecord
100
AcDbLinetypeTableRecord
  2
BYBLOCK
 70
     0
  3
BYBLOCK________________________________________
 72
    65
 73
     0
 40
0.0
  0
LTYPE
  5
13
330
72D
100
AcDbSymbolTableRecord
100
AcDbLinetypeTableRecord
  2
BYLAYER
 70
     0
  3
BYLAYER________________________________________
 72
    65
 73
     0
 40
0.0
  0
LTYPE
  5
14
330
72D
100
AcDbSymbolTableRecord
100
AcDbLinetypeTableRecord
  2
CONTINUOUS
 70
     0
  3
Solid line
 72
    65
 73
     0
 40
0.0
  0
LTYPE
  5
20
330
72D
100
AcDbSymbolTableRecord
100
AcDbLinetypeTableRecord
  2
HIDDEN
 70
     0
  3
Hidden __ __ __ __ __ __ __ __ __ __ __ __ __ _
 72
    65
 73
     2
 40
9.524999999999996
 49
6.349999999999997
 74
     0
 49
-3.174999999999998
 74
     0
  0
LTYPE
  5
351
330
72D
100
AcDbSymbolTableRecord
100
AcDbLinetypeTableRecord
  2
CENTER
 70
     0
  3
Dash dot __ . __ . __ . __ . __ . __ . __ . __
 72
    65
 73
     4
 40
25.4
 49
12.7
 74
     0
 49
-6.349999999999997
 74
     0
 49
0.0
 74
     0
 49
-6.349999999999997
 74
     0
  0
LTYPE
  5
6CB
330
72D
100
AcDbSymbolTableRecord
100
AcDbLinetypeTableRecord
  2
DASHDOT
 70
     0
  3
Dashdot __ . __ . __ . __ . __ . __ . __ . __
 72
    65
 73
     4
 40
1.0
 49
0.5
 74
     0
 49
-0.25
 74
     0
 49
0.0
 74
     0
 49
-0.25
 74
     0
  0
LTYPE
  5
6CC
330
72D
100
AcDbSymbolTableRecord
100
AcDbLinetypeTableRecord
  2
DASHED
 70
     0
  3
Dashed __ __ __ __ __ __ __ __ __ __ __ __ __ _
 72
    65
 73
     2
 40
0.75
 49
0.5
 74
     0
 49
-0.25
 74
     0
  0
LTYPE
  5
6CD
330
72D
100
AcDbSymbolTableRecord
100
AcDbLinetypeTableRecord
  2
HIDDEN2
 70
     0
  3
Hidden2 _ _ _ _ _ _ _ _ _ _ _ _ _ _ _ _ _ 
 72
    65
 73
     2
 40
0.1875
 49
0.125
 74
     0
 49
-0.0625
 74
     0
  0
LTYPE
  5
6CE
330
72D
100
AcDbSymbolTableRecord
100
AcDbLinetypeTableRecord
  2
BORDER
 70
     0
  3
Border __ __ . __ __ . __ __ . __ __ . __ __ .
 72
    65
 73
     6
 40
1.75
 49
0.5
 74
     0
 49
-0.25
 74
     0
 49
0.5
 74
     0
 49
-0.25
 74
     0
 49
0.0
 74
     0
 49
-0.25
 74
     0
  0
LTYPE
  5
6CF
330
72D
100
AcDbSymbolTableRecord
100
AcDbLinetypeTableRecord
  2
BORDER2
 70
     0
  3
Border2 __.__.__.__.__.__.__.__.__.__.__.
 72
    65
 73
     6
 40
0.875
 49
0.25
 74
     0
 49
-0.125
 74
     0
 49
0.25
 74
     0
 49
-0.125
 74
     0
 49
0.0
 74
     0
 49
-0.125
 74
     0
  0
LTYPE
  5
6D0
330
72D
100
AcDbSymbolTableRecord
100
AcDbLinetypeTableRecord
  2
BORDERX2
 70
     0
  3
Borderx2  ____  ____  .  ____  ____  .  ___
 72
    65
 73
     6
 40
3.5
 49
1.0
 74
     0
 49
-0.5
 74
     0
 49
1.0
 74
     0
 49
-0.5
 74
     0
 49
0.0
 74
     0
 49
-0.5
 74
     0
  0
LTYPE
  5
6D1
330
72D
100
AcDbSymbolTableRecord
100
AcDbLinetypeTableRecord
  2
CENTER2
 70
     0
  3
Center2  ___ _ ___ _ ___ _ ___ _ ___ _ ___
 72
    65
 73
     4
 40
1.125
 49
0.75
 74
     0
 49
-0.125
 74
     0
 49
0.125
 74
     0
 49
-0.125
 74
     0
  0
LTYPE
  5
6D2
330
72D
100
AcDbSymbolTableRecord
100
AcDbLinetypeTableRecord
  2
CENTERX2
 70
     0
  3
Centerx2  ________  __  ________  __  _____
 72
    65
 73
     4
 40
4.0
 49
2.5
 74
     0
 49
-0.5
 74
     0
 49
0.5
 74
     0
 49
-0.5
 74
     0
  0
LTYPE
  5
6D3
330
72D
100
AcDbSymbolTableRecord
100
AcDbLinetypeTableRecord
  2
DASHDOT2
 70
     0
  3
Dashdot2  _._._._._._._._._._._._._._._.
 72
    65
 73
     4
 40
0.5
 49
0.25
 74
     0
 49
-0.125
 74
     0
 49
0.0
 74
     0
 49
-0.125
 74
     0
  0
LTYPE
  5
6D4
330
72D
100
AcDbSymbolTableRecord
100
AcDbLinetypeTableRecord
  2
DASHDOTX2
 70
     0
  3
Dashdotx2 ____  .  ____  .  ____  .  ___
 72
    65
 73
     4
 40
2.0
 49
1.0
 74
     0
 49
-0.5
 74
     0
 49
0.0
 74
     0
 49
-0.5
 74
     0
  0
LTYPE
  5
6D5
330
72D
100
AcDbSymbolTableRecord
100
AcDbLinetypeTableRecord
  2
DASHED2
 70
     0
  3
Dashed2 _ _ _ _ _ _ _ _ _ _ _ _ _ _ _ _ _ 
 72
    65
 73
     2
 40
0.375
 49
0.25
 74
     0
 49
-0.125
 74
     0
  0
LTYPE
  5
6D6
330
72D
100
AcDbSymbolTableRecord
100
AcDbLinetypeTableRecord
  2
DASHEDX2
 70
     0
  3
Dashedx2 ____  ____  ____  ____  ____  ___
 72
    65
 73
     2
 40
1.5
 49
1.0
 74
     0
 49
-0.5
 74
     0
  0
LTYPE
  5
6D7
330
72D
100
AcDbSymbolTableRecord
100
AcDbLinetypeTableRecord
  2
DIVIDE
 70
     0
  3
Divide ____ . . ____ . . ____ . . ____ . . ____
 72
    65
 73
     6
 40
1.25
 49
0.5
 74
     0
 49
-0.25
 74
     0
 49
0.0
 74
     0
 49
-0.25
 74
     0
 49
0.0
 74
     0
 49
-0.25
 74
     0
  0
LTYPE
  5
6D8
330
72D
100
AcDbSymbolTableRecord
100
AcDbLinetypeTableRecord
  2
DIVIDE2
 70
     0
  3
Divide2 __..__..__..__..__..__..__..__.._
 72
    65
 73
     6
 40
0.625
 49
0.25
 74
     0
 49
-0.125
 74
     0
 49
0.0
 74
     0
 49
-0.125
 74
     0
 49
0.0
 74
     0
 49
-0.125
 74
     0
  0
LTYPE
  5
6D9
330
72D
100
AcDbSymbolTableRecord
100
AcDbLinetypeTableRecord
  2
DIVIDEX2
 70
     0
  3
Dividex2 ________  .  .  ________  .  .  _
 72
    65
 73
     6
 40
2.5
 49
1.0
 74
     0
 49
-0.5
 74
     0
 49
0.0
 74
     0
 49
-0.5
 74
     0
 49
0.0
 74
     0
 49
-0.5
 74
     0
  0
LTYPE
  5
6DA
330
72D
100
AcDbSymbolTableRecord
100
AcDbLinetypeTableRecord
  2
DOT
 70
     0
  3
Dot . . . . . . . . . . . . . . . . . . . . . . . .
 72
    65
 73
     2
 40
0.25
 49
0.0
 74
     0
 49
-0.25
 74
     0
  0
LTYPE
  5
6DB
330
72D
100
AcDbSymbolTableRecord
100
AcDbLinetypeTableRecord
  2
DOT2
 70
     0
  3
Dot2 ........................................
 72
    65
 73
     2
 40
0.125
 49
0.0
 74
     0
 49
-0.125
 74
     0
  0
LTYPE
  5
6DC
330
72D
100
AcDbSymbolTableRecord
100
AcDbLinetypeTableRecord
  2
DOTX2
 70
     0
  3
Dotx2 .  .  .  .  .  .  .  .  .  .  .  .  .  .
 72
    65
 73
     2
 40
0.5
 49
0.0
 74
     0
 49
-0.5
 74
     0
  0
LTYPE
  5
6DD
330
72D
100
AcDbSymbolTableRecord
100
AcDbLinetypeTableRecord
  2
HIDDENX2
 70
     0
  3
Hiddenx2 ____ ____ ____ ____ ____ ____ ____ 
 72
    65
 73
     2
 40
0.75
 49
0.5
 74
     0
 49
-0.25
 74
     0
  0
LTYPE
  5
6DE
330
72D
100
AcDbSymbolTableRecord
100
AcDbLinetypeTableRecord
  2
PHANTOM
 70
     0
  3
Phantom ______  __  __  ______  __  __  ______ 
 72
    65
 73
     6
 40
2.5
 49
1.25
 74
     0
 49
-0.25
 74
     0
 49
0.25
 74
     0
 49
-0.25
 74
     0
 49
0.25
 74
     0
 49
-0.25
 74
     0
  0
LTYPE
  5
6DF
330
72D
100
AcDbSymbolTableRecord
100
AcDbLinetypeTableRecord
  2
PHANTOM2
 70
     0
  3
Phantom2 ___ _ _ ___ _ _ ___ _ _ ___ _ _
 72
    65
 73
     6
 40
1.25
 49
0.625
 74
     0
 49
-0.125
 74
     0
 49
0.125
 74
     0
 49
-0.125
 74
     0
 49
0.125
 74
     0
 49
-0.125
 74
     0
  0
LTYPE
  5
6E0
330
72D
100
AcDbSymbolTableRecord
100
AcDbLinetypeTableRecord
  2
PHANTOMX2
 70
     0
  3
Phantomx2 ____________    ____    ____   _
 72
    65
 73
     6
 40
5.0
 49
2.5
 74
     0
 49
-0.5
 74
     0
 49
0.5
 74
     0
 49
-0.5
 74
     0
 49
0.5
 74
     0
 49
-0.5
 74
     0
  0
LTYPE
  5
6E1
330
72D
100
AcDbSymbolTableRecord
100
AcDbLinetypeTableRecord
  2
DASHED0
 70
     0
  3
Dashed0 __ __ __ __ __ __ __ __ __ __ __ __ __ _
 72
    65
 73
     2
 40
1.0
 49
0.5
 74
     0
 49
-0.5
 74
     0
  0
LTYPE
  5
6E2
330
72D
100
AcDbSymbolTableRecord
100
AcDbLinetypeTableRecord
  2
DOT0
 70
     0
  3
Dot0 ........................................
 72
    65
 73
     8
 40
1.0
 49
0.0
 74
     0
 49
-0.25
 74
     0
 49
0.0
 74
     0
 49
-0.25
 74
     0
 49
0.0
 74
     0
 49
-0.25
 74
     0
 49
0.0
 74
     0
 49
-0.25
 74
     0
  0
LTYPE
  5
6E3
330
72D
100
AcDbSymbolTableRecord
100
AcDbLinetypeTableRecord
  2
DASHDOT0
 70
     0
  3
Dashdot __ . __ . __ . __ . __ . __ . __ . __
 72
    65
 73
     4
 40
1.0
 49
0.4
 74
     0
 49
-0.3
 74
     0
 49
0.0
 74
     0
 49
-0.3
 74
     0
  0
LTYPE
  5
6E4
330
72D
100
AcDbSymbolTableRecord
100
AcDbLinetypeTableRecord
  2
DASHDOTDOT0
 70
     0
  3
Dashdot __ . . __ . . __ . . __ . . __ . . __ . . __ . . __
 72
    65
 73
     6
 40
1.0
 49
0.3
 74
     0
 49
-0.23
 74
     0
 49
0.0
 74
     0
 49
-0.24
 74
     0
 49
0.0
 74
     0
 49
-0.23
 74
     0
  0
LTYPE
  5
6E5
330
72D
100
AcDbSymbolTableRecord
100
AcDbLinetypeTableRecord
  2
INVISIBLE
 70
     0
  3
Invisible(                        )
 72
    65
 73
     2
 40
2.0
 49
-1.0
 74
     0
 49
-1.0
 74
     0
  0
ENDTAB
  0
TABLE
  2
LAYER
  5
72F
330
0
100
AcDbSymbolTable
 70
    16
  0
LAYER
  5
F
102
{ACAD_XDICTIONARY
360
7E4
102
}
330
72F
100
AcDbSymbolTableRecord
100
AcDbLayerTableRecord
  2
0
 70
     0
 62
     7
  6
CONTINUOUS
370
    -3
390
72E
  0
LAYER
  5
23
102
{ACAD_XDICTIONARY
360
7E6
102
}
330
72F
100
AcDbSymbolTableRecord
100
AcDbLayerTableRecord
  2
1
 70
     0
 62
     4
  6
CONTINUOUS
370
    -3
390
72E
  0
LAYER
  5
24
102
{ACAD_XDICTIONARY
360
7E8
102
}
330
72F
100
AcDbSymbolTableRecord
100
AcDbLayerTableRecord
  2
SK1
 70
     0
 62
     4
  6
CONTINUOUS
370
    -3
390
72E
  0
LAYER
  5
25
102
{ACAD_XDICTIONARY
360
7EA
102
}
330
72F
100
AcDbSymbolTableRecord
100
AcDbLayerTableRecord
  2
2
 70
     0
 62
     7
  6
CONTINUOUS
370
    -3
390
72E
  0
LAYER
  5
26
102
{ACAD_XDICTIONARY
360
7EC
102
}
330
72F
100
AcDbSymbolTableRecord
100
AcDbLayerTableRecord
  2
2L
 70
     0
 62
     7
  6
CONTINUOUS
370
    -3
390
72E
  0
LAYER
  5
27
102
{ACAD_XDICTIONARY
360
7EE
102
}
330
72F
100
AcDbSymbolTableRecord
100
AcDbLayerTableRecord
  2
SK2
 70
     0
 62
     7
  6
CONTINUOUS
370
    -3
390
72E
  0
LAYER
  5
28
102
{ACAD_XDICTIONARY
360
7F0
102
}
330
72F
100
AcDbSymbolTableRecord
100
AcDbLayerTableRecord
  2
3
 70
     0
 62
     1
  6
HIDDEN
370
    -3
390
72E
  0
LAYER
  5
29
102
{ACAD_XDICTIONARY
360
7F2
102
}
330
72F
100
AcDbSymbolTableRecord
100
AcDbLayerTableRecord
  2
SK3
 70
     0
 62
     1
  6
HIDDEN
370
    -3
390
72E
  0
LAYER
  5
2A
102
{ACAD_XDICTIONARY
360
7F4
102
}
330
72F
100
AcDbSymbolTableRecord
100
AcDbLayerTableRecord
  2
4
 70
     0
 62
     2
  6
CENTER
370
    -3
390
72E
  0
LAYER
  5
2B
102
{ACAD_XDICTIONARY
360
7F6
102
}
330
72F
100
AcDbSymbolTableRecord
100
AcDbLayerTableRecord
  2
SK4
 70
     0
 62
     2
  6
CENTER
370
    -3
390
72E
  0
LAYER
  5
2C
102
{ACAD_XDICTIONARY
360
7F8
102
}
330
72F
100
AcDbSymbolTableRecord
100
AcDbLayerTableRecord
  2
5
 70
     1
 62
     7
  6
CONTINUOUS
370
    -3
390
72E
  0
LAYER
  5
2D
102
{ACAD_XDICTIONARY
360
7FA
102
}
330
72F
100
AcDbSymbolTableRecord
100
AcDbLayerTableRecord
  2
6
 70
     0
 62
     5
  6
CONTINUOUS
370
    -3
390
72E
  0
LAYER
  5
2E
102
{ACAD_XDICTIONARY
360
7FC
102
}
330
72F
100
AcDbSymbolTableRecord
100
AcDbLayerTableRecord
  2
SK6
 70
     0
 62
     5
  6
CONTINUOUS
370
    -3
390
72E
  0
LAYER
  5
2F
330
72F
100
AcDbSymbolTableRecord
100
AcDbLayerTableRecord
  2
DEFPOINTS
 70
     0
 62
     7
  6
CONTINUOUS
290
     0
370
    -3
390
72E
  0
LAYER
  5
375
102
{ACAD_XDICTIONARY
360
7FE
102
}
330
72F
100
AcDbSymbolTableRecord
100
AcDbLayerTableRecord
  2
CUT
 70
     0
 62
     1
  6
CONTINUOUS
370
    -3
390
72E
  0
LAYER
  5
376
102
{ACAD_XDICTIONARY
360
800
102
}
330
72F
100
AcDbSymbolTableRecord
100
AcDbLayerTableRecord
  2
NOCUT
 70
     0
 62
     7
  6
CONTINUOUS
370
    -3
390
72E
  0
ENDTAB
  0
TABLE
  2
STYLE
  5
730
330
0
100
AcDbSymbolTable
 70
     4
  0
STYLE
  5
10
330
730
100
AcDbSymbolTableRecord
100
AcDbTextStyleTableRecord
  2
STANDARD
 70
     0
 40
0.0
 41
1.0
 50
0.0
 71
     0
 42
0.2
  3
txt
  4

1001
ACAD
1000
txt
1071
        0
  0
STYLE
  5
1D
330
730
100
AcDbSymbolTableRecord
100
AcDbTextStyleTableRecord
  2
TXT
 70
     0
 40
8.0
 41
1.0
 50
0.0
 71
     0
 42
0.2
  3
txt
  4

1001
ACAD
1000
txt
1071
        0
  0
STYLE
  5
1E
330
730
100
AcDbSymbolTableRecord
100
AcDbTextStyleTableRecord
  2
SIMPLEX
 70
     0
 40
0.0
 41
1.0
 50
0.0
 71
     0
 42
0.2
  3
simplex.shx
  4

1001
ACAD
1000
simplex.shx
1071
        0
  0
STYLE
  5
34C
330
730
100
AcDbSymbolTableRecord
100
AcDbTextStyleTableRecord
  2

 70
     1
 40
0.0
 41
1.0
 50
0.0
 71
     0
 42
0.2
  3
ltypeshp.shx
  4

  0
ENDTAB
  0
TABLE
  2
VIEW
  5
731
330
0
100
AcDbSymbolTable
 70
     0
  0
ENDTAB
  0
TABLE
  2
UCS
  5
732
330
0
100
AcDbSymbolTable
 70
     0
  0
ENDTAB
  0
TABLE
  2
APPID
  5
733
330
0
100
AcDbSymbolTable
 70
    12
  0
APPID
  5
734
330
733
100
AcDbSymbolTableRecord
100
AcDbRegAppTableRecord
  2
VDEXTRAPARAM
 70
     0
  0
APPID
  5
735
330
733
100
AcDbSymbolTableRecord
100
AcDbRegAppTableRecord
  2
VDEXTRASOLID2D
 70
     0
  0
APPID
  5
736
330
733
100
AcDbSymbolTableRecord
100
AcDbRegAppTableRecord
  2
VD_TEMPHATCH
 70
     0
  0
APPID
  5
737
330
733
100
AcDbSymbolTableRecord
100
AcDbRegAppTableRecord
  2
ACAD
 70
     0
  0
APPID
  5
738
330
733
100
AcDbSymbolTableRecord
100
AcDbRegAppTableRecord
  2
PE_URL
 70
     0
  0
APPID
  5
739
330
733
100
AcDbSymbolTableRecord
100
AcDbRegAppTableRecord
  2
VD_EX_PRINTER_DWG_STYLE_SHEET
 70
     0
  0
APPID
  5
73A
330
733
100
AcDbSymbolTableRecord
100
AcDbRegAppTableRecord
  2
VD_EX_PRINTER_SIZEX
 70
     0
  0
APPID
  5
73B
330
733
100
AcDbSymbolTableRecord
100
AcDbRegAppTableRecord
  2
VD_EX_PRINTER_AVSIZEX
 70
     0
  0
APPID
  5
73C
330
733
100
AcDbSymbolTableRecord
100
AcDbRegAppTableRecord
  2
VD_EX_PRINTER_SIZEY
 70
     0
  0
APPID
  5
73D
330
733
100
AcDbSymbolTableRecord
100
AcDbRegAppTableRecord
  2
VD_EX_PRINTER_AVSIZEY
 70
     0
  0
APPID
  5
80D
330
733
100
AcDbSymbolTableRecord
100
AcDbRegAppTableRecord
  2
ACAD_NAV_VCDISPLAY
 70
     0
  0
APPID
  5
851
330
733
100
AcDbSymbolTableRecord
100
AcDbRegAppTableRecord
  2
ACAD_MLEADERVER
 70
     0
  0
ENDTAB
  0
TABLE
  2
DIMSTYLE
  5
76C
330
0
100
AcDbSymbolTable
 70
     1
100
AcDbDimStyleTable
 71
     1
340
3F
  0
DIMSTYLE
105
3F
102
{ACAD_REACTORS
330
67B
330
689
330
696
330
6A3
330
6B0
102
}
330
76C
100
AcDbSymbolTableRecord
100
AcDbDimStyleTableRecord
  2
STANDARD
 70
     0
 41
2.5
 42
0.0
 44
1.25
 47
1.0
 48
1.0
 73
     0
 77
     1
 78
     8
 79
     2
140
3.5
147
0.625
179
     2
271
     2
340
1E
  0
ENDTAB
  0
TABLE
  2
BLOCK_RECORD
  5
73E
330
0
100
AcDbSymbolTable
 70
     7
  0
BLOCK_RECORD
  5
73F
330
73E
100
AcDbSymbolTableRecord
100
AcDbBlockTableRecord
  2
*Model_Space
340
18
  0
BLOCK_RECORD
  5
740
330
73E
100
AcDbSymbolTableRecord
100
AcDbBlockTableRecord
  2
*Paper_Space
340
33B
  0
BLOCK_RECORD
  5
741
330
73E
100
AcDbSymbolTableRecord
100
AcDbBlockTableRecord
  2
VDDIM_DEFAULT
340
0
  0
BLOCK_RECORD
  5
742
330
73E
100
AcDbSymbolTableRecord
100
AcDbBlockTableRecord
  2
VDDIM_NONE
340
0
  0
BLOCK_RECORD
  5
743
330
73E
100
AcDbSymbolTableRecord
100
AcDbBlockTableRecord
  2
*D2
340
0
  0
BLOCK_RECORD
  5
74B
330
73E
100
AcDbSymbolTableRecord
100
AcDbBlockTableRecord
  2
*D3
340
0
  0
BLOCK_RECORD
  5
753
330
73E
100
AcDbSymbolTableRecord
100
AcDbBlockTableRecord
  2
*D4
340
0
  0
BLOCK_RECORD
  5
75B
330
73E
100
AcDbSymbolTableRecord
100
AcDbBlockTableRecord
  2
*D5
340
0
  0
BLOCK_RECORD
  5
763
330
73E
100
AcDbSymbolTableRecord
100
AcDbBlockTableRecord
  2
*D6
340
0
  0
ENDTAB
  0
ENDSEC
  0
SECTION
  2
BLOCKS
  0
BLOCK
  5
76D
330
73F
100
AcDbEntity
  8
1
100
AcDbBlockBegin
  2
*Model_Space
 70
     0
 10
0.0
 20
0.0
 30
0.0
  3
*Model_Space
  1

  0
ENDBLK
  5
76E
330
73F
100
AcDbEntity
  8
1
100
AcDbBlockEnd
  0
BLOCK
  5
76F
330
740
100
AcDbEntity
 67
     1
  8
1
100
AcDbBlockBegin
  2
*Paper_Space
 70
     0
 10
0.0
 20
0.0
 30
0.0
  3
*Paper_Space
  1

  0
ENDBLK
  5
770
330
740
100
AcDbEntity
 67
     1
  8
1
100
AcDbBlockEnd
  0
BLOCK
  5
725
330
741
100
AcDbEntity
  8
0
100
AcDbBlockBegin
  2
VDDIM_DEFAULT
 70
     0
 10
0.0
 20
0.0
 30
0.0
  3
VDDIM_DEFAULT
  1

  0
HATCH
  5
726
330
741
100
AcDbEntity
  8
0
  6
Continuous
 62
     0
370
    -2
100
AcDbHatch
 10
0.0
 20
0.0
 30
0.0
210
0.0
220
0.0
230
-1.0
  2
SOLID
 70
     1
 71
     0
 91
        1
 92
        2
 72
     0
 73
     1
 93
        3
 10
0.0
 20
0.0
 10
1.0
 20
-0.1665
 10
1.0
 20
0.1665
 97
        0
 75
     0
 76
     1
 98
        1
 10
0.0
 20
0.0
  0
ENDBLK
  5
771
330
741
100
AcDbEntity
  8
0
100
AcDbBlockEnd
  0
BLOCK
  5
728
330
742
100
AcDbEntity
  8
0
100
AcDbBlockBegin
  2
VDDIM_NONE
 70
     0
 10
0.0
 20
0.0
 30
0.0
  3
VDDIM_NONE
  1

  0
ENDBLK
  5
772
330
742
100
AcDbEntity
  8
0
100
AcDbBlockEnd
  0
BLOCK
  5
744
330
743
100
AcDbEntity
  8
0
100
AcDbBlockBegin
  2
*D2
 70
     1
 10
0.0
 20
0.0
 30
0.0
  3
*D2
  1

  0
LINE
  5
745
330
743
100
AcDbEntity
  8
SK2
100
AcDbLine
 10
-45.0
 20
4.099999999999999
 30
0.0
 11
-45.0
 21
91.25
 31
0.0
  0
LINE
  5
746
330
743
100
AcDbEntity
  8
SK2
100
AcDbLine
 10
38.0
 20
4.099999999999999
 30
0.0
 11
38.0
 21
91.25
 31
0.0
  0
LINE
  5
747
330
743
100
AcDbEntity
  8
SK2
100
AcDbLine
 10
-42.5
 20
90.0
 30
0.0
 11
35.5
 21
90.0
 31
0.0
  0
LWPOLYLINE
  5
748
102
{ACAD_REACTORS
330
773
102
}
330
743
100
AcDbEntity
  8
SK2
100
AcDbPolyline
 90
        3
 70
     1
 43
0.0
 10
-42.5
 20
90.41666666666669
 10
-42.5
 20
89.58333333333332
 10
-45.0
 20
90.0
  0
HATCH
  5
773
330
743
100
AcDbEntity
  8
SK2
100
AcDbHatch
 10
0.0
 20
0.0
 30
0.0
210
0.0
220
0.0
230
1.0
  2
SOLID
 70
     1
 71
     1
 91
        1
 92
        1
 93
        3
 72
     1
 10
-42.5
 20
90.41666666666669
 11
-42.5
 21
89.58333333333332
 72
     1
 10
-42.5
 20
89.58333333333332
 11
-45.0
 21
90.0
 72
     1
 10
-45.0
 20
90.0
 11
-42.5
 21
90.41666666666669
 97
        1
330
748
 75
     0
 76
     1
 98
        1
 10
0.0
 20
0.0
1001
VD_TEMPHATCH
1000
VD_TEMPHATCH
  0
LWPOLYLINE
  5
749
102
{ACAD_REACTORS
330
774
102
}
330
743
100
AcDbEntity
  8
SK2
100
AcDbPolyline
 90
        3
 70
     1
 43
0.0
 10
35.5
 20
89.58333333333332
 10
35.5
 20
90.41666666666669
 10
38.0
 20
90.0
  0
HATCH
  5
774
330
743
100
AcDbEntity
  8
SK2
100
AcDbHatch
 10
0.0
 20
0.0
 30
0.0
210
0.0
220
0.0
230
1.0
  2
SOLID
 70
     1
 71
     1
 91
        1
 92
        1
 93
        3
 72
     1
 10
35.5
 20
89.58333333333332
 11
35.5
 21
90.41666666666669
 72
     1
 10
35.5
 20
90.41666666666669
 11
38.0
 21
90.0
 72
     1
 10
38.0
 20
90.0
 11
35.5
 21
89.58333333333332
 97
        1
330
749
 75
     0
 76
     1
 98
        1
 10
0.0
 20
0.0
1001
VD_TEMPHATCH
1000
VD_TEMPHATCH
  0
MTEXT
  5
74A
330
743
100
AcDbEntity
  8
SK2
100
AcDbMText
 10
-3.5
 20
92.39074999999999
 30
0.0
 40
3.5
 41
5.078606735924932
 71
     5
 72
     1
  1
83
  7
SIMPLEX
 73
     1
 44
1.0
1001
ACAD
1000
MTEXTBEGIN
1070
    73
1070
     1
1070
    44
1040
1.0
1070
    74
1070
     0
1000
MTEXTEND
  0
ENDBLK
  5
775
330
743
100
AcDbEntity
  8
0
100
AcDbBlockEnd
  0
BLOCK
  5
74C
330
74B
100
AcDbEntity
  8
0
100
AcDbBlockBegin
  2
*D3
 70
     1
 10
0.0
 20
0.0
 30
0.0
  3
*D3
  1

  0
LINE
  5
74D
330
74B
100
AcDbEntity
  8
2
100
AcDbLine
 10
14.59
 20
4.099999999999999
 30
0.0
 11
14.59
 21
61.25
 31
0.0
  0
LINE
  5
74E
330
74B
100
AcDbEntity
  8
2
100
AcDbLine
 10
38.0
 20
4.099999999999999
 30
0.0
 11
38.0
 21
61.25
 31
0.0
  0
LINE
  5
74F
330
74B
100
AcDbEntity
  8
2
100
AcDbLine
 10
17.09
 20
60.0
 30
0.0
 11
35.5
 21
60.0
 31
0.0
  0
LWPOLYLINE
  5
750
102
{ACAD_REACTORS
330
776
102
}
330
74B
100
AcDbEntity
  8
2
100
AcDbPolyline
 90
        3
 70
     1
 43
0.0
 10
17.09
 20
60.41666666666666
 10
17.09
 20
59.58333333333334
 10
14.59
 20
60.0
  0
HATCH
  5
776
330
74B
100
AcDbEntity
  8
2
100
AcDbHatch
 10
0.0
 20
0.0
 30
0.0
210
0.0
220
0.0
230
1.0
  2
SOLID
 70
     1
 71
     1
 91
        1
 92
        1
 93
        3
 72
     1
 10
17.09
 20
60.41666666666666
 11
17.09
 21
59.58333333333334
 72
     1
 10
17.09
 20
59.58333333333334
 11
14.59
 21
60.0
 72
     1
 10
14.59
 20
60.0
 11
17.09
 21
60.41666666666666
 97
        1
330
750
 75
     0
 76
     1
 98
        1
 10
0.0
 20
0.0
1001
VD_TEMPHATCH
1000
VD_TEMPHATCH
  0
LWPOLYLINE
  5
751
102
{ACAD_REACTORS
330
777
102
}
330
74B
100
AcDbEntity
  8
2
100
AcDbPolyline
 90
        3
 70
     1
 43
0.0
 10
35.5
 20
59.58333333333334
 10
35.5
 20
60.41666666666666
 10
38.0
 20
60.0
  0
HATCH
  5
777
330
74B
100
AcDbEntity
  8
2
100
AcDbHatch
 10
0.0
 20
0.0
 30
0.0
210
0.0
220
0.0
230
1.0
  2
SOLID
 70
     1
 71
     1
 91
        1
 92
        1
 93
        3
 72
     1
 10
35.5
 20
59.58333333333334
 11
35.5
 21
60.41666666666666
 72
     1
 10
35.5
 20
60.41666666666666
 11
38.0
 21
60.0
 72
     1
 10
38.0
 20
60.0
 11
35.5
 21
59.58333333333334
 97
        1
330
751
 75
     0
 76
     1
 98
        1
 10
0.0
 20
0.0
1001
VD_TEMPHATCH
1000
VD_TEMPHATCH
  0
MTEXT
  5
752
330
74B
100
AcDbEntity
  8
2
100
AcDbMText
 10
26.295
 20
62.438
 30
0.0
 40
3.5
 41
11.32676357238606
 71
     5
 72
     1
  1
23.41
  7
SIMPLEX
 73
     1
 44
1.0
1001
ACAD
1000
MTEXTBEGIN
1070
    73
1070
     1
1070
    44
1040
1.0
1070
    74
1070
     0
1000
MTEXTEND
  0
ENDBLK
  5
778
330
74B
100
AcDbEntity
  8
0
100
AcDbBlockEnd
  0
BLOCK
  5
754
330
753
100
AcDbEntity
  8
0
100
AcDbBlockBegin
  2
*D4
 70
     1
 10
0.0
 20
0.0
 30
0.0
  3
*D4
  1

  0
LINE
  5
755
330
753
100
AcDbEntity
  8
SK2
100
AcDbLine
 10
-45.0
 20
6.0
 30
0.0
 11
-61.25000000003061
 21
5.99999999991707
 31
0.0
  0
LINE
  5
756
330
753
100
AcDbEntity
  8
SK2
100
AcDbLine
 10
-45.0
 20
-6.0
 30
0.0
 11
-61.24999999996939
 21
-6.000000000082929
 31
0.0
  0
LINE
  5
757
330
753
100
AcDbEntity
  8
SK2
100
AcDbLine
 10
-60.00000000001787
 20
3.499999999923448
 30
0.0
 11
-59.99999999998213
 21
-3.500000000076551
 31
0.0
  0
LWPOLYLINE
  5
758
102
{ACAD_REACTORS
330
779
102
}
330
753
100
AcDbEntity
  8
SK2
100
AcDbPolyline
 90
        3
 70
     1
 43
0.0
 10
-59.5833333333512
 20
3.499999999925575
 10
-60.41666666668453
 20
3.499999999921322
 10
-60.00000000003061
 20
5.999999999923448
  0
HATCH
  5
779
330
753
100
AcDbEntity
  8
SK2
100
AcDbHatch
 10
0.0
 20
0.0
 30
0.0
210
0.0
220
0.0
230
1.0
  2
SOLID
 70
     1
 71
     1
 91
        1
 92
        1
 93
        3
 72
     1
 10
-59.5833333333512
 20
3.499999999925575
 11
-60.41666666668453
 21
3.499999999921322
 72
     1
 10
-60.41666666668453
 20
3.499999999921322
 11
-60.00000000003061
 21
5.999999999923448
 72
     1
 10
-60.00000000003061
 20
5.999999999923448
 11
-59.5833333333512
 21
3.499999999925575
 97
        1
330
758
 75
     0
 76
     1
 98
        1
 10
0.0
 20
0.0
1001
VD_TEMPHATCH
1000
VD_TEMPHATCH
  0
LWPOLYLINE
  5
759
102
{ACAD_REACTORS
330
77A
102
}
330
753
100
AcDbEntity
  8
SK2
100
AcDbPolyline
 90
        3
 70
     1
 43
0.0
 10
-60.41666666664881
 20
-3.500000000078677
 10
-59.58333333331548
 20
-3.500000000074424
 10
-59.99999999996939
 20
-6.000000000076551
  0
HATCH
  5
77A
330
753
100
AcDbEntity
  8
SK2
100
AcDbHatch
 10
0.0
 20
0.0
 30
0.0
210
0.0
220
0.0
230
1.0
  2
SOLID
 70
     1
 71
     1
 91
        1
 92
        1
 93
        3
 72
     1
 10
-60.41666666664881
 20
-3.500000000078677
 11
-59.58333333331548
 21
-3.500000000074424
 72
     1
 10
-59.58333333331548
 20
-3.500000000074424
 11
-59.99999999996939
 21
-6.000000000076551
 72
     1
 10
-59.99999999996939
 20
-6.000000000076551
 11
-60.41666666664881
 21
-3.500000000078677
 97
        1
330
759
 75
     0
 76
     1
 98
        1
 10
0.0
 20
0.0
1001
VD_TEMPHATCH
1000
VD_TEMPHATCH
  0
MTEXT
  5
75A
102
{ACAD_XDICTIONARY
360
817
102
}
330
753
100
AcDbEntity
  8
SK2
100
AcDbMText
 10
-62.39074999999999
 20
-0.0000000000887523
 30
0.0
 40
3.5
 41
8.891776977211796
 71
     5
 72
     1
  1
\U+00D812
  7
SIMPLEX
 11
0.0000000000001002
 21
1.0
 31
0.0
 73
     1
 44
1.0
1001
ACAD
1000
MTEXTBEGIN
1070
    73
1070
     1
1070
    44
1040
1.0
1070
    74
1070
     0
1000
MTEXTEND
  0
ENDBLK
  5
77B
330
753
100
AcDbEntity
  8
0
100
AcDbBlockEnd
  0
BLOCK
  5
75C
330
75B
100
AcDbEntity
  8
0
100
AcDbBlockBegin
  2
*D5
 70
     1
 10
0.0
 20
0.0
 30
0.0
  3
*D5
  1

  0
LINE
  5
75D
330
75B
100
AcDbEntity
  8
2
100
AcDbLine
 10
0.0
 20
0.0
 30
0.0
 11
0.0
 21
76.25
 31
0.0
  0
LINE
  5
75E
330
75B
100
AcDbEntity
  8
2
100
AcDbLine
 10
38.0
 20
0.0
 30
0.0
 11
38.0
 21
76.25
 31
0.0
  0
LINE
  5
75F
330
75B
100
AcDbEntity
  8
2
100
AcDbLine
 10
2.5
 20
75.0
 30
0.0
 11
35.5
 21
75.0
 31
0.0
  0
LWPOLYLINE
  5
760
102
{ACAD_REACTORS
330
77C
102
}
330
75B
100
AcDbEntity
  8
2
100
AcDbPolyline
 90
        3
 70
     1
 43
0.0
 10
2.5
 20
75.41666666666667
 10
2.5
 20
74.58333333333333
 10
0.0
 20
75.0
  0
HATCH
  5
77C
330
75B
100
AcDbEntity
  8
2
100
AcDbHatch
 10
0.0
 20
0.0
 30
0.0
210
0.0
220
0.0
230
1.0
  2
SOLID
 70
     1
 71
     1
 91
        1
 92
        1
 93
        3
 72
     1
 10
2.5
 20
75.41666666666667
 11
2.5
 21
74.58333333333333
 72
     1
 10
2.5
 20
74.58333333333333
 11
0.0
 21
75.0
 72
     1
 10
0.0
 20
75.0
 11
2.5
 21
75.41666666666667
 97
        1
330
760
 75
     0
 76
     1
 98
        1
 10
0.0
 20
0.0
1001
VD_TEMPHATCH
1000
VD_TEMPHATCH
  0
LWPOLYLINE
  5
761
102
{ACAD_REACTORS
330
77D
102
}
330
75B
100
AcDbEntity
  8
2
100
AcDbPolyline
 90
        3
 70
     1
 43
0.0
 10
35.5
 20
74.58333333333333
 10
35.5
 20
75.41666666666667
 10
38.0
 20
75.0
  0
HATCH
  5
77D
330
75B
100
AcDbEntity
  8
2
100
AcDbHatch
 10
0.0
 20
0.0
 30
0.0
210
0.0
220
0.0
230
1.0
  2
SOLID
 70
     1
 71
     1
 91
        1
 92
        1
 93
        3
 72
     1
 10
35.5
 20
74.58333333333333
 11
35.5
 21
75.41666666666667
 72
     1
 10
35.5
 20
75.41666666666667
 11
38.0
 21
75.0
 72
     1
 10
38.0
 20
75.0
 11
35.5
 21
74.58333333333333
 97
        1
330
761
 75
     0
 76
     1
 98
        1
 10
0.0
 20
0.0
1001
VD_TEMPHATCH
1000
VD_TEMPHATCH
  0
MTEXT
  5
762
330
75B
100
AcDbEntity
  8
2
100
AcDbMText
 10
19.0
 20
77.39074999999999
 30
0.0
 40
3.5
 41
5.078460120643431
 71
     5
 72
     1
  1
38
  7
SIMPLEX
 73
     1
 44
1.0
1001
ACAD
1000
MTEXTBEGIN
1070
    73
1070
     1
1070
    44
1040
1.0
1070
    74
1070
     0
1000
MTEXTEND
  0
ENDBLK
  5
77E
330
75B
100
AcDbEntity
  8
0
100
AcDbBlockEnd
  0
BLOCK
  5
764
330
763
100
AcDbEntity
  8
0
100
AcDbBlockBegin
  2
*D6
 70
     1
 10
0.0
 20
0.0
 30
0.0
  3
*D6
  1

  0
LINE
  5
765
330
763
100
AcDbEntity
  8
2
100
AcDbLine
 10
38.0
 20
4.099999999999999
 30
0.0
 11
54.25
 21
4.100000000000055
 31
0.0
  0
LINE
  5
766
330
763
100
AcDbEntity
  8
2
100
AcDbLine
 10
38.0
 20
-4.099999999999999
 30
0.0
 11
54.25000000000004
 21
-4.099999999999942
 31
0.0
  0
LINE
  5
767
330
763
100
AcDbEntity
  8
2
100
AcDbLine
 10
53.00000000000004
 20
-4.099999999999947
 30
0.0
 11
53.00000000000009
 21
-18.71399999999995
 31
0.0
  0
LINE
  5
768
330
763
100
AcDbEntity
  8
2
100
AcDbLine
 10
53.0
 20
1.60000000000005
 30
0.0
 11
53.00000000000002
 21
-1.599999999999946
 31
0.0
  0
LWPOLYLINE
  5
769
102
{ACAD_REACTORS
330
77F
102
}
330
763
100
AcDbEntity
  8
2
100
AcDbPolyline
 90
        3
 70
     1
 43
0.0
 10
53.41666666666668
 20
1.600000000000052
 10
52.58333333333335
 20
1.60000000000005
 10
53.0
 20
4.100000000000051
  0
HATCH
  5
77F
330
763
100
AcDbEntity
  8
2
100
AcDbHatch
 10
0.0
 20
0.0
 30
0.0
210
0.0
220
0.0
230
1.0
  2
SOLID
 70
     1
 71
     1
 91
        1
 92
        1
 93
        3
 72
     1
 10
53.41666666666668
 20
1.600000000000052
 11
52.58333333333335
 21
1.60000000000005
 72
     1
 10
52.58333333333335
 20
1.60000000000005
 11
53.0
 21
4.100000000000051
 72
     1
 10
53.0
 20
4.100000000000051
 11
53.41666666666668
 21
1.600000000000052
 97
        1
330
769
 75
     0
 76
     1
 98
        1
 10
0.0
 20
0.0
1001
VD_TEMPHATCH
1000
VD_TEMPHATCH
  0
LWPOLYLINE
  5
76A
102
{ACAD_REACTORS
330
780
102
}
330
763
100
AcDbEntity
  8
2
100
AcDbPolyline
 90
        3
 70
     1
 43
0.0
 10
52.58333333333336
 20
-1.599999999999949
 10
53.41666666666668
 20
-1.599999999999945
 10
53.00000000000004
 20
-4.099999999999947
  0
HATCH
  5
780
330
763
100
AcDbEntity
  8
2
100
AcDbHatch
 10
0.0
 20
0.0
 30
0.0
210
0.0
220
0.0
230
1.0
  2
SOLID
 70
     1
 71
     1
 91
        1
 92
        1
 93
        3
 72
     1
 10
52.58333333333336
 20
-1.599999999999949
 11
53.41666666666668
 21
-1.599999999999945
 72
     1
 10
53.41666666666668
 20
-1.599999999999945
 11
53.00000000000004
 21
-4.099999999999947
 72
     1
 10
53.00000000000004
 20
-4.099999999999947
 11
52.58333333333336
 21
-1.599999999999949
 97
        1
330
76A
 75
     0
 76
     1
 98
        1
 10
0.0
 20
0.0
1001
VD_TEMPHATCH
1000
VD_TEMPHATCH
  0
MTEXT
  5
76B
102
{ACAD_XDICTIONARY
360
819
102
}
330
763
100
AcDbEntity
  8
2
100
AcDbMText
 10
50.60225000000007
 20
-12.65699999999996
 30
0.0
 40
3.5
 41
10.26644185656836
 71
     5
 72
     1
  1
\U+00D88.2
  7
SIMPLEX
 11
0.0000000000001002
 21
1.0
 31
0.0
 73
     1
 44
1.0
1001
ACAD
1000
MTEXTBEGIN
1070
    73
1070
     1
1070
    44
1040
1.0
1070
    74
1070
     0
1000
MTEXTEND
  0
ENDBLK
  5
781
330
763
100
AcDbEntity
  8
0
100
AcDbBlockEnd
  0
ENDSEC
  0
SECTION
  2
ENTITIES
  0
LINE
  5
3C2
330
73F
100
AcDbEntity
  8
SK4
100
AcDbLine
 10
-47.0
 20
0.0
 30
0.0
 11
12.69
 21
0.0
 31
0.0
  0
LINE
  5
3C3
330
73F
100
AcDbEntity
  8
4
100
AcDbLine
 10
10.69
 20
0.0
 30
0.0
 11
40.0
 21
0.0
 31
0.0
  0
LINE
  5
3C4
330
73F
100
AcDbEntity
  8
SK4
100
AcDbLine
 10
10.69
 20
0.0
 30
0.0
 11
40.0
 21
0.0
 31
0.0
  0
LINE
  5
3C5
330
73F
100
AcDbEntity
  8
1
100
AcDbLine
 10
14.59
 20
2.567250466546134
 30
0.0
 11
13.63920917629832
 21
3.169695536834656
 31
0.0
  0
LINE
  5
3C6
330
73F
100
AcDbEntity
  8
1
100
AcDbLine
 10
13.63920917629832
 20
3.169695536834656
 30
0.0
 11
12.69
 21
3.831223232081751
 31
0.0
  0
LINE
  5
3C7
330
73F
100
AcDbEntity
  8
1
100
AcDbLine
 10
12.69
 20
3.831223232081752
 30
0.0
 11
12.69
 21
-0.4809487119781802
 31
0.0
  0
LINE
  5
3C8
330
73F
100
AcDbEntity
  8
1
100
AcDbLine
 10
1.899999999999998
 20
2.221077842414596
 30
0.0
 11
1.899999999999998
 21
-4.853660083718731
 31
0.0
  0
LINE
  5
3C9
330
73F
100
AcDbEntity
  8
1
100
AcDbLine
 10
1.899999999999998
 20
-4.853660083718731
 30
0.0
 11
7.295001289198696
 21
-5.529349789927663
 31
0.0
  0
LINE
  5
3CA
330
73F
100
AcDbEntity
  8
1
100
AcDbLine
 10
7.295001289198696
 20
-5.529349789927663
 30
0.0
 11
12.69
 21
-5.914523519230024
 31
0.0
  0
LINE
  5
3CB
330
73F
100
AcDbEntity
  8
1
100
AcDbLine
 10
14.54900070723788
 20
-0.2013217033185312
 30
0.0
 11
14.59
 21
-0.1919709053681467
 31
0.0
  0
ARC
  5
3CC
330
73F
100
AcDbEntity
  8
1
100
AcDbCircle
 10
11.91908680756815
 20
10.96523254740341
 30
0.0
 40
11.47208011759329
100
AcDbArc
 50
273.8531161419087
 51
283.2526222546637
  0
LINE
  5
3CD
330
73F
100
AcDbEntity
  8
1
100
AcDbLine
 10
1.899999999999998
 20
2.221077842414599
 30
0.0
 11
5.209063296153868
 21
1.416303777066348
 31
0.0
  0
LINE
  5
3CE
330
73F
100
AcDbEntity
  8
1
100
AcDbLine
 10
1.899999999999998
 20
5.481578451104653
 30
0.0
 11
7.295001346975143
 21
4.782026255264896
 31
0.0
  0
LINE
  5
3CF
330
73F
100
AcDbEntity
  8
1
100
AcDbLine
 10
7.295001346975143
 20
4.782026255264896
 30
0.0
 11
12.69
 21
3.831223232081752
 31
0.0
  0
LINE
  5
3D0
330
73F
100
AcDbEntity
  8
1
100
AcDbLine
 10
14.54900070723784
 20
3.682630775572953
 30
0.0
 11
14.59
 21
3.642795340261796
 31
0.0
  0
LINE
  5
3D1
330
73F
100
AcDbEntity
  8
1
100
AcDbLine
 10
14.54900070723784
 20
3.682630775572953
 30
0.0
 11
12.69
 21
5.419906395540809
 31
0.0
  0
LINE
  5
3D2
330
73F
100
AcDbEntity
  8
1
100
AcDbLine
 10
7.583873754195558
 20
4.737091021860623
 30
0.0
 11
12.69
 21
5.419906395540811
 31
0.0
  0
LINE
  5
3D3
330
73F
100
AcDbEntity
  8
1
100
AcDbLine
 10
1.899999999999998
 20
6.0
 30
0.0
 11
1.899999999999998
 21
5.999886351323743
 31
0.0
  0
LINE
  5
3D4
330
73F
100
AcDbEntity
  8
1
100
AcDbLine
 10
1.899999999999998
 20
5.999886351323743
 30
0.0
 11
1.899999999999998
 21
5.965997489048046
 31
0.0
  0
LINE
  5
3D5
330
73F
100
AcDbEntity
  8
1
100
AcDbLine
 10
1.899999999999998
 20
5.965997489048046
 30
0.0
 11
1.899999999999998
 21
5.481578451104654
 31
0.0
  0
LINE
  5
3D6
330
73F
100
AcDbEntity
  8
1
100
AcDbLine
 10
1.899999999999998
 20
6.0
 30
0.0
 11
0.0000000000000007
 21
6.0
 31
0.0
  0
LINE
  5
3D7
330
73F
100
AcDbEntity
  8
1
100
AcDbLine
 10
14.59
 20
-4.052093904129574
 30
0.0
 11
12.69
 21
-5.914523519230021
 31
0.0
  0
LINE
  5
3D8
330
73F
100
AcDbEntity
  8
1
100
AcDbLine
 10
12.69
 20
-5.914523519230016
 30
0.0
 11
12.69
 21
-6.0
 31
0.0
  0
LINE
  5
3D9
330
73F
100
AcDbEntity
  8
1
100
AcDbLine
 10
14.59
 20
2.567250466546132
 30
0.0
 11
14.59
 21
-0.1919709053688513
 31
0.0
  0
LINE
  5
3DA
330
73F
100
AcDbEntity
  8
1
100
AcDbLine
 10
14.59
 20
-2.358412157526506
 30
0.0
 11
14.59
 21
-0.1919709053688514
 31
0.0
  0
LINE
  5
3DB
330
73F
100
AcDbEntity
  8
1
100
AcDbLine
 10
14.59
 20
-4.052093904129572
 30
0.0
 11
14.59
 21
-2.358412157526506
 31
0.0
  0
LINE
  5
3DC
330
73F
100
AcDbEntity
  8
1
100
AcDbLine
 10
14.59
 20
-4.052093904129574
 30
0.0
 11
14.59
 21
-4.099999998655444
 31
0.0
  0
LINE
  5
3DD
330
73F
100
AcDbEntity
  8
1
100
AcDbLine
 10
5.209063296153868
 20
1.416303777066348
 30
0.0
 11
12.69
 21
-0.4809487119781802
 31
0.0
  0
LINE
  5
3DE
330
73F
100
AcDbEntity
  8
1
100
AcDbLine
 10
14.59
 20
2.567250466546132
 30
0.0
 11
14.59
 21
3.642795340261795
 31
0.0
  0
LINE
  5
3DF
330
73F
100
AcDbEntity
  8
1
100
AcDbLine
 10
12.69
 20
-5.999999999999999
 30
0.0
 11
-0.0000000000000009
 21
-5.999999999999999
 31
0.0
  0
LINE
  5
3E0
330
73F
100
AcDbEntity
  8
1
100
AcDbLine
 10
12.69
 20
-6.000000000000001
 30
0.0
 11
14.59
 21
-4.100000000000001
 31
0.0
  0
LINE
  5
3E1
330
73F
100
AcDbEntity
  8
1
 62
     1
100
AcDbLine
 10
37.99999999999999
 20
-2.413279585891299
 30
0.0
 11
38.0
 21
-0.6467658192501605
 31
0.0
  0
LINE
  5
3E2
330
73F
100
AcDbEntity
  8
1
 62
     1
100
AcDbLine
 10
29.72113247308103
 20
4.099999999999999
 30
0.0
 11
29.77886752691897
 21
4.099999999999999
 31
0.0
  0
LINE
  5
3E3
330
73F
100
AcDbEntity
  8
1
 62
     1
100
AcDbLine
 10
31.22113247308105
 20
4.099999999999999
 30
0.0
 11
31.27886752691898
 21
4.099999999999999
 31
0.0
  0
LINE
  5
3E4
330
73F
100
AcDbEntity
  8
1
 62
     1
100
AcDbLine
 10
26.72113247308103
 20
4.099999999999999
 30
0.0
 11
26.77886752691897
 21
4.099999999999999
 31
0.0
  0
LINE
  5
3E5
330
73F
100
AcDbEntity
  8
1
 62
     1
100
AcDbLine
 10
15.5
 20
-2.850962499999999
 30
0.0
 11
14.77886752691897
 21
-4.100000000000001
 31
0.0
  0
LINE
  5
3E6
330
73F
100
AcDbEntity
  8
1
 62
     1
100
AcDbLine
 10
18.5
 20
-2.850962499999999
 30
0.0
 11
17.77886752691897
 21
-4.099999999999998
 31
0.0
  0
LINE
  5
3E7
330
73F
100
AcDbEntity
  8
1
 62
     1
100
AcDbLine
 10
37.27886752691897
 20
-1.170407979686169
 30
0.0
 11
37.22113247308106
 21
-1.1607443865951
 31
0.0
  0
LINE
  5
3E8
330
73F
100
AcDbEntity
  8
1
 62
     1
100
AcDbLine
 10
37.22113247308104
 20
-3.473076604792246
 30
0.0
 11
37.22113247308106
 21
-1.160744387765803
 31
0.0
  0
LINE
  5
3E9
330
73F
100
AcDbEntity
  8
1
 62
     1
100
AcDbLine
 10
37.27886752691897
 20
-3.47842282405317
 30
0.0
 11
37.22113247308103
 21
-3.473076601415011
 31
0.0
  0
LINE
  5
3EA
330
73F
100
AcDbEntity
  8
1
 62
     1
100
AcDbLine
 10
35.77886752691898
 20
-0.9172200347542121
 30
0.0
 11
35.72113247308103
 21
-0.907393408979852
 31
0.0
  0
LINE
  5
3EB
330
73F
100
AcDbEntity
  8
1
 62
     1
100
AcDbLine
 10
35.72113247308103
 20
-3.326921381006264
 30
0.0
 11
35.72113247308103
 21
-0.9073934094615877
 31
0.0
  0
LINE
  5
3EC
330
73F
100
AcDbEntity
  8
1
 62
     1
100
AcDbLine
 10
35.77886752691898
 20
-3.332801930736831
 30
0.0
 11
35.72113247308104
 21
-3.326921379885177
 31
0.0
  0
LINE
  5
3ED
330
73F
100
AcDbEntity
  8
1
 62
     1
100
AcDbLine
 10
35.77886752691898
 20
-3.332801930736831
 30
0.0
 11
35.77886752691898
 21
-0.9172200347542121
 31
0.0
  0
LINE
  5
3EE
330
73F
100
AcDbEntity
  8
1
 62
     1
100
AcDbLine
 10
34.27886752691897
 20
-0.6602896854314083
 30
0.0
 11
34.22113247308103
 21
-0.6503397783341041
 31
0.0
  0
LINE
  5
3EF
330
73F
100
AcDbEntity
  8
1
 62
     1
100
AcDbLine
 10
34.22113247308103
 20
-3.167197017428641
 30
0.0
 11
34.22113247308103
 21
-0.6503397789848302
 31
0.0
  0
LINE
  5
3F0
330
73F
100
AcDbEntity
  8
1
 62
     1
100
AcDbLine
 10
34.27886752691897
 20
-3.173588238048916
 30
0.0
 11
34.27886752691897
 21
-0.6602896854314083
 31
0.0
  0
LINE
  5
3F1
330
73F
100
AcDbEntity
  8
1
 62
     1
100
AcDbLine
 10
32.77886752691897
 20
-0.4006648327671209
 30
0.0
 11
32.72113247308103
 21
-0.3906324419155385
 31
0.0
  0
LINE
  5
3F2
330
73F
100
AcDbEntity
  8
1
 62
     1
100
AcDbLine
 10
32.72113247308103
 20
-2.994554524978631
 30
0.0
 11
32.72113247308103
 21
-0.3906324419155367
 31
0.0
  0
LINE
  5
3F3
330
73F
100
AcDbEntity
  8
1
 62
     1
100
AcDbLine
 10
32.77886752691897
 20
-3.001430142628589
 30
0.0
 11
32.77886752691897
 21
-0.4006648336295305
 31
0.0
  0
LINE
  5
3F4
330
73F
100
AcDbEntity
  8
1
 62
     1
100
AcDbLine
 10
31.27886752691898
 20
-0.1394066848575473
 30
0.0
 11
31.22113247308103
 21
-0.1293326344947877
 31
0.0
  0
LINE
  5
3F5
330
73F
100
AcDbEntity
  8
1
 62
     1
100
AcDbLine
 10
31.22113247308102
 20
-2.80970064804908
 30
0.0
 11
31.22113247308103
 21
-0.1293326343423504
 31
0.0
  0
LINE
  5
3F6
330
73F
100
AcDbEntity
  8
1
 62
     1
100
AcDbLine
 10
31.27886752691898
 20
-2.817032703646967
 30
0.0
 11
31.27886752691898
 21
-0.1394066848575473
 31
0.0
  0
LINE
  5
3F7
330
73F
100
AcDbEntity
  8
1
 62
     1
100
AcDbLine
 10
29.77886752691897
 20
0.1224198194621842
 30
0.0
 11
29.72113247308106
 21
0.1324943974111057
 31
0.0
  0
LINE
  5
3F8
330
73F
100
AcDbEntity
  8
1
 62
     1
100
AcDbLine
 10
29.72113247308104
 20
-2.613388690791011
 30
0.0
 11
29.72113247308105
 21
0.1324943973610108
 31
0.0
  0
LINE
  5
3F9
330
73F
100
AcDbEntity
  8
1
 62
     1
100
AcDbLine
 10
29.77886752691897
 20
-2.621147235408196
 30
0.0
 11
29.77886752691897
 21
0.1224198194621842
 31
0.0
  0
LINE
  5
3FA
330
73F
100
AcDbEntity
  8
1
 62
     1
100
AcDbLine
 10
28.27886752691896
 20
0.3837474729841161
 30
0.0
 11
28.22113247308102
 21
0.3937814937261496
 31
0.0
  0
LINE
  5
3FB
330
73F
100
AcDbEntity
  8
1
 62
     1
100
AcDbLine
 10
28.22113247308102
 20
-2.406418375585607
 30
0.0
 11
28.22113247308102
 21
0.3937814945815409
 31
0.0
  0
LINE
  5
3FC
330
73F
100
AcDbEntity
  8
1
 62
     1
100
AcDbLine
 10
28.27886752691897
 20
-2.4145717760203
 30
0.0
 11
28.22113247308102
 21
-2.406418376161128
 31
0.0
  0
LINE
  5
3FD
330
73F
100
AcDbEntity
  8
1
 62
     1
100
AcDbLine
 10
26.77886752691899
 20
0.6435097795502866
 30
0.0
 11
26.72113247308105
 21
0.653462370302587
 31
0.0
  0
LINE
  5
3FE
330
73F
100
AcDbEntity
  8
1
 62
     1
100
AcDbLine
 10
26.72113247308104
 20
-2.189634858371388
 30
0.0
 11
26.72113247308105
 21
0.6534623704672894
 31
0.0
  0
LINE
  5
3FF
330
73F
100
AcDbEntity
  8
1
 62
     1
100
AcDbLine
 10
26.77886752691899
 20
-2.198149912253097
 30
0.0
 11
26.77886752691899
 21
0.6435097795502866
 31
0.0
  0
LINE
  5
400
330
73F
100
AcDbEntity
  8
1
 62
     1
100
AcDbLine
 10
25.27886752691899
 20
0.9006478962248849
 30
0.0
 11
25.22113247308104
 21
0.910478405254693
 31
0.0
  0
LINE
  5
401
330
73F
100
AcDbEntity
  8
1
 62
     1
100
AcDbLine
 10
25.22113247308103
 20
-1.96392156944978
 30
0.0
 11
25.22113247308103
 21
0.9104784062489084
 31
0.0
  0
LINE
  5
402
330
73F
100
AcDbEntity
  8
1
 62
     1
100
AcDbLine
 10
25.27886752691899
 20
-1.972763470260896
 30
0.0
 11
25.27886752691899
 21
0.9006478962248849
 31
0.0
  0
LINE
  5
403
330
73F
100
AcDbEntity
  8
1
 62
     1
100
AcDbLine
 10
23.77886752691898
 20
1.154113251031301
 30
0.0
 11
23.72113247308103
 21
1.163781638044961
 31
0.0
  0
LINE
  5
404
330
73F
100
AcDbEntity
  8
1
 62
     1
100
AcDbLine
 10
23.72113247308103
 20
-1.730198793188993
 30
0.0
 11
23.72113247308103
 21
1.163781638550879
 31
0.0
  0
LINE
  5
405
330
73F
100
AcDbEntity
  8
1
 62
     1
100
AcDbLine
 10
23.77886752691899
 20
-1.739331559782008
 30
0.0
 11
23.77886752691899
 21
1.154113251167329
 31
0.0
  0
LINE
  5
406
330
73F
100
AcDbEntity
  8
1
 62
     1
100
AcDbLine
 10
22.27886752691897
 20
1.402871569235187
 30
0.0
 11
22.22113247308103
 21
1.412338389539375
 31
0.0
  0
LINE
  5
407
330
73F
100
AcDbEntity
  8
1
 62
     1
100
AcDbLine
 10
22.22113247308103
 20
-1.489420664964544
 30
0.0
 11
22.22113247308103
 21
1.412338389861899
 31
0.0
  0
LINE
  5
408
330
73F
100
AcDbEntity
  8
1
 62
     1
100
AcDbLine
 10
22.27886752691897
 20
-1.49880701727592
 30
0.0
 11
22.27886752691897
 21
1.402871569235187
 31
0.0
  0
LINE
  5
409
330
73F
100
AcDbEntity
  8
1
 62
     1
100
AcDbLine
 10
20.77886752691897
 20
1.645909129742213
 30
0.0
 11
20.72113247308103
 21
1.655135745284083
 31
0.0
  0
LINE
  5
40A
330
73F
100
AcDbEntity
  8
1
 62
     1
100
AcDbLine
 10
20.72113247308103
 20
-1.242567926670862
 30
0.0
 11
20.72113247308103
 21
1.655135746231986
 31
0.0
  0
LINE
  5
40B
330
73F
100
AcDbEntity
  8
1
 62
     1
100
AcDbLine
 10
20.77886752691897
 20
-1.252169546943864
 30
0.0
 11
20.77886752691897
 21
1.645909129742213
 31
0.0
  0
LINE
  5
40C
330
73F
100
AcDbEntity
  8
1
 62
     1
100
AcDbLine
 10
19.27886752691899
 20
1.882234333317327
 30
0.0
 11
19.22113247308103
 21
1.891183181362066
 31
0.0
  0
LINE
  5
40D
330
73F
100
AcDbEntity
  8
1
 62
     1
100
AcDbLine
 10
19.22113247308104
 20
-0.9906479753855489
 30
0.0
 11
19.22113247308104
 21
1.891183179054536
 31
0.0
  0
LINE
  5
40E
330
73F
100
AcDbEntity
  8
1
 62
     1
100
AcDbLine
 10
19.27886752691899
 20
-1.000425805183116
 30
0.0
 11
19.27886752691899
 21
1.88223433504352
 31
0.0
  0
LINE
  5
40F
330
73F
100
AcDbEntity
  8
1
 62
     1
100
AcDbLine
 10
17.77886752691898
 20
2.110883370109858
 30
0.0
 11
17.72113247308103
 21
2.1195178985323
 31
0.0
  0
LINE
  5
410
330
73F
100
AcDbEntity
  8
1
 62
     1
100
AcDbLine
 10
17.72113247308103
 20
-0.7346883428522244
 30
0.0
 11
17.72113247308103
 21
2.119517898943946
 31
0.0
  0
LINE
  5
411
330
73F
100
AcDbEntity
  8
1
 62
     1
100
AcDbLine
 10
17.77886752691898
 20
-0.744602412499188
 30
0.0
 11
17.77886752691898
 21
2.110883370109858
 31
0.0
  0
LINE
  5
412
330
73F
100
AcDbEntity
  8
1
 62
     1
100
AcDbLine
 10
16.27886752691896
 20
2.330924268527622
 30
0.0
 11
16.22113247308103
 21
2.339209275908142
 31
0.0
  0
LINE
  5
413
330
73F
100
AcDbEntity
  8
1
 62
     1
100
AcDbLine
 10
16.22113247308103
 20
-0.475731904709863
 30
0.0
 11
16.22113247308103
 21
2.33920927728441
 31
0.0
  0
LINE
  5
414
330
73F
100
AcDbEntity
  8
1
 62
     1
100
AcDbLine
 10
16.27886752691896
 20
-0.4857418121173955
 30
0.0
 11
16.22113247308103
 21
-0.4757319044212136
 31
0.0
  0
LINE
  5
415
330
73F
100
AcDbEntity
  8
1
 62
     1
100
AcDbLine
 10
14.59
 20
2.567250466546132
 30
0.0
 11
14.59
 21
-0.1919709053688513
 31
0.0
  0
LINE
  5
416
330
73F
100
AcDbEntity
  8
1
 62
     1
100
AcDbLine
 10
14.77886752691897
 20
-0.2249009830132748
 30
0.0
 11
14.59
 21
-0.1919709053681476
 31
0.0
  0
LINE
  5
417
330
73F
100
AcDbEntity
  8
1
 62
     1
100
AcDbLine
 10
14.77886752691897
 20
-0.224900983154912
 30
0.0
 11
14.77886752691897
 21
2.541458997348736
 31
0.0
  0
ARC
  5
418
330
73F
100
AcDbEntity
  8
1
 62
     1
100
AcDbCircle
 10
30.78419325052598
 20
8.532277167761312
 30
0.0
 40
11.67573434028281
100
AcDbArc
 50
303.7971157661892
 51
308.1715096070972
  0
LINE
  5
419
330
73F
100
AcDbEntity
  8
1
 62
     1
100
AcDbLine
 10
37.27886752691898
 20
-3.478422824053167
 30
0.0
 11
37.27886752691897
 21
-1.170407979686173
 31
0.0
  0
LINE
  5
41A
330
73F
100
AcDbEntity
  8
1
 62
     1
100
AcDbLine
 10
35.0
 20
-2.312512639024157
 30
0.0
 11
35.29395579176976
 21
-2.606536386093063
 31
0.0
  0
LINE
  5
41B
330
73F
100
AcDbEntity
  8
1
 62
     1
100
AcDbLine
 10
32.77886752690453
 20
-3.333376790324805
 30
0.0
 11
33.5
 21
-2.414224933338071
 31
0.0
  0
LINE
  5
41C
330
73F
100
AcDbEntity
  8
1
 62
     1
100
AcDbLine
 10
31.27886752690454
 20
-3.478947715692251
 30
0.0
 11
32.0
 21
-2.506091314027268
 31
0.0
  0
ARC
  5
41D
330
73F
100
AcDbEntity
  8
1
 62
     1
100
AcDbCircle
 10
51.91676477450578
 20
13.90219694353753
 30
0.0
 40
27.02954496283083
100
AcDbArc
 50
217.5946346155454
 51
220.0337272314359
  0
LINE
  5
41E
330
73F
100
AcDbEntity
  8
1
 62
     1
100
AcDbLine
 10
28.27886752690515
 20
-3.726990906810479
 30
0.0
 11
29.0
 21
-2.658830551560798
 31
0.0
  0
LINE
  5
41F
330
73F
100
AcDbEntity
  8
1
 62
     1
100
AcDbLine
 10
27.5
 20
-2.719080474728392
 30
0.0
 11
28.22113247309485
 21
-3.731180223412708
 31
0.0
  0
LINE
  5
420
330
73F
100
AcDbEntity
  8
1
 62
     1
100
AcDbLine
 10
34.27886752690355
 20
-3.174211467452691
 30
0.0
 11
35.0
 21
-2.312512639024158
 31
0.0
  0
LINE
  5
421
330
73F
100
AcDbEntity
  8
1
 62
     1
100
AcDbLine
 10
23.0
 20
-2.832541751736334
 30
0.0
 11
23.72113247309291
 21
-3.986550747000252
 31
0.0
  0
LINE
  5
422
330
73F
100
AcDbEntity
  8
1
 62
     1
100
AcDbLine
 10
23.77886752690708
 20
-3.984184001063316
 30
0.0
 11
24.5
 21
-2.806113561611983
 31
0.0
  0
LINE
  5
423
330
73F
100
AcDbEntity
  8
1
 62
     1
100
AcDbLine
 10
25.27886752690649
 20
-3.914299269243864
 30
0.0
 11
25.99999999999999
 21
-2.768241708538964
 31
0.0
  0
LINE
  5
424
330
73F
100
AcDbEntity
  8
1
 62
     1
100
AcDbLine
 10
26.77886752690648
 20
-3.828451536600072
 30
0.0
 11
27.5
 21
-2.719080474728392
 31
0.0
  0
LINE
  5
425
330
73F
100
AcDbEntity
  8
1
 62
     1
100
AcDbLine
 10
15.50000000000001
 20
-2.790907304357684
 30
0.0
 11
16.22113247308782
 21
-4.085693623544763
 31
0.0
  0
LINE
  5
426
330
73F
100
AcDbEntity
  8
1
 62
     1
100
AcDbLine
 10
15.5
 20
-2.850962499999999
 30
0.0
 11
15.5
 21
-2.850948854288679
 31
0.0
  0
LINE
  5
427
330
73F
100
AcDbEntity
  8
1
 62
     1
100
AcDbLine
 10
15.5
 20
-2.850948854288679
 30
0.0
 11
15.5
 21
-2.846939595101294
 31
0.0
  0
LINE
  5
428
330
73F
100
AcDbEntity
  8
1
 62
     1
100
AcDbLine
 10
15.5
 20
-2.846939595101294
 30
0.0
 11
15.50000000000001
 21
-2.790907304357684
 31
0.0
  0
LINE
  5
429
330
73F
100
AcDbEntity
  8
1
 62
     1
100
AcDbLine
 10
16.22113247308103
 20
-4.099999999999999
 30
0.0
 11
15.5
 21
-2.850962499999999
 31
0.0
  0
LINE
  5
42A
330
73F
100
AcDbEntity
  8
1
 62
     1
100
AcDbLine
 10
16.22113247308103
 20
-4.099999999999999
 30
0.0
 11
16.22113247308103
 21
-4.08569362353274
 31
0.0
  0
LINE
  5
42B
330
73F
100
AcDbEntity
  8
1
 62
     1
100
AcDbLine
 10
16.27886752691218
 20
-4.086522565145176
 30
0.0
 11
17.0
 21
-2.822369642810468
 31
0.0
  0
LINE
  5
42C
330
73F
100
AcDbEntity
  8
1
 62
     1
100
AcDbLine
 10
16.27886752691896
 20
-4.100000000000001
 30
0.0
 11
16.27886752691896
 21
-4.086522565133347
 31
0.0
  0
LINE
  5
42D
330
73F
100
AcDbEntity
  8
1
 62
     1
100
AcDbLine
 10
17.0
 20
-2.850962499999999
 30
0.0
 11
16.27886752691896
 21
-4.099999999999999
 31
0.0
  0
LINE
  5
42E
330
73F
100
AcDbEntity
  8
1
 62
     1
100
AcDbLine
 10
17.0
 20
-2.850962499999999
 30
0.0
 11
17.0
 21
-2.822369642810468
 31
0.0
  0
LINE
  5
42F
330
73F
100
AcDbEntity
  8
1
 62
     1
100
AcDbLine
 10
17.72113247308103
 20
-4.099999999999997
 30
0.0
 11
17.0
 21
-2.850962499999999
 31
0.0
  0
LINE
  5
430
330
73F
100
AcDbEntity
  8
1
 62
     1
100
AcDbLine
 10
17.72113247308103
 20
-4.099999999999998
 30
0.0
 11
17.72113247308103
 21
-4.099999805864045
 31
0.0
  0
LINE
  5
431
330
73F
100
AcDbEntity
  8
1
 62
     1
100
AcDbLine
 10
17.72113247308103
 20
-4.099999805864045
 30
0.0
 11
17.72113247308103
 21
-4.099943899757416
 31
0.0
  0
LINE
  5
432
330
73F
100
AcDbEntity
  8
1
 62
     1
100
AcDbLine
 10
17.72113247308103
 20
-4.099943899757416
 30
0.0
 11
17.72113247308103
 21
-4.099205100827679
 31
0.0
  0
LINE
  5
433
330
73F
100
AcDbEntity
  8
1
 62
     1
100
AcDbLine
 10
17.77886752691218
 20
-4.099391183390439
 30
0.0
 11
18.5
 21
-2.842321982421151
 31
0.0
  0
LINE
  5
434
330
73F
100
AcDbEntity
  8
1
 62
     1
100
AcDbLine
 10
18.5
 20
-2.850962499999999
 30
0.0
 11
18.5
 21
-2.85096045285027
 31
0.0
  0
LINE
  5
435
330
73F
100
AcDbEntity
  8
1
 62
     1
100
AcDbLine
 10
18.5
 20
-2.85096045285027
 30
0.0
 11
18.5
 21
-2.85036620895288
 31
0.0
  0
LINE
  5
436
330
73F
100
AcDbEntity
  8
1
 62
     1
100
AcDbLine
 10
18.5
 20
-2.85036620895288
 30
0.0
 11
18.5
 21
-2.842321982421149
 31
0.0
  0
LINE
  5
437
330
73F
100
AcDbEntity
  8
1
 62
     1
100
AcDbLine
 10
18.91243824871122
 20
-3.565326168680276
 30
0.0
 11
18.5
 21
-2.850962499999999
 31
0.0
  0
LINE
  5
438
330
73F
100
AcDbEntity
  8
1
 62
     1
100
AcDbLine
 10
20.0
 20
-2.850962499999999
 30
0.0
 11
19.89232593163096
 21
-3.037459370118606
 31
0.0
  0
LINE
  5
439
330
73F
100
AcDbEntity
  8
1
 62
     1
100
AcDbLine
 10
19.27886752691218
 20
-4.095541906114033
 30
0.0
 11
19.89232593163096
 21
-3.037459370118606
 31
0.0
  0
LINE
  5
43A
330
73F
100
AcDbEntity
  8
1
 62
     1
100
AcDbLine
 10
20.0
 20
-2.850962499995834
 30
0.0
 11
20.0
 21
-2.850962498802899
 31
0.0
  0
LINE
  5
43B
330
73F
100
AcDbEntity
  8
1
 62
     1
100
AcDbLine
 10
20.0
 20
-2.850962498802899
 30
0.0
 11
20.0
 21
-2.850962191332109
 31
0.0
  0
LINE
  5
43C
330
73F
100
AcDbEntity
  8
1
 62
     1
100
AcDbLine
 10
20.0
 20
-2.850962191332109
 30
0.0
 11
20.0
 21
-2.850940157361176
 31
0.0
  0
LINE
  5
43D
330
73F
100
AcDbEntity
  8
1
 62
     1
100
AcDbLine
 10
20.0
 20
-2.850940157361176
 30
0.0
 11
20.0
 21
-2.850682953948553
 31
0.0
  0
LINE
  5
43E
330
73F
100
AcDbEntity
  8
1
 62
     1
100
AcDbLine
 10
20.06369761695446
 20
-2.961289957445964
 30
0.0
 11
20.0
 21
-2.850962499999999
 31
0.0
  0
LINE
  5
43F
330
73F
100
AcDbEntity
  8
1
 62
     1
100
AcDbLine
 10
22.27886752691217
 20
-4.037820582606219
 30
0.0
 11
23.0
 21
-2.832541751736334
 31
0.0
  0
LINE
  5
440
330
73F
100
AcDbEntity
  8
1
 62
     1
100
AcDbLine
 10
20.77886752691217
 20
-4.074990442986321
 30
0.0
 11
21.5
 21
-2.847418440989041
 31
0.0
  0
LINE
  5
441
330
73F
100
AcDbEntity
  8
1
 62
     1
100
AcDbLine
 10
37.27886752691897
 20
3.618820678025632
 30
0.0
 11
37.22113247308107
 21
3.623547618651928
 31
0.0
  0
LINE
  5
442
330
73F
100
AcDbEntity
  8
1
 62
     1
100
AcDbLine
 10
37.22113247308103
 20
4.099999999999999
 30
0.0
 11
37.27886752691897
 21
4.099999999999999
 31
0.0
  0
LINE
  5
443
330
73F
100
AcDbEntity
  8
1
 62
     1
100
AcDbLine
 10
35.77886752691898
 20
3.734449192044388
 30
0.0
 11
35.72113247308103
 21
3.738598177461963
 31
0.0
  0
LINE
  5
444
330
73F
100
AcDbEntity
  8
1
 62
     1
100
AcDbLine
 10
35.72113247308103
 20
4.099999999999999
 30
0.0
 11
35.77886752691896
 21
4.099999999999999
 31
0.0
  0
LINE
  5
445
330
73F
100
AcDbEntity
  8
1
 62
     1
100
AcDbLine
 10
34.27886752691897
 20
3.834849561287434
 30
0.0
 11
34.22113247308104
 21
3.838403881851136
 31
0.0
  0
LINE
  5
446
330
73F
100
AcDbEntity
  8
1
 62
     1
100
AcDbLine
 10
34.22113247308103
 20
4.099999999999999
 30
0.0
 11
34.27886752691897
 21
4.099999999999999
 31
0.0
  0
LINE
  5
447
330
73F
100
AcDbEntity
  8
1
 62
     1
100
AcDbLine
 10
32.77886752691896
 20
3.919612089372632
 30
0.0
 11
32.72113247308103
 21
3.922557122154488
 31
0.0
  0
LINE
  5
448
330
73F
100
AcDbEntity
  8
1
 62
     1
100
AcDbLine
 10
32.77886752691897
 20
3.919612097704307
 30
0.0
 11
32.77886752691897
 21
4.100000000000003
 31
0.0
  0
LINE
  5
449
330
73F
100
AcDbEntity
  8
1
 62
     1
100
AcDbLine
 10
32.72113247308103
 20
4.099999999999999
 30
0.0
 11
32.77886752691897
 21
4.099999999999999
 31
0.0
  0
LINE
  5
44A
330
73F
100
AcDbEntity
  8
1
 62
     1
100
AcDbLine
 10
31.27886752691897
 20
3.988389422332498
 30
0.0
 11
31.22113247308105
 21
3.99071317734946
 31
0.0
  0
LINE
  5
44B
330
73F
100
AcDbEntity
  8
1
 62
     1
100
AcDbLine
 10
29.77886752691897
 20
4.040901506023372
 30
0.0
 11
29.72113247308104
 21
4.042594497640435
 31
0.0
  0
LINE
  5
44C
330
73F
100
AcDbEntity
  8
1
 62
     1
100
AcDbLine
 10
28.27886752691896
 20
4.07693436004952
 30
0.0
 11
28.22113247308103
 21
4.077989692598353
 31
0.0
  0
LINE
  5
44D
330
73F
100
AcDbEntity
  8
1
 62
     1
100
AcDbLine
 10
28.27886752691897
 20
4.076934360186865
 30
0.0
 11
28.27886752691897
 21
4.100000000000001
 31
0.0
  0
LINE
  5
44E
330
73F
100
AcDbEntity
  8
1
 62
     1
100
AcDbLine
 10
28.22113247308103
 20
4.099999999999999
 30
0.0
 11
28.27886752691897
 21
4.099999999999999
 31
0.0
  0
LINE
  5
44F
330
73F
100
AcDbEntity
  8
1
 62
     1
100
AcDbLine
 10
26.77886752691897
 20
4.096340830627224
 30
0.0
 11
26.72113247308103
 21
4.096754201589088
 31
0.0
  0
LINE
  5
450
330
73F
100
AcDbEntity
  8
1
 62
     1
100
AcDbLine
 10
25.27886752691897
 20
4.099041885736729
 30
0.0
 11
25.22113247308103
 21
4.098811607578251
 31
0.0
  0
LINE
  5
451
330
73F
100
AcDbEntity
  8
1
 62
     1
100
AcDbLine
 10
23.77886752691897
 20
4.085026458548957
 30
0.0
 11
23.72113247308103
 21
4.084153466043398
 31
0.0
  0
LINE
  5
452
330
73F
100
AcDbEntity
  8
1
 62
     1
100
AcDbLine
 10
22.27886752691897
 20
4.054351786432293
 30
0.0
 11
22.22113247308103
 21
4.052839647077221
 31
0.0
  0
LINE
  5
453
330
73F
100
AcDbEntity
  8
1
 62
     1
100
AcDbLine
 10
20.77886752691896
 20
4.007142827365775
 30
0.0
 11
20.72113247308103
 21
4.004997708918677
 31
0.0
  0
LINE
  5
454
330
73F
100
AcDbEntity
  8
1
 62
     1
100
AcDbLine
 10
19.27886752691896
 20
3.943592224746292
 30
0.0
 11
19.22113247308103
 21
3.940822847316347
 31
0.0
  0
LINE
  5
455
330
73F
100
AcDbEntity
  8
1
 62
     1
100
AcDbLine
 10
17.77886752691897
 20
3.863959180459771
 30
0.0
 11
17.72113247308103
 21
3.860576883278814
 31
0.0
  0
LINE
  5
456
330
73F
100
AcDbEntity
  8
1
 62
     1
100
AcDbLine
 10
16.27886752691896
 20
3.768568165369682
 30
0.0
 11
16.22113247308103
 21
3.764586719400992
 31
0.0
  0
LINE
  5
457
330
73F
100
AcDbEntity
  8
1
 62
     1
100
AcDbLine
 10
14.77886752691897
 20
3.657808677143771
 30
0.0
 11
14.59
 21
3.642795340261796
 31
0.0
  0
LINE
  5
458
330
73F
100
AcDbEntity
  8
1
 62
     1
100
AcDbLine
 10
36.5
 20
-2.311473975056618
 30
0.0
 11
36.5
 21
-0.4682186863988321
 31
0.0
  0
LINE
  5
459
330
73F
100
AcDbEntity
  8
1
 62
     1
100
AcDbLine
 10
36.5
 20
-2.311473975056618
 30
0.0
 11
36.6841420805465
 21
-2.569701576000538
 31
0.0
  0
LINE
  5
45A
330
73F
100
AcDbEntity
  8
1
 62
     1
100
AcDbLine
 10
36.6841420805465
 20
-2.569701576000538
 30
0.0
 11
36.86701267391031
 21
-2.852789456170678
 31
0.0
  0
LINE
  5
45B
330
73F
100
AcDbEntity
  8
1
 62
     1
100
AcDbLine
 10
36.86701267391031
 20
-2.852789456170678
 30
0.0
 11
37.0465250647857
 21
-3.1556586071005
 31
0.0
  0
LINE
  5
45C
330
73F
100
AcDbEntity
  8
1
 62
     1
100
AcDbLine
 10
37.0465250647857
 20
-3.1556586071005
 30
0.0
 11
37.22113247309647
 21
-3.473076606091442
 31
0.0
  0
LINE
  5
45D
330
73F
100
AcDbEntity
  8
1
 62
     1
100
AcDbLine
 10
37.27886752691896
 20
3.618820678025632
 30
0.0
 11
37.27886752691897
 21
4.100000000000004
 31
0.0
  0
LINE
  5
45E
330
73F
100
AcDbEntity
  8
1
 62
     1
100
AcDbLine
 10
38.0
 20
2.521193562308062
 30
0.0
 11
37.63877139109639
 21
3.104028505353805
 31
0.0
  0
LINE
  5
45F
330
73F
100
AcDbEntity
  8
1
 62
     1
100
AcDbLine
 10
37.63877139109639
 20
3.104028505353805
 30
0.0
 11
37.27886752690355
 21
3.618820678046092
 31
0.0
  0
LINE
  5
460
330
73F
100
AcDbEntity
  8
1
 62
     1
100
AcDbLine
 10
38.0
 20
2.52119356230806
 30
0.0
 11
38.0
 21
2.850962499999999
 31
0.0
  0
LINE
  5
461
330
73F
100
AcDbEntity
  8
1
 62
     1
100
AcDbLine
 10
32.0
 20
-1.951347705310864
 30
0.0
 11
32.09206919442193
 21
-2.056018342908956
 31
0.0
  0
LINE
  5
462
330
73F
100
AcDbEntity
  8
1
 62
     1
100
AcDbLine
 10
32.09206919442193
 20
-2.056018342908956
 30
0.0
 11
32.18414219320914
 21
-2.169199330435811
 31
0.0
  0
LINE
  5
463
330
73F
100
AcDbEntity
  8
1
 62
     1
100
AcDbLine
 10
32.18414219320914
 20
-2.169199330435811
 30
0.0
 11
32.36701281931641
 21
-2.41882357543636
 31
0.0
  0
LINE
  5
464
330
73F
100
AcDbEntity
  8
1
 62
     1
100
AcDbLine
 10
32.36701281931641
 20
-2.41882357543636
 30
0.0
 11
32.54652516195145
 21
-2.695564152714089
 31
0.0
  0
LINE
  5
465
330
73F
100
AcDbEntity
  8
1
 62
     1
100
AcDbLine
 10
32.54652516195145
 20
-2.695564152714089
 30
0.0
 11
32.72113247309546
 21
-2.994554525004564
 31
0.0
  0
LINE
  5
466
330
73F
100
AcDbEntity
  8
1
 62
     1
100
AcDbLine
 10
27.5
 20
-1.519795453656761
 30
0.0
 11
27.5
 21
0.6172859606727675
 31
0.0
  0
LINE
  5
467
330
73F
100
AcDbEntity
  8
1
 62
     1
100
AcDbLine
 10
28.27886752691897
 20
-2.414571771045758
 30
0.0
 11
28.27886752691897
 21
0.3837474729841145
 31
0.0
  0
LINE
  5
468
330
73F
100
AcDbEntity
  8
1
 62
     1
100
AcDbLine
 10
28.27886752690515
 20
-2.414571775997301
 30
0.0
 11
28.45784477242757
 21
-2.185651212429669
 31
0.0
  0
LINE
  5
469
330
73F
100
AcDbEntity
  8
1
 62
     1
100
AcDbLine
 10
28.45784477242757
 20
-2.185651212429669
 30
0.0
 11
28.54816306372874
 21
-2.081628391891682
 31
0.0
  0
LINE
  5
46A
330
73F
100
AcDbEntity
  8
1
 62
     1
100
AcDbLine
 10
28.54816306372874
 20
-2.081628391891682
 30
0.0
 11
28.63878786695431
 21
-1.984742617960705
 31
0.0
  0
LINE
  5
46B
330
73F
100
AcDbEntity
  8
1
 62
     1
100
AcDbLine
 10
28.63878786695431
 20
-1.984742617960705
 30
0.0
 11
28.72951662046073
 21
-1.895108060459919
 31
0.0
  0
LINE
  5
46C
330
73F
100
AcDbEntity
  8
1
 62
     1
100
AcDbLine
 10
28.72951662046073
 20
-1.895108060459919
 30
0.0
 11
28.82013047170476
 21
-1.812823033245833
 31
0.0
  0
LINE
  5
46D
330
73F
100
AcDbEntity
  8
1
 62
     1
100
AcDbLine
 10
28.82013047170476
 20
-1.812823033245833
 30
0.0
 11
28.91038577742687
 21
-1.737976194233108
 31
0.0
  0
LINE
  5
46E
330
73F
100
AcDbEntity
  8
1
 62
     1
100
AcDbLine
 10
28.91038577742687
 20
-1.737976194233108
 30
0.0
 11
29.0
 21
-1.670655085769059
 31
0.0
  0
LINE
  5
46F
330
73F
100
AcDbEntity
  8
1
 62
     1
100
AcDbLine
 10
30.5
 20
-1.81470169712562
 30
0.0
 11
30.49999999999999
 21
0.2576732256232521
 31
0.0
  0
LINE
  5
470
330
73F
100
AcDbEntity
  8
1
 62
     1
100
AcDbLine
 10
32.0
 20
-1.951347705310864
 30
0.0
 11
32.0
 21
0.0759219903487853
 31
0.0
  0
LINE
  5
471
330
73F
100
AcDbEntity
  8
1
 62
     1
100
AcDbLine
 10
33.5
 20
-2.080035581205169
 30
0.0
 11
33.5
 21
-0.106138789085659
 31
0.0
  0
LINE
  5
472
330
73F
100
AcDbEntity
  8
1
 62
     1
100
AcDbLine
 10
35.0
 20
-2.200240822192696
 30
0.0
 11
35.0
 21
-0.2877673482544515
 31
0.0
  0
LINE
  5
473
330
73F
100
AcDbEntity
  8
1
 62
     1
100
AcDbLine
 10
35.00000000000001
 20
-2.200240822192696
 30
0.0
 11
35.1841421773225
 21
-2.445994397249266
 31
0.0
  0
LINE
  5
474
330
73F
100
AcDbEntity
  8
1
 62
     1
100
AcDbLine
 10
35.1841421773225
 20
-2.445994397249266
 30
0.0
 11
35.36701277598317
 21
-2.719026686687576
 31
0.0
  0
LINE
  5
475
330
73F
100
AcDbEntity
  8
1
 62
     1
100
AcDbLine
 10
35.36701277598317
 20
-2.719026686687576
 30
0.0
 11
35.54652511110826
 21
-3.014379441981099
 31
0.0
  0
LINE
  5
476
330
73F
100
AcDbEntity
  8
1
 62
     1
100
AcDbLine
 10
35.54652511110826
 20
-3.014379441981099
 30
0.0
 11
35.72113247309644
 21
-3.326921381034941
 31
0.0
  0
LINE
  5
477
330
73F
100
AcDbEntity
  8
1
 62
     1
100
AcDbLine
 10
29.0
 20
-1.670655085769058
 30
0.0
 11
29.0
 21
0.4383734945659242
 31
0.0
  0
LINE
  5
478
330
73F
100
AcDbEntity
  8
1
 62
     1
100
AcDbLine
 10
29.0
 20
-1.670655085769059
 30
0.0
 11
29.09206920339508
 21
-1.759127224368
 31
0.0
  0
LINE
  5
479
330
73F
100
AcDbEntity
  8
1
 62
     1
100
AcDbLine
 10
29.09206920339508
 20
-1.759127224368
 30
0.0
 11
29.18414221049265
 21
-1.857054907467311
 31
0.0
  0
LINE
  5
47A
330
73F
100
AcDbEntity
  8
1
 62
     1
100
AcDbLine
 10
29.18414221049265
 20
-1.857054907467311
 30
0.0
 11
29.27588318179453
 21
-1.963922784598777
 31
0.0
  0
LINE
  5
47B
330
73F
100
AcDbEntity
  8
1
 62
     1
100
AcDbLine
 10
29.27588318179453
 20
-1.963922784598777
 30
0.0
 11
29.36701284581256
 21
-2.079203445465131
 31
0.0
  0
LINE
  5
47C
330
73F
100
AcDbEntity
  8
1
 62
     1
100
AcDbLine
 10
29.36701284581256
 20
-2.079203445465131
 30
0.0
 11
29.54652518223047
 21
-2.332822209996805
 31
0.0
  0
LINE
  5
47D
330
73F
100
AcDbEntity
  8
1
 62
     1
100
AcDbLine
 10
29.54652518223047
 20
-2.332822209996805
 30
0.0
 11
29.72113247309547
 21
-2.613388691436016
 31
0.0
  0
LINE
  5
47E
330
73F
100
AcDbEntity
  8
1
 62
     1
100
AcDbLine
 10
26.00000000000001
 20
-1.36273787296642
 30
0.0
 11
26.0
 21
0.7936813868948422
 31
0.0
  0
LINE
  5
47F
330
73F
100
AcDbEntity
  8
1
 62
     1
100
AcDbLine
 10
24.5
 20
-1.200122694156219
 30
0.0
 11
24.5
 21
0.96683964243604
 31
0.0
  0
LINE
  5
480
330
73F
100
AcDbEntity
  8
1
 62
     1
100
AcDbLine
 10
23.0
 20
-1.032613452386863
 30
0.0
 11
23.0
 21
1.136055243171667
 31
0.0
  0
LINE
  5
481
330
73F
100
AcDbEntity
  8
1
 62
     1
100
AcDbLine
 10
23.0
 20
-1.032613452386863
 30
0.0
 11
23.04600918893581
 21
-1.057248891939699
 31
0.0
  0
LINE
  5
482
330
73F
100
AcDbEntity
  8
1
 62
     1
100
AcDbLine
 10
23.04600918893581
 20
-1.057248891939699
 30
0.0
 11
23.09206919612375
 21
-1.084650838857594
 31
0.0
  0
LINE
  5
483
330
73F
100
AcDbEntity
  8
1
 62
     1
100
AcDbLine
 10
23.09206919612375
 20
-1.084650838857594
 30
0.0
 11
23.13812528552033
 21
-1.114769063470465
 31
0.0
  0
LINE
  5
484
330
73F
100
AcDbEntity
  8
1
 62
     1
100
AcDbLine
 10
23.13812528552033
 20
-1.114769063470465
 30
0.0
 11
23.18414219636795
 21
-1.147558938859873
 31
0.0
  0
LINE
  5
485
330
73F
100
AcDbEntity
  8
1
 62
     1
100
AcDbLine
 10
23.18414219636795
 20
-1.147558938859873
 30
0.0
 11
23.2300696789088
 21
-1.182964894391752
 31
0.0
  0
LINE
  5
486
330
73F
100
AcDbEntity
  8
1
 62
     1
100
AcDbLine
 10
23.2300696789088
 20
-1.182964894391752
 30
0.0
 11
23.3215367630411
 21
-1.261437509972971
 31
0.0
  0
LINE
  5
487
330
73F
100
AcDbEntity
  8
1
 62
     1
100
AcDbLine
 10
23.3215367630411
 20
-1.261437509972971
 30
0.0
 11
23.41227008629919
 21
-1.349772970048928
 31
0.0
  0
LINE
  5
488
330
73F
100
AcDbEntity
  8
1
 62
     1
100
AcDbLine
 10
23.41227008629919
 20
-1.349772970048928
 30
0.0
 11
23.50205061364557
 21
-1.447539564706282
 31
0.0
  0
LINE
  5
489
330
73F
100
AcDbEntity
  8
1
 62
     1
100
AcDbLine
 10
23.50205061364557
 20
-1.447539564706282
 30
0.0
 11
23.59068809920085
 21
-1.554286250189649
 31
0.0
  0
LINE
  5
48A
330
73F
100
AcDbEntity
  8
1
 62
     1
100
AcDbLine
 10
23.59068809920085
 20
-1.554286250189649
 30
0.0
 11
23.72113247309291
 21
-1.730198793206058
 31
0.0
  0
LINE
  5
48B
330
73F
100
AcDbEntity
  8
1
 62
     1
100
AcDbLine
 10
18.5
 20
-0.5076341683832614
 30
0.0
 11
18.5
 21
1.613240905540026
 31
0.0
  0
LINE
  5
48C
330
73F
100
AcDbEntity
  8
1
 62
     1
100
AcDbLine
 10
17.0
 20
-0.327536329657705
 30
0.0
 11
17.0
 21
1.759986458171916
 31
0.0
  0
LINE
  5
48D
330
73F
100
AcDbEntity
  8
1
 62
     1
100
AcDbLine
 10
17.00000000000001
 20
-0.3275363296576996
 30
0.0
 11
17.03920783386218
 21
-0.3313144915248523
 31
0.0
  0
LINE
  5
48E
330
73F
100
AcDbEntity
  8
1
 62
     1
100
AcDbLine
 10
16.27886752691896
 20
-0.4857418121173955
 30
0.0
 11
16.27886752691896
 21
2.330924268527622
 31
0.0
  0
LINE
  5
48F
330
73F
100
AcDbEntity
  8
1
 62
     1
100
AcDbLine
 10
15.5
 20
-0.1461028814061423
 30
0.0
 11
15.5
 21
1.899554531137488
 31
0.0
  0
ARC
  5
490
330
73F
100
AcDbEntity
  8
1
 62
     1
100
AcDbCircle
 10
15.52999239977201
 20
-0.8719220420243541
 30
0.0
 40
0.7264401623215403
100
AcDbArc
 50
82.50521011976166
 51
92.36623794175907
  0
LINE
  5
491
330
73F
100
AcDbEntity
  8
1
 62
     1
100
AcDbLine
 10
21.5
 20
-0.8608929651988123
 30
0.0
 11
21.5
 21
1.300637904822057
 31
0.0
  0
LINE
  5
492
330
73F
100
AcDbEntity
  8
1
 62
     1
100
AcDbLine
 10
21.5
 20
-0.8608929651988127
 30
0.0
 11
21.54600919153016
 21
-0.8806324050186148
 31
0.0
  0
LINE
  5
493
330
73F
100
AcDbEntity
  8
1
 62
     1
100
AcDbLine
 10
21.54600919153016
 20
-0.8806324050186148
 30
0.0
 11
21.5920692016923
 21
-0.9031953251186999
 31
0.0
  0
LINE
  5
494
330
73F
100
AcDbEntity
  8
1
 62
     1
100
AcDbLine
 10
21.5920692016923
 20
-0.9031953251186999
 30
0.0
 11
21.6381252941935
 21
-0.9285364114602787
 31
0.0
  0
LINE
  5
495
330
73F
100
AcDbEntity
  8
1
 62
     1
100
AcDbLine
 10
21.6381252941935
 20
-0.9285364114602787
 30
0.0
 11
21.68414220804328
 21
-0.9566145764808473
 31
0.0
  0
LINE
  5
496
330
73F
100
AcDbEntity
  8
1
 62
     1
100
AcDbLine
 10
21.68414220804328
 20
-0.9566145764808473
 30
0.0
 11
21.73006969321477
 21
-0.9873796471307723
 31
0.0
  0
LINE
  5
497
330
73F
100
AcDbEntity
  8
1
 62
     1
100
AcDbLine
 10
21.73006969321477
 20
-0.9873796471307723
 30
0.0
 11
21.77588317944248
 21
-1.020792632376863
 31
0.0
  0
LINE
  5
498
330
73F
100
AcDbEntity
  8
1
 62
     1
100
AcDbLine
 10
21.77588317944248
 20
-1.020792632376863
 30
0.0
 11
21.8215367808114
 21
-1.056798143835717
 31
0.0
  0
LINE
  5
499
330
73F
100
AcDbEntity
  8
1
 62
     1
100
AcDbLine
 10
21.8215367808114
 20
-1.056798143835717
 30
0.0
 11
21.91227010427402
 21
-1.136412555687988
 31
0.0
  0
LINE
  5
49A
330
73F
100
AcDbEntity
  8
1
 62
     1
100
AcDbLine
 10
21.91227010427402
 20
-1.136412555687988
 30
0.0
 11
22.00205062841197
 21
-1.225825159150653
 31
0.0
  0
LINE
  5
49B
330
73F
100
AcDbEntity
  8
1
 62
     1
100
AcDbLine
 10
22.00205062841197
 20
-1.225825159150653
 30
0.0
 11
22.09068810836263
 21
-1.324618048356887
 31
0.0
  0
LINE
  5
49C
330
73F
100
AcDbEntity
  8
1
 62
     1
100
AcDbLine
 10
22.09068810836263
 20
-1.324618048356887
 30
0.0
 11
22.22113247308783
 21
-1.48942066497374
 31
0.0
  0
LINE
  5
49D
330
73F
100
AcDbEntity
  8
1
 62
     1
100
AcDbLine
 10
20.0
 20
-0.6856615894354935
 30
0.0
 11
20.00000000000001
 21
1.459916097074053
 31
0.0
  0
LINE
  5
49E
330
73F
100
AcDbEntity
  8
1
 62
     1
100
AcDbLine
 10
20.0
 20
-0.6856615894354832
 30
0.0
 11
20.04600918982695
 21
-0.7004245774039228
 31
0.0
  0
LINE
  5
49F
330
73F
100
AcDbEntity
  8
1
 62
     1
100
AcDbLine
 10
20.04600918982695
 20
-0.7004245774039228
 30
0.0
 11
20.09206919770539
 21
-0.7180564938601306
 31
0.0
  0
LINE
  5
4A0
330
73F
100
AcDbEntity
  8
1
 62
     1
100
AcDbLine
 10
20.09206919770539
 20
-0.7180564938601306
 30
0.0
 11
20.13812528749576
 21
-0.738517123865686
 31
0.0
  0
LINE
  5
4A1
330
73F
100
AcDbEntity
  8
1
 62
     1
100
AcDbLine
 10
20.13812528749576
 20
-0.738517123865686
 30
0.0
 11
20.18414219836914
 21
-0.7617690859666608
 31
0.0
  0
LINE
  5
4A2
330
73F
100
AcDbEntity
  8
1
 62
     1
100
AcDbLine
 10
20.18414219836914
 20
-0.7617690859666608
 30
0.0
 11
20.23006968051812
 21
-0.7877678087771924
 31
0.0
  0
LINE
  5
4A3
330
73F
100
AcDbEntity
  8
1
 62
     1
100
AcDbLine
 10
20.23006968051812
 20
-0.7877678087771924
 30
0.0
 11
20.27588316384475
 21
-0.8164776560288085
 31
0.0
  0
LINE
  5
4A4
330
73F
100
AcDbEntity
  8
1
 62
     1
100
AcDbLine
 10
20.27588316384475
 20
-0.8164776560288085
 30
0.0
 11
20.32153676267971
 21
-0.8478490523677171
 31
0.0
  0
LINE
  5
4A5
330
73F
100
AcDbEntity
  8
1
 62
     1
100
AcDbLine
 10
20.32153676267971
 20
-0.8478490523677171
 30
0.0
 11
20.36701282404101
 21
-0.8818471452756037
 31
0.0
  0
LINE
  5
4A6
330
73F
100
AcDbEntity
  8
1
 62
     1
100
AcDbLine
 10
20.36701282404101
 20
-0.8818471452756037
 30
0.0
 11
20.41227008287223
 21
-0.9184176536506429
 31
0.0
  0
LINE
  5
4A7
330
73F
100
AcDbEntity
  8
1
 62
     1
100
AcDbLine
 10
20.41227008287223
 20
-0.9184176536506429
 30
0.0
 11
20.50205060731098
 21
-0.9991115065451275
 31
0.0
  0
LINE
  5
4A8
330
73F
100
AcDbEntity
  8
1
 62
     1
100
AcDbLine
 10
20.50205060731098
 20
-0.9991115065451275
 30
0.0
 11
20.59068809215455
 21
-1.089547560980526
 31
0.0
  0
LINE
  5
4A9
330
73F
100
AcDbEntity
  8
1
 62
     1
100
AcDbLine
 10
20.59068809215455
 20
-1.089547560980526
 30
0.0
 11
20.65631624658791
 21
-1.163527423409219
 31
0.0
  0
LINE
  5
4AA
330
73F
100
AcDbEntity
  8
1
 62
     1
100
AcDbLine
 10
20.65631624658791
 20
-1.163527423409219
 30
0.0
 11
20.72113247308782
 21
-1.242567927562673
 31
0.0
  0
LINE
  5
4AB
330
73F
100
AcDbEntity
  8
1
 62
     1
100
AcDbLine
 10
34.27886752691897
 20
-3.174211466325919
 30
0.0
 11
34.22113247308103
 21
-3.180581617969282
 31
0.0
  0
LINE
  5
4AC
330
73F
100
AcDbEntity
  8
1
 62
     1
100
AcDbLine
 10
32.77886752691898
 20
-3.333376783924122
 30
0.0
 11
32.72113247308103
 21
-3.339235337796508
 31
0.0
  0
LINE
  5
4AD
330
73F
100
AcDbEntity
  8
1
 62
     1
100
AcDbLine
 10
31.27886752691899
 20
-3.478947711837872
 30
0.0
 11
31.22113247308103
 21
-3.484270819813715
 31
0.0
  0
LINE
  5
4AE
330
73F
100
AcDbEntity
  8
1
 62
     1
100
AcDbLine
 10
29.77886752691898
 20
-3.610330932038727
 30
0.0
 11
29.72113247308102
 21
-3.615096861036032
 31
0.0
  0
LINE
  5
4AF
330
73F
100
AcDbEntity
  8
1
 62
     1
100
AcDbLine
 10
28.27886752691897
 20
-3.726990906645379
 30
0.0
 11
28.22113247308103
 21
-3.731180223393968
 31
0.0
  0
LINE
  5
4B0
330
73F
100
AcDbEntity
  8
1
 62
     1
100
AcDbLine
 10
25.27886752691898
 20
-3.914299267251542
 30
0.0
 11
25.22113247308103
 21
-3.91728654574632
 31
0.0
  0
LINE
  5
4B1
330
73F
100
AcDbEntity
  8
1
 62
     1
100
AcDbLine
 10
23.77886752691897
 20
-3.984184000820228
 30
0.0
 11
23.72113247308103
 21
-3.986550746981707
 31
0.0
  0
LINE
  5
4B2
330
73F
100
AcDbEntity
  8
1
 62
     1
100
AcDbLine
 10
22.27886752691897
 20
-4.037820578406535
 30
0.0
 11
22.22113247308103
 21
-4.039557141808976
 31
0.0
  0
LINE
  5
4B3
330
73F
100
AcDbEntity
  8
1
 62
     1
100
AcDbLine
 10
20.77886752691897
 20
-4.074990440418623
 30
0.0
 11
20.72113247308103
 21
-4.076089728692587
 31
0.0
  0
LINE
  5
4B4
330
73F
100
AcDbEntity
  8
1
 62
     1
100
AcDbLine
 10
17.77886752691898
 20
-4.099999999990927
 30
0.0
 11
17.77886752691898
 21
-4.09999999737799
 31
0.0
  0
LINE
  5
4B5
330
73F
100
AcDbEntity
  8
1
 62
     1
100
AcDbLine
 10
17.77886752691898
 20
-4.09999999737799
 30
0.0
 11
17.77886752691897
 21
-4.099999323826589
 31
0.0
  0
LINE
  5
4B6
330
73F
100
AcDbEntity
  8
1
 62
     1
100
AcDbLine
 10
17.77886752691897
 20
-4.099999323826589
 30
0.0
 11
17.77886752691898
 21
-4.099951129260031
 31
0.0
  0
LINE
  5
4B7
330
73F
100
AcDbEntity
  8
1
 62
     1
100
AcDbLine
 10
17.77886752691898
 20
-4.099951129260031
 30
0.0
 11
17.77886752691897
 21
-4.099391183378648
 31
0.0
  0
LINE
  5
4B8
330
73F
100
AcDbEntity
  8
1
 62
     1
100
AcDbLine
 10
14.77886752691897
 20
-4.100000000000001
 30
0.0
 11
14.77886752691897
 21
-4.099989471842371
 31
0.0
  0
LINE
  5
4B9
330
73F
100
AcDbEntity
  8
1
 62
     1
100
AcDbLine
 10
14.77886752691897
 20
-4.099989471842371
 30
0.0
 11
14.77886752691897
 21
-4.096959376365687
 31
0.0
  0
LINE
  5
4BA
330
73F
100
AcDbEntity
  8
1
 62
     1
100
AcDbLine
 10
14.77886752691897
 20
-4.096959376365687
 30
0.0
 11
14.77886752691897
 21
-4.056988568114343
 31
0.0
  0
LINE
  5
4BB
330
73F
100
AcDbEntity
  8
1
 62
     1
100
AcDbLine
 10
37.22113247308107
 20
3.623547622175326
 30
0.0
 11
37.22113247308103
 21
4.100000000000004
 31
0.0
  0
LINE
  5
4BC
330
73F
100
AcDbEntity
  8
1
 62
     1
100
AcDbLine
 10
35.77886752691898
 20
3.734449192044388
 30
0.0
 11
35.77886752691896
 21
4.100000000000003
 31
0.0
  0
LINE
  5
4BD
330
73F
100
AcDbEntity
  8
1
 62
     1
100
AcDbLine
 10
35.77886752690355
 20
3.734449192065976
 30
0.0
 11
36.13878789143925
 21
3.197618865322092
 31
0.0
  0
LINE
  5
4BE
330
73F
100
AcDbEntity
  8
1
 62
     1
100
AcDbLine
 10
36.13878789143925
 20
3.197618865322092
 30
0.0
 11
36.5
 21
2.601007352989959
 31
0.0
  0
LINE
  5
4BF
330
73F
100
AcDbEntity
  8
1
 62
     1
100
AcDbLine
 10
36.50000000000001
 20
2.601007352989952
 30
0.0
 11
36.5
 21
2.850962499999999
 31
0.0
  0
LINE
  5
4C0
330
73F
100
AcDbEntity
  8
1
 62
     1
100
AcDbLine
 10
29.72113247308103
 20
4.042594501175969
 30
0.0
 11
29.72113247308103
 21
4.100000000000001
 31
0.0
  0
LINE
  5
4C1
330
73F
100
AcDbEntity
  8
1
 62
     1
100
AcDbLine
 10
35.72113247308103
 20
3.738598178346411
 30
0.0
 11
35.72113247308103
 21
4.100000000000003
 31
0.0
  0
LINE
  5
4C2
330
73F
100
AcDbEntity
  8
1
 62
     1
100
AcDbLine
 10
33.5
 20
2.728531743164138
 30
0.0
 11
33.86701289055368
 21
3.323690260547406
 31
0.0
  0
LINE
  5
4C3
330
73F
100
AcDbEntity
  8
1
 62
     1
100
AcDbLine
 10
33.86701289055368
 20
3.323690260547406
 30
0.0
 11
34.22113247309645
 21
3.838403886055577
 31
0.0
  0
LINE
  5
4C4
330
73F
100
AcDbEntity
  8
1
 62
     1
100
AcDbLine
 10
34.22113247308103
 20
3.838403886034799
 30
0.0
 11
34.22113247308103
 21
4.100000000000003
 31
0.0
  0
LINE
  5
4C5
330
73F
100
AcDbEntity
  8
1
 62
     1
100
AcDbLine
 10
32.77886752690453
 20
3.919612096847819
 30
0.0
 11
33.5
 21
2.728531743164138
 31
0.0
  0
LINE
  5
4C6
330
73F
100
AcDbEntity
  8
1
 62
     1
100
AcDbLine
 10
33.5
 20
2.728531743164138
 30
0.0
 11
33.5
 21
2.850962499999999
 31
0.0
  0
LINE
  5
4C7
330
73F
100
AcDbEntity
  8
1
 62
     1
100
AcDbLine
 10
32.72113247308103
 20
3.922557122154488
 30
0.0
 11
32.72113247308103
 21
4.100000000000003
 31
0.0
  0
LINE
  5
4C8
330
73F
100
AcDbEntity
  8
1
 62
     1
100
AcDbLine
 10
28.22113247308103
 20
4.077989692598353
 30
0.0
 11
28.22113247308103
 21
4.100000000000001
 31
0.0
  0
LINE
  5
4C9
330
73F
100
AcDbEntity
  8
1
 62
     1
100
AcDbLine
 10
28.27886752690516
 20
4.076934360210032
 30
0.0
 11
29.0
 21
2.83599594884294
 31
0.0
  0
LINE
  5
4CA
330
73F
100
AcDbEntity
  8
1
 62
     1
100
AcDbLine
 10
29.0
 20
2.83599594884294
 30
0.0
 11
29.0
 21
2.850962499999999
 31
0.0
  0
LINE
  5
4CB
330
73F
100
AcDbEntity
  8
1
 62
     1
100
AcDbLine
 10
29.77886752691897
 20
4.040901506023372
 30
0.0
 11
29.77886752691897
 21
4.100000000000001
 31
0.0
  0
LINE
  5
4CC
330
73F
100
AcDbEntity
  8
1
 62
     1
100
AcDbLine
 10
29.77886752690453
 20
4.040901506046966
 30
0.0
 11
30.5
 21
2.81159182468472
 31
0.0
  0
LINE
  5
4CD
330
73F
100
AcDbEntity
  8
1
 62
     1
100
AcDbLine
 10
30.5
 20
2.811591824684721
 30
0.0
 11
30.5
 21
2.850962498896402
 31
0.0
  0
LINE
  5
4CE
330
73F
100
AcDbEntity
  8
1
 62
     1
100
AcDbLine
 10
31.22113247308104
 20
3.990713178327616
 30
0.0
 11
31.22113247308104
 21
4.100000000000003
 31
0.0
  0
LINE
  5
4CF
330
73F
100
AcDbEntity
  8
1
 62
     1
100
AcDbLine
 10
31.27886752691897
 20
3.988389422332498
 30
0.0
 11
31.27886752691898
 21
4.100000000000003
 31
0.0
  0
LINE
  5
4D0
330
73F
100
AcDbEntity
  8
1
 62
     1
100
AcDbLine
 10
31.27886752690453
 20
3.988389422355385
 30
0.0
 11
32.0
 21
2.775721624809882
 31
0.0
  0
LINE
  5
4D1
330
73F
100
AcDbEntity
  8
1
 62
     1
100
AcDbLine
 10
32.0
 20
2.775721624809854
 30
0.0
 11
32.0
 21
2.850962499999999
 31
0.0
  0
LINE
  5
4D2
330
73F
100
AcDbEntity
  8
1
 62
     1
100
AcDbLine
 10
34.27886752691897
 20
3.834849561287434
 30
0.0
 11
34.27886752691897
 21
4.100000000000003
 31
0.0
  0
LINE
  5
4D3
330
73F
100
AcDbEntity
  8
1
 62
     1
100
AcDbLine
 10
34.27886752690355
 20
3.834849561310065
 30
0.0
 11
34.63878783132814
 21
3.27819423190435
 31
0.0
  0
LINE
  5
4D4
330
73F
100
AcDbEntity
  8
1
 62
     1
100
AcDbLine
 10
34.63878783132814
 20
3.27819423190435
 30
0.0
 11
35.0
 21
2.67021455654505
 31
0.0
  0
LINE
  5
4D5
330
73F
100
AcDbEntity
  8
1
 62
     1
100
AcDbLine
 10
35.0
 20
2.67021455654505
 30
0.0
 11
35.0
 21
2.850962499999999
 31
0.0
  0
LINE
  5
4D6
330
73F
100
AcDbEntity
  8
1
 62
     1
100
AcDbLine
 10
23.77886752690708
 20
4.085026458569907
 30
0.0
 11
24.5
 21
2.839652720863313
 31
0.0
  0
LINE
  5
4D7
330
73F
100
AcDbEntity
  8
1
 62
     1
100
AcDbLine
 10
24.5
 20
2.839652720863313
 30
0.0
 11
25.2211324730935
 21
4.098811607600094
 31
0.0
  0
LINE
  5
4D8
330
73F
100
AcDbEntity
  8
1
 62
     1
100
AcDbLine
 10
25.27886752690649
 20
4.099041886502323
 30
0.0
 11
26.0
 21
2.850055059344676
 31
0.0
  0
LINE
  5
4D9
330
73F
100
AcDbEntity
  8
1
 62
     1
100
AcDbLine
 10
26.72113247308103
 20
4.096754202379577
 30
0.0
 11
26.72113247308103
 21
4.100000000000001
 31
0.0
  0
LINE
  5
4DA
330
73F
100
AcDbEntity
  8
1
 62
     1
100
AcDbLine
 10
26.77886752691897
 20
4.096340830627224
 30
0.0
 11
26.77886752691897
 21
4.100000000000001
 31
0.0
  0
LINE
  5
4DB
330
73F
100
AcDbEntity
  8
1
 62
     1
100
AcDbLine
 10
26.77886752690649
 20
4.096340830648587
 30
0.0
 11
27.5
 21
2.848834469907952
 31
0.0
  0
LINE
  5
4DC
330
73F
100
AcDbEntity
  8
1
 62
     1
100
AcDbLine
 10
27.5
 20
2.848834469907953
 30
0.0
 11
27.5
 21
2.850962499999999
 31
0.0
  0
LINE
  5
4DD
330
73F
100
AcDbEntity
  8
1
 62
     1
100
AcDbLine
 10
20.77886752691218
 20
4.007142828188197
 30
0.0
 11
21.5
 21
2.784196226977104
 31
0.0
  0
LINE
  5
4DE
330
73F
100
AcDbEntity
  8
1
 62
     1
100
AcDbLine
 10
16.27886752691218
 20
3.768568166042177
 30
0.0
 11
16.63878787154603
 21
3.164467986864801
 31
0.0
  0
LINE
  5
4DF
330
73F
100
AcDbEntity
  8
1
 62
     1
100
AcDbLine
 10
16.63878787154603
 20
3.164467986864801
 30
0.0
 11
17.0
 21
2.616425977665864
 31
0.0
  0
LINE
  5
4E0
330
73F
100
AcDbEntity
  8
1
 62
     1
100
AcDbLine
 10
17.0
 20
2.616425977665865
 30
0.0
 11
17.3670128451244
 21
3.217300541863162
 31
0.0
  0
LINE
  5
4E1
330
73F
100
AcDbEntity
  8
1
 62
     1
100
AcDbLine
 10
17.3670128451244
 20
3.217300541863162
 30
0.0
 11
17.72113247308783
 21
3.860576883291672
 31
0.0
  0
LINE
  5
4E2
330
73F
100
AcDbEntity
  8
1
 62
     1
100
AcDbLine
 10
17.77886752691216
 20
3.863959184282312
 30
0.0
 11
18.1387878660861
 21
3.249911677162982
 31
0.0
  0
LINE
  5
4E3
330
73F
100
AcDbEntity
  8
1
 62
     1
100
AcDbLine
 10
18.1387878660861
 20
3.249911677162982
 30
0.0
 11
18.5
 21
2.683368698301127
 31
0.0
  0
LINE
  5
4E4
330
73F
100
AcDbEntity
  8
1
 62
     1
100
AcDbLine
 10
19.27886752691218
 20
3.943592224758405
 30
0.0
 11
20.0
 21
2.739368197072291
 31
0.0
  0
ARC
  5
4E5
330
73F
100
AcDbEntity
  8
1
 62
     1
100
AcDbCircle
 10
60.74613478310884
 20
25.65819863495565
 30
0.0
 40
44.1186661674376
100
AcDbArc
 50
209.3192793886371
 51
211.1785129891095
  0
LINE
  5
4E6
330
73F
100
AcDbEntity
  8
1
 62
     1
100
AcDbLine
 10
21.5
 20
2.784196226977106
 30
0.0
 11
22.22113247308783
 21
4.052839647089649
 31
0.0
  0
LINE
  5
4E7
330
73F
100
AcDbEntity
  8
1
 62
     1
100
AcDbLine
 10
38.0
 20
2.521193562308059
 30
0.0
 11
38.0
 21
-0.4425815268762754
 31
0.0
  0
LINE
  5
4E8
330
73F
100
AcDbEntity
  8
1
 62
     1
100
AcDbLine
 10
36.50000000000001
 20
2.601007352989959
 30
0.0
 11
36.86701267088696
 21
3.162402862072414
 31
0.0
  0
LINE
  5
4E9
330
73F
100
AcDbEntity
  8
1
 62
     1
100
AcDbLine
 10
36.86701267088696
 20
3.162402862072414
 30
0.0
 11
37.04652506175128
 21
3.407453557785763
 31
0.0
  0
LINE
  5
4EA
330
73F
100
AcDbEntity
  8
1
 62
     1
100
AcDbLine
 10
37.04652506175128
 20
3.407453557785763
 30
0.0
 11
37.22113247309645
 21
3.623547621075031
 31
0.0
  0
LINE
  5
4EB
330
73F
100
AcDbEntity
  8
1
 62
     1
100
AcDbLine
 10
35.0
 20
2.67021455654505
 30
0.0
 11
35.36701277294852
 21
3.24967241932082
 31
0.0
  0
LINE
  5
4EC
330
73F
100
AcDbEntity
  8
1
 62
     1
100
AcDbLine
 10
35.36701277294852
 20
3.24967241932082
 30
0.0
 11
35.5465251080627
 21
3.507514378281385
 31
0.0
  0
LINE
  5
4ED
330
73F
100
AcDbEntity
  8
1
 62
     1
100
AcDbLine
 10
35.5465251080627
 20
3.507514378281385
 30
0.0
 11
35.72113247309645
 21
3.738598178365832
 31
0.0
  0
LINE
  5
4EE
330
73F
100
AcDbEntity
  8
1
 62
     1
100
AcDbLine
 10
32.0
 20
2.775721624809882
 30
0.0
 11
32.36701281623955
 21
3.384153311700834
 31
0.0
  0
LINE
  5
4EF
330
73F
100
AcDbEntity
  8
1
 62
     1
100
AcDbLine
 10
32.36701281623955
 20
3.384153311700834
 30
0.0
 11
32.72113247309548
 21
3.922557122175137
 31
0.0
  0
LINE
  5
4F0
330
73F
100
AcDbEntity
  8
1
 62
     1
100
AcDbLine
 10
30.5
 20
2.811591824684721
 30
0.0
 11
31.22113247309547
 21
3.990713178349373
 31
0.0
  0
LINE
  5
4F1
330
73F
100
AcDbEntity
  8
1
 62
     1
100
AcDbLine
 10
29.0
 20
2.83599594884294
 30
0.0
 11
29.72113247309547
 21
4.042594501198745
 31
0.0
  0
LINE
  5
4F2
330
73F
100
AcDbEntity
  8
1
 62
     1
100
AcDbLine
 10
27.5
 20
2.848834469907953
 30
0.0
 11
28.22113247309485
 21
4.077989692621043
 31
0.0
  0
LINE
  5
4F3
330
73F
100
AcDbEntity
  8
1
 62
     1
100
AcDbLine
 10
26.0
 20
2.850055059344677
 30
0.0
 11
26.47404423810274
 21
3.672030826293796
 31
0.0
  0
LINE
  5
4F4
330
73F
100
AcDbEntity
  8
1
 62
     1
100
AcDbLine
 10
23.0
 20
2.817669903913746
 30
0.0
 11
23.72113247309291
 21
4.084153466064715
 31
0.0
  0
LINE
  5
4F5
330
73F
100
AcDbEntity
  8
1
 62
     1
100
AcDbLine
 10
20.0
 20
2.739368197072292
 30
0.0
 11
20.72113247308783
 21
4.004997708931298
 31
0.0
  0
LINE
  5
4F6
330
73F
100
AcDbEntity
  8
1
 62
     1
100
AcDbLine
 10
18.5
 20
2.683368698301127
 30
0.0
 11
18.86701284150978
 21
3.296509251201997
 31
0.0
  0
LINE
  5
4F7
330
73F
100
AcDbEntity
  8
1
 62
     1
100
AcDbLine
 10
18.86701284150978
 20
3.296509251201997
 30
0.0
 11
19.22113247308782
 21
3.940822854582204
 31
0.0
  0
LINE
  5
4F8
330
73F
100
AcDbEntity
  8
1
 62
     1
100
AcDbLine
 10
15.5
 20
2.538813157361402
 30
0.0
 11
15.86701282469829
 21
3.124971154594176
 31
0.0
  0
LINE
  5
4F9
330
73F
100
AcDbEntity
  8
1
 62
     1
100
AcDbLine
 10
15.86701282469829
 20
3.124971154594176
 30
0.0
 11
16.22113247308782
 21
3.764586719413883
 31
0.0
  0
LINE
  5
4FA
330
73F
100
AcDbEntity
  8
1
 62
     1
100
AcDbLine
 10
14.77886752691217
 20
3.657808677155583
 30
0.0
 11
15.13878786658987
 21
3.06611926936091
 31
0.0
  0
LINE
  5
4FB
330
73F
100
AcDbEntity
  8
1
 62
     1
100
AcDbLine
 10
15.13878786658987
 20
3.06611926936091
 30
0.0
 11
15.5
 21
2.538813157361401
 31
0.0
  0
LINE
  5
4FC
330
73F
100
AcDbEntity
  8
1
 62
     1
100
AcDbLine
 10
14.77886752691897
 20
2.54145899716332
 30
0.0
 11
14.59
 21
2.567250466546134
 31
0.0
  0
ARC
  5
4FD
330
73F
100
AcDbEntity
  8
1
 62
     1
100
AcDbCircle
 10
29.74188700734524
 20
18.62665168000899
 30
0.0
 40
21.96874145835656
100
AcDbArc
 50
227.0699360462261
 51
229.588060379545
  0
ARC
  5
4FE
330
73F
100
AcDbEntity
  8
1
 62
     1
100
AcDbCircle
 10
20.9151310987424
 20
-6.171142380847721
 30
0.0
 40
9.71904381006372
100
AcDbArc
 50
118.8795215400651
 51
123.860110711965
  0
ARC
  5
4FF
330
73F
100
AcDbEntity
  8
1
 62
     1
100
AcDbCircle
 10
27.69531038201704
 20
16.01042515498334
 30
0.0
 40
17.81751928497528
100
AcDbArc
 50
230.1527814933583
 51
233.1108561340521
  0
ARC
  5
500
330
73F
100
AcDbEntity
  8
1
 62
     1
100
AcDbCircle
 10
21.12184208711974
 20
-5.604325177401281
 30
0.0
 40
8.439353024070186
100
AcDbArc
 50
113.7632816659274
 51
119.2359578492338
  0
ARC
  5
501
330
73F
100
AcDbEntity
  8
1
 62
     1
100
AcDbCircle
 10
26.40257692550891
 20
13.83621544694307
 30
0.0
 40
14.55512819351823
100
AcDbArc
 50
233.6663818368879
 51
237.1159305072809
  0
ARC
  5
502
330
73F
100
AcDbEntity
  8
1
 62
     1
100
AcDbCircle
 10
21.54453814732191
 20
-5.211429428090815
 30
0.0
 40
7.472974971439231
100
AcDbArc
 50
108.1139488307231
 51
114.0420193062744
  0
ARC
  5
503
330
73F
100
AcDbEntity
  8
1
 62
     1
100
AcDbCircle
 10
25.70831353260652
 20
12.03354044669359
 30
0.0
 40
12.01610195610643
100
AcDbArc
 50
237.651406543459
 51
241.6370105627626
  0
ARC
  5
504
330
73F
100
AcDbEntity
  8
1
 62
     1
100
AcDbCircle
 10
22.13487613027782
 20
-4.99698893153203
 30
0.0
 40
6.800687633256359
100
AcDbArc
 50
101.9982768960659
 51
108.2956722607554
  0
ARC
  5
505
330
73F
100
AcDbEntity
  8
1
 62
     1
100
AcDbCircle
 10
25.48581507539555
 20
10.55010195130732
 30
0.0
 40
10.07173676209268
100
AcDbArc
 50
242.1381080569409
 51
246.6876352671572
  0
ARC
  5
506
330
73F
100
AcDbEntity
  8
1
 62
     1
100
AcDbCircle
 10
22.83985458951793
 20
-4.967047318716388
 30
0.0
 40
6.409301508224612
100
AcDbArc
 50
95.53966092470927
 51
102.0666037835393
  0
ARC
  5
507
330
73F
100
AcDbEntity
  8
1
 62
     1
100
AcDbCircle
 10
25.62846116722245
 20
9.346435349911491
 30
0.0
 40
8.620895725908306
100
AcDbArc
 50
247.1361160896798
 51
252.2481151479862
  0
ARC
  5
508
330
73F
100
AcDbEntity
  8
1
 62
     1
100
AcDbCircle
 10
23.60167967496804
 20
-5.129975873872861
 30
0.0
 40
6.294858972320649
100
AcDbArc
 50
88.91268140857294
 51
95.4848651247183
  0
ARC
  5
509
330
73F
100
AcDbEntity
  8
1
 62
     1
100
AcDbCircle
 10
26.04425339062279
 20
8.393051041586216
 30
0.0
 40
7.585120534522197
100
AcDbArc
 50
252.6227754661361
 51
258.252964117416
  0
ARC
  5
50A
330
73F
100
AcDbEntity
  8
1
 62
     1
100
AcDbCircle
 10
24.35713620366459
 20
-5.4965494061273
 30
0.0
 40
6.464976488030987
100
AcDbArc
 50
82.31991767498834
 51
88.73376647272669
  0
ARC
  5
50B
330
73F
100
AcDbEntity
  8
1
 62
     1
100
AcDbCircle
 10
26.66963026635725
 20
7.769105435554885
 30
0.0
 40
7.00784594147603
100
AcDbArc
 50
258.5532043630757
 51
262.0748855361128
  0
ARC
  5
50C
330
73F
100
AcDbEntity
  8
1
 62
     1
100
AcDbCircle
 10
25.03699808676604
 20
-6.080328449151328
 30
0.0
 40
6.941146939415325
100
AcDbArc
 50
75.95825759247235
 51
82.0251533509081
  0
ARC
  5
50D
330
73F
100
AcDbEntity
  8
1
 62
     1
100
AcDbCircle
 10
27.37700480387508
 20
7.14985984638936
 30
0.0
 40
6.533777588855211
100
AcDbArc
 50
264.7474877681726
 51
271.0786365714636
  0
ARC
  5
50E
330
73F
100
AcDbEntity
  8
1
 62
     1
100
AcDbCircle
 10
25.56496801221395
 20
-6.898943468460866
 30
0.0
 40
7.7613276150721
100
AcDbArc
 50
69.98730780116625
 51
75.56287368278467
  0
ARC
  5
50F
330
73F
100
AcDbEntity
  8
1
 62
     1
100
AcDbCircle
 10
28.15371696768959
 20
6.82857609297837
 30
0.0
 40
6.446036766681608
100
AcDbArc
 50
271.1124729853199
 51
277.5440353828656
  0
ARC
  5
510
330
73F
100
AcDbEntity
  8
1
 62
     1
100
AcDbCircle
 10
25.8562065201493
 20
-7.974634446281784
 30
0.0
 40
8.981219061122839
100
AcDbArc
 50
64.51137868804081
 51
69.51016613058342
  0
ARC
  5
511
330
73F
100
AcDbEntity
  8
1
 62
     1
100
AcDbCircle
 10
28.92028694053147
 20
6.691989236485607
 30
0.0
 40
6.625430877506287
100
AcDbArc
 50
277.4458162793998
 51
283.7940663245165
  0
ARC
  5
512
330
73F
100
AcDbEntity
  8
1
 62
     1
100
AcDbCircle
 10
25.81506504095248
 20
-9.336130485014924
 30
0.0
 40
10.67660181331272
100
AcDbArc
 50
59.57930432506365
 51
63.97238990035972
  0
ARC
  5
513
330
73F
100
AcDbEntity
  8
1
 62
     1
100
AcDbCircle
 10
29.62005383433102
 20
6.732087954748861
 30
0.0
 40
7.068878831763591
100
AcDbArc
 50
283.5718294169317
 51
289.6747697780034
  0
ARC
  5
514
330
73F
100
AcDbEntity
  8
1
 62
     1
100
AcDbCircle
 10
25.33124902438664
 20
-11.02137201765492
 30
0.0
 40
12.94690218326092
100
AcDbArc
 50
55.19517787450022
 51
58.99687417477958
  0
ARC
  5
515
330
73F
100
AcDbEntity
  8
1
 62
     1
100
AcDbCircle
 10
30.20056576771271
 20
6.9429445693679
 30
0.0
 40
7.783070845205438
100
AcDbArc
 50
289.3458998785879
 51
295.0826825711413
  0
ARC
  5
516
330
73F
100
AcDbEntity
  8
1
 62
     1
100
AcDbCircle
 10
24.27495374981985
 20
-13.07990049739027
 30
0.0
 40
15.91917100800285
100
AcDbArc
 50
51.33308082570721
 51
54.58511483354146
  0
ARC
  5
517
330
73F
100
AcDbEntity
  8
1
 62
     1
100
AcDbCircle
 10
30.61352870179529
 20
7.319973777823366
 30
0.0
 40
8.78175728668398
100
AcDbArc
 50
294.6693415122631
 51
299.9668886260505
  0
ARC
  5
518
330
73F
100
AcDbEntity
  8
1
 62
     1
100
AcDbCircle
 10
22.48780492691871
 20
-15.5792078799974
 30
0.0
 40
19.75811496846063
100
AcDbArc
 50
47.95093789900778
 51
50.70831183564113
  0
ARC
  5
519
330
73F
100
AcDbEntity
  8
1
 62
     1
100
AcDbCircle
 10
30.81383247223648
 20
7.861315009250377
 30
0.0
 40
10.08534471266781
100
AcDbArc
 50
299.4919843302699
 51
304.3194525910033
  0
ARC
  5
51A
330
73F
100
AcDbEntity
  8
1
 62
     1
100
AcDbCircle
 10
19.77100012510716
 20
-18.61063655355424
 30
0.0
 40
24.67805782098064
100
AcDbArc
 50
44.99960568712199
 51
47.32105794806266
  0
LINE
  5
51B
330
73F
100
AcDbEntity
  8
1
 62
     1
100
AcDbLine
 10
38.0
 20
-0.4425815268762756
 30
0.0
 11
38.0
 21
-0.6467658192501605
 31
0.0
  0
LINE
  5
51C
330
73F
100
AcDbEntity
  8
1
 62
     1
100
AcDbLine
 10
38.0
 20
-2.413279585891299
 30
0.0
 11
37.82011989034713
 21
-2.650287216714133
 31
0.0
  0
LINE
  5
51D
330
73F
100
AcDbEntity
  8
1
 62
     1
100
AcDbLine
 10
37.82011989034713
 20
-2.650287216714133
 30
0.0
 11
37.63877139074399
 21
-2.908098892579726
 31
0.0
  0
LINE
  5
51E
330
73F
100
AcDbEntity
  8
1
 62
     1
100
AcDbLine
 10
37.63877139074399
 20
-2.908098892579726
 30
0.0
 11
37.27886752690355
 21
-3.478422824079325
 31
0.0
  0
LINE
  5
51F
330
73F
100
AcDbEntity
  8
1
 62
     1
100
AcDbLine
 10
35.77886752690355
 20
-3.332801930762392
 30
0.0
 11
35.95784477573535
 21
-3.047237081169431
 31
0.0
  0
LINE
  5
520
330
73F
100
AcDbEntity
  8
1
 62
     1
100
AcDbLine
 10
35.95784477573535
 20
-3.047237081169431
 30
0.0
 11
36.13878789475893
 21
-2.780539478797377
 31
0.0
  0
LINE
  5
521
330
73F
100
AcDbEntity
  8
1
 62
     1
100
AcDbLine
 10
36.13878789475893
 20
-2.780539478797377
 30
0.0
 11
36.32013051314841
 21
-2.534731133619676
 31
0.0
  0
LINE
  5
522
330
73F
100
AcDbEntity
  8
1
 62
     1
100
AcDbLine
 10
36.32013051314841
 20
-2.534731133619676
 30
0.0
 11
36.5
 21
-2.311473975056618
 31
0.0
  0
LINE
  5
523
330
73F
100
AcDbEntity
  8
1
 62
     1
100
AcDbLine
 10
34.27886752690355
 20
-3.173588238073767
 30
0.0
 11
34.45784475016013
 21
-2.897186001382442
 31
0.0
  0
LINE
  5
524
330
73F
100
AcDbEntity
  8
1
 62
     1
100
AcDbLine
 10
34.45784475016013
 20
-2.897186001382442
 30
0.0
 11
34.63878783466027
 21
-2.641665411065245
 31
0.0
  0
LINE
  5
525
330
73F
100
AcDbEntity
  8
1
 62
     1
100
AcDbLine
 10
34.63878783466027
 20
-2.641665411065245
 30
0.0
 11
34.82013045025334
 21
-2.408852729239141
 31
0.0
  0
LINE
  5
526
330
73F
100
AcDbEntity
  8
1
 62
     1
100
AcDbLine
 10
34.82013045025334
 20
-2.408852729239141
 30
0.0
 11
35.00000000000001
 21
-2.200240822192694
 31
0.0
  0
LINE
  5
527
330
73F
100
AcDbEntity
  8
1
 62
     1
100
AcDbLine
 10
34.27886752691897
 20
-3.173588238048916
 30
0.0
 11
34.22113247308103
 21
-3.167197014690123
 31
0.0
  0
LINE
  5
528
330
73F
100
AcDbEntity
  8
1
 62
     1
100
AcDbLine
 10
33.5
 20
-2.080035581205169
 30
0.0
 11
33.68414223844428
 21
-2.312311771983534
 31
0.0
  0
LINE
  5
529
330
73F
100
AcDbEntity
  8
1
 62
     1
100
AcDbLine
 10
33.68414223844428
 20
-2.312311771983534
 30
0.0
 11
33.86701289360627
 21
-2.574174170157608
 31
0.0
  0
LINE
  5
52A
330
73F
100
AcDbEntity
  8
1
 62
     1
100
AcDbLine
 10
33.86701289360627
 20
-2.574174170157608
 30
0.0
 11
34.04652522504302
 21
-2.860805655458692
 31
0.0
  0
LINE
  5
52B
330
73F
100
AcDbEntity
  8
1
 62
     1
100
AcDbLine
 10
34.04652522504302
 20
-2.860805655458692
 30
0.0
 11
34.22113247309645
 21
-3.167197017456884
 31
0.0
  0
LINE
  5
52C
330
73F
100
AcDbEntity
  8
1
 62
     1
100
AcDbLine
 10
32.77886752690453
 20
-3.001430144649103
 30
0.0
 11
32.95784477382881
 21
-2.735318111531128
 31
0.0
  0
LINE
  5
52D
330
73F
100
AcDbEntity
  8
1
 62
     1
100
AcDbLine
 10
32.95784477382881
 20
-2.735318111531128
 30
0.0
 11
33.13878786689397
 21
-2.492017275135316
 31
0.0
  0
LINE
  5
52E
330
73F
100
AcDbEntity
  8
1
 62
     1
100
AcDbLine
 10
33.13878786689397
 20
-2.492017275135316
 30
0.0
 11
33.32013046988762
 21
-2.27315058760502
 31
0.0
  0
LINE
  5
52F
330
73F
100
AcDbEntity
  8
1
 62
     1
100
AcDbLine
 10
33.32013046988762
 20
-2.27315058760502
 30
0.0
 11
33.5
 21
-2.080035581205168
 31
0.0
  0
LINE
  5
530
330
73F
100
AcDbEntity
  8
1
 62
     1
100
AcDbLine
 10
32.77886752691898
 20
-3.001430136377881
 30
0.0
 11
32.72113247308103
 21
-2.994554524978632
 31
0.0
  0
LINE
  5
531
330
73F
100
AcDbEntity
  8
1
 62
     1
100
AcDbLine
 10
31.27886752690454
 20
-2.817032703668644
 30
0.0
 11
31.45784477839713
 21
-2.562295872194877
 31
0.0
  0
LINE
  5
532
330
73F
100
AcDbEntity
  8
1
 62
     1
100
AcDbLine
 10
31.45784477839713
 20
-2.562295872194877
 30
0.0
 11
31.63878787371509
 21
-2.332206682496947
 31
0.0
  0
LINE
  5
533
330
73F
100
AcDbEntity
  8
1
 62
     1
100
AcDbLine
 10
31.63878787371509
 20
-2.332206682496947
 30
0.0
 11
31.82013047797334
 21
-2.128178295046256
 31
0.0
  0
LINE
  5
534
330
73F
100
AcDbEntity
  8
1
 62
     1
100
AcDbLine
 10
31.82013047797334
 20
-2.128178295046256
 30
0.0
 11
31.9103857817322
 21
-2.036298624552173
 31
0.0
  0
LINE
  5
535
330
73F
100
AcDbEntity
  8
1
 62
     1
100
AcDbLine
 10
31.9103857817322
 20
-2.036298624552173
 30
0.0
 11
32.0
 21
-1.951347705310864
 31
0.0
  0
LINE
  5
536
330
73F
100
AcDbEntity
  8
1
 62
     1
100
AcDbLine
 10
31.27886752691898
 20
-2.817032703646967
 30
0.0
 11
31.22113247308103
 21
-2.809700647573833
 31
0.0
  0
LINE
  5
537
330
73F
100
AcDbEntity
  8
1
 62
     1
100
AcDbLine
 10
30.5
 20
-1.81470169712562
 30
0.0
 11
30.59206919780992
 21
-1.911470400919032
 31
0.0
  0
LINE
  5
538
330
73F
100
AcDbEntity
  8
1
 62
     1
100
AcDbLine
 10
30.59206919780992
 20
-1.911470400919032
 30
0.0
 11
30.6841422000039
 21
-2.017240391021517
 31
0.0
  0
LINE
  5
539
330
73F
100
AcDbEntity
  8
1
 62
     1
100
AcDbLine
 10
30.6841422000039
 20
-2.017240391021517
 30
0.0
 11
30.77588316860274
 21
-2.131470700158796
 31
0.0
  0
LINE
  5
53A
330
73F
100
AcDbEntity
  8
1
 62
     1
100
AcDbLine
 10
30.77588316860274
 20
-2.131470700158796
 30
0.0
 11
30.9572947303106
 21
-2.383088463437239
 31
0.0
  0
LINE
  5
53B
330
73F
100
AcDbEntity
  8
1
 62
     1
100
AcDbLine
 10
30.9572947303106
 20
-2.383088463437239
 30
0.0
 11
31.09068810246904
 21
-2.589799059924916
 31
0.0
  0
LINE
  5
53C
330
73F
100
AcDbEntity
  8
1
 62
     1
100
AcDbLine
 10
31.09068810246904
 20
-2.589799059924916
 30
0.0
 11
31.22113247309547
 21
-2.809700648074393
 31
0.0
  0
LINE
  5
53D
330
73F
100
AcDbEntity
  8
1
 62
     1
100
AcDbLine
 10
29.77886752690454
 20
-2.621147235428943
 30
0.0
 11
29.9578447658817
 21
-2.378824283383989
 31
0.0
  0
LINE
  5
53E
330
73F
100
AcDbEntity
  8
1
 62
     1
100
AcDbLine
 10
29.9578447658817
 20
-2.378824283383989
 30
0.0
 11
30.1387878608414
 21
-2.162884958663934
 31
0.0
  0
LINE
  5
53F
330
73F
100
AcDbEntity
  8
1
 62
     1
100
AcDbLine
 10
30.1387878608414
 20
-2.162884958663934
 30
0.0
 11
30.22951661705372
 21
-2.065194471444351
 31
0.0
  0
LINE
  5
540
330
73F
100
AcDbEntity
  8
1
 62
     1
100
AcDbLine
 10
30.22951661705372
 20
-2.065194471444351
 30
0.0
 11
30.32013047121831
 21
-1.974526843124968
 31
0.0
  0
LINE
  5
541
330
73F
100
AcDbEntity
  8
1
 62
     1
100
AcDbLine
 10
30.32013047121831
 20
-1.974526843124968
 30
0.0
 11
30.41038577855636
 21
-1.890993258019963
 31
0.0
  0
LINE
  5
542
330
73F
100
AcDbEntity
  8
1
 62
     1
100
AcDbLine
 10
30.41038577855636
 20
-1.890993258019963
 30
0.0
 11
30.5
 21
-1.81470169712562
 31
0.0
  0
LINE
  5
543
330
73F
100
AcDbEntity
  8
1
 62
     1
100
AcDbLine
 10
29.77886752691897
 20
-2.621147235408196
 30
0.0
 11
29.72113247308105
 21
-2.613388688413352
 31
0.0
  0
LINE
  5
544
330
73F
100
AcDbEntity
  8
1
 62
     1
100
AcDbLine
 10
27.5
 20
-1.51979545365662
 30
0.0
 11
27.59206919602721
 21
-1.599610236701289
 31
0.0
  0
LINE
  5
545
330
73F
100
AcDbEntity
  8
1
 62
     1
100
AcDbLine
 10
27.59206919602721
 20
-1.599610236701289
 30
0.0
 11
27.6841421954502
 21
-1.689296212061249
 31
0.0
  0
LINE
  5
546
330
73F
100
AcDbEntity
  8
1
 62
     1
100
AcDbLine
 10
27.6841421954502
 20
-1.689296212061249
 30
0.0
 11
27.77588316054323
 21
-1.788365754425754
 31
0.0
  0
LINE
  5
547
330
73F
100
AcDbEntity
  8
1
 62
     1
100
AcDbLine
 10
27.77588316054323
 20
-1.788365754425754
 30
0.0
 11
27.86701282130061
 21
-1.896318835898979
 31
0.0
  0
LINE
  5
548
330
73F
100
AcDbEntity
  8
1
 62
     1
100
AcDbLine
 10
27.86701282130061
 20
-1.896318835898979
 30
0.0
 11
27.95729471716905
 21
-2.012640644850252
 31
0.0
  0
LINE
  5
549
330
73F
100
AcDbEntity
  8
1
 62
     1
100
AcDbLine
 10
27.95729471716905
 20
-2.012640644850252
 30
0.0
 11
28.04652516317215
 21
-2.136800353045903
 31
0.0
  0
LINE
  5
54A
330
73F
100
AcDbEntity
  8
1
 62
     1
100
AcDbLine
 10
28.04652516317215
 20
-2.136800353045903
 30
0.0
 11
28.22113247309484
 21
-2.406418376183883
 31
0.0
  0
LINE
  5
54B
330
73F
100
AcDbEntity
  8
1
 62
     1
100
AcDbLine
 10
26.7788675269065
 20
-2.198149912269228
 30
0.0
 11
26.86801846316131
 21
-2.08722696261301
 31
0.0
  0
LINE
  5
54C
330
73F
100
AcDbEntity
  8
1
 62
     1
100
AcDbLine
 10
26.86801846316131
 20
-2.08722696261301
 30
0.0
 11
26.95784477111742
 21
-1.983565142508066
 31
0.0
  0
LINE
  5
54D
330
73F
100
AcDbEntity
  8
1
 62
     1
100
AcDbLine
 10
26.95784477111742
 20
-1.983565142508066
 30
0.0
 11
27.0481630612823
 21
-1.887292665633923
 31
0.0
  0
LINE
  5
54E
330
73F
100
AcDbEntity
  8
1
 62
     1
100
AcDbLine
 10
27.0481630612823
 20
-1.887292665633923
 30
0.0
 11
27.13878786425647
 21
-1.798506418034414
 31
0.0
  0
LINE
  5
54F
330
73F
100
AcDbEntity
  8
1
 62
     1
100
AcDbLine
 10
27.13878786425647
 20
-1.798506418034414
 30
0.0
 11
27.22951661848806
 21
-1.717293265095889
 31
0.0
  0
LINE
  5
550
330
73F
100
AcDbEntity
  8
1
 62
     1
100
AcDbLine
 10
27.22951661848806
 20
-1.717293265095889
 30
0.0
 11
27.32013047096597
 21
-1.643726374909006
 31
0.0
  0
LINE
  5
551
330
73F
100
AcDbEntity
  8
1
 62
     1
100
AcDbLine
 10
27.32013047096597
 20
-1.643726374909006
 30
0.0
 11
27.4103857776889
 21
-1.577871522144998
 31
0.0
  0
LINE
  5
552
330
73F
100
AcDbEntity
  8
1
 62
     1
100
AcDbLine
 10
27.4103857776889
 20
-1.577871522144998
 30
0.0
 11
27.50000000000001
 21
-1.51979545365662
 31
0.0
  0
LINE
  5
553
330
73F
100
AcDbEntity
  8
1
 62
     1
100
AcDbLine
 10
26.77886752691899
 20
-2.198149912253097
 30
0.0
 11
26.72113247308105
 21
-2.189634857852813
 31
0.0
  0
LINE
  5
554
330
73F
100
AcDbEntity
  8
1
 62
     1
100
AcDbLine
 10
26.0
 20
-1.36273787296642
 30
0.0
 11
26.04600919087982
 21
-1.396844299409557
 31
0.0
  0
LINE
  5
555
330
73F
100
AcDbEntity
  8
1
 62
     1
100
AcDbLine
 10
26.04600919087982
 20
-1.396844299409557
 30
0.0
 11
26.13812529247873
 21
-1.472854759505031
 31
0.0
  0
LINE
  5
556
330
73F
100
AcDbEntity
  8
1
 62
     1
100
AcDbLine
 10
26.13812529247873
 20
-1.472854759505031
 30
0.0
 11
26.23006969120831
 21
-1.55888446174725
 31
0.0
  0
LINE
  5
557
330
73F
100
AcDbEntity
  8
1
 62
     1
100
AcDbLine
 10
26.23006969120831
 20
-1.55888446174725
 30
0.0
 11
26.321536779409
 21
-1.654469732887968
 31
0.0
  0
LINE
  5
558
330
73F
100
AcDbEntity
  8
1
 62
     1
100
AcDbLine
 10
26.321536779409
 20
-1.654469732887968
 30
0.0
 11
26.41227010407261
 21
-1.759132630194542
 31
0.0
  0
LINE
  5
559
330
73F
100
AcDbEntity
  8
1
 62
     1
100
AcDbLine
 10
26.41227010407261
 20
-1.759132630194542
 30
0.0
 11
26.50205062939686
 21
-1.872378861657074
 31
0.0
  0
LINE
  5
55A
330
73F
100
AcDbEntity
  8
1
 62
     1
100
AcDbLine
 10
26.50205062939686
 20
-1.872378861657074
 30
0.0
 11
26.59068810968951
 21
-1.9936967235341
 31
0.0
  0
LINE
  5
55B
330
73F
100
AcDbEntity
  8
1
 62
     1
100
AcDbLine
 10
26.59068810968951
 20
-1.9936967235341
 30
0.0
 11
26.72113247309352
 21
-2.189634858391134
 31
0.0
  0
LINE
  5
55C
330
73F
100
AcDbEntity
  8
1
 62
     1
100
AcDbLine
 10
25.27886752690649
 20
-1.972763470275982
 30
0.0
 11
25.36801845916003
 21
-1.869256248652754
 31
0.0
  0
LINE
  5
55D
330
73F
100
AcDbEntity
  8
1
 62
     1
100
AcDbLine
 10
25.36801845916003
 20
-1.869256248652754
 30
0.0
 11
25.45784476613646
 21
-1.773389560551744
 31
0.0
  0
LINE
  5
55E
330
73F
100
AcDbEntity
  8
1
 62
     1
100
AcDbLine
 10
25.45784476613646
 20
-1.773389560551744
 30
0.0
 11
25.54816305750455
 21
-1.685260068762404
 31
0.0
  0
LINE
  5
55F
330
73F
100
AcDbEntity
  8
1
 62
     1
100
AcDbLine
 10
25.54816305750455
 20
-1.685260068762404
 30
0.0
 11
25.63878786245142
 21
-1.604935478256474
 31
0.0
  0
LINE
  5
560
330
73F
100
AcDbEntity
  8
1
 62
     1
100
AcDbLine
 10
25.63878786245142
 20
-1.604935478256474
 30
0.0
 11
25.72951661842376
 21
-1.532474984776494
 31
0.0
  0
LINE
  5
561
330
73F
100
AcDbEntity
  8
1
 62
     1
100
AcDbLine
 10
25.72951661842376
 20
-1.532474984776494
 30
0.0
 11
25.82013047174454
 21
-1.467926301367006
 31
0.0
  0
LINE
  5
562
330
73F
100
AcDbEntity
  8
1
 62
     1
100
AcDbLine
 10
25.82013047174454
 20
-1.467926301367006
 30
0.0
 11
25.91038577832654
 21
-1.411332040863787
 31
0.0
  0
LINE
  5
563
330
73F
100
AcDbEntity
  8
1
 62
     1
100
AcDbLine
 10
25.91038577832654
 20
-1.411332040863787
 30
0.0
 11
26.0
 21
-1.36273787296642
 31
0.0
  0
LINE
  5
564
330
73F
100
AcDbEntity
  8
1
 62
     1
100
AcDbLine
 10
25.27886752691899
 20
-1.972763470260896
 30
0.0
 11
25.22113247308105
 21
-1.963921567873183
 31
0.0
  0
LINE
  5
565
330
73F
100
AcDbEntity
  8
1
 62
     1
100
AcDbLine
 10
24.5
 20
-1.200122694156219
 30
0.0
 11
24.54600919121661
 21
-1.229553654215542
 31
0.0
  0
LINE
  5
566
330
73F
100
AcDbEntity
  8
1
 62
     1
100
AcDbLine
 10
24.54600919121661
 20
-1.229553654215542
 30
0.0
 11
24.59206920062852
 21
-1.261682879396792
 31
0.0
  0
LINE
  5
567
330
73F
100
AcDbEntity
  8
1
 62
     1
100
AcDbLine
 10
24.59206920062852
 20
-1.261682879396792
 30
0.0
 11
24.6381252919639
 21
-1.296455429338926
 31
0.0
  0
LINE
  5
568
330
73F
100
AcDbEntity
  8
1
 62
     1
100
AcDbLine
 10
24.6381252919639
 20
-1.296455429338926
 30
0.0
 11
24.73006968788392
 21
-1.373725807093612
 31
0.0
  0
LINE
  5
569
330
73F
100
AcDbEntity
  8
1
 62
     1
100
AcDbLine
 10
24.73006968788392
 20
-1.373725807093612
 30
0.0
 11
24.82153677213615
 21
-1.460932625357879
 31
0.0
  0
LINE
  5
56A
330
73F
100
AcDbEntity
  8
1
 62
     1
100
AcDbLine
 10
24.82153677213615
 20
-1.460932625357879
 30
0.0
 11
24.91227009307157
 21
-1.557629024700807
 31
0.0
  0
LINE
  5
56B
330
73F
100
AcDbEntity
  8
1
 62
     1
100
AcDbLine
 10
24.91227009307157
 20
-1.557629024700807
 30
0.0
 11
25.00205061650552
 21
-1.663351051793555
 31
0.0
  0
LINE
  5
56C
330
73F
100
AcDbEntity
  8
1
 62
     1
100
AcDbLine
 10
25.00205061650552
 20
-1.663351051793555
 30
0.0
 11
25.09068809837541
 21
-1.777616343779536
 31
0.0
  0
LINE
  5
56D
330
73F
100
AcDbEntity
  8
1
 62
     1
100
AcDbLine
 10
25.09068809837541
 20
-1.777616343779536
 30
0.0
 11
25.22113247309352
 21
-1.96392157025377
 31
0.0
  0
LINE
  5
56E
330
73F
100
AcDbEntity
  8
1
 62
     1
100
AcDbLine
 10
23.77886752690709
 20
-1.739331559795354
 30
0.0
 11
23.86801846481475
 21
-1.643662317932518
 31
0.0
  0
LINE
  5
56F
330
73F
100
AcDbEntity
  8
1
 62
     1
100
AcDbLine
 10
23.86801846481475
 20
-1.643662317932518
 30
0.0
 11
23.95784477390061
 21
-1.555981818319621
 31
0.0
  0
LINE
  5
570
330
73F
100
AcDbEntity
  8
1
 62
     1
100
AcDbLine
 10
23.95784477390061
 20
-1.555981818319621
 30
0.0
 11
24.04816306473817
 21
-1.476354773315939
 31
0.0
  0
LINE
  5
571
330
73F
100
AcDbEntity
  8
1
 62
     1
100
AcDbLine
 10
24.04816306473817
 20
-1.476354773315939
 30
0.0
 11
24.13878786731524
 21
-1.404819430354224
 31
0.0
  0
LINE
  5
572
330
73F
100
AcDbEntity
  8
1
 62
     1
100
AcDbLine
 10
24.13878786731524
 20
-1.404819430354224
 30
0.0
 11
24.22951662034797
 21
-1.341407078441258
 31
0.0
  0
LINE
  5
573
330
73F
100
AcDbEntity
  8
1
 62
     1
100
AcDbLine
 10
24.22951662034797
 20
-1.341407078441258
 30
0.0
 11
24.32013047134726
 21
-1.286139789785831
 31
0.0
  0
LINE
  5
574
330
73F
100
AcDbEntity
  8
1
 62
     1
100
AcDbLine
 10
24.32013047134726
 20
-1.286139789785831
 30
0.0
 11
24.41038577718206
 21
-1.239036854325823
 31
0.0
  0
LINE
  5
575
330
73F
100
AcDbEntity
  8
1
 62
     1
100
AcDbLine
 10
24.41038577718206
 20
-1.239036854325823
 30
0.0
 11
24.45529141021045
 21
-1.218554856861908
 31
0.0
  0
LINE
  5
576
330
73F
100
AcDbEntity
  8
1
 62
     1
100
AcDbLine
 10
24.45529141021045
 20
-1.218554856861908
 30
0.0
 11
24.5
 21
-1.200122694156219
 31
0.0
  0
LINE
  5
577
330
73F
100
AcDbEntity
  8
1
 62
     1
100
AcDbLine
 10
23.77886752691899
 20
-1.739331559782008
 30
0.0
 11
23.72113247308103
 21
-1.730198792260279
 31
0.0
  0
LINE
  5
578
330
73F
100
AcDbEntity
  8
1
 62
     1
100
AcDbLine
 10
22.27886752691217
 20
-1.498807017282951
 30
0.0
 11
22.36801846029195
 21
-1.411365748467384
 31
0.0
  0
LINE
  5
579
330
73F
100
AcDbEntity
  8
1
 62
     1
100
AcDbLine
 10
22.36801846029195
 20
-1.411365748467384
 30
0.0
 11
22.45784476651097
 21
-1.332228869353903
 31
0.0
  0
LINE
  5
57A
330
73F
100
AcDbEntity
  8
1
 62
     1
100
AcDbLine
 10
22.45784476651097
 20
-1.332228869353903
 30
0.0
 11
22.54816305684343
 21
-1.261428890664584
 31
0.0
  0
LINE
  5
57B
330
73F
100
AcDbEntity
  8
1
 62
     1
100
AcDbLine
 10
22.54816305684343
 20
-1.261428890664584
 30
0.0
 11
22.63878786069518
 21
-1.198974454053046
 31
0.0
  0
LINE
  5
57C
330
73F
100
AcDbEntity
  8
1
 62
     1
100
AcDbLine
 10
22.63878786069518
 20
-1.198974454053046
 30
0.0
 11
22.72951661608283
 21
-1.144868817151122
 31
0.0
  0
LINE
  5
57D
330
73F
100
AcDbEntity
  8
1
 62
     1
100
AcDbLine
 10
22.72951661608283
 20
-1.144868817151122
 30
0.0
 11
22.77485319116144
 21
-1.12094554479731
 31
0.0
  0
LINE
  5
57E
330
73F
100
AcDbEntity
  8
1
 62
     1
100
AcDbLine
 10
22.77485319116144
 20
-1.12094554479731
 30
0.0
 11
22.82013046958093
 21
-1.099108319437483
 31
0.0
  0
LINE
  5
57F
330
73F
100
AcDbEntity
  8
1
 62
     1
100
AcDbLine
 10
22.82013046958093
 20
-1.099108319437483
 30
0.0
 11
22.86531900896689
 21
-1.079356373511048
 31
0.0
  0
LINE
  5
580
330
73F
100
AcDbEntity
  8
1
 62
     1
100
AcDbLine
 10
22.86531900896689
 20
-1.079356373511048
 30
0.0
 11
22.9103857771455
 21
-1.061688842948834
 31
0.0
  0
LINE
  5
581
330
73F
100
AcDbEntity
  8
1
 62
     1
100
AcDbLine
 10
22.9103857771455
 20
-1.061688842948834
 30
0.0
 11
22.95529141049883
 21
-1.046107929925814
 31
0.0
  0
LINE
  5
582
330
73F
100
AcDbEntity
  8
1
 62
     1
100
AcDbLine
 10
22.95529141049883
 20
-1.046107929925814
 30
0.0
 11
23.0
 21
-1.032613452386861
 31
0.0
  0
LINE
  5
583
330
73F
100
AcDbEntity
  8
1
 62
     1
100
AcDbLine
 10
22.27886752691897
 20
-1.49880701727592
 30
0.0
 11
22.22113247308102
 21
-1.489420664652149
 31
0.0
  0
LINE
  5
584
330
73F
100
AcDbEntity
  8
1
 62
     1
100
AcDbLine
 10
20.77886752691217
 20
-1.25216954695026
 30
0.0
 11
20.86801845969062
 21
-1.173312927179938
 31
0.0
  0
LINE
  5
585
330
73F
100
AcDbEntity
  8
1
 62
     1
100
AcDbLine
 10
20.86801845969062
 20
-1.173312927179938
 30
0.0
 11
20.95784476679353
 21
-1.103042496118652
 31
0.0
  0
LINE
  5
586
330
73F
100
AcDbEntity
  8
1
 62
     1
100
AcDbLine
 10
20.95784476679353
 20
-1.103042496118652
 30
0.0
 11
21.04816305855825
 21
-1.041358418036435
 31
0.0
  0
LINE
  5
587
330
73F
100
AcDbEntity
  8
1
 62
     1
100
AcDbLine
 10
21.04816305855825
 20
-1.041358418036435
 30
0.0
 11
21.09345170700277
 21
-1.013728519299045
 31
0.0
  0
LINE
  5
588
330
73F
100
AcDbEntity
  8
1
 62
     1
100
AcDbLine
 10
21.09345170700277
 20
-1.013728519299045
 30
0.0
 11
21.13878786320523
 21
-0.988239681040126
 31
0.0
  0
LINE
  5
589
330
73F
100
AcDbEntity
  8
1
 62
     1
100
AcDbLine
 10
21.13878786320523
 20
-0.988239681040126
 30
0.0
 11
21.18415412935024
 21
-0.9648841291872535
 31
0.0
  0
LINE
  5
58A
330
73F
100
AcDbEntity
  8
1
 62
     1
100
AcDbLine
 10
21.18415412935024
 20
-0.9648841291872535
 30
0.0
 11
21.22951661830034
 21
-0.9436614859793943
 31
0.0
  0
LINE
  5
58B
330
73F
100
AcDbEntity
  8
1
 62
     1
100
AcDbLine
 10
21.22951661830034
 20
-0.9436614859793943
 30
0.0
 11
21.27485319298098
 21
-0.9245657714133102
 31
0.0
  0
LINE
  5
58C
330
73F
100
AcDbEntity
  8
1
 62
     1
100
AcDbLine
 10
21.27485319298098
 20
-0.9245657714133102
 30
0.0
 11
21.32013047062026
 21
-0.9075944437071903
 31
0.0
  0
LINE
  5
58D
330
73F
100
AcDbEntity
  8
1
 62
     1
100
AcDbLine
 10
21.32013047062026
 20
-0.9075944437071903
 30
0.0
 11
21.36531900950121
 21
-0.8927440106971054
 31
0.0
  0
LINE
  5
58E
330
73F
100
AcDbEntity
  8
1
 62
     1
100
AcDbLine
 10
21.36531900950121
 20
-0.8927440106971054
 30
0.0
 11
21.41038577703756
 21
-0.880011038895952
 31
0.0
  0
LINE
  5
58F
330
73F
100
AcDbEntity
  8
1
 62
     1
100
AcDbLine
 10
21.41038577703756
 20
-0.880011038895952
 30
0.0
 11
21.45529141025664
 21
-0.8693947428531577
 31
0.0
  0
LINE
  5
590
330
73F
100
AcDbEntity
  8
1
 62
     1
100
AcDbLine
 10
21.45529141025664
 20
-0.8693947428531577
 30
0.0
 11
21.5
 21
-0.8608929651988125
 31
0.0
  0
LINE
  5
591
330
73F
100
AcDbEntity
  8
1
 62
     1
100
AcDbLine
 10
20.77886752691897
 20
-1.252169546943864
 30
0.0
 11
20.72113247308102
 21
-1.242567925798859
 31
0.0
  0
LINE
  5
592
330
73F
100
AcDbEntity
  8
1
 62
     1
100
AcDbLine
 10
19.27886752691219
 20
-1.00042580518881
 30
0.0
 11
19.36801846362032
 21
-0.9304754727682965
 31
0.0
  0
LINE
  5
593
330
73F
100
AcDbEntity
  8
1
 62
     1
100
AcDbLine
 10
19.36801846362032
 20
-0.9304754727682965
 30
0.0
 11
19.4128625565708
 21
-0.8988109166506632
 31
0.0
  0
LINE
  5
594
330
73F
100
AcDbEntity
  8
1
 62
     1
100
AcDbLine
 10
19.4128625565708
 20
-0.8988109166506632
 30
0.0
 11
19.4578447710394
 21
-0.8693580633916793
 31
0.0
  0
LINE
  5
595
330
73F
100
AcDbEntity
  8
1
 62
     1
100
AcDbLine
 10
19.4578447710394
 20
-0.8693580633916793
 30
0.0
 11
19.5029557015982
 21
-0.842101534847095
 31
0.0
  0
LINE
  5
596
330
73F
100
AcDbEntity
  8
1
 62
     1
100
AcDbLine
 10
19.5029557015982
 20
-0.842101534847095
 30
0.0
 11
19.54816306137165
 21
-0.817041401369704
 31
0.0
  0
LINE
  5
597
330
73F
100
AcDbEntity
  8
1
 62
     1
100
AcDbLine
 10
19.54816306137165
 20
-0.817041401369704
 30
0.0
 11
19.59345170880839
 21
-0.7941665563442522
 31
0.0
  0
LINE
  5
598
330
73F
100
AcDbEntity
  8
1
 62
     1
100
AcDbLine
 10
19.59345170880839
 20
-0.7941665563442522
 30
0.0
 11
19.63878786396857
 21
-0.7734749192830651
 31
0.0
  0
LINE
  5
599
330
73F
100
AcDbEntity
  8
1
 62
     1
100
AcDbLine
 10
19.63878786396857
 20
-0.7734749192830651
 30
0.0
 11
19.68415412931305
 21
-0.754956156701484
 31
0.0
  0
LINE
  5
59A
330
73F
100
AcDbEntity
  8
1
 62
     1
100
AcDbLine
 10
19.68415412931305
 20
-0.754956156701484
 30
0.0
 11
19.72951661751232
 21
-0.738605879101355
 31
0.0
  0
LINE
  5
59B
330
73F
100
AcDbEntity
  8
1
 62
     1
100
AcDbLine
 10
19.72951661751232
 20
-0.738605879101355
 30
0.0
 11
19.77485319193707
 21
-0.724415557217556
 31
0.0
  0
LINE
  5
59C
330
73F
100
AcDbEntity
  8
1
 62
     1
100
AcDbLine
 10
19.77485319193707
 20
-0.724415557217556
 30
0.0
 11
19.8201304692985
 21
-0.7123793022655761
 31
0.0
  0
LINE
  5
59D
330
73F
100
AcDbEntity
  8
1
 62
     1
100
AcDbLine
 10
19.8201304692985
 20
-0.7123793022655761
 30
0.0
 11
19.86531900846996
 21
-0.7024909136133885
 31
0.0
  0
LINE
  5
59E
330
73F
100
AcDbEntity
  8
1
 62
     1
100
AcDbLine
 10
19.86531900846996
 20
-0.7024909136133885
 30
0.0
 11
19.91038577617381
 21
-0.6947444035075793
 31
0.0
  0
LINE
  5
59F
330
73F
100
AcDbEntity
  8
1
 62
     1
100
AcDbLine
 10
19.91038577617381
 20
-0.6947444035075793
 30
0.0
 11
19.95529140987326
 21
-0.689136003231809
 31
0.0
  0
LINE
  5
5A0
330
73F
100
AcDbEntity
  8
1
 62
     1
100
AcDbLine
 10
19.95529140987326
 20
-0.689136003231809
 30
0.0
 11
20.00000000000001
 21
-0.6856615894354827
 31
0.0
  0
LINE
  5
5A1
330
73F
100
AcDbEntity
  8
1
 62
     1
100
AcDbLine
 10
19.27886752691899
 20
-1.000425805183116
 30
0.0
 11
19.22113247308105
 21
-0.9906479768396135
 31
0.0
  0
LINE
  5
5A2
330
73F
100
AcDbEntity
  8
1
 62
     1
100
AcDbLine
 10
18.5
 20
-0.5076341683832613
 30
0.0
 11
18.54600918971999
 21
-0.5173604434151815
 31
0.0
  0
LINE
  5
5A3
330
73F
100
AcDbEntity
  8
1
 62
     1
100
AcDbLine
 10
18.54600918971999
 20
-0.5173604434151815
 30
0.0
 11
18.59206919792946
 21
-0.5299893952491165
 31
0.0
  0
LINE
  5
5A4
330
73F
100
AcDbEntity
  8
1
 62
     1
100
AcDbLine
 10
18.59206919792946
 20
-0.5299893952491165
 30
0.0
 11
18.63812528859921
 21
-0.5454860739573161
 31
0.0
  0
LINE
  5
5A5
330
73F
100
AcDbEntity
  8
1
 62
     1
100
AcDbLine
 10
18.63812528859921
 20
-0.5454860739573161
 30
0.0
 11
18.68414220085227
 21
-0.5638169585736864
 31
0.0
  0
LINE
  5
5A6
330
73F
100
AcDbEntity
  8
1
 62
     1
100
AcDbLine
 10
18.68414220085227
 20
-0.5638169585736864
 30
0.0
 11
18.73006968486943
 21
-0.5849432631237733
 31
0.0
  0
LINE
  5
5A7
330
73F
100
AcDbEntity
  8
1
 62
     1
100
AcDbLine
 10
18.73006968486943
 20
-0.5849432631237733
 30
0.0
 11
18.77588317041156
 21
-0.6088328533464048
 31
0.0
  0
LINE
  5
5A8
330
73F
100
AcDbEntity
  8
1
 62
     1
100
AcDbLine
 10
18.77588317041156
 20
-0.6088328533464048
 30
0.0
 11
18.82153677162613
 21
-0.6354421708669984
 31
0.0
  0
LINE
  5
5A9
330
73F
100
AcDbEntity
  8
1
 62
     1
100
AcDbLine
 10
18.82153677162613
 20
-0.6354421708669984
 30
0.0
 11
18.86701283536028
 21
-0.664739698940598
 31
0.0
  0
LINE
  5
5AA
330
73F
100
AcDbEntity
  8
1
 62
     1
100
AcDbLine
 10
18.86701283536028
 20
-0.664739698940598
 30
0.0
 11
18.91227009623071
 21
-0.6966771531924638
 31
0.0
  0
LINE
  5
5AB
330
73F
100
AcDbEntity
  8
1
 62
     1
100
AcDbLine
 10
18.91227009623071
 20
-0.6966771531924638
 30
0.0
 11
18.95729473351069
 21
-0.7312223616662567
 31
0.0
  0
LINE
  5
5AC
330
73F
100
AcDbEntity
  8
1
 62
     1
100
AcDbLine
 10
18.95729473351069
 20
-0.7312223616662567
 30
0.0
 11
19.00205062296678
 21
-0.7683232047946163
 31
0.0
  0
LINE
  5
5AD
330
73F
100
AcDbEntity
  8
1
 62
     1
100
AcDbLine
 10
19.00205062296678
 20
-0.7683232047946163
 30
0.0
 11
19.09068810609253
 21
-0.8500336940895452
 31
0.0
  0
LINE
  5
5AE
330
73F
100
AcDbEntity
  8
1
 62
     1
100
AcDbLine
 10
19.09068810609253
 20
-0.8500336940895452
 30
0.0
 11
19.15631625547902
 21
-0.9177020983056213
 31
0.0
  0
LINE
  5
5AF
330
73F
100
AcDbEntity
  8
1
 62
     1
100
AcDbLine
 10
19.15631625547902
 20
-0.9177020983056213
 30
0.0
 11
19.22113247308783
 21
-0.9906479753935133
 31
0.0
  0
LINE
  5
5B0
330
73F
100
AcDbEntity
  8
1
 62
     1
100
AcDbLine
 10
17.77886752691218
 20
-0.7446024125041911
 30
0.0
 11
17.82333904504638
 21
-0.713094475650589
 31
0.0
  0
LINE
  5
5B1
330
73F
100
AcDbEntity
  8
1
 62
     1
100
AcDbLine
 10
17.82333904504638
 20
-0.713094475650589
 30
0.0
 11
17.86801558082974
 21
-0.6838453006652731
 31
0.0
  0
LINE
  5
5B2
330
73F
100
AcDbEntity
  8
1
 62
     1
100
AcDbLine
 10
17.86801558082974
 20
-0.6838453006652731
 30
0.0
 11
17.91285821926505
 21
-0.6568586741274746
 31
0.0
  0
LINE
  5
5B3
330
73F
100
AcDbEntity
  8
1
 62
     1
100
AcDbLine
 10
17.91285821926505
 20
-0.6568586741274746
 30
0.0
 11
17.95784107946591
 21
-0.6321305487699132
 31
0.0
  0
LINE
  5
5B4
330
73F
100
AcDbEntity
  8
1
 62
     1
100
AcDbLine
 10
17.95784107946591
 20
-0.6321305487699132
 30
0.0
 11
18.00296036713646
 21
-0.6096406718635209
 31
0.0
  0
LINE
  5
5B5
330
73F
100
AcDbEntity
  8
1
 62
     1
100
AcDbLine
 10
18.00296036713646
 20
-0.6096406718635209
 30
0.0
 11
18.04817934842726
 21
-0.5893856677233856
 31
0.0
  0
LINE
  5
5B6
330
73F
100
AcDbEntity
  8
1
 62
     1
100
AcDbLine
 10
18.04817934842726
 20
-0.5893856677233856
 30
0.0
 11
18.09346327140299
 21
-0.5713614420288839
 31
0.0
  0
LINE
  5
5B7
330
73F
100
AcDbEntity
  8
1
 62
     1
100
AcDbLine
 10
18.09346327140299
 20
-0.5713614420288839
 30
0.0
 11
18.13880215658228
 21
-0.5555512224497026
 31
0.0
  0
LINE
  5
5B8
330
73F
100
AcDbEntity
  8
1
 62
     1
100
AcDbLine
 10
18.13880215658228
 20
-0.5555512224497026
 30
0.0
 11
18.18416333465972
 21
-0.5419466780841374
 31
0.0
  0
LINE
  5
5B9
330
73F
100
AcDbEntity
  8
1
 62
     1
100
AcDbLine
 10
18.18416333465972
 20
-0.5419466780841374
 30
0.0
 11
18.22952727113056
 21
-0.5305358235354511
 31
0.0
  0
LINE
  5
5BA
330
73F
100
AcDbEntity
  8
1
 62
     1
100
AcDbLine
 10
18.22952727113056
 20
-0.5305358235354511
 30
0.0
 11
18.27486039201592
 21
-0.5213096694699106
 31
0.0
  0
LINE
  5
5BB
330
73F
100
AcDbEntity
  8
1
 62
     1
100
AcDbLine
 10
18.27486039201592
 20
-0.5213096694699106
 30
0.0
 11
18.32013710648744
 21
-0.5142582614693018
 31
0.0
  0
LINE
  5
5BC
330
73F
100
AcDbEntity
  8
1
 62
     1
100
AcDbLine
 10
18.32013710648744
 20
-0.5142582614693018
 30
0.0
 11
18.3653244653119
 21
-0.5093724902576203
 31
0.0
  0
LINE
  5
5BD
330
73F
100
AcDbEntity
  8
1
 62
     1
100
AcDbLine
 10
18.3653244653119
 20
-0.5093724902576203
 30
0.0
 11
18.41038840453172
 21
-0.5066445790871974
 31
0.0
  0
LINE
  5
5BE
330
73F
100
AcDbEntity
  8
1
 62
     1
100
AcDbLine
 10
18.41038840453172
 20
-0.5066445790871974
 30
0.0
 11
18.45529563259396
 21
-0.5060670525115525
 31
0.0
  0
LINE
  5
5BF
330
73F
100
AcDbEntity
  8
1
 62
     1
100
AcDbLine
 10
18.45529563259396
 20
-0.5060670525115525
 30
0.0
 11
18.50000000000001
 21
-0.507634168383261
 31
0.0
  0
LINE
  5
5C0
330
73F
100
AcDbEntity
  8
1
 62
     1
100
AcDbLine
 10
17.77886752691898
 20
-0.744602412499188
 30
0.0
 11
17.72113247308103
 21
-0.7346883426950591
 31
0.0
  0
LINE
  5
5C1
330
73F
100
AcDbEntity
  8
1
 62
     1
100
AcDbLine
 10
16.27886752691218
 20
-0.4857418121216914
 30
0.0
 11
16.32058199186502
 21
-0.460520351590531
 31
0.0
  0
LINE
  5
5C2
330
73F
100
AcDbEntity
  8
1
 62
     1
100
AcDbLine
 10
16.32058199186502
 20
-0.460520351590531
 30
0.0
 11
16.36247901512787
 21
-0.4373301742861759
 31
0.0
  0
LINE
  5
5C3
330
73F
100
AcDbEntity
  8
1
 62
     1
100
AcDbLine
 10
16.36247901512787
 20
-0.4373301742861759
 30
0.0
 11
16.40452646515337
 21
-0.41616952731256
 31
0.0
  0
LINE
  5
5C4
330
73F
100
AcDbEntity
  8
1
 62
     1
100
AcDbLine
 10
16.40452646515337
 20
-0.41616952731256
 30
0.0
 11
16.44669784343252
 21
-0.3970339372127053
 31
0.0
  0
LINE
  5
5C5
330
73F
100
AcDbEntity
  8
1
 62
     1
100
AcDbLine
 10
16.44669784343252
 20
-0.3970339372127053
 30
0.0
 11
16.48899405560565
 21
-0.3799040181483095
 31
0.0
  0
LINE
  5
5C6
330
73F
100
AcDbEntity
  8
1
 62
     1
100
AcDbLine
 10
16.48899405560565
 20
-0.3799040181483095
 30
0.0
 11
16.53138853090149
 21
-0.3647710768795432
 31
0.0
  0
LINE
  5
5C7
330
73F
100
AcDbEntity
  8
1
 62
     1
100
AcDbLine
 10
16.53138853090149
 20
-0.3647710768795432
 30
0.0
 11
16.57384935713717
 21
-0.3516288204084959
 31
0.0
  0
LINE
  5
5C8
330
73F
100
AcDbEntity
  8
1
 62
     1
100
AcDbLine
 10
16.57384935713717
 20
-0.3516288204084959
 30
0.0
 11
16.61636218651413
 21
-0.3404646169108417
 31
0.0
  0
LINE
  5
5C9
330
73F
100
AcDbEntity
  8
1
 62
     1
100
AcDbLine
 10
16.61636218651413
 20
-0.3404646169108417
 30
0.0
 11
16.65891098199774
 21
-0.3312647335218271
 31
0.0
  0
LINE
  5
5CA
330
73F
100
AcDbEntity
  8
1
 62
     1
100
AcDbLine
 10
16.65891098199774
 20
-0.3312647335218271
 30
0.0
 11
16.7014692053785
 21
-0.3240194593100767
 31
0.0
  0
LINE
  5
5CB
330
73F
100
AcDbEntity
  8
1
 62
     1
100
AcDbLine
 10
16.7014692053785
 20
-0.3240194593100767
 30
0.0
 11
16.74402171990421
 21
-0.3187163554413245
 31
0.0
  0
LINE
  5
5CC
330
73F
100
AcDbEntity
  8
1
 62
     1
100
AcDbLine
 10
16.74402171990421
 20
-0.3187163554413245
 30
0.0
 11
16.78653700751321
 21
-0.3153458104063575
 31
0.0
  0
LINE
  5
5CD
330
73F
100
AcDbEntity
  8
1
 62
     1
100
AcDbLine
 10
16.78653700751321
 20
-0.3153458104063575
 30
0.0
 11
16.82899813450774
 21
-0.3138971475503617
 31
0.0
  0
LINE
  5
5CE
330
73F
100
AcDbEntity
  8
1
 62
     1
100
AcDbLine
 10
16.82899813450774
 20
-0.3138971475503617
 30
0.0
 11
16.87137284419693
 21
-0.3143608647688239
 31
0.0
  0
LINE
  5
5CF
330
73F
100
AcDbEntity
  8
1
 62
     1
100
AcDbLine
 10
16.87137284419693
 20
-0.3143608647688239
 30
0.0
 11
16.91363662988521
 21
-0.3167284085017587
 31
0.0
  0
LINE
  5
5D0
330
73F
100
AcDbEntity
  8
1
 62
     1
100
AcDbLine
 10
16.91363662988521
 20
-0.3167284085017587
 30
0.0
 11
16.95575935137349
 21
-0.3209919059598613
 31
0.0
  0
LINE
  5
5D1
330
73F
100
AcDbEntity
  8
1
 62
     1
100
AcDbLine
 10
14.77886752691218
 20
-0.224900984134181
 30
0.0
 11
14.81460302845226
 21
-0.2070218737125265
 31
0.0
  0
LINE
  5
5D2
330
73F
100
AcDbEntity
  8
1
 62
     1
100
AcDbLine
 10
14.81460302845226
 20
-0.2070218737125265
 30
0.0
 11
14.85047597062672
 21
-0.1906610402968981
 31
0.0
  0
LINE
  5
5D3
330
73F
100
AcDbEntity
  8
1
 62
     1
100
AcDbLine
 10
14.85047597062672
 20
-0.1906610402968981
 30
0.0
 11
14.88646613243482
 21
-0.17581431600016
 31
0.0
  0
LINE
  5
5D4
330
73F
100
AcDbEntity
  8
1
 62
     1
100
AcDbLine
 10
14.88646613243482
 20
-0.17581431600016
 30
0.0
 11
14.92255329287578
 21
-0.1624775329351765
 31
0.0
  0
LINE
  5
5D5
330
73F
100
AcDbEntity
  8
1
 62
     1
100
AcDbLine
 10
14.92255329287578
 20
-0.1624775329351765
 30
0.0
 11
14.95873098924047
 21
-0.1506412778102059
 31
0.0
  0
LINE
  5
5D6
330
73F
100
AcDbEntity
  8
1
 62
     1
100
AcDbLine
 10
14.95873098924047
 20
-0.1506412778102059
 30
0.0
 11
14.99499751600449
 21
-0.1402927897562586
 31
0.0
  0
LINE
  5
5D7
330
73F
100
AcDbEntity
  8
1
 62
     1
100
AcDbLine
 10
14.99499751600449
 20
-0.1402927897562586
 30
0.0
 11
15.03133288238426
 21
-0.1314253272906977
 31
0.0
  0
LINE
  5
5D8
330
73F
100
AcDbEntity
  8
1
 62
     1
100
AcDbLine
 10
15.03133288238426
 20
-0.1314253272906977
 30
0.0
 11
15.067717002495
 21
-0.1240321827420222
 31
0.0
  0
LINE
  5
5D9
330
73F
100
AcDbEntity
  8
1
 62
     1
100
AcDbLine
 10
15.067717002495
 20
-0.1240321827420222
 30
0.0
 11
15.10413885686453
 21
-0.1181044878180142
 31
0.0
  0
LINE
  5
5DA
330
73F
100
AcDbEntity
  8
1
 62
     1
100
AcDbLine
 10
15.10413885686453
 20
-0.1181044878180142
 30
0.0
 11
15.1405937652119
 21
-0.1136311382006489
 31
0.0
  0
LINE
  5
5DB
330
73F
100
AcDbEntity
  8
1
 62
     1
100
AcDbLine
 10
15.1405937652119
 20
-0.1136311382006489
 30
0.0
 11
15.17706155797402
 21
-0.1106042114484918
 31
0.0
  0
LINE
  5
5DC
330
73F
100
AcDbEntity
  8
1
 62
     1
100
AcDbLine
 10
15.17706155797402
 20
-0.1106042114484918
 30
0.0
 11
15.21353335746249
 21
-0.1090148959187726
 31
0.0
  0
LINE
  5
5DD
330
73F
100
AcDbEntity
  8
1
 62
     1
100
AcDbLine
 10
15.21353335746249
 20
-0.1090148959187726
 30
0.0
 11
15.24999468584839
 21
-0.1088545606539592
 31
0.0
  0
LINE
  5
5DE
330
73F
100
AcDbEntity
  8
1
 62
     1
100
AcDbLine
 10
15.24999468584839
 20
-0.1088545606539592
 30
0.0
 11
15.28642556099845
 21
-0.1101151338543309
 31
0.0
  0
LINE
  5
5DF
330
73F
100
AcDbEntity
  8
1
 62
     1
100
AcDbLine
 10
15.28642556099845
 20
-0.1101151338543309
 30
0.0
 11
15.32281743057713
 21
-0.1127890367467425
 31
0.0
  0
LINE
  5
5E0
330
73F
100
AcDbEntity
  8
1
 62
     1
100
AcDbLine
 10
15.32281743057713
 20
-0.1127890367467425
 30
0.0
 11
15.35914981102775
 21
-0.1168684951704946
 31
0.0
  0
LINE
  5
5E1
330
73F
100
AcDbEntity
  8
1
 62
     1
100
AcDbLine
 10
14.59
 20
-4.052093904129572
 30
0.0
 11
14.59
 21
-2.358412157526506
 31
0.0
  0
LINE
  5
5E2
330
73F
100
AcDbEntity
  8
1
 62
     1
100
AcDbLine
 10
14.77886752691897
 20
-4.056988571983303
 30
0.0
 11
14.59
 21
-4.052093904129574
 31
0.0
  0
LINE
  5
5E3
330
73F
100
AcDbEntity
  8
1
 62
     1
100
AcDbLine
 10
14.77886752691218
 20
-4.056988571995126
 30
0.0
 11
15.50000000000001
 21
-2.790907304357684
 31
0.0
  0
LINE
  5
5E4
330
73F
100
AcDbEntity
  8
1
 62
     1
100
AcDbLine
 10
16.27886752691896
 20
-4.086522565133347
 30
0.0
 11
16.22113247308103
 21
-4.085693623068748
 31
0.0
  0
LINE
  5
5E5
330
73F
100
AcDbEntity
  8
1
 62
     1
100
AcDbLine
 10
17.0
 20
-2.822369642810468
 30
0.0
 11
17.72113247308782
 21
-4.09920510084793
 31
0.0
  0
LINE
  5
5E6
330
73F
100
AcDbEntity
  8
1
 62
     1
100
AcDbLine
 10
17.77886752691897
 20
-4.099391183378648
 30
0.0
 11
17.72113247308103
 21
-4.09920509624236
 31
0.0
  0
LINE
  5
5E7
330
73F
100
AcDbEntity
  8
1
 62
     1
100
AcDbLine
 10
18.5
 20
-2.842321982421151
 30
0.0
 11
18.91243824871122
 21
-3.565326168680277
 31
0.0
  0
LINE
  5
5E8
330
73F
100
AcDbEntity
  8
1
 62
     1
100
AcDbLine
 10
18.91243824871122
 20
-3.565326168680277
 30
0.0
 11
19.22113247308782
 21
-4.095999442209629
 31
0.0
  0
LINE
  5
5E9
330
73F
100
AcDbEntity
  8
1
 62
     1
100
AcDbLine
 10
19.27886752691896
 20
-4.095541906102331
 30
0.0
 11
19.22113247308103
 21
-4.095999442198028
 31
0.0
  0
LINE
  5
5EA
330
73F
100
AcDbEntity
  8
1
 62
     1
100
AcDbLine
 10
20.0
 20
-2.850682953948555
 30
0.0
 11
19.89232593163096
 21
-3.037459370118606
 31
0.0
  0
LINE
  5
5EB
330
73F
100
AcDbEntity
  8
1
 62
     1
100
AcDbLine
 10
20.0
 20
-2.850682953948555
 30
0.0
 11
20.06369761695446
 21
-2.961289957445965
 31
0.0
  0
LINE
  5
5EC
330
73F
100
AcDbEntity
  8
1
 62
     1
100
AcDbLine
 10
20.06369761695446
 20
-2.961289957445965
 30
0.0
 11
20.72113247308782
 21
-4.076089728703896
 31
0.0
  0
LINE
  5
5ED
330
73F
100
AcDbEntity
  8
1
 62
     1
100
AcDbLine
 10
21.5
 20
-2.847418440989041
 30
0.0
 11
22.22113247308783
 21
-4.039557141819953
 31
0.0
  0
LINE
  5
5EE
330
73F
100
AcDbEntity
  8
1
 62
     1
100
AcDbLine
 10
24.5
 20
-2.806113561611983
 30
0.0
 11
25.22113247309351
 21
-3.91728654576502
 31
0.0
  0
LINE
  5
5EF
330
73F
100
AcDbEntity
  8
1
 62
     1
100
AcDbLine
 10
25.99999999999999
 20
-2.768241708538962
 30
0.0
 11
26.7211324730935
 21
-3.832047176397998
 31
0.0
  0
LINE
  5
5F0
330
73F
100
AcDbEntity
  8
1
 62
     1
100
AcDbLine
 10
26.77886752691897
 20
-3.828451532768318
 30
0.0
 11
26.72113247308102
 21
-3.832047176380153
 31
0.0
  0
ARC
  5
5F1
330
73F
100
AcDbEntity
  8
1
 62
     1
100
AcDbCircle
 10
54.47813975548069
 20
15.80644185352361
 30
0.0
 40
31.46589608128807
100
AcDbArc
 50
215.9327080193722
 51
218.1137064014195
  0
LINE
  5
5F2
330
73F
100
AcDbEntity
  8
1
 62
     1
100
AcDbLine
 10
29.77886752690453
 20
-3.610330933449439
 30
0.0
 11
30.5
 21
-2.587737538815417
 31
0.0
  0
ARC
  5
5F3
330
73F
100
AcDbEntity
  8
1
 62
     1
100
AcDbCircle
 10
49.8350189686053
 20
12.20358057479244
 30
0.0
 40
23.11845038148896
100
AcDbArc
 50
219.5145661013841
 51
222.2456997213419
  0
ARC
  5
5F4
330
73F
100
AcDbEntity
  8
1
 62
     1
100
AcDbCircle
 10
48.20018489786335
 20
10.6968075990358
 30
0.0
 40
19.69758583260265
100
AcDbArc
 50
221.7296354059495
 51
224.7908976692013
  0
LINE
  5
5F5
330
73F
100
AcDbEntity
  8
1
 62
     1
100
AcDbLine
 10
14.59
 20
-4.052093904129574
 30
0.0
 11
14.59
 21
-4.099999998655444
 31
0.0
  0
LINE
  5
5F6
330
73F
100
AcDbEntity
  8
1
 62
     1
100
AcDbLine
 10
14.59
 20
-2.358412157526506
 30
0.0
 11
14.59
 21
-0.1919709053688514
 31
0.0
  0
LINE
  5
5F7
330
73F
100
AcDbEntity
  8
1
 62
     1
100
AcDbLine
 10
38.0
 20
2.850962499999999
 30
0.0
 11
37.27886752690355
 21
4.100000000026703
 31
0.0
  0
LINE
  5
5F8
330
73F
100
AcDbEntity
  8
1
 62
     1
100
AcDbLine
 10
17.72113247308103
 20
-4.099999999999998
 30
0.0
 11
17.77886752691897
 21
-4.099999999999998
 31
0.0
  0
LINE
  5
5F9
330
73F
100
AcDbEntity
  8
1
 62
     1
100
AcDbLine
 10
16.22113247308103
 20
-4.099999999999999
 30
0.0
 11
16.27886752691896
 21
-4.099999999999999
 31
0.0
  0
LINE
  5
5FA
330
73F
100
AcDbEntity
  8
1
 62
     1
100
AcDbLine
 10
14.59
 20
-4.100000000000001
 30
0.0
 11
14.77886752691897
 21
-4.100000000000001
 31
0.0
  0
LINE
  5
5FB
330
73F
100
AcDbEntity
  8
1
 62
     1
100
AcDbLine
 10
37.22113247309645
 20
4.100000000026697
 30
0.0
 11
36.5
 21
2.850962499999999
 31
0.0
  0
LINE
  5
5FC
330
73F
100
AcDbEntity
  8
1
 62
     1
100
AcDbLine
 10
36.5
 20
2.850962499999999
 30
0.0
 11
35.77886752690355
 21
4.100000000026699
 31
0.0
  0
LINE
  5
5FD
330
73F
100
AcDbEntity
  8
1
 62
     1
100
AcDbLine
 10
29.72113247309547
 20
4.100000000025002
 30
0.0
 11
29.0
 21
2.850962499999999
 31
0.0
  0
LINE
  5
5FE
330
73F
100
AcDbEntity
  8
1
 62
     1
100
AcDbLine
 10
35.72113247309645
 20
4.1000000000267
 30
0.0
 11
35.0
 21
2.850962499999999
 31
0.0
  0
LINE
  5
5FF
330
73F
100
AcDbEntity
  8
1
 62
     1
100
AcDbLine
 10
34.22113247309645
 20
4.1000000000267
 30
0.0
 11
33.5
 21
2.850962500000001
 31
0.0
  0
LINE
  5
600
330
73F
100
AcDbEntity
  8
1
 62
     1
100
AcDbLine
 10
33.5
 20
2.850962499999999
 30
0.0
 11
32.77886752690453
 21
4.100000000025002
 31
0.0
  0
LINE
  5
601
330
73F
100
AcDbEntity
  8
1
 62
     1
100
AcDbLine
 10
32.72113247309548
 20
4.100000000025004
 30
0.0
 11
32.0
 21
2.850962499999999
 31
0.0
  0
LINE
  5
602
330
73F
100
AcDbEntity
  8
1
 62
     1
100
AcDbLine
 10
28.22113247309485
 20
4.100000000023936
 30
0.0
 11
27.5
 21
2.850962499999999
 31
0.0
  0
LINE
  5
603
330
73F
100
AcDbEntity
  8
1
 62
     1
100
AcDbLine
 10
29.0
 20
2.850962499999999
 30
0.0
 11
28.27886752690515
 21
4.100000000023932
 31
0.0
  0
LINE
  5
604
330
73F
100
AcDbEntity
  8
1
 62
     1
100
AcDbLine
 10
30.5
 20
2.850962499999999
 30
0.0
 11
29.77886752690453
 21
4.100000000025004
 31
0.0
  0
LINE
  5
605
330
73F
100
AcDbEntity
  8
1
 62
     1
100
AcDbLine
 10
31.22113247309548
 20
4.100000000025003
 30
0.0
 11
30.5
 21
2.850962500000001
 31
0.0
  0
LINE
  5
606
330
73F
100
AcDbEntity
  8
1
 62
     1
100
AcDbLine
 10
32.0
 20
2.850962499999999
 30
0.0
 11
31.27886752690454
 21
4.100000000025004
 31
0.0
  0
LINE
  5
607
330
73F
100
AcDbEntity
  8
1
 62
     1
100
AcDbLine
 10
35.0
 20
2.850962499999999
 30
0.0
 11
34.27886752690355
 21
4.100000000026697
 31
0.0
  0
LINE
  5
608
330
73F
100
AcDbEntity
  8
1
 62
     1
100
AcDbLine
 10
26.47404423810274
 20
3.672030826293796
 30
0.0
 11
26.47405500364238
 21
3.672049472744549
 31
0.0
  0
LINE
  5
609
330
73F
100
AcDbEntity
  8
1
 62
     1
100
AcDbLine
 10
26.47405500364238
 20
3.672049472744547
 30
0.0
 11
26.7211324730935
 21
4.096754202400784
 31
0.0
  0
LINE
  5
60A
330
73F
100
AcDbEntity
  8
1
 62
     1
100
AcDbLine
 10
26.72113247309351
 20
4.100000000021615
 30
0.0
 11
26.47404423969967
 21
3.672030825371801
 31
0.0
  0
LINE
  5
60B
330
73F
100
AcDbEntity
  8
1
 62
     1
100
AcDbLine
 10
27.5
 20
2.850962499999999
 30
0.0
 11
26.77886752690649
 21
4.100000000021614
 31
0.0
  0
LINE
  5
60C
330
73F
100
AcDbEntity
  8
1
 62
     1
100
AcDbLine
 10
14.59
 20
2.567250466546132
 30
0.0
 11
14.59
 21
3.642795340261795
 31
0.0
  0
ARC
  5
60D
330
73F
100
AcDbEntity
  8
1
 62
     1
100
AcDbCircle
 10
26.62868023153584
 20
7.48626720414949
 30
0.0
 40
6.722052909157281
100
AcDbArc
 50
262.0881955546043
 51
264.6335643830065
  0
LINE
  5
60E
330
73F
100
AcDbEntity
  8
1
 62
     1
100
AcDbLine
 10
17.03920783386218
 20
-0.3313144915248523
 30
0.0
 11
17.08281130217376
 21
-0.338005169460704
 31
0.0
  0
LINE
  5
60F
330
73F
100
AcDbEntity
  8
1
 62
     1
100
AcDbLine
 10
17.08281130217376
 20
-0.338005169460704
 30
0.0
 11
17.12641666688857
 21
-0.3472953390434041
 31
0.0
  0
LINE
  5
610
330
73F
100
AcDbEntity
  8
1
 62
     1
100
AcDbLine
 10
17.12641666688857
 20
-0.3472953390434041
 30
0.0
 11
17.16999899279186
 21
-0.3591617482293343
 31
0.0
  0
LINE
  5
611
330
73F
100
AcDbEntity
  8
1
 62
     1
100
AcDbLine
 10
17.16999899279186
 20
-0.3591617482293343
 30
0.0
 11
17.21351029007634
 21
-0.3735747641202551
 31
0.0
  0
LINE
  5
612
330
73F
100
AcDbEntity
  8
1
 62
     1
100
AcDbLine
 10
17.21351029007634
 20
-0.3735747641202551
 30
0.0
 11
17.25693100166318
 21
-0.3905121999558778
 31
0.0
  0
LINE
  5
613
330
73F
100
AcDbEntity
  8
1
 62
     1
100
AcDbLine
 10
17.25693100166318
 20
-0.3905121999558778
 30
0.0
 11
17.30022225413847
 21
-0.4099419564227594
 31
0.0
  0
LINE
  5
614
330
73F
100
AcDbEntity
  8
1
 62
     1
100
AcDbLine
 10
17.30022225413847
 20
-0.4099419564227594
 30
0.0
 11
17.34336310239901
 21
-0.4318396276967136
 31
0.0
  0
LINE
  5
615
330
73F
100
AcDbEntity
  8
1
 62
     1
100
AcDbLine
 10
17.34336310239901
 20
-0.4318396276967136
 30
0.0
 11
17.38632713507985
 21
-0.4561738322979564
 31
0.0
  0
LINE
  5
616
330
73F
100
AcDbEntity
  8
1
 62
     1
100
AcDbLine
 10
17.38632713507985
 20
-0.4561738322979564
 30
0.0
 11
17.42908737772261
 21
-0.4829134477558569
 31
0.0
  0
LINE
  5
617
330
73F
100
AcDbEntity
  8
1
 62
     1
100
AcDbLine
 10
17.42908737772261
 20
-0.4829134477558569
 30
0.0
 11
17.471629945855
 21
-0.5120307428117834
 31
0.0
  0
LINE
  5
618
330
73F
100
AcDbEntity
  8
1
 62
     1
100
AcDbLine
 10
17.471629945855
 20
-0.5120307428117834
 30
0.0
 11
17.51392404670143
 21
-0.543486783162423
 31
0.0
  0
LINE
  5
619
330
73F
100
AcDbEntity
  8
1
 62
     1
100
AcDbLine
 10
17.51392404670143
 20
-0.543486783162423
 30
0.0
 11
17.55596246127564
 21
-0.5772563101545362
 31
0.0
  0
LINE
  5
61A
330
73F
100
AcDbEntity
  8
1
 62
     1
100
AcDbLine
 10
17.55596246127564
 20
-0.5772563101545362
 30
0.0
 11
17.63917619241214
 21
-0.6515757073883891
 31
0.0
  0
LINE
  5
61B
330
73F
100
AcDbEntity
  8
1
 62
     1
100
AcDbLine
 10
17.63917619241214
 20
-0.6515757073883891
 30
0.0
 11
17.72113247308782
 21
-0.7346883428595266
 31
0.0
  0
ARC
  5
61C
330
73F
100
AcDbEntity
  8
1
 62
     1
100
AcDbCircle
 10
16.83905801914152
 20
-1.262687304348873
 30
0.0
 40
0.9488990792046633
100
AcDbArc
 50
80.23490522665465
 51
82.93553336639273
  0
LINE
  5
61D
330
73F
100
AcDbEntity
  8
1
 62
     1
100
AcDbLine
 10
15.62474753102828
 20
-0.1516792684956101
 30
0.0
 11
15.66299067690051
 21
-0.1576652318945977
 31
0.0
  0
LINE
  5
61E
330
73F
100
AcDbEntity
  8
1
 62
     1
100
AcDbLine
 10
15.66299067690051
 20
-0.1576652318945977
 30
0.0
 11
15.70118362194412
 21
-0.1656310563448901
 31
0.0
  0
LINE
  5
61F
330
73F
100
AcDbEntity
  8
1
 62
     1
100
AcDbLine
 10
15.70118362194412
 20
-0.1656310563448901
 30
0.0
 11
15.73931065714773
 21
-0.1755638152030924
 31
0.0
  0
LINE
  5
620
330
73F
100
AcDbEntity
  8
1
 62
     1
100
AcDbLine
 10
15.73931065714773
 20
-0.1755638152030924
 30
0.0
 11
15.77735260234061
 21
-0.1874473215257078
 31
0.0
  0
LINE
  5
621
330
73F
100
AcDbEntity
  8
1
 62
     1
100
AcDbLine
 10
15.77735260234061
 20
-0.1874473215257078
 30
0.0
 11
15.81528209696129
 21
-0.2012635739103532
 31
0.0
  0
LINE
  5
622
330
73F
100
AcDbEntity
  8
1
 62
     1
100
AcDbLine
 10
15.81528209696129
 20
-0.2012635739103532
 30
0.0
 11
15.85309312234631
 21
-0.2170001769140784
 31
0.0
  0
LINE
  5
623
330
73F
100
AcDbEntity
  8
1
 62
     1
100
AcDbLine
 10
15.85309312234631
 20
-0.2170001769140784
 30
0.0
 11
15.89076068314288
 21
-0.2346359145417
 31
0.0
  0
LINE
  5
624
330
73F
100
AcDbEntity
  8
1
 62
     1
100
AcDbLine
 10
15.89076068314288
 20
-0.2346359145417
 30
0.0
 11
15.92827082650216
 21
-0.2541547888664896
 31
0.0
  0
LINE
  5
625
330
73F
100
AcDbEntity
  8
1
 62
     1
100
AcDbLine
 10
15.92827082650216
 20
-0.2541547888664896
 30
0.0
 11
15.96561426041595
 21
-0.2755401263357654
 31
0.0
  0
LINE
  5
626
330
73F
100
AcDbEntity
  8
1
 62
     1
100
AcDbLine
 10
15.96561426041595
 20
-0.2755401263357654
 30
0.0
 11
16.00276730889196
 21
-0.2987675235299336
 31
0.0
  0
LINE
  5
627
330
73F
100
AcDbEntity
  8
1
 62
     1
100
AcDbLine
 10
16.00276730889196
 20
-0.2987675235299336
 30
0.0
 11
16.03972733367139
 21
-0.3238240055709177
 31
0.0
  0
LINE
  5
628
330
73F
100
AcDbEntity
  8
1
 62
     1
100
AcDbLine
 10
16.03972733367139
 20
-0.3238240055709177
 30
0.0
 11
16.11300025695255
 21
-0.3793267522960775
 31
0.0
  0
LINE
  5
629
330
73F
100
AcDbEntity
  8
1
 62
     1
100
AcDbLine
 10
16.11300025695255
 20
-0.3793267522960775
 30
0.0
 11
16.16735152966343
 21
-0.4255907102651765
 31
0.0
  0
LINE
  5
62A
330
73F
100
AcDbEntity
  8
1
 62
     1
100
AcDbLine
 10
16.16735152966343
 20
-0.4255907102651765
 30
0.0
 11
16.22113247308783
 21
-0.4757319056347106
 31
0.0
  0
LINE
  5
62B
330
73F
100
AcDbEntity
  8
1
 62
     1
100
AcDbLine
 10
15.35914981102775
 20
-0.1168684951704946
 30
0.0
 11
15.35915117637802
 21
-0.1168686749728228
 31
0.0
  0
ARC
  5
62C
330
73F
100
AcDbEntity
  8
1
 62
     1
100
AcDbCircle
 10
15.23031041677704
 20
-1.091149490457163
 30
0.0
 40
0.9827647497622548
100
AcDbArc
 50
74.07275159645145
 51
82.46680683570344
  0
LINE
  5
62D
330
73F
100
AcDbEntity
  8
SK1
100
AcDbLine
 10
-44.39999999999999
 20
6.0
 30
0.0
 11
-45.0
 21
5.4
 31
0.0
  0
LINE
  5
62E
330
73F
100
AcDbEntity
  8
SK1
100
AcDbLine
 10
-45.0
 20
5.4
 30
0.0
 11
-45.0
 21
5.394631356210616
 31
0.0
  0
LINE
  5
62F
330
73F
100
AcDbEntity
  8
SK1
100
AcDbLine
 10
-45.0
 20
5.394631356210616
 30
0.0
 11
-45.0
 21
4.915476293886468
 31
0.0
  0
LINE
  5
630
330
73F
100
AcDbEntity
  8
SK1
100
AcDbLine
 10
-45.0
 20
4.915476293886468
 30
0.0
 11
-45.0
 21
-5.4
 31
0.0
  0
LINE
  5
631
330
73F
100
AcDbEntity
  8
SK1
100
AcDbLine
 10
-18.5
 20
-4.07921561087423
 30
0.0
 11
-18.5
 21
4.079215610874228
 31
0.0
  0
LINE
  5
632
330
73F
100
AcDbEntity
  8
SK1
100
AcDbLine
 10
-26.5
 20
4.079215610874232
 30
0.0
 11
-26.67367740788471
 21
3.887023874840455
 31
0.0
  0
LINE
  5
633
330
73F
100
AcDbEntity
  8
SK1
100
AcDbLine
 10
-26.67367740788471
 20
3.887023874840455
 30
0.0
 11
-26.84139086731968
 21
3.684452809821888
 31
0.0
  0
LINE
  5
634
330
73F
100
AcDbEntity
  8
SK1
100
AcDbLine
 10
-26.84139086731968
 20
3.684452809821888
 30
0.0
 11
-27.00230833014794
 21
3.471672860318495
 31
0.0
  0
LINE
  5
635
330
73F
100
AcDbEntity
  8
SK1
100
AcDbLine
 10
-27.00230833014794
 20
3.471672860318495
 30
0.0
 11
-27.1555913115785
 21
3.248932787421956
 31
0.0
  0
LINE
  5
636
330
73F
100
AcDbEntity
  8
SK1
100
AcDbLine
 10
-27.1555913115785
 20
3.248932787421956
 30
0.0
 11
-27.30040379816968
 21
3.016562804680104
 31
0.0
  0
LINE
  5
637
330
73F
100
AcDbEntity
  8
SK1
100
AcDbLine
 10
-27.30040379816968
 20
3.016562804680104
 30
0.0
 11
-27.43592190156348
 21
2.774976606036892
 31
0.0
  0
LINE
  5
638
330
73F
100
AcDbEntity
  8
SK1
100
AcDbLine
 10
-27.43592190156348
 20
2.774976606036892
 30
0.0
 11
-27.56134410040645
 21
2.524672125927891
 31
0.0
  0
LINE
  5
639
330
73F
100
AcDbEntity
  8
SK1
100
AcDbLine
 10
-27.56134410040645
 20
2.524672125927891
 30
0.0
 11
-27.67590187632335
 21
2.266230894930129
 31
0.0
  0
LINE
  5
63A
330
73F
100
AcDbEntity
  8
SK1
100
AcDbLine
 10
-27.67590187632335
 20
2.266230894930129
 30
0.0
 11
-27.77887051698213
 21
2.000315886243055
 31
0.0
  0
LINE
  5
63B
330
73F
100
AcDbEntity
  8
SK1
100
AcDbLine
 10
-27.77887051698213
 20
2.000315886243055
 30
0.0
 11
-27.86957983242367
 21
1.727667788134968
 31
0.0
  0
LINE
  5
63C
330
73F
100
AcDbEntity
  8
SK1
100
AcDbLine
 10
-27.86957983242367
 20
1.727667788134968
 30
0.0
 11
-27.94742451206408
 21
1.449099684147151
 31
0.0
  0
LINE
  5
63D
330
73F
100
AcDbEntity
  8
SK1
100
AcDbLine
 10
-27.94742451206408
 20
1.449099684147151
 30
0.0
 11
-28.01187384098716
 21
1.165490174535495
 31
0.0
  0
LINE
  5
63E
330
73F
100
AcDbEntity
  8
SK1
100
AcDbLine
 10
-28.01187384098716
 20
1.165490174535495
 30
0.0
 11
-28.06248049675243
 21
0.8777750268468158
 31
0.0
  0
LINE
  5
63F
330
73F
100
AcDbEntity
  8
SK1
100
AcDbLine
 10
-28.06248049675243
 20
0.8777750268468158
 30
0.0
 11
-28.09888816277059
 21
0.5869374979675154
 31
0.0
  0
LINE
  5
640
330
73F
100
AcDbEntity
  8
SK1
100
AcDbLine
 10
-28.09888816277059
 20
0.5869374979675154
 30
0.0
 11
-28.12083772141867
 21
0.293997521504449
 31
0.0
  0
LINE
  5
641
330
73F
100
AcDbEntity
  8
SK1
100
AcDbLine
 10
-28.12083772141867
 20
0.293997521504449
 30
0.0
 11
-28.12817182875541
 21
-0.0000000000000007
 31
0.0
  0
LINE
  5
642
330
73F
100
AcDbEntity
  8
SK1
100
AcDbLine
 10
-28.12817182875541
 20
-0.0000000000000007
 30
0.0
 11
-28.12083772141867
 21
-0.2939975215044499
 31
0.0
  0
LINE
  5
643
330
73F
100
AcDbEntity
  8
SK1
100
AcDbLine
 10
-28.12083772141867
 20
-0.2939975215044499
 30
0.0
 11
-28.09888816277059
 21
-0.5869374979675161
 31
0.0
  0
LINE
  5
644
330
73F
100
AcDbEntity
  8
SK1
100
AcDbLine
 10
-28.09888816277059
 20
-0.5869374979675161
 30
0.0
 11
-28.06248049675243
 21
-0.8777750268468173
 31
0.0
  0
LINE
  5
645
330
73F
100
AcDbEntity
  8
SK1
100
AcDbLine
 10
-28.06248049675243
 20
-0.8777750268468173
 30
0.0
 11
-28.01187384098716
 21
-1.165490174535495
 31
0.0
  0
LINE
  5
646
330
73F
100
AcDbEntity
  8
SK1
100
AcDbLine
 10
-28.01187384098716
 20
-1.165490174535495
 30
0.0
 11
-27.94742451206408
 21
-1.449099684147153
 31
0.0
  0
LINE
  5
647
330
73F
100
AcDbEntity
  8
SK1
100
AcDbLine
 10
-27.94742451206408
 20
-1.449099684147153
 30
0.0
 11
-27.86957983242366
 21
-1.72766778813497
 31
0.0
  0
LINE
  5
648
330
73F
100
AcDbEntity
  8
SK1
100
AcDbLine
 10
-27.86957983242366
 20
-1.72766778813497
 30
0.0
 11
-27.77887051698213
 21
-2.000315886243058
 31
0.0
  0
LINE
  5
649
330
73F
100
AcDbEntity
  8
SK1
100
AcDbLine
 10
-27.77887051698213
 20
-2.000315886243058
 30
0.0
 11
-27.67590187632335
 21
-2.266230894930131
 31
0.0
  0
LINE
  5
64A
330
73F
100
AcDbEntity
  8
SK1
100
AcDbLine
 10
-27.67590187632335
 20
-2.266230894930131
 30
0.0
 11
-27.56134410040645
 21
-2.524672125927892
 31
0.0
  0
LINE
  5
64B
330
73F
100
AcDbEntity
  8
SK1
100
AcDbLine
 10
-27.56134410040645
 20
-2.524672125927892
 30
0.0
 11
-27.43592190156348
 21
-2.774976606036894
 31
0.0
  0
LINE
  5
64C
330
73F
100
AcDbEntity
  8
SK1
100
AcDbLine
 10
-27.43592190156348
 20
-2.774976606036894
 30
0.0
 11
-27.30040379816967
 21
-3.016562804680106
 31
0.0
  0
LINE
  5
64D
330
73F
100
AcDbEntity
  8
SK1
100
AcDbLine
 10
-27.30040379816967
 20
-3.016562804680106
 30
0.0
 11
-27.1555913115785
 21
-3.248932787421956
 31
0.0
  0
LINE
  5
64E
330
73F
100
AcDbEntity
  8
SK1
100
AcDbLine
 10
-27.1555913115785
 20
-3.248932787421956
 30
0.0
 11
-27.00230833014794
 21
-3.471672860318496
 31
0.0
  0
LINE
  5
64F
330
73F
100
AcDbEntity
  8
SK1
100
AcDbLine
 10
-27.00230833014794
 20
-3.471672860318496
 30
0.0
 11
-26.84139086731968
 21
-3.684452809821888
 31
0.0
  0
LINE
  5
650
330
73F
100
AcDbEntity
  8
SK1
100
AcDbLine
 10
-26.84139086731968
 20
-3.684452809821888
 30
0.0
 11
-26.6736774078847
 21
-3.887023874840456
 31
0.0
  0
LINE
  5
651
330
73F
100
AcDbEntity
  8
SK1
100
AcDbLine
 10
-26.6736774078847
 20
-3.887023874840456
 30
0.0
 11
-26.5
 21
-4.079215610874232
 31
0.0
  0
LINE
  5
652
330
73F
100
AcDbEntity
  8
SK1
100
AcDbLine
 10
-26.5
 20
-4.079215610874232
 30
0.0
 11
-26.5
 21
4.079215610874232
 31
0.0
  0
LINE
  5
653
330
73F
100
AcDbEntity
  8
SK1
100
AcDbLine
 10
0.0000000000000007
 20
6.0
 30
0.0
 11
-44.39999999999999
 21
6.0
 31
0.0
  0
LINE
  5
654
330
73F
100
AcDbEntity
  8
SK1
100
AcDbLine
 10
-44.39999999999999
 20
6.0
 30
0.0
 11
-44.39999999999999
 21
5.994034840234019
 31
0.0
  0
LINE
  5
655
330
73F
100
AcDbEntity
  8
SK1
100
AcDbLine
 10
-44.39999999999999
 20
5.994034840234019
 30
0.0
 11
-44.39999999999999
 21
5.461640326540519
 31
0.0
  0
LINE
  5
656
330
73F
100
AcDbEntity
  8
SK1
100
AcDbLine
 10
-44.39999999999999
 20
5.461640326540519
 30
0.0
 11
-44.39999999999999
 21
-6.0
 31
0.0
  0
LINE
  5
657
330
73F
100
AcDbEntity
  8
SK1
100
AcDbLine
 10
-26.49999999999999
 20
-4.07921561087423
 30
0.0
 11
-18.5
 21
-4.07921561087423
 31
0.0
  0
LINE
  5
658
330
73F
100
AcDbEntity
  8
SK1
100
AcDbLine
 10
-26.49999999999999
 20
4.079215610874232
 30
0.0
 11
-18.5
 21
4.079215610874232
 31
0.0
  0
LINE
  5
659
330
73F
100
AcDbEntity
  8
SK1
100
AcDbLine
 10
-18.5
 20
4.079215610874228
 30
0.0
 11
-18.31451258909198
 21
3.873335590431832
 31
0.0
  0
LINE
  5
65A
330
73F
100
AcDbEntity
  8
SK1
100
AcDbLine
 10
-18.31451258909198
 20
3.873335590431832
 30
0.0
 11
-18.13751521873202
 21
3.65765495606006
 31
0.0
  0
LINE
  5
65B
330
73F
100
AcDbEntity
  8
SK1
100
AcDbLine
 10
-18.13751521873202
 20
3.65765495606006
 30
0.0
 11
-17.96977555689862
 21
3.43267618979637
 31
0.0
  0
LINE
  5
65C
330
73F
100
AcDbEntity
  8
SK1
100
AcDbLine
 10
-17.96977555689862
 20
3.43267618979637
 30
0.0
 11
-17.81202015512122
 21
3.198976922300147
 31
0.0
  0
LINE
  5
65D
330
73F
100
AcDbEntity
  8
SK1
100
AcDbLine
 10
-17.81202015512122
 20
3.198976922300147
 30
0.0
 11
-17.66492511266588
 21
2.957205807989121
 31
0.0
  0
LINE
  5
65E
330
73F
100
AcDbEntity
  8
SK1
100
AcDbLine
 10
-17.66492511266588
 20
2.957205807989121
 30
0.0
 11
-17.52910727225512
 21
2.708077074318897
 31
0.0
  0
LINE
  5
65F
330
73F
100
AcDbEntity
  8
SK1
100
AcDbLine
 10
-17.52910727225512
 20
2.708077074318897
 30
0.0
 11
-17.40511617252122
 21
2.452363826403122
 31
0.0
  0
LINE
  5
660
330
73F
100
AcDbEntity
  8
SK1
100
AcDbLine
 10
-17.40511617252122
 20
2.452363826403122
 30
0.0
 11
-17.29342696676668
 21
2.190890230020666
 31
0.0
  0
LINE
  5
661
330
73F
100
AcDbEntity
  8
SK1
100
AcDbLine
 10
-17.29342696676668
 20
2.190890230020666
 30
0.0
 11
-17.19443449300454
 21
1.924522734430258
 31
0.0
  0
LINE
  5
662
330
73F
100
AcDbEntity
  8
SK1
100
AcDbLine
 10
-17.19443449300454
 20
1.924522734430258
 30
0.0
 11
-17.10844864760838
 21
1.654160529269996
 31
0.0
  0
LINE
  5
663
330
73F
100
AcDbEntity
  8
SK1
100
AcDbLine
 10
-17.10844864760838
 20
1.654160529269996
 30
0.0
 11
-17.03569117567048
 21
1.380725455392936
 31
0.0
  0
LINE
  5
664
330
73F
100
AcDbEntity
  8
SK1
100
AcDbLine
 10
-17.03569117567048
 20
1.380725455392936
 30
0.0
 11
-16.97629394723088
 21
1.105151606424872
 31
0.0
  0
LINE
  5
665
330
73F
100
AcDbEntity
  8
SK1
100
AcDbLine
 10
-16.97629394723088
 20
1.105151606424872
 30
0.0
 11
-16.93029874207824
 21
0.8283748652866558
 31
0.0
  0
LINE
  5
666
330
73F
100
AcDbEntity
  8
SK1
100
AcDbLine
 10
-16.93029874207824
 20
0.8283748652866558
 30
0.0
 11
-16.8976585191525
 21
0.5513226176373337
 31
0.0
  0
LINE
  5
667
330
73F
100
AcDbEntity
  8
SK1
100
AcDbLine
 10
-16.8976585191525
 20
0.5513226176373337
 30
0.0
 11
-16.87824010199058
 21
0.2749038724897271
 31
0.0
  0
LINE
  5
668
330
73F
100
AcDbEntity
  8
SK1
100
AcDbLine
 10
-16.87824010199058
 20
0.2749038724897271
 30
0.0
 11
-16.87182817124459
 21
0.0000000000000022
 31
0.0
  0
LINE
  5
669
330
73F
100
AcDbEntity
  8
SK1
100
AcDbLine
 10
-16.87182817124459
 20
0.0000000000000008
 30
0.0
 11
-16.87824010199058
 21
-0.2749038724897244
 31
0.0
  0
LINE
  5
66A
330
73F
100
AcDbEntity
  8
SK1
100
AcDbLine
 10
-16.87824010199058
 20
-0.2749038724897244
 30
0.0
 11
-16.8976585191525
 21
-0.5513226176373313
 31
0.0
  0
LINE
  5
66B
330
73F
100
AcDbEntity
  8
SK1
100
AcDbLine
 10
-16.8976585191525
 20
-0.5513226176373313
 30
0.0
 11
-16.93029874207824
 21
-0.8283748652866538
 31
0.0
  0
LINE
  5
66C
330
73F
100
AcDbEntity
  8
SK1
100
AcDbLine
 10
-16.93029874207824
 20
-0.8283748652866538
 30
0.0
 11
-16.97629394723088
 21
-1.10515160642487
 31
0.0
  0
LINE
  5
66D
330
73F
100
AcDbEntity
  8
SK1
100
AcDbLine
 10
-16.97629394723088
 20
-1.10515160642487
 30
0.0
 11
-17.03569117567048
 21
-1.380725455392936
 31
0.0
  0
LINE
  5
66E
330
73F
100
AcDbEntity
  8
SK1
100
AcDbLine
 10
-17.03569117567048
 20
-1.380725455392936
 30
0.0
 11
-17.10844864760838
 21
-1.654160529269995
 31
0.0
  0
LINE
  5
66F
330
73F
100
AcDbEntity
  8
SK1
100
AcDbLine
 10
-17.10844864760838
 20
-1.654160529269995
 30
0.0
 11
-17.19443449300452
 21
-1.924522734430258
 31
0.0
  0
LINE
  5
670
330
73F
100
AcDbEntity
  8
SK1
100
AcDbLine
 10
-17.19443449300452
 20
-1.924522734430258
 30
0.0
 11
-17.29342696676668
 21
-2.190890230020666
 31
0.0
  0
LINE
  5
671
330
73F
100
AcDbEntity
  8
SK1
100
AcDbLine
 10
-17.29342696676668
 20
-2.190890230020666
 30
0.0
 11
-17.40511617252122
 21
-2.45236382640312
 31
0.0
  0
LINE
  5
672
330
73F
100
AcDbEntity
  8
SK1
100
AcDbLine
 10
-17.40511617252122
 20
-2.45236382640312
 30
0.0
 11
-17.52910727225512
 21
-2.708077074318897
 31
0.0
  0
LINE
  5
673
330
73F
100
AcDbEntity
  8
SK1
100
AcDbLine
 10
-17.52910727225512
 20
-2.708077074318897
 30
0.0
 11
-17.66492511266588
 21
-2.957205807989119
 31
0.0
  0
LINE
  5
674
330
73F
100
AcDbEntity
  8
SK1
100
AcDbLine
 10
-17.66492511266588
 20
-2.957205807989119
 30
0.0
 11
-17.81202015512122
 21
-3.198976922300147
 31
0.0
  0
LINE
  5
675
330
73F
100
AcDbEntity
  8
SK1
100
AcDbLine
 10
-17.81202015512122
 20
-3.198976922300147
 30
0.0
 11
-17.96977555689862
 21
-3.43267618979637
 31
0.0
  0
LINE
  5
676
330
73F
100
AcDbEntity
  8
SK1
100
AcDbLine
 10
-17.96977555689862
 20
-3.43267618979637
 30
0.0
 11
-18.13751521873202
 21
-3.65765495606006
 31
0.0
  0
LINE
  5
677
330
73F
100
AcDbEntity
  8
SK1
100
AcDbLine
 10
-18.13751521873202
 20
-3.65765495606006
 30
0.0
 11
-18.314512589092
 21
-3.873335590431833
 31
0.0
  0
LINE
  5
678
330
73F
100
AcDbEntity
  8
SK1
100
AcDbLine
 10
-18.314512589092
 20
-3.873335590431833
 30
0.0
 11
-18.5
 21
-4.079215610874229
 31
0.0
  0
LINE
  5
679
330
73F
100
AcDbEntity
  8
SK1
100
AcDbLine
 10
-44.39999999999999
 20
-6.000000000000001
 30
0.0
 11
-45.0
 21
-5.400000000000001
 31
0.0
  0
LINE
  5
67A
330
73F
100
AcDbEntity
  8
SK1
100
AcDbLine
 10
-0.0000000000000009
 20
-5.999999999999999
 30
0.0
 11
-44.39999999999999
 21
-5.999999999999999
 31
0.0
  0
DIMENSION
  5
67B
330
73F
100
AcDbEntity
  8
2
100
AcDbDimension
  2
*D6
 10
53.00000000000004
 20
-4.099999999999947
 30
0.0
 11
50.60225000000007
 21
-12.65699999999996
 31
0.0
 70
    32
  1
Ø<>
 71
     0
 42
8.199999999999999
  3
STANDARD
100
AcDbAlignedDimension
 13
38.0
 23
4.099999999999999
 33
0.0
 14
38.0
 24
-4.099999999999999
 34
0.0
 50
90.00000000000021
100
AcDbRotatedDimension
  0
DIMENSION
  5
689
330
73F
100
AcDbEntity
  8
2
100
AcDbDimension
  2
*D5
 10
38.0
 20
75.0
 30
0.0
 11
19.0
 21
77.39074999999999
 31
0.0
 70
    32
  1
<>
 71
     0
 42
38.0
  3
STANDARD
100
AcDbAlignedDimension
 13
0.0
 23
0.0
 33
0.0
 14
38.0
 24
0.0
 34
0.0
100
AcDbRotatedDimension
  0
DIMENSION
  5
696
330
73F
100
AcDbEntity
  8
SK2
100
AcDbDimension
  2
*D4
 10
-59.99999999996939
 20
-6.000000000076551
 30
0.0
 11
-62.39074999999999
 21
-0.0000000000887523
 31
0.0
 70
    32
  1
Ø<>
 71
     0
 42
12.0
  3
STANDARD
100
AcDbAlignedDimension
 13
-45.0
 23
6.0
 33
0.0
 14
-45.0
 24
-6.0
 34
0.0
 50
90.00000000029237
100
AcDbRotatedDimension
  0
DIMENSION
  5
6A3
330
73F
100
AcDbEntity
  8
2
100
AcDbDimension
  2
*D3
 10
38.0
 20
60.0
 30
0.0
 11
26.295
 21
62.438
 31
0.0
 70
    32
  1
<>
 71
     0
 42
23.41000000000004
  3
STANDARD
100
AcDbAlignedDimension
 13
14.59
 23
4.099999999999999
 33
0.0
 14
38.0
 24
4.099999999999999
 34
0.0
100
AcDbRotatedDimension
  0
DIMENSION
  5
6B0
330
73F
100
AcDbEntity
  8
SK2
100
AcDbDimension
  2
*D2
 10
38.0
 20
90.0
 30
0.0
 11
-3.5
 21
92.39074999999999
 31
0.0
 70
    32
  1
<>
 71
     0
 42
83.0
  3
STANDARD
100
AcDbAlignedDimension
 13
-45.0
 23
4.099999999999999
 33
0.0
 14
38.0
 24
4.099999999999999
 34
0.0
100
AcDbRotatedDimension
  0
VIEWPORT
  5
782
102
{ACAD_XDICTIONARY
360
81B
102
}
330
740
100
AcDbEntity
 67
     1
  8
0
100
AcDbViewport
 10
105.029
 20
148.463
 30
0.0
 40
24.97
 41
311.7723
 68
     1
 69
     1
 12
105.029
 22
148.463
 13
0.0
 23
0.0
 14
1.0
 24
1.0
 15
1.0
 25
1.0
 16
0.0
 26
0.0
 36
1.0
 17
0.0
 27
0.0
 37
0.0
 42
50.0
 43
0.0
 44
0.0
 45
311.7723
 50
0.0
 51
0.0
 72
  1000
 90
    32800
  1

281
     0
 71
     1
 74
     0
110
0.0
120
0.0
130
0.0
111
1.0
121
0.0
131
0.0
112
0.0
122
1.0
132
0.0
 79
     0
146
0.0
  0
ENDSEC
  0
SECTION
  2
OBJECTS
  0
DICTIONARY
  5
783
330
0
100
AcDbDictionary
281
     1
  3
ACAD_CIP_PREVIOUS_PRODUCT_INFO
350
7E1
  3
ACAD_COLOR
350
7C3
  3
ACAD_DETAILVIEWSTYLE
350
7DC
  3
ACAD_GROUP
350
784
  3
ACAD_LAYOUT
350
785
  3
ACAD_MATERIAL
350
791
  3
ACAD_MLEADERSTYLE
350
7D8
  3
ACAD_MLINESTYLE
350
786
  3
ACAD_PLOTSETTINGS
350
787
  3
ACAD_PLOTSTYLENAME
350
788
  3
ACAD_SCALELIST
350
7C6
  3
ACAD_SECTIONVIEWSTYLE
350
7DA
  3
ACAD_TABLESTYLE
350
7C4
  3
ACAD_VISUALSTYLE
350
7AA
  3
ACDB_RECOMPOSE_DATA
350
810
  3
AcDbVariableDictionary
350
802
  3
DWGPROPS
350
811
  3
VECTORDRAW_OBJECTS
350
789
  0
DICTIONARY
  5
7E4
330
F
100
AcDbDictionary
280
     1
281
     1
  3
ADSK_XREC_LAYER_RECONCILED
360
7E5
  0
DICTIONARY
  5
7E6
330
23
100
AcDbDictionary
280
     1
281
     1
  3
ADSK_XREC_LAYER_RECONCILED
360
7E7
  0
DICTIONARY
  5
7E8
330
24
100
AcDbDictionary
280
     1
281
     1
  3
ADSK_XREC_LAYER_RECONCILED
360
7E9
  0
DICTIONARY
  5
7EA
330
25
100
AcDbDictionary
280
     1
281
     1
  3
ADSK_XREC_LAYER_RECONCILED
360
7EB
  0
DICTIONARY
  5
7EC
330
26
100
AcDbDictionary
280
     1
281
     1
  3
ADSK_XREC_LAYER_RECONCILED
360
7ED
  0
DICTIONARY
  5
7EE
330
27
100
AcDbDictionary
280
     1
281
     1
  3
ADSK_XREC_LAYER_RECONCILED
360
7EF
  0
DICTIONARY
  5
7F0
330
28
100
AcDbDictionary
280
     1
281
     1
  3
ADSK_XREC_LAYER_RECONCILED
360
7F1
  0
DICTIONARY
  5
7F2
330
29
100
AcDbDictionary
280
     1
281
     1
  3
ADSK_XREC_LAYER_RECONCILED
360
7F3
  0
DICTIONARY
  5
7F4
330
2A
100
AcDbDictionary
280
     1
281
     1
  3
ADSK_XREC_LAYER_RECONCILED
360
7F5
  0
DICTIONARY
  5
7F6
330
2B
100
AcDbDictionary
280
     1
281
     1
  3
ADSK_XREC_LAYER_RECONCILED
360
7F7
  0
DICTIONARY
  5
7F8
330
2C
100
AcDbDictionary
280
     1
281
     1
  3
ADSK_XREC_LAYER_RECONCILED
360
7F9
  0
DICTIONARY
  5
7FA
330
2D
100
AcDbDictionary
280
     1
281
     1
  3
ADSK_XREC_LAYER_RECONCILED
360
7FB
  0
DICTIONARY
  5
7FC
330
2E
100
AcDbDictionary
280
     1
281
     1
  3
ADSK_XREC_LAYER_RECONCILED
360
7FD
  0
DICTIONARY
  5
7FE
330
375
100
AcDbDictionary
280
     1
281
     1
  3
ADSK_XREC_LAYER_RECONCILED
360
7FF
  0
DICTIONARY
  5
800
330
376
100
AcDbDictionary
280
     1
281
     1
  3
ADSK_XREC_LAYER_RECONCILED
360
801
  0
DICTIONARY
  5
817
330
75A
100
AcDbDictionary
280
     1
281
     1
  3
ACAD_MTEXT_RT
360
818
  0
DICTIONARY
  5
819
330
76B
100
AcDbDictionary
280
     1
281
     1
  3
ACAD_MTEXT_RT
360
81A
  0
DICTIONARY
  5
81B
330
782
100
AcDbDictionary
280
     1
281
     1
  3
ACAD_XREC_ROUNDTRIP
360
81C
  0
XRECORD
  5
7E1
102
{ACAD_REACTORS
330
783
102
}
330
783
100
AcDbXrecord
280
     1
300
AMECH_PP
300
2013
300
PDSU_F_S
  0
DICTIONARY
  5
7C3
102
{ACAD_REACTORS
330
783
102
}
330
783
100
AcDbDictionary
281
     1
  0
DICTIONARY
  5
7DC
102
{ACAD_REACTORS
330
783
102
}
330
783
100
AcDbDictionary
281
     1
  3
Metric50
350
7DD
  0
DICTIONARY
  5
784
102
{ACAD_REACTORS
330
783
102
}
330
783
100
AcDbDictionary
281
     1
  0
DICTIONARY
  5
785
102
{ACAD_REACTORS
330
783
102
}
330
783
100
AcDbDictionary
281
     1
  3
Layout1
350
33B
  3
Model
350
18
  0
DICTIONARY
  5
791
102
{ACAD_REACTORS
330
783
102
}
330
783
100
AcDbDictionary
281
     1
  3
ByBlock
350
79A
  3
ByLayer
350
792
  3
Global
350
7A2
  0
DICTIONARY
  5
7D8
102
{ACAD_REACTORS
330
783
102
}
330
783
100
AcDbDictionary
281
     1
  3
Standard
350
7D9
  0
DICTIONARY
  5
786
102
{ACAD_REACTORS
330
783
102
}
330
783
100
AcDbDictionary
281
     1
  3
Standard
350
78B
  0
DICTIONARY
  5
787
102
{ACAD_REACTORS
330
783
102
}
330
783
100
AcDbDictionary
281
     1
  0
ACDBDICTIONARYWDFLT
  5
788
102
{ACAD_REACTORS
330
783
102
}
330
783
100
AcDbDictionary
281
     1
  3
Normal
350
72E
100
AcDbDictionaryWithDefault
340
72E
  0
DICTIONARY
  5
7C6
102
{ACAD_REACTORS
330
783
102
}
330
783
100
AcDbDictionary
281
     1
  3
A0
350
7C7
  3
A1
350
7C8
  3
A2
350
7C9
  3
A3
350
7CA
  3
A4
350
7CB
  3
A5
350
7CC
  3
A6
350
7CD
  3
A7
350
7CE
  3
A8
350
7CF
  3
A9
350
7D0
  3
B0
350
7D1
  3
B1
350
7D2
  3
B2
350
7D3
  3
B3
350
7D4
  3
B4
350
7D5
  3
B5
350
7D6
  3
B6
350
7D7
  0
DICTIONARY
  5
7DA
102
{ACAD_REACTORS
330
783
102
}
330
783
100
AcDbDictionary
281
     1
  3
Metric50
350
7DB
  0
DICTIONARY
  5
7C4
102
{ACAD_REACTORS
330
783
102
}
330
783
100
AcDbDictionary
281
     1
  3
Standard
350
7C5
  0
DICTIONARY
  5
7AA
102
{ACAD_REACTORS
330
783
102
}
330
783
100
AcDbDictionary
281
     1
  3
2dWireframe
350
7B0
  3
Basic
350
7AF
  3
Brighten
350
7B6
  3
ColorChange
350
7BA
  3
Conceptual
350
7B3
  3
Dim
350
7B5
  3
EdgeColorOff
350
7C2
  3
Facepattern
350
7B9
  3
Flat
350
7AB
  3
FlatWithEdges
350
7AC
  3
Gouraud
350
7AD
  3
GouraudWithEdges
350
7AE
  3
Hidden
350
7B2
  3
JitterOff
350
7C0
  3
Linepattern
350
7B8
  3
OverhangOff
350
7C1
  3
Realistic
350
7B4
  3
Shaded
350
7BF
  3
Shaded with edges
350
7BE
  3
Shades of Gray
350
7BB
  3
Sketchy
350
7BC
  3
Thicken
350
7B7
  3
Wireframe
350
7B1
  3
X-Ray
350
7BD
  0
XRECORD
  5
810
102
{ACAD_REACTORS
330
783
102
}
330
783
100
AcDbXrecord
280
     1
 90
        1
330
7C5
  0
DICTIONARY
  5
802
102
{ACAD_REACTORS
330
783
102
}
330
783
100
AcDbDictionary
281
     1
  3
CANNOSCALE
350
807
  3
CMLEADERSTYLE
350
804
  3
CTABLESTYLE
350
803
  3
CVIEWDETAILSTYLE
350
805
  3
CVIEWSECTIONSTYLE
350
806
  3
DIMASSOC
350
80B
  3
HIDETEXT
350
80A
  3
INDEXCTL
350
809
  3
SORTENTS
350
808
  3
XCLIPFRAME
350
80C
  0
XRECORD
  5
811
102
{ACAD_REACTORS
330
783
102
}
330
783
100
AcDbXrecord
280
     1
  1
DWGPROPS COOKIE
  2

  3

  4

  6

  7

  8
Micke
  9

300
=
301
=
302
=
303
=
304
=
305
=
306
=
307
=
308
=
309
=
 40
0.000003912037037
 41
2456819.000139236
 42
2456819.00014309
  1

 90
        0
  0
DICTIONARY
  5
789
102
{ACAD_REACTORS
330
783
102
}
330
783
100
AcDbDictionary
281
     1
  3
SERIALNO
350
78C
  0
XRECORD
  5
7E5
102
{ACAD_REACTORS
330
7E4
102
}
330
7E4
100
AcDbXrecord
280
     1
290
     1
  0
XRECORD
  5
7E7
102
{ACAD_REACTORS
330
7E6
102
}
330
7E6
100
AcDbXrecord
280
     1
290
     1
  0
XRECORD
  5
7E9
102
{ACAD_REACTORS
330
7E8
102
}
330
7E8
100
AcDbXrecord
280
     1
290
     1
  0
XRECORD
  5
7EB
102
{ACAD_REACTORS
330
7EA
102
}
330
7EA
100
AcDbXrecord
280
     1
290
     1
  0
XRECORD
  5
7ED
102
{ACAD_REACTORS
330
7EC
102
}
330
7EC
100
AcDbXrecord
280
     1
290
     1
  0
XRECORD
  5
7EF
102
{ACAD_REACTORS
330
7EE
102
}
330
7EE
100
AcDbXrecord
280
     1
290
     1
  0
XRECORD
  5
7F1
102
{ACAD_REACTORS
330
7F0
102
}
330
7F0
100
AcDbXrecord
280
     1
290
     1
  0
XRECORD
  5
7F3
102
{ACAD_REACTORS
330
7F2
102
}
330
7F2
100
AcDbXrecord
280
     1
290
     1
  0
XRECORD
  5
7F5
102
{ACAD_REACTORS
330
7F4
102
}
330
7F4
100
AcDbXrecord
280
     1
290
     1
  0
XRECORD
  5
7F7
102
{ACAD_REACTORS
330
7F6
102
}
330
7F6
100
AcDbXrecord
280
     1
290
     1
  0
XRECORD
  5
7F9
102
{ACAD_REACTORS
330
7F8
102
}
330
7F8
100
AcDbXrecord
280
     1
290
     1
  0
XRECORD
  5
7FB
102
{ACAD_REACTORS
330
7FA
102
}
330
7FA
100
AcDbXrecord
280
     1
290
     1
  0
XRECORD
  5
7FD
102
{ACAD_REACTORS
330
7FC
102
}
330
7FC
100
AcDbXrecord
280
     1
290
     1
  0
XRECORD
  5
7FF
102
{ACAD_REACTORS
330
7FE
102
}
330
7FE
100
AcDbXrecord
280
     1
290
     1
  0
XRECORD
  5
801
102
{ACAD_REACTORS
330
800
102
}
330
800
100
AcDbXrecord
280
     1
290
     1
  0
XRECORD
  5
818
102
{ACAD_REACTORS
330
817
102
}
330
817
100
AcDbXrecord
280
     1
 40
2465.0
  1
Ø12
  0
XRECORD
  5
81A
102
{ACAD_REACTORS
330
819
102
}
330
819
100
AcDbXrecord
280
     1
 40
2985.0
  1
Ø8.2
  0
XRECORD
  5
81C
102
{ACAD_REACTORS
330
81B
102
}
330
81B
100
AcDbXrecord
280
     1
102
SHADEPLOT
 70
     0
  0
ACDBDETAILVIEWSTYLE
  5
7DD
102
{ACAD_REACTORS
330
7DC
102
}
330
7DC
100
AcDbModelDocViewStyle
 70
     0
  3
Metric50
290
     0
100
AcDbDetailViewStyle
 70
     0
 71
     0
 90
        3
 71
     1
340
10
 40
5.0
340
0
 40
5.0
300

 40
0.0
280
     1
 71
     2
340
14
 90
       25
 71
     3
340
10
 40
5.0
 90
        0
 40
15.0
 90
        1
300
%<\AcVar ViewDetailId>% (%<\AcVar ViewScale \f "%sn">%)
 71
     4
340
14
 90
       25
340
14
 90
       25
280
     0
  0
LAYOUT
  5
33B
102
{ACAD_XDICTIONARY
360
814
102
}
102
{ACAD_REACTORS
330
785
102
}
330
785
100
AcDbPlotSettings
  1

  2
Lexmark Optra PS2
  4

  6

 40
0.0
 41
0.0
 42
0.0
 43
0.0
 44
210.058
 45
296.926
 46
0.0
 47
0.0
 48
0.0
 49
0.0
140
12.0
141
9.0
142
1.0
143
1.0
 70
   688
 72
     1
 73
     0
 74
     4
  7
monochrome.ctb
 75
    16
147
1.0
148
0.0
149
0.0
100
AcDbLayout
  1
Layout1
 70
     1
 71
     1
 10
0.0
 20
0.0
 11
12.0
 21
9.0
 12
0.0
 22
0.0
 32
0.0
 14
1.000000000000000E+20
 24
1.000000000000000E+20
 34
1.000000000000000E+20
 15
-1.000000000000000E+20
 25
-1.000000000000000E+20
 35
-1.000000000000000E+20
146
0.0
 13
0.0
 23
0.0
 33
0.0
 16
1.0
 26
0.0
 36
0.0
 17
0.0
 27
1.0
 37
0.0
 76
     0
330
740
331
782
  0
LAYOUT
  5
18
102
{ACAD_XDICTIONARY
360
812
102
}
102
{ACAD_REACTORS
330
785
102
}
330
785
100
AcDbPlotSettings
  1
VectorDraw Printer Drawing
  2
Lexmark Optra Rx
  4

  6

 40
6.604
 41
5.333999999999999
 42
6.858
 43
7.112
 44
209.804
 45
296.672
 46
0.0
 47
0.0
 48
-63.41536749746754
 49
-172.5806175652011
140
501.2557437677013
141
392.0904936999676
142
1.0
143
2.976565420630885
 70
   688
 72
     1
 73
     1
 74
     4
  7
monochrome.ctb
 75
     0
147
1.0
148
63.41536749746754
149
172.5806175652011
100
AcDbLayout
  1
Model
 70
     1
 71
     0
 10
1.0
 20
0.0
 11
0.0
 21
1.0
 12
0.0
 22
0.0
 32
0.0
 14
54.25000000000004
 24
-18.71399999999995
 34
-64.14075000000043
 15
94.14075
 25
0.0
 35
0.0
146
0.0
 13
0.0
 23
0.0
 33
0.0
 16
1.0
 26
0.0
 36
0.0
 17
0.0
 27
1.0
 37
0.0
 76
     0
330
73F
331
72C
1001
VD_EX_PRINTER_DWG_STYLE_SHEET
1000
monochrome.ctb
1001
VD_EX_PRINTER_SIZEX
1040
209.9733276367186
1001
VD_EX_PRINTER_AVSIZEX
1040
209.9733276367186
1001
VD_EX_PRINTER_SIZEY
1040
296.9259948730469
1001
VD_EX_PRINTER_AVSIZEY
1040
296.9259948730469
  0
MATERIAL
  5
79A
102
{ACAD_XDICTIONARY
360
79B
102
}
102
{ACAD_REACTORS
330
791
102
}
330
791
100
AcDbMaterial
  1
ByBlock
 72
     0
 43
0.0008202099737533
 43
0.0
 43
0.0
 43
0.0
 43
0.0
 43
0.0008202099737533
 43
0.0
 43
0.0
 43
0.0
 43
0.0
 43
1.0
 43
0.0
 43
0.0
 43
0.0
 43
0.0
 43
1.0
 77
     0
 47
0.0008202099737533
 47
0.0
 47
0.0
 47
0.0
 47
0.0
 47
0.0008202099737533
 47
0.0
 47
0.0
 47
0.0
 47
0.0
 47
1.0
 47
0.0
 47
0.0
 47
0.0
 47
0.0
 47
1.0
171
     0
 49
0.0008202099737533
 49
0.0
 49
0.0
 49
0.0
 49
0.0
 49
0.0008202099737533
 49
0.0
 49
0.0
 49
0.0
 49
0.0
 49
1.0
 49
0.0
 49
0.0
 49
0.0
 49
0.0
 49
1.0
175
     0
142
0.0008202099737533
142
0.0
142
0.0
142
0.0
142
0.0
142
0.0008202099737533
142
0.0
142
0.0
142
0.0
142
0.0
142
1.0
142
0.0
142
0.0
142
0.0
142
0.0
142
1.0
179
     0
144
0.0008202099737533
144
0.0
144
0.0
144
0.0
144
0.0
144
0.0008202099737533
144
0.0
144
0.0
144
0.0
144
0.0
144
1.0
144
0.0
144
0.0
144
0.0
144
0.0
144
1.0
147
0.0008202099737533
147
0.0
147
0.0
147
0.0
147
0.0
147
0.0008202099737533
147
0.0
147
0.0
147
0.0
147
0.0
147
1.0
147
0.0
147
0.0
147
0.0
147
0.0
147
1.0
  0
MATERIAL
  5
792
102
{ACAD_XDICTIONARY
360
793
102
}
102
{ACAD_REACTORS
330
791
102
}
330
791
100
AcDbMaterial
  1
ByLayer
 72
     0
 43
0.0008202099737533
 43
0.0
 43
0.0
 43
0.0
 43
0.0
 43
0.0008202099737533
 43
0.0
 43
0.0
 43
0.0
 43
0.0
 43
1.0
 43
0.0
 43
0.0
 43
0.0
 43
0.0
 43
1.0
 77
     0
 47
0.0008202099737533
 47
0.0
 47
0.0
 47
0.0
 47
0.0
 47
0.0008202099737533
 47
0.0
 47
0.0
 47
0.0
 47
0.0
 47
1.0
 47
0.0
 47
0.0
 47
0.0
 47
0.0
 47
1.0
171
     0
 49
0.0008202099737533
 49
0.0
 49
0.0
 49
0.0
 49
0.0
 49
0.0008202099737533
 49
0.0
 49
0.0
 49
0.0
 49
0.0
 49
1.0
 49
0.0
 49
0.0
 49
0.0
 49
0.0
 49
1.0
175
     0
142
0.0008202099737533
142
0.0
142
0.0
142
0.0
142
0.0
142
0.0008202099737533
142
0.0
142
0.0
142
0.0
142
0.0
142
1.0
142
0.0
142
0.0
142
0.0
142
0.0
142
1.0
179
     0
144
0.0008202099737533
144
0.0
144
0.0
144
0.0
144
0.0
144
0.0008202099737533
144
0.0
144
0.0
144
0.0
144
0.0
144
1.0
144
0.0
144
0.0
144
0.0
144
0.0
144
1.0
147
0.0008202099737533
147
0.0
147
0.0
147
0.0
147
0.0
147
0.0008202099737533
147
0.0
147
0.0
147
0.0
147
0.0
147
1.0
147
0.0
147
0.0
147
0.0
147
0.0
147
1.0
  0
MATERIAL
  5
7A2
102
{ACAD_XDICTIONARY
360
7A3
102
}
102
{ACAD_REACTORS
330
791
102
}
330
791
100
AcDbMaterial
  1
Global
 72
     0
 43
0.0008202099737533
 43
0.0
 43
0.0
 43
0.0
 43
0.0
 43
0.0008202099737533
 43
0.0
 43
0.0
 43
0.0
 43
0.0
 43
1.0
 43
0.0
 43
0.0
 43
0.0
 43
0.0
 43
1.0
 77
     0
 47
0.0008202099737533
 47
0.0
 47
0.0
 47
0.0
 47
0.0
 47
0.0008202099737533
 47
0.0
 47
0.0
 47
0.0
 47
0.0
 47
1.0
 47
0.0
 47
0.0
 47
0.0
 47
0.0
 47
1.0
171
     0
 49
0.0008202099737533
 49
0.0
 49
0.0
 49
0.0
 49
0.0
 49
0.0008202099737533
 49
0.0
 49
0.0
 49
0.0
 49
0.0
 49
1.0
 49
0.0
 49
0.0
 49
0.0
 49
0.0
 49
1.0
175
     0
142
0.0008202099737533
142
0.0
142
0.0
142
0.0
142
0.0
142
0.0008202099737533
142
0.0
142
0.0
142
0.0
142
0.0
142
1.0
142
0.0
142
0.0
142
0.0
142
0.0
142
1.0
179
     0
144
0.0008202099737533
144
0.0
144
0.0
144
0.0
144
0.0
144
0.0008202099737533
144
0.0
144
0.0
144
0.0
144
0.0
144
1.0
144
0.0
144
0.0
144
0.0
144
0.0
144
1.0
147
0.0008202099737533
147
0.0
147
0.0
147
0.0
147
0.0
147
0.0008202099737533
147
0.0
147
0.0
147
0.0
147
0.0
147
1.0
147
0.0
147
0.0
147
0.0
147
0.0
147
1.0
  0
MLEADERSTYLE
  5
7D9
102
{ACAD_REACTORS
330
7D8
102
}
330
7D8
100
AcDbMLeaderStyle
170
     2
171
     1
172
     0
 90
        2
 40
0.0
 41
0.0
173
     1
 91
-1056964608
340
12
 92
       -2
290
     1
 42
2.0
291
     1
 43
0.36
  3
Standard
 44
4.0
300

342
10
174
     1
178
     6
175
     1
176
     0
 93
-1056964608
 45
4.0
292
     0
297
     0
 46
4.0
 94
-1056964608
 47
1.0
 49
1.0
140
1.0
293
     1
141
0.0
294
     1
177
     0
142
1.0
295
     0
296
     0
143
0.125
1001
ACAD_MLEADERVER
1070
     2
  0
MLINESTYLE
  5
78B
102
{ACAD_REACTORS
330
786
102
}
330
786
100
AcDbMlineStyle
  2
STANDARD
 70
     0
  3

 62
   256
 51
90.0
 52
90.0
 71
     2
 49
0.5
 62
   256
  6
BYLAYER
 49
-0.5
 62
   256
  6
BYLAYER
  0
ACDBPLACEHOLDER
  5
72E
102
{ACAD_REACTORS
330
788
102
}
330
788
  0
SCALE
  5
7C7
102
{ACAD_REACTORS
330
7C6
102
}
330
7C6
100
AcDbScale
 70
     0
300
1:1
140
1.0
141
1.0
290
     1
  0
SCALE
  5
7C8
102
{ACAD_REACTORS
330
7C6
102
}
330
7C6
100
AcDbScale
 70
     0
300
1:2
140
1.0
141
2.0
290
     0
  0
SCALE
  5
7C9
102
{ACAD_REACTORS
330
7C6
102
}
330
7C6
100
AcDbScale
 70
     0
300
1:4
140
1.0
141
4.0
290
     0
  0
SCALE
  5
7CA
102
{ACAD_REACTORS
330
7C6
102
}
330
7C6
100
AcDbScale
 70
     0
300
1:5
140
1.0
141
5.0
290
     0
  0
SCALE
  5
7CB
102
{ACAD_REACTORS
330
7C6
102
}
330
7C6
100
AcDbScale
 70
     0
300
1:8
140
1.0
141
8.0
290
     0
  0
SCALE
  5
7CC
102
{ACAD_REACTORS
330
7C6
102
}
330
7C6
100
AcDbScale
 70
     0
300
1:10
140
1.0
141
10.0
290
     0
  0
SCALE
  5
7CD
102
{ACAD_REACTORS
330
7C6
102
}
330
7C6
100
AcDbScale
 70
     0
300
1:16
140
1.0
141
16.0
290
     0
  0
SCALE
  5
7CE
102
{ACAD_REACTORS
330
7C6
102
}
330
7C6
100
AcDbScale
 70
     0
300
1:20
140
1.0
141
20.0
290
     0
  0
SCALE
  5
7CF
102
{ACAD_REACTORS
330
7C6
102
}
330
7C6
100
AcDbScale
 70
     0
300
1:30
140
1.0
141
30.0
290
     0
  0
SCALE
  5
7D0
102
{ACAD_REACTORS
330
7C6
102
}
330
7C6
100
AcDbScale
 70
     0
300
1:40
140
1.0
141
40.0
290
     0
  0
SCALE
  5
7D1
102
{ACAD_REACTORS
330
7C6
102
}
330
7C6
100
AcDbScale
 70
     0
300
1:50
140
1.0
141
50.0
290
     0
  0
SCALE
  5
7D2
102
{ACAD_REACTORS
330
7C6
102
}
330
7C6
100
AcDbScale
 70
     0
300
1:100
140
1.0
141
100.0
290
     0
  0
SCALE
  5
7D3
102
{ACAD_REACTORS
330
7C6
102
}
330
7C6
100
AcDbScale
 70
     0
300
2:1
140
2.0
141
1.0
290
     0
  0
SCALE
  5
7D4
102
{ACAD_REACTORS
330
7C6
102
}
330
7C6
100
AcDbScale
 70
     0
300
4:1
140
4.0
141
1.0
290
     0
  0
SCALE
  5
7D5
102
{ACAD_REACTORS
330
7C6
102
}
330
7C6
100
AcDbScale
 70
     0
300
8:1
140
8.0
141
1.0
290
     0
  0
SCALE
  5
7D6
102
{ACAD_REACTORS
330
7C6
102
}
330
7C6
100
AcDbScale
 70
     0
300
10:1
140
10.0
141
1.0
290
     0
  0
SCALE
  5
7D7
102
{ACAD_REACTORS
330
7C6
102
}
330
7C6
100
AcDbScale
 70
     0
300
100:1
140
100.0
141
1.0
290
     0
  0
ACDBSECTIONVIEWSTYLE
  5
7DB
102
{ACAD_REACTORS
330
7DA
102
}
330
7DA
100
AcDbModelDocViewStyle
 70
     0
  3
Metric50
290
     0
100
AcDbSectionViewStyle
 70
     0
 71
     0
 90
      102
 71
     1
340
10
 40
5.0
340
0
340
0
 40
5.0
300
I, O, Q, S, X, Z
 40
10.0
 90
        0
 40
2.5
 90
        0
 71
     2
340
14
 90
       25
340
14
 90
       50
 40
5.0
 40
2.5
 40
5.0
 71
     3
340
10
 40
5.0
 90
        0
 40
15.0
 90
        1
300
%<\AcVar ViewSectionStartId>%-%<\AcVar ViewSectionEndId>% (%<\AcVar ViewScale \f "%sn">%)
 71
     4
300
ANSI31
 40
1.0
 90
        0
290
     0
290
     0
 90
        6
 40
0.0
 40
1.570796326794896
 40
0.2617993877991494
 40
1.308996938995747
 40
-0.2617993877991494
 40
1.832595714594046
  0
TABLESTYLE
  5
7C5
102
{ACAD_XDICTIONARY
360
80E
102
}
102
{ACAD_REACTORS
330
7C4
102
}
330
7C4
100
AcDbTableStyle
  3
Standard
 70
     0
 71
     0
 40
1.5
 41
1.5
280
     0
281
     0
  7
STANDARD
140
4.5
170
     2
 62
     0
 63
     7
283
     0
274
    -2
284
     1
 64
     0
275
    -2
285
     1
 65
     0
276
    -2
286
     1
 66
     0
277
    -2
287
     1
 67
     0
278
    -2
288
     1
 68
     0
279
    -2
289
     1
 69
     0
  7
STANDARD
140
6.0
170
     5
 62
     0
 63
     7
283
     0
274
    -2
284
     1
 64
     0
275
    -2
285
     1
 65
     0
276
    -2
286
     1
 66
     0
277
    -2
287
     1
 67
     0
278
    -2
288
     1
 68
     0
279
    -2
289
     1
 69
     0
  7
STANDARD
140
4.5
170
     5
 62
     0
 63
     7
283
     0
274
    -2
284
     1
 64
     0
275
    -2
285
     1
 65
     0
276
    -2
286
     1
 66
     0
277
    -2
287
     1
 67
     0
278
    -2
288
     1
 68
     0
279
    -2
289
     1
 69
     0
  0
VISUALSTYLE
  5
7B0
102
{ACAD_XDICTIONARY
360
82A
102
}
102
{ACAD_REACTORS
330
7AA
102
}
330
7AA
100
AcDbVisualStyle
  2
2dWireframe
 70
     4
 71
     0
 72
     2
 73
     0
 90
        0
 40
-0.6
 41
-30.0
 62
     5
 63
     7
 74
     1
 91
        4
 64
     7
 65
   257
 75
     1
175
     1
 42
1.0
 92
        0
 66
   257
 43
1.0
 76
     1
 77
     6
 78
     2
 67
     7
 79
     5
170
     0
171
     0
290
     0
174
     0
 93
        1
 44
0.0
173
     0
291
     0
 45
0.0
1001
ACAD
1000
AcDbSavedByObjectVersion
1070
     0
  0
VISUALSTYLE
  5
7AF
102
{ACAD_XDICTIONARY
360
828
102
}
102
{ACAD_REACTORS
330
7AA
102
}
330
7AA
100
AcDbVisualStyle
  2
Basic
 70
     7
 71
     1
 72
     0
 73
     1
 90
        0
 40
-0.6
 41
-30.0
 62
     5
 63
     7
 74
     0
 91
        4
 64
     7
 65
   257
 75
     1
175
     1
 42
1.0
 92
        8
 66
     7
 43
1.0
 76
     1
 77
     6
 78
     2
 67
     7
 79
     5
170
     0
171
     0
290
     0
174
     0
 93
        1
 44
0.0
173
     0
291
     1
 45
0.0
1001
ACAD
1000
AcDbSavedByObjectVersion
1070
     0
  0
VISUALSTYLE
  5
7B6
102
{ACAD_XDICTIONARY
360
836
102
}
102
{ACAD_REACTORS
330
7AA
102
}
330
7AA
100
AcDbVisualStyle
  2
Brighten
 70
    12
 71
     2
 72
     2
 73
     0
 90
        0
 40
-0.6
 41
-30.0
 62
     5
 63
     7
 74
     1
 91
        4
 64
     7
 65
   257
 75
     1
175
     1
 42
1.0
 92
        8
 66
     7
 43
1.0
 76
     1
 77
     6
 78
     2
 67
     7
 79
     5
170
     0
171
     0
290
     0
174
     0
 93
        1
 44
50.0
173
     0
291
     1
 45
0.0
1001
ACAD
1000
AcDbSavedByObjectVersion
1070
     0
  0
VISUALSTYLE
  5
7BA
102
{ACAD_XDICTIONARY
360
83E
102
}
102
{ACAD_REACTORS
330
7AA
102
}
330
7AA
100
AcDbVisualStyle
  2
ColorChange
 70
    16
 71
     2
 72
     2
 73
     3
 90
        0
 40
-0.6
 41
-30.0
 62
     5
 63
     8
 74
     1
 91
        4
 64
     7
 65
   257
 75
     1
175
     1
 42
1.0
 92
        8
 66
     8
 43
1.0
 76
     1
 77
     6
 78
     2
 67
     7
 79
     5
170
     0
171
     0
290
     0
174
     0
 93
        1
 44
0.0
173
     0
291
     1
 45
0.0
1001
ACAD
1000
AcDbSavedByObjectVersion
1070
     0
  0
VISUALSTYLE
  5
7B3
102
{ACAD_XDICTIONARY
360
830
102
}
102
{ACAD_REACTORS
330
7AA
102
}
330
7AA
100
AcDbVisualStyle
  2
Conceptual
 70
     9
 71
     3
 72
     2
 73
     0
 90
        0
 40
-0.6
 41
-30.0
 62
     5
 63
     7
 74
     2
 91
        2
 64
     7
 65
   257
 75
     1
175
     1
 42
179.0
 92
        8
 66
     7
 43
1.0
 76
     1
 77
     6
 78
     2
 67
     7
 79
     3
170
     0
171
     0
290
     0
174
     0
 93
        1
 44
0.0
173
     0
291
     0
 45
0.0
1001
ACAD
1000
AcDbSavedByObjectVersion
1070
     0
  0
VISUALSTYLE
  5
7B5
102
{ACAD_XDICTIONARY
360
834
102
}
102
{ACAD_REACTORS
330
7AA
102
}
330
7AA
100
AcDbVisualStyle
  2
Dim
 70
    11
 71
     2
 72
     2
 73
     0
 90
        0
 40
-0.6
 41
-30.0
 62
     5
 63
     7
 74
     1
 91
        4
 64
     7
 65
   257
 75
     1
175
     1
 42
1.0
 92
        8
 66
     7
 43
1.0
 76
     1
 77
     6
 78
     2
 67
     7
 79
     5
170
     0
171
     0
290
     0
174
     0
 93
        1
 44
-50.0
173
     0
291
     1
 45
0.0
1001
ACAD
1000
AcDbSavedByObjectVersion
1070
     0
  0
VISUALSTYLE
  5
7C2
102
{ACAD_XDICTIONARY
360
84E
102
}
102
{ACAD_REACTORS
330
7AA
102
}
330
7AA
100
AcDbVisualStyle
  2
EdgeColorOff
 70
    22
 71
     2
 72
     2
 73
     0
 90
        0
 40
-0.6
 41
-30.0
 62
     5
 63
     7
 74
     1
 91
        4
 64
     7
 65
   257
 75
     1
175
     1
 42
1.0
 92
        8
 66
     7
 43
1.0
 76
     1
 77
     6
 78
     2
 67
     7
 79
     5
170
     0
171
     0
290
     0
174
     0
 93
        1
 44
0.0
173
     0
291
     1
 45
0.0
1001
ACAD
1000
AcDbSavedByObjectVersion
1070
     0
  0
VISUALSTYLE
  5
7B9
102
{ACAD_XDICTIONARY
360
83C
102
}
102
{ACAD_REACTORS
330
7AA
102
}
330
7AA
100
AcDbVisualStyle
  2
Facepattern
 70
    15
 71
     2
 72
     2
 73
     0
 90
        0
 40
-0.6
 41
-30.0
 62
     5
 63
     7
 74
     1
 91
        4
 64
     7
 65
   257
 75
     1
175
     1
 42
1.0
 92
        8
 66
     7
 43
1.0
 76
     1
 77
     6
 78
     2
 67
     7
 79
     5
170
     0
171
     0
290
     0
174
     0
 93
        1
 44
0.0
173
     0
291
     1
 45
0.0
1001
ACAD
1000
AcDbSavedByObjectVersion
1070
     0
  0
VISUALSTYLE
  5
7AB
102
{ACAD_XDICTIONARY
360
820
102
}
102
{ACAD_REACTORS
330
7AA
102
}
330
7AA
100
AcDbVisualStyle
  2
Flat
 70
     0
 71
     2
 72
     1
 73
     1
 90
        2
 40
-0.6
 41
30.0
 62
     5
 63
     7
 74
     0
 91
        0
 64
     7
 65
   257
 75
     1
175
     1
 42
1.0
 92
        8
 66
     7
 43
1.0
 76
     1
 77
     6
 78
     2
 67
     7
 79
     5
170
     0
171
     0
290
     0
174
     0
 93
       13
 44
0.0
173
     0
291
     1
 45
0.0
1001
ACAD
1000
AcDbSavedByObjectVersion
1070
     0
  0
VISUALSTYLE
  5
7AC
102
{ACAD_XDICTIONARY
360
822
102
}
102
{ACAD_REACTORS
330
7AA
102
}
330
7AA
100
AcDbVisualStyle
  2
FlatWithEdges
 70
     1
 71
     2
 72
     1
 73
     1
 90
        2
 40
-0.6
 41
30.0
 62
     5
 63
     7
 74
     1
 91
        0
 64
     7
 65
   257
 75
     1
175
     1
 42
1.0
 92
        0
 66
   257
 43
1.0
 76
     1
 77
     6
 78
     2
 67
     7
 79
     5
170
     0
171
     0
290
     0
174
     0
 93
       13
 44
0.0
173
     0
291
     1
 45
0.0
1001
ACAD
1000
AcDbSavedByObjectVersion
1070
     0
  0
VISUALSTYLE
  5
7AD
102
{ACAD_XDICTIONARY
360
824
102
}
102
{ACAD_REACTORS
330
7AA
102
}
330
7AA
100
AcDbVisualStyle
  2
Gouraud
 70
     2
 71
     2
 72
     2
 73
     1
 90
        2
 40
-0.6
 41
30.0
 62
     5
 63
     7
 74
     0
 91
        0
 64
     7
 65
   257
 75
     1
175
     1
 42
1.0
 92
        0
 66
     7
 43
1.0
 76
     1
 77
     6
 78
     2
 67
     7
 79
     5
170
     0
171
     0
290
     0
174
     0
 93
       13
 44
0.0
173
     0
291
     1
 45
0.0
1001
ACAD
1000
AcDbSavedByObjectVersion
1070
     0
  0
VISUALSTYLE
  5
7AE
102
{ACAD_XDICTIONARY
360
826
102
}
102
{ACAD_REACTORS
330
7AA
102
}
330
7AA
100
AcDbVisualStyle
  2
GouraudWithEdges
 70
     3
 71
     2
 72
     2
 73
     1
 90
        2
 40
-0.6
 41
30.0
 62
     5
 63
     7
 74
     1
 91
        0
 64
     7
 65
   257
 75
     1
175
     1
 42
1.0
 92
        0
 66
   257
 43
1.0
 76
     1
 77
     6
 78
     2
 67
     7
 79
     5
170
     0
171
     0
290
     0
174
     0
 93
       13
 44
0.0
173
     0
291
     1
 45
0.0
1001
ACAD
1000
AcDbSavedByObjectVersion
1070
     0
  0
VISUALSTYLE
  5
7B2
102
{ACAD_XDICTIONARY
360
82E
102
}
102
{ACAD_REACTORS
330
7AA
102
}
330
7AA
100
AcDbVisualStyle
  2
Hidden
 70
     6
 71
     1
 72
     2
 73
     2
 90
        0
 40
-0.6
 41
-30.0
 62
     5
 63
     7
 74
     2
 91
        2
 64
     7
 65
   257
 75
     2
175
     1
 42
40.0
 92
        0
 66
   257
 43
1.0
 76
     1
 77
     6
 78
     2
 67
     7
 79
     3
170
     0
171
     0
290
     0
174
     0
 93
        1
 44
0.0
173
     0
291
     0
 45
0.0
1001
ACAD
1000
AcDbSavedByObjectVersion
1070
     0
  0
VISUALSTYLE
  5
7C0
102
{ACAD_XDICTIONARY
360
84A
102
}
102
{ACAD_REACTORS
330
7AA
102
}
330
7AA
100
AcDbVisualStyle
  2
JitterOff
 70
    20
 71
     2
 72
     2
 73
     0
 90
        0
 40
-0.6
 41
-30.0
 62
     5
 63
     7
 74
     1
 91
        4
 64
     7
 65
   257
 75
     1
175
     1
 42
1.0
 92
       10
 66
     7
 43
1.0
 76
     1
 77
     6
 78
     2
 67
     7
 79
     5
170
     0
171
     0
290
     0
174
     0
 93
        1
 44
0.0
173
     0
291
     1
 45
0.0
1001
ACAD
1000
AcDbSavedByObjectVersion
1070
     0
  0
VISUALSTYLE
  5
7B8
102
{ACAD_XDICTIONARY
360
83A
102
}
102
{ACAD_REACTORS
330
7AA
102
}
330
7AA
100
AcDbVisualStyle
  2
Linepattern
 70
    14
 71
     2
 72
     2
 73
     0
 90
        0
 40
-0.6
 41
-30.0
 62
     5
 63
     7
 74
     1
 91
        4
 64
     7
 65
   257
 75
     7
175
     7
 42
1.0
 92
        8
 66
     7
 43
1.0
 76
     1
 77
     6
 78
     2
 67
     7
 79
     5
170
     0
171
     0
290
     0
174
     0
 93
        1
 44
0.0
173
     0
291
     1
 45
0.0
1001
ACAD
1000
AcDbSavedByObjectVersion
1070
     0
  0
VISUALSTYLE
  5
7C1
102
{ACAD_XDICTIONARY
360
84C
102
}
102
{ACAD_REACTORS
330
7AA
102
}
330
7AA
100
AcDbVisualStyle
  2
OverhangOff
 70
    21
 71
     2
 72
     2
 73
     0
 90
        0
 40
-0.6
 41
-30.0
 62
     5
 63
     7
 74
     1
 91
        4
 64
     7
 65
   257
 75
     1
175
     1
 42
1.0
 92
        9
 66
     7
 43
1.0
 76
     1
 77
     6
 78
     2
 67
     7
 79
     5
170
     0
171
     0
290
     0
174
     0
 93
        1
 44
0.0
173
     0
291
     1
 45
0.0
1001
ACAD
1000
AcDbSavedByObjectVersion
1070
     0
  0
VISUALSTYLE
  5
7B4
102
{ACAD_XDICTIONARY
360
832
102
}
102
{ACAD_REACTORS
330
7AA
102
}
330
7AA
100
AcDbVisualStyle
  2
Realistic
 70
     8
 71
     2
 72
     3
 73
     0
 90
        2
 40
-0.6
 41
30.0
 62
     5
 63
     7
 74
     0
 91
        0
 64
     7
 65
   257
 75
     1
175
     1
 42
1.0
 92
        8
 66
   257
 43
1.0
 76
     1
 77
     6
 78
     2
 67
     7
 79
     3
170
     0
171
     0
290
     0
174
     0
 93
       13
 44
0.0
173
     0
291
     0
 45
0.0
1001
ACAD
1000
AcDbSavedByObjectVersion
1070
     0
  0
VISUALSTYLE
  5
7BF
102
{ACAD_XDICTIONARY
360
848
102
}
102
{ACAD_REACTORS
330
7AA
102
}
330
7AA
100
AcDbVisualStyle
  2
Shaded
 70
    27
 71
     2
 72
     2
 73
     1
 90
        2
 40
-0.6
 41
30.0
 62
     5
 63
     7
 74
     0
 91
        4
 64
     7
 65
   257
 75
     1
175
     1
 42
1.0
 92
        8
 66
   257
 43
1.0
 76
     1
 77
     6
 78
     2
 67
     8
 79
     3
170
     0
171
     0
290
     0
174
     0
 93
        5
 44
0.0
173
     0
291
     0
 45
0.0
1001
ACAD
1000
AcDbSavedByObjectVersion
1070
     0
  0
VISUALSTYLE
  5
7BE
102
{ACAD_XDICTIONARY
360
846
102
}
102
{ACAD_REACTORS
330
7AA
102
}
330
7AA
100
AcDbVisualStyle
  2
Shaded with edges
 70
    26
 71
     2
 72
     2
 73
     1
 90
        2
 40
-0.6
 41
30.0
 62
     5
 63
     7
 74
     1
 91
       10
 64
     7
 65
   257
 75
     2
175
     1
 42
1.0
 92
        8
 66
   257
 43
1.0
 76
     1
 77
     6
 78
     2
 67
     7
 79
     3
170
     0
171
     0
290
     0
174
     0
 93
        5
 44
0.0
173
     0
291
     0
 45
0.0
1001
ACAD
1000
AcDbSavedByObjectVersion
1070
     0
  0
VISUALSTYLE
  5
7BB
102
{ACAD_XDICTIONARY
360
840
102
}
102
{ACAD_REACTORS
330
7AA
102
}
330
7AA
100
AcDbVisualStyle
  2
Shades of Gray
 70
    23
 71
     2
 72
     2
 73
     3
 90
        0
 40
-0.6
 41
-30.0
 62
     5
 63
     7
 74
     2
 91
        2
 64
     7
 65
     7
 75
     1
175
     1
 42
40.0
 92
        8
 66
     7
 43
1.0
 76
     1
 77
     6
 78
     2
 67
     7
 79
     3
170
     0
171
     0
290
     0
174
     0
 93
        1
 44
0.0
173
     0
291
     0
 45
0.0
1001
ACAD
1000
AcDbSavedByObjectVersion
1070
     0
  0
VISUALSTYLE
  5
7BC
102
{ACAD_XDICTIONARY
360
842
102
}
102
{ACAD_REACTORS
330
7AA
102
}
330
7AA
100
AcDbVisualStyle
  2
Sketchy
 70
    24
 71
     1
 72
     2
 73
     2
 90
        0
 40
-0.6
 41
-30.0
 62
     5
 63
     7
 74
     2
 91
        2
 64
     7
 65
     7
 75
     1
175
     1
 42
40.0
 92
       11
 66
     7
 43
1.0
 76
     1
 77
     6
 78
     2
 67
     7
 79
     6
170
     0
171
     0
290
     0
174
     0
 93
        1
 44
0.0
173
     0
291
     0
 45
0.0
1001
ACAD
1000
AcDbSavedByObjectVersion
1070
     0
  0
VISUALSTYLE
  5
7B7
102
{ACAD_XDICTIONARY
360
838
102
}
102
{ACAD_REACTORS
330
7AA
102
}
330
7AA
100
AcDbVisualStyle
  2
Thicken
 70
    13
 71
     2
 72
     2
 73
     0
 90
        0
 40
-0.6
 41
-30.0
 62
     5
 63
     7
 74
     1
 91
        4
 64
     7
 65
   257
 75
     1
175
     1
 42
1.0
 92
       12
 66
     7
 43
1.0
 76
     1
 77
     6
 78
     2
 67
     7
 79
     5
170
     0
171
     0
290
     0
174
     0
 93
        1
 44
0.0
173
     0
291
     1
 45
0.0
1001
ACAD
1000
AcDbSavedByObjectVersion
1070
     0
  0
VISUALSTYLE
  5
7B1
102
{ACAD_XDICTIONARY
360
82C
102
}
102
{ACAD_REACTORS
330
7AA
102
}
330
7AA
100
AcDbVisualStyle
  2
Wireframe
 70
     5
 71
     0
 72
     2
 73
     0
 90
        0
 40
-0.6
 41
-30.0
 62
     5
 63
     7
 74
     1
 91
        4
 64
     7
 65
   257
 75
     1
175
     1
 42
1.0
 92
        0
 66
   257
 43
1.0
 76
     1
 77
     6
 78
     2
 67
     7
 79
     3
170
     0
171
     0
290
     0
174
     0
 93
        1
 44
0.0
173
     0
291
     0
 45
0.0
1001
ACAD
1000
AcDbSavedByObjectVersion
1070
     0
  0
VISUALSTYLE
  5
7BD
102
{ACAD_XDICTIONARY
360
844
102
}
102
{ACAD_REACTORS
330
7AA
102
}
330
7AA
100
AcDbVisualStyle
  2
X-Ray
 70
    25
 71
     2
 72
     2
 73
     1
 90
        1
 40
0.5
 41
-30.0
 62
     5
 63
     7
 74
     1
 91
        0
 64
     7
 65
   257
 75
     1
175
     1
 42
1.0
 92
        8
 66
     7
 43
1.0
 76
     1
 77
     6
 78
     2
 67
     7
 79
     3
170
     0
171
     0
290
     0
174
     0
 93
       13
 44
0.0
173
     0
291
     0
 45
0.0
1001
ACAD
1000
AcDbSavedByObjectVersion
1070
     0
  0
DICTIONARYVAR
  5
807
102
{ACAD_REACTORS
330
802
102
}
330
802
100
DictionaryVariables
280
     0
  1
1:1
  0
DICTIONARYVAR
  5
804
102
{ACAD_REACTORS
330
802
102
}
330
802
100
DictionaryVariables
280
     0
  1
STANDARD
  0
DICTIONARYVAR
  5
803
102
{ACAD_REACTORS
330
802
102
}
330
802
100
DictionaryVariables
280
     0
  1
STANDARD
  0
DICTIONARYVAR
  5
805
102
{ACAD_REACTORS
330
802
102
}
330
802
100
DictionaryVariables
280
     0
  1
Metric50
  0
DICTIONARYVAR
  5
806
102
{ACAD_REACTORS
330
802
102
}
330
802
100
DictionaryVariables
280
     0
  1
Metric50
  0
DICTIONARYVAR
  5
80B
102
{ACAD_REACTORS
330
802
102
}
330
802
100
DictionaryVariables
280
     0
  1
1
  0
DICTIONARYVAR
  5
80A
102
{ACAD_REACTORS
330
802
102
}
330
802
100
DictionaryVariables
280
     0
  1
1
  0
DICTIONARYVAR
  5
809
102
{ACAD_REACTORS
330
802
102
}
330
802
100
DictionaryVariables
280
     0
  1
0
  0
DICTIONARYVAR
  5
808
102
{ACAD_REACTORS
330
802
102
}
330
802
100
DictionaryVariables
280
     0
  1
127
  0
DICTIONARYVAR
  5
80C
102
{ACAD_REACTORS
330
802
102
}
330
802
100
DictionaryVariables
280
     0
  1
2
  0
XRECORD
  5
78C
102
{ACAD_REACTORS
330
789
102
}
330
789
100
AcDbXrecord
280
     1
1000
udnjVM6OT3ptXXPNDrqErnGX8
1070
     5
1070
     1
  0
DICTIONARY
  5
814
330
33B
100
AcDbDictionary
280
     1
281
     1
  3
ACAD_XREC_ROUNDTRIP
360
815
  0
DICTIONARY
  5
812
330
18
100
AcDbDictionary
280
     1
281
     1
  3
ACAD_XREC_ROUNDTRIP
360
813
  0
DICTIONARY
  5
79B
330
79A
100
AcDbDictionary
280
     1
281
     1
  3
ACAD_XREC_ROUNDTRIP
360
81E
  3
BUMPTILE
360
79D
  3
DIFFUSETILE
360
79C
  3
OPACITYTILE
360
7A0
  3
REFLECTIONTILE
360
79F
  3
REFRACTIONTILE
360
7A1
  3
SPECULARTILE
360
79E
  0
DICTIONARY
  5
793
330
792
100
AcDbDictionary
280
     1
281
     1
  3
ACAD_XREC_ROUNDTRIP
360
81D
  3
BUMPTILE
360
795
  3
DIFFUSETILE
360
794
  3
OPACITYTILE
360
798
  3
REFLECTIONTILE
360
797
  3
REFRACTIONTILE
360
799
  3
SPECULARTILE
360
796
  0
DICTIONARY
  5
7A3
330
7A2
100
AcDbDictionary
280
     1
281
     1
  3
ACAD_XREC_ROUNDTRIP
360
81F
  3
BUMPTILE
360
7A5
  3
DIFFUSETILE
360
7A4
  3
OPACITYTILE
360
7A8
  3
REFLECTIONTILE
360
7A7
  3
REFRACTIONTILE
360
7A9
  3
SPECULARTILE
360
7A6
  0
DICTIONARY
  5
80E
330
7C5
100
AcDbDictionary
280
     1
281
     1
  3
ACAD_ROUNDTRIP_2008_TABLESTYLE_CELLSTYLEMAP
360
80F
  3
ACAD_XREC_ROUNDTRIP
360
850
  0
DICTIONARY
  5
82A
330
7B0
100
AcDbDictionary
280
     1
281
     1
  3
ACAD_XREC_ROUNDTRIP
360
82B
  0
DICTIONARY
  5
828
330
7AF
100
AcDbDictionary
280
     1
281
     1
  3
ACAD_XREC_ROUNDTRIP
360
829
  0
DICTIONARY
  5
836
330
7B6
100
AcDbDictionary
280
     1
281
     1
  3
ACAD_XREC_ROUNDTRIP
360
837
  0
DICTIONARY
  5
83E
330
7BA
100
AcDbDictionary
280
     1
281
     1
  3
ACAD_XREC_ROUNDTRIP
360
83F
  0
DICTIONARY
  5
830
330
7B3
100
AcDbDictionary
280
     1
281
     1
  3
ACAD_XREC_ROUNDTRIP
360
831
  0
DICTIONARY
  5
834
330
7B5
100
AcDbDictionary
280
     1
281
     1
  3
ACAD_XREC_ROUNDTRIP
360
835
  0
DICTIONARY
  5
84E
330
7C2
100
AcDbDictionary
280
     1
281
     1
  3
ACAD_XREC_ROUNDTRIP
360
84F
  0
DICTIONARY
  5
83C
330
7B9
100
AcDbDictionary
280
     1
281
     1
  3
ACAD_XREC_ROUNDTRIP
360
83D
  0
DICTIONARY
  5
820
330
7AB
100
AcDbDictionary
280
     1
281
     1
  3
ACAD_XREC_ROUNDTRIP
360
821
  0
DICTIONARY
  5
822
330
7AC
100
AcDbDictionary
280
     1
281
     1
  3
ACAD_XREC_ROUNDTRIP
360
823
  0
DICTIONARY
  5
824
330
7AD
100
AcDbDictionary
280
     1
281
     1
  3
ACAD_XREC_ROUNDTRIP
360
825
  0
DICTIONARY
  5
826
330
7AE
100
AcDbDictionary
280
     1
281
     1
  3
ACAD_XREC_ROUNDTRIP
360
827
  0
DICTIONARY
  5
82E
330
7B2
100
AcDbDictionary
280
     1
281
     1
  3
ACAD_XREC_ROUNDTRIP
360
82F
  0
DICTIONARY
  5
84A
330
7C0
100
AcDbDictionary
280
     1
281
     1
  3
ACAD_XREC_ROUNDTRIP
360
84B
  0
DICTIONARY
  5
83A
330
7B8
100
AcDbDictionary
280
     1
281
     1
  3
ACAD_XREC_ROUNDTRIP
360
83B
  0
DICTIONARY
  5
84C
330
7C1
100
AcDbDictionary
280
     1
281
     1
  3
ACAD_XREC_ROUNDTRIP
360
84D
  0
DICTIONARY
  5
832
330
7B4
100
AcDbDictionary
280
     1
281
     1
  3
ACAD_XREC_ROUNDTRIP
360
833
  0
DICTIONARY
  5
848
330
7BF
100
AcDbDictionary
280
     1
281
     1
  3
ACAD_XREC_ROUNDTRIP
360
849
  0
DICTIONARY
  5
846
330
7BE
100
AcDbDictionary
280
     1
281
     1
  3
ACAD_XREC_ROUNDTRIP
360
847
  0
DICTIONARY
  5
840
330
7BB
100
AcDbDictionary
280
     1
281
     1
  3
ACAD_XREC_ROUNDTRIP
360
841
  0
DICTIONARY
  5
842
330
7BC
100
AcDbDictionary
280
     1
281
     1
  3
ACAD_XREC_ROUNDTRIP
360
843
  0
DICTIONARY
  5
838
330
7B7
100
AcDbDictionary
280
     1
281
     1
  3
ACAD_XREC_ROUNDTRIP
360
839
  0
DICTIONARY
  5
82C
330
7B1
100
AcDbDictionary
280
     1
281
     1
  3
ACAD_XREC_ROUNDTRIP
360
82D
  0
DICTIONARY
  5
844
330
7BD
100
AcDbDictionary
280
     1
281
     1
  3
ACAD_XREC_ROUNDTRIP
360
845
  0
XRECORD
  5
815
102
{ACAD_REACTORS
330
814
102
}
330
814
100
AcDbXrecord
280
     1
102
SHADEPLOT
 70
     0
102
SHADEPLOTRESLEVEL
 70
     2
102
SHADEPLOTCUSTOMDPI
 70
   300
  0
XRECORD
  5
813
102
{ACAD_REACTORS
330
812
102
}
330
812
100
AcDbXrecord
280
     1
102
SHADEPLOT
 70
     0
102
SHADEPLOTRESLEVEL
 70
     2
102
SHADEPLOTCUSTOMDPI
 70
   300
  0
XRECORD
  5
81E
102
{ACAD_REACTORS
330
79B
102
}
330
79B
100
AcDbXrecord
280
     1
102
MATERIAL
148
0.0
149
0.0
149
0.0
 93
        0
 94
      127
282
     0
 72
     0
 77
     0
171
     0
175
     0
179
     0
273
     0
  0
XRECORD
  5
79D
102
{ACAD_REACTORS
330
79B
102
}
330
79B
100
AcDbXrecord
280
     1
270
     1
271
     1
  0
XRECORD
  5
79C
102
{ACAD_REACTORS
330
79B
102
}
330
79B
100
AcDbXrecord
280
     1
270
     1
271
     1
  0
XRECORD
  5
7A0
102
{ACAD_REACTORS
330
79B
102
}
330
79B
100
AcDbXrecord
280
     1
270
     1
271
     1
  0
XRECORD
  5
79F
102
{ACAD_REACTORS
330
79B
102
}
330
79B
100
AcDbXrecord
280
     1
270
     1
271
     1
  0
XRECORD
  5
7A1
102
{ACAD_REACTORS
330
79B
102
}
330
79B
100
AcDbXrecord
280
     1
270
     1
271
     1
  0
XRECORD
  5
79E
102
{ACAD_REACTORS
330
79B
102
}
330
79B
100
AcDbXrecord
280
     1
270
     1
271
     1
  0
XRECORD
  5
81D
102
{ACAD_REACTORS
330
793
102
}
330
793
100
AcDbXrecord
280
     1
102
MATERIAL
148
0.0
149
0.0
149
0.0
 93
        0
 94
      127
282
     0
 72
     0
 77
     0
171
     0
175
     0
179
     0
273
     0
  0
XRECORD
  5
795
102
{ACAD_REACTORS
330
793
102
}
330
793
100
AcDbXrecord
280
     1
270
     1
271
     1
  0
XRECORD
  5
794
102
{ACAD_REACTORS
330
793
102
}
330
793
100
AcDbXrecord
280
     1
270
     1
271
     1
  0
XRECORD
  5
798
102
{ACAD_REACTORS
330
793
102
}
330
793
100
AcDbXrecord
280
     1
270
     1
271
     1
  0
XRECORD
  5
797
102
{ACAD_REACTORS
330
793
102
}
330
793
100
AcDbXrecord
280
     1
270
     1
271
     1
  0
XRECORD
  5
799
102
{ACAD_REACTORS
330
793
102
}
330
793
100
AcDbXrecord
280
     1
270
     1
271
     1
  0
XRECORD
  5
796
102
{ACAD_REACTORS
330
793
102
}
330
793
100
AcDbXrecord
280
     1
270
     1
271
     1
  0
XRECORD
  5
81F
102
{ACAD_REACTORS
330
7A3
102
}
330
7A3
100
AcDbXrecord
280
     1
102
MATERIAL
148
0.0
149
0.0
149
0.0
 93
        0
 94
      127
282
     0
 72
     0
 77
     0
171
     0
175
     0
179
     0
273
     0
  0
XRECORD
  5
7A5
102
{ACAD_REACTORS
330
7A3
102
}
330
7A3
100
AcDbXrecord
280
     1
270
     1
271
     1
  0
XRECORD
  5
7A4
102
{ACAD_REACTORS
330
7A3
102
}
330
7A3
100
AcDbXrecord
280
     1
270
     1
271
     1
  0
XRECORD
  5
7A8
102
{ACAD_REACTORS
330
7A3
102
}
330
7A3
100
AcDbXrecord
280
     1
270
     1
271
     1
  0
XRECORD
  5
7A7
102
{ACAD_REACTORS
330
7A3
102
}
330
7A3
100
AcDbXrecord
280
     1
270
     1
271
     1
  0
XRECORD
  5
7A9
102
{ACAD_REACTORS
330
7A3
102
}
330
7A3
100
AcDbXrecord
280
     1
270
     1
271
     1
  0
XRECORD
  5
7A6
102
{ACAD_REACTORS
330
7A3
102
}
330
7A3
100
AcDbXrecord
280
     1
270
     1
271
     1
  0
CELLSTYLEMAP
  5
80F
102
{ACAD_REACTORS
330
80E
102
}
330
80E
100
AcDbCellStyleMap
 90
        3
300
CELLSTYLE
  1
TABLEFORMAT_BEGIN
 90
        5
170
     1
 91
        0
 92
    32768
 62
   257
 93
        1
300
CONTENTFORMAT
  1
CONTENTFORMAT_BEGIN
 90
        0
 91
        0
 92
      512
 93
        0
300

 40
0.0
140
1.0
 94
        5
 62
     0
340
10
144
6.0
309
CONTENTFORMAT_END
171
     1
301
MARGIN
  1
CELLMARGIN_BEGIN
 40
1.5
 40
1.5
 40
1.5
 40
1.5
 40
4.5
 40
4.5
309
CELLMARGIN_END
 94
        6
 95
        1
302
GRIDFORMAT
  1
GRIDFORMAT_BEGIN
 90
        0
 91
        1
 62
     0
 92
       -2
340
0
 93
        0
 40
1.125
309
GRIDFORMAT_END
 95
        2
302
GRIDFORMAT
  1
GRIDFORMAT_BEGIN
 90
        0
 91
        1
 62
     0
 92
       -2
340
0
 93
        0
 40
1.125
309
GRIDFORMAT_END
 95
        4
302
GRIDFORMAT
  1
GRIDFORMAT_BEGIN
 90
        0
 91
        1
 62
     0
 92
       -2
340
0
 93
        0
 40
1.125
309
GRIDFORMAT_END
 95
        8
302
GRIDFORMAT
  1
GRIDFORMAT_BEGIN
 90
        0
 91
        1
 62
     0
 92
       -2
340
0
 93
        0
 40
1.125
309
GRIDFORMAT_END
 95
       16
302
GRIDFORMAT
  1
GRIDFORMAT_BEGIN
 90
        0
 91
        1
 62
     0
 92
       -2
340
0
 93
        0
 40
1.125
309
GRIDFORMAT_END
 95
       32
302
GRIDFORMAT
  1
GRIDFORMAT_BEGIN
 90
        0
 91
        1
 62
     0
 92
       -2
340
0
 93
        0
 40
1.125
309
GRIDFORMAT_END
309
TABLEFORMAT_END
  1
CELLSTYLE_BEGIN
 90
        1
 91
        1
300
_TITLE
309
CELLSTYLE_END
300
CELLSTYLE
  1
TABLEFORMAT_BEGIN
 90
        5
170
     1
 91
        0
 92
        0
 62
   257
 93
        1
300
CONTENTFORMAT
  1
CONTENTFORMAT_BEGIN
 90
        0
 91
        0
 92
      512
 93
        0
300

 40
0.0
140
1.0
 94
        5
 62
     0
340
10
144
4.5
309
CONTENTFORMAT_END
171
     1
301
MARGIN
  1
CELLMARGIN_BEGIN
 40
1.5
 40
1.5
 40
1.5
 40
1.5
 40
4.5
 40
4.5
309
CELLMARGIN_END
 94
        6
 95
        1
302
GRIDFORMAT
  1
GRIDFORMAT_BEGIN
 90
        0
 91
        1
 62
     0
 92
       -2
340
0
 93
        0
 40
1.125
309
GRIDFORMAT_END
 95
        2
302
GRIDFORMAT
  1
GRIDFORMAT_BEGIN
 90
        0
 91
        1
 62
     0
 92
       -2
340
0
 93
        0
 40
1.125
309
GRIDFORMAT_END
 95
        4
302
GRIDFORMAT
  1
GRIDFORMAT_BEGIN
 90
        0
 91
        1
 62
     0
 92
       -2
340
0
 93
        0
 40
1.125
309
GRIDFORMAT_END
 95
        8
302
GRIDFORMAT
  1
GRIDFORMAT_BEGIN
 90
        0
 91
        1
 62
     0
 92
       -2
340
0
 93
        0
 40
1.125
309
GRIDFORMAT_END
 95
       16
302
GRIDFORMAT
  1
GRIDFORMAT_BEGIN
 90
        0
 91
        1
 62
     0
 92
       -2
340
0
 93
        0
 40
1.125
309
GRIDFORMAT_END
 95
       32
302
GRIDFORMAT
  1
GRIDFORMAT_BEGIN
 90
        0
 91
        1
 62
     0
 92
       -2
340
0
 93
        0
 40
1.125
309
GRIDFORMAT_END
309
TABLEFORMAT_END
  1
CELLSTYLE_BEGIN
 90
        2
 91
        1
300
_HEADER
309
CELLSTYLE_END
300
CELLSTYLE
  1
TABLEFORMAT_BEGIN
 90
        5
170
     1
 91
        0
 92
        0
 62
   257
 93
        1
300
CONTENTFORMAT
  1
CONTENTFORMAT_BEGIN
 90
        0
 91
        0
 92
      512
 93
        0
300

 40
0.0
140
1.0
 94
        2
 62
     0
340
10
144
4.5
309
CONTENTFORMAT_END
171
     1
301
MARGIN
  1
CELLMARGIN_BEGIN
 40
1.5
 40
1.5
 40
1.5
 40
1.5
 40
4.5
 40
4.5
309
CELLMARGIN_END
 94
        6
 95
        1
302
GRIDFORMAT
  1
GRIDFORMAT_BEGIN
 90
        0
 91
        1
 62
     0
 92
       -2
340
0
 93
        0
 40
1.125
309
GRIDFORMAT_END
 95
        2
302
GRIDFORMAT
  1
GRIDFORMAT_BEGIN
 90
        0
 91
        1
 62
     0
 92
       -2
340
0
 93
        0
 40
1.125
309
GRIDFORMAT_END
 95
        4
302
GRIDFORMAT
  1
GRIDFORMAT_BEGIN
 90
        0
 91
        1
 62
     0
 92
       -2
340
0
 93
        0
 40
1.125
309
GRIDFORMAT_END
 95
        8
302
GRIDFORMAT
  1
GRIDFORMAT_BEGIN
 90
        0
 91
        1
 62
     0
 92
       -2
340
0
 93
        0
 40
1.125
309
GRIDFORMAT_END
 95
       16
302
GRIDFORMAT
  1
GRIDFORMAT_BEGIN
 90
        0
 91
        1
 62
     0
 92
       -2
340
0
 93
        0
 40
1.125
309
GRIDFORMAT_END
 95
       32
302
GRIDFORMAT
  1
GRIDFORMAT_BEGIN
 90
        0
 91
        1
 62
     0
 92
       -2
340
0
 93
        0
 40
1.125
309
GRIDFORMAT_END
309
TABLEFORMAT_END
  1
CELLSTYLE_BEGIN
 90
        3
 91
        2
300
_DATA
309
CELLSTYLE_END
  0
XRECORD
  5
850
102
{ACAD_REACTORS
330
80E
102
}
330
80E
100
AcDbXrecord
280
     1
102
ACAD_ROUNDTRIP_PRE2007_TABLESTYLE
 90
      512
 91
        0
  1

 92
      512
 93
        0
  2

 94
      512
 95
        0
  3

  0
XRECORD
  5
82B
102
{ACAD_REACTORS
330
82A
102
}
330
82A
100
AcDbXrecord
280
     1
102
RTVSPost2010Prop28
280
     1
102
RTVSPost2010PropOp28
 70
     1
102
RTVSPost2010Prop29
280
     1
102
RTVSPost2010PropOp29
 70
     1
102
RTVSPost2010Prop30
280
     0
102
RTVSPost2010PropOp30
 70
     1
102
RTVSPost2010Prop31
280
     0
102
RTVSPost2010PropOp31
 70
     1
102
RTVSPost2010Prop32
280
     0
102
RTVSPost2010PropOp32
 70
     1
102
RTVSPost2010Prop33
280
     0
102
RTVSPost2010PropOp33
 70
     1
102
RTVSPost2010Prop34
280
     0
102
RTVSPost2010PropOp34
 70
     1
102
RTVSPost2010Prop35
280
     0
102
RTVSPost2010PropOp35
 70
     1
102
RTVSPost2010Prop36
280
     0
102
RTVSPost2010PropOp36
 70
     1
102
RTVSPost2010Prop37
 90
       50
102
RTVSPost2010PropOp37
 70
     1
102
RTVSPost2010Prop38
140
0.0
102
RTVSPost2010PropOp38
 70
     1
102
RTVSPost2010Prop39
140
1.0
102
RTVSPost2010PropOp39
 70
     1
102
RTVSPost2010Prop40
 90
        0
102
RTVSPost2010PropOp40
 70
     1
102
RTVSPost2010Prop41ColorIndex
 90
       18
102
RTVSPost2010Prop41ColorRGB
 90
        0
102
RTVSPost2010PropOp41
 70
     1
102
RTVSPost2010Prop42
 90
       50
102
RTVSPost2010PropOp42
 70
     1
102
RTVSPost2010Prop43
 90
        3
102
RTVSPost2010PropOp43
 70
     1
102
RTVSPost2010Prop44ColorIndex
 90
        5
102
RTVSPost2010Prop44ColorRGB
 90
      255
102
RTVSPost2010PropOp44
 70
     1
102
RTVSPost2010Prop45
280
     0
102
RTVSPost2010PropOp45
 70
     1
102
RTVSPost2010Prop46
 90
       50
102
RTVSPost2010PropOp46
 70
     1
102
RTVSPost2010Prop47
 90
       50
102
RTVSPost2010PropOp47
 70
     1
102
RTVSPost2010Prop48
 90
       50
102
RTVSPost2010PropOp48
 70
     1
102
RTVSPost2010Prop49
280
     0
102
RTVSPost2010PropOp49
 70
     1
102
RTVSPost2010Prop50
 90
       50
102
RTVSPost2010PropOp50
 70
     1
102
RTVSPost2010Prop51ColorIndex
 90
      256
102
RTVSPost2010Prop51ColorRGB
 90
-16777216
102
RTVSPost2010PropOp51
 70
     0
102
RTVSPost2010Prop52
140
1.0
102
RTVSPost2010PropOp52
 70
     0
102
RTVSPost2010Prop53
 90
        2
102
RTVSPost2010PropOp53
 70
     1
102
RTVSPost2010Prop54
  1
strokes_ogs.tif
102
RTVSPost2010PropOp54
 70
     1
102
RTVSPost2010Prop55
280
     0
102
RTVSPost2010PropOp55
 70
     1
102
RTVSPost2010Prop56
140
1.0
102
RTVSPost2010PropOp56
 70
     1
102
RTVSPost2010Prop57
140
1.0
102
RTVSPost2010PropOp57
 70
     1
102
RTVSPropertyOp0
 70
     1
102
RTVSPropertyOp1
 70
     1
102
RTVSPropertyOp2
 70
     1
102
RTVSPropertyOp3
 70
     1
102
RTVSPropertyOp4
 70
     1
102
RTVSPropertyOp5
 70
     1
102
RTVSPropertyOp6
 70
     1
102
RTVSPropertyOp7
 70
     1
102
RTVSPropertyOp8
 70
     1
102
RTVSPropertyOp9
 70
     1
102
RTVSPropertyOp10
 70
     1
102
RTVSPropertyOp11
 70
     1
102
RTVSPropertyOp12
 70
     1
102
RTVSPropertyOp13
 70
     1
102
RTVSPropertyOp14
 70
     1
102
RTVSPropertyOp15
 70
     1
102
RTVSPropertyOp16
 70
     1
102
RTVSPropertyOp17
 70
     1
102
RTVSPropertyOp18
 70
     1
102
RTVSPropertyOp19
 70
     1
102
RTVSPropertyOp20
 70
     1
102
RTVSPropertyOp21
 70
     1
102
RTVSPropertyOp22
 70
     1
102
RTVSPropertyOp23
 70
     1
102
RTVSPropertyOp24
 70
     1
102
RTVSPropertyOp25
 70
     1
102
RTVSPropertyOp26
 70
     1
102
RTVSPropertyOp27
 70
     1
102
RTVSPropertyOp28
 70
     1
102
RTVSPropertyOp29
 70
     1
102
RTVSPropertyOp30
 70
     1
102
RTVSPropertyOp31
 70
     1
102
RTVSPropertyOp32
 70
     1
102
RTVSPropertyOp33
 70
     1
102
RTVSPropertyOp34
 70
     1
102
RTVSPropertyOp35
 70
     1
102
RTVSPropertyOp36
 70
     1
102
RTVSPropertyOp37
 70
     1
102
RTVSPropertyOp38
 70
     1
102
RTVSPropertyOp39
 70
     1
102
RTVSPropertyOp40
 70
     1
102
RTVSPropertyOp41
 70
     1
102
RTVSPropertyOp42
 70
     1
102
RTVSPropertyOp43
 70
     1
102
RTVSPropertyOp44
 70
     1
102
RTVSPropertyOp45
 70
     1
102
RTVSPropertyOp46
 70
     1
102
RTVSPropertyOp47
 70
     1
102
RTVSPropertyOp48
 70
     1
102
RTVSPropertyOp49
 70
     1
102
RTVSPropertyOp50
 70
     1
102
RTVSPropertyOp51
 70
     0
102
RTVSPropertyOp52
 70
     0
102
RTVSPropertyOp53
 70
     1
102
RTVSPropertyOp54
 70
     1
102
RTVSPropertyOp55
 70
     1
102
RTVSPropertyOp56
 70
     1
102
RTVSPropertyOp57
 70
     1
102
RTVSPropertyOp58
 70
     1
102
RTVSPropertyOp59
 70
     1
102
RTVSPropertyOp60
 70
     1
102
RTVSPropertyOp61
 70
     1
102
RTVSPropertyOp62
 70
     1
  0
XRECORD
  5
829
102
{ACAD_REACTORS
330
828
102
}
330
828
100
AcDbXrecord
280
     1
102
RTVSPost2010Prop28
280
     0
102
RTVSPost2010PropOp28
 70
     1
102
RTVSPost2010Prop29
280
     1
102
RTVSPost2010PropOp29
 70
     1
102
RTVSPost2010Prop30
280
     1
102
RTVSPost2010PropOp30
 70
     1
102
RTVSPost2010Prop31
280
     0
102
RTVSPost2010PropOp31
 70
     1
102
RTVSPost2010Prop32
280
     0
102
RTVSPost2010PropOp32
 70
     1
102
RTVSPost2010Prop33
280
     0
102
RTVSPost2010PropOp33
 70
     1
102
RTVSPost2010Prop34
280
     0
102
RTVSPost2010PropOp34
 70
     1
102
RTVSPost2010Prop35
280
     0
102
RTVSPost2010PropOp35
 70
     1
102
RTVSPost2010Prop36
280
     0
102
RTVSPost2010PropOp36
 70
     1
102
RTVSPost2010Prop37
 90
       50
102
RTVSPost2010PropOp37
 70
     1
102
RTVSPost2010Prop38
140
0.0
102
RTVSPost2010PropOp38
 70
     1
102
RTVSPost2010Prop39
140
1.0
102
RTVSPost2010PropOp39
 70
     1
102
RTVSPost2010Prop40
 90
        0
102
RTVSPost2010PropOp40
 70
     1
102
RTVSPost2010Prop41ColorIndex
 90
       18
102
RTVSPost2010Prop41ColorRGB
 90
        0
102
RTVSPost2010PropOp41
 70
     1
102
RTVSPost2010Prop42
 90
       50
102
RTVSPost2010PropOp42
 70
     1
102
RTVSPost2010Prop43
 90
        3
102
RTVSPost2010PropOp43
 70
     1
102
RTVSPost2010Prop44ColorIndex
 90
        5
102
RTVSPost2010Prop44ColorRGB
 90
      255
102
RTVSPost2010PropOp44
 70
     1
102
RTVSPost2010Prop45
280
     0
102
RTVSPost2010PropOp45
 70
     1
102
RTVSPost2010Prop46
 90
       50
102
RTVSPost2010PropOp46
 70
     1
102
RTVSPost2010Prop47
 90
       50
102
RTVSPost2010PropOp47
 70
     1
102
RTVSPost2010Prop48
 90
       50
102
RTVSPost2010PropOp48
 70
     1
102
RTVSPost2010Prop49
280
     0
102
RTVSPost2010PropOp49
 70
     1
102
RTVSPost2010Prop50
 90
       50
102
RTVSPost2010PropOp50
 70
     1
102
RTVSPost2010Prop51ColorIndex
 90
      256
102
RTVSPost2010Prop51ColorRGB
 90
-16777216
102
RTVSPost2010PropOp51
 70
     0
102
RTVSPost2010Prop52
140
1.0
102
RTVSPost2010PropOp52
 70
     0
102
RTVSPost2010Prop53
 90
        2
102
RTVSPost2010PropOp53
 70
     1
102
RTVSPost2010Prop54
  1
strokes_ogs.tif
102
RTVSPost2010PropOp54
 70
     1
102
RTVSPost2010Prop55
280
     0
102
RTVSPost2010PropOp55
 70
     1
102
RTVSPost2010Prop56
140
1.0
102
RTVSPost2010PropOp56
 70
     1
102
RTVSPost2010Prop57
140
1.0
102
RTVSPost2010PropOp57
 70
     1
102
RTVSPropertyOp0
 70
     1
102
RTVSPropertyOp1
 70
     1
102
RTVSPropertyOp2
 70
     1
102
RTVSPropertyOp3
 70
     1
102
RTVSPropertyOp4
 70
     1
102
RTVSPropertyOp5
 70
     1
102
RTVSPropertyOp6
 70
     1
102
RTVSPropertyOp7
 70
     1
102
RTVSPropertyOp8
 70
     1
102
RTVSPropertyOp9
 70
     1
102
RTVSPropertyOp10
 70
     1
102
RTVSPropertyOp11
 70
     1
102
RTVSPropertyOp12
 70
     1
102
RTVSPropertyOp13
 70
     1
102
RTVSPropertyOp14
 70
     1
102
RTVSPropertyOp15
 70
     1
102
RTVSPropertyOp16
 70
     1
102
RTVSPropertyOp17
 70
     1
102
RTVSPropertyOp18
 70
     1
102
RTVSPropertyOp19
 70
     1
102
RTVSPropertyOp20
 70
     1
102
RTVSPropertyOp21
 70
     1
102
RTVSPropertyOp22
 70
     1
102
RTVSPropertyOp23
 70
     1
102
RTVSPropertyOp24
 70
     1
102
RTVSPropertyOp25
 70
     1
102
RTVSPropertyOp26
 70
     1
102
RTVSPropertyOp27
 70
     1
102
RTVSPropertyOp28
 70
     1
102
RTVSPropertyOp29
 70
     1
102
RTVSPropertyOp30
 70
     1
102
RTVSPropertyOp31
 70
     1
102
RTVSPropertyOp32
 70
     1
102
RTVSPropertyOp33
 70
     1
102
RTVSPropertyOp34
 70
     1
102
RTVSPropertyOp35
 70
     1
102
RTVSPropertyOp36
 70
     1
102
RTVSPropertyOp37
 70
     1
102
RTVSPropertyOp38
 70
     1
102
RTVSPropertyOp39
 70
     1
102
RTVSPropertyOp40
 70
     1
102
RTVSPropertyOp41
 70
     1
102
RTVSPropertyOp42
 70
     1
102
RTVSPropertyOp43
 70
     1
102
RTVSPropertyOp44
 70
     1
102
RTVSPropertyOp45
 70
     1
102
RTVSPropertyOp46
 70
     1
102
RTVSPropertyOp47
 70
     1
102
RTVSPropertyOp48
 70
     1
102
RTVSPropertyOp49
 70
     1
102
RTVSPropertyOp50
 70
     1
102
RTVSPropertyOp51
 70
     0
102
RTVSPropertyOp52
 70
     0
102
RTVSPropertyOp53
 70
     1
102
RTVSPropertyOp54
 70
     1
102
RTVSPropertyOp55
 70
     1
102
RTVSPropertyOp56
 70
     1
102
RTVSPropertyOp57
 70
     1
102
RTVSPropertyOp58
 70
     1
102
RTVSPropertyOp59
 70
     1
102
RTVSPropertyOp60
 70
     1
102
RTVSPropertyOp61
 70
     1
102
RTVSPropertyOp62
 70
     1
  0
XRECORD
  5
837
102
{ACAD_REACTORS
330
836
102
}
330
836
100
AcDbXrecord
280
     1
102
RTVSPost2010Prop28
280
     0
102
RTVSPost2010PropOp28
 70
     1
102
RTVSPost2010Prop29
280
     1
102
RTVSPost2010PropOp29
 70
     1
102
RTVSPost2010Prop30
280
     1
102
RTVSPost2010PropOp30
 70
     1
102
RTVSPost2010Prop31
280
     0
102
RTVSPost2010PropOp31
 70
     1
102
RTVSPost2010Prop32
280
     0
102
RTVSPost2010PropOp32
 70
     1
102
RTVSPost2010Prop33
280
     0
102
RTVSPost2010PropOp33
 70
     1
102
RTVSPost2010Prop34
280
     0
102
RTVSPost2010PropOp34
 70
     1
102
RTVSPost2010Prop35
280
     0
102
RTVSPost2010PropOp35
 70
     1
102
RTVSPost2010Prop36
280
     0
102
RTVSPost2010PropOp36
 70
     1
102
RTVSPost2010Prop37
 90
       50
102
RTVSPost2010PropOp37
 70
     1
102
RTVSPost2010Prop38
140
0.0
102
RTVSPost2010PropOp38
 70
     1
102
RTVSPost2010Prop39
140
1.0
102
RTVSPost2010PropOp39
 70
     1
102
RTVSPost2010Prop40
 90
        0
102
RTVSPost2010PropOp40
 70
     1
102
RTVSPost2010Prop41ColorIndex
 90
       18
102
RTVSPost2010Prop41ColorRGB
 90
        0
102
RTVSPost2010PropOp41
 70
     1
102
RTVSPost2010Prop42
 90
       50
102
RTVSPost2010PropOp42
 70
     1
102
RTVSPost2010Prop43
 90
        3
102
RTVSPost2010PropOp43
 70
     1
102
RTVSPost2010Prop44ColorIndex
 90
        5
102
RTVSPost2010Prop44ColorRGB
 90
      255
102
RTVSPost2010PropOp44
 70
     1
102
RTVSPost2010Prop45
280
     0
102
RTVSPost2010PropOp45
 70
     1
102
RTVSPost2010Prop46
 90
       50
102
RTVSPost2010PropOp46
 70
     1
102
RTVSPost2010Prop47
 90
       50
102
RTVSPost2010PropOp47
 70
     1
102
RTVSPost2010Prop48
 90
       50
102
RTVSPost2010PropOp48
 70
     1
102
RTVSPost2010Prop49
280
     0
102
RTVSPost2010PropOp49
 70
     1
102
RTVSPost2010Prop50
 90
       50
102
RTVSPost2010PropOp50
 70
     1
102
RTVSPost2010Prop51ColorIndex
 90
      256
102
RTVSPost2010Prop51ColorRGB
 90
-16777216
102
RTVSPost2010PropOp51
 70
     0
102
RTVSPost2010Prop52
140
1.0
102
RTVSPost2010PropOp52
 70
     0
102
RTVSPost2010Prop53
 90
        2
102
RTVSPost2010PropOp53
 70
     1
102
RTVSPost2010Prop54
  1
strokes_ogs.tif
102
RTVSPost2010PropOp54
 70
     1
102
RTVSPost2010Prop55
280
     0
102
RTVSPost2010PropOp55
 70
     1
102
RTVSPost2010Prop56
140
1.0
102
RTVSPost2010PropOp56
 70
     1
102
RTVSPost2010Prop57
140
1.0
102
RTVSPost2010PropOp57
 70
     1
102
RTVSPropertyOp0
 70
     1
102
RTVSPropertyOp1
 70
     1
102
RTVSPropertyOp2
 70
     1
102
RTVSPropertyOp3
 70
     1
102
RTVSPropertyOp4
 70
     1
102
RTVSPropertyOp5
 70
     1
102
RTVSPropertyOp6
 70
     1
102
RTVSPropertyOp7
 70
     1
102
RTVSPropertyOp8
 70
     1
102
RTVSPropertyOp9
 70
     1
102
RTVSPropertyOp10
 70
     1
102
RTVSPropertyOp11
 70
     1
102
RTVSPropertyOp12
 70
     1
102
RTVSPropertyOp13
 70
     1
102
RTVSPropertyOp14
 70
     1
102
RTVSPropertyOp15
 70
     1
102
RTVSPropertyOp16
 70
     1
102
RTVSPropertyOp17
 70
     1
102
RTVSPropertyOp18
 70
     1
102
RTVSPropertyOp19
 70
     1
102
RTVSPropertyOp20
 70
     1
102
RTVSPropertyOp21
 70
     1
102
RTVSPropertyOp22
 70
     1
102
RTVSPropertyOp23
 70
     1
102
RTVSPropertyOp24
 70
     1
102
RTVSPropertyOp25
 70
     1
102
RTVSPropertyOp26
 70
     1
102
RTVSPropertyOp27
 70
     1
102
RTVSPropertyOp28
 70
     1
102
RTVSPropertyOp29
 70
     1
102
RTVSPropertyOp30
 70
     1
102
RTVSPropertyOp31
 70
     1
102
RTVSPropertyOp32
 70
     1
102
RTVSPropertyOp33
 70
     1
102
RTVSPropertyOp34
 70
     1
102
RTVSPropertyOp35
 70
     1
102
RTVSPropertyOp36
 70
     1
102
RTVSPropertyOp37
 70
     1
102
RTVSPropertyOp38
 70
     1
102
RTVSPropertyOp39
 70
     1
102
RTVSPropertyOp40
 70
     1
102
RTVSPropertyOp41
 70
     1
102
RTVSPropertyOp42
 70
     1
102
RTVSPropertyOp43
 70
     1
102
RTVSPropertyOp44
 70
     1
102
RTVSPropertyOp45
 70
     1
102
RTVSPropertyOp46
 70
     1
102
RTVSPropertyOp47
 70
     1
102
RTVSPropertyOp48
 70
     1
102
RTVSPropertyOp49
 70
     1
102
RTVSPropertyOp50
 70
     1
102
RTVSPropertyOp51
 70
     0
102
RTVSPropertyOp52
 70
     0
102
RTVSPropertyOp53
 70
     1
102
RTVSPropertyOp54
 70
     1
102
RTVSPropertyOp55
 70
     1
102
RTVSPropertyOp56
 70
     1
102
RTVSPropertyOp57
 70
     1
102
RTVSPropertyOp58
 70
     1
102
RTVSPropertyOp59
 70
     1
102
RTVSPropertyOp60
 70
     1
102
RTVSPropertyOp61
 70
     1
102
RTVSPropertyOp62
 70
     1
  0
XRECORD
  5
83F
102
{ACAD_REACTORS
330
83E
102
}
330
83E
100
AcDbXrecord
280
     1
102
RTVSPost2010Prop28
280
     0
102
RTVSPost2010PropOp28
 70
     1
102
RTVSPost2010Prop29
280
     1
102
RTVSPost2010PropOp29
 70
     1
102
RTVSPost2010Prop30
280
     1
102
RTVSPost2010PropOp30
 70
     1
102
RTVSPost2010Prop31
280
     0
102
RTVSPost2010PropOp31
 70
     1
102
RTVSPost2010Prop32
280
     0
102
RTVSPost2010PropOp32
 70
     1
102
RTVSPost2010Prop33
280
     0
102
RTVSPost2010PropOp33
 70
     1
102
RTVSPost2010Prop34
280
     0
102
RTVSPost2010PropOp34
 70
     1
102
RTVSPost2010Prop35
280
     0
102
RTVSPost2010PropOp35
 70
     1
102
RTVSPost2010Prop36
280
     0
102
RTVSPost2010PropOp36
 70
     1
102
RTVSPost2010Prop37
 90
       50
102
RTVSPost2010PropOp37
 70
     1
102
RTVSPost2010Prop38
140
0.0
102
RTVSPost2010PropOp38
 70
     1
102
RTVSPost2010Prop39
140
1.0
102
RTVSPost2010PropOp39
 70
     1
102
RTVSPost2010Prop40
 90
        0
102
RTVSPost2010PropOp40
 70
     1
102
RTVSPost2010Prop41ColorIndex
 90
       18
102
RTVSPost2010Prop41ColorRGB
 90
        0
102
RTVSPost2010PropOp41
 70
     1
102
RTVSPost2010Prop42
 90
       50
102
RTVSPost2010PropOp42
 70
     1
102
RTVSPost2010Prop43
 90
        3
102
RTVSPost2010PropOp43
 70
     1
102
RTVSPost2010Prop44ColorIndex
 90
        5
102
RTVSPost2010Prop44ColorRGB
 90
      255
102
RTVSPost2010PropOp44
 70
     1
102
RTVSPost2010Prop45
280
     0
102
RTVSPost2010PropOp45
 70
     1
102
RTVSPost2010Prop46
 90
       50
102
RTVSPost2010PropOp46
 70
     1
102
RTVSPost2010Prop47
 90
       50
102
RTVSPost2010PropOp47
 70
     1
102
RTVSPost2010Prop48
 90
       50
102
RTVSPost2010PropOp48
 70
     1
102
RTVSPost2010Prop49
280
     0
102
RTVSPost2010PropOp49
 70
     1
102
RTVSPost2010Prop50
 90
       50
102
RTVSPost2010PropOp50
 70
     1
102
RTVSPost2010Prop51ColorIndex
 90
      256
102
RTVSPost2010Prop51ColorRGB
 90
-16777216
102
RTVSPost2010PropOp51
 70
     0
102
RTVSPost2010Prop52
140
1.0
102
RTVSPost2010PropOp52
 70
     0
102
RTVSPost2010Prop53
 90
        2
102
RTVSPost2010PropOp53
 70
     1
102
RTVSPost2010Prop54
  1
strokes_ogs.tif
102
RTVSPost2010PropOp54
 70
     1
102
RTVSPost2010Prop55
280
     0
102
RTVSPost2010PropOp55
 70
     1
102
RTVSPost2010Prop56
140
1.0
102
RTVSPost2010PropOp56
 70
     1
102
RTVSPost2010Prop57
140
1.0
102
RTVSPost2010PropOp57
 70
     1
102
RTVSPropertyOp0
 70
     1
102
RTVSPropertyOp1
 70
     1
102
RTVSPropertyOp2
 70
     1
102
RTVSPropertyOp3
 70
     1
102
RTVSPropertyOp4
 70
     1
102
RTVSPropertyOp5
 70
     1
102
RTVSPropertyOp6
 70
     1
102
RTVSPropertyOp7
 70
     1
102
RTVSPropertyOp8
 70
     1
102
RTVSPropertyOp9
 70
     1
102
RTVSPropertyOp10
 70
     1
102
RTVSPropertyOp11
 70
     1
102
RTVSPropertyOp12
 70
     1
102
RTVSPropertyOp13
 70
     1
102
RTVSPropertyOp14
 70
     1
102
RTVSPropertyOp15
 70
     1
102
RTVSPropertyOp16
 70
     1
102
RTVSPropertyOp17
 70
     1
102
RTVSPropertyOp18
 70
     1
102
RTVSPropertyOp19
 70
     1
102
RTVSPropertyOp20
 70
     1
102
RTVSPropertyOp21
 70
     1
102
RTVSPropertyOp22
 70
     1
102
RTVSPropertyOp23
 70
     1
102
RTVSPropertyOp24
 70
     1
102
RTVSPropertyOp25
 70
     1
102
RTVSPropertyOp26
 70
     1
102
RTVSPropertyOp27
 70
     1
102
RTVSPropertyOp28
 70
     1
102
RTVSPropertyOp29
 70
     1
102
RTVSPropertyOp30
 70
     1
102
RTVSPropertyOp31
 70
     1
102
RTVSPropertyOp32
 70
     1
102
RTVSPropertyOp33
 70
     1
102
RTVSPropertyOp34
 70
     1
102
RTVSPropertyOp35
 70
     1
102
RTVSPropertyOp36
 70
     1
102
RTVSPropertyOp37
 70
     1
102
RTVSPropertyOp38
 70
     1
102
RTVSPropertyOp39
 70
     1
102
RTVSPropertyOp40
 70
     1
102
RTVSPropertyOp41
 70
     1
102
RTVSPropertyOp42
 70
     1
102
RTVSPropertyOp43
 70
     1
102
RTVSPropertyOp44
 70
     1
102
RTVSPropertyOp45
 70
     1
102
RTVSPropertyOp46
 70
     1
102
RTVSPropertyOp47
 70
     1
102
RTVSPropertyOp48
 70
     1
102
RTVSPropertyOp49
 70
     1
102
RTVSPropertyOp50
 70
     1
102
RTVSPropertyOp51
 70
     0
102
RTVSPropertyOp52
 70
     0
102
RTVSPropertyOp53
 70
     1
102
RTVSPropertyOp54
 70
     1
102
RTVSPropertyOp55
 70
     1
102
RTVSPropertyOp56
 70
     1
102
RTVSPropertyOp57
 70
     1
102
RTVSPropertyOp58
 70
     1
102
RTVSPropertyOp59
 70
     1
102
RTVSPropertyOp60
 70
     1
102
RTVSPropertyOp61
 70
     1
102
RTVSPropertyOp62
 70
     1
  0
XRECORD
  5
831
102
{ACAD_REACTORS
330
830
102
}
330
830
100
AcDbXrecord
280
     1
102
RTVSPost2010Prop28
280
     0
102
RTVSPost2010PropOp28
 70
     1
102
RTVSPost2010Prop29
280
     1
102
RTVSPost2010PropOp29
 70
     1
102
RTVSPost2010Prop30
280
     1
102
RTVSPost2010PropOp30
 70
     1
102
RTVSPost2010Prop31
280
     0
102
RTVSPost2010PropOp31
 70
     1
102
RTVSPost2010Prop32
280
     0
102
RTVSPost2010PropOp32
 70
     1
102
RTVSPost2010Prop33
280
     0
102
RTVSPost2010PropOp33
 70
     1
102
RTVSPost2010Prop34
280
     0
102
RTVSPost2010PropOp34
 70
     1
102
RTVSPost2010Prop35
280
     0
102
RTVSPost2010PropOp35
 70
     1
102
RTVSPost2010Prop36
280
     0
102
RTVSPost2010PropOp36
 70
     1
102
RTVSPost2010Prop37
 90
       50
102
RTVSPost2010PropOp37
 70
     1
102
RTVSPost2010Prop38
140
0.0
102
RTVSPost2010PropOp38
 70
     1
102
RTVSPost2010Prop39
140
1.0
102
RTVSPost2010PropOp39
 70
     1
102
RTVSPost2010Prop40
 90
        0
102
RTVSPost2010PropOp40
 70
     1
102
RTVSPost2010Prop41ColorIndex
 90
       18
102
RTVSPost2010Prop41ColorRGB
 90
        0
102
RTVSPost2010PropOp41
 70
     1
102
RTVSPost2010Prop42
 90
       50
102
RTVSPost2010PropOp42
 70
     1
102
RTVSPost2010Prop43
 90
        3
102
RTVSPost2010PropOp43
 70
     1
102
RTVSPost2010Prop44ColorIndex
 90
        5
102
RTVSPost2010Prop44ColorRGB
 90
      255
102
RTVSPost2010PropOp44
 70
     1
102
RTVSPost2010Prop45
280
     0
102
RTVSPost2010PropOp45
 70
     1
102
RTVSPost2010Prop46
 90
       50
102
RTVSPost2010PropOp46
 70
     1
102
RTVSPost2010Prop47
 90
       50
102
RTVSPost2010PropOp47
 70
     1
102
RTVSPost2010Prop48
 90
       50
102
RTVSPost2010PropOp48
 70
     1
102
RTVSPost2010Prop49
280
     0
102
RTVSPost2010PropOp49
 70
     1
102
RTVSPost2010Prop50
 90
       50
102
RTVSPost2010PropOp50
 70
     1
102
RTVSPost2010Prop51ColorIndex
 90
      256
102
RTVSPost2010Prop51ColorRGB
 90
-16777216
102
RTVSPost2010PropOp51
 70
     0
102
RTVSPost2010Prop52
140
1.0
102
RTVSPost2010PropOp52
 70
     0
102
RTVSPost2010Prop53
 90
        2
102
RTVSPost2010PropOp53
 70
     1
102
RTVSPost2010Prop54
  1
strokes_ogs.tif
102
RTVSPost2010PropOp54
 70
     1
102
RTVSPost2010Prop55
280
     0
102
RTVSPost2010PropOp55
 70
     1
102
RTVSPost2010Prop56
140
1.0
102
RTVSPost2010PropOp56
 70
     1
102
RTVSPost2010Prop57
140
1.0
102
RTVSPost2010PropOp57
 70
     1
102
RTVSPropertyOp0
 70
     1
102
RTVSPropertyOp1
 70
     1
102
RTVSPropertyOp2
 70
     1
102
RTVSPropertyOp3
 70
     1
102
RTVSPropertyOp4
 70
     1
102
RTVSPropertyOp5
 70
     1
102
RTVSPropertyOp6
 70
     1
102
RTVSPropertyOp7
 70
     1
102
RTVSPropertyOp8
 70
     1
102
RTVSPropertyOp9
 70
     1
102
RTVSPropertyOp10
 70
     1
102
RTVSPropertyOp11
 70
     1
102
RTVSPropertyOp12
 70
     1
102
RTVSPropertyOp13
 70
     1
102
RTVSPropertyOp14
 70
     1
102
RTVSPropertyOp15
 70
     1
102
RTVSPropertyOp16
 70
     1
102
RTVSPropertyOp17
 70
     1
102
RTVSPropertyOp18
 70
     1
102
RTVSPropertyOp19
 70
     1
102
RTVSPropertyOp20
 70
     1
102
RTVSPropertyOp21
 70
     1
102
RTVSPropertyOp22
 70
     1
102
RTVSPropertyOp23
 70
     1
102
RTVSPropertyOp24
 70
     1
102
RTVSPropertyOp25
 70
     1
102
RTVSPropertyOp26
 70
     1
102
RTVSPropertyOp27
 70
     1
102
RTVSPropertyOp28
 70
     1
102
RTVSPropertyOp29
 70
     1
102
RTVSPropertyOp30
 70
     1
102
RTVSPropertyOp31
 70
     1
102
RTVSPropertyOp32
 70
     1
102
RTVSPropertyOp33
 70
     1
102
RTVSPropertyOp34
 70
     1
102
RTVSPropertyOp35
 70
     1
102
RTVSPropertyOp36
 70
     1
102
RTVSPropertyOp37
 70
     1
102
RTVSPropertyOp38
 70
     1
102
RTVSPropertyOp39
 70
     1
102
RTVSPropertyOp40
 70
     1
102
RTVSPropertyOp41
 70
     1
102
RTVSPropertyOp42
 70
     1
102
RTVSPropertyOp43
 70
     1
102
RTVSPropertyOp44
 70
     1
102
RTVSPropertyOp45
 70
     1
102
RTVSPropertyOp46
 70
     1
102
RTVSPropertyOp47
 70
     1
102
RTVSPropertyOp48
 70
     1
102
RTVSPropertyOp49
 70
     1
102
RTVSPropertyOp50
 70
     1
102
RTVSPropertyOp51
 70
     0
102
RTVSPropertyOp52
 70
     0
102
RTVSPropertyOp53
 70
     1
102
RTVSPropertyOp54
 70
     1
102
RTVSPropertyOp55
 70
     1
102
RTVSPropertyOp56
 70
     1
102
RTVSPropertyOp57
 70
     1
102
RTVSPropertyOp58
 70
     1
102
RTVSPropertyOp59
 70
     1
102
RTVSPropertyOp60
 70
     1
102
RTVSPropertyOp61
 70
     1
102
RTVSPropertyOp62
 70
     1
  0
XRECORD
  5
835
102
{ACAD_REACTORS
330
834
102
}
330
834
100
AcDbXrecord
280
     1
102
RTVSPost2010Prop28
280
     0
102
RTVSPost2010PropOp28
 70
     1
102
RTVSPost2010Prop29
280
     1
102
RTVSPost2010PropOp29
 70
     1
102
RTVSPost2010Prop30
280
     1
102
RTVSPost2010PropOp30
 70
     1
102
RTVSPost2010Prop31
280
     0
102
RTVSPost2010PropOp31
 70
     1
102
RTVSPost2010Prop32
280
     0
102
RTVSPost2010PropOp32
 70
     1
102
RTVSPost2010Prop33
280
     0
102
RTVSPost2010PropOp33
 70
     1
102
RTVSPost2010Prop34
280
     0
102
RTVSPost2010PropOp34
 70
     1
102
RTVSPost2010Prop35
280
     0
102
RTVSPost2010PropOp35
 70
     1
102
RTVSPost2010Prop36
280
     0
102
RTVSPost2010PropOp36
 70
     1
102
RTVSPost2010Prop37
 90
       50
102
RTVSPost2010PropOp37
 70
     1
102
RTVSPost2010Prop38
140
0.0
102
RTVSPost2010PropOp38
 70
     1
102
RTVSPost2010Prop39
140
1.0
102
RTVSPost2010PropOp39
 70
     1
102
RTVSPost2010Prop40
 90
        0
102
RTVSPost2010PropOp40
 70
     1
102
RTVSPost2010Prop41ColorIndex
 90
       18
102
RTVSPost2010Prop41ColorRGB
 90
        0
102
RTVSPost2010PropOp41
 70
     1
102
RTVSPost2010Prop42
 90
       50
102
RTVSPost2010PropOp42
 70
     1
102
RTVSPost2010Prop43
 90
        3
102
RTVSPost2010PropOp43
 70
     1
102
RTVSPost2010Prop44ColorIndex
 90
        5
102
RTVSPost2010Prop44ColorRGB
 90
      255
102
RTVSPost2010PropOp44
 70
     1
102
RTVSPost2010Prop45
280
     0
102
RTVSPost2010PropOp45
 70
     1
102
RTVSPost2010Prop46
 90
       50
102
RTVSPost2010PropOp46
 70
     1
102
RTVSPost2010Prop47
 90
       50
102
RTVSPost2010PropOp47
 70
     1
102
RTVSPost2010Prop48
 90
       50
102
RTVSPost2010PropOp48
 70
     1
102
RTVSPost2010Prop49
280
     0
102
RTVSPost2010PropOp49
 70
     1
102
RTVSPost2010Prop50
 90
       50
102
RTVSPost2010PropOp50
 70
     1
102
RTVSPost2010Prop51ColorIndex
 90
      256
102
RTVSPost2010Prop51ColorRGB
 90
-16777216
102
RTVSPost2010PropOp51
 70
     0
102
RTVSPost2010Prop52
140
1.0
102
RTVSPost2010PropOp52
 70
     0
102
RTVSPost2010Prop53
 90
        2
102
RTVSPost2010PropOp53
 70
     1
102
RTVSPost2010Prop54
  1
strokes_ogs.tif
102
RTVSPost2010PropOp54
 70
     1
102
RTVSPost2010Prop55
280
     0
102
RTVSPost2010PropOp55
 70
     1
102
RTVSPost2010Prop56
140
1.0
102
RTVSPost2010PropOp56
 70
     1
102
RTVSPost2010Prop57
140
1.0
102
RTVSPost2010PropOp57
 70
     1
102
RTVSPropertyOp0
 70
     1
102
RTVSPropertyOp1
 70
     1
102
RTVSPropertyOp2
 70
     1
102
RTVSPropertyOp3
 70
     1
102
RTVSPropertyOp4
 70
     1
102
RTVSPropertyOp5
 70
     1
102
RTVSPropertyOp6
 70
     1
102
RTVSPropertyOp7
 70
     1
102
RTVSPropertyOp8
 70
     1
102
RTVSPropertyOp9
 70
     1
102
RTVSPropertyOp10
 70
     1
102
RTVSPropertyOp11
 70
     1
102
RTVSPropertyOp12
 70
     1
102
RTVSPropertyOp13
 70
     1
102
RTVSPropertyOp14
 70
     1
102
RTVSPropertyOp15
 70
     1
102
RTVSPropertyOp16
 70
     1
102
RTVSPropertyOp17
 70
     1
102
RTVSPropertyOp18
 70
     1
102
RTVSPropertyOp19
 70
     1
102
RTVSPropertyOp20
 70
     1
102
RTVSPropertyOp21
 70
     1
102
RTVSPropertyOp22
 70
     1
102
RTVSPropertyOp23
 70
     1
102
RTVSPropertyOp24
 70
     1
102
RTVSPropertyOp25
 70
     1
102
RTVSPropertyOp26
 70
     1
102
RTVSPropertyOp27
 70
     1
102
RTVSPropertyOp28
 70
     1
102
RTVSPropertyOp29
 70
     1
102
RTVSPropertyOp30
 70
     1
102
RTVSPropertyOp31
 70
     1
102
RTVSPropertyOp32
 70
     1
102
RTVSPropertyOp33
 70
     1
102
RTVSPropertyOp34
 70
     1
102
RTVSPropertyOp35
 70
     1
102
RTVSPropertyOp36
 70
     1
102
RTVSPropertyOp37
 70
     1
102
RTVSPropertyOp38
 70
     1
102
RTVSPropertyOp39
 70
     1
102
RTVSPropertyOp40
 70
     1
102
RTVSPropertyOp41
 70
     1
102
RTVSPropertyOp42
 70
     1
102
RTVSPropertyOp43
 70
     1
102
RTVSPropertyOp44
 70
     1
102
RTVSPropertyOp45
 70
     1
102
RTVSPropertyOp46
 70
     1
102
RTVSPropertyOp47
 70
     1
102
RTVSPropertyOp48
 70
     1
102
RTVSPropertyOp49
 70
     1
102
RTVSPropertyOp50
 70
     1
102
RTVSPropertyOp51
 70
     0
102
RTVSPropertyOp52
 70
     0
102
RTVSPropertyOp53
 70
     1
102
RTVSPropertyOp54
 70
     1
102
RTVSPropertyOp55
 70
     1
102
RTVSPropertyOp56
 70
     1
102
RTVSPropertyOp57
 70
     1
102
RTVSPropertyOp58
 70
     1
102
RTVSPropertyOp59
 70
     1
102
RTVSPropertyOp60
 70
     1
102
RTVSPropertyOp61
 70
     1
102
RTVSPropertyOp62
 70
     1
  0
XRECORD
  5
84F
102
{ACAD_REACTORS
330
84E
102
}
330
84E
100
AcDbXrecord
280
     1
102
RTVSPost2010Prop28
280
     0
102
RTVSPost2010PropOp28
 70
     1
102
RTVSPost2010Prop29
280
     1
102
RTVSPost2010PropOp29
 70
     1
102
RTVSPost2010Prop30
280
     1
102
RTVSPost2010PropOp30
 70
     1
102
RTVSPost2010Prop31
280
     0
102
RTVSPost2010PropOp31
 70
     1
102
RTVSPost2010Prop32
280
     0
102
RTVSPost2010PropOp32
 70
     1
102
RTVSPost2010Prop33
280
     0
102
RTVSPost2010PropOp33
 70
     1
102
RTVSPost2010Prop34
280
     0
102
RTVSPost2010PropOp34
 70
     1
102
RTVSPost2010Prop35
280
     0
102
RTVSPost2010PropOp35
 70
     1
102
RTVSPost2010Prop36
280
     0
102
RTVSPost2010PropOp36
 70
     1
102
RTVSPost2010Prop37
 90
       50
102
RTVSPost2010PropOp37
 70
     0
102
RTVSPost2010Prop38
140
0.0
102
RTVSPost2010PropOp38
 70
     0
102
RTVSPost2010Prop39
140
1.0
102
RTVSPost2010PropOp39
 70
     0
102
RTVSPost2010Prop40
 90
        0
102
RTVSPost2010PropOp40
 70
     0
102
RTVSPost2010Prop41ColorIndex
 90
       18
102
RTVSPost2010Prop41ColorRGB
 90
        0
102
RTVSPost2010PropOp41
 70
     0
102
RTVSPost2010Prop42
 90
       50
102
RTVSPost2010PropOp42
 70
     0
102
RTVSPost2010Prop43
 90
        3
102
RTVSPost2010PropOp43
 70
     0
102
RTVSPost2010Prop44ColorIndex
 90
        5
102
RTVSPost2010Prop44ColorRGB
 90
      255
102
RTVSPost2010PropOp44
 70
     0
102
RTVSPost2010Prop45
280
     0
102
RTVSPost2010PropOp45
 70
     1
102
RTVSPost2010Prop46
 90
       50
102
RTVSPost2010PropOp46
 70
     0
102
RTVSPost2010Prop47
 90
       50
102
RTVSPost2010PropOp47
 70
     0
102
RTVSPost2010Prop48
 90
       50
102
RTVSPost2010PropOp48
 70
     0
102
RTVSPost2010Prop49
280
     0
102
RTVSPost2010PropOp49
 70
     1
102
RTVSPost2010Prop50
 90
       50
102
RTVSPost2010PropOp50
 70
     0
102
RTVSPost2010Prop51ColorIndex
 90
      256
102
RTVSPost2010Prop51ColorRGB
 90
-16777216
102
RTVSPost2010PropOp51
 70
     0
102
RTVSPost2010Prop52
140
1.0
102
RTVSPost2010PropOp52
 70
     0
102
RTVSPost2010Prop53
 90
        2
102
RTVSPost2010PropOp53
 70
     0
102
RTVSPost2010Prop54
  1
strokes_ogs.tif
102
RTVSPost2010PropOp54
 70
     0
102
RTVSPost2010Prop55
280
     0
102
RTVSPost2010PropOp55
 70
     1
102
RTVSPost2010Prop56
140
1.0
102
RTVSPost2010PropOp56
 70
     0
102
RTVSPost2010Prop57
140
1.0
102
RTVSPost2010PropOp57
 70
     0
102
RTVSPropertyOp0
 70
     0
102
RTVSPropertyOp1
 70
     0
102
RTVSPropertyOp2
 70
     0
102
RTVSPropertyOp3
 70
     0
102
RTVSPropertyOp4
 70
     0
102
RTVSPropertyOp5
 70
     0
102
RTVSPropertyOp6
 70
     0
102
RTVSPropertyOp7
 70
     0
102
RTVSPropertyOp8
 70
     0
102
RTVSPropertyOp9
 70
     0
102
RTVSPropertyOp10
 70
     0
102
RTVSPropertyOp11
 70
     0
102
RTVSPropertyOp12
 70
     0
102
RTVSPropertyOp13
 70
     0
102
RTVSPropertyOp14
 70
     2
102
RTVSPropertyOp15
 70
     0
102
RTVSPropertyOp16
 70
     0
102
RTVSPropertyOp17
 70
     0
102
RTVSPropertyOp18
 70
     0
102
RTVSPropertyOp19
 70
     0
102
RTVSPropertyOp20
 70
     0
102
RTVSPropertyOp21
 70
     0
102
RTVSPropertyOp22
 70
     0
102
RTVSPropertyOp23
 70
     0
102
RTVSPropertyOp24
 70
     0
102
RTVSPropertyOp25
 70
     0
102
RTVSPropertyOp26
 70
     0
102
RTVSPropertyOp27
 70
     0
102
RTVSPropertyOp28
 70
     1
102
RTVSPropertyOp29
 70
     1
102
RTVSPropertyOp30
 70
     1
102
RTVSPropertyOp31
 70
     1
102
RTVSPropertyOp32
 70
     1
102
RTVSPropertyOp33
 70
     1
102
RTVSPropertyOp34
 70
     1
102
RTVSPropertyOp35
 70
     1
102
RTVSPropertyOp36
 70
     1
102
RTVSPropertyOp37
 70
     0
102
RTVSPropertyOp38
 70
     0
102
RTVSPropertyOp39
 70
     0
102
RTVSPropertyOp40
 70
     0
102
RTVSPropertyOp41
 70
     0
102
RTVSPropertyOp42
 70
     0
102
RTVSPropertyOp43
 70
     0
102
RTVSPropertyOp44
 70
     0
102
RTVSPropertyOp45
 70
     1
102
RTVSPropertyOp46
 70
     0
102
RTVSPropertyOp47
 70
     0
102
RTVSPropertyOp48
 70
     0
102
RTVSPropertyOp49
 70
     1
102
RTVSPropertyOp50
 70
     0
102
RTVSPropertyOp51
 70
     0
102
RTVSPropertyOp52
 70
     0
102
RTVSPropertyOp53
 70
     0
102
RTVSPropertyOp54
 70
     0
102
RTVSPropertyOp55
 70
     1
102
RTVSPropertyOp56
 70
     0
102
RTVSPropertyOp57
 70
     0
102
RTVSPropertyOp58
 70
     0
102
RTVSPropertyOp59
 70
     0
102
RTVSPropertyOp60
 70
     0
102
RTVSPropertyOp61
 70
     0
102
RTVSPropertyOp62
 70
     0
  0
XRECORD
  5
83D
102
{ACAD_REACTORS
330
83C
102
}
330
83C
100
AcDbXrecord
280
     1
102
RTVSPost2010Prop28
280
     0
102
RTVSPost2010PropOp28
 70
     1
102
RTVSPost2010Prop29
280
     1
102
RTVSPost2010PropOp29
 70
     1
102
RTVSPost2010Prop30
280
     1
102
RTVSPost2010PropOp30
 70
     1
102
RTVSPost2010Prop31
280
     0
102
RTVSPost2010PropOp31
 70
     1
102
RTVSPost2010Prop32
280
     0
102
RTVSPost2010PropOp32
 70
     1
102
RTVSPost2010Prop33
280
     0
102
RTVSPost2010PropOp33
 70
     1
102
RTVSPost2010Prop34
280
     0
102
RTVSPost2010PropOp34
 70
     1
102
RTVSPost2010Prop35
280
     0
102
RTVSPost2010PropOp35
 70
     1
102
RTVSPost2010Prop36
280
     0
102
RTVSPost2010PropOp36
 70
     1
102
RTVSPost2010Prop37
 90
       50
102
RTVSPost2010PropOp37
 70
     1
102
RTVSPost2010Prop38
140
0.0
102
RTVSPost2010PropOp38
 70
     1
102
RTVSPost2010Prop39
140
1.0
102
RTVSPost2010PropOp39
 70
     1
102
RTVSPost2010Prop40
 90
        0
102
RTVSPost2010PropOp40
 70
     1
102
RTVSPost2010Prop41ColorIndex
 90
       18
102
RTVSPost2010Prop41ColorRGB
 90
        0
102
RTVSPost2010PropOp41
 70
     1
102
RTVSPost2010Prop42
 90
       50
102
RTVSPost2010PropOp42
 70
     1
102
RTVSPost2010Prop43
 90
        3
102
RTVSPost2010PropOp43
 70
     1
102
RTVSPost2010Prop44ColorIndex
 90
        5
102
RTVSPost2010Prop44ColorRGB
 90
      255
102
RTVSPost2010PropOp44
 70
     1
102
RTVSPost2010Prop45
280
     0
102
RTVSPost2010PropOp45
 70
     1
102
RTVSPost2010Prop46
 90
       50
102
RTVSPost2010PropOp46
 70
     1
102
RTVSPost2010Prop47
 90
       50
102
RTVSPost2010PropOp47
 70
     1
102
RTVSPost2010Prop48
 90
       50
102
RTVSPost2010PropOp48
 70
     1
102
RTVSPost2010Prop49
280
     0
102
RTVSPost2010PropOp49
 70
     1
102
RTVSPost2010Prop50
 90
       50
102
RTVSPost2010PropOp50
 70
     1
102
RTVSPost2010Prop51ColorIndex
 90
      256
102
RTVSPost2010Prop51ColorRGB
 90
-16777216
102
RTVSPost2010PropOp51
 70
     0
102
RTVSPost2010Prop52
140
1.0
102
RTVSPost2010PropOp52
 70
     0
102
RTVSPost2010Prop53
 90
        2
102
RTVSPost2010PropOp53
 70
     1
102
RTVSPost2010Prop54
  1
strokes_ogs.tif
102
RTVSPost2010PropOp54
 70
     1
102
RTVSPost2010Prop55
280
     0
102
RTVSPost2010PropOp55
 70
     1
102
RTVSPost2010Prop56
140
1.0
102
RTVSPost2010PropOp56
 70
     1
102
RTVSPost2010Prop57
140
1.0
102
RTVSPost2010PropOp57
 70
     1
102
RTVSPropertyOp0
 70
     1
102
RTVSPropertyOp1
 70
     1
102
RTVSPropertyOp2
 70
     1
102
RTVSPropertyOp3
 70
     1
102
RTVSPropertyOp4
 70
     1
102
RTVSPropertyOp5
 70
     1
102
RTVSPropertyOp6
 70
     1
102
RTVSPropertyOp7
 70
     1
102
RTVSPropertyOp8
 70
     1
102
RTVSPropertyOp9
 70
     1
102
RTVSPropertyOp10
 70
     1
102
RTVSPropertyOp11
 70
     1
102
RTVSPropertyOp12
 70
     1
102
RTVSPropertyOp13
 70
     1
102
RTVSPropertyOp14
 70
     1
102
RTVSPropertyOp15
 70
     1
102
RTVSPropertyOp16
 70
     1
102
RTVSPropertyOp17
 70
     1
102
RTVSPropertyOp18
 70
     1
102
RTVSPropertyOp19
 70
     1
102
RTVSPropertyOp20
 70
     1
102
RTVSPropertyOp21
 70
     1
102
RTVSPropertyOp22
 70
     1
102
RTVSPropertyOp23
 70
     1
102
RTVSPropertyOp24
 70
     1
102
RTVSPropertyOp25
 70
     1
102
RTVSPropertyOp26
 70
     1
102
RTVSPropertyOp27
 70
     1
102
RTVSPropertyOp28
 70
     1
102
RTVSPropertyOp29
 70
     1
102
RTVSPropertyOp30
 70
     1
102
RTVSPropertyOp31
 70
     1
102
RTVSPropertyOp32
 70
     1
102
RTVSPropertyOp33
 70
     1
102
RTVSPropertyOp34
 70
     1
102
RTVSPropertyOp35
 70
     1
102
RTVSPropertyOp36
 70
     1
102
RTVSPropertyOp37
 70
     1
102
RTVSPropertyOp38
 70
     1
102
RTVSPropertyOp39
 70
     1
102
RTVSPropertyOp40
 70
     1
102
RTVSPropertyOp41
 70
     1
102
RTVSPropertyOp42
 70
     1
102
RTVSPropertyOp43
 70
     1
102
RTVSPropertyOp44
 70
     1
102
RTVSPropertyOp45
 70
     1
102
RTVSPropertyOp46
 70
     1
102
RTVSPropertyOp47
 70
     1
102
RTVSPropertyOp48
 70
     1
102
RTVSPropertyOp49
 70
     1
102
RTVSPropertyOp50
 70
     1
102
RTVSPropertyOp51
 70
     0
102
RTVSPropertyOp52
 70
     0
102
RTVSPropertyOp53
 70
     1
102
RTVSPropertyOp54
 70
     1
102
RTVSPropertyOp55
 70
     1
102
RTVSPropertyOp56
 70
     1
102
RTVSPropertyOp57
 70
     1
102
RTVSPropertyOp58
 70
     1
102
RTVSPropertyOp59
 70
     1
102
RTVSPropertyOp60
 70
     1
102
RTVSPropertyOp61
 70
     1
102
RTVSPropertyOp62
 70
     1
  0
XRECORD
  5
821
102
{ACAD_REACTORS
330
820
102
}
330
820
100
AcDbXrecord
280
     1
102
RTVSPost2010Prop28
280
     0
102
RTVSPost2010PropOp28
 70
     1
102
RTVSPost2010Prop29
280
     1
102
RTVSPost2010PropOp29
 70
     1
102
RTVSPost2010Prop30
280
     1
102
RTVSPost2010PropOp30
 70
     1
102
RTVSPost2010Prop31
280
     0
102
RTVSPost2010PropOp31
 70
     1
102
RTVSPost2010Prop32
280
     0
102
RTVSPost2010PropOp32
 70
     1
102
RTVSPost2010Prop33
280
     0
102
RTVSPost2010PropOp33
 70
     1
102
RTVSPost2010Prop34
280
     0
102
RTVSPost2010PropOp34
 70
     1
102
RTVSPost2010Prop35
280
     0
102
RTVSPost2010PropOp35
 70
     1
102
RTVSPost2010Prop36
280
     0
102
RTVSPost2010PropOp36
 70
     1
102
RTVSPost2010Prop37
 90
       50
102
RTVSPost2010PropOp37
 70
     1
102
RTVSPost2010Prop38
140
0.0
102
RTVSPost2010PropOp38
 70
     1
102
RTVSPost2010Prop39
140
1.0
102
RTVSPost2010PropOp39
 70
     1
102
RTVSPost2010Prop40
 90
        0
102
RTVSPost2010PropOp40
 70
     1
102
RTVSPost2010Prop41ColorIndex
 90
       18
102
RTVSPost2010Prop41ColorRGB
 90
        0
102
RTVSPost2010PropOp41
 70
     1
102
RTVSPost2010Prop42
 90
       50
102
RTVSPost2010PropOp42
 70
     1
102
RTVSPost2010Prop43
 90
        3
102
RTVSPost2010PropOp43
 70
     1
102
RTVSPost2010Prop44ColorIndex
 90
        5
102
RTVSPost2010Prop44ColorRGB
 90
      255
102
RTVSPost2010PropOp44
 70
     1
102
RTVSPost2010Prop45
280
     0
102
RTVSPost2010PropOp45
 70
     1
102
RTVSPost2010Prop46
 90
       50
102
RTVSPost2010PropOp46
 70
     1
102
RTVSPost2010Prop47
 90
       50
102
RTVSPost2010PropOp47
 70
     1
102
RTVSPost2010Prop48
 90
       50
102
RTVSPost2010PropOp48
 70
     1
102
RTVSPost2010Prop49
280
     0
102
RTVSPost2010PropOp49
 70
     1
102
RTVSPost2010Prop50
 90
       50
102
RTVSPost2010PropOp50
 70
     1
102
RTVSPost2010Prop51ColorIndex
 90
      256
102
RTVSPost2010Prop51ColorRGB
 90
-16777216
102
RTVSPost2010PropOp51
 70
     0
102
RTVSPost2010Prop52
140
1.0
102
RTVSPost2010PropOp52
 70
     0
102
RTVSPost2010Prop53
 90
        2
102
RTVSPost2010PropOp53
 70
     1
102
RTVSPost2010Prop54
  1
strokes_ogs.tif
102
RTVSPost2010PropOp54
 70
     1
102
RTVSPost2010Prop55
280
     0
102
RTVSPost2010PropOp55
 70
     1
102
RTVSPost2010Prop56
140
1.0
102
RTVSPost2010PropOp56
 70
     1
102
RTVSPost2010Prop57
140
1.0
102
RTVSPost2010PropOp57
 70
     1
102
RTVSPropertyOp0
 70
     1
102
RTVSPropertyOp1
 70
     1
102
RTVSPropertyOp2
 70
     1
102
RTVSPropertyOp3
 70
     1
102
RTVSPropertyOp4
 70
     1
102
RTVSPropertyOp5
 70
     1
102
RTVSPropertyOp6
 70
     1
102
RTVSPropertyOp7
 70
     1
102
RTVSPropertyOp8
 70
     1
102
RTVSPropertyOp9
 70
     1
102
RTVSPropertyOp10
 70
     1
102
RTVSPropertyOp11
 70
     1
102
RTVSPropertyOp12
 70
     1
102
RTVSPropertyOp13
 70
     1
102
RTVSPropertyOp14
 70
     1
102
RTVSPropertyOp15
 70
     1
102
RTVSPropertyOp16
 70
     1
102
RTVSPropertyOp17
 70
     1
102
RTVSPropertyOp18
 70
     1
102
RTVSPropertyOp19
 70
     1
102
RTVSPropertyOp20
 70
     1
102
RTVSPropertyOp21
 70
     1
102
RTVSPropertyOp22
 70
     1
102
RTVSPropertyOp23
 70
     1
102
RTVSPropertyOp24
 70
     1
102
RTVSPropertyOp25
 70
     1
102
RTVSPropertyOp26
 70
     1
102
RTVSPropertyOp27
 70
     1
102
RTVSPropertyOp28
 70
     1
102
RTVSPropertyOp29
 70
     1
102
RTVSPropertyOp30
 70
     1
102
RTVSPropertyOp31
 70
     1
102
RTVSPropertyOp32
 70
     1
102
RTVSPropertyOp33
 70
     1
102
RTVSPropertyOp34
 70
     1
102
RTVSPropertyOp35
 70
     1
102
RTVSPropertyOp36
 70
     1
102
RTVSPropertyOp37
 70
     1
102
RTVSPropertyOp38
 70
     1
102
RTVSPropertyOp39
 70
     1
102
RTVSPropertyOp40
 70
     1
102
RTVSPropertyOp41
 70
     1
102
RTVSPropertyOp42
 70
     1
102
RTVSPropertyOp43
 70
     1
102
RTVSPropertyOp44
 70
     1
102
RTVSPropertyOp45
 70
     1
102
RTVSPropertyOp46
 70
     1
102
RTVSPropertyOp47
 70
     1
102
RTVSPropertyOp48
 70
     1
102
RTVSPropertyOp49
 70
     1
102
RTVSPropertyOp50
 70
     1
102
RTVSPropertyOp51
 70
     0
102
RTVSPropertyOp52
 70
     0
102
RTVSPropertyOp53
 70
     1
102
RTVSPropertyOp54
 70
     1
102
RTVSPropertyOp55
 70
     1
102
RTVSPropertyOp56
 70
     1
102
RTVSPropertyOp57
 70
     1
102
RTVSPropertyOp58
 70
     1
102
RTVSPropertyOp59
 70
     1
102
RTVSPropertyOp60
 70
     1
102
RTVSPropertyOp61
 70
     1
102
RTVSPropertyOp62
 70
     1
  0
XRECORD
  5
823
102
{ACAD_REACTORS
330
822
102
}
330
822
100
AcDbXrecord
280
     1
102
RTVSPost2010Prop28
280
     0
102
RTVSPost2010PropOp28
 70
     1
102
RTVSPost2010Prop29
280
     1
102
RTVSPost2010PropOp29
 70
     1
102
RTVSPost2010Prop30
280
     1
102
RTVSPost2010PropOp30
 70
     1
102
RTVSPost2010Prop31
280
     0
102
RTVSPost2010PropOp31
 70
     1
102
RTVSPost2010Prop32
280
     0
102
RTVSPost2010PropOp32
 70
     1
102
RTVSPost2010Prop33
280
     0
102
RTVSPost2010PropOp33
 70
     1
102
RTVSPost2010Prop34
280
     0
102
RTVSPost2010PropOp34
 70
     1
102
RTVSPost2010Prop35
280
     0
102
RTVSPost2010PropOp35
 70
     1
102
RTVSPost2010Prop36
280
     0
102
RTVSPost2010PropOp36
 70
     1
102
RTVSPost2010Prop37
 90
       50
102
RTVSPost2010PropOp37
 70
     1
102
RTVSPost2010Prop38
140
0.0
102
RTVSPost2010PropOp38
 70
     1
102
RTVSPost2010Prop39
140
1.0
102
RTVSPost2010PropOp39
 70
     1
102
RTVSPost2010Prop40
 90
        0
102
RTVSPost2010PropOp40
 70
     1
102
RTVSPost2010Prop41ColorIndex
 90
       18
102
RTVSPost2010Prop41ColorRGB
 90
        0
102
RTVSPost2010PropOp41
 70
     1
102
RTVSPost2010Prop42
 90
       50
102
RTVSPost2010PropOp42
 70
     1
102
RTVSPost2010Prop43
 90
        3
102
RTVSPost2010PropOp43
 70
     1
102
RTVSPost2010Prop44ColorIndex
 90
        5
102
RTVSPost2010Prop44ColorRGB
 90
      255
102
RTVSPost2010PropOp44
 70
     1
102
RTVSPost2010Prop45
280
     0
102
RTVSPost2010PropOp45
 70
     1
102
RTVSPost2010Prop46
 90
       50
102
RTVSPost2010PropOp46
 70
     1
102
RTVSPost2010Prop47
 90
       50
102
RTVSPost2010PropOp47
 70
     1
102
RTVSPost2010Prop48
 90
       50
102
RTVSPost2010PropOp48
 70
     1
102
RTVSPost2010Prop49
280
     0
102
RTVSPost2010PropOp49
 70
     1
102
RTVSPost2010Prop50
 90
       50
102
RTVSPost2010PropOp50
 70
     1
102
RTVSPost2010Prop51ColorIndex
 90
      256
102
RTVSPost2010Prop51ColorRGB
 90
-16777216
102
RTVSPost2010PropOp51
 70
     0
102
RTVSPost2010Prop52
140
1.0
102
RTVSPost2010PropOp52
 70
     0
102
RTVSPost2010Prop53
 90
        2
102
RTVSPost2010PropOp53
 70
     1
102
RTVSPost2010Prop54
  1
strokes_ogs.tif
102
RTVSPost2010PropOp54
 70
     1
102
RTVSPost2010Prop55
280
     0
102
RTVSPost2010PropOp55
 70
     1
102
RTVSPost2010Prop56
140
1.0
102
RTVSPost2010PropOp56
 70
     1
102
RTVSPost2010Prop57
140
1.0
102
RTVSPost2010PropOp57
 70
     1
102
RTVSPropertyOp0
 70
     1
102
RTVSPropertyOp1
 70
     1
102
RTVSPropertyOp2
 70
     1
102
RTVSPropertyOp3
 70
     1
102
RTVSPropertyOp4
 70
     1
102
RTVSPropertyOp5
 70
     1
102
RTVSPropertyOp6
 70
     1
102
RTVSPropertyOp7
 70
     1
102
RTVSPropertyOp8
 70
     1
102
RTVSPropertyOp9
 70
     1
102
RTVSPropertyOp10
 70
     1
102
RTVSPropertyOp11
 70
     1
102
RTVSPropertyOp12
 70
     1
102
RTVSPropertyOp13
 70
     1
102
RTVSPropertyOp14
 70
     1
102
RTVSPropertyOp15
 70
     1
102
RTVSPropertyOp16
 70
     1
102
RTVSPropertyOp17
 70
     1
102
RTVSPropertyOp18
 70
     1
102
RTVSPropertyOp19
 70
     1
102
RTVSPropertyOp20
 70
     1
102
RTVSPropertyOp21
 70
     1
102
RTVSPropertyOp22
 70
     1
102
RTVSPropertyOp23
 70
     1
102
RTVSPropertyOp24
 70
     1
102
RTVSPropertyOp25
 70
     1
102
RTVSPropertyOp26
 70
     1
102
RTVSPropertyOp27
 70
     1
102
RTVSPropertyOp28
 70
     1
102
RTVSPropertyOp29
 70
     1
102
RTVSPropertyOp30
 70
     1
102
RTVSPropertyOp31
 70
     1
102
RTVSPropertyOp32
 70
     1
102
RTVSPropertyOp33
 70
     1
102
RTVSPropertyOp34
 70
     1
102
RTVSPropertyOp35
 70
     1
102
RTVSPropertyOp36
 70
     1
102
RTVSPropertyOp37
 70
     1
102
RTVSPropertyOp38
 70
     1
102
RTVSPropertyOp39
 70
     1
102
RTVSPropertyOp40
 70
     1
102
RTVSPropertyOp41
 70
     1
102
RTVSPropertyOp42
 70
     1
102
RTVSPropertyOp43
 70
     1
102
RTVSPropertyOp44
 70
     1
102
RTVSPropertyOp45
 70
     1
102
RTVSPropertyOp46
 70
     1
102
RTVSPropertyOp47
 70
     1
102
RTVSPropertyOp48
 70
     1
102
RTVSPropertyOp49
 70
     1
102
RTVSPropertyOp50
 70
     1
102
RTVSPropertyOp51
 70
     0
102
RTVSPropertyOp52
 70
     0
102
RTVSPropertyOp53
 70
     1
102
RTVSPropertyOp54
 70
     1
102
RTVSPropertyOp55
 70
     1
102
RTVSPropertyOp56
 70
     1
102
RTVSPropertyOp57
 70
     1
102
RTVSPropertyOp58
 70
     1
102
RTVSPropertyOp59
 70
     1
102
RTVSPropertyOp60
 70
     1
102
RTVSPropertyOp61
 70
     1
102
RTVSPropertyOp62
 70
     1
  0
XRECORD
  5
825
102
{ACAD_REACTORS
330
824
102
}
330
824
100
AcDbXrecord
280
     1
102
RTVSPost2010Prop28
280
     0
102
RTVSPost2010PropOp28
 70
     1
102
RTVSPost2010Prop29
280
     1
102
RTVSPost2010PropOp29
 70
     1
102
RTVSPost2010Prop30
280
     1
102
RTVSPost2010PropOp30
 70
     1
102
RTVSPost2010Prop31
280
     0
102
RTVSPost2010PropOp31
 70
     1
102
RTVSPost2010Prop32
280
     0
102
RTVSPost2010PropOp32
 70
     1
102
RTVSPost2010Prop33
280
     0
102
RTVSPost2010PropOp33
 70
     1
102
RTVSPost2010Prop34
280
     0
102
RTVSPost2010PropOp34
 70
     1
102
RTVSPost2010Prop35
280
     0
102
RTVSPost2010PropOp35
 70
     1
102
RTVSPost2010Prop36
280
     0
102
RTVSPost2010PropOp36
 70
     1
102
RTVSPost2010Prop37
 90
       50
102
RTVSPost2010PropOp37
 70
     1
102
RTVSPost2010Prop38
140
0.0
102
RTVSPost2010PropOp38
 70
     1
102
RTVSPost2010Prop39
140
1.0
102
RTVSPost2010PropOp39
 70
     1
102
RTVSPost2010Prop40
 90
        0
102
RTVSPost2010PropOp40
 70
     1
102
RTVSPost2010Prop41ColorIndex
 90
       18
102
RTVSPost2010Prop41ColorRGB
 90
        0
102
RTVSPost2010PropOp41
 70
     1
102
RTVSPost2010Prop42
 90
       50
102
RTVSPost2010PropOp42
 70
     1
102
RTVSPost2010Prop43
 90
        3
102
RTVSPost2010PropOp43
 70
     1
102
RTVSPost2010Prop44ColorIndex
 90
        5
102
RTVSPost2010Prop44ColorRGB
 90
      255
102
RTVSPost2010PropOp44
 70
     1
102
RTVSPost2010Prop45
280
     0
102
RTVSPost2010PropOp45
 70
     1
102
RTVSPost2010Prop46
 90
       50
102
RTVSPost2010PropOp46
 70
     1
102
RTVSPost2010Prop47
 90
       50
102
RTVSPost2010PropOp47
 70
     1
102
RTVSPost2010Prop48
 90
       50
102
RTVSPost2010PropOp48
 70
     1
102
RTVSPost2010Prop49
280
     0
102
RTVSPost2010PropOp49
 70
     1
102
RTVSPost2010Prop50
 90
       50
102
RTVSPost2010PropOp50
 70
     1
102
RTVSPost2010Prop51ColorIndex
 90
      256
102
RTVSPost2010Prop51ColorRGB
 90
-16777216
102
RTVSPost2010PropOp51
 70
     0
102
RTVSPost2010Prop52
140
1.0
102
RTVSPost2010PropOp52
 70
     0
102
RTVSPost2010Prop53
 90
        2
102
RTVSPost2010PropOp53
 70
     1
102
RTVSPost2010Prop54
  1
strokes_ogs.tif
102
RTVSPost2010PropOp54
 70
     1
102
RTVSPost2010Prop55
280
     0
102
RTVSPost2010PropOp55
 70
     1
102
RTVSPost2010Prop56
140
1.0
102
RTVSPost2010PropOp56
 70
     1
102
RTVSPost2010Prop57
140
1.0
102
RTVSPost2010PropOp57
 70
     1
102
RTVSPropertyOp0
 70
     1
102
RTVSPropertyOp1
 70
     1
102
RTVSPropertyOp2
 70
     1
102
RTVSPropertyOp3
 70
     1
102
RTVSPropertyOp4
 70
     1
102
RTVSPropertyOp5
 70
     1
102
RTVSPropertyOp6
 70
     1
102
RTVSPropertyOp7
 70
     1
102
RTVSPropertyOp8
 70
     1
102
RTVSPropertyOp9
 70
     1
102
RTVSPropertyOp10
 70
     1
102
RTVSPropertyOp11
 70
     1
102
RTVSPropertyOp12
 70
     1
102
RTVSPropertyOp13
 70
     1
102
RTVSPropertyOp14
 70
     1
102
RTVSPropertyOp15
 70
     1
102
RTVSPropertyOp16
 70
     1
102
RTVSPropertyOp17
 70
     1
102
RTVSPropertyOp18
 70
     1
102
RTVSPropertyOp19
 70
     1
102
RTVSPropertyOp20
 70
     1
102
RTVSPropertyOp21
 70
     1
102
RTVSPropertyOp22
 70
     1
102
RTVSPropertyOp23
 70
     1
102
RTVSPropertyOp24
 70
     1
102
RTVSPropertyOp25
 70
     1
102
RTVSPropertyOp26
 70
     1
102
RTVSPropertyOp27
 70
     1
102
RTVSPropertyOp28
 70
     1
102
RTVSPropertyOp29
 70
     1
102
RTVSPropertyOp30
 70
     1
102
RTVSPropertyOp31
 70
     1
102
RTVSPropertyOp32
 70
     1
102
RTVSPropertyOp33
 70
     1
102
RTVSPropertyOp34
 70
     1
102
RTVSPropertyOp35
 70
     1
102
RTVSPropertyOp36
 70
     1
102
RTVSPropertyOp37
 70
     1
102
RTVSPropertyOp38
 70
     1
102
RTVSPropertyOp39
 70
     1
102
RTVSPropertyOp40
 70
     1
102
RTVSPropertyOp41
 70
     1
102
RTVSPropertyOp42
 70
     1
102
RTVSPropertyOp43
 70
     1
102
RTVSPropertyOp44
 70
     1
102
RTVSPropertyOp45
 70
     1
102
RTVSPropertyOp46
 70
     1
102
RTVSPropertyOp47
 70
     1
102
RTVSPropertyOp48
 70
     1
102
RTVSPropertyOp49
 70
     1
102
RTVSPropertyOp50
 70
     1
102
RTVSPropertyOp51
 70
     0
102
RTVSPropertyOp52
 70
     0
102
RTVSPropertyOp53
 70
     1
102
RTVSPropertyOp54
 70
     1
102
RTVSPropertyOp55
 70
     1
102
RTVSPropertyOp56
 70
     1
102
RTVSPropertyOp57
 70
     1
102
RTVSPropertyOp58
 70
     1
102
RTVSPropertyOp59
 70
     1
102
RTVSPropertyOp60
 70
     1
102
RTVSPropertyOp61
 70
     1
102
RTVSPropertyOp62
 70
     1
  0
XRECORD
  5
827
102
{ACAD_REACTORS
330
826
102
}
330
826
100
AcDbXrecord
280
     1
102
RTVSPost2010Prop28
280
     0
102
RTVSPost2010PropOp28
 70
     1
102
RTVSPost2010Prop29
280
     1
102
RTVSPost2010PropOp29
 70
     1
102
RTVSPost2010Prop30
280
     1
102
RTVSPost2010PropOp30
 70
     1
102
RTVSPost2010Prop31
280
     0
102
RTVSPost2010PropOp31
 70
     1
102
RTVSPost2010Prop32
280
     0
102
RTVSPost2010PropOp32
 70
     1
102
RTVSPost2010Prop33
280
     0
102
RTVSPost2010PropOp33
 70
     1
102
RTVSPost2010Prop34
280
     0
102
RTVSPost2010PropOp34
 70
     1
102
RTVSPost2010Prop35
280
     0
102
RTVSPost2010PropOp35
 70
     1
102
RTVSPost2010Prop36
280
     0
102
RTVSPost2010PropOp36
 70
     1
102
RTVSPost2010Prop37
 90
       50
102
RTVSPost2010PropOp37
 70
     1
102
RTVSPost2010Prop38
140
0.0
102
RTVSPost2010PropOp38
 70
     1
102
RTVSPost2010Prop39
140
1.0
102
RTVSPost2010PropOp39
 70
     1
102
RTVSPost2010Prop40
 90
        0
102
RTVSPost2010PropOp40
 70
     1
102
RTVSPost2010Prop41ColorIndex
 90
       18
102
RTVSPost2010Prop41ColorRGB
 90
        0
102
RTVSPost2010PropOp41
 70
     1
102
RTVSPost2010Prop42
 90
       50
102
RTVSPost2010PropOp42
 70
     1
102
RTVSPost2010Prop43
 90
        3
102
RTVSPost2010PropOp43
 70
     1
102
RTVSPost2010Prop44ColorIndex
 90
        5
102
RTVSPost2010Prop44ColorRGB
 90
      255
102
RTVSPost2010PropOp44
 70
     1
102
RTVSPost2010Prop45
280
     0
102
RTVSPost2010PropOp45
 70
     1
102
RTVSPost2010Prop46
 90
       50
102
RTVSPost2010PropOp46
 70
     1
102
RTVSPost2010Prop47
 90
       50
102
RTVSPost2010PropOp47
 70
     1
102
RTVSPost2010Prop48
 90
       50
102
RTVSPost2010PropOp48
 70
     1
102
RTVSPost2010Prop49
280
     0
102
RTVSPost2010PropOp49
 70
     1
102
RTVSPost2010Prop50
 90
       50
102
RTVSPost2010PropOp50
 70
     1
102
RTVSPost2010Prop51ColorIndex
 90
      256
102
RTVSPost2010Prop51ColorRGB
 90
-16777216
102
RTVSPost2010PropOp51
 70
     0
102
RTVSPost2010Prop52
140
1.0
102
RTVSPost2010PropOp52
 70
     0
102
RTVSPost2010Prop53
 90
        2
102
RTVSPost2010PropOp53
 70
     1
102
RTVSPost2010Prop54
  1
strokes_ogs.tif
102
RTVSPost2010PropOp54
 70
     1
102
RTVSPost2010Prop55
280
     0
102
RTVSPost2010PropOp55
 70
     1
102
RTVSPost2010Prop56
140
1.0
102
RTVSPost2010PropOp56
 70
     1
102
RTVSPost2010Prop57
140
1.0
102
RTVSPost2010PropOp57
 70
     1
102
RTVSPropertyOp0
 70
     1
102
RTVSPropertyOp1
 70
     1
102
RTVSPropertyOp2
 70
     1
102
RTVSPropertyOp3
 70
     1
102
RTVSPropertyOp4
 70
     1
102
RTVSPropertyOp5
 70
     1
102
RTVSPropertyOp6
 70
     1
102
RTVSPropertyOp7
 70
     1
102
RTVSPropertyOp8
 70
     1
102
RTVSPropertyOp9
 70
     1
102
RTVSPropertyOp10
 70
     1
102
RTVSPropertyOp11
 70
     1
102
RTVSPropertyOp12
 70
     1
102
RTVSPropertyOp13
 70
     1
102
RTVSPropertyOp14
 70
     1
102
RTVSPropertyOp15
 70
     1
102
RTVSPropertyOp16
 70
     1
102
RTVSPropertyOp17
 70
     1
102
RTVSPropertyOp18
 70
     1
102
RTVSPropertyOp19
 70
     1
102
RTVSPropertyOp20
 70
     1
102
RTVSPropertyOp21
 70
     1
102
RTVSPropertyOp22
 70
     1
102
RTVSPropertyOp23
 70
     1
102
RTVSPropertyOp24
 70
     1
102
RTVSPropertyOp25
 70
     1
102
RTVSPropertyOp26
 70
     1
102
RTVSPropertyOp27
 70
     1
102
RTVSPropertyOp28
 70
     1
102
RTVSPropertyOp29
 70
     1
102
RTVSPropertyOp30
 70
     1
102
RTVSPropertyOp31
 70
     1
102
RTVSPropertyOp32
 70
     1
102
RTVSPropertyOp33
 70
     1
102
RTVSPropertyOp34
 70
     1
102
RTVSPropertyOp35
 70
     1
102
RTVSPropertyOp36
 70
     1
102
RTVSPropertyOp37
 70
     1
102
RTVSPropertyOp38
 70
     1
102
RTVSPropertyOp39
 70
     1
102
RTVSPropertyOp40
 70
     1
102
RTVSPropertyOp41
 70
     1
102
RTVSPropertyOp42
 70
     1
102
RTVSPropertyOp43
 70
     1
102
RTVSPropertyOp44
 70
     1
102
RTVSPropertyOp45
 70
     1
102
RTVSPropertyOp46
 70
     1
102
RTVSPropertyOp47
 70
     1
102
RTVSPropertyOp48
 70
     1
102
RTVSPropertyOp49
 70
     1
102
RTVSPropertyOp50
 70
     1
102
RTVSPropertyOp51
 70
     0
102
RTVSPropertyOp52
 70
     0
102
RTVSPropertyOp53
 70
     1
102
RTVSPropertyOp54
 70
     1
102
RTVSPropertyOp55
 70
     1
102
RTVSPropertyOp56
 70
     1
102
RTVSPropertyOp57
 70
     1
102
RTVSPropertyOp58
 70
     1
102
RTVSPropertyOp59
 70
     1
102
RTVSPropertyOp60
 70
     1
102
RTVSPropertyOp61
 70
     1
102
RTVSPropertyOp62
 70
     1
  0
XRECORD
  5
82F
102
{ACAD_REACTORS
330
82E
102
}
330
82E
100
AcDbXrecord
280
     1
102
RTVSPost2010Prop28
280
     0
102
RTVSPost2010PropOp28
 70
     1
102
RTVSPost2010Prop29
280
     1
102
RTVSPost2010PropOp29
 70
     1
102
RTVSPost2010Prop30
280
     1
102
RTVSPost2010PropOp30
 70
     1
102
RTVSPost2010Prop31
280
     0
102
RTVSPost2010PropOp31
 70
     1
102
RTVSPost2010Prop32
280
     0
102
RTVSPost2010PropOp32
 70
     1
102
RTVSPost2010Prop33
280
     0
102
RTVSPost2010PropOp33
 70
     1
102
RTVSPost2010Prop34
280
     0
102
RTVSPost2010PropOp34
 70
     1
102
RTVSPost2010Prop35
280
     0
102
RTVSPost2010PropOp35
 70
     1
102
RTVSPost2010Prop36
280
     0
102
RTVSPost2010PropOp36
 70
     1
102
RTVSPost2010Prop37
 90
       50
102
RTVSPost2010PropOp37
 70
     1
102
RTVSPost2010Prop38
140
0.0
102
RTVSPost2010PropOp38
 70
     1
102
RTVSPost2010Prop39
140
1.0
102
RTVSPost2010PropOp39
 70
     1
102
RTVSPost2010Prop40
 90
        0
102
RTVSPost2010PropOp40
 70
     1
102
RTVSPost2010Prop41ColorIndex
 90
       18
102
RTVSPost2010Prop41ColorRGB
 90
        0
102
RTVSPost2010PropOp41
 70
     1
102
RTVSPost2010Prop42
 90
       50
102
RTVSPost2010PropOp42
 70
     1
102
RTVSPost2010Prop43
 90
        3
102
RTVSPost2010PropOp43
 70
     1
102
RTVSPost2010Prop44ColorIndex
 90
        5
102
RTVSPost2010Prop44ColorRGB
 90
      255
102
RTVSPost2010PropOp44
 70
     1
102
RTVSPost2010Prop45
280
     0
102
RTVSPost2010PropOp45
 70
     1
102
RTVSPost2010Prop46
 90
       50
102
RTVSPost2010PropOp46
 70
     1
102
RTVSPost2010Prop47
 90
       50
102
RTVSPost2010PropOp47
 70
     1
102
RTVSPost2010Prop48
 90
       50
102
RTVSPost2010PropOp48
 70
     1
102
RTVSPost2010Prop49
280
     0
102
RTVSPost2010PropOp49
 70
     1
102
RTVSPost2010Prop50
 90
       50
102
RTVSPost2010PropOp50
 70
     1
102
RTVSPost2010Prop51ColorIndex
 90
      256
102
RTVSPost2010Prop51ColorRGB
 90
-16777216
102
RTVSPost2010PropOp51
 70
     0
102
RTVSPost2010Prop52
140
1.0
102
RTVSPost2010PropOp52
 70
     0
102
RTVSPost2010Prop53
 90
        2
102
RTVSPost2010PropOp53
 70
     1
102
RTVSPost2010Prop54
  1
strokes_ogs.tif
102
RTVSPost2010PropOp54
 70
     1
102
RTVSPost2010Prop55
280
     0
102
RTVSPost2010PropOp55
 70
     1
102
RTVSPost2010Prop56
140
1.0
102
RTVSPost2010PropOp56
 70
     1
102
RTVSPost2010Prop57
140
1.0
102
RTVSPost2010PropOp57
 70
     1
102
RTVSPropertyOp0
 70
     1
102
RTVSPropertyOp1
 70
     1
102
RTVSPropertyOp2
 70
     1
102
RTVSPropertyOp3
 70
     1
102
RTVSPropertyOp4
 70
     1
102
RTVSPropertyOp5
 70
     1
102
RTVSPropertyOp6
 70
     1
102
RTVSPropertyOp7
 70
     1
102
RTVSPropertyOp8
 70
     1
102
RTVSPropertyOp9
 70
     1
102
RTVSPropertyOp10
 70
     1
102
RTVSPropertyOp11
 70
     1
102
RTVSPropertyOp12
 70
     1
102
RTVSPropertyOp13
 70
     1
102
RTVSPropertyOp14
 70
     1
102
RTVSPropertyOp15
 70
     1
102
RTVSPropertyOp16
 70
     1
102
RTVSPropertyOp17
 70
     1
102
RTVSPropertyOp18
 70
     1
102
RTVSPropertyOp19
 70
     1
102
RTVSPropertyOp20
 70
     1
102
RTVSPropertyOp21
 70
     1
102
RTVSPropertyOp22
 70
     1
102
RTVSPropertyOp23
 70
     1
102
RTVSPropertyOp24
 70
     1
102
RTVSPropertyOp25
 70
     1
102
RTVSPropertyOp26
 70
     1
102
RTVSPropertyOp27
 70
     1
102
RTVSPropertyOp28
 70
     1
102
RTVSPropertyOp29
 70
     1
102
RTVSPropertyOp30
 70
     1
102
RTVSPropertyOp31
 70
     1
102
RTVSPropertyOp32
 70
     1
102
RTVSPropertyOp33
 70
     1
102
RTVSPropertyOp34
 70
     1
102
RTVSPropertyOp35
 70
     1
102
RTVSPropertyOp36
 70
     1
102
RTVSPropertyOp37
 70
     1
102
RTVSPropertyOp38
 70
     1
102
RTVSPropertyOp39
 70
     1
102
RTVSPropertyOp40
 70
     1
102
RTVSPropertyOp41
 70
     1
102
RTVSPropertyOp42
 70
     1
102
RTVSPropertyOp43
 70
     1
102
RTVSPropertyOp44
 70
     1
102
RTVSPropertyOp45
 70
     1
102
RTVSPropertyOp46
 70
     1
102
RTVSPropertyOp47
 70
     1
102
RTVSPropertyOp48
 70
     1
102
RTVSPropertyOp49
 70
     1
102
RTVSPropertyOp50
 70
     1
102
RTVSPropertyOp51
 70
     0
102
RTVSPropertyOp52
 70
     0
102
RTVSPropertyOp53
 70
     1
102
RTVSPropertyOp54
 70
     1
102
RTVSPropertyOp55
 70
     1
102
RTVSPropertyOp56
 70
     1
102
RTVSPropertyOp57
 70
     1
102
RTVSPropertyOp58
 70
     1
102
RTVSPropertyOp59
 70
     1
102
RTVSPropertyOp60
 70
     1
102
RTVSPropertyOp61
 70
     1
102
RTVSPropertyOp62
 70
     1
  0
XRECORD
  5
84B
102
{ACAD_REACTORS
330
84A
102
}
330
84A
100
AcDbXrecord
280
     1
102
RTVSPost2010Prop28
280
     0
102
RTVSPost2010PropOp28
 70
     1
102
RTVSPost2010Prop29
280
     1
102
RTVSPost2010PropOp29
 70
     1
102
RTVSPost2010Prop30
280
     1
102
RTVSPost2010PropOp30
 70
     1
102
RTVSPost2010Prop31
280
     0
102
RTVSPost2010PropOp31
 70
     1
102
RTVSPost2010Prop32
280
     0
102
RTVSPost2010PropOp32
 70
     1
102
RTVSPost2010Prop33
280
     0
102
RTVSPost2010PropOp33
 70
     1
102
RTVSPost2010Prop34
280
     0
102
RTVSPost2010PropOp34
 70
     1
102
RTVSPost2010Prop35
280
     0
102
RTVSPost2010PropOp35
 70
     1
102
RTVSPost2010Prop36
280
     0
102
RTVSPost2010PropOp36
 70
     1
102
RTVSPost2010Prop37
 90
       50
102
RTVSPost2010PropOp37
 70
     0
102
RTVSPost2010Prop38
140
0.0
102
RTVSPost2010PropOp38
 70
     0
102
RTVSPost2010Prop39
140
1.0
102
RTVSPost2010PropOp39
 70
     0
102
RTVSPost2010Prop40
 90
        0
102
RTVSPost2010PropOp40
 70
     0
102
RTVSPost2010Prop41ColorIndex
 90
       18
102
RTVSPost2010Prop41ColorRGB
 90
        0
102
RTVSPost2010PropOp41
 70
     0
102
RTVSPost2010Prop42
 90
       50
102
RTVSPost2010PropOp42
 70
     0
102
RTVSPost2010Prop43
 90
        3
102
RTVSPost2010PropOp43
 70
     0
102
RTVSPost2010Prop44ColorIndex
 90
        5
102
RTVSPost2010Prop44ColorRGB
 90
      255
102
RTVSPost2010PropOp44
 70
     0
102
RTVSPost2010Prop45
280
     0
102
RTVSPost2010PropOp45
 70
     1
102
RTVSPost2010Prop46
 90
       50
102
RTVSPost2010PropOp46
 70
     0
102
RTVSPost2010Prop47
 90
       50
102
RTVSPost2010PropOp47
 70
     0
102
RTVSPost2010Prop48
 90
       50
102
RTVSPost2010PropOp48
 70
     0
102
RTVSPost2010Prop49
280
     0
102
RTVSPost2010PropOp49
 70
     1
102
RTVSPost2010Prop50
 90
       50
102
RTVSPost2010PropOp50
 70
     0
102
RTVSPost2010Prop51ColorIndex
 90
      256
102
RTVSPost2010Prop51ColorRGB
 90
-16777216
102
RTVSPost2010PropOp51
 70
     0
102
RTVSPost2010Prop52
140
1.0
102
RTVSPost2010PropOp52
 70
     0
102
RTVSPost2010Prop53
 90
        2
102
RTVSPost2010PropOp53
 70
     0
102
RTVSPost2010Prop54
  1
strokes_ogs.tif
102
RTVSPost2010PropOp54
 70
     0
102
RTVSPost2010Prop55
280
     0
102
RTVSPost2010PropOp55
 70
     1
102
RTVSPost2010Prop56
140
1.0
102
RTVSPost2010PropOp56
 70
     0
102
RTVSPost2010Prop57
140
1.0
102
RTVSPost2010PropOp57
 70
     0
102
RTVSPropertyOp0
 70
     0
102
RTVSPropertyOp1
 70
     0
102
RTVSPropertyOp2
 70
     0
102
RTVSPropertyOp3
 70
     0
102
RTVSPropertyOp4
 70
     0
102
RTVSPropertyOp5
 70
     0
102
RTVSPropertyOp6
 70
     0
102
RTVSPropertyOp7
 70
     0
102
RTVSPropertyOp8
 70
     0
102
RTVSPropertyOp9
 70
     0
102
RTVSPropertyOp10
 70
     0
102
RTVSPropertyOp11
 70
     0
102
RTVSPropertyOp12
 70
     0
102
RTVSPropertyOp13
 70
     0
102
RTVSPropertyOp14
 70
     2
102
RTVSPropertyOp15
 70
     0
102
RTVSPropertyOp16
 70
     0
102
RTVSPropertyOp17
 70
     0
102
RTVSPropertyOp18
 70
     0
102
RTVSPropertyOp19
 70
     0
102
RTVSPropertyOp20
 70
     0
102
RTVSPropertyOp21
 70
     0
102
RTVSPropertyOp22
 70
     0
102
RTVSPropertyOp23
 70
     0
102
RTVSPropertyOp24
 70
     0
102
RTVSPropertyOp25
 70
     0
102
RTVSPropertyOp26
 70
     0
102
RTVSPropertyOp27
 70
     0
102
RTVSPropertyOp28
 70
     1
102
RTVSPropertyOp29
 70
     1
102
RTVSPropertyOp30
 70
     1
102
RTVSPropertyOp31
 70
     1
102
RTVSPropertyOp32
 70
     1
102
RTVSPropertyOp33
 70
     1
102
RTVSPropertyOp34
 70
     1
102
RTVSPropertyOp35
 70
     1
102
RTVSPropertyOp36
 70
     1
102
RTVSPropertyOp37
 70
     0
102
RTVSPropertyOp38
 70
     0
102
RTVSPropertyOp39
 70
     0
102
RTVSPropertyOp40
 70
     0
102
RTVSPropertyOp41
 70
     0
102
RTVSPropertyOp42
 70
     0
102
RTVSPropertyOp43
 70
     0
102
RTVSPropertyOp44
 70
     0
102
RTVSPropertyOp45
 70
     1
102
RTVSPropertyOp46
 70
     0
102
RTVSPropertyOp47
 70
     0
102
RTVSPropertyOp48
 70
     0
102
RTVSPropertyOp49
 70
     1
102
RTVSPropertyOp50
 70
     0
102
RTVSPropertyOp51
 70
     0
102
RTVSPropertyOp52
 70
     0
102
RTVSPropertyOp53
 70
     0
102
RTVSPropertyOp54
 70
     0
102
RTVSPropertyOp55
 70
     1
102
RTVSPropertyOp56
 70
     0
102
RTVSPropertyOp57
 70
     0
102
RTVSPropertyOp58
 70
     0
102
RTVSPropertyOp59
 70
     0
102
RTVSPropertyOp60
 70
     0
102
RTVSPropertyOp61
 70
     0
102
RTVSPropertyOp62
 70
     0
  0
XRECORD
  5
83B
102
{ACAD_REACTORS
330
83A
102
}
330
83A
100
AcDbXrecord
280
     1
102
RTVSPost2010Prop28
280
     0
102
RTVSPost2010PropOp28
 70
     1
102
RTVSPost2010Prop29
280
     1
102
RTVSPost2010PropOp29
 70
     1
102
RTVSPost2010Prop30
280
     1
102
RTVSPost2010PropOp30
 70
     1
102
RTVSPost2010Prop31
280
     0
102
RTVSPost2010PropOp31
 70
     1
102
RTVSPost2010Prop32
280
     0
102
RTVSPost2010PropOp32
 70
     1
102
RTVSPost2010Prop33
280
     0
102
RTVSPost2010PropOp33
 70
     1
102
RTVSPost2010Prop34
280
     0
102
RTVSPost2010PropOp34
 70
     1
102
RTVSPost2010Prop35
280
     0
102
RTVSPost2010PropOp35
 70
     1
102
RTVSPost2010Prop36
280
     0
102
RTVSPost2010PropOp36
 70
     1
102
RTVSPost2010Prop37
 90
       50
102
RTVSPost2010PropOp37
 70
     1
102
RTVSPost2010Prop38
140
0.0
102
RTVSPost2010PropOp38
 70
     1
102
RTVSPost2010Prop39
140
1.0
102
RTVSPost2010PropOp39
 70
     1
102
RTVSPost2010Prop40
 90
        0
102
RTVSPost2010PropOp40
 70
     1
102
RTVSPost2010Prop41ColorIndex
 90
       18
102
RTVSPost2010Prop41ColorRGB
 90
        0
102
RTVSPost2010PropOp41
 70
     1
102
RTVSPost2010Prop42
 90
       50
102
RTVSPost2010PropOp42
 70
     1
102
RTVSPost2010Prop43
 90
        3
102
RTVSPost2010PropOp43
 70
     1
102
RTVSPost2010Prop44ColorIndex
 90
        5
102
RTVSPost2010Prop44ColorRGB
 90
      255
102
RTVSPost2010PropOp44
 70
     1
102
RTVSPost2010Prop45
280
     0
102
RTVSPost2010PropOp45
 70
     1
102
RTVSPost2010Prop46
 90
       50
102
RTVSPost2010PropOp46
 70
     1
102
RTVSPost2010Prop47
 90
       50
102
RTVSPost2010PropOp47
 70
     1
102
RTVSPost2010Prop48
 90
       50
102
RTVSPost2010PropOp48
 70
     1
102
RTVSPost2010Prop49
280
     0
102
RTVSPost2010PropOp49
 70
     1
102
RTVSPost2010Prop50
 90
       50
102
RTVSPost2010PropOp50
 70
     1
102
RTVSPost2010Prop51ColorIndex
 90
      256
102
RTVSPost2010Prop51ColorRGB
 90
-16777216
102
RTVSPost2010PropOp51
 70
     0
102
RTVSPost2010Prop52
140
1.0
102
RTVSPost2010PropOp52
 70
     0
102
RTVSPost2010Prop53
 90
        2
102
RTVSPost2010PropOp53
 70
     1
102
RTVSPost2010Prop54
  1
strokes_ogs.tif
102
RTVSPost2010PropOp54
 70
     1
102
RTVSPost2010Prop55
280
     0
102
RTVSPost2010PropOp55
 70
     1
102
RTVSPost2010Prop56
140
1.0
102
RTVSPost2010PropOp56
 70
     1
102
RTVSPost2010Prop57
140
1.0
102
RTVSPost2010PropOp57
 70
     1
102
RTVSPropertyOp0
 70
     1
102
RTVSPropertyOp1
 70
     1
102
RTVSPropertyOp2
 70
     1
102
RTVSPropertyOp3
 70
     1
102
RTVSPropertyOp4
 70
     1
102
RTVSPropertyOp5
 70
     1
102
RTVSPropertyOp6
 70
     1
102
RTVSPropertyOp7
 70
     1
102
RTVSPropertyOp8
 70
     1
102
RTVSPropertyOp9
 70
     1
102
RTVSPropertyOp10
 70
     1
102
RTVSPropertyOp11
 70
     1
102
RTVSPropertyOp12
 70
     1
102
RTVSPropertyOp13
 70
     1
102
RTVSPropertyOp14
 70
     1
102
RTVSPropertyOp15
 70
     1
102
RTVSPropertyOp16
 70
     1
102
RTVSPropertyOp17
 70
     1
102
RTVSPropertyOp18
 70
     1
102
RTVSPropertyOp19
 70
     1
102
RTVSPropertyOp20
 70
     1
102
RTVSPropertyOp21
 70
     1
102
RTVSPropertyOp22
 70
     1
102
RTVSPropertyOp23
 70
     1
102
RTVSPropertyOp24
 70
     1
102
RTVSPropertyOp25
 70
     1
102
RTVSPropertyOp26
 70
     1
102
RTVSPropertyOp27
 70
     1
102
RTVSPropertyOp28
 70
     1
102
RTVSPropertyOp29
 70
     1
102
RTVSPropertyOp30
 70
     1
102
RTVSPropertyOp31
 70
     1
102
RTVSPropertyOp32
 70
     1
102
RTVSPropertyOp33
 70
     1
102
RTVSPropertyOp34
 70
     1
102
RTVSPropertyOp35
 70
     1
102
RTVSPropertyOp36
 70
     1
102
RTVSPropertyOp37
 70
     1
102
RTVSPropertyOp38
 70
     1
102
RTVSPropertyOp39
 70
     1
102
RTVSPropertyOp40
 70
     1
102
RTVSPropertyOp41
 70
     1
102
RTVSPropertyOp42
 70
     1
102
RTVSPropertyOp43
 70
     1
102
RTVSPropertyOp44
 70
     1
102
RTVSPropertyOp45
 70
     1
102
RTVSPropertyOp46
 70
     1
102
RTVSPropertyOp47
 70
     1
102
RTVSPropertyOp48
 70
     1
102
RTVSPropertyOp49
 70
     1
102
RTVSPropertyOp50
 70
     1
102
RTVSPropertyOp51
 70
     0
102
RTVSPropertyOp52
 70
     0
102
RTVSPropertyOp53
 70
     1
102
RTVSPropertyOp54
 70
     1
102
RTVSPropertyOp55
 70
     1
102
RTVSPropertyOp56
 70
     1
102
RTVSPropertyOp57
 70
     1
102
RTVSPropertyOp58
 70
     1
102
RTVSPropertyOp59
 70
     1
102
RTVSPropertyOp60
 70
     1
102
RTVSPropertyOp61
 70
     1
102
RTVSPropertyOp62
 70
     1
  0
XRECORD
  5
84D
102
{ACAD_REACTORS
330
84C
102
}
330
84C
100
AcDbXrecord
280
     1
102
RTVSPost2010Prop28
280
     0
102
RTVSPost2010PropOp28
 70
     1
102
RTVSPost2010Prop29
280
     1
102
RTVSPost2010PropOp29
 70
     1
102
RTVSPost2010Prop30
280
     1
102
RTVSPost2010PropOp30
 70
     1
102
RTVSPost2010Prop31
280
     0
102
RTVSPost2010PropOp31
 70
     1
102
RTVSPost2010Prop32
280
     0
102
RTVSPost2010PropOp32
 70
     1
102
RTVSPost2010Prop33
280
     0
102
RTVSPost2010PropOp33
 70
     1
102
RTVSPost2010Prop34
280
     0
102
RTVSPost2010PropOp34
 70
     1
102
RTVSPost2010Prop35
280
     0
102
RTVSPost2010PropOp35
 70
     1
102
RTVSPost2010Prop36
280
     0
102
RTVSPost2010PropOp36
 70
     1
102
RTVSPost2010Prop37
 90
       50
102
RTVSPost2010PropOp37
 70
     0
102
RTVSPost2010Prop38
140
0.0
102
RTVSPost2010PropOp38
 70
     0
102
RTVSPost2010Prop39
140
1.0
102
RTVSPost2010PropOp39
 70
     0
102
RTVSPost2010Prop40
 90
        0
102
RTVSPost2010PropOp40
 70
     0
102
RTVSPost2010Prop41ColorIndex
 90
       18
102
RTVSPost2010Prop41ColorRGB
 90
        0
102
RTVSPost2010PropOp41
 70
     0
102
RTVSPost2010Prop42
 90
       50
102
RTVSPost2010PropOp42
 70
     0
102
RTVSPost2010Prop43
 90
        3
102
RTVSPost2010PropOp43
 70
     0
102
RTVSPost2010Prop44ColorIndex
 90
        5
102
RTVSPost2010Prop44ColorRGB
 90
      255
102
RTVSPost2010PropOp44
 70
     0
102
RTVSPost2010Prop45
280
     0
102
RTVSPost2010PropOp45
 70
     1
102
RTVSPost2010Prop46
 90
       50
102
RTVSPost2010PropOp46
 70
     0
102
RTVSPost2010Prop47
 90
       50
102
RTVSPost2010PropOp47
 70
     0
102
RTVSPost2010Prop48
 90
       50
102
RTVSPost2010PropOp48
 70
     0
102
RTVSPost2010Prop49
280
     0
102
RTVSPost2010PropOp49
 70
     1
102
RTVSPost2010Prop50
 90
       50
102
RTVSPost2010PropOp50
 70
     0
102
RTVSPost2010Prop51ColorIndex
 90
      256
102
RTVSPost2010Prop51ColorRGB
 90
-16777216
102
RTVSPost2010PropOp51
 70
     0
102
RTVSPost2010Prop52
140
1.0
102
RTVSPost2010PropOp52
 70
     0
102
RTVSPost2010Prop53
 90
        2
102
RTVSPost2010PropOp53
 70
     0
102
RTVSPost2010Prop54
  1
strokes_ogs.tif
102
RTVSPost2010PropOp54
 70
     0
102
RTVSPost2010Prop55
280
     0
102
RTVSPost2010PropOp55
 70
     1
102
RTVSPost2010Prop56
140
1.0
102
RTVSPost2010PropOp56
 70
     0
102
RTVSPost2010Prop57
140
1.0
102
RTVSPost2010PropOp57
 70
     0
102
RTVSPropertyOp0
 70
     0
102
RTVSPropertyOp1
 70
     0
102
RTVSPropertyOp2
 70
     0
102
RTVSPropertyOp3
 70
     0
102
RTVSPropertyOp4
 70
     0
102
RTVSPropertyOp5
 70
     0
102
RTVSPropertyOp6
 70
     0
102
RTVSPropertyOp7
 70
     0
102
RTVSPropertyOp8
 70
     0
102
RTVSPropertyOp9
 70
     0
102
RTVSPropertyOp10
 70
     0
102
RTVSPropertyOp11
 70
     0
102
RTVSPropertyOp12
 70
     0
102
RTVSPropertyOp13
 70
     0
102
RTVSPropertyOp14
 70
     2
102
RTVSPropertyOp15
 70
     0
102
RTVSPropertyOp16
 70
     0
102
RTVSPropertyOp17
 70
     0
102
RTVSPropertyOp18
 70
     0
102
RTVSPropertyOp19
 70
     0
102
RTVSPropertyOp20
 70
     0
102
RTVSPropertyOp21
 70
     0
102
RTVSPropertyOp22
 70
     0
102
RTVSPropertyOp23
 70
     0
102
RTVSPropertyOp24
 70
     0
102
RTVSPropertyOp25
 70
     0
102
RTVSPropertyOp26
 70
     0
102
RTVSPropertyOp27
 70
     0
102
RTVSPropertyOp28
 70
     1
102
RTVSPropertyOp29
 70
     1
102
RTVSPropertyOp30
 70
     1
102
RTVSPropertyOp31
 70
     1
102
RTVSPropertyOp32
 70
     1
102
RTVSPropertyOp33
 70
     1
102
RTVSPropertyOp34
 70
     1
102
RTVSPropertyOp35
 70
     1
102
RTVSPropertyOp36
 70
     1
102
RTVSPropertyOp37
 70
     0
102
RTVSPropertyOp38
 70
     0
102
RTVSPropertyOp39
 70
     0
102
RTVSPropertyOp40
 70
     0
102
RTVSPropertyOp41
 70
     0
102
RTVSPropertyOp42
 70
     0
102
RTVSPropertyOp43
 70
     0
102
RTVSPropertyOp44
 70
     0
102
RTVSPropertyOp45
 70
     1
102
RTVSPropertyOp46
 70
     0
102
RTVSPropertyOp47
 70
     0
102
RTVSPropertyOp48
 70
     0
102
RTVSPropertyOp49
 70
     1
102
RTVSPropertyOp50
 70
     0
102
RTVSPropertyOp51
 70
     0
102
RTVSPropertyOp52
 70
     0
102
RTVSPropertyOp53
 70
     0
102
RTVSPropertyOp54
 70
     0
102
RTVSPropertyOp55
 70
     1
102
RTVSPropertyOp56
 70
     0
102
RTVSPropertyOp57
 70
     0
102
RTVSPropertyOp58
 70
     0
102
RTVSPropertyOp59
 70
     0
102
RTVSPropertyOp60
 70
     0
102
RTVSPropertyOp61
 70
     0
102
RTVSPropertyOp62
 70
     0
  0
XRECORD
  5
833
102
{ACAD_REACTORS
330
832
102
}
330
832
100
AcDbXrecord
280
     1
102
RTVSPost2010Prop28
280
     0
102
RTVSPost2010PropOp28
 70
     1
102
RTVSPost2010Prop29
280
     1
102
RTVSPost2010PropOp29
 70
     1
102
RTVSPost2010Prop30
280
     1
102
RTVSPost2010PropOp30
 70
     1
102
RTVSPost2010Prop31
280
     0
102
RTVSPost2010PropOp31
 70
     1
102
RTVSPost2010Prop32
280
     0
102
RTVSPost2010PropOp32
 70
     1
102
RTVSPost2010Prop33
280
     0
102
RTVSPost2010PropOp33
 70
     1
102
RTVSPost2010Prop34
280
     0
102
RTVSPost2010PropOp34
 70
     1
102
RTVSPost2010Prop35
280
     0
102
RTVSPost2010PropOp35
 70
     1
102
RTVSPost2010Prop36
280
     0
102
RTVSPost2010PropOp36
 70
     1
102
RTVSPost2010Prop37
 90
       50
102
RTVSPost2010PropOp37
 70
     1
102
RTVSPost2010Prop38
140
0.0
102
RTVSPost2010PropOp38
 70
     1
102
RTVSPost2010Prop39
140
1.0
102
RTVSPost2010PropOp39
 70
     1
102
RTVSPost2010Prop40
 90
        0
102
RTVSPost2010PropOp40
 70
     1
102
RTVSPost2010Prop41ColorIndex
 90
       18
102
RTVSPost2010Prop41ColorRGB
 90
        0
102
RTVSPost2010PropOp41
 70
     1
102
RTVSPost2010Prop42
 90
       50
102
RTVSPost2010PropOp42
 70
     1
102
RTVSPost2010Prop43
 90
        3
102
RTVSPost2010PropOp43
 70
     1
102
RTVSPost2010Prop44ColorIndex
 90
        5
102
RTVSPost2010Prop44ColorRGB
 90
      255
102
RTVSPost2010PropOp44
 70
     1
102
RTVSPost2010Prop45
280
     0
102
RTVSPost2010PropOp45
 70
     1
102
RTVSPost2010Prop46
 90
       50
102
RTVSPost2010PropOp46
 70
     1
102
RTVSPost2010Prop47
 90
       50
102
RTVSPost2010PropOp47
 70
     1
102
RTVSPost2010Prop48
 90
       50
102
RTVSPost2010PropOp48
 70
     1
102
RTVSPost2010Prop49
280
     0
102
RTVSPost2010PropOp49
 70
     1
102
RTVSPost2010Prop50
 90
       50
102
RTVSPost2010PropOp50
 70
     1
102
RTVSPost2010Prop51ColorIndex
 90
      256
102
RTVSPost2010Prop51ColorRGB
 90
-16777216
102
RTVSPost2010PropOp51
 70
     0
102
RTVSPost2010Prop52
140
1.0
102
RTVSPost2010PropOp52
 70
     0
102
RTVSPost2010Prop53
 90
        2
102
RTVSPost2010PropOp53
 70
     1
102
RTVSPost2010Prop54
  1
strokes_ogs.tif
102
RTVSPost2010PropOp54
 70
     1
102
RTVSPost2010Prop55
280
     0
102
RTVSPost2010PropOp55
 70
     1
102
RTVSPost2010Prop56
140
1.0
102
RTVSPost2010PropOp56
 70
     1
102
RTVSPost2010Prop57
140
1.0
102
RTVSPost2010PropOp57
 70
     1
102
RTVSPropertyOp0
 70
     1
102
RTVSPropertyOp1
 70
     1
102
RTVSPropertyOp2
 70
     1
102
RTVSPropertyOp3
 70
     1
102
RTVSPropertyOp4
 70
     1
102
RTVSPropertyOp5
 70
     1
102
RTVSPropertyOp6
 70
     1
102
RTVSPropertyOp7
 70
     1
102
RTVSPropertyOp8
 70
     1
102
RTVSPropertyOp9
 70
     1
102
RTVSPropertyOp10
 70
     1
102
RTVSPropertyOp11
 70
     1
102
RTVSPropertyOp12
 70
     1
102
RTVSPropertyOp13
 70
     1
102
RTVSPropertyOp14
 70
     1
102
RTVSPropertyOp15
 70
     1
102
RTVSPropertyOp16
 70
     1
102
RTVSPropertyOp17
 70
     1
102
RTVSPropertyOp18
 70
     1
102
RTVSPropertyOp19
 70
     1
102
RTVSPropertyOp20
 70
     1
102
RTVSPropertyOp21
 70
     1
102
RTVSPropertyOp22
 70
     1
102
RTVSPropertyOp23
 70
     1
102
RTVSPropertyOp24
 70
     1
102
RTVSPropertyOp25
 70
     1
102
RTVSPropertyOp26
 70
     1
102
RTVSPropertyOp27
 70
     1
102
RTVSPropertyOp28
 70
     1
102
RTVSPropertyOp29
 70
     1
102
RTVSPropertyOp30
 70
     1
102
RTVSPropertyOp31
 70
     1
102
RTVSPropertyOp32
 70
     1
102
RTVSPropertyOp33
 70
     1
102
RTVSPropertyOp34
 70
     1
102
RTVSPropertyOp35
 70
     1
102
RTVSPropertyOp36
 70
     1
102
RTVSPropertyOp37
 70
     1
102
RTVSPropertyOp38
 70
     1
102
RTVSPropertyOp39
 70
     1
102
RTVSPropertyOp40
 70
     1
102
RTVSPropertyOp41
 70
     1
102
RTVSPropertyOp42
 70
     1
102
RTVSPropertyOp43
 70
     1
102
RTVSPropertyOp44
 70
     1
102
RTVSPropertyOp45
 70
     1
102
RTVSPropertyOp46
 70
     1
102
RTVSPropertyOp47
 70
     1
102
RTVSPropertyOp48
 70
     1
102
RTVSPropertyOp49
 70
     1
102
RTVSPropertyOp50
 70
     1
102
RTVSPropertyOp51
 70
     0
102
RTVSPropertyOp52
 70
     0
102
RTVSPropertyOp53
 70
     1
102
RTVSPropertyOp54
 70
     1
102
RTVSPropertyOp55
 70
     1
102
RTVSPropertyOp56
 70
     1
102
RTVSPropertyOp57
 70
     1
102
RTVSPropertyOp58
 70
     1
102
RTVSPropertyOp59
 70
     1
102
RTVSPropertyOp60
 70
     1
102
RTVSPropertyOp61
 70
     1
102
RTVSPropertyOp62
 70
     1
  0
XRECORD
  5
849
102
{ACAD_REACTORS
330
848
102
}
330
848
100
AcDbXrecord
280
     1
102
RTVSPost2010Prop28
280
     0
102
RTVSPost2010PropOp28
 70
     1
102
RTVSPost2010Prop29
280
     1
102
RTVSPost2010PropOp29
 70
     1
102
RTVSPost2010Prop30
280
     1
102
RTVSPost2010PropOp30
 70
     1
102
RTVSPost2010Prop31
280
     0
102
RTVSPost2010PropOp31
 70
     1
102
RTVSPost2010Prop32
280
     0
102
RTVSPost2010PropOp32
 70
     1
102
RTVSPost2010Prop33
280
     0
102
RTVSPost2010PropOp33
 70
     1
102
RTVSPost2010Prop34
280
     0
102
RTVSPost2010PropOp34
 70
     1
102
RTVSPost2010Prop35
280
     0
102
RTVSPost2010PropOp35
 70
     1
102
RTVSPost2010Prop36
280
     0
102
RTVSPost2010PropOp36
 70
     1
102
RTVSPost2010Prop37
 90
       50
102
RTVSPost2010PropOp37
 70
     1
102
RTVSPost2010Prop38
140
0.0
102
RTVSPost2010PropOp38
 70
     1
102
RTVSPost2010Prop39
140
1.0
102
RTVSPost2010PropOp39
 70
     1
102
RTVSPost2010Prop40
 90
        0
102
RTVSPost2010PropOp40
 70
     1
102
RTVSPost2010Prop41ColorIndex
 90
       18
102
RTVSPost2010Prop41ColorRGB
 90
        0
102
RTVSPost2010PropOp41
 70
     1
102
RTVSPost2010Prop42
 90
       50
102
RTVSPost2010PropOp42
 70
     1
102
RTVSPost2010Prop43
 90
        3
102
RTVSPost2010PropOp43
 70
     1
102
RTVSPost2010Prop44ColorIndex
 90
        5
102
RTVSPost2010Prop44ColorRGB
 90
      255
102
RTVSPost2010PropOp44
 70
     1
102
RTVSPost2010Prop45
280
     0
102
RTVSPost2010PropOp45
 70
     1
102
RTVSPost2010Prop46
 90
       50
102
RTVSPost2010PropOp46
 70
     1
102
RTVSPost2010Prop47
 90
       50
102
RTVSPost2010PropOp47
 70
     1
102
RTVSPost2010Prop48
 90
       50
102
RTVSPost2010PropOp48
 70
     1
102
RTVSPost2010Prop49
280
     0
102
RTVSPost2010PropOp49
 70
     1
102
RTVSPost2010Prop50
 90
       50
102
RTVSPost2010PropOp50
 70
     1
102
RTVSPost2010Prop51ColorIndex
 90
      256
102
RTVSPost2010Prop51ColorRGB
 90
-16777216
102
RTVSPost2010PropOp51
 70
     0
102
RTVSPost2010Prop52
140
1.0
102
RTVSPost2010PropOp52
 70
     0
102
RTVSPost2010Prop53
 90
        2
102
RTVSPost2010PropOp53
 70
     1
102
RTVSPost2010Prop54
  1
strokes_ogs.tif
102
RTVSPost2010PropOp54
 70
     1
102
RTVSPost2010Prop55
280
     0
102
RTVSPost2010PropOp55
 70
     1
102
RTVSPost2010Prop56
140
1.0
102
RTVSPost2010PropOp56
 70
     1
102
RTVSPost2010Prop57
140
1.0
102
RTVSPost2010PropOp57
 70
     1
102
RTVSPropertyOp0
 70
     1
102
RTVSPropertyOp1
 70
     1
102
RTVSPropertyOp2
 70
     1
102
RTVSPropertyOp3
 70
     1
102
RTVSPropertyOp4
 70
     1
102
RTVSPropertyOp5
 70
     1
102
RTVSPropertyOp6
 70
     1
102
RTVSPropertyOp7
 70
     1
102
RTVSPropertyOp8
 70
     1
102
RTVSPropertyOp9
 70
     1
102
RTVSPropertyOp10
 70
     1
102
RTVSPropertyOp11
 70
     1
102
RTVSPropertyOp12
 70
     1
102
RTVSPropertyOp13
 70
     1
102
RTVSPropertyOp14
 70
     1
102
RTVSPropertyOp15
 70
     1
102
RTVSPropertyOp16
 70
     1
102
RTVSPropertyOp17
 70
     1
102
RTVSPropertyOp18
 70
     1
102
RTVSPropertyOp19
 70
     1
102
RTVSPropertyOp20
 70
     1
102
RTVSPropertyOp21
 70
     1
102
RTVSPropertyOp22
 70
     1
102
RTVSPropertyOp23
 70
     1
102
RTVSPropertyOp24
 70
     1
102
RTVSPropertyOp25
 70
     1
102
RTVSPropertyOp26
 70
     1
102
RTVSPropertyOp27
 70
     1
102
RTVSPropertyOp28
 70
     1
102
RTVSPropertyOp29
 70
     1
102
RTVSPropertyOp30
 70
     1
102
RTVSPropertyOp31
 70
     1
102
RTVSPropertyOp32
 70
     1
102
RTVSPropertyOp33
 70
     1
102
RTVSPropertyOp34
 70
     1
102
RTVSPropertyOp35
 70
     1
102
RTVSPropertyOp36
 70
     1
102
RTVSPropertyOp37
 70
     1
102
RTVSPropertyOp38
 70
     1
102
RTVSPropertyOp39
 70
     1
102
RTVSPropertyOp40
 70
     1
102
RTVSPropertyOp41
 70
     1
102
RTVSPropertyOp42
 70
     1
102
RTVSPropertyOp43
 70
     1
102
RTVSPropertyOp44
 70
     1
102
RTVSPropertyOp45
 70
     1
102
RTVSPropertyOp46
 70
     1
102
RTVSPropertyOp47
 70
     1
102
RTVSPropertyOp48
 70
     1
102
RTVSPropertyOp49
 70
     1
102
RTVSPropertyOp50
 70
     1
102
RTVSPropertyOp51
 70
     0
102
RTVSPropertyOp52
 70
     0
102
RTVSPropertyOp53
 70
     1
102
RTVSPropertyOp54
 70
     1
102
RTVSPropertyOp55
 70
     1
102
RTVSPropertyOp56
 70
     1
102
RTVSPropertyOp57
 70
     1
102
RTVSPropertyOp58
 70
     1
102
RTVSPropertyOp59
 70
     1
102
RTVSPropertyOp60
 70
     1
102
RTVSPropertyOp61
 70
     1
102
RTVSPropertyOp62
 70
     1
  0
XRECORD
  5
847
102
{ACAD_REACTORS
330
846
102
}
330
846
100
AcDbXrecord
280
     1
102
RTVSPost2010Prop28
280
     0
102
RTVSPost2010PropOp28
 70
     1
102
RTVSPost2010Prop29
280
     1
102
RTVSPost2010PropOp29
 70
     1
102
RTVSPost2010Prop30
280
     1
102
RTVSPost2010PropOp30
 70
     1
102
RTVSPost2010Prop31
280
     0
102
RTVSPost2010PropOp31
 70
     1
102
RTVSPost2010Prop32
280
     0
102
RTVSPost2010PropOp32
 70
     1
102
RTVSPost2010Prop33
280
     0
102
RTVSPost2010PropOp33
 70
     1
102
RTVSPost2010Prop34
280
     0
102
RTVSPost2010PropOp34
 70
     1
102
RTVSPost2010Prop35
280
     0
102
RTVSPost2010PropOp35
 70
     1
102
RTVSPost2010Prop36
280
     0
102
RTVSPost2010PropOp36
 70
     1
102
RTVSPost2010Prop37
 90
       50
102
RTVSPost2010PropOp37
 70
     1
102
RTVSPost2010Prop38
140
0.0
102
RTVSPost2010PropOp38
 70
     1
102
RTVSPost2010Prop39
140
1.0
102
RTVSPost2010PropOp39
 70
     1
102
RTVSPost2010Prop40
 90
        0
102
RTVSPost2010PropOp40
 70
     1
102
RTVSPost2010Prop41ColorIndex
 90
       18
102
RTVSPost2010Prop41ColorRGB
 90
        0
102
RTVSPost2010PropOp41
 70
     1
102
RTVSPost2010Prop42
 90
       50
102
RTVSPost2010PropOp42
 70
     1
102
RTVSPost2010Prop43
 90
        3
102
RTVSPost2010PropOp43
 70
     1
102
RTVSPost2010Prop44ColorIndex
 90
        5
102
RTVSPost2010Prop44ColorRGB
 90
      255
102
RTVSPost2010PropOp44
 70
     1
102
RTVSPost2010Prop45
280
     0
102
RTVSPost2010PropOp45
 70
     1
102
RTVSPost2010Prop46
 90
       50
102
RTVSPost2010PropOp46
 70
     1
102
RTVSPost2010Prop47
 90
       50
102
RTVSPost2010PropOp47
 70
     1
102
RTVSPost2010Prop48
 90
       50
102
RTVSPost2010PropOp48
 70
     1
102
RTVSPost2010Prop49
280
     0
102
RTVSPost2010PropOp49
 70
     1
102
RTVSPost2010Prop50
 90
       50
102
RTVSPost2010PropOp50
 70
     1
102
RTVSPost2010Prop51ColorIndex
 90
      256
102
RTVSPost2010Prop51ColorRGB
 90
-16777216
102
RTVSPost2010PropOp51
 70
     0
102
RTVSPost2010Prop52
140
1.0
102
RTVSPost2010PropOp52
 70
     0
102
RTVSPost2010Prop53
 90
        2
102
RTVSPost2010PropOp53
 70
     1
102
RTVSPost2010Prop54
  1
strokes_ogs.tif
102
RTVSPost2010PropOp54
 70
     1
102
RTVSPost2010Prop55
280
     0
102
RTVSPost2010PropOp55
 70
     1
102
RTVSPost2010Prop56
140
1.0
102
RTVSPost2010PropOp56
 70
     1
102
RTVSPost2010Prop57
140
1.0
102
RTVSPost2010PropOp57
 70
     1
102
RTVSPropertyOp0
 70
     1
102
RTVSPropertyOp1
 70
     1
102
RTVSPropertyOp2
 70
     1
102
RTVSPropertyOp3
 70
     1
102
RTVSPropertyOp4
 70
     1
102
RTVSPropertyOp5
 70
     1
102
RTVSPropertyOp6
 70
     1
102
RTVSPropertyOp7
 70
     1
102
RTVSPropertyOp8
 70
     1
102
RTVSPropertyOp9
 70
     1
102
RTVSPropertyOp10
 70
     1
102
RTVSPropertyOp11
 70
     1
102
RTVSPropertyOp12
 70
     1
102
RTVSPropertyOp13
 70
     1
102
RTVSPropertyOp14
 70
     1
102
RTVSPropertyOp15
 70
     1
102
RTVSPropertyOp16
 70
     1
102
RTVSPropertyOp17
 70
     1
102
RTVSPropertyOp18
 70
     1
102
RTVSPropertyOp19
 70
     1
102
RTVSPropertyOp20
 70
     1
102
RTVSPropertyOp21
 70
     1
102
RTVSPropertyOp22
 70
     1
102
RTVSPropertyOp23
 70
     1
102
RTVSPropertyOp24
 70
     1
102
RTVSPropertyOp25
 70
     1
102
RTVSPropertyOp26
 70
     1
102
RTVSPropertyOp27
 70
     1
102
RTVSPropertyOp28
 70
     1
102
RTVSPropertyOp29
 70
     1
102
RTVSPropertyOp30
 70
     1
102
RTVSPropertyOp31
 70
     1
102
RTVSPropertyOp32
 70
     1
102
RTVSPropertyOp33
 70
     1
102
RTVSPropertyOp34
 70
     1
102
RTVSPropertyOp35
 70
     1
102
RTVSPropertyOp36
 70
     1
102
RTVSPropertyOp37
 70
     1
102
RTVSPropertyOp38
 70
     1
102
RTVSPropertyOp39
 70
     1
102
RTVSPropertyOp40
 70
     1
102
RTVSPropertyOp41
 70
     1
102
RTVSPropertyOp42
 70
     1
102
RTVSPropertyOp43
 70
     1
102
RTVSPropertyOp44
 70
     1
102
RTVSPropertyOp45
 70
     1
102
RTVSPropertyOp46
 70
     1
102
RTVSPropertyOp47
 70
     1
102
RTVSPropertyOp48
 70
     1
102
RTVSPropertyOp49
 70
     1
102
RTVSPropertyOp50
 70
     1
102
RTVSPropertyOp51
 70
     0
102
RTVSPropertyOp52
 70
     0
102
RTVSPropertyOp53
 70
     1
102
RTVSPropertyOp54
 70
     1
102
RTVSPropertyOp55
 70
     1
102
RTVSPropertyOp56
 70
     1
102
RTVSPropertyOp57
 70
     1
102
RTVSPropertyOp58
 70
     1
102
RTVSPropertyOp59
 70
     1
102
RTVSPropertyOp60
 70
     1
102
RTVSPropertyOp61
 70
     1
102
RTVSPropertyOp62
 70
     1
  0
XRECORD
  5
841
102
{ACAD_REACTORS
330
840
102
}
330
840
100
AcDbXrecord
280
     1
102
RTVSPost2010Prop28
280
     0
102
RTVSPost2010PropOp28
 70
     1
102
RTVSPost2010Prop29
280
     1
102
RTVSPost2010PropOp29
 70
     1
102
RTVSPost2010Prop30
280
     1
102
RTVSPost2010PropOp30
 70
     1
102
RTVSPost2010Prop31
280
     0
102
RTVSPost2010PropOp31
 70
     1
102
RTVSPost2010Prop32
280
     0
102
RTVSPost2010PropOp32
 70
     1
102
RTVSPost2010Prop33
280
     0
102
RTVSPost2010PropOp33
 70
     1
102
RTVSPost2010Prop34
280
     0
102
RTVSPost2010PropOp34
 70
     1
102
RTVSPost2010Prop35
280
     0
102
RTVSPost2010PropOp35
 70
     1
102
RTVSPost2010Prop36
280
     0
102
RTVSPost2010PropOp36
 70
     1
102
RTVSPost2010Prop37
 90
       50
102
RTVSPost2010PropOp37
 70
     1
102
RTVSPost2010Prop38
140
0.0
102
RTVSPost2010PropOp38
 70
     1
102
RTVSPost2010Prop39
140
1.0
102
RTVSPost2010PropOp39
 70
     1
102
RTVSPost2010Prop40
 90
        0
102
RTVSPost2010PropOp40
 70
     1
102
RTVSPost2010Prop41ColorIndex
 90
       18
102
RTVSPost2010Prop41ColorRGB
 90
        0
102
RTVSPost2010PropOp41
 70
     1
102
RTVSPost2010Prop42
 90
       50
102
RTVSPost2010PropOp42
 70
     1
102
RTVSPost2010Prop43
 90
        3
102
RTVSPost2010PropOp43
 70
     1
102
RTVSPost2010Prop44ColorIndex
 90
        5
102
RTVSPost2010Prop44ColorRGB
 90
      255
102
RTVSPost2010PropOp44
 70
     1
102
RTVSPost2010Prop45
280
     0
102
RTVSPost2010PropOp45
 70
     1
102
RTVSPost2010Prop46
 90
       50
102
RTVSPost2010PropOp46
 70
     1
102
RTVSPost2010Prop47
 90
       50
102
RTVSPost2010PropOp47
 70
     1
102
RTVSPost2010Prop48
 90
       50
102
RTVSPost2010PropOp48
 70
     1
102
RTVSPost2010Prop49
280
     0
102
RTVSPost2010PropOp49
 70
     1
102
RTVSPost2010Prop50
 90
       50
102
RTVSPost2010PropOp50
 70
     1
102
RTVSPost2010Prop51ColorIndex
 90
      256
102
RTVSPost2010Prop51ColorRGB
 90
-16777216
102
RTVSPost2010PropOp51
 70
     0
102
RTVSPost2010Prop52
140
1.0
102
RTVSPost2010PropOp52
 70
     0
102
RTVSPost2010Prop53
 90
        2
102
RTVSPost2010PropOp53
 70
     1
102
RTVSPost2010Prop54
  1
strokes_ogs.tif
102
RTVSPost2010PropOp54
 70
     1
102
RTVSPost2010Prop55
280
     0
102
RTVSPost2010PropOp55
 70
     1
102
RTVSPost2010Prop56
140
1.0
102
RTVSPost2010PropOp56
 70
     1
102
RTVSPost2010Prop57
140
1.0
102
RTVSPost2010PropOp57
 70
     1
102
RTVSPropertyOp0
 70
     1
102
RTVSPropertyOp1
 70
     1
102
RTVSPropertyOp2
 70
     1
102
RTVSPropertyOp3
 70
     1
102
RTVSPropertyOp4
 70
     1
102
RTVSPropertyOp5
 70
     1
102
RTVSPropertyOp6
 70
     1
102
RTVSPropertyOp7
 70
     1
102
RTVSPropertyOp8
 70
     1
102
RTVSPropertyOp9
 70
     1
102
RTVSPropertyOp10
 70
     1
102
RTVSPropertyOp11
 70
     1
102
RTVSPropertyOp12
 70
     1
102
RTVSPropertyOp13
 70
     1
102
RTVSPropertyOp14
 70
     1
102
RTVSPropertyOp15
 70
     1
102
RTVSPropertyOp16
 70
     1
102
RTVSPropertyOp17
 70
     1
102
RTVSPropertyOp18
 70
     1
102
RTVSPropertyOp19
 70
     1
102
RTVSPropertyOp20
 70
     1
102
RTVSPropertyOp21
 70
     1
102
RTVSPropertyOp22
 70
     1
102
RTVSPropertyOp23
 70
     1
102
RTVSPropertyOp24
 70
     1
102
RTVSPropertyOp25
 70
     1
102
RTVSPropertyOp26
 70
     1
102
RTVSPropertyOp27
 70
     1
102
RTVSPropertyOp28
 70
     1
102
RTVSPropertyOp29
 70
     1
102
RTVSPropertyOp30
 70
     1
102
RTVSPropertyOp31
 70
     1
102
RTVSPropertyOp32
 70
     1
102
RTVSPropertyOp33
 70
     1
102
RTVSPropertyOp34
 70
     1
102
RTVSPropertyOp35
 70
     1
102
RTVSPropertyOp36
 70
     1
102
RTVSPropertyOp37
 70
     1
102
RTVSPropertyOp38
 70
     1
102
RTVSPropertyOp39
 70
     1
102
RTVSPropertyOp40
 70
     1
102
RTVSPropertyOp41
 70
     1
102
RTVSPropertyOp42
 70
     1
102
RTVSPropertyOp43
 70
     1
102
RTVSPropertyOp44
 70
     1
102
RTVSPropertyOp45
 70
     1
102
RTVSPropertyOp46
 70
     1
102
RTVSPropertyOp47
 70
     1
102
RTVSPropertyOp48
 70
     1
102
RTVSPropertyOp49
 70
     1
102
RTVSPropertyOp50
 70
     1
102
RTVSPropertyOp51
 70
     0
102
RTVSPropertyOp52
 70
     0
102
RTVSPropertyOp53
 70
     1
102
RTVSPropertyOp54
 70
     1
102
RTVSPropertyOp55
 70
     1
102
RTVSPropertyOp56
 70
     1
102
RTVSPropertyOp57
 70
     1
102
RTVSPropertyOp58
 70
     1
102
RTVSPropertyOp59
 70
     1
102
RTVSPropertyOp60
 70
     1
102
RTVSPropertyOp61
 70
     1
102
RTVSPropertyOp62
 70
     1
  0
XRECORD
  5
843
102
{ACAD_REACTORS
330
842
102
}
330
842
100
AcDbXrecord
280
     1
102
RTVSPost2010Prop28
280
     0
102
RTVSPost2010PropOp28
 70
     1
102
RTVSPost2010Prop29
280
     1
102
RTVSPost2010PropOp29
 70
     1
102
RTVSPost2010Prop30
280
     1
102
RTVSPost2010PropOp30
 70
     1
102
RTVSPost2010Prop31
280
     0
102
RTVSPost2010PropOp31
 70
     1
102
RTVSPost2010Prop32
280
     0
102
RTVSPost2010PropOp32
 70
     1
102
RTVSPost2010Prop33
280
     0
102
RTVSPost2010PropOp33
 70
     1
102
RTVSPost2010Prop34
280
     0
102
RTVSPost2010PropOp34
 70
     1
102
RTVSPost2010Prop35
280
     0
102
RTVSPost2010PropOp35
 70
     1
102
RTVSPost2010Prop36
280
     0
102
RTVSPost2010PropOp36
 70
     1
102
RTVSPost2010Prop37
 90
       50
102
RTVSPost2010PropOp37
 70
     1
102
RTVSPost2010Prop38
140
0.0
102
RTVSPost2010PropOp38
 70
     1
102
RTVSPost2010Prop39
140
1.0
102
RTVSPost2010PropOp39
 70
     1
102
RTVSPost2010Prop40
 90
        0
102
RTVSPost2010PropOp40
 70
     1
102
RTVSPost2010Prop41ColorIndex
 90
       18
102
RTVSPost2010Prop41ColorRGB
 90
        0
102
RTVSPost2010PropOp41
 70
     1
102
RTVSPost2010Prop42
 90
       50
102
RTVSPost2010PropOp42
 70
     1
102
RTVSPost2010Prop43
 90
        3
102
RTVSPost2010PropOp43
 70
     1
102
RTVSPost2010Prop44ColorIndex
 90
        5
102
RTVSPost2010Prop44ColorRGB
 90
      255
102
RTVSPost2010PropOp44
 70
     1
102
RTVSPost2010Prop45
280
     0
102
RTVSPost2010PropOp45
 70
     1
102
RTVSPost2010Prop46
 90
       50
102
RTVSPost2010PropOp46
 70
     1
102
RTVSPost2010Prop47
 90
       50
102
RTVSPost2010PropOp47
 70
     1
102
RTVSPost2010Prop48
 90
       50
102
RTVSPost2010PropOp48
 70
     1
102
RTVSPost2010Prop49
280
     0
102
RTVSPost2010PropOp49
 70
     1
102
RTVSPost2010Prop50
 90
       50
102
RTVSPost2010PropOp50
 70
     1
102
RTVSPost2010Prop51ColorIndex
 90
      256
102
RTVSPost2010Prop51ColorRGB
 90
-16777216
102
RTVSPost2010PropOp51
 70
     0
102
RTVSPost2010Prop52
140
1.0
102
RTVSPost2010PropOp52
 70
     0
102
RTVSPost2010Prop53
 90
        2
102
RTVSPost2010PropOp53
 70
     1
102
RTVSPost2010Prop54
  1
strokes_ogs.tif
102
RTVSPost2010PropOp54
 70
     1
102
RTVSPost2010Prop55
280
     0
102
RTVSPost2010PropOp55
 70
     1
102
RTVSPost2010Prop56
140
1.0
102
RTVSPost2010PropOp56
 70
     1
102
RTVSPost2010Prop57
140
1.0
102
RTVSPost2010PropOp57
 70
     1
102
RTVSPropertyOp0
 70
     1
102
RTVSPropertyOp1
 70
     1
102
RTVSPropertyOp2
 70
     1
102
RTVSPropertyOp3
 70
     1
102
RTVSPropertyOp4
 70
     1
102
RTVSPropertyOp5
 70
     1
102
RTVSPropertyOp6
 70
     1
102
RTVSPropertyOp7
 70
     1
102
RTVSPropertyOp8
 70
     1
102
RTVSPropertyOp9
 70
     1
102
RTVSPropertyOp10
 70
     1
102
RTVSPropertyOp11
 70
     1
102
RTVSPropertyOp12
 70
     1
102
RTVSPropertyOp13
 70
     1
102
RTVSPropertyOp14
 70
     1
102
RTVSPropertyOp15
 70
     1
102
RTVSPropertyOp16
 70
     1
102
RTVSPropertyOp17
 70
     1
102
RTVSPropertyOp18
 70
     1
102
RTVSPropertyOp19
 70
     1
102
RTVSPropertyOp20
 70
     1
102
RTVSPropertyOp21
 70
     1
102
RTVSPropertyOp22
 70
     1
102
RTVSPropertyOp23
 70
     1
102
RTVSPropertyOp24
 70
     1
102
RTVSPropertyOp25
 70
     1
102
RTVSPropertyOp26
 70
     1
102
RTVSPropertyOp27
 70
     1
102
RTVSPropertyOp28
 70
     1
102
RTVSPropertyOp29
 70
     1
102
RTVSPropertyOp30
 70
     1
102
RTVSPropertyOp31
 70
     1
102
RTVSPropertyOp32
 70
     1
102
RTVSPropertyOp33
 70
     1
102
RTVSPropertyOp34
 70
     1
102
RTVSPropertyOp35
 70
     1
102
RTVSPropertyOp36
 70
     1
102
RTVSPropertyOp37
 70
     1
102
RTVSPropertyOp38
 70
     1
102
RTVSPropertyOp39
 70
     1
102
RTVSPropertyOp40
 70
     1
102
RTVSPropertyOp41
 70
     1
102
RTVSPropertyOp42
 70
     1
102
RTVSPropertyOp43
 70
     1
102
RTVSPropertyOp44
 70
     1
102
RTVSPropertyOp45
 70
     1
102
RTVSPropertyOp46
 70
     1
102
RTVSPropertyOp47
 70
     1
102
RTVSPropertyOp48
 70
     1
102
RTVSPropertyOp49
 70
     1
102
RTVSPropertyOp50
 70
     1
102
RTVSPropertyOp51
 70
     0
102
RTVSPropertyOp52
 70
     0
102
RTVSPropertyOp53
 70
     1
102
RTVSPropertyOp54
 70
     1
102
RTVSPropertyOp55
 70
     1
102
RTVSPropertyOp56
 70
     1
102
RTVSPropertyOp57
 70
     1
102
RTVSPropertyOp58
 70
     1
102
RTVSPropertyOp59
 70
     1
102
RTVSPropertyOp60
 70
     1
102
RTVSPropertyOp61
 70
     1
102
RTVSPropertyOp62
 70
     1
  0
XRECORD
  5
839
102
{ACAD_REACTORS
330
838
102
}
330
838
100
AcDbXrecord
280
     1
102
RTVSPost2010Prop28
280
     0
102
RTVSPost2010PropOp28
 70
     1
102
RTVSPost2010Prop29
280
     1
102
RTVSPost2010PropOp29
 70
     1
102
RTVSPost2010Prop30
280
     1
102
RTVSPost2010PropOp30
 70
     1
102
RTVSPost2010Prop31
280
     0
102
RTVSPost2010PropOp31
 70
     1
102
RTVSPost2010Prop32
280
     0
102
RTVSPost2010PropOp32
 70
     1
102
RTVSPost2010Prop33
280
     0
102
RTVSPost2010PropOp33
 70
     1
102
RTVSPost2010Prop34
280
     0
102
RTVSPost2010PropOp34
 70
     1
102
RTVSPost2010Prop35
280
     0
102
RTVSPost2010PropOp35
 70
     1
102
RTVSPost2010Prop36
280
     0
102
RTVSPost2010PropOp36
 70
     1
102
RTVSPost2010Prop37
 90
       50
102
RTVSPost2010PropOp37
 70
     1
102
RTVSPost2010Prop38
140
0.0
102
RTVSPost2010PropOp38
 70
     1
102
RTVSPost2010Prop39
140
1.0
102
RTVSPost2010PropOp39
 70
     1
102
RTVSPost2010Prop40
 90
        0
102
RTVSPost2010PropOp40
 70
     1
102
RTVSPost2010Prop41ColorIndex
 90
       18
102
RTVSPost2010Prop41ColorRGB
 90
        0
102
RTVSPost2010PropOp41
 70
     1
102
RTVSPost2010Prop42
 90
       50
102
RTVSPost2010PropOp42
 70
     1
102
RTVSPost2010Prop43
 90
        3
102
RTVSPost2010PropOp43
 70
     1
102
RTVSPost2010Prop44ColorIndex
 90
        5
102
RTVSPost2010Prop44ColorRGB
 90
      255
102
RTVSPost2010PropOp44
 70
     1
102
RTVSPost2010Prop45
280
     0
102
RTVSPost2010PropOp45
 70
     1
102
RTVSPost2010Prop46
 90
       50
102
RTVSPost2010PropOp46
 70
     1
102
RTVSPost2010Prop47
 90
       50
102
RTVSPost2010PropOp47
 70
     1
102
RTVSPost2010Prop48
 90
       50
102
RTVSPost2010PropOp48
 70
     1
102
RTVSPost2010Prop49
280
     0
102
RTVSPost2010PropOp49
 70
     1
102
RTVSPost2010Prop50
 90
       50
102
RTVSPost2010PropOp50
 70
     1
102
RTVSPost2010Prop51ColorIndex
 90
      256
102
RTVSPost2010Prop51ColorRGB
 90
-16777216
102
RTVSPost2010PropOp51
 70
     0
102
RTVSPost2010Prop52
140
1.0
102
RTVSPost2010PropOp52
 70
     0
102
RTVSPost2010Prop53
 90
        2
102
RTVSPost2010PropOp53
 70
     1
102
RTVSPost2010Prop54
  1
strokes_ogs.tif
102
RTVSPost2010PropOp54
 70
     1
102
RTVSPost2010Prop55
280
     0
102
RTVSPost2010PropOp55
 70
     1
102
RTVSPost2010Prop56
140
1.0
102
RTVSPost2010PropOp56
 70
     1
102
RTVSPost2010Prop57
140
1.0
102
RTVSPost2010PropOp57
 70
     1
102
RTVSPropertyOp0
 70
     1
102
RTVSPropertyOp1
 70
     1
102
RTVSPropertyOp2
 70
     1
102
RTVSPropertyOp3
 70
     1
102
RTVSPropertyOp4
 70
     1
102
RTVSPropertyOp5
 70
     1
102
RTVSPropertyOp6
 70
     1
102
RTVSPropertyOp7
 70
     1
102
RTVSPropertyOp8
 70
     1
102
RTVSPropertyOp9
 70
     1
102
RTVSPropertyOp10
 70
     1
102
RTVSPropertyOp11
 70
     1
102
RTVSPropertyOp12
 70
     1
102
RTVSPropertyOp13
 70
     1
102
RTVSPropertyOp14
 70
     1
102
RTVSPropertyOp15
 70
     1
102
RTVSPropertyOp16
 70
     1
102
RTVSPropertyOp17
 70
     1
102
RTVSPropertyOp18
 70
     1
102
RTVSPropertyOp19
 70
     1
102
RTVSPropertyOp20
 70
     1
102
RTVSPropertyOp21
 70
     1
102
RTVSPropertyOp22
 70
     1
102
RTVSPropertyOp23
 70
     1
102
RTVSPropertyOp24
 70
     1
102
RTVSPropertyOp25
 70
     1
102
RTVSPropertyOp26
 70
     1
102
RTVSPropertyOp27
 70
     1
102
RTVSPropertyOp28
 70
     1
102
RTVSPropertyOp29
 70
     1
102
RTVSPropertyOp30
 70
     1
102
RTVSPropertyOp31
 70
     1
102
RTVSPropertyOp32
 70
     1
102
RTVSPropertyOp33
 70
     1
102
RTVSPropertyOp34
 70
     1
102
RTVSPropertyOp35
 70
     1
102
RTVSPropertyOp36
 70
     1
102
RTVSPropertyOp37
 70
     1
102
RTVSPropertyOp38
 70
     1
102
RTVSPropertyOp39
 70
     1
102
RTVSPropertyOp40
 70
     1
102
RTVSPropertyOp41
 70
     1
102
RTVSPropertyOp42
 70
     1
102
RTVSPropertyOp43
 70
     1
102
RTVSPropertyOp44
 70
     1
102
RTVSPropertyOp45
 70
     1
102
RTVSPropertyOp46
 70
     1
102
RTVSPropertyOp47
 70
     1
102
RTVSPropertyOp48
 70
     1
102
RTVSPropertyOp49
 70
     1
102
RTVSPropertyOp50
 70
     1
102
RTVSPropertyOp51
 70
     0
102
RTVSPropertyOp52
 70
     0
102
RTVSPropertyOp53
 70
     1
102
RTVSPropertyOp54
 70
     1
102
RTVSPropertyOp55
 70
     1
102
RTVSPropertyOp56
 70
     1
102
RTVSPropertyOp57
 70
     1
102
RTVSPropertyOp58
 70
     1
102
RTVSPropertyOp59
 70
     1
102
RTVSPropertyOp60
 70
     1
102
RTVSPropertyOp61
 70
     1
102
RTVSPropertyOp62
 70
     1
  0
XRECORD
  5
82D
102
{ACAD_REACTORS
330
82C
102
}
330
82C
100
AcDbXrecord
280
     1
102
RTVSPost2010Prop28
280
     0
102
RTVSPost2010PropOp28
 70
     1
102
RTVSPost2010Prop29
280
     1
102
RTVSPost2010PropOp29
 70
     1
102
RTVSPost2010Prop30
280
     1
102
RTVSPost2010PropOp30
 70
     1
102
RTVSPost2010Prop31
280
     0
102
RTVSPost2010PropOp31
 70
     1
102
RTVSPost2010Prop32
280
     0
102
RTVSPost2010PropOp32
 70
     1
102
RTVSPost2010Prop33
280
     0
102
RTVSPost2010PropOp33
 70
     1
102
RTVSPost2010Prop34
280
     0
102
RTVSPost2010PropOp34
 70
     1
102
RTVSPost2010Prop35
280
     0
102
RTVSPost2010PropOp35
 70
     1
102
RTVSPost2010Prop36
280
     0
102
RTVSPost2010PropOp36
 70
     1
102
RTVSPost2010Prop37
 90
       50
102
RTVSPost2010PropOp37
 70
     1
102
RTVSPost2010Prop38
140
0.0
102
RTVSPost2010PropOp38
 70
     1
102
RTVSPost2010Prop39
140
1.0
102
RTVSPost2010PropOp39
 70
     1
102
RTVSPost2010Prop40
 90
        0
102
RTVSPost2010PropOp40
 70
     1
102
RTVSPost2010Prop41ColorIndex
 90
       18
102
RTVSPost2010Prop41ColorRGB
 90
        0
102
RTVSPost2010PropOp41
 70
     1
102
RTVSPost2010Prop42
 90
       50
102
RTVSPost2010PropOp42
 70
     1
102
RTVSPost2010Prop43
 90
        3
102
RTVSPost2010PropOp43
 70
     1
102
RTVSPost2010Prop44ColorIndex
 90
        5
102
RTVSPost2010Prop44ColorRGB
 90
      255
102
RTVSPost2010PropOp44
 70
     1
102
RTVSPost2010Prop45
280
     0
102
RTVSPost2010PropOp45
 70
     1
102
RTVSPost2010Prop46
 90
       50
102
RTVSPost2010PropOp46
 70
     1
102
RTVSPost2010Prop47
 90
       50
102
RTVSPost2010PropOp47
 70
     1
102
RTVSPost2010Prop48
 90
       50
102
RTVSPost2010PropOp48
 70
     1
102
RTVSPost2010Prop49
280
     0
102
RTVSPost2010PropOp49
 70
     1
102
RTVSPost2010Prop50
 90
       50
102
RTVSPost2010PropOp50
 70
     1
102
RTVSPost2010Prop51ColorIndex
 90
      256
102
RTVSPost2010Prop51ColorRGB
 90
-16777216
102
RTVSPost2010PropOp51
 70
     0
102
RTVSPost2010Prop52
140
1.0
102
RTVSPost2010PropOp52
 70
     0
102
RTVSPost2010Prop53
 90
        2
102
RTVSPost2010PropOp53
 70
     1
102
RTVSPost2010Prop54
  1
strokes_ogs.tif
102
RTVSPost2010PropOp54
 70
     1
102
RTVSPost2010Prop55
280
     0
102
RTVSPost2010PropOp55
 70
     1
102
RTVSPost2010Prop56
140
1.0
102
RTVSPost2010PropOp56
 70
     1
102
RTVSPost2010Prop57
140
1.0
102
RTVSPost2010PropOp57
 70
     1
102
RTVSPropertyOp0
 70
     1
102
RTVSPropertyOp1
 70
     1
102
RTVSPropertyOp2
 70
     1
102
RTVSPropertyOp3
 70
     1
102
RTVSPropertyOp4
 70
     1
102
RTVSPropertyOp5
 70
     1
102
RTVSPropertyOp6
 70
     1
102
RTVSPropertyOp7
 70
     1
102
RTVSPropertyOp8
 70
     1
102
RTVSPropertyOp9
 70
     1
102
RTVSPropertyOp10
 70
     1
102
RTVSPropertyOp11
 70
     1
102
RTVSPropertyOp12
 70
     1
102
RTVSPropertyOp13
 70
     1
102
RTVSPropertyOp14
 70
     1
102
RTVSPropertyOp15
 70
     1
102
RTVSPropertyOp16
 70
     1
102
RTVSPropertyOp17
 70
     1
102
RTVSPropertyOp18
 70
     1
102
RTVSPropertyOp19
 70
     1
102
RTVSPropertyOp20
 70
     1
102
RTVSPropertyOp21
 70
     1
102
RTVSPropertyOp22
 70
     1
102
RTVSPropertyOp23
 70
     1
102
RTVSPropertyOp24
 70
     1
102
RTVSPropertyOp25
 70
     1
102
RTVSPropertyOp26
 70
     1
102
RTVSPropertyOp27
 70
     1
102
RTVSPropertyOp28
 70
     1
102
RTVSPropertyOp29
 70
     1
102
RTVSPropertyOp30
 70
     1
102
RTVSPropertyOp31
 70
     1
102
RTVSPropertyOp32
 70
     1
102
RTVSPropertyOp33
 70
     1
102
RTVSPropertyOp34
 70
     1
102
RTVSPropertyOp35
 70
     1
102
RTVSPropertyOp36
 70
     1
102
RTVSPropertyOp37
 70
     1
102
RTVSPropertyOp38
 70
     1
102
RTVSPropertyOp39
 70
     1
102
RTVSPropertyOp40
 70
     1
102
RTVSPropertyOp41
 70
     1
102
RTVSPropertyOp42
 70
     1
102
RTVSPropertyOp43
 70
     1
102
RTVSPropertyOp44
 70
     1
102
RTVSPropertyOp45
 70
     1
102
RTVSPropertyOp46
 70
     1
102
RTVSPropertyOp47
 70
     1
102
RTVSPropertyOp48
 70
     1
102
RTVSPropertyOp49
 70
     1
102
RTVSPropertyOp50
 70
     1
102
RTVSPropertyOp51
 70
     0
102
RTVSPropertyOp52
 70
     0
102
RTVSPropertyOp53
 70
     1
102
RTVSPropertyOp54
 70
     1
102
RTVSPropertyOp55
 70
     1
102
RTVSPropertyOp56
 70
     1
102
RTVSPropertyOp57
 70
     1
102
RTVSPropertyOp58
 70
     1
102
RTVSPropertyOp59
 70
     1
102
RTVSPropertyOp60
 70
     1
102
RTVSPropertyOp61
 70
     1
102
RTVSPropertyOp62
 70
     1
  0
XRECORD
  5
845
102
{ACAD_REACTORS
330
844
102
}
330
844
100
AcDbXrecord
280
     1
102
RTVSPost2010Prop28
280
     0
102
RTVSPost2010PropOp28
 70
     1
102
RTVSPost2010Prop29
280
     1
102
RTVSPost2010PropOp29
 70
     1
102
RTVSPost2010Prop30
280
     1
102
RTVSPost2010PropOp30
 70
     1
102
RTVSPost2010Prop31
280
     0
102
RTVSPost2010PropOp31
 70
     1
102
RTVSPost2010Prop32
280
     0
102
RTVSPost2010PropOp32
 70
     1
102
RTVSPost2010Prop33
280
     0
102
RTVSPost2010PropOp33
 70
     1
102
RTVSPost2010Prop34
280
     0
102
RTVSPost2010PropOp34
 70
     1
102
RTVSPost2010Prop35
280
     0
102
RTVSPost2010PropOp35
 70
     1
102
RTVSPost2010Prop36
280
     0
102
RTVSPost2010PropOp36
 70
     1
102
RTVSPost2010Prop37
 90
       50
102
RTVSPost2010PropOp37
 70
     1
102
RTVSPost2010Prop38
140
0.0
102
RTVSPost2010PropOp38
 70
     1
102
RTVSPost2010Prop39
140
1.0
102
RTVSPost2010PropOp39
 70
     1
102
RTVSPost2010Prop40
 90
        0
102
RTVSPost2010PropOp40
 70
     1
102
RTVSPost2010Prop41ColorIndex
 90
       18
102
RTVSPost2010Prop41ColorRGB
 90
        0
102
RTVSPost2010PropOp41
 70
     1
102
RTVSPost2010Prop42
 90
       50
102
RTVSPost2010PropOp42
 70
     1
102
RTVSPost2010Prop43
 90
        3
102
RTVSPost2010PropOp43
 70
     1
102
RTVSPost2010Prop44ColorIndex
 90
        5
102
RTVSPost2010Prop44ColorRGB
 90
      255
102
RTVSPost2010PropOp44
 70
     1
102
RTVSPost2010Prop45
280
     0
102
RTVSPost2010PropOp45
 70
     1
102
RTVSPost2010Prop46
 90
       50
102
RTVSPost2010PropOp46
 70
     1
102
RTVSPost2010Prop47
 90
       50
102
RTVSPost2010PropOp47
 70
     1
102
RTVSPost2010Prop48
 90
       50
102
RTVSPost2010PropOp48
 70
     1
102
RTVSPost2010Prop49
280
     0
102
RTVSPost2010PropOp49
 70
     1
102
RTVSPost2010Prop50
 90
       50
102
RTVSPost2010PropOp50
 70
     1
102
RTVSPost2010Prop51ColorIndex
 90
      256
102
RTVSPost2010Prop51ColorRGB
 90
-16777216
102
RTVSPost2010PropOp51
 70
     0
102
RTVSPost2010Prop52
140
1.0
102
RTVSPost2010PropOp52
 70
     0
102
RTVSPost2010Prop53
 90
        2
102
RTVSPost2010PropOp53
 70
     1
102
RTVSPost2010Prop54
  1
strokes_ogs.tif
102
RTVSPost2010PropOp54
 70
     1
102
RTVSPost2010Prop55
280
     0
102
RTVSPost2010PropOp55
 70
     1
102
RTVSPost2010Prop56
140
1.0
102
RTVSPost2010PropOp56
 70
     1
102
RTVSPost2010Prop57
140
1.0
102
RTVSPost2010PropOp57
 70
     1
102
RTVSPropertyOp0
 70
     1
102
RTVSPropertyOp1
 70
     1
102
RTVSPropertyOp2
 70
     1
102
RTVSPropertyOp3
 70
     1
102
RTVSPropertyOp4
 70
     1
102
RTVSPropertyOp5
 70
     1
102
RTVSPropertyOp6
 70
     1
102
RTVSPropertyOp7
 70
     1
102
RTVSPropertyOp8
 70
     1
102
RTVSPropertyOp9
 70
     1
102
RTVSPropertyOp10
 70
     1
102
RTVSPropertyOp11
 70
     1
102
RTVSPropertyOp12
 70
     1
102
RTVSPropertyOp13
 70
     1
102
RTVSPropertyOp14
 70
     1
102
RTVSPropertyOp15
 70
     1
102
RTVSPropertyOp16
 70
     1
102
RTVSPropertyOp17
 70
     1
102
RTVSPropertyOp18
 70
     1
102
RTVSPropertyOp19
 70
     1
102
RTVSPropertyOp20
 70
     1
102
RTVSPropertyOp21
 70
     1
102
RTVSPropertyOp22
 70
     1
102
RTVSPropertyOp23
 70
     1
102
RTVSPropertyOp24
 70
     1
102
RTVSPropertyOp25
 70
     1
102
RTVSPropertyOp26
 70
     1
102
RTVSPropertyOp27
 70
     1
102
RTVSPropertyOp28
 70
     1
102
RTVSPropertyOp29
 70
     1
102
RTVSPropertyOp30
 70
     1
102
RTVSPropertyOp31
 70
     1
102
RTVSPropertyOp32
 70
     1
102
RTVSPropertyOp33
 70
     1
102
RTVSPropertyOp34
 70
     1
102
RTVSPropertyOp35
 70
     1
102
RTVSPropertyOp36
 70
     1
102
RTVSPropertyOp37
 70
     1
102
RTVSPropertyOp38
 70
     1
102
RTVSPropertyOp39
 70
     1
102
RTVSPropertyOp40
 70
     1
102
RTVSPropertyOp41
 70
     1
102
RTVSPropertyOp42
 70
     1
102
RTVSPropertyOp43
 70
     1
102
RTVSPropertyOp44
 70
     1
102
RTVSPropertyOp45
 70
     1
102
RTVSPropertyOp46
 70
     1
102
RTVSPropertyOp47
 70
     1
102
RTVSPropertyOp48
 70
     1
102
RTVSPropertyOp49
 70
     1
102
RTVSPropertyOp50
 70
     1
102
RTVSPropertyOp51
 70
     0
102
RTVSPropertyOp52
 70
     0
102
RTVSPropertyOp53
 70
     1
102
RTVSPropertyOp54
 70
     1
102
RTVSPropertyOp55
 70
     1
102
RTVSPropertyOp56
 70
     1
102
RTVSPropertyOp57
 70
     1
102
RTVSPropertyOp58
 70
     1
102
RTVSPropertyOp59
 70
     1
102
RTVSPropertyOp60
 70
     1
102
RTVSPropertyOp61
 70
     1
102
RTVSPropertyOp62
 70
     1
  0
ENDSEC
  0
EOF
