  0
SECTION
  2
HEADER
  9
$ACADVER
  1
AC1015
  9
$ACADMAINTVER
 70
    20
  9
$DWGCODEPAGE
  3
ANSI_1252
  9
$INSBASE
 10
0.0
 20
0.0
 30
0.0
  9
$EXTMIN
 10
-58.83260433333333
 20
-14.425
 30
-0.0000000000000001
  9
$EXTMAX
 10
74.2125
 20
96.83260433333334
 30
0.0000000000000003
  9
$LIMMIN
 10
-0.5
 20
-0.5
  9
$LIMMAX
 10
5.0
 20
5.0
  9
$ORTHOMODE
 70
     0
  9
$REGENMODE
 70
     1
  9
$FILLMODE
 70
     1
  9
$QTEXTMODE
 70
     0
  9
$MIRRTEXT
 70
     1
  9
$LTSCALE
 40
1.0
  9
$ATTMODE
 70
     1
  9
$TEXTSIZE
 40
5.0
  9
$TRACEWID
 40
0.05
  9
$TEXTSTYLE
  7
Standard
  9
$CLAYER
  8
NOCUT
  9
$CELTYPE
  6
ByLayer
  9
$CECOLOR
 62
   256
  9
$CELTSCALE
 40
1.0
  9
$DISPSILH
 70
     0
  9
$DIMSCALE
 40
1.0
  9
$DIMASZ
 40
0.18
  9
$DIMEXO
 40
0.0625
  9
$DIMDLI
 40
0.38
  9
$DIMRND
 40
0.0
  9
$DIMDLE
 40
0.0
  9
$DIMEXE
 40
0.18
  9
$DIMTP
 40
0.0
  9
$DIMTM
 40
0.0
  9
$DIMTXT
 40
0.18
  9
$DIMCEN
 40
0.09
  9
$DIMTSZ
 40
0.0
  9
$DIMTOL
 70
     0
  9
$DIMLIM
 70
     0
  9
$DIMTIH
 70
     1
  9
$DIMTOH
 70
     1
  9
$DIMSE1
 70
     0
  9
$DIMSE2
 70
     0
  9
$DIMTAD
 70
     0
  9
$DIMZIN
 70
     0
  9
$DIMBLK
  1

  9
$DIMASO
 70
     1
  9
$DIMSHO
 70
     1
  9
$DIMPOST
  1

  9
$DIMAPOST
  1

  9
$DIMALT
 70
     0
  9
$DIMALTD
 70
     2
  9
$DIMALTF
 40
25.4
  9
$DIMLFAC
 40
1.0
  9
$DIMTOFL
 70
     0
  9
$DIMTVP
 40
0.0
  9
$DIMTIX
 70
     0
  9
$DIMSOXD
 70
     0
  9
$DIMSAH
 70
     0
  9
$DIMBLK1
  1

  9
$DIMBLK2
  1

  9
$DIMSTYLE
  2
Standard
  9
$DIMCLRD
 70
     0
  9
$DIMCLRE
 70
     0
  9
$DIMCLRT
 70
     0
  9
$DIMTFAC
 40
1.0
  9
$DIMGAP
 40
0.09
  9
$DIMJUST
 70
     0
  9
$DIMSD1
 70
     0
  9
$DIMSD2
 70
     0
  9
$DIMTOLJ
 70
     1
  9
$DIMTZIN
 70
     0
  9
$DIMALTZ
 70
     0
  9
$DIMALTTZ
 70
     0
  9
$DIMUPT
 70
     0
  9
$DIMDEC
 70
     4
  9
$DIMTDEC
 70
     4
  9
$DIMALTU
 70
     2
  9
$DIMALTTD
 70
     2
  9
$DIMTXSTY
  7
Standard
  9
$DIMAUNIT
 70
     0
  9
$DIMADEC
 70
     0
  9
$DIMALTRND
 40
0.0
  9
$DIMAZIN
 70
     0
  9
$DIMDSEP
 70
     0
  9
$DIMATFIT
 70
     3
  9
$DIMFRAC
 70
     0
  9
$DIMLDRBLK
  1

  9
$DIMLUNIT
 70
     2
  9
$DIMLWD
 70
     0
  9
$DIMLWE
 70
     0
  9
$DIMTMOVE
 70
     0
  9
$LUNITS
 70
     2
  9
$LUPREC
 70
     4
  9
$SKETCHINC
 40
0.1
  9
$FILLETRAD
 40
0.0
  9
$AUNITS
 70
     0
  9
$AUPREC
 70
     0
  9
$MENU
  1
acad
  9
$ELEVATION
 40
0.0
  9
$PELEVATION
 40
0.0
  9
$THICKNESS
 40
0.0
  9
$LIMCHECK
 70
     0
  9
$CHAMFERA
 40
0.0
  9
$CHAMFERB
 40
0.0
  9
$CHAMFERC
 40
0.0
  9
$CHAMFERD
 40
0.0
  9
$SKPOLY
 70
     0
  9
$TDCREATE
 40
2457459.598759988
  9
$TDUCREATE
 40
2457459.557093322
  9
$TDUPDATE
 40
2457459.599107465
  9
$TDUUPDATE
 40
2457459.557440799
  9
$TDINDWG
 40
0.0003478356
  9
$TDUSRTIMER
 40
0.0003478125
  9
$USRTIMER
 70
     1
  9
$ANGBASE
 50
0.0
  9
$ANGDIR
 70
     0
  9
$PDMODE
 70
     0
  9
$PDSIZE
 40
0.0
  9
$PLINEWID
 40
0.0
  9
$SPLFRAME
 70
     0
  9
$SPLINETYPE
 70
     6
  9
$SPLINESEGS
 70
     8
  9
$HANDSEED
  5
211
  9
$SURFTAB1
 70
     6
  9
$SURFTAB2
 70
     6
  9
$SURFTYPE
 70
     6
  9
$SURFU
 70
     6
  9
$SURFV
 70
     6
  9
$UCSBASE
  2

  9
$UCSNAME
  2

  9
$UCSORG
 10
0.0
 20
0.0
 30
0.0
  9
$UCSXDIR
 10
1.0
 20
0.0
 30
0.0
  9
$UCSYDIR
 10
0.0
 20
1.0
 30
0.0
  9
$UCSORTHOREF
  2

  9
$UCSORTHOVIEW
 70
     0
  9
$UCSORGTOP
 10
0.0
 20
0.0
 30
0.0
  9
$UCSORGBOTTOM
 10
0.0
 20
0.0
 30
0.0
  9
$UCSORGLEFT
 10
0.0
 20
0.0
 30
0.0
  9
$UCSORGRIGHT
 10
0.0
 20
0.0
 30
0.0
  9
$UCSORGFRONT
 10
0.0
 20
0.0
 30
0.0
  9
$UCSORGBACK
 10
0.0
 20
0.0
 30
0.0
  9
$PUCSBASE
  2

  9
$PUCSNAME
  2

  9
$PUCSORG
 10
0.0
 20
0.0
 30
0.0
  9
$PUCSXDIR
 10
1.0
 20
0.0
 30
0.0
  9
$PUCSYDIR
 10
0.0
 20
1.0
 30
0.0
  9
$PUCSORTHOREF
  2

  9
$PUCSORTHOVIEW
 70
     0
  9
$PUCSORGTOP
 10
0.0
 20
0.0
 30
0.0
  9
$PUCSORGBOTTOM
 10
0.0
 20
0.0
 30
0.0
  9
$PUCSORGLEFT
 10
0.0
 20
0.0
 30
0.0
  9
$PUCSORGRIGHT
 10
0.0
 20
0.0
 30
0.0
  9
$PUCSORGFRONT
 10
0.0
 20
0.0
 30
0.0
  9
$PUCSORGBACK
 10
0.0
 20
0.0
 30
0.0
  9
$USERI1
 70
     0
  9
$USERI2
 70
     0
  9
$USERI3
 70
     0
  9
$USERI4
 70
     0
  9
$USERI5
 70
     0
  9
$USERR1
 40
0.0
  9
$USERR2
 40
0.0
  9
$USERR3
 40
0.0
  9
$USERR4
 40
0.0
  9
$USERR5
 40
0.0
  9
$WORLDVIEW
 70
     1
  9
$SHADEDGE
 70
     3
  9
$SHADEDIF
 70
    70
  9
$TILEMODE
 70
     1
  9
$MAXACTVP
 70
    64
  9
$PINSBASE
 10
0.0
 20
0.0
 30
0.0
  9
$PLIMCHECK
 70
     0
  9
$PEXTMIN
 10
-0.5
 20
-0.5
 30
-0.5
  9
$PEXTMAX
 10
5.0
 20
5.0
 30
5.0
  9
$PLIMMIN
 10
-0.5
 20
-0.5
  9
$PLIMMAX
 10
5.0
 20
5.0
  9
$UNITMODE
 70
     0
  9
$VISRETAIN
 70
     0
  9
$PLINEGEN
 70
     1
  9
$PSLTSCALE
 70
     0
  9
$TREEDEPTH
 70
  3020
  9
$CMLSTYLE
  2
Standard
  9
$CMLJUST
 70
     0
  9
$CMLSCALE
 40
1.0
  9
$PROXYGRAPHICS
 70
     0
  9
$MEASUREMENT
 70
     1
  9
$CELWEIGHT
370
     0
  9
$ENDCAPS
280
     0
  9
$JOINSTYLE
280
     0
  9
$LWDISPLAY
290
     0
  9
$INSUNITS
 70
     0
  9
$HYPERLINKBASE
  1

  9
$STYLESHEET
  1

  9
$XEDIT
290
     1
  9
$CEPSNTYPE
380
     0
  9
$PSTYLEMODE
290
     1
  9
$FINGERPRINTGUID
  2

  9
$VERSIONGUID
  2
{F1EFF038-2E5E-4B38-BABD-9DB112135747}
  9
$EXTNAMES
290
     1
  9
$PSVPSCALE
 40
0.0
  9
$OLESTARTUP
290
     0
  0
ENDSEC
  0
SECTION
  2
CLASSES
  0
CLASS
  1
IMAGE
  2
AcDbRasterImage
  3
ISM
 90
    34943
280
     0
281
     1
  0
CLASS
  1
DICTIONARYVAR
  2
AcDbDictionaryVar
  3
ObjectDBX Classes
 90
        0
280
     0
281
     0
  0
CLASS
  1
RASTERVARIABLES
  2
AcDbRasterVariables
  3
ISM
 90
    32768
280
     0
281
     0
  0
CLASS
  1
IMAGEDEF
  2
AcDbRasterImageDef
  3
ISM
 90
    32768
280
     0
281
     0
  0
CLASS
  1
IMAGEDEF_REACTOR
  2
AcDbRasterImageDefReactor
  3
ISM
 90
    32769
280
     0
281
     0
  0
CLASS
  1
IDBUFFER
  2
AcDbIdBuffer
  3
ObjectDBX Classes
 90
    32768
280
     0
281
     0
  0
CLASS
  1
SPATIAL_FILTER
  2
AcDbSpatialFilter
  3
ObjectDBX Classes
 90
    32768
280
     0
281
     0
  0
CLASS
  1
SORTENTSTABLE
  2
AcDbSortentsTable
  3
ObjectDBX Classes
 90
    32768
280
     0
281
     0
  0
CLASS
  1
LAYER_INDEX
  2
AcDbLayerIndex
  3
ObjectDBX Classes
 90
    32768
280
     0
281
     0
  0
CLASS
  1
SPATIAL_INDEX
  2
AcDbSpatialIndex
  3
ObjectDBX Classes
 90
    32768
280
     0
281
     0
  0
CLASS
  1
OBJECT_PTR
  2
CAseDLPNTableRecord
  3
ASE-LPNTableRecord
 90
    32769
280
     0
281
     0
  0
CLASS
  1
LAYOUT
  2
AcDbLayout
  3
ObjectDBX Classes
 90
        0
280
     0
281
     0
  0
CLASS
  1
PLOTSETTINGS
  2
AcDbPlotSettings
  3
ObjectDBX Classes
 90
    32768
280
     0
281
     0
  0
CLASS
  1
ACDBDICTIONARYWDFLT
  2
AcDbDictionaryWithDefault
  3
ObjectDBX Classes
 90
        0
280
     0
281
     0
  0
CLASS
  1
ACDBPLACEHOLDER
  2
AcDbPlaceHolder
  3
ObjectDBX Classes
 90
        0
280
     0
281
     0
  0
CLASS
  1
VBA_PROJECT
  2
AcDbVbaProject
  3
acad
 90
    32768
280
     0
281
     0
  0
CLASS
  1
WIPEOUT
  2
AcDbWipeout
  3
"WipeOut|Product Desc: Object Enabler for WipeOut entity                        |Company: Autodesk, Inc.                        |WEB Address: www.autodesk.com"
 90
    34943
280
     0
281
     1
  0
CLASS
  1
WIPEOUTVARIABLES
  2
AcDbWipeoutVariables
  3
"WipeOut|Product Desc:     WipeOut Dbx Application|Company:          Autodesk, Inc.|WEB Address:      www.autodesk.com"
 90
        0
280
     0
281
     0
  0
CLASS
  1
RTEXT
  2
RText
  3
RText|AutoCAD Express Tool|expresstools@autodesk.com
 90
    35839
280
     0
281
     1
  0
CLASS
  1
ARCALIGNEDTEXT
  2
AcDbArcAlignedText
  3
ATEXT|AutoCAD Express Tool|expresstools@autodesk.com
 90
    32768
280
     0
281
     1
  0
CLASS
  1
SCALE
  2
AcDbScale
  3
ObjectDBX Classes
 90
     1153
280
     0
281
     0
  0
CLASS
  1
MATERIAL
  2
AcDbMaterial
  3
ObjectDBX Classes
 90
     1153
280
     0
281
     0
  0
CLASS
  1
VISUALSTYLE
  2
AcDbVisualStyle
  3
ObjectDBX Classes
 90
     4095
280
     0
281
     0
  0
CLASS
  1
TABLESTYLE
  2
AcDbTableStyle
  3
ObjectDBX Classes
 90
     4095
280
     0
281
     0
  0
CLASS
  1
MLEADERSTYLE
  2
AcDbMLeaderStyle
  3
ACDB_MLEADERSTYLE_CLASS
 90
     4095
280
     0
281
     0
  0
CLASS
  1
CELLSTYLEMAP
  2
AcDbCellStyleMap
  3
ObjectDBX Classes
 90
     1152
280
     0
281
     0
  0
ENDSEC
  0
SECTION
  2
TABLES
  0
TABLE
  2
VPORT
  5
7
330
0
100
AcDbSymbolTable
 70
    16
  0
VPORT
  5
131
330
7
100
AcDbSymbolTableRecord
100
AcDbViewportTableRecord
  2
*ACTIVE
 70
     0
 10
0.0
 20
0.0
 11
1.0
 21
1.0
 12
197.3901740134228
 22
23.892498
 13
0.0
 23
0.0
 14
1.0
 24
1.0
 15
0.0
 25
0.0
 16
0.0
 26
0.0
 36
1.0
 17
0.0
 27
0.0
 37
0.0
 40
254.0
 41
2.186577181208053
 42
50.0
 43
274.598704
 44
-274.598704
 50
0.0
 51
0.0
 71
    16
 72
   100
 73
     1
 74
     1
 75
     0
 76
     0
 77
     0
 78
     0
281
     0
 65
     0
110
0.0
120
0.0
130
0.0
111
1.0
121
0.0
131
0.0
112
0.0
122
1.0
132
0.0
 79
     0
146
0.0
  0
VPORT
  5
132
330
7
100
AcDbSymbolTableRecord
100
AcDbViewportTableRecord
  2
L1
 70
     0
 10
0.0
 20
0.0
 11
1.0
 21
1.0
 12
7.1425
 22
23.892498
 13
0.0
 23
0.0
 14
1.0
 24
1.0
 15
0.0
 25
0.0
 16
0.0
 26
0.0
 36
1.0
 17
0.0
 27
0.0
 37
0.0
 40
254.0
 41
0.6885640000000001
 42
50.0
 43
274.598704
 44
-274.598704
 50
0.0
 51
0.0
 71
    16
 72
   100
 73
     1
 74
     1
 75
     0
 76
     0
 77
     0
 78
     0
281
     0
 65
     0
110
0.0
120
0.0
130
0.0
111
1.0
121
0.0
131
0.0
112
0.0
122
1.0
132
0.0
 79
     0
146
0.0
  0
VPORT
  5
133
330
7
100
AcDbSymbolTableRecord
100
AcDbViewportTableRecord
  2
L2
 70
     0
 10
0.0
 20
0.0
 11
0.5
 21
1.0
 12
0.0
 22
0.0
 13
0.0
 23
0.0
 14
1.0
 24
1.0
 15
0.0
 25
0.0
 16
0.0
 26
-1.0
 36
0.0
 17
0.0
 27
0.0
 37
0.0
 40
1583.996559
 41
0.688564
 42
50.0
 43
815.290728
 44
-815.290728
 50
0.0
 51
0.0
 71
    16
 72
   100
 73
     1
 74
     1
 75
     0
 76
     0
 77
     0
 78
     0
281
     0
 65
     0
110
0.0
120
0.0
130
0.0
111
1.0
121
0.0
131
0.0
112
0.0
122
1.0
132
0.0
 79
     0
146
0.0
  0
VPORT
  5
134
330
7
100
AcDbSymbolTableRecord
100
AcDbViewportTableRecord
  2
L2
 70
     0
 10
0.5
 20
0.0
 11
1.0
 21
1.0
 12
0.0
 22
0.0
 13
0.0
 23
0.0
 14
1.0
 24
1.0
 15
0.0
 25
0.0
 16
1.0
 26
0.0
 36
0.0
 17
0.0
 27
0.0
 37
0.0
 40
1583.996559
 41
0.688564
 42
50.0
 43
802.116123
 44
-802.116123
 50
0.0
 51
0.0
 71
    16
 72
   100
 73
     1
 74
     1
 75
     0
 76
     0
 77
     0
 78
     0
281
     0
 65
     0
110
0.0
120
0.0
130
0.0
111
1.0
121
0.0
131
0.0
112
0.0
122
1.0
132
0.0
 79
     0
146
0.0
  0
VPORT
  5
135
330
7
100
AcDbSymbolTableRecord
100
AcDbViewportTableRecord
  2
L3
 70
     0
 10
0.0
 20
0.5
 11
1.0
 21
1.0
 12
7.1425
 22
23.892498
 13
0.0
 23
0.0
 14
1.0
 24
1.0
 15
0.0
 25
0.0
 16
0.0
 26
0.0
 36
1.0
 17
0.0
 27
0.0
 37
0.0
 40
254.0
 41
0.6885640000000001
 42
50.0
 43
274.598704
 44
-274.598704
 50
0.0
 51
0.0
 71
    16
 72
   100
 73
     1
 74
     1
 75
     0
 76
     0
 77
     0
 78
     0
281
     0
 65
     0
110
0.0
120
0.0
130
0.0
111
1.0
121
0.0
131
0.0
112
0.0
122
1.0
132
0.0
 79
     0
146
0.0
  0
VPORT
  5
136
330
7
100
AcDbSymbolTableRecord
100
AcDbViewportTableRecord
  2
L3
 70
     0
 10
0.0
 20
0.0
 11
1.0
 21
0.5
 12
0.0
 22
0.0
 13
0.0
 23
0.0
 14
1.0
 24
1.0
 15
0.0
 25
0.0
 16
0.0
 26
-1.0
 36
0.0
 17
0.0
 27
0.0
 37
0.0
 40
1583.996559
 41
0.688564
 42
50.0
 43
815.290728
 44
-815.290728
 50
0.0
 51
0.0
 71
    16
 72
   100
 73
     1
 74
     1
 75
     0
 76
     0
 77
     0
 78
     0
281
     0
 65
     0
110
0.0
120
0.0
130
0.0
111
1.0
121
0.0
131
0.0
112
0.0
122
1.0
132
0.0
 79
     0
146
0.0
  0
VPORT
  5
137
330
7
100
AcDbSymbolTableRecord
100
AcDbViewportTableRecord
  2
L4
 70
     0
 10
0.0
 20
0.5
 11
0.5
 21
1.0
 12
7.1425
 22
23.892498
 13
0.0
 23
0.0
 14
1.0
 24
1.0
 15
0.0
 25
0.0
 16
0.0
 26
0.0
 36
1.0
 17
0.0
 27
0.0
 37
0.0
 40
254.0
 41
0.6885640000000001
 42
50.0
 43
274.598704
 44
-274.598704
 50
0.0
 51
0.0
 71
    16
 72
   100
 73
     1
 74
     1
 75
     0
 76
     0
 77
     0
 78
     0
281
     0
 65
     0
110
0.0
120
0.0
130
0.0
111
1.0
121
0.0
131
0.0
112
0.0
122
1.0
132
0.0
 79
     0
146
0.0
  0
VPORT
  5
138
330
7
100
AcDbSymbolTableRecord
100
AcDbViewportTableRecord
  2
L4
 70
     0
 10
0.0
 20
0.0
 11
0.5
 21
0.5
 12
0.0
 22
0.0
 13
0.0
 23
0.0
 14
1.0
 24
1.0
 15
0.0
 25
0.0
 16
0.0
 26
-1.0
 36
0.0
 17
0.0
 27
0.0
 37
0.0
 40
1583.996559
 41
0.688564
 42
50.0
 43
815.290728
 44
-815.290728
 50
0.0
 51
0.0
 71
    16
 72
   100
 73
     1
 74
     1
 75
     0
 76
     0
 77
     0
 78
     0
281
     0
 65
     0
110
0.0
120
0.0
130
0.0
111
1.0
121
0.0
131
0.0
112
0.0
122
1.0
132
0.0
 79
     0
146
0.0
  0
VPORT
  5
139
330
7
100
AcDbSymbolTableRecord
100
AcDbViewportTableRecord
  2
L4
 70
     0
 10
0.5
 20
0.0
 11
1.0
 21
0.5
 12
0.0
 22
0.0
 13
0.0
 23
0.0
 14
1.0
 24
1.0
 15
0.0
 25
0.0
 16
1.0
 26
0.0
 36
0.0
 17
0.0
 27
0.0
 37
0.0
 40
1583.996559
 41
0.688564
 42
50.0
 43
802.116123
 44
-802.116123
 50
0.0
 51
0.0
 71
    16
 72
   100
 73
     1
 74
     1
 75
     0
 76
     0
 77
     0
 78
     0
281
     0
 65
     0
110
0.0
120
0.0
130
0.0
111
1.0
121
0.0
131
0.0
112
0.0
122
1.0
132
0.0
 79
     0
146
0.0
  0
VPORT
  5
13A
330
7
100
AcDbSymbolTableRecord
100
AcDbViewportTableRecord
  2
L4
 70
     0
 10
0.5
 20
0.5
 11
1.0
 21
1.0
 12
0.0
 22
0.0
 13
0.0
 23
0.0
 14
1.0
 24
1.0
 15
0.0
 25
0.0
 16
0.5773500000000001
 26
-0.5773500000000001
 36
0.5773500000000001
 17
0.0
 27
0.0
 37
0.0
 40
1555.005323
 41
0.6885640000000001
 42
50.0
 43
809.8560009999999
 44
-809.8560009999999
 50
0.0
 51
0.0
 71
    16
 72
   100
 73
     1
 74
     1
 75
     0
 76
     0
 77
     0
 78
     0
281
     0
 65
     0
110
0.0
120
0.0
130
0.0
111
1.0
121
0.0
131
0.0
112
0.0
122
1.0
132
0.0
 79
     0
146
0.0
  0
VPORT
  5
13B
330
7
100
AcDbSymbolTableRecord
100
AcDbViewportTableRecord
  2
L6
 70
     0
 10
0.0
 20
0.5
 11
0.333333
 21
1.0
 12
0.0
 22
0.0
 13
0.0
 23
0.0
 14
1.0
 24
1.0
 15
0.0
 25
0.0
 16
0.718873
 26
-0.5850489999999999
 36
0.375419
 17
0.0
 27
0.0
 37
0.0
 40
1641.004744
 41
0.6885640000000001
 42
50.0
 43
849.6493710000001
 44
-849.6493710000001
 50
0.0
 51
0.0
 71
    16
 72
   100
 73
     1
 74
     1
 75
     0
 76
     0
 77
     0
 78
     0
281
     0
 65
     0
110
0.0
120
0.0
130
0.0
111
1.0
121
0.0
131
0.0
112
0.0
122
1.0
132
0.0
 79
     0
146
0.0
  0
VPORT
  5
13C
330
7
100
AcDbSymbolTableRecord
100
AcDbViewportTableRecord
  2
L6
 70
     0
 10
0.0
 20
0.0
 11
0.333333
 21
0.5
 12
0.0
 22
0.0
 13
0.0
 23
0.0
 14
1.0
 24
1.0
 15
0.0
 25
0.0
 16
-1.0
 26
0.0
 36
0.0
 17
0.0
 27
0.0
 37
0.0
 40
1583.996559
 41
0.688564
 42
50.0
 43
802.116123
 44
-802.116123
 50
0.0
 51
0.0
 71
    16
 72
   100
 73
     1
 74
     1
 75
     0
 76
     0
 77
     0
 78
     0
281
     0
 65
     0
110
0.0
120
0.0
130
0.0
111
1.0
121
0.0
131
0.0
112
0.0
122
1.0
132
0.0
 79
     0
146
0.0
  0
VPORT
  5
13D
330
7
100
AcDbSymbolTableRecord
100
AcDbViewportTableRecord
  2
L6
 70
     0
 10
0.333333
 20
0.5
 11
0.666667
 21
1.0
 12
7.1425
 22
23.892498
 13
0.0
 23
0.0
 14
1.0
 24
1.0
 15
0.0
 25
0.0
 16
0.0
 26
0.0
 36
1.0
 17
0.0
 27
0.0
 37
0.0
 40
254.0
 41
0.6885640000000001
 42
50.0
 43
274.598704
 44
-274.598704
 50
0.0
 51
0.0
 71
    16
 72
   100
 73
     1
 74
     1
 75
     0
 76
     0
 77
     0
 78
     0
281
     0
 65
     0
110
0.0
120
0.0
130
0.0
111
1.0
121
0.0
131
0.0
112
0.0
122
1.0
132
0.0
 79
     0
146
0.0
  0
VPORT
  5
13E
330
7
100
AcDbSymbolTableRecord
100
AcDbViewportTableRecord
  2
L6
 70
     0
 10
0.333333
 20
0.0
 11
0.666667
 21
0.5
 12
0.0
 22
0.0
 13
0.0
 23
0.0
 14
1.0
 24
1.0
 15
0.0
 25
0.0
 16
0.0
 26
-1.0
 36
0.0
 17
0.0
 27
0.0
 37
0.0
 40
1583.996559
 41
0.688564
 42
50.0
 43
815.290728
 44
-815.290728
 50
0.0
 51
0.0
 71
    16
 72
   100
 73
     1
 74
     1
 75
     0
 76
     0
 77
     0
 78
     0
281
     0
 65
     0
110
0.0
120
0.0
130
0.0
111
1.0
121
0.0
131
0.0
112
0.0
122
1.0
132
0.0
 79
     0
146
0.0
  0
VPORT
  5
13F
330
7
100
AcDbSymbolTableRecord
100
AcDbViewportTableRecord
  2
L6
 70
     0
 10
0.666667
 20
0.5
 11
1.0
 21
1.0
 12
0.0
 22
0.0
 13
0.0
 23
0.0
 14
1.0
 24
1.0
 15
0.0
 25
0.0
 16
0.5773500000000001
 26
-0.5773500000000001
 36
0.5773500000000001
 17
0.0
 27
0.0
 37
0.0
 40
1555.005323
 41
0.6885640000000001
 42
50.0
 43
809.8560009999999
 44
-809.8560009999999
 50
0.0
 51
0.0
 71
    16
 72
   100
 73
     1
 74
     1
 75
     0
 76
     0
 77
     0
 78
     0
281
     0
 65
     0
110
0.0
120
0.0
130
0.0
111
1.0
121
0.0
131
0.0
112
0.0
122
1.0
132
0.0
 79
     0
146
0.0
  0
VPORT
  5
140
330
7
100
AcDbSymbolTableRecord
100
AcDbViewportTableRecord
  2
L6
 70
     0
 10
0.666667
 20
0.0
 11
1.0
 21
0.5
 12
0.0
 22
0.0
 13
0.0
 23
0.0
 14
1.0
 24
1.0
 15
0.0
 25
0.0
 16
1.0
 26
0.0
 36
0.0
 17
0.0
 27
0.0
 37
0.0
 40
1583.996559
 41
0.688564
 42
50.0
 43
802.116123
 44
-802.116123
 50
0.0
 51
0.0
 71
    16
 72
   100
 73
     1
 74
     1
 75
     0
 76
     0
 77
     0
 78
     0
281
     0
 65
     0
110
0.0
120
0.0
130
0.0
111
1.0
121
0.0
131
0.0
112
0.0
122
1.0
132
0.0
 79
     0
146
0.0
  0
ENDTAB
  0
TABLE
  2
LTYPE
  5
4
330
0
100
AcDbSymbolTable
 70
     9
  0
LTYPE
  5
11
330
4
100
AcDbSymbolTableRecord
100
AcDbLinetypeTableRecord
  2
ByBlock
 70
     0
  3

 72
    65
 73
     0
 40
0.0
  0
LTYPE
  5
12
330
4
100
AcDbSymbolTableRecord
100
AcDbLinetypeTableRecord
  2
ByLayer
 70
     0
  3

 72
    65
 73
     0
 40
0.0
  0
LTYPE
  5
13
330
4
100
AcDbSymbolTableRecord
100
AcDbLinetypeTableRecord
  2
Continuous
 70
     0
  3
Solid line
 72
    65
 73
     0
 40
0.0
  0
LTYPE
  5
24
330
4
100
AcDbSymbolTableRecord
100
AcDbLinetypeTableRecord
  2
DASHED
 70
     0
  3
Dashed
 72
    65
 73
     2
 40
15.0
 49
12.0
 74
     4
 75
     0
340
0
 46
0.0
 50
0.0
 44
0.0
 45
0.0
 49
-3.0
 74
     4
 75
     0
340
0
 46
0.0
 50
0.0
 44
0.0
 45
0.0
  0
LTYPE
  5
25
330
4
100
AcDbSymbolTableRecord
100
AcDbLinetypeTableRecord
  2
HIDDEN
 70
     0
  3
Hidden __ __ __ __ __ __ __ __ __ __ __ __ __ _
 72
    65
 73
     2
 40
9.524999999999996
 49
6.349999999999997
 74
     4
 75
     0
340
0
 46
0.0
 50
0.0
 44
0.0
 45
0.0
 49
-3.174999999999998
 74
     4
 75
     0
340
0
 46
0.0
 50
0.0
 44
0.0
 45
0.0
  0
LTYPE
  5
26
330
4
100
AcDbSymbolTableRecord
100
AcDbLinetypeTableRecord
  2
PHANTOM
 70
     0
  3
____ _ _ ____ _ _ _____ _ _ ____
 72
    65
 73
     6
 40
50.5
 49
18.0
 74
     0
 49
-6.5
 74
     0
 49
6.5
 74
     0
 49
-6.5
 74
     0
 49
6.5
 74
     0
 49
-6.5
 74
     0
  0
LTYPE
  5
27
330
4
100
AcDbSymbolTableRecord
100
AcDbLinetypeTableRecord
  2
CENTER
 70
     0
  3
Dash dot __ . __ . __ . __ . __ . __ . __ . __
 72
    65
 73
     4
 40
25.4
 49
12.7
 74
     4
 75
     0
340
0
 46
0.0
 50
0.0
 44
0.0
 45
0.0
 49
-6.349999999999997
 74
     4
 75
     0
340
0
 46
0.0
 50
0.0
 44
0.0
 45
0.0
 49
0.0
 74
     4
 75
     0
340
0
 46
0.0
 50
0.0
 44
0.0
 45
0.0
 49
-6.349999999999997
 74
     4
 75
     0
340
0
 46
0.0
 50
0.0
 44
0.0
 45
0.0
  0
LTYPE
  5
28
330
4
100
AcDbSymbolTableRecord
100
AcDbLinetypeTableRecord
  2
DOT
 70
     0
  3
.........................
 72
    65
 73
     2
 40
10.0
 49
0.0
 74
     0
 49
-10.0
 74
     0
  0
LTYPE
  5
29
330
4
100
AcDbSymbolTableRecord
100
AcDbLinetypeTableRecord
  2
DASHDOT
 70
     0
  3
_._._._._._._._._._._._._._._._.
 72
    65
 73
     4
 40
70.0
 49
31.0
 74
     0
 49
-13.0
 74
     0
 49
13.0
 74
     0
 49
-13.0
 74
     0
  0
LTYPE
  5
166
330
4
100
AcDbSymbolTableRecord
100
AcDbLinetypeTableRecord
  2
DOT_CENTER
 70
     0
  3
Dot_Center
 72
    65
 73
     4
 40
2.0
 49
1.25
 74
     4
 75
     0
340
0
 46
0.0
 50
0.0
 44
0.0
 45
0.0
 49
-0.25
 74
     4
 75
     0
340
0
 46
0.0
 50
0.0
 44
0.0
 45
0.0
 49
0.25
 74
     4
 75
     0
340
0
 46
0.0
 50
0.0
 44
0.0
 45
0.0
 49
-0.25
 74
     4
 75
     0
340
0
 46
0.0
 50
0.0
 44
0.0
 45
0.0
  0
LTYPE
  5
167
330
4
100
AcDbSymbolTableRecord
100
AcDbLinetypeTableRecord
  2
LONG_DASHED
 70
     0
  3
Long_Dashed
 72
    65
 73
     2
 40
2.0
 49
1.5
 74
     4
 75
     0
340
0
 46
0.0
 50
0.0
 44
0.0
 45
0.0
 49
-0.5
 74
     4
 75
     0
340
0
 46
0.0
 50
0.0
 44
0.0
 45
0.0
  0
ENDTAB
  0
TABLE
  2
LAYER
  5
2
330
0
100
AcDbSymbolTable
 70
    11
  0
LAYER
  5
14
102
{ACAD_XDICTIONARY
360
1C0
102
}
330
2
100
AcDbSymbolTableRecord
100
AcDbLayerTableRecord
  2
0
 70
     0
 62
     7
  6
Continuous
370
    -3
390
1D
  0
LAYER
  5
181
330
2
100
AcDbSymbolTableRecord
100
AcDbLayerTableRecord
  2
DEFPOINTS
 70
     0
 62
     7
  6
Continuous
290
     0
370
    -3
390
1D
  0
LAYER
  5
182
102
{ACAD_XDICTIONARY
360
1C2
102
}
330
2
100
AcDbSymbolTableRecord
100
AcDbLayerTableRecord
  2
NOCUT
 70
     0
 62
     7
  6
Continuous
370
    -3
390
1D
  0
LAYER
  5
183
102
{ACAD_XDICTIONARY
360
1C4
102
}
330
2
100
AcDbSymbolTableRecord
100
AcDbLayerTableRecord
  2
CUT
 70
     0
 62
     1
  6
Continuous
370
    -3
390
1D
  0
LAYER
  5
184
102
{ACAD_XDICTIONARY
360
1C6
102
}
330
2
100
AcDbSymbolTableRecord
100
AcDbLayerTableRecord
  2
1
 70
     0
 62
     4
  6
Continuous
370
    -3
390
1D
  0
LAYER
  5
185
102
{ACAD_XDICTIONARY
360
1C8
102
}
330
2
100
AcDbSymbolTableRecord
100
AcDbLayerTableRecord
  2
SK1
 70
     0
 62
     4
  6
Continuous
370
    -3
390
1D
  0
LAYER
  5
186
102
{ACAD_XDICTIONARY
360
1CA
102
}
330
2
100
AcDbSymbolTableRecord
100
AcDbLayerTableRecord
  2
4
 70
     0
 62
     2
  6
CENTER
370
    -3
390
1D
  0
LAYER
  5
187
102
{ACAD_XDICTIONARY
360
1CC
102
}
330
2
100
AcDbSymbolTableRecord
100
AcDbLayerTableRecord
  2
SK4
 70
     0
 62
     2
  6
CENTER
370
    -3
390
1D
  0
LAYER
  5
188
102
{ACAD_XDICTIONARY
360
1CE
102
}
330
2
100
AcDbSymbolTableRecord
100
AcDbLayerTableRecord
  2
SK6
 70
     0
 62
     5
  6
Continuous
370
    -3
390
1D
  0
LAYER
  5
189
102
{ACAD_XDICTIONARY
360
1D0
102
}
330
2
100
AcDbSymbolTableRecord
100
AcDbLayerTableRecord
  2
2
 70
     0
 62
     7
  6
Continuous
370
    -3
390
1D
  0
LAYER
  5
18A
102
{ACAD_XDICTIONARY
360
1D2
102
}
330
2
100
AcDbSymbolTableRecord
100
AcDbLayerTableRecord
  2
SK2
 70
     0
 62
     7
  6
Continuous
370
    -3
390
1D
  0
ENDTAB
  0
TABLE
  2
STYLE
  5
3
330
0
100
AcDbSymbolTable
 70
     5
  0
STYLE
  5
17
330
3
100
AcDbSymbolTableRecord
100
AcDbTextStyleTableRecord
  2
Standard
 70
     0
 40
0.0
 41
1.0
 50
0.0
 71
     0
 42
5.0
  3
txt
  4

  0
STYLE
  5
E7
330
3
100
AcDbSymbolTableRecord
100
AcDbTextStyleTableRecord
  2
blockfont
 70
     0
 40
0.0
 41
1.0
 50
0.0
 71
     0
 42
0.2
  3
simplex.shx
  4

  0
STYLE
  5
163
330
3
100
AcDbSymbolTableRecord
100
AcDbTextStyleTableRecord
  2
TXT
 70
     0
 40
8.0
 41
1.0
 50
0.0
 71
     0
 42
8.0
  3
txt
  4

  0
STYLE
  5
164
330
3
100
AcDbSymbolTableRecord
100
AcDbTextStyleTableRecord
  2
SIMPLEX
 70
     0
 40
0.0
 41
1.0
 50
0.0
 71
     0
 42
3.5
  3
simplex
  4

  0
STYLE
  5
165
330
3
100
AcDbSymbolTableRecord
100
AcDbTextStyleTableRecord
  2
S07
 70
     0
 40
0.0
 41
0.7
 50
0.0
 71
     0
 42
2.5
  3
SIMPLEX.shx
  4

  0
ENDTAB
  0
TABLE
  2
VIEW
  5
5
330
0
100
AcDbSymbolTable
 70
     8
  0
VIEW
  5
129
330
5
100
AcDbSymbolTableRecord
100
AcDbViewTableRecord
  2
TOP
 70
     0
 40
254.0
 10
7.1425
 20
23.892498
 41
386.976471
 11
0.0
 21
0.0
 31
1.0
 12
0.0
 22
0.0
 32
0.0
 42
50.0
 43
274.598704
 44
-274.598704
 50
0.0
 71
    16
281
     0
 72
     0
  0
VIEW
  5
12A
330
5
100
AcDbSymbolTableRecord
100
AcDbViewTableRecord
  2
FRONT
 70
     0
 40
1583.996559
 10
0.0
 20
0.0
 41
386.976471
 11
0.0
 21
-1.0
 31
0.0
 12
0.0
 22
0.0
 32
0.0
 42
50.0
 43
815.290728
 44
-815.290728
 50
0.0
 71
    16
281
     0
 72
     0
  0
VIEW
  5
12B
330
5
100
AcDbSymbolTableRecord
100
AcDbViewTableRecord
  2
RIGHT
 70
     0
 40
1583.996559
 10
0.0
 20
0.0
 41
254.0
 11
1.0
 21
0.0
 31
0.0
 12
0.0
 22
0.0
 32
0.0
 42
50.0
 43
802.116123
 44
-802.116123
 50
0.0
 71
    16
281
     0
 72
     0
  0
VIEW
  5
12C
330
5
100
AcDbSymbolTableRecord
100
AcDbViewTableRecord
  2
BACK
 70
     0
 40
1583.996559
 10
0.0
 20
0.0
 41
386.976471
 11
0.0
 21
1.0
 31
0.0
 12
0.0
 22
0.0
 32
0.0
 42
50.0
 43
815.290728
 44
-815.290728
 50
0.0
 71
    16
281
     0
 72
     0
  0
VIEW
  5
12D
330
5
100
AcDbSymbolTableRecord
100
AcDbViewTableRecord
  2
BOTTOM
 70
     0
 40
254.0
 10
0.0
 20
0.0
 41
386.976471
 11
0.0
 21
0.0
 31
-1.0
 12
0.0
 22
0.0
 32
0.0
 42
50.0
 43
791.99828
 44
-791.99828
 50
180.0
 71
    16
281
     0
 72
     0
  0
VIEW
  5
12E
330
5
100
AcDbSymbolTableRecord
100
AcDbViewTableRecord
  2
LEFT
 70
     0
 40
1583.996559
 10
0.0
 20
0.0
 41
254.0
 11
-1.0
 21
0.0
 31
0.0
 12
0.0
 22
0.0
 32
0.0
 42
50.0
 43
802.116123
 44
-802.116123
 50
0.0
 71
    16
281
     0
 72
     0
  0
VIEW
  5
12F
330
5
100
AcDbSymbolTableRecord
100
AcDbViewTableRecord
  2
TFR-ISO
 70
     0
 40
1555.005323
 10
0.0
 20
0.0
 41
453.238809
 11
0.5773500000000001
 21
-0.5773500000000001
 31
0.5773500000000001
 12
0.0
 22
0.0
 32
0.0
 42
50.0
 43
809.8560009999999
 44
-809.8560009999999
 50
0.0
 71
    16
281
     0
 72
     0
  0
VIEW
  5
130
330
5
100
AcDbSymbolTableRecord
100
AcDbViewTableRecord
  2
TFR-TRI
 70
     0
 40
1641.004744
 10
0.0
 20
0.0
 41
441.270493
 11
0.718873
 21
-0.5850489999999999
 31
0.375419
 12
0.0
 22
0.0
 32
0.0
 42
50.0
 43
849.6493710000001
 44
-849.6493710000001
 50
0.0
 71
    16
281
     0
 72
     0
  0
ENDTAB
  0
TABLE
  2
UCS
  5
6
330
0
100
AcDbSymbolTable
 70
     0
  0
ENDTAB
  0
TABLE
  2
APPID
  5
8
330
0
100
AcDbSymbolTable
 70
     3
  0
APPID
  5
16
330
8
100
AcDbSymbolTableRecord
100
AcDbRegAppTableRecord
  2
ACAD
 70
     0
  0
APPID
  5
1D6
330
8
100
AcDbSymbolTableRecord
100
AcDbRegAppTableRecord
  2
DCO15
 70
     0
  0
APPID
  5
210
330
8
100
AcDbSymbolTableRecord
100
AcDbRegAppTableRecord
  2
ACAD_MLEADERVER
 70
     0
  0
ENDTAB
  0
TABLE
  2
DIMSTYLE
  5
9
330
0
100
AcDbSymbolTable
 70
     1
100
AcDbDimStyleTable
 71
     0
  0
DIMSTYLE
105
18
102
{ACAD_REACTORS
330
F3
330
FE
330
10A
330
114
330
11E
330
128
102
}
330
9
100
AcDbSymbolTableRecord
100
AcDbDimStyleTableRecord
  2
Standard
 70
     0
340
17
  0
ENDTAB
  0
TABLE
  2
BLOCK_RECORD
  5
1
330
0
100
AcDbSymbolTable
 70
     6
  0
BLOCK_RECORD
  5
A
330
1
100
AcDbSymbolTableRecord
100
AcDbBlockTableRecord
  2
*MODEL_SPACE
340
20
  0
BLOCK_RECORD
  5
B
330
1
100
AcDbSymbolTableRecord
100
AcDbBlockTableRecord
  2
*PAPER_SPACE
340
21
  0
BLOCK_RECORD
  5
E9
330
1
100
AcDbSymbolTableRecord
100
AcDbBlockTableRecord
  2
_D0
340
0
  0
BLOCK_RECORD
  5
F4
330
1
100
AcDbSymbolTableRecord
100
AcDbBlockTableRecord
  2
_D1
340
0
  0
BLOCK_RECORD
  5
FF
330
1
100
AcDbSymbolTableRecord
100
AcDbBlockTableRecord
  2
_D2
340
0
  0
BLOCK_RECORD
  5
10B
330
1
100
AcDbSymbolTableRecord
100
AcDbBlockTableRecord
  2
_D3
340
0
  0
BLOCK_RECORD
  5
115
330
1
100
AcDbSymbolTableRecord
100
AcDbBlockTableRecord
  2
_D4
340
0
  0
BLOCK_RECORD
  5
11F
330
1
100
AcDbSymbolTableRecord
100
AcDbBlockTableRecord
  2
_D5
340
0
  0
ENDTAB
  0
ENDSEC
  0
SECTION
  2
BLOCKS
  0
BLOCK
  5
D
330
A
100
AcDbEntity
  8
0
390
1D
100
AcDbBlockBegin
  2
*MODEL_SPACE
 70
     0
 10
0.0
 20
0.0
 30
0.0
  3
*MODEL_SPACE
  1

  0
ENDBLK
  5
E
330
A
100
AcDbEntity
  8
0
390
1D
100
AcDbBlockEnd
  0
BLOCK
  5
F
330
B
100
AcDbEntity
 67
     1
  8
0
390
1D
100
AcDbBlockBegin
  2
*PAPER_SPACE
 70
     0
 10
0.0
 20
0.0
 30
0.0
  3
*PAPER_SPACE
  1

  0
ENDBLK
  5
10
330
B
100
AcDbEntity
 67
     1
  8
0
390
1D
100
AcDbBlockEnd
  0
BLOCK
  5
EA
330
E9
100
AcDbEntity
  8
0
390
1D
100
AcDbBlockBegin
  2
_D0
 70
     0
 10
0.0
 20
0.0
 30
0.0
  3
_D0
  1

  0
MTEXT
  5
EB
330
E9
100
AcDbEntity
  8
2
390
1D
100
AcDbMText
 10
6.891603999999999
 20
75.739271
 30
0.0
 40
4.57
 41
0.0
 71
     7
 72
     5
  1
\W01.000;\Fsimplex.shx;21
  7
SIMPLEX
 73
     2
 44
0.9036139999999999
1001
ACAD
1000
MTEXTBEGIN
1070
    73
1070
     2
1070
    44
1040
0.9036139999999999
1070
    74
1070
     0
1000
MTEXTEND
  0
LINE
  5
ED
330
E9
100
AcDbEntity
  8
2
390
1D
100
AcDbLine
 10
0.0
 20
0.0
 30
0.0
 11
0.0
 21
78.43
 31
0.0
  0
LINE
  5
EE
330
E9
100
AcDbEntity
  8
2
390
1D
100
AcDbLine
 10
21.0
 20
0.0
 30
0.0
 11
21.0
 21
78.43
 31
0.0
  0
LINE
  5
EF
330
E9
100
AcDbEntity
  8
2
390
1D
100
AcDbLine
 10
-11.425
 20
74.93000000000001
 30
0.0
 11
32.425
 21
74.93000000000001
 31
0.0
  0
SOLID
  5
F0
330
E9
100
AcDbEntity
  8
2
390
1D
100
AcDbTrace
 10
0.0
 20
74.93000000000001
 30
0.0
 11
-4.569998
 21
74.32834799999999
 31
0.0
 12
-4.570001999999999
 22
75.53165200000001
 32
0.0
 13
0.0
 23
74.93000000000001
 33
0.0
  0
SOLID
  5
F1
330
E9
100
AcDbEntity
  8
2
390
1D
100
AcDbTrace
 10
21.0
 20
74.93000000000001
 30
0.0
 11
25.569998
 21
75.53165200000001
 31
0.0
 12
25.570002
 22
74.32834799999999
 32
0.0
 13
21.0
 23
74.93000000000001
 33
0.0
  0
ENDBLK
  5
F2
330
E9
100
AcDbEntity
  8
0
390
1D
100
AcDbBlockEnd
  0
BLOCK
  5
F5
330
F4
100
AcDbEntity
  8
0
390
1D
100
AcDbBlockBegin
  2
_D1
 70
     0
 10
0.0
 20
0.0
 30
0.0
  3
_D1
  1

  0
MTEXT
  5
F6
330
F4
100
AcDbEntity
  8
2
390
1D
100
AcDbMText
 10
70.26072899999999
 20
20.1875
 30
0.0
 40
4.57
 41
0.0
 71
     7
 72
     5
  1
\W01.000;\Fsimplex.shx;3.1
  7
SIMPLEX
 11
0.0
 21
1.0
 31
0.0
 73
     2
 44
0.9036139999999999
1001
ACAD
1000
MTEXTBEGIN
1070
    73
1070
     2
1070
    44
1040
0.9036139999999999
1070
    74
1070
     0
1000
MTEXTEND
  0
MTEXT
  5
F7
330
F4
100
AcDbEntity
  8
2
390
1D
100
AcDbMText
 10
70.26072899999999
 20
11.083203
 30
0.0
 40
4.57
 41
0.0
 71
     7
 72
     5
  1
\W01.000;\Fsimplex.shx;%%c
  7
SIMPLEX
 11
0.0
 21
1.0
 31
0.0
 73
     2
 44
0.9036139999999999
1001
ACAD
1000
MTEXTBEGIN
1070
    73
1070
     2
1070
    44
1040
0.9036139999999999
1070
    74
1070
     0
1000
MTEXTEND
  0
LINE
  5
F8
330
F4
100
AcDbEntity
  8
2
390
1D
100
AcDbLine
 10
21.0
 20
-1.55
 30
0.0
 11
74.2125
 21
-1.55
 31
0.0
  0
LINE
  5
F9
330
F4
100
AcDbEntity
  8
2
390
1D
100
AcDbLine
 10
21.0
 20
1.55
 30
0.0
 11
74.2125
 21
1.55
 31
0.0
  0
LINE
  5
FA
330
F4
100
AcDbEntity
  8
2
390
1D
100
AcDbLine
 10
72.21250000000001
 20
33.526188
 30
0.0
 11
72.21250000000001
 21
-12.975
 31
0.0
  0
SOLID
  5
FB
330
F4
100
AcDbEntity
  8
2
390
1D
100
AcDbTrace
 10
72.21250000000001
 20
-1.55
 30
0.0
 11
72.81415200000001
 21
-6.119998
 31
0.0
 12
71.61084800000001
 22
-6.120001999999999
 32
0.0
 13
72.21250000000001
 23
-1.55
 33
0.0
  0
SOLID
  5
FC
330
F4
100
AcDbEntity
  8
2
390
1D
100
AcDbTrace
 10
72.21250000000001
 20
1.55
 30
0.0
 11
71.61084800000001
 21
6.119998
 31
0.0
 12
72.81415200000001
 22
6.120001999999999
 32
0.0
 13
72.21250000000001
 23
1.55
 33
0.0
  0
ENDBLK
  5
FD
330
F4
100
AcDbEntity
  8
0
390
1D
100
AcDbBlockEnd
  0
BLOCK
  5
100
330
FF
100
AcDbEntity
  8
0
390
1D
100
AcDbBlockBegin
  2
_D2
 70
     0
 10
0.0
 20
0.0
 30
0.0
  3
_D2
  1

  0
MTEXT
  5
101
330
FF
100
AcDbEntity
  8
SK2
390
1D
100
AcDbMText
 10
-52.73927099999999
 20
21.6375
 30
0.0
 40
4.57
 41
0.0
 71
     7
 72
     5
  1
\W01.000;\Fsimplex.shx;6
  7
SIMPLEX
 11
0.0
 21
1.0
 31
0.0
 73
     2
 44
0.9036139999999999
1001
ACAD
1000
MTEXTBEGIN
1070
    73
1070
     2
1070
    44
1040
0.9036139999999999
1070
    74
1070
     0
1000
MTEXTEND
  0
MTEXT
  5
103
330
FF
100
AcDbEntity
  8
SK2
390
1D
100
AcDbMText
 10
-52.73927099999999
 20
12.533203
 30
0.0
 40
4.57
 41
0.0
 71
     7
 72
     5
  1
\W01.000;\Fsimplex.shx;%%c
  7
SIMPLEX
 11
0.0
 21
1.0
 31
0.0
 73
     2
 44
0.9036139999999999
1001
ACAD
1000
MTEXTBEGIN
1070
    73
1070
     2
1070
    44
1040
0.9036139999999999
1070
    74
1070
     0
1000
MTEXTEND
  0
LINE
  5
104
330
FF
100
AcDbEntity
  8
SK2
390
1D
100
AcDbLine
 10
-35.6
 20
3.0
 30
0.0
 11
-54.2875
 21
3.0
 31
0.0
  0
LINE
  5
105
330
FF
100
AcDbEntity
  8
SK2
390
1D
100
AcDbLine
 10
-35.6
 20
-3.0
 30
0.0
 11
-54.2875
 21
-3.0
 31
0.0
  0
LINE
  5
106
330
FF
100
AcDbEntity
  8
SK2
390
1D
100
AcDbLine
 10
-50.7875
 20
-14.425
 30
0.0
 11
-50.7875
 21
25.017396
 31
0.0
  0
SOLID
  5
107
330
FF
100
AcDbEntity
  8
SK2
390
1D
100
AcDbTrace
 10
-50.7875
 20
3.0
 30
0.0
 11
-51.389152
 21
7.569998
 31
0.0
 12
-50.185848
 22
7.570002
 32
0.0
 13
-50.7875
 23
3.0
 33
0.0
  0
SOLID
  5
108
330
FF
100
AcDbEntity
  8
SK2
390
1D
100
AcDbTrace
 10
-50.7875
 20
-3.0
 30
0.0
 11
-50.185848
 21
-7.569998
 31
0.0
 12
-51.389152
 22
-7.570002
 32
0.0
 13
-50.7875
 23
-3.0
 33
0.0
  0
ENDBLK
  5
109
330
FF
100
AcDbEntity
  8
0
390
1D
100
AcDbBlockEnd
  0
BLOCK
  5
10C
330
10B
100
AcDbEntity
  8
0
390
1D
100
AcDbBlockBegin
  2
_D3
 70
     0
 10
0.0
 20
0.0
 30
0.0
  3
_D3
  1

  0
MTEXT
  5
10D
330
10B
100
AcDbEntity
  8
2
390
1D
100
AcDbMText
 10
28.2125
 20
60.73927099999999
 30
0.0
 40
4.57
 41
0.0
 71
     7
 72
     5
  1
\W01.000;\Fsimplex.shx;13.05
  7
SIMPLEX
 73
     2
 44
0.9036139999999999
1001
ACAD
1000
MTEXTBEGIN
1070
    73
1070
     2
1070
    44
1040
0.9036139999999999
1070
    74
1070
     0
1000
MTEXTEND
  0
LINE
  5
10E
330
10B
100
AcDbEntity
  8
2
390
1D
100
AcDbLine
 10
21.0
 20
0.0
 30
0.0
 11
21.0
 21
63.42999999999999
 31
0.0
  0
LINE
  5
10F
330
10B
100
AcDbEntity
  8
2
390
1D
100
AcDbLine
 10
7.95
 20
0.0
 30
0.0
 11
7.95
 21
63.42999999999999
 31
0.0
  0
LINE
  5
110
330
10B
100
AcDbEntity
  8
2
390
1D
100
AcDbLine
 10
7.95
 20
59.93
 30
0.0
 11
51.509979
 21
59.93
 31
0.0
  0
SOLID
  5
111
330
10B
100
AcDbEntity
  8
2
390
1D
100
AcDbTrace
 10
21.0
 20
59.93
 30
0.0
 11
16.430002
 21
59.328348
 31
0.0
 12
16.429998
 22
60.531652
 32
0.0
 13
21.0
 23
59.93
 33
0.0
  0
SOLID
  5
112
330
10B
100
AcDbEntity
  8
2
390
1D
100
AcDbTrace
 10
7.95
 20
59.93
 30
0.0
 11
12.519998
 21
60.531652
 31
0.0
 12
12.520002
 22
59.328348
 32
0.0
 13
7.95
 23
59.93
 33
0.0
  0
ENDBLK
  5
113
330
10B
100
AcDbEntity
  8
0
390
1D
100
AcDbBlockEnd
  0
BLOCK
  5
116
330
115
100
AcDbEntity
  8
0
390
1D
100
AcDbBlockBegin
  2
_D4
 70
     0
 10
0.0
 20
0.0
 30
0.0
  3
_D4
  1

  0
MTEXT
  5
117
330
115
100
AcDbEntity
  8
2
390
1D
100
AcDbMText
 10
28.2125
 20
45.739278
 30
0.0
 40
4.57
 41
0.0
 71
     7
 72
     5
  1
\W01.000;\Fsimplex.shx;2.1
  7
SIMPLEX
 73
     2
 44
0.9036139999999999
1001
ACAD
1000
MTEXTBEGIN
1070
    73
1070
     2
1070
    44
1040
0.9036139999999999
1070
    74
1070
     0
1000
MTEXTEND
  0
LINE
  5
118
330
115
100
AcDbEntity
  8
2
390
1D
100
AcDbLine
 10
18.9
 20
0.0
 30
0.0
 11
18.9
 21
46.930007
 31
0.0
  0
LINE
  5
119
330
115
100
AcDbEntity
  8
2
390
1D
100
AcDbLine
 10
21.0
 20
0.0
 30
0.0
 11
21.0
 21
46.930007
 31
0.0
  0
LINE
  5
11A
330
115
100
AcDbEntity
  8
2
390
1D
100
AcDbLine
 10
41.551187
 20
44.930007
 30
0.0
 11
7.474999999999999
 21
44.930007
 31
0.0
  0
SOLID
  5
11B
330
115
100
AcDbEntity
  8
2
390
1D
100
AcDbTrace
 10
18.9
 20
44.930007
 30
0.0
 11
14.330002
 21
44.328355
 31
0.0
 12
14.329998
 22
45.531659
 32
0.0
 13
18.9
 23
44.930007
 33
0.0
  0
SOLID
  5
11C
330
115
100
AcDbEntity
  8
2
390
1D
100
AcDbTrace
 10
21.0
 20
44.930007
 30
0.0
 11
25.569998
 21
45.531659
 31
0.0
 12
25.570002
 22
44.328355
 32
0.0
 13
21.0
 23
44.930007
 33
0.0
  0
ENDBLK
  5
11D
330
115
100
AcDbEntity
  8
0
390
1D
100
AcDbBlockEnd
  0
BLOCK
  5
120
330
11F
100
AcDbEntity
  8
0
390
1D
100
AcDbBlockBegin
  2
_D5
 70
     0
 10
0.0
 20
0.0
 30
0.0
  3
_D5
  1

  0
MTEXT
  5
121
330
11F
100
AcDbEntity
  8
SK2
390
1D
100
AcDbMText
 10
-11.108396
 20
90.739271
 30
0.0
 40
4.57
 41
0.0
 71
     7
 72
     5
  1
\W01.000;\Fsimplex.shx;57
  7
SIMPLEX
 73
     2
 44
0.9036139999999999
1001
ACAD
1000
MTEXTBEGIN
1070
    73
1070
     2
1070
    44
1040
0.9036139999999999
1070
    74
1070
     0
1000
MTEXTEND
  0
LINE
  5
122
330
11F
100
AcDbEntity
  8
SK2
390
1D
100
AcDbLine
 10
-36.0
 20
0.0
 30
0.0
 11
-36.0
 21
91.93000000000001
 31
0.0
  0
LINE
  5
123
330
11F
100
AcDbEntity
  8
SK2
390
1D
100
AcDbLine
 10
21.0
 20
0.0
 30
0.0
 11
21.0
 21
91.93000000000001
 31
0.0
  0
LINE
  5
124
330
11F
100
AcDbEntity
  8
SK2
390
1D
100
AcDbLine
 10
-36.0
 20
89.93
 30
0.0
 11
21.0
 21
89.93
 31
0.0
  0
SOLID
  5
125
330
11F
100
AcDbEntity
  8
SK2
390
1D
100
AcDbTrace
 10
-36.0
 20
89.93
 30
0.0
 11
-31.430002
 21
90.531652
 31
0.0
 12
-31.429998
 22
89.328348
 32
0.0
 13
-36.0
 23
89.93
 33
0.0
  0
SOLID
  5
126
330
11F
100
AcDbEntity
  8
SK2
390
1D
100
AcDbTrace
 10
21.0
 20
89.93
 30
0.0
 11
16.430002
 21
89.328348
 31
0.0
 12
16.429998
 22
90.531652
 32
0.0
 13
21.0
 23
89.93
 33
0.0
  0
ENDBLK
  5
127
330
11F
100
AcDbEntity
  8
0
390
1D
100
AcDbBlockEnd
  0
ENDSEC
  0
SECTION
  2
ENTITIES
  0
POINT
  5
2A
330
A
100
AcDbEntity
  8
DEFPOINTS
390
1D
100
AcDbPoint
 10
0.0
 20
0.0
 30
0.0
  0
POINT
  5
2C
330
A
100
AcDbEntity
  8
DEFPOINTS
390
1D
100
AcDbPoint
 10
7.95
 20
0.0
 30
0.0
  0
POINT
  5
2D
330
A
100
AcDbEntity
  8
DEFPOINTS
390
1D
100
AcDbPoint
 10
21.0
 20
-1.55
 30
0.0
  0
POINT
  5
2E
330
A
100
AcDbEntity
  8
DEFPOINTS
390
1D
100
AcDbPoint
 10
21.0
 20
1.55
 30
0.0
  0
POINT
  5
2F
330
A
100
AcDbEntity
  8
DEFPOINTS
390
1D
100
AcDbPoint
 10
21.0
 20
0.0
 30
0.0
  0
POINT
  5
30
330
A
100
AcDbEntity
  8
DEFPOINTS
390
1D
100
AcDbPoint
 10
18.9
 20
0.0
 30
0.0
  0
POINT
  5
31
330
A
100
AcDbEntity
  8
DEFPOINTS
390
1D
100
AcDbPoint
 10
-36.0
 20
0.0
 30
0.0
  0
POINT
  5
32
330
A
100
AcDbEntity
  8
DEFPOINTS
390
1D
100
AcDbPoint
 10
18.9
 20
-1.05
 30
0.0
  0
POINT
  5
33
330
A
100
AcDbEntity
  8
DEFPOINTS
390
1D
100
AcDbPoint
 10
18.9
 20
1.05
 30
0.0
  0
LINE
  5
41
330
A
100
AcDbEntity
  8
CUT
390
1D
100
AcDbLine
 10
21.0
 20
1.55
 30
0.0
 11
21.0
 21
1.056861
 31
0.0
  0
LINE
  5
43
330
A
100
AcDbEntity
  8
CUT
390
1D
100
AcDbLine
 10
21.0
 20
1.056861
 30
0.0
 11
21.0
 21
-1.55
 31
0.0
  0
LINE
  5
44
330
A
100
AcDbEntity
  8
CUT
390
1D
100
AcDbLine
 10
21.0
 20
1.55
 30
0.0
 11
18.9
 21
1.55
 31
0.0
  0
LINE
  5
45
330
A
100
AcDbEntity
  8
CUT
390
1D
100
AcDbLine
 10
18.9
 20
-1.55
 30
0.0
 11
18.9
 21
1.55
 31
0.0
  0
LINE
  5
48
330
A
100
AcDbEntity
  8
CUT
390
1D
100
AcDbLine
 10
18.9
 20
-1.55
 30
0.0
 11
21.0
 21
-1.55
 31
0.0
  0
LINE
  5
49
330
A
100
AcDbEntity
  8
1
390
1D
100
AcDbLine
 10
19.215553
 20
-1.504589999999999
 30
0.0
 11
19.215553
 21
-1.55
 31
0.0
  0
LINE
  5
4B
330
A
100
AcDbEntity
  8
1
390
1D
100
AcDbLine
 10
18.9875
 20
-1.155
 30
0.0
 11
19.215553
 21
-1.55
 31
0.0
  0
LINE
  5
4C
330
A
100
AcDbEntity
  8
1
390
1D
100
AcDbLine
 10
18.9875
 20
-1.155
 30
0.0
 11
18.9875
 21
-0.8810389999999998
 31
0.0
  0
LINE
  5
4D
330
A
100
AcDbEntity
  8
1
390
1D
100
AcDbLine
 10
18.9
 20
-0.143746
 30
0.0
 11
18.9
 21
1.093126999999999
 31
0.0
  0
LINE
  5
4E
330
A
100
AcDbEntity
  8
1
390
1D
100
AcDbLine
 10
19.284447
 20
-1.508845999999999
 30
0.0
 11
19.284447
 21
-1.55
 31
0.0
  0
LINE
  5
4F
330
A
100
AcDbEntity
  8
1
390
1D
100
AcDbLine
 10
19.284447
 20
-1.55
 30
0.0
 11
19.5125
 21
-1.155
 31
0.0
  0
LINE
  5
50
330
A
100
AcDbEntity
  8
1
390
1D
100
AcDbLine
 10
19.5125
 20
-0.9455829999999998
 30
0.0
 11
19.5125
 21
-1.155
 31
0.0
  0
LINE
  5
51
330
A
100
AcDbEntity
  8
1
390
1D
100
AcDbLine
 10
2.592419
 20
-3.0
 30
0.0
 11
7.287227
 21
-1.291229999999999
 31
0.0
  0
LINE
  5
52
330
A
100
AcDbEntity
  8
1
390
1D
100
AcDbLine
 10
2.592419
 20
3.0
 30
0.0
 11
2.592419
 21
2.045536999999999
 31
0.0
  0
LINE
  5
53
330
A
100
AcDbEntity
  8
1
390
1D
100
AcDbLine
 10
2.592419
 20
2.045536999999999
 30
0.0
 11
2.592419
 21
-3.0
 31
0.0
  0
LINE
  5
54
330
A
100
AcDbEntity
  8
1
390
1D
100
AcDbLine
 10
7.287227
 20
1.291229999999999
 30
0.0
 11
2.592419
 21
3.0
 31
0.0
  0
LINE
  5
55
330
A
100
AcDbEntity
  8
1
390
1D
100
AcDbLine
 10
0.0
 20
3.0
 30
0.0
 11
0.0
 21
-3.0
 31
0.0
  0
LINE
  5
56
330
A
100
AcDbEntity
  8
1
390
1D
100
AcDbLine
 10
0.0
 20
-3.0
 30
0.0
 11
2.592419
 21
-3.0
 31
0.0
  0
LINE
  5
57
330
A
100
AcDbEntity
  8
1
390
1D
100
AcDbLine
 10
2.592419
 20
3.0
 30
0.0
 11
0.0
 21
3.0
 31
0.0
  0
LINE
  5
58
330
A
100
AcDbEntity
  8
1
390
1D
100
AcDbLine
 10
20.684447
 20
-0.6994130000000001
 30
0.0
 11
20.684447
 21
0.768245
 31
0.0
  0
LINE
  5
59
330
A
100
AcDbEntity
  8
1
390
1D
100
AcDbLine
 10
20.615553
 20
-0.6828760000000001
 30
0.0
 11
20.615553
 21
0.7837390000000001
 31
0.0
  0
LINE
  5
5A
330
A
100
AcDbEntity
  8
1
390
1D
100
AcDbLine
 10
20.9125
 20
-0.520911
 30
0.0
 11
20.9125
 21
0.8989749999999999
 31
0.0
  0
LINE
  5
5B
330
A
100
AcDbEntity
  8
1
390
1D
100
AcDbLine
 10
20.3875
 20
-0.4275260000000001
 30
0.0
 11
20.3875
 21
0.9611920000000001
 31
0.0
  0
LINE
  5
5C
330
A
100
AcDbEntity
  8
1
390
1D
100
AcDbLine
 10
19.984447
 20
-0.5271650000000001
 30
0.0
 11
19.984447
 21
0.9208649999999998
 31
0.0
  0
LINE
  5
5D
330
A
100
AcDbEntity
  8
1
390
1D
100
AcDbLine
 10
19.915553
 20
-0.5097550000000001
 30
0.0
 11
19.915553
 21
0.935279
 31
0.0
  0
LINE
  5
5E
330
A
100
AcDbEntity
  8
1
390
1D
100
AcDbLine
 10
20.2125
 20
-0.394525
 30
0.0
 11
20.2125
 21
0.980212
 31
0.0
  0
LINE
  5
5F
330
A
100
AcDbEntity
  8
1
390
1D
100
AcDbLine
 10
19.6875
 20
-0.29706
 30
0.0
 11
19.6875
 21
1.031843999999999
 31
0.0
  0
LINE
  5
60
330
A
100
AcDbEntity
  8
1
390
1D
100
AcDbLine
 10
19.5125
 20
-0.262484
 30
0.0
 11
19.5125
 21
1.047180999999999
 31
0.0
  0
LINE
  5
61
330
A
100
AcDbEntity
  8
1
390
1D
100
AcDbLine
 10
19.284447
 20
-0.347287
 30
0.0
 11
19.284447
 21
1.06169
 31
0.0
  0
LINE
  5
62
330
A
100
AcDbEntity
  8
1
390
1D
100
AcDbLine
 10
19.215553
 20
-0.329278
 30
0.0
 11
19.215553
 21
1.074834999999999
 31
0.0
  0
LINE
  5
63
330
A
100
AcDbEntity
  8
1
390
1D
100
AcDbLine
 10
18.9875
 20
-0.160814
 30
0.0
 11
18.9875
 21
1.087315999999999
 31
0.0
  0
LINE
  5
64
330
A
100
AcDbEntity
  8
1
390
1D
100
AcDbLine
 10
21.0
 20
-0.5362390000000001
 30
0.0
 11
21.0
 21
0.8878759999999999
 31
0.0
  0
LINE
  5
65
330
A
100
AcDbEntity
  8
1
390
1D
100
AcDbLine
 10
8.655307999999999
 20
-1.05
 30
0.0
 11
18.9
 21
-1.05
 31
0.0
  0
LINE
  5
66
330
A
100
AcDbEntity
  8
1
390
1D
100
AcDbLine
 10
17.970096
 20
1.05
 30
0.0
 11
8.655307999999999
 21
1.05
 31
0.0
  0
LINE
  5
67
330
A
100
AcDbEntity
  8
1
390
1D
100
AcDbLine
 10
19.6875
 20
-1.155
 30
0.0
 11
19.915553
 21
-1.55
 31
0.0
  0
LINE
  5
68
330
A
100
AcDbEntity
  8
1
390
1D
100
AcDbLine
 10
19.915553
 20
-1.538067
 30
0.0
 11
19.915553
 21
-1.55
 31
0.0
  0
LINE
  5
69
330
A
100
AcDbEntity
  8
1
390
1D
100
AcDbLine
 10
19.6875
 20
-0.965357
 30
0.0
 11
19.6875
 21
-1.155
 31
0.0
  0
LINE
  5
6A
330
A
100
AcDbEntity
  8
1
390
1D
100
AcDbLine
 10
18.9
 20
-1.155
 30
0.0
 11
18.9
 21
-0.8695549999999999
 31
0.0
  0
LINE
  5
6B
330
A
100
AcDbEntity
  8
1
390
1D
100
AcDbLine
 10
18.9
 20
-1.155
 30
0.0
 11
18.9875
 21
-1.155
 31
0.0
  0
LINE
  5
6C
330
A
100
AcDbEntity
  8
1
390
1D
100
AcDbLine
 10
20.2125
 20
-1.019168999999999
 30
0.0
 11
20.2125
 21
-1.155
 31
0.0
  0
LINE
  5
6D
330
A
100
AcDbEntity
  8
1
390
1D
100
AcDbLine
 10
19.5125
 20
-1.155
 30
0.0
 11
19.6875
 21
-1.155
 31
0.0
  0
LINE
  5
6E
330
A
100
AcDbEntity
  8
1
390
1D
100
AcDbLine
 10
19.984447
 20
-1.55
 30
0.0
 11
20.2125
 21
-1.155
 31
0.0
  0
LINE
  5
6F
330
A
100
AcDbEntity
  8
1
390
1D
100
AcDbLine
 10
19.984447
 20
-1.540192
 30
0.0
 11
19.984447
 21
-1.55
 31
0.0
  0
LINE
  5
70
330
A
100
AcDbEntity
  8
1
390
1D
100
AcDbLine
 10
20.3875
 20
-1.155
 30
0.0
 11
20.615553
 21
-1.55
 31
0.0
  0
LINE
  5
71
330
A
100
AcDbEntity
  8
1
390
1D
100
AcDbLine
 10
20.3875
 20
-1.035213999999999
 30
0.0
 11
20.3875
 21
-1.155
 31
0.0
  0
LINE
  5
72
330
A
100
AcDbEntity
  8
1
390
1D
100
AcDbLine
 10
20.9125
 20
-1.077501999999999
 30
0.0
 11
20.9125
 21
-1.155
 31
0.0
  0
LINE
  5
73
330
A
100
AcDbEntity
  8
1
390
1D
100
AcDbLine
 10
20.2125
 20
-1.155
 30
0.0
 11
20.3875
 21
-1.155
 31
0.0
  0
LINE
  5
74
330
A
100
AcDbEntity
  8
1
390
1D
100
AcDbLine
 10
20.693421
 20
-1.534454999999999
 30
0.0
 11
20.9125
 21
-1.155
 31
0.0
  0
LINE
  5
75
330
A
100
AcDbEntity
  8
1
390
1D
100
AcDbLine
 10
20.684447
 20
-1.55
 30
0.0
 11
20.693421
 21
-1.534454999999999
 31
0.0
  0
LINE
  5
76
330
A
100
AcDbEntity
  8
1
390
1D
100
AcDbLine
 10
21.0
 20
-1.155
 30
0.0
 11
21.0
 21
-1.083685
 31
0.0
  0
LINE
  5
77
330
A
100
AcDbEntity
  8
1
390
1D
100
AcDbLine
 10
20.9125
 20
-1.155
 30
0.0
 11
21.0
 21
-1.155
 31
0.0
  0
LINE
  5
78
330
A
100
AcDbEntity
  8
1
390
1D
100
AcDbLine
 10
19.215553
 20
-1.55
 30
0.0
 11
19.284447
 21
-1.55
 31
0.0
  0
LINE
  5
79
330
A
100
AcDbEntity
  8
1
390
1D
100
AcDbLine
 10
19.915553
 20
-1.55
 30
0.0
 11
19.984447
 21
-1.55
 31
0.0
  0
LINE
  5
7A
330
A
100
AcDbEntity
  8
SK1
390
1D
100
AcDbLine
 10
-35.6
 20
3.0
 30
0.0
 11
-36.0
 21
2.6
 31
0.0
  0
LINE
  5
7C
330
A
100
AcDbEntity
  8
SK1
390
1D
100
AcDbLine
 10
-35.6
 20
3.0
 30
0.0
 11
-35.6
 21
2.045536999999999
 31
0.0
  0
LINE
  5
7D
330
A
100
AcDbEntity
  8
SK1
390
1D
100
AcDbLine
 10
-35.6
 20
2.045536999999999
 30
0.0
 11
-35.6
 21
-3.0
 31
0.0
  0
LINE
  5
7E
330
A
100
AcDbEntity
  8
SK1
390
1D
100
AcDbLine
 10
-36.0
 20
-2.6
 30
0.0
 11
-35.6
 21
-3.0
 31
0.0
  0
LINE
  5
7F
330
A
100
AcDbEntity
  8
SK1
390
1D
100
AcDbLine
 10
-36.0
 20
2.6
 30
0.0
 11
-36.0
 21
1.772799
 31
0.0
  0
LINE
  5
80
330
A
100
AcDbEntity
  8
SK1
390
1D
100
AcDbLine
 10
-36.0
 20
1.772799
 30
0.0
 11
-36.0
 21
-2.6
 31
0.0
  0
LINE
  5
81
330
A
100
AcDbEntity
  8
SK1
390
1D
100
AcDbLine
 10
0.0
 20
3.0
 30
0.0
 11
0.0
 21
-3.0
 31
0.0
  0
LINE
  5
82
330
A
100
AcDbEntity
  8
SK1
390
1D
100
AcDbLine
 10
-35.6
 20
-3.0
 30
0.0
 11
0.0
 21
-3.0
 31
0.0
  0
LINE
  5
83
330
A
100
AcDbEntity
  8
SK1
390
1D
100
AcDbLine
 10
0.0
 20
3.0
 30
0.0
 11
-35.6
 21
3.0
 31
0.0
  0
ARC
  5
86
330
A
100
AcDbEntity
  8
1
390
1D
100
AcDbCircle
 10
-8.655307999999999
 20
-5.049999999999999
 30
0.0
 40
4.0
210
0.0
220
0.0
230
-1.0
100
AcDbArc
 50
70.0
 51
90.0
  0
ARC
  5
87
330
A
100
AcDbEntity
  8
1
390
1D
100
AcDbCircle
 10
-8.655307999999999
 20
5.049999999999999
 30
0.0
 40
4.0
210
0.0
220
0.0
230
-1.0
100
AcDbArc
 50
270.0
 51
290.0
  0
SPLINE
  5
88
330
A
100
AcDbEntity
  8
1
390
1D
100
AcDbSpline
210
0.0000000001438136
220
0.0000000000588317
230
1.0
 70
     8
 71
     3
 72
     8
 73
     4
 74
     0
 42
0.0000000001
 43
0.0000000001
 40
0.0
 40
0.0
 40
0.0
 40
0.0
 40
1.0
 40
1.0
 40
1.0
 40
1.0
 10
19.21555335632991
 20
-1.504589821301579
 30
0.0000000000000001
 10
19.21155083352414
 20
-1.494984771564019
 30
0.0000000000000002
 10
19.2076054268403
 20
-1.485342104939149
 30
0.0000000000000001
 10
19.20372059316787
 20
-1.475662314631336
 30
0.0
  0
SPLINE
  5
89
330
A
100
AcDbEntity
  8
1
390
1D
100
AcDbSpline
210
0.0
220
0.0
230
1.0
 70
    28
 71
     2
 72
     6
 73
     3
 74
     0
 42
0.0000000001
 43
0.0000000001
 40
0.0
 40
0.0
 40
0.0
 40
1.0
 40
1.0
 40
1.0
 10
21.00000000000045
 20
-0.6487779722630762
 30
-0.0000000000000001
 41
1.0
 10
21.00000000000048
 20
-0.8815767861318438
 30
0.0000000000000001
 41
0.9714441249880783
 10
21.00000000000042
 20
-1.08368458123908
 30
0.0
 41
0.9672873112468044
  0
SPLINE
  5
8A
330
A
100
AcDbEntity
  8
1
390
1D
100
AcDbSpline
210
0.0
220
0.0
230
1.0
 70
     8
 71
     3
 72
    10
 73
     6
 74
     0
 42
0.0000000001
 43
0.0000000001
 40
0.0
 40
0.0
 40
0.0
 40
0.0
 40
0.5
 40
0.5
 40
1.0
 40
1.0
 40
1.0
 40
1.0
 10
19.20372059316787
 20
-1.475662314631336
 30
0.0000000000000001
 10
19.16818631183668
 20
-1.390223594376607
 30
0.0
 10
19.13259899195612
 20
-1.297804397025686
 30
0.0000000000000001
 10
19.06059943858907
 20
-1.099370056008126
 30
0.0
 10
19.02389188998251
 20
-0.9924318533415428
 30
0.0000000000000001
 10
18.98750000000001
 20
-0.8810393190298668
 30
0.0000000000000001
  0
SPLINE
  5
8B
330
A
100
AcDbEntity
  8
1
390
1D
100
AcDbSpline
210
0.0000000000101464
220
0.0000000001454483
230
1.0
 70
     8
 71
     3
 72
     8
 73
     4
 74
     0
 42
0.0000000001
 43
0.0000000001
 40
0.0
 40
0.0
 40
0.0
 40
0.0
 40
1.0
 40
1.0
 40
1.0
 40
1.0
 10
19.29614754088954
 20
-1.482109954309918
 30
0.0000000000000001
 10
19.26533855831564
 20
-1.480021388203113
 30
0.0000000000000001
 10
19.23452957574176
 20
-1.477872096807856
 30
-0.0000000000000001
 10
19.20372059316787
 20
-1.475662314631336
 30
0.0
  0
SPLINE
  5
8C
330
A
100
AcDbEntity
  8
1
390
1D
100
AcDbSpline
210
0.0
220
0.0
230
1.0
 70
     8
 71
     3
 72
     8
 73
     4
 74
     0
 42
0.0000000001
 43
0.0000000001
 40
0.0
 40
0.0
 40
0.0
 40
0.0
 40
1.0
 40
1.0
 40
1.0
 40
1.0
 10
19.51249999999999
 20
-0.9455825310416228
 30
0.0000000000000001
 10
19.44097594305333
 20
-1.140289104498436
 30
0.0
 10
19.36775735010076
 20
-1.321756692741359
 30
0.0
 10
19.29614754088948
 20
-1.482109954309918
 30
0.0000000000000001
  0
SPLINE
  5
8D
330
A
100
AcDbEntity
  8
1
390
1D
100
AcDbSpline
210
-0.0000000000013381
220
-0.0000000000338537
230
1.0
 70
     8
 71
     3
 72
     8
 73
     4
 74
     0
 42
0.0000000001
 43
0.0000000001
 40
0.0
 40
0.0
 40
0.0
 40
0.0
 40
1.0
 40
1.0
 40
1.0
 40
1.0
 10
19.99492723818526
 20
-1.518966501670434
 30
0.0
 10
19.96491656343295
 20
-1.517839526520105
 30
0.0000000000000001
 10
19.93490588868059
 20
-1.516653250015167
 30
0.0
 10
19.90489521392828
 20
-1.515407888901676
 30
0.0000000000000001
  0
SPLINE
  5
8E
330
A
100
AcDbEntity
  8
1
390
1D
100
AcDbSpline
210
0.0000000000001803
220
-0.0000000000000785
230
1.0
 70
     8
 71
     3
 72
     8
 73
     4
 74
     0
 42
0.0000000001
 43
0.0000000001
 40
0.0
 40
0.0
 40
0.0
 40
0.0
 40
1.0
 40
1.0
 40
1.0
 40
1.0
 10
20.21250000000003
 20
-1.019168574693366
 30
0.0000000000000001
 10
20.14040037694764
 20
-1.205439822985397
 30
0.0000000000000001
 10
20.06675100589598
 20
-1.374620494012902
 30
0.0
 10
19.99492723818526
 20
-1.518966501670434
 30
0.0
  0
SPLINE
  5
8F
330
A
100
AcDbEntity
  8
1
390
1D
100
AcDbSpline
210
-0.0000000000000572
220
-0.0000000000006233
230
1.0
 70
     8
 71
     3
 72
     8
 73
     4
 74
     0
 42
0.0000000001
 43
0.0000000001
 40
0.0
 40
0.0
 40
0.0
 40
0.0
 40
1.0
 40
1.0
 40
1.0
 40
1.0
 10
20.38750000000005
 20
-1.035213776063641
 30
0.0000000000000001
 10
20.3291658486836
 20
-1.030025987360489
 30
0.0
 10
20.27083233217468
 20
-1.024676890512238
 30
0.0
 10
20.21249999999998
 20
-1.019168574693366
 30
0.0000000000000001
  0
SPLINE
  5
90
330
A
100
AcDbEntity
  8
1
390
1D
100
AcDbSpline
210
0.0
220
0.0
230
1.0
 70
    28
 71
     2
 72
     6
 73
     3
 74
     0
 42
0.0000000001
 43
0.0000000001
 40
0.0
 40
0.0
 40
0.0
 40
1.0
 40
1.0
 40
1.0
 10
18.89999999999998
 20
-0.6866068615770219
 30
0.0000000000000001
 41
0.9742871424157247
 10
18.89999999999996
 20
-0.7788297500572661
 30
0.0000000000000001
 41
0.9689827917765347
 10
18.89999999999998
 20
-0.8695547147490536
 30
0.0
 41
0.9673286836142713
  0
SPLINE
  5
91
330
A
100
AcDbEntity
  8
1
390
1D
100
AcDbSpline
210
0.0000000001354566
220
0.0000000010320241
230
1.0
 70
     8
 71
     3
 72
     8
 73
     4
 74
     0
 42
0.0000000001
 43
0.0000000001
 40
0.0
 40
0.0
 40
0.0
 40
0.0
 40
1.0
 40
1.0
 40
1.0
 40
1.0
 10
18.98750000000001
 20
-0.8810393190298668
 30
0.0000000000000002
 10
18.95833349290274
 20
-0.8772446023606903
 30
0.0000000000000001
 10
18.92916681997383
 20
-0.8734161898835848
 30
0.0000000000000001
 10
18.90000000000413
 20
-0.8695547147322031
 30
0.0
  0
SPLINE
  5
92
330
A
100
AcDbEntity
  8
1
390
1D
100
AcDbSpline
210
0.0
220
0.0
230
1.0
 70
    28
 71
     2
 72
     6
 73
     3
 74
     0
 42
0.0000000001
 43
0.0000000001
 40
0.0
 40
0.0
 40
0.0
 40
1.0
 40
1.0
 40
1.0
 10
21.00000000000047
 20
-0.5352249722630351
 30
0.0
 41
0.8204388310765454
 10
21.00000000000044
 20
-0.5826393670603039
 30
0.0
 41
0.8725836816898192
 10
21.0000000000004
 20
-0.6487779722630762
 30
0.0000000000000001
 41
1.0
  0
SPLINE
  5
93
330
A
100
AcDbEntity
  8
1
390
1D
100
AcDbSpline
210
-0.0000000000001397
220
-0.0000000000000552
230
1.0
 70
     8
 71
     3
 72
    10
 73
     6
 74
     0
 42
0.0000000001
 43
0.0000000001
 40
0.0
 40
0.0
 40
0.0
 40
0.0
 40
0.5
 40
0.5
 40
1.0
 40
1.0
 40
1.0
 40
1.0
 10
19.90489521392828
 20
-1.515407888901676
 30
0.0
 10
19.86923472698862
 20
-1.439957937776511
 30
0.0000000000000001
 10
19.83347789215725
 20
-1.356235107868599
 30
0.0000000000000001
 10
19.761070240842
 20
-1.172700341141365
 30
0.0000000000000001
 10
19.72412453886608
 20
-1.072003021700937
 30
0.0000000000000001
 10
19.6875
 20
-0.9653572765490707
 30
0.0000000000000001
  0
SPLINE
  5
94
330
A
100
AcDbEntity
  8
1
390
1D
100
AcDbSpline
210
0.0000000000033347
220
0.0000000000295107
230
1.0
 70
     8
 71
     3
 72
     8
 73
     4
 74
     0
 42
0.0000000001
 43
0.0000000001
 40
0.0
 40
0.0
 40
0.0
 40
0.0
 40
1.0
 40
1.0
 40
1.0
 40
1.0
 10
19.6875
 20
-0.9653572765491276
 30
0.0000000000000001
 10
19.62916620444224
 20
-0.9589156903436448
 30
0.0000000000000002
 10
19.57083276769009
 20
-0.952322930209732
 30
0.0
 10
19.51249999999999
 20
-0.9455825310416228
 30
0.0000000000000001
  0
SPLINE
  5
95
330
A
100
AcDbEntity
  8
1
390
1D
100
AcDbSpline
210
-0.0000000000000815
220
-0.0000000000005556
230
1.0
 70
     8
 71
     3
 72
     8
 73
     4
 74
     0
 42
0.0000000001
 43
0.0000000001
 40
0.0
 40
0.0
 40
0.0
 40
0.0
 40
1.0
 40
1.0
 40
1.0
 40
1.0
 10
18.07570785620101
 20
-0.5657486375466192
 30
0.0000000000000001
 10
18.35054981052247
 20
-0.6077863930875083
 30
0.0000000000000002
 10
18.62526864415742
 20
-0.6483017254112156
 30
0.0000000000000001
 10
18.90000000000003
 20
-0.686606861577161
 30
0.0000000000000001
  0
SPLINE
  5
96
330
A
100
AcDbEntity
  8
1
390
1D
100
AcDbSpline
210
0.0
220
0.0
230
1.0
 70
    24
 71
     1
 72
     4
 73
     2
 74
     0
 42
0.0000000001
 43
0.0000000001
 40
0.0
 40
0.0
 40
1.0
 40
1.0
 10
18.20719302190355
 20
-0.0072204662322406
 30
0.0
 10
18.19758472752852
 20
-0.0164679409336372
 30
0.0000000000000001
  0
SPLINE
  5
97
330
A
100
AcDbEntity
  8
1
390
1D
100
AcDbSpline
210
0.0000000000016265
220
0.0000000000120989
230
1.0
 70
     8
 71
     2
 72
     6
 73
     3
 74
     0
 42
0.0000000001
 43
0.0000000001
 40
0.0
 40
0.0
 40
0.0
 40
1.0
 40
1.0
 40
1.0
 10
19.41337379050975
 20
1.084524934317642
 30
0.0000000000000002
 10
19.26279698737898
 20
1.104061561287153
 30
0.0000000000000001
 10
19.11352990115336
 20
1.124835999939136
 30
0.0
  0
SPLINE
  5
98
330
A
100
AcDbEntity
  8
1
390
1D
100
AcDbSpline
210
0.0000000001083408
220
0.0000000005839242
230
1.0
 70
     8
 71
     3
 72
     8
 73
     4
 74
     0
 42
0.0000000001
 43
0.0000000001
 40
0.0
 40
0.0
 40
0.0
 40
0.0
 40
1.0
 40
1.0
 40
1.0
 40
1.0
 10
19.29614754088954
 20
1.069042609589757
 30
0.0000000000000002
 10
19.26533855831564
 20
1.074803073675184
 30
0.0000000000000001
 10
19.23452957574176
 20
1.080519562170252
 30
0.0
 10
19.20372059316787
 20
1.086191359216855
 30
0.0000000000000001
  0
SPLINE
  5
99
330
A
100
AcDbEntity
  8
1
390
1D
100
AcDbSpline
210
-0.0000000000003126
220
-0.0000000000047076
230
1.0
 70
     8
 71
     3
 72
     8
 73
     4
 74
     0
 42
0.0000000001
 43
0.0000000001
 40
0.0
 40
0.0
 40
0.0
 40
0.0
 40
1.0
 40
1.0
 40
1.0
 40
1.0
 10
18.98750000000001
 20
1.087316411781444
 30
-0.0000000000000001
 10
18.95833349290274
 20
1.089295805971971
 30
0.0000000000000001
 10
18.92916681997383
 20
1.091232872826537
 30
0.0000000000000001
 10
18.90000000000413
 20
1.093127339188413
 30
-0.0000000000000001
  0
SPLINE
  5
9A
330
A
100
AcDbEntity
  8
1
390
1D
100
AcDbSpline
210
0.0
220
0.0
230
1.0
 70
     8
 71
     3
 72
    22
 73
    18
 74
     0
 42
0.0000000001
 43
0.0000000001
 40
0.0
 40
0.0
 40
0.0
 40
0.0
 40
0.2500000000000154
 40
0.2500000000000154
 40
0.3750000000000231
 40
0.3750000000000231
 40
0.4375000000000229
 40
0.4375000000000229
 40
0.5000000000000224
 40
0.5000000000000224
 40
0.5625000000000222
 40
0.5625000000000222
 40
0.6250000000000217
 40
0.6250000000000217
 40
0.7500000000000111
 40
0.7500000000000111
 40
1.0
 40
1.0
 40
1.0
 40
1.0
 10
18.07573075172428
 20
-0.5657521230577914
 30
0.0000000000000001
 10
17.91502271852653
 20
-0.5127663266841865
 30
0.0
 10
17.75743785315398
 20
-0.4507004245555777
 30
0.0000000000000001
 10
17.53017514589976
 20
-0.3350723167740171
 30
0.0000000000000001
 10
17.45630619402135
 20
-0.2928994054910845
 30
0.0
 10
17.34894165778411
 20
-0.2226409696902465
 30
0.0000000000000001
 10
17.31372851838177
 20
-0.1980427531470923
 30
0.0
 10
17.24506583397488
 20
-0.146582036495829
 30
0.0000000000000001
 10
17.19569634752116
 20
-0.120472340029778
 30
0.0000000000000001
 10
17.20107672566348
 20
-0.0322447311676228
 30
0.0
 10
17.25790908253867
 20
-0.0153085348390505
 30
0.0000000000000001
 10
17.34187404620377
 20
0.0087605231739758
 30
0.0000000000000001
 10
17.38483413714317
 20
0.0155909065437072
 30
0.0
 10
17.51469357130065
 20
0.0308713568707049
 30
0.0000000000000002
 10
17.6019610533279
 20
0.0332416361483183
 30
0.0
 10
17.86200044033177
 20
0.0308650673103443
 30
0.0000000000000001
 10
18.03476446813858
 20
0.0156615126108477
 30
0.0
 10
18.20719253346437
 20
-0.0072335765952971
 30
0.0
  0
SPLINE
  5
9B
330
A
100
AcDbEntity
  8
1
390
1D
100
AcDbSpline
210
0.0000000000001306
220
0.0000000000000573
230
-1.0
 70
     8
 71
     3
 72
    10
 73
     6
 74
     0
 42
0.0000000001
 43
0.0000000001
 40
0.0
 40
0.0
 40
0.0
 40
0.0
 40
0.5
 40
0.5
 40
1.0
 40
1.0
 40
1.0
 40
1.0
 10
20.60638562860964
 20
-1.53365449040183
 30
0.0000000000000001
 10
20.57058558591893
 20
-1.469223297820803
 30
-0.0000000000000002
 10
20.53463129625072
 20
-1.395289147042376
 30
0.0
 10
20.46171157539425
 20
-1.228982224234357
 30
0.0
 10
20.42445178215877
 20
-1.135770893833125
 30
0.0
 10
20.38749999999999
 20
-1.035213776063641
 30
0.0000000000000001
  0
SPLINE
  5
9C
330
A
100
AcDbEntity
  8
1
390
1D
100
AcDbSpline
210
0.0
220
0.0
230
1.0
 70
     8
 71
     3
 72
     8
 73
     4
 74
     0
 42
0.0000000001
 43
0.0000000001
 40
0.0
 40
0.0
 40
0.0
 40
0.0
 40
1.0
 40
1.0
 40
1.0
 40
1.0
 10
20.69341881465414
 20
-1.534387231736161
 30
0.0
 10
20.66440775263931
 20
-1.534199907433333
 30
0.0
 10
20.63539669062448
 20
-1.533955595054919
 30
0.0
 10
20.60638562860964
 20
-1.53365449040183
 30
0.0
  0
SPLINE
  5
9D
330
A
100
AcDbEntity
  8
1
390
1D
100
AcDbSpline
210
0.0
220
0.0
230
1.0
 70
    24
 71
     3
 72
     8
 73
     4
 74
     0
 42
0.0000000001
 43
0.0000000001
 40
0.0
 40
0.0
 40
0.0
 40
0.0
 40
1.0
 40
1.0
 40
1.0
 40
1.0
 10
18.19758472752852
 20
-0.0164679409336372
 30
0.0000000000000001
 10
18.19250465226776
 20
-0.0246044199656126
 30
0.0000000000000001
 10
18.18742457700694
 20
-0.0327408989976448
 30
0.0000000000000001
 10
18.18234450174617
 20
-0.0408773780296201
 30
0.0000000000000001
  0
SPLINE
  5
9E
330
A
100
AcDbEntity
  8
1
390
1D
100
AcDbSpline
210
0.0
220
0.0
230
1.0
 70
     8
 71
     3
 72
     8
 73
     4
 74
     0
 42
0.0000000001
 43
0.0000000001
 40
0.0
 40
0.0
 40
0.0
 40
0.0
 40
1.0
 40
1.0
 40
1.0
 40
1.0
 10
21.00000000000176
 20
-1.083684581229646
 30
0.0
 10
20.97083326997875
 20
-1.08166517470056
 30
0.0
 10
20.94166656968366
 20
-1.079604137960473
 30
0.0
 10
20.91250000000002
 20
-1.077501631436462
 30
0.0
  0
SPLINE
  5
9F
330
A
100
AcDbEntity
  8
1
390
1D
100
AcDbSpline
210
0.0000000000001588
220
-0.0000000000000761
230
1.0
 70
     8
 71
     3
 72
     8
 73
     4
 74
     0
 42
0.0000000001
 43
0.0000000001
 40
0.0
 40
0.0
 40
0.0
 40
0.0
 40
1.0
 40
1.0
 40
1.0
 40
1.0
 10
20.91250000000002
 20
-1.077501631436462
 30
0.0000000000000001
 10
20.83968943732305
 20
-1.253095974223697
 30
0.0000000000000001
 10
20.76550917476857
 20
-1.407951965264203
 30
0.0000000000000001
 10
20.69341881465414
 20
-1.534387231736161
 30
-0.0000000000000001
  0
SPLINE
  5
A0
330
A
100
AcDbEntity
  8
1
390
1D
100
AcDbSpline
210
0.0000000115134195
220
0.000000059023714
230
0.9999999999999982
 70
     8
 71
     3
 72
     8
 73
     4
 74
     0
 42
0.0000000001
 43
0.0000000001
 40
0.0
 40
0.0
 40
0.0
 40
0.0
 40
1.0
 40
1.0
 40
1.0
 40
1.0
 10
18.89999999998712
 20
-0.1437462428831395
 30
0.0
 10
18.929166621116
 20
-0.1494413132065233
 30
0.0000000000000001
 10
18.9583333150569
 20
-0.1551308497714103
 30
0.0000000000000002
 10
18.98750000000001
 20
-0.1608143173025383
 30
0.0000000000000002
  0
SPLINE
  5
A1
330
A
100
AcDbEntity
  8
1
390
1D
100
AcDbSpline
210
0.0000000000024478
220
-0.0000000000003611
230
1.0
 70
     8
 71
     3
 72
    12
 73
     8
 74
     0
 42
0.0000000001
 43
0.0000000001
 40
0.0
 40
0.0
 40
0.0
 40
0.0
 40
0.2068807304989175
 40
0.4104145447778003
 40
0.6104996292590398
 40
0.8070510146496477
 40
1.0
 40
1.0
 40
1.0
 40
1.0
 10
18.07570791748066
 20
-0.5657482674198491
 30
0.0000000000000001
 10
18.07881633759314
 20
-0.5467288613125448
 30
0.0000000000000001
 10
18.08498288980104
 20
-0.5089977450280685
 30
0.0000000000000001
 10
18.09362264477829
 20
-0.4529423555284211
 30
0.0000000000000001
 10
18.10170854694525
 20
-0.3979826444063974
 30
0.0000000000000001
 10
18.10924660131622
 20
-0.3441726905106179
 30
0.0000000000000002
 10
18.11385183009168
 20
-0.3088613527592656
 30
0.0000000000000002
 10
18.11613314812439
 20
-0.2913689771357895
 30
0.0000000000000002
  0
SPLINE
  5
A2
330
A
100
AcDbEntity
  8
1
390
1D
100
AcDbSpline
210
0.0000000000002098
220
-0.0000000000000799
230
1.0
 70
     8
 71
     3
 72
    10
 73
     6
 74
     0
 42
0.0000000001
 43
0.0000000001
 40
0.0
 40
0.0
 40
0.0
 40
0.0
 40
0.5
 40
0.5
 40
1.0
 40
1.0
 40
1.0
 40
1.0
 10
18.18234450174617
 20
-0.0408773780296201
 30
0.0000000000000001
 10
18.17713088805289
 20
-0.0510446948110825
 30
0.0000000000000002
 10
18.17192133913898
 20
-0.0629627341131709
 30
0.0
 10
18.16151032390644
 20
-0.090280030296924
 30
0.0
 10
18.15631545284066
 20
-0.105722964415861
 30
0.0000000000000001
 10
18.15139663676189
 20
-0.1221748977982884
 30
0.0000000000000001
  0
SPLINE
  5
A3
330
A
100
AcDbEntity
  8
1
390
1D
100
AcDbSpline
210
0.0
220
0.0
230
1.0
 70
     8
 71
     3
 72
    14
 73
    10
 74
     0
 42
0.0000000001
 43
0.0000000001
 40
0.0
 40
0.0
 40
0.0
 40
0.0
 40
0.1652325481195197
 40
0.3237480179185449
 40
0.4748588270827844
 40
0.6181354479916822
 40
0.7533850026566931
 40
0.8806162989820421
 40
1.0
 40
1.0
 40
1.0
 40
1.0
 10
18.15139663676189
 20
-0.1221748977982884
 30
0.0000000000000001
 10
18.14898330516752
 20
-0.1305631723164424
 30
0.0000000000000001
 10
18.14425474938878
 20
-0.1469987189439621
 30
0.0000000000000001
 10
18.13783757266992
 20
-0.1730074013782996
 30
-0.0000000000000001
 10
18.1320894134065
 20
-0.1986778241753768
 30
0.0000000000000001
 10
18.12704181298426
 20
-0.2236641584015047
 30
0.0000000000000001
 10
18.12270419015221
 20
-0.2475298297559334
 30
0.0000000000000001
 10
18.11902100869867
 20
-0.2700469586698091
 30
0.0
 10
18.11707512820516
 20
-0.2844140303312202
 30
0.0000000000000001
 10
18.11613314812462
 20
-0.2913689771358463
 30
0.0000000000000001
  0
SPLINE
  5
A4
330
A
100
AcDbEntity
  8
1
390
1D
100
AcDbSpline
210
-0.0000000001398537
220
-0.0000000006788938
230
1.0
 70
     8
 71
     3
 72
     8
 73
     4
 74
     0
 42
0.0000000001
 43
0.0000000001
 40
0.0
 40
0.0
 40
0.0
 40
0.0
 40
1.0
 40
1.0
 40
1.0
 40
1.0
 10
19.99492723818526
 20
0.931157877498151
 30
0.0000000000000001
 10
19.96491656343295
 20
0.9373769334827102
 30
0.0000000000000001
 10
19.93490588868059
 20
0.9435593985965622
 30
0.0000000000000001
 10
19.90489521392828
 20
0.9497046111989677
 30
0.0000000000000002
  0
SPLINE
  5
A5
330
A
100
AcDbEntity
  8
1
390
1D
100
AcDbSpline
210
0.0
220
0.0
230
1.0
 70
     8
 71
     2
 72
     6
 73
     3
 74
     0
 42
0.0000000001
 43
0.0000000001
 40
0.0
 40
0.0
 40
0.0
 40
1.0
 40
1.0
 40
1.0
 10
21.00000000000176
 20
0.891588588835134
 30
0.0000000000000001
 10
20.70047991404005
 20
0.9242042085145383
 30
0.0
 10
20.40069777276773
 20
0.9605154922896872
 30
0.0000000000000001
  0
SPLINE
  5
A6
330
A
100
AcDbEntity
  8
1
390
1D
100
AcDbSpline
210
0.0
220
0.0
230
1.0
 70
     8
 71
     3
 72
     8
 73
     4
 74
     0
 42
0.0000000001
 43
0.0000000001
 40
0.0
 40
0.0
 40
0.0
 40
0.0
 40
1.0
 40
1.0
 40
1.0
 40
1.0
 10
20.69341881465414
 20
0.7801124697086835
 30
0.0000000000000001
 10
20.66440775263931
 20
0.7866347311835398
 30
0.0000000000000002
 10
20.63539669062448
 20
0.7931275956866557
 30
-0.0000000000000001
 10
20.60638562860964
 20
0.7995904655143704
 30
0.0000000000000002
  0
SPLINE
  5
A7
330
A
100
AcDbEntity
  8
1
390
1D
100
AcDbSpline
210
0.0000000000006518
220
0.0000000000052277
230
1.0
 70
     8
 71
     3
 72
    10
 73
     6
 74
     0
 42
0.0000000001
 43
0.0000000001
 40
0.0
 40
0.0
 40
0.0
 40
0.0
 40
0.1348931316876286
 40
0.6820234806399604
 40
1.0
 40
1.0
 40
1.0
 40
1.0
 10
20.17989142619666
 20
0.9870548721735872
 30
0.0000000000000001
 10
20.16098062489675
 20
0.9893124321240518
 30
0.0
 10
20.06535596412311
 20
1.000793211865357
 30
0.0000000000000001
 10
19.92511618805378
 20
1.0183945797624
 30
0.0
 10
19.80363509434085
 20
1.033786347406135
 30
0.0000000000000001
 10
19.7589688071252
 20
1.039501445161761
 30
0.0
  0
SPLINE
  5
A8
330
A
100
AcDbEntity
  8
1
390
1D
100
AcDbSpline
210
0.0000000001562511
220
-0.0000000000683885
230
1.0
 70
     8
 71
     3
 72
     8
 73
     4
 74
     0
 42
0.0000000001
 43
0.0000000001
 40
0.0
 40
0.0
 40
0.0
 40
0.0
 40
1.0
 40
1.0
 40
1.0
 40
1.0
 10
19.29614754088948
 20
-1.482109954309975
 30
0.0000000000000002
 10
19.29231218413122
 20
-1.491014499166567
 30
0.0
 10
19.2884108240919
 20
-1.499926384917216
 30
0.0
 10
19.28444664367009
 20
-1.508845783196534
 30
0.0000000000000001
  0
SPLINE
  5
A9
330
A
100
AcDbEntity
  8
1
390
1D
100
AcDbSpline
210
-0.0000000002166239
220
-0.0000000009632316
230
1.0
 70
     8
 71
     3
 72
     8
 73
     4
 74
     0
 42
0.0000000001
 43
0.0000000001
 40
0.0
 40
0.0
 40
0.0
 40
0.0
 40
1.0
 40
1.0
 40
1.0
 40
1.0
 10
20.68444664367013
 20
0.7682451245270841
 30
0.0
 10
20.66148099137723
 20
0.7734263474765158
 30
0.0000000000000001
 10
20.63851657994798
 20
0.7785909398689342
 30
0.0000000000000002
 10
20.61555335632994
 20
0.7837387113492014
 30
0.0
  0
SPLINE
  5
AA
330
A
100
AcDbEntity
  8
1
390
1D
100
AcDbSpline
210
0.0000000004896214
220
0.0000000020397615
230
1.0
 70
     8
 71
     3
 72
     8
 73
     4
 74
     0
 42
0.0000000001
 43
0.0000000001
 40
0.0
 40
0.0
 40
0.0
 40
0.0
 40
1.0
 40
1.0
 40
1.0
 40
1.0
 10
20.61555335632988
 20
-0.6828758132015765
 30
0.0
 10
20.63851731086299
 20
-0.6884044294515093
 30
0.0000000000000002
 10
20.66148170207617
 20
-0.6939168916280778
 30
0.0000000000000001
 10
20.68444664367007
 20
-0.699412818593487
 30
0.0000000000000001
  0
SPLINE
  5
AB
330
A
100
AcDbEntity
  8
1
390
1D
100
AcDbSpline
210
0.0000001377562778
220
-0.0000001630809028
230
-0.9999999999999772
 70
     8
 71
     3
 72
     8
 73
     4
 74
     0
 42
0.0000000001
 43
0.0000000001
 40
0.0
 40
0.0
 40
0.0
 40
0.0
 40
1.0
 40
1.0
 40
1.0
 40
1.0
 10
20.90956547617725
 20
-0.5233900377556893
 30
0.0000000000000001
 10
20.91054364340056
 20
-0.522563265257304
 30
0.0000000000000001
 10
20.91152181806325
 20
-0.5217369902950964
 30
0.0
 10
20.91250000000002
 20
-0.5209112123145019
 30
0.0000000000000001
  0
SPLINE
  5
AC
330
A
100
AcDbEntity
  8
1
390
1D
100
AcDbSpline
210
-0.0000000000005019
220
0.000000000000642
230
1.0
 70
     8
 71
     3
 72
     8
 73
     4
 74
     0
 42
0.0000000001
 43
0.0000000001
 40
0.0
 40
0.0
 40
0.0
 40
0.0
 40
1.0
 40
1.0
 40
1.0
 40
1.0
 10
20.68444664367007
 20
-0.699412818593487
 30
0.0000000000000003
 10
20.75946339161771
 20
-0.6454891212889607
 30
0.0000000000000001
 10
20.83455019594459
 20
-0.5867949128929695
 30
0.0000000000000002
 10
20.90956547617725
 20
-0.5233900377556893
 30
0.0000000000000001
  0
SPLINE
  5
AD
330
A
100
AcDbEntity
  8
1
390
1D
100
AcDbSpline
210
-0.0000000000477723
220
0.0000000000361199
230
-1.0
 70
     8
 71
     3
 72
     8
 73
     4
 74
     0
 42
0.0000000001
 43
0.0000000001
 40
0.0
 40
0.0
 40
0.0
 40
0.0
 40
1.0
 40
1.0
 40
1.0
 40
1.0
 10
20.69341881465414
 20
0.7801124697086835
 30
0.0000000000000001
 10
20.6904662468599
 20
0.7761331259324607
 30
0.0
 10
20.68747504537419
 20
0.7721772190624847
 30
0.0000000000000002
 10
20.68444664367013
 20
0.7682451245270841
 30
0.0
  0
SPLINE
  5
AE
330
A
100
AcDbEntity
  8
1
390
1D
100
AcDbSpline
210
0.0000000000000023
220
-0.0000000000000042
230
-1.0
 70
     8
 71
     3
 72
    10
 73
     6
 74
     0
 42
0.0000000001
 43
0.0000000001
 40
0.0
 40
0.0
 40
0.0
 40
0.0
 40
0.492451977792353
 40
0.492451977792353
 40
1.0
 40
1.0
 40
1.0
 40
1.0
 10
20.91250000000002
 20
0.898974948292448
 30
0.0000000000000001
 10
20.8767718671582
 20
0.8975697431482672
 30
0.0
 10
20.84040039726329
 20
0.8871649120976599
 30
0.0000000000000001
 10
20.76708446757095
 20
0.8480525851166476
 30
0.0
 10
20.72986341727039
 20
0.8186385827439153
 30
0.0000000000000003
 10
20.69341881465414
 20
0.7801124697086835
 30
0.0
  0
SPLINE
  5
AF
330
A
100
AcDbEntity
  8
1
390
1D
100
AcDbSpline
210
0.0
220
0.0
230
1.0
 70
     8
 71
     3
 72
     8
 73
     4
 74
     0
 42
0.0000000001
 43
0.0000000001
 40
0.0
 40
0.0
 40
0.0
 40
0.0
 40
1.0
 40
1.0
 40
1.0
 40
1.0
 10
20.61555335632994
 20
0.7837387113492014
 30
0.0000000000000002
 10
20.61246249468149
 20
0.7890363452793281
 30
0.0000000000000001
 10
20.60940605128792
 20
0.7943201910028961
 30
0.0000000000000001
 10
20.60638562860964
 20
0.7995904655143704
 30
0.0000000000000002
  0
SPLINE
  5
B0
330
A
100
AcDbEntity
  8
1
390
1D
100
AcDbSpline
210
0.000000000001873
220
0.0000000000016652
230
1.0
 70
     8
 71
     3
 72
     8
 73
     4
 74
     0
 42
0.0000000001
 43
0.0000000001
 40
0.0
 40
0.0
 40
0.0
 40
0.0
 40
1.0
 40
1.0
 40
1.0
 40
1.0
 10
20.39176810500879
 20
-0.4311675327512603
 30
0.0
 10
20.46637199756856
 20
-0.5108809680490367
 30
0.0000000000000001
 10
20.54100246585722
 20
-0.5948524368290578
 30
0.0000000000000002
 10
20.61555335632988
 20
-0.6828758132015765
 30
0.0000000000000002
  0
SPLINE
  5
B1
330
A
100
AcDbEntity
  8
1
390
1D
100
AcDbSpline
210
0.0000000000000015
220
0.0000000000000021
230
1.0
 70
     8
 71
     3
 72
     8
 73
     4
 74
     0
 42
0.0000000001
 43
0.0000000001
 40
0.0
 40
0.0
 40
0.0
 40
0.0
 40
1.0
 40
1.0
 40
1.0
 40
1.0
 10
20.60638562860964
 20
0.7995904655143704
 30
0.0000000000000001
 10
20.53478554322822
 20
0.9040157984988468
 30
0.0000000000000002
 10
20.46140356431755
 20
0.959710360570682
 30
0.0000000000000001
 10
20.38750000000005
 20
0.9611923683916076
 30
0.0
  0
SPLINE
  5
B2
330
A
100
AcDbEntity
  8
1
390
1D
100
AcDbSpline
210
0.0000000001380316
220
0.0000000006597058
230
1.0
 70
     8
 71
     3
 72
     8
 73
     4
 74
     0
 42
0.0000000001
 43
0.0000000001
 40
0.0
 40
0.0
 40
0.0
 40
0.0
 40
1.0
 40
1.0
 40
1.0
 40
1.0
 10
19.98444664367007
 20
0.9208647546541326
 30
0.0000000000000001
 10
19.96148166638056
 20
0.9256888229286916
 30
0.0000000000000001
 10
19.9385172643648
 20
0.9304938042058665
 30
0.0
 10
19.91555335632995
 20
0.9352794059039412
 30
0.0000000000000001
  0
SPLINE
  5
B3
330
A
100
AcDbEntity
  8
1
390
1D
100
AcDbSpline
210
-0.0000000014957857
220
-0.0000000059189471
230
1.0
 70
     8
 71
     3
 72
     8
 73
     4
 74
     0
 42
0.0000000001
 43
0.0000000001
 40
0.0
 40
0.0
 40
0.0
 40
0.0
 40
1.0
 40
1.0
 40
1.0
 40
1.0
 10
19.91555335632989
 20
-0.5097546086532816
 30
0.0
 10
19.93851849038623
 20
-0.5155701864619573
 30
0.0000000000000001
 10
19.96148288050023
 20
-0.5213736834537599
 30
0.0000000000000001
 10
19.98444664367014
 20
-0.5271646867770983
 30
-0.0000000000000001
  0
SPLINE
  5
B4
330
A
100
AcDbEntity
  8
1
390
1D
100
AcDbSpline
210
-0.000000000000208
220
0.0000000000003582
230
1.0
 70
     8
 71
     3
 72
     8
 73
     4
 74
     0
 42
0.0000000001
 43
0.0000000001
 40
0.0
 40
0.0
 40
0.0
 40
0.0
 40
1.0
 40
1.0
 40
1.0
 40
1.0
 10
19.98444664367007
 20
-0.5271646867770983
 30
0.0000000000000001
 10
20.05885092781926
 20
-0.488855252203564
 30
0.0000000000000001
 10
20.1333313249761
 20
-0.445609368814644
 30
0.0
 10
20.20776158486786
 20
-0.3974577573541751
 30
0.0
  0
SPLINE
  5
B5
330
A
100
AcDbEntity
  8
1
390
1D
100
AcDbSpline
210
0.0000000000492258
220
-0.0000000000501267
230
1.0
 70
     8
 71
     3
 72
     8
 73
     4
 74
     0
 42
0.0000000001
 43
0.0000000001
 40
0.0
 40
0.0
 40
0.0
 40
0.0
 40
1.0
 40
1.0
 40
1.0
 40
1.0
 10
19.99492723818514
 20
0.9311578774982079
 30
0.0000000000000002
 10
19.99148573804541
 20
0.9276953097644307
 30
0.0000000000000002
 10
19.98799144535673
 20
0.924264073479321
 30
0.0000000000000003
 10
19.98444664367007
 20
0.9208647546541326
 30
0.0000000000000001
  0
SPLINE
  5
B6
330
A
100
AcDbEntity
  8
1
390
1D
100
AcDbSpline
210
-0.0000000000000002
220
0.0000000000000009
230
1.0
 70
     8
 71
     3
 72
     8
 73
     4
 74
     0
 42
0.0000000001
 43
0.0000000001
 40
0.0
 40
0.0
 40
0.0
 40
0.0
 40
1.0
 40
1.0
 40
1.0
 40
1.0
 10
20.21250000000003
 20
0.9802118601344888
 30
0.0
 10
20.14040037694764
 20
1.00067033626027
 30
0.0
 10
20.06675100589598
 20
0.9843292904076859
 30
0.0000000000000003
 10
19.99492723818526
 20
0.931157877498151
 30
0.0000000000000001
  0
SPLINE
  5
B7
330
A
100
AcDbEntity
  8
1
390
1D
100
AcDbSpline
210
0.0000000008781937
220
0.0000000006488908
230
1.0
 70
     8
 71
     3
 72
     8
 73
     4
 74
     0
 42
0.0000000001
 43
0.0000000001
 40
0.0
 40
0.0
 40
0.0
 40
0.0
 40
1.0
 40
1.0
 40
1.0
 40
1.0
 10
19.91555335632989
 20
0.9352794059039412
 30
0.0000000000000001
 10
19.91195344545793
 20
0.9401093377209122
 30
0.0000000000000003
 10
19.90839989181518
 20
0.9449176169990778
 30
0.0000000000000001
 10
19.90489521392828
 20
0.9497046111989677
 30
0.0
  0
SPLINE
  5
B8
330
A
100
AcDbEntity
  8
1
390
1D
100
AcDbSpline
210
-0.0000000000003016
220
-0.0000000000003208
230
1.0
 70
     8
 71
     3
 72
     8
 73
     4
 74
     0
 42
0.0000000001
 43
0.0000000001
 40
0.0
 40
0.0
 40
0.0
 40
0.0
 40
1.0
 40
1.0
 40
1.0
 40
1.0
 10
19.69351373058498
 20
-0.3010274952350756
 30
0.0000000000000001
 10
19.76755040594776
 20
-0.3661033130939586
 30
0.0000000000000001
 10
19.84159478214349
 20
-0.4357380633138064
 30
-0.0000000000000001
 10
19.91555335632989
 20
-0.5097546086532816
 30
0.0000000000000001
  0
SPLINE
  5
B9
330
A
100
AcDbEntity
  8
1
390
1D
100
AcDbSpline
210
-0.0000000000000011
220
-0.0000000000000029
230
-1.0
 70
     8
 71
     3
 72
     8
 73
     4
 74
     0
 42
0.0000000001
 43
0.0000000001
 40
0.0
 40
0.0
 40
0.0
 40
0.0
 40
1.0
 40
1.0
 40
1.0
 40
1.0
 10
19.90489521392828
 20
0.9497046111989677
 30
0.0000000000000002
 10
19.83357424004896
 20
1.028478524765034
 30
0.0
 10
19.7607490777321
 20
1.057412762357671
 30
0.0000000000000001
 10
19.6875
 20
1.031844138338328
 30
0.0000000000000001
  0
SPLINE
  5
BA
330
A
100
AcDbEntity
  8
1
390
1D
100
AcDbSpline
210
0.000000000000024
220
-0.0000000000000647
230
1.0
 70
     8
 71
     3
 72
     8
 73
     4
 74
     0
 42
0.0000000001
 43
0.0000000001
 40
0.0
 40
0.0
 40
0.0
 40
0.0
 40
1.0
 40
1.0
 40
1.0
 40
1.0
 10
19.28444664367009
 20
-0.3472873367078364
 30
0.0000000000000001
 10
19.35826953395826
 20
-0.3249239710019651
 30
0.0
 10
19.43217385131931
 20
-0.2975517544589934
 30
0.0000000000000001
 10
19.50604787115577
 20
-0.2651637289823157
 30
0.0000000000000001
  0
SPLINE
  5
BB
330
A
100
AcDbEntity
  8
1
390
1D
100
AcDbSpline
210
0.0
220
0.0
230
1.0
 70
    24
 71
     1
 72
     4
 73
     2
 74
     0
 42
0.0000000001
 43
0.0000000001
 40
0.0
 40
0.0
 40
1.0
 40
1.0
 10
19.29614754088954
 20
1.069042609589757
 30
0.0000000000000001
 10
19.28444664367009
 20
1.061690367744915
 30
0.0000000000000001
  0
SPLINE
  5
BC
330
A
100
AcDbEntity
  8
1
390
1D
100
AcDbSpline
210
0.0000000000000001
220
0.0000000000000006
230
1.0
 70
     8
 71
     3
 72
     8
 73
     4
 74
     0
 42
0.0000000001
 43
0.0000000001
 40
0.0
 40
0.0
 40
0.0
 40
0.0
 40
1.0
 40
1.0
 40
1.0
 40
1.0
 10
19.51249999999999
 20
1.047181383595329
 30
0.0000000000000001
 10
19.44097594305333
 20
1.090965779083945
 30
0.0000000000000002
 10
19.36775735010082
 20
1.098455924320546
 30
0.0
 10
19.29614754088954
 20
1.069042609589757
 30
0.0000000000000001
  0
SPLINE
  5
BD
330
A
100
AcDbEntity
  8
1
390
1D
100
AcDbSpline
210
-0.0000000001630043
220
-0.0000000008543319
230
1.0
 70
     8
 71
     3
 72
     8
 73
     4
 74
     0
 42
0.0000000001
 43
0.0000000001
 40
0.0
 40
0.0
 40
0.0
 40
0.0
 40
1.0
 40
1.0
 40
1.0
 40
1.0
 10
19.28444664367549
 20
1.061690367743892
 30
0.0
 10
19.2614826252115
 20
1.066094413478709
 30
0.0000000000000001
 10
19.23851823189045
 20
1.070476072146675
 30
0.0
 10
19.21555335632991
 20
1.074834989132056
 30
0.0000000000000001
  0
SPLINE
  5
BE
330
A
100
AcDbEntity
  8
1
390
1D
100
AcDbSpline
210
-0.0000000055030445
220
-0.0000000210510468
230
0.9999999999999998
 70
     8
 71
     3
 72
     8
 73
     4
 74
     0
 42
0.0000000001
 43
0.0000000001
 40
0.0
 40
0.0
 40
0.0
 40
0.0
 40
1.0
 40
1.0
 40
1.0
 40
1.0
 10
19.21555335632991
 20
-0.3292776914850037
 30
0.0000000000000002
 10
19.23851800542451
 20
-0.335288441141131
 30
0.0000000000000002
 10
19.26148239671846
 20
-0.3412917951833947
 30
0.0000000000000001
 10
19.28444664367009
 20
-0.3472873367078364
 30
0.0000000000000001
  0
SPLINE
  5
BF
330
A
100
AcDbEntity
  8
1
390
1D
100
AcDbSpline
210
0.0000000015335207
220
0.0000000015979387
230
1.0
 70
     8
 71
     3
 72
     8
 73
     4
 74
     0
 42
0.0000000001
 43
0.0000000001
 40
0.0
 40
0.0
 40
0.0
 40
0.0
 40
1.0
 40
1.0
 40
1.0
 40
1.0
 10
19.21555335632991
 20
1.074834989132056
 30
0.0000000000000002
 10
19.21155083352414
 20
1.078650398247987
 30
0.0000000000000002
 10
19.2076054268403
 20
1.082435676535624
 30
0.0000000000000002
 10
19.20372059316787
 20
1.086191359216855
 30
0.0
  0
SPLINE
  5
C0
330
A
100
AcDbEntity
  8
1
390
1D
100
AcDbSpline
210
0.000000000000098
220
0.0000000000001323
230
1.0
 70
     8
 71
     3
 72
     8
 73
     4
 74
     0
 42
0.0000000001
 43
0.0000000001
 40
0.0
 40
0.0
 40
0.0
 40
0.0
 40
1.0
 40
1.0
 40
1.0
 40
1.0
 10
18.99501555627859
 20
-0.1658525460371152
 30
0.0000000000000001
 10
19.06856262221788
 20
-0.2156100159353969
 30
0.0
 10
19.14210323170687
 20
-0.2701302528841438
 30
0.0000000000000001
 10
19.21555335632991
 20
-0.3292776914850037
 30
0.0000000000000001
  0
SPLINE
  5
C1
330
A
100
AcDbEntity
  8
1
390
1D
100
AcDbSpline
210
0.0
220
0.0
230
1.0
 70
    24
 71
     1
 72
     4
 73
     2
 74
     0
 42
0.0000000001
 43
0.0000000001
 40
0.0
 40
0.0
 40
1.0
 40
1.0
 10
18.98750000000001
 20
-0.1608143173025383
 30
0.0000000000000001
 10
18.99501555627859
 20
-0.1658525460371152
 30
0.0000000000000001
  0
SPLINE
  5
C2
330
A
100
AcDbEntity
  8
1
390
1D
100
AcDbSpline
210
0.0
220
-0.000000000000005
230
1.0
 70
     8
 71
     3
 72
    10
 73
     6
 74
     0
 42
0.0000000001
 43
0.0000000001
 40
0.0
 40
0.0
 40
0.0
 40
0.0
 40
0.5
 40
0.5
 40
1.0
 40
1.0
 40
1.0
 40
1.0
 10
19.20372059316787
 20
1.086191359216855
 30
-0.0000000000000001
 10
19.16818631183668
 20
1.112241283740899
 30
0.0
 10
19.13259899195612
 20
1.125396643865372
 30
0.0000000000000001
 10
19.06059943858907
 20
1.126231341976791
 30
0.0000000000000002
 10
19.02389188998251
 20
1.113631099628378
 30
0.0000000000000001
 10
18.98750000000001
 20
1.087316411781444
 30
0.0
  0
SPLINE
  5
C3
330
A
100
AcDbEntity
  8
1
390
1D
100
AcDbSpline
210
0.0
220
0.0
230
1.0
 70
     8
 71
     3
 72
     8
 73
     4
 74
     0
 42
0.0000000001
 43
0.0000000001
 40
0.0
 40
0.0
 40
0.0
 40
0.0
 40
1.0
 40
1.0
 40
1.0
 40
1.0
 10
20.91250000000002
 20
-0.5209112123145019
 30
0.0000000000000002
 10
20.94166662947066
 20
-0.5260402675451701
 30
0.0000000000000001
 10
20.97083331440206
 20
-0.5311498706514044
 30
0.0000000000000001
 10
21.00000000340805
 20
-0.5362394028710469
 30
0.0000000000000002
  0
SPLINE
  5
C4
330
A
100
AcDbEntity
  8
1
390
1D
100
AcDbSpline
210
-0.0000000000816908
220
-0.0000000006440362
230
1.0
 70
     8
 71
     3
 72
     8
 73
     4
 74
     0
 42
0.0000000001
 43
0.0000000001
 40
0.0
 40
0.0
 40
0.0
 40
0.0
 40
1.0
 40
1.0
 40
1.0
 40
1.0
 10
21.00000000000176
 20
0.8878763153925888
 30
-0.0000000000000001
 10
20.97083326997875
 20
0.8916097867049188
 30
0.0000000000000002
 10
20.94166656968366
 20
0.8953094418939144
 30
0.0
 10
20.91250000000002
 20
0.898974948292448
 30
0.0000000000000001
  0
SPLINE
  5
C5
330
A
100
AcDbEntity
  8
1
390
1D
100
AcDbSpline
210
-0.0000000001447862
220
-0.0000000007862981
230
1.0
 70
     8
 71
     3
 72
    10
 73
     6
 74
     0
 42
0.0000000001
 43
0.0000000001
 40
0.0
 40
0.0
 40
0.0
 40
0.0
 40
0.5141914900141858
 40
0.5141914900141858
 40
1.0
 40
1.0
 40
1.0
 40
1.0
 10
20.21250000000003
 20
-0.3943966200249633
 30
0.0000000000000002
 10
20.24249457445779
 20
-0.3999502583653225
 30
0.0000000000000001
 10
20.27248913425854
 20
-0.4054886466756784
 30
-0.0000000000000001
 10
20.33082243810128
 20
-0.4162286816493294
 30
0.0000000000000001
 10
20.3591612472988
 20
-0.4214320514864199
 30
0.0
 10
20.38750000000005
 20
-0.4266205968385748
 30
0.0000000000000001
  0
SPLINE
  5
C6
330
A
100
AcDbEntity
  8
1
390
1D
100
AcDbSpline
210
0.000000000001707
220
0.0000000000157056
230
1.0
 70
     8
 71
     3
 72
     8
 73
     4
 74
     0
 42
0.0000000001
 43
0.0000000001
 40
0.0
 40
0.0
 40
0.0
 40
0.0
 40
1.0
 40
1.0
 40
1.0
 40
1.0
 10
20.38750000000005
 20
0.9611923683916076
 30
0.0000000000000001
 10
20.3291658486836
 20
0.9676786917837604
 30
0.0
 10
20.27083233217468
 20
0.9740196089722985
 30
-0.0000000000000001
 10
20.21249999999998
 20
0.9802118601344888
 30
0.0000000000000001
  0
SPLINE
  5
C7
330
A
100
AcDbEntity
  8
1
390
1D
100
AcDbSpline
210
-0.0000000007869009
220
-0.0000000041196892
230
1.0
 70
     8
 71
     3
 72
    10
 73
     6
 74
     0
 42
0.0000000001
 43
0.0000000001
 40
0.0
 40
0.0
 40
0.0
 40
0.0
 40
0.5142071323431101
 40
0.5142071323431101
 40
1.0
 40
1.0
 40
1.0
 40
1.0
 10
19.51249999999999
 20
-0.2623435010644926
 30
0.0000000000000001
 10
19.54249552111042
 20
-0.2680931771364499
 30
0.0000000000000002
 10
19.57249101800045
 20
-0.2738328596775546
 30
0.0
 10
19.63082432694625
 20
-0.2849743302259071
 30
0.0000000000000001
 10
19.65916220635251
 20
-0.2903772744904245
 30
0.0000000000000001
 10
19.68750000000034
 20
-0.295770147269252
 30
-0.0000000000000001
  0
SPLINE
  5
C8
330
A
100
AcDbEntity
  8
1
390
1D
100
AcDbSpline
210
-0.0000000000008497
220
-0.0000000000096954
230
1.0
 70
     8
 71
     3
 72
     8
 73
     4
 74
     0
 42
0.0000000001
 43
0.0000000001
 40
0.0
 40
0.0
 40
0.0
 40
0.0
 40
1.0
 40
1.0
 40
1.0
 40
1.0
 10
19.6875
 20
1.031844138338328
 30
0.0000000000000001
 10
19.62916620444224
 20
1.037115910931049
 30
0.0
 10
19.57083276769009
 20
1.042229359957275
 30
0.0000000000000001
 10
19.51249999999999
 20
1.047181383595329
 30
0.0000000000000001
  0
SPLINE
  5
C9
330
A
100
AcDbEntity
  8
1
390
1D
100
AcDbSpline
210
0.0
220
0.0
230
1.0
 70
     8
 71
     3
 72
     8
 73
     4
 74
     0
 42
0.0000000001
 43
0.0000000001
 40
0.0
 40
0.0
 40
0.0
 40
0.0
 40
1.0
 40
1.0
 40
1.0
 40
1.0
 10
18.07573075172428
 20
1.048916792457533
 30
0.0
 10
18.03977231875331
 20
1.049555871912219
 30
0.0
 10
18.00397024434329
 20
1.049950510235078
 30
0.0
 10
17.96835761007105
 20
1.050031074135916
 30
0.0
  0
SPLINE
  5
CA
330
A
100
AcDbEntity
  8
1
390
1D
100
AcDbSpline
210
0.0000000000000012
220
0.0000000000000551
230
1.0
 70
     8
 71
     3
 72
     8
 73
     4
 74
     0
 42
0.0000000001
 43
0.0000000001
 40
0.0
 40
0.0
 40
0.0
 40
0.0
 40
1.0
 40
1.0
 40
1.0
 40
1.0
 10
18.07570785620101
 20
1.048916980337025
 30
0.0000000000000001
 10
18.35054981052247
 20
1.046651120733087
 30
-0.0000000000000001
 10
18.62526864415742
 20
1.040793169428412
 30
-0.0000000000000001
 10
18.90000000000003
 20
1.031273824938296
 30
0.0000000000000001
  0
SPLINE
  5
CB
330
A
100
AcDbEntity
  8
1
390
1D
100
AcDbSpline
210
0.0000000000232615
220
0.0000000001313677
230
1.0
 70
     8
 71
     3
 72
     8
 73
     4
 74
     0
 42
0.0000000001
 43
0.0000000001
 40
0.0
 40
0.0
 40
0.0
 40
0.0
 40
1.0
 40
1.0
 40
1.0
 40
1.0
 10
18.90000000000003
 20
-0.1298835244073189
 30
0.0000000000000001
 10
18.66903609296462
 20
-0.0893409220677199
 30
0.0000000000000001
 10
18.43809522234807
 20
-0.0484097538221704
 30
0.0
 10
18.20719357297457
 20
-0.0072200966232003
 30
-0.0000000000000001
  0
SPLINE
  5
CC
330
A
100
AcDbEntity
  8
1
390
1D
100
AcDbSpline
210
0.0
220
0.0
230
1.0
 70
     8
 71
     3
 72
     8
 73
     4
 74
     0
 42
0.0000000001
 43
0.0000000001
 40
0.0
 40
0.0
 40
0.0
 40
0.0
 40
1.0
 40
1.0
 40
1.0
 40
1.0
 10
19.91555335632989
 20
-1.538066872202193
 30
0.0
 10
19.91195344545793
 20
-1.530545192913848
 30
0.0000000000000001
 10
19.90839989181518
 20
-1.522992069741917
 30
0.0000000000000001
 10
19.90489521392828
 20
-1.515407888901676
 30
0.0
  0
SPLINE
  5
CD
330
A
100
AcDbEntity
  8
1
390
1D
100
AcDbSpline
210
0.0
220
0.0
230
1.0
 70
     8
 71
     3
 72
     8
 73
     4
 74
     0
 42
0.0000000001
 43
0.0000000001
 40
0.0
 40
0.0
 40
0.0
 40
0.0
 40
1.0
 40
1.0
 40
1.0
 40
1.0
 10
19.99492723818514
 20
-1.518966501670434
 30
0.0000000000000001
 10
19.99148573804541
 20
-1.526032060285899
 30
0.0
 10
19.98799144535673
 20
-1.533107198171023
 30
0.0
 10
19.98444664367007
 20
-1.54019210880756
 30
0.0000000000000001
  0
SPLINE
  5
CE
330
A
100
AcDbEntity
  8
1
390
1D
100
AcDbSpline
210
-0.0000000005855376
220
-0.0000000003290922
230
-1.0
 70
     8
 71
     3
 72
     8
 73
     4
 74
     0
 42
0.0000000001
 43
0.0000000001
 40
0.0
 40
0.0
 40
0.0
 40
0.0
 40
1.0
 40
1.0
 40
1.0
 40
1.0
 10
20.61555335632994
 20
-1.549967030419451
 30
0.0000000000000002
 10
20.61246249468149
 20
-1.54455310039873
 30
0.0
 10
20.60940605128792
 20
-1.539115499899992
 30
0.0
 10
20.60638562860964
 20
-1.53365449040183
 30
-0.0000000000000001
  0
SPLINE
  5
CF
330
A
100
AcDbEntity
  8
1
390
1D
100
AcDbSpline
210
0.0000000010017664
220
-0.000000000576432
230
-1.0
 70
     8
 71
     3
 72
     8
 73
     4
 74
     0
 42
0.0000000001
 43
0.0000000001
 40
0.0
 40
0.0
 40
0.0
 40
0.0
 40
1.0
 40
1.0
 40
1.0
 40
1.0
 10
20.69341881465414
 20
-1.534387231736161
 30
-0.0000000000000001
 10
20.6904662468599
 20
-1.539575263843971
 30
0.0
 10
20.68747504537419
 20
-1.544772942668544
 30
0.0000000000000001
 10
20.68444664367007
 20
-1.549980431594235
 30
0.0000000000000001
  0
SPLINE
  5
D0
330
A
100
AcDbEntity
  8
1
390
1D
100
AcDbSpline
210
0.0
220
0.0
230
1.0
 70
     8
 71
     3
 72
     8
 73
     4
 74
     0
 42
0.0000000001
 43
0.0000000001
 40
0.0
 40
0.0
 40
0.0
 40
0.0
 40
1.0
 40
1.0
 40
1.0
 40
1.0
 10
19.28444664367419
 20
-1.508845783196819
 30
0.0000000000000001
 10
19.26148262521059
 20
-1.50746212349486
 30
0.0000000000000001
 10
19.23851823189
 20
-1.506043466518405
 30
0.0000000000000001
 10
19.21555335632991
 20
-1.504589821301579
 30
0.0000000000000001
  0
SPLINE
  5
D1
330
A
100
AcDbEntity
  8
1
390
1D
100
AcDbSpline
210
0.0
220
0.0
230
1.0
 70
    28
 71
     2
 72
     6
 73
     3
 74
     0
 42
0.0000000001
 43
0.0000000001
 40
0.0
 40
0.0
 40
0.0
 40
1.0
 40
1.0
 40
1.0
 10
21.0000000000004
 20
1.115095760353199
 30
0.0
 41
1.0
 10
21.00000000000047
 20
1.005284602939445
 30
0.0
 41
0.8095501687162636
 10
21.00000000000039
 20
0.9225337603531443
 30
0.0
 41
0.7872676038876763
  0
SPLINE
  5
D2
330
A
100
AcDbEntity
  8
1
390
1D
100
AcDbSpline
210
0.0000000000026561
220
0.000000000086102
230
1.0
 70
     8
 71
     3
 72
     8
 73
     4
 74
     0
 42
0.0000000001
 43
0.0000000001
 40
0.0
 40
0.0
 40
0.0
 40
0.0
 40
1.0
 40
1.0
 40
1.0
 40
1.0
 10
19.98444664367007
 20
-1.54019210880756
 30
0.0000000000000001
 10
19.96148166638056
 20
-1.539518515893803
 30
0.0
 10
19.9385172643648
 20
-1.53881011473021
 30
0.0
 10
19.91555335632995
 20
-1.538066872202193
 30
0.0
  0
SPLINE
  5
D3
330
A
100
AcDbEntity
  8
1
390
1D
100
AcDbSpline
210
-0.0000000000009716
220
0.0000000000590326
230
1.0
 70
     8
 71
     3
 72
     8
 73
     4
 74
     0
 42
0.0000000001
 43
0.0000000001
 40
0.0
 40
0.0
 40
0.0
 40
0.0
 40
1.0
 40
1.0
 40
1.0
 40
1.0
 10
20.61555335632988
 20
1.546483742993814
 30
0.0000000000000001
 10
20.63851731086299
 20
1.546898332417071
 30
0.0
 10
20.66148170207617
 20
1.547276302242891
 30
-0.0000000000000001
 10
20.68444664367013
 20
1.547617625493614
 30
0.0
  0
SPLINE
  5
D4
330
A
100
AcDbEntity
  8
1
390
1D
100
AcDbSpline
210
0.0
220
0.0
230
1.0
 70
     8
 71
     3
 72
     8
 73
     4
 74
     0
 42
0.0000000001
 43
0.0000000001
 40
0.0
 40
0.0
 40
0.0
 40
0.0
 40
1.0
 40
1.0
 40
1.0
 40
1.0
 10
20.68444664367007
 20
1.547617625493614
 30
-0.0000000000000001
 10
20.75946339161771
 20
1.418176806422935
 30
0.0
 10
20.83455019594459
 20
1.288322354147795
 30
0.0
 10
20.90956547617725
 20
1.158294779975165
 30
-0.0000000000000001
  0
SPLINE
  5
D5
330
A
100
AcDbEntity
  8
1
390
1D
100
AcDbSpline
210
-0.0000000000604936
220
0.0000000000341807
230
-1.0
 70
     8
 71
     3
 72
     8
 73
     4
 74
     0
 42
0.0000000001
 43
0.0000000001
 40
0.0
 40
0.0
 40
0.0
 40
0.0
 40
1.0
 40
1.0
 40
1.0
 40
1.0
 10
20.39176810500879
 20
1.150430434210307
 30
-0.0000000000000001
 10
20.46637199756856
 20
1.283215670011883
 30
0.0
 10
20.54100246585722
 20
1.415315936369381
 30
0.0
 10
20.61555335632988
 20
1.546483742993814
 30
0.0
  0
SPLINE
  5
D6
330
A
100
AcDbEntity
  8
1
390
1D
100
AcDbSpline
210
-0.0000000000000004
220
-0.0000000000020162
230
1.0
 70
     8
 71
     3
 72
     8
 73
     4
 74
     0
 42
0.0000000001
 43
0.0000000001
 40
0.0
 40
0.0
 40
0.0
 40
0.0
 40
1.0
 40
1.0
 40
1.0
 40
1.0
 10
20.68444664367013
 20
-1.549980431594178
 30
0.0
 10
20.66148099137723
 20
-1.550010407650973
 30
0.0
 10
20.63851657994792
 20
-1.550005947472981
 30
0.0
 10
20.61555335632988
 20
-1.549967030419566
 30
0.0000000000000001
  0
SPLINE
  5
D7
330
A
100
AcDbEntity
  8
1
390
1D
100
AcDbSpline
210
-0.0000000000016723
220
0.0000000000307946
230
1.0
 70
     8
 71
     3
 72
    10
 73
     6
 74
     0
 42
0.0000000001
 43
0.0000000001
 40
0.0
 40
0.0
 40
0.0
 40
0.0
 40
0.5142071323431905
 40
0.5142071323431905
 40
1.0
 40
1.0
 40
1.0
 40
1.0
 10
19.51249999999999
 20
1.105287075114972
 30
0.0
 10
19.54249552111042
 20
1.107000559269692
 30
0.0000000000000001
 10
19.57249101800045
 20
1.1086708082247
 30
-0.0000000000000001
 10
19.63082432694625
 20
1.111834528837561
 30
0.0
 10
19.65916220635251
 20
1.113332671929641
 30
-0.0000000000000001
 10
19.68750000000034
 20
1.114791876272704
 30
0.0
  0
SPLINE
  5
D8
330
A
100
AcDbEntity
  8
1
390
1D
100
AcDbSpline
210
0.0000000000010028
220
-0.0000000000319197
230
1.0
 70
     8
 71
     3
 72
    10
 73
     6
 74
     0
 42
0.0000000001
 43
0.0000000001
 40
0.0
 40
0.0
 40
0.0
 40
0.0
 40
0.5141914900141476
 40
0.5141914900141476
 40
1.0
 40
1.0
 40
1.0
 40
1.0
 10
20.21250000000003
 20
1.137335124303149
 30
-0.0000000000000001
 10
20.24249457445779
 20
1.138364589133288
 30
0.0
 10
20.27248913425854
 20
1.139349446873097
 30
-0.0000000000000001
 10
20.33082243810128
 20
1.141177785256842
 30
-0.0000000000000001
 10
20.3591612472988
 20
1.142026070857355
 30
0.0
 10
20.38750000000005
 20
1.142834316271887
 30
0.0000000000000001
  0
SPLINE
  5
D9
330
A
100
AcDbEntity
  8
1
390
1D
100
AcDbSpline
210
-0.0000000000001213
220
0.000000000012763
230
1.0
 70
     8
 71
     3
 72
     8
 73
     4
 74
     0
 42
0.0000000001
 43
0.0000000001
 40
0.0
 40
0.0
 40
0.0
 40
0.0
 40
1.0
 40
1.0
 40
1.0
 40
1.0
 10
20.91250000000002
 20
1.15320830520875
 30
0.0
 10
20.94166662947066
 20
1.153528273064409
 30
0.0
 10
20.97083331440206
 20
1.153805410500809
 30
0.0000000000000001
 10
21.00000000340805
 20
1.154039690546482
 30
-0.0000000000000001
  0
SPLINE
  5
DA
330
A
100
AcDbEntity
  8
1
390
1D
100
AcDbSpline
210
0.0
220
0.0
230
1.0
 70
    24
 71
     1
 72
     4
 73
     2
 74
     0
 42
0.0000000001
 43
0.0000000001
 40
0.0
 40
0.0
 40
1.0
 40
1.0
 10
20.90956547617725
 20
1.158294779975165
 30
0.0
 10
20.91250000000002
 20
1.15320830520875
 30
0.0000000000000001
  0
SPLINE
  5
DB
330
A
100
AcDbEntity
  8
1
390
1D
100
AcDbSpline
210
0.0
220
0.0
230
1.0
 70
    28
 71
     2
 72
     6
 73
     3
 74
     0
 42
0.0000000001
 43
0.0000000001
 40
0.0
 40
0.0
 40
0.0
 40
1.0
 40
1.0
 40
1.0
 10
21.00000000000002
 20
1.154039690519113
 30
0.0000000000000001
 41
0.9999950158548376
 10
20.99999999999999
 20
1.134583377866064
 30
0.0
 41
0.9999768977723912
 10
21.0
 20
1.115095760353199
 30
0.0
 41
1.0
  0
SPLINE
  5
DC
330
A
100
AcDbEntity
  8
1
390
1D
100
AcDbSpline
210
-0.0000000000043199
220
0.0000000000887495
230
1.0
 70
     8
 71
     3
 72
     8
 73
     4
 74
     0
 42
0.0000000001
 43
0.0000000001
 40
0.0
 40
0.0
 40
0.0
 40
0.0
 40
1.0
 40
1.0
 40
1.0
 40
1.0
 10
19.91555335632989
 20
1.522547481942865
 30
0.0
 10
19.93851849038634
 20
1.523701353912259
 30
0.0
 10
19.9614828805004
 20
1.524819173944309
 30
-0.0000000000000002
 10
19.98444664367037
 20
1.525900862923719
 30
0.0
  0
SPLINE
  5
DD
330
A
100
AcDbEntity
  8
1
390
1D
100
AcDbSpline
210
0.0
220
0.0
230
1.0
 70
     8
 71
     3
 72
     8
 73
     4
 74
     0
 42
0.0000000001
 43
0.0000000001
 40
0.0
 40
0.0
 40
0.0
 40
0.0
 40
1.0
 40
1.0
 40
1.0
 40
1.0
 10
19.98444664367007
 20
1.525900862923719
 30
0.0
 10
20.05885092781926
 20
1.40006374921512
 30
0.0
 10
20.1333313249761
 20
1.273174691869712
 30
0.0
 10
20.20776158486786
 20
1.145464691159759
 30
0.0
  0
SPLINE
  5
DE
330
A
100
AcDbEntity
  8
1
390
1D
100
AcDbSpline
210
-0.0000000105391902
220
0.0000000058943086
230
-1.0
 70
     8
 71
     3
 72
     8
 73
     4
 74
     0
 42
0.0000000001
 43
0.0000000001
 40
0.0
 40
0.0
 40
0.0
 40
0.0
 40
1.0
 40
1.0
 40
1.0
 40
1.0
 10
19.69351373058504
 20
1.125543402072594
 30
0.0
 10
19.76755040594782
 20
1.257968928074546
 30
0.0
 10
19.84159478214355
 20
1.390389417732591
 30
0.0000000000000001
 10
19.91555335632989
 20
1.522547481942865
 30
0.0000000000000001
  0
SPLINE
  5
DF
330
A
100
AcDbEntity
  8
1
390
1D
100
AcDbSpline
210
-0.0000000000002301
220
0.000000000002874
230
1.0
 70
     8
 71
     3
 72
     8
 73
     4
 74
     0
 42
0.0000000001
 43
0.0000000001
 40
0.0
 40
0.0
 40
0.0
 40
0.0
 40
1.0
 40
1.0
 40
1.0
 40
1.0
 10
19.21555335632991
 20
1.476338945390978
 30
0.0
 10
19.23851800542445
 20
1.478212655802338
 30
-0.0000000000000001
 10
19.26148239671829
 20
1.480051609259533
 30
-0.0000000000000001
 10
19.28444664366987
 20
1.481855665440661
 30
0.0
  0
SPLINE
  5
E0
330
A
100
AcDbEntity
  8
1
390
1D
100
AcDbSpline
210
0.0
220
0.0
230
1.0
 70
     8
 71
     3
 72
     8
 73
     4
 74
     0
 42
0.0000000001
 43
0.0000000001
 40
0.0
 40
0.0
 40
0.0
 40
0.0
 40
1.0
 40
1.0
 40
1.0
 40
1.0
 10
19.28444664367009
 20
1.481855665440719
 30
0.0
 10
19.35826953395832
 20
1.361503470665922
 30
-0.0000000000000001
 10
19.43217385131931
 20
1.239501847204167
 30
0.0
 10
19.50604787115577
 20
1.11606545433574
 30
0.0
  0
SPLINE
  5
E1
330
A
100
AcDbEntity
  8
1
390
1D
100
AcDbSpline
210
0.0
220
0.0
230
1.0
 70
     8
 71
     3
 72
     8
 73
     4
 74
     0
 42
0.0000000001
 43
0.0000000001
 40
0.0
 40
0.0
 40
0.0
 40
0.0
 40
1.0
 40
1.0
 40
1.0
 40
1.0
 10
18.99501555627859
 20
1.084209476671957
 30
-0.0000000000000001
 10
19.06856262221788
 20
1.214356718996554
 30
-0.0000000000000001
 10
19.14210323170687
 20
1.3451524087464
 30
-0.0000000000000001
 10
19.21555335632991
 20
1.476338945390978
 30
-0.0000000000000001
  0
LINE
  5
E2
330
A
100
AcDbEntity
  8
4
390
1D
100
AcDbLine
 10
-0.125
 20
0.0
 30
0.0
 11
21.125
 21
0.0
 31
0.0
  0
LINE
  5
E4
330
A
100
AcDbEntity
  8
SK4
390
1D
100
AcDbLine
 10
-36.125
 20
0.0
 30
0.0
 11
21.125
 21
0.0
 31
0.0
  0
MTEXT
  5
E6
330
A
100
AcDbEntity
  8
SK6
390
1D
100
AcDbMText
 10
2.9
 20
-50.453125
 30
0.0
 40
4.5
 41
0.0
 71
     7
 72
     5
  1
\W01.000;\Fsimplex.shx;
  7
SIMPLEX
 73
     2
 44
0.9036139999999999
1001
ACAD
1000
MTEXTBEGIN
1070
    73
1070
     2
1070
    44
1040
0.9036139999999999
1070
    74
1070
     0
1000
MTEXTEND
  0
DIMENSION
  5
F3
330
A
100
AcDbEntity
  8
2
390
1D
100
AcDbDimension
  2
_D0
 10
21.0
 20
78.43
 30
0.0
 11
10.5
 21
79.5
 31
0.0
 70
    33
  1
 <> 
 71
     5
 42
-1.0
  3
Standard
100
AcDbAlignedDimension
 13
0.0
 23
0.0
 33
0.0
 14
21.0
 24
0.0
 34
0.0
1001
ACAD
1000
DSTYLE
1002
{
1070
   271
1070
     3
1070
   272
1070
     3
1070
    77
1070
     1
1070
    73
1070
     0
1070
   179
1070
     3
1070
   171
1070
     3
1070
   274
1070
     3
1070
   177
1070
     7
1070
   176
1070
     7
1070
   178
1070
     7
1070
    78
1070
     8
1070
    47
1040
0.005
1070
    48
1040
-0.005
1070
    41
1040
4.57
1070
   147
1040
1.5
1070
    42
1040
0.0
1070
    44
1040
3.5
1070
   140
1040
4.57
1070
     6
1000
_CLOSEDFILLED
1070
     7
1000
_CLOSEDFILLED
1002
}
  0
DIMENSION
  5
FE
330
A
100
AcDbEntity
  8
2
390
1D
100
AcDbDimension
  2
_D1
 10
66.5
 20
20.573094
 30
0.0
 11
66.5
 21
20.573094
 31
0.0
 70
    32
  1
%%c <> 
 71
     0
 72
     0
 41
0.0
 42
-1.0
 53
90.0
  3
Standard
100
AcDbAlignedDimension
 13
21.0
 23
-1.55
 33
0.0
 14
21.0
 24
1.55
 34
0.0
 50
90.0
100
AcDbRotatedDimension
1001
ACAD
1000
DSTYLE
1002
{
1070
   271
1070
     3
1070
   272
1070
     3
1070
    77
1070
     1
1070
    73
1070
     0
1070
   179
1070
     3
1070
   177
1070
     7
1070
   176
1070
     7
1070
   178
1070
     7
1070
    78
1070
     8
1070
    47
1040
0.005
1070
    48
1040
-0.005
1070
    41
1040
4.57
1070
   147
1040
1.5
1070
    42
1040
0.0
1070
    44
1040
2.0
1070
   140
1040
4.57
1070
     6
1000
_CLOSEDFILLED
1070
     7
1000
_CLOSEDFILLED
1002
}
  0
DIMENSION
  5
10A
330
A
100
AcDbEntity
  8
SK2
390
1D
100
AcDbDimension
  2
_D2
 10
-56.5
 20
17.043698
 30
0.0
 11
-56.5
 21
17.043698
 31
0.0
 70
    32
  1
%%c <> 
 71
     0
 72
     0
 41
0.0
 42
-1.0
 53
90.0
  3
Standard
100
AcDbAlignedDimension
 13
-35.6
 23
3.0
 33
0.0
 14
-35.6
 24
-3.0
 34
0.0
 50
90.0
100
AcDbRotatedDimension
1001
ACAD
1000
DSTYLE
1002
{
1070
   271
1070
     3
1070
   272
1070
     3
1070
    77
1070
     1
1070
    73
1070
     0
1070
   179
1070
     3
1070
   171
1070
     3
1070
   274
1070
     3
1070
   177
1070
     7
1070
   176
1070
     7
1070
   178
1070
     7
1070
    78
1070
     8
1070
    47
1040
0.005
1070
    48
1040
-0.005
1070
    41
1040
4.57
1070
   147
1040
1.5
1070
    42
1040
0.0
1070
    44
1040
3.5
1070
   140
1040
4.57
1070
     6
1000
_CLOSEDFILLED
1070
     7
1000
_CLOSEDFILLED
1002
}
  0
DIMENSION
  5
114
330
A
100
AcDbEntity
  8
2
390
1D
100
AcDbDimension
  2
_D3
 10
39.28999000000001
 20
64.5
 30
0.0
 11
39.28999000000001
 21
64.5
 31
0.0
 70
    32
  1
 <> 
 71
     5
 42
-1.0
  3
Standard
100
AcDbAlignedDimension
 13
21.0
 23
0.0
 33
0.0
 14
7.95
 24
0.0
 34
0.0
100
AcDbRotatedDimension
1001
ACAD
1000
DSTYLE
1002
{
1070
   271
1070
     3
1070
   272
1070
     3
1070
    77
1070
     1
1070
    73
1070
     0
1070
   179
1070
     3
1070
   171
1070
     3
1070
   274
1070
     3
1070
   177
1070
     7
1070
   176
1070
     7
1070
   178
1070
     7
1070
    78
1070
     8
1070
    47
1040
0.005
1070
    48
1040
-0.005
1070
    41
1040
4.57
1070
   147
1040
1.5
1070
    42
1040
0.0
1070
    44
1040
3.5
1070
   140
1040
4.57
1070
     6
1000
_CLOSEDFILLED
1070
     7
1000
_CLOSEDFILLED
1002
}
  0
DIMENSION
  5
11E
330
A
100
AcDbEntity
  8
2
390
1D
100
AcDbDimension
  2
_D4
 10
34.310594
 20
49.500007
 30
0.0
 11
34.310594
 21
49.500007
 31
0.0
 70
    32
  1
 <> 
 71
     5
 42
-1.0
  3
Standard
100
AcDbAlignedDimension
 13
18.9
 23
0.0
 33
0.0
 14
21.0
 24
0.0
 34
0.0
100
AcDbRotatedDimension
1001
ACAD
1000
DSTYLE
1002
{
1070
   271
1070
     3
1070
   272
1070
     3
1070
    77
1070
     1
1070
    73
1070
     0
1070
   179
1070
     3
1070
   177
1070
     7
1070
   176
1070
     7
1070
   178
1070
     7
1070
    78
1070
     8
1070
    47
1040
0.005
1070
    48
1040
-0.005
1070
    41
1040
4.57
1070
   147
1040
1.5
1070
    42
1040
0.0
1070
    44
1040
2.0
1070
   140
1040
4.57
1070
     6
1000
_CLOSEDFILLED
1070
     7
1000
_CLOSEDFILLED
1002
}
  0
DIMENSION
  5
128
330
A
100
AcDbEntity
  8
SK2
390
1D
100
AcDbDimension
  2
_D5
 10
-7.5
 20
94.50000000000001
 30
0.0
 11
-7.5
 21
94.50000000000001
 31
0.0
 70
    32
  1
 <> 
 71
     5
 42
-1.0
  3
Standard
100
AcDbAlignedDimension
 13
-36.0
 23
0.0
 33
0.0
 14
21.0
 24
0.0
 34
0.0
100
AcDbRotatedDimension
1001
ACAD
1000
DSTYLE
1002
{
1070
   271
1070
     3
1070
   272
1070
     3
1070
    77
1070
     1
1070
    73
1070
     0
1070
   179
1070
     3
1070
   177
1070
     7
1070
   176
1070
     7
1070
   178
1070
     7
1070
    78
1070
     8
1070
    47
1040
0.005
1070
    48
1040
-0.005
1070
    41
1040
4.57
1070
   147
1040
1.5
1070
    42
1040
0.0
1070
    44
1040
2.0
1070
   140
1040
4.57
1070
     6
1000
_CLOSEDFILLED
1070
     7
1000
_CLOSEDFILLED
1002
}
  0
ENDSEC
  0
SECTION
  2
OBJECTS
  0
DICTIONARY
  5
19
330
0
100
AcDbDictionary
281
     1
  3
ACAD_COLOR
350
1BA
  3
ACAD_GROUP
350
1A
  3
ACAD_LAYOUT
350
1E
  3
ACAD_MATERIAL
350
18D
  3
ACAD_MLEADERSTYLE
350
180
  3
ACAD_MLINESTYLE
350
1B
  3
ACAD_PLOTSETTINGS
350
22
  3
ACAD_PLOTSTYLENAME
350
1F
  3
ACAD_SCALELIST
350
141
  3
ACAD_TABLESTYLE
350
1BB
  3
ACAD_VISUALSTYLE
350
1A6
  3
ACAD_WIPEOUT_VARS
350
23
  3
ACDB_RECOMPOSE_DATA
350
1E0
  3
AcDbVariableDictionary
350
17D
  3
ASE_INDEX_DICTIONARY
350
1D5
  3
DWGPROPS
350
1E1
  0
DICTIONARY
  5
1C0
330
14
100
AcDbDictionary
280
     1
281
     1
  3
ADSK_XREC_LAYER_RECONCILED
360
1C1
  0
DICTIONARY
  5
1C2
330
182
100
AcDbDictionary
280
     1
281
     1
  3
ADSK_XREC_LAYER_RECONCILED
360
1C3
  0
DICTIONARY
  5
1C4
330
183
100
AcDbDictionary
280
     1
281
     1
  3
ADSK_XREC_LAYER_RECONCILED
360
1C5
  0
DICTIONARY
  5
1C6
330
184
100
AcDbDictionary
280
     1
281
     1
  3
ADSK_XREC_LAYER_RECONCILED
360
1C7
  0
DICTIONARY
  5
1C8
330
185
100
AcDbDictionary
280
     1
281
     1
  3
ADSK_XREC_LAYER_RECONCILED
360
1C9
  0
DICTIONARY
  5
1CA
330
186
100
AcDbDictionary
280
     1
281
     1
  3
ADSK_XREC_LAYER_RECONCILED
360
1CB
  0
DICTIONARY
  5
1CC
330
187
100
AcDbDictionary
280
     1
281
     1
  3
ADSK_XREC_LAYER_RECONCILED
360
1CD
  0
DICTIONARY
  5
1CE
330
188
100
AcDbDictionary
280
     1
281
     1
  3
ADSK_XREC_LAYER_RECONCILED
360
1CF
  0
DICTIONARY
  5
1D0
330
189
100
AcDbDictionary
280
     1
281
     1
  3
ADSK_XREC_LAYER_RECONCILED
360
1D1
  0
DICTIONARY
  5
1D2
330
18A
100
AcDbDictionary
280
     1
281
     1
  3
ADSK_XREC_LAYER_RECONCILED
360
1D3
  0
DICTIONARY
  5
1BA
102
{ACAD_REACTORS
330
19
102
}
330
19
100
AcDbDictionary
281
     1
  0
DICTIONARY
  5
1A
102
{ACAD_REACTORS
330
19
102
}
330
19
100
AcDbDictionary
281
     1
  0
DICTIONARY
  5
1E
102
{ACAD_REACTORS
330
19
102
}
330
19
100
AcDbDictionary
281
     1
  3
Layout1
350
21
  3
Model
350
20
  0
DICTIONARY
  5
18D
102
{ACAD_REACTORS
330
19
102
}
330
19
100
AcDbDictionary
281
     1
  3
ByBlock
350
196
  3
ByLayer
350
18E
  3
Global
350
19E
  0
DICTIONARY
  5
180
102
{ACAD_REACTORS
330
19
102
}
330
19
100
AcDbDictionary
281
     1
  3
Standard
350
1BD
  0
DICTIONARY
  5
1B
102
{ACAD_REACTORS
330
19
102
}
330
19
100
AcDbDictionary
281
     1
  3
Standard
350
1C
  0
DICTIONARY
  5
22
102
{ACAD_REACTORS
330
19
102
}
330
19
100
AcDbDictionary
281
     1
  0
ACDBDICTIONARYWDFLT
  5
1F
102
{ACAD_REACTORS
330
19
102
}
330
19
100
AcDbDictionary
281
     1
  3
Normal
350
1D
100
AcDbDictionaryWithDefault
340
1D
  0
DICTIONARY
  5
141
102
{ACAD_REACTORS
330
19
102
}
330
19
100
AcDbDictionary
281
     1
  3
A0
350
142
  3
A1
350
143
  3
A2
350
144
  3
A3
350
145
  3
A4
350
146
  3
A5
350
147
  3
A6
350
148
  3
A7
350
149
  3
A8
350
14A
  3
A9
350
14B
  3
B0
350
14C
  3
B1
350
14D
  3
B2
350
14E
  3
B3
350
14F
  3
B4
350
150
  3
B5
350
151
  3
B6
350
152
  3
B7
350
153
  3
B8
350
154
  3
B9
350
155
  3
C0
350
156
  3
C1
350
157
  3
C2
350
158
  3
C3
350
159
  3
C4
350
15A
  3
C5
350
15B
  3
C6
350
15C
  3
C7
350
15D
  3
C8
350
15E
  3
C9
350
15F
  3
D0
350
160
  3
D1
350
161
  3
D2
350
162
  0
DICTIONARY
  5
1BB
102
{ACAD_REACTORS
330
19
102
}
330
19
100
AcDbDictionary
281
     1
  3
Standard
350
1BC
  0
DICTIONARY
  5
1A6
102
{ACAD_REACTORS
330
19
102
}
330
19
100
AcDbDictionary
281
     1
  3
2dWireframe
350
1AC
  3
3D Hidden
350
1AE
  3
3dWireframe
350
1AD
  3
Basic
350
1AB
  3
Brighten
350
1B2
  3
ColorChange
350
1B6
  3
Conceptual
350
1AF
  3
Dim
350
1B1
  3
EdgeColorOff
350
1B9
  3
Facepattern
350
1B5
  3
Flat
350
1A7
  3
FlatWithEdges
350
1A8
  3
Gouraud
350
1A9
  3
GouraudWithEdges
350
1AA
  3
JitterOff
350
1B7
  3
Linepattern
350
1B4
  3
OverhangOff
350
1B8
  3
Realistic
350
1B0
  3
Thicken
350
1B3
  0
WIPEOUTVARIABLES
  5
23
330
19
100
AcDbWipeoutVariables
 70
     1
  0
XRECORD
  5
1E0
102
{ACAD_REACTORS
330
19
102
}
330
19
100
AcDbXrecord
280
     1
 90
        1
330
1BC
  0
DICTIONARY
  5
17D
102
{ACAD_REACTORS
330
19
102
}
330
19
100
AcDbDictionary
281
     1
  3
CANNOSCALE
350
17E
  3
CMLEADERSTYLE
350
1D9
  3
CTABLESTYLE
350
1D8
  3
DIMASSOC
350
1DC
  3
INDEXCTL
350
1DB
  3
SORTENTS
350
1DA
  3
XCLIPFRAME
350
1DD
  0
DICTIONARY
  5
1D5
102
{ACAD_REACTORS
330
19
102
}
330
19
100
AcDbDictionary
281
     1
  3
ASEBlockHierarchyIndexRecord
350
1D7
1001
DCO15
1040
1871111858.885
  0
XRECORD
  5
1E1
102
{ACAD_REACTORS
330
19
102
}
330
19
100
AcDbXrecord
280
     1
  1
DWGPROPS COOKIE
  2

  3

  4

  6

  7

  8
tdm012
  9

300
=
301
=
302
=
303
=
304
=
305
=
306
=
307
=
308
=
309
=
 40
0.0003477199074074
 41
2457459.598759988
 42
2457459.599107465
  1

 90
        0
  0
XRECORD
  5
1C1
102
{ACAD_REACTORS
330
1C0
102
}
330
1C0
100
AcDbXrecord
280
     1
290
     1
  0
XRECORD
  5
1C3
102
{ACAD_REACTORS
330
1C2
102
}
330
1C2
100
AcDbXrecord
280
     1
290
     1
  0
XRECORD
  5
1C5
102
{ACAD_REACTORS
330
1C4
102
}
330
1C4
100
AcDbXrecord
280
     1
290
     1
  0
XRECORD
  5
1C7
102
{ACAD_REACTORS
330
1C6
102
}
330
1C6
100
AcDbXrecord
280
     1
290
     1
  0
XRECORD
  5
1C9
102
{ACAD_REACTORS
330
1C8
102
}
330
1C8
100
AcDbXrecord
280
     1
290
     1
  0
XRECORD
  5
1CB
102
{ACAD_REACTORS
330
1CA
102
}
330
1CA
100
AcDbXrecord
280
     1
290
     1
  0
XRECORD
  5
1CD
102
{ACAD_REACTORS
330
1CC
102
}
330
1CC
100
AcDbXrecord
280
     1
290
     1
  0
XRECORD
  5
1CF
102
{ACAD_REACTORS
330
1CE
102
}
330
1CE
100
AcDbXrecord
280
     1
290
     1
  0
XRECORD
  5
1D1
102
{ACAD_REACTORS
330
1D0
102
}
330
1D0
100
AcDbXrecord
280
     1
290
     1
  0
XRECORD
  5
1D3
102
{ACAD_REACTORS
330
1D2
102
}
330
1D2
100
AcDbXrecord
280
     1
290
     1
  0
LAYOUT
  5
21
102
{ACAD_XDICTIONARY
360
1E4
102
}
102
{ACAD_REACTORS
330
1E
102
}
330
1E
100
AcDbPlotSettings
  1

  2

  4

  6

 40
0.0
 41
0.0
 42
0.0
 43
0.0
 44
0.0
 45
0.0
 46
0.0
 47
0.0
 48
0.0
 49
0.0
140
0.0
141
0.0
142
1.0
143
1.0
 70
     0
 72
     0
 73
     0
 74
     0
  7

 75
     0
147
1.0
148
0.0
149
0.0
100
AcDbLayout
  1
Layout1
 70
     0
 71
     1
 10
-0.5
 20
-0.5
 11
5.0
 21
5.0
 12
0.0
 22
0.0
 32
0.0
 14
-0.5
 24
-0.5
 34
-0.5
 15
5.0
 25
5.0
 35
5.0
146
0.0
 13
0.0
 23
0.0
 33
0.0
 16
1.0
 26
0.0
 36
0.0
 17
0.0
 27
1.0
 37
0.0
 76
     0
330
B
  0
LAYOUT
  5
20
102
{ACAD_XDICTIONARY
360
1E2
102
}
102
{ACAD_REACTORS
330
1E
102
}
330
1E
100
AcDbPlotSettings
  1

  2

  4

  6

 40
0.0
 41
0.0
 42
0.0
 43
0.0
 44
0.0
 45
0.0
 46
0.0
 47
0.0
 48
0.0
 49
0.0
140
0.0
141
0.0
142
1.0
143
1.0
 70
  1024
 72
     0
 73
     0
 74
     0
  7

 75
     0
147
1.0
148
0.0
149
0.0
100
AcDbLayout
  1
Model
 70
     0
 71
     0
 10
0.0
 20
0.0
 11
0.0
 21
0.0
 12
0.0
 22
0.0
 32
0.0
 14
-58.83260433333334
 24
-50.453125
 34
-0.0000000000000001
 15
74.2125
 25
96.83260433333334
 35
0.0000000000000003
146
0.0
 13
0.0
 23
0.0
 33
0.0
 16
0.0
 26
0.0
 36
0.0
 17
0.0
 27
0.0
 37
0.0
 76
     0
330
A
331
131
  0
MATERIAL
  5
196
102
{ACAD_XDICTIONARY
360
197
102
}
102
{ACAD_REACTORS
330
18D
102
}
330
18D
100
AcDbMaterial
  1
ByBlock
 72
     0
 43
0.0208333333333333
 43
0.0
 43
0.0
 43
0.0
 43
0.0
 43
0.0208333333333333
 43
0.0
 43
0.0
 43
0.0
 43
0.0
 43
1.0
 43
0.0
 43
0.0
 43
0.0
 43
0.0
 43
1.0
 77
     0
 47
0.0208333333333333
 47
0.0
 47
0.0
 47
0.0
 47
0.0
 47
0.0208333333333333
 47
0.0
 47
0.0
 47
0.0
 47
0.0
 47
1.0
 47
0.0
 47
0.0
 47
0.0
 47
0.0
 47
1.0
171
     0
 49
0.0208333333333333
 49
0.0
 49
0.0
 49
0.0
 49
0.0
 49
0.0208333333333333
 49
0.0
 49
0.0
 49
0.0
 49
0.0
 49
1.0
 49
0.0
 49
0.0
 49
0.0
 49
0.0
 49
1.0
175
     0
142
0.0208333333333333
142
0.0
142
0.0
142
0.0
142
0.0
142
0.0208333333333333
142
0.0
142
0.0
142
0.0
142
0.0
142
1.0
142
0.0
142
0.0
142
0.0
142
0.0
142
1.0
179
     0
144
0.0208333333333333
144
0.0
144
0.0
144
0.0
144
0.0
144
0.0208333333333333
144
0.0
144
0.0
144
0.0
144
0.0
144
1.0
144
0.0
144
0.0
144
0.0
144
0.0
144
1.0
147
0.0208333333333333
147
0.0
147
0.0
147
0.0
147
0.0
147
0.0208333333333333
147
0.0
147
0.0
147
0.0
147
0.0
147
1.0
147
0.0
147
0.0
147
0.0
147
0.0
147
1.0
  0
MATERIAL
  5
18E
102
{ACAD_XDICTIONARY
360
18F
102
}
102
{ACAD_REACTORS
330
18D
102
}
330
18D
100
AcDbMaterial
  1
ByLayer
 72
     0
 43
0.0208333333333333
 43
0.0
 43
0.0
 43
0.0
 43
0.0
 43
0.0208333333333333
 43
0.0
 43
0.0
 43
0.0
 43
0.0
 43
1.0
 43
0.0
 43
0.0
 43
0.0
 43
0.0
 43
1.0
 77
     0
 47
0.0208333333333333
 47
0.0
 47
0.0
 47
0.0
 47
0.0
 47
0.0208333333333333
 47
0.0
 47
0.0
 47
0.0
 47
0.0
 47
1.0
 47
0.0
 47
0.0
 47
0.0
 47
0.0
 47
1.0
171
     0
 49
0.0208333333333333
 49
0.0
 49
0.0
 49
0.0
 49
0.0
 49
0.0208333333333333
 49
0.0
 49
0.0
 49
0.0
 49
0.0
 49
1.0
 49
0.0
 49
0.0
 49
0.0
 49
0.0
 49
1.0
175
     0
142
0.0208333333333333
142
0.0
142
0.0
142
0.0
142
0.0
142
0.0208333333333333
142
0.0
142
0.0
142
0.0
142
0.0
142
1.0
142
0.0
142
0.0
142
0.0
142
0.0
142
1.0
179
     0
144
0.0208333333333333
144
0.0
144
0.0
144
0.0
144
0.0
144
0.0208333333333333
144
0.0
144
0.0
144
0.0
144
0.0
144
1.0
144
0.0
144
0.0
144
0.0
144
0.0
144
1.0
147
0.0208333333333333
147
0.0
147
0.0
147
0.0
147
0.0
147
0.0208333333333333
147
0.0
147
0.0
147
0.0
147
0.0
147
1.0
147
0.0
147
0.0
147
0.0
147
0.0
147
1.0
  0
MATERIAL
  5
19E
102
{ACAD_XDICTIONARY
360
19F
102
}
102
{ACAD_REACTORS
330
18D
102
}
330
18D
100
AcDbMaterial
  1
Global
 72
     0
 43
0.0208333333333333
 43
0.0
 43
0.0
 43
0.0
 43
0.0
 43
0.0208333333333333
 43
0.0
 43
0.0
 43
0.0
 43
0.0
 43
1.0
 43
0.0
 43
0.0
 43
0.0
 43
0.0
 43
1.0
 77
     0
 47
0.0208333333333333
 47
0.0
 47
0.0
 47
0.0
 47
0.0
 47
0.0208333333333333
 47
0.0
 47
0.0
 47
0.0
 47
0.0
 47
1.0
 47
0.0
 47
0.0
 47
0.0
 47
0.0
 47
1.0
171
     0
 49
0.0208333333333333
 49
0.0
 49
0.0
 49
0.0
 49
0.0
 49
0.0208333333333333
 49
0.0
 49
0.0
 49
0.0
 49
0.0
 49
1.0
 49
0.0
 49
0.0
 49
0.0
 49
0.0
 49
1.0
175
     0
142
0.0208333333333333
142
0.0
142
0.0
142
0.0
142
0.0
142
0.0208333333333333
142
0.0
142
0.0
142
0.0
142
0.0
142
1.0
142
0.0
142
0.0
142
0.0
142
0.0
142
1.0
179
     0
144
0.0208333333333333
144
0.0
144
0.0
144
0.0
144
0.0
144
0.0208333333333333
144
0.0
144
0.0
144
0.0
144
0.0
144
1.0
144
0.0
144
0.0
144
0.0
144
0.0
144
1.0
147
0.0208333333333333
147
0.0
147
0.0
147
0.0
147
0.0
147
0.0208333333333333
147
0.0
147
0.0
147
0.0
147
0.0
147
1.0
147
0.0
147
0.0
147
0.0
147
0.0
147
1.0
  0
MLEADERSTYLE
  5
1BD
102
{ACAD_REACTORS
330
180
102
}
330
180
100
AcDbMLeaderStyle
170
     2
171
     1
172
     0
 90
        2
 40
0.0
 41
0.0
173
     1
 91
-1056964608
340
11
 92
       -2
290
     1
 42
2.0
291
     1
 43
0.36
  3
Standard
 44
4.0
300

342
17
174
     1
178
     6
175
     1
176
     0
 93
-1056964608
 45
4.0
292
     0
297
     0
 46
4.0
 94
-1056964608
 47
1.0
 49
1.0
140
1.0
293
     1
141
0.0
294
     1
177
     0
142
1.0
295
     0
296
     0
143
0.125
1001
ACAD_MLEADERVER
1070
     2
  0
MLINESTYLE
  5
1C
102
{ACAD_REACTORS
330
1B
102
}
330
1B
100
AcDbMlineStyle
  2
STANDARD
 70
     0
  3

 62
     0
 51
90.0
 52
90.0
 71
     2
 49
0.5
 62
   256
  6
BYLAYER
 49
-0.5
 62
   256
  6
BYLAYER
  0
ACDBPLACEHOLDER
  5
1D
102
{ACAD_REACTORS
330
1F
102
}
330
1F
  0
SCALE
  5
142
102
{ACAD_REACTORS
330
141
102
}
330
141
100
AcDbScale
 70
     0
300
1:1
140
1.0
141
1.0
290
     1
  0
SCALE
  5
143
102
{ACAD_REACTORS
330
141
102
}
330
141
100
AcDbScale
 70
     0
300
1:2
140
1.0
141
2.0
290
     0
  0
SCALE
  5
144
102
{ACAD_REACTORS
330
141
102
}
330
141
100
AcDbScale
 70
     0
300
1:4
140
1.0
141
4.0
290
     0
  0
SCALE
  5
145
102
{ACAD_REACTORS
330
141
102
}
330
141
100
AcDbScale
 70
     0
300
1:5
140
1.0
141
5.0
290
     0
  0
SCALE
  5
146
102
{ACAD_REACTORS
330
141
102
}
330
141
100
AcDbScale
 70
     0
300
1:8
140
1.0
141
8.0
290
     0
  0
SCALE
  5
147
102
{ACAD_REACTORS
330
141
102
}
330
141
100
AcDbScale
 70
     0
300
1:10
140
1.0
141
10.0
290
     0
  0
SCALE
  5
148
102
{ACAD_REACTORS
330
141
102
}
330
141
100
AcDbScale
 70
     0
300
1:16
140
1.0
141
16.0
290
     0
  0
SCALE
  5
149
102
{ACAD_REACTORS
330
141
102
}
330
141
100
AcDbScale
 70
     0
300
1:20
140
1.0
141
20.0
290
     0
  0
SCALE
  5
14A
102
{ACAD_REACTORS
330
141
102
}
330
141
100
AcDbScale
 70
     0
300
1:30
140
1.0
141
30.0
290
     0
  0
SCALE
  5
14B
102
{ACAD_REACTORS
330
141
102
}
330
141
100
AcDbScale
 70
     0
300
1:40
140
1.0
141
40.0
290
     0
  0
SCALE
  5
14C
102
{ACAD_REACTORS
330
141
102
}
330
141
100
AcDbScale
 70
     0
300
1:50
140
1.0
141
50.0
290
     0
  0
SCALE
  5
14D
102
{ACAD_REACTORS
330
141
102
}
330
141
100
AcDbScale
 70
     0
300
1:100
140
1.0
141
100.0
290
     0
  0
SCALE
  5
14E
102
{ACAD_REACTORS
330
141
102
}
330
141
100
AcDbScale
 70
     0
300
2:1
140
2.0
141
1.0
290
     0
  0
SCALE
  5
14F
102
{ACAD_REACTORS
330
141
102
}
330
141
100
AcDbScale
 70
     0
300
4:1
140
4.0
141
1.0
290
     0
  0
SCALE
  5
150
102
{ACAD_REACTORS
330
141
102
}
330
141
100
AcDbScale
 70
     0
300
8:1
140
8.0
141
1.0
290
     0
  0
SCALE
  5
151
102
{ACAD_REACTORS
330
141
102
}
330
141
100
AcDbScale
 70
     0
300
10:1
140
10.0
141
1.0
290
     0
  0
SCALE
  5
152
102
{ACAD_REACTORS
330
141
102
}
330
141
100
AcDbScale
 70
     0
300
100:1
140
100.0
141
1.0
290
     0
  0
SCALE
  5
153
102
{ACAD_REACTORS
330
141
102
}
330
141
100
AcDbScale
 70
     0
300
1/128" = 1'-0"
140
0.0078125
141
12.0
290
     0
  0
SCALE
  5
154
102
{ACAD_REACTORS
330
141
102
}
330
141
100
AcDbScale
 70
     0
300
1/64" = 1'-0"
140
0.015625
141
12.0
290
     0
  0
SCALE
  5
155
102
{ACAD_REACTORS
330
141
102
}
330
141
100
AcDbScale
 70
     0
300
1/32" = 1'-0"
140
0.03125
141
12.0
290
     0
  0
SCALE
  5
156
102
{ACAD_REACTORS
330
141
102
}
330
141
100
AcDbScale
 70
     0
300
1/16" = 1'-0"
140
0.0625
141
12.0
290
     0
  0
SCALE
  5
157
102
{ACAD_REACTORS
330
141
102
}
330
141
100
AcDbScale
 70
     0
300
3/32" = 1'-0"
140
0.09375
141
12.0
290
     0
  0
SCALE
  5
158
102
{ACAD_REACTORS
330
141
102
}
330
141
100
AcDbScale
 70
     0
300
1/8" = 1'-0"
140
0.125
141
12.0
290
     0
  0
SCALE
  5
159
102
{ACAD_REACTORS
330
141
102
}
330
141
100
AcDbScale
 70
     0
300
3/16" = 1'-0"
140
0.1875
141
12.0
290
     0
  0
SCALE
  5
15A
102
{ACAD_REACTORS
330
141
102
}
330
141
100
AcDbScale
 70
     0
300
1/4" = 1'-0"
140
0.25
141
12.0
290
     0
  0
SCALE
  5
15B
102
{ACAD_REACTORS
330
141
102
}
330
141
100
AcDbScale
 70
     0
300
3/8" = 1'-0"
140
0.375
141
12.0
290
     0
  0
SCALE
  5
15C
102
{ACAD_REACTORS
330
141
102
}
330
141
100
AcDbScale
 70
     0
300
1/2" = 1'-0"
140
0.5
141
12.0
290
     0
  0
SCALE
  5
15D
102
{ACAD_REACTORS
330
141
102
}
330
141
100
AcDbScale
 70
     0
300
3/4" = 1'-0"
140
0.75
141
12.0
290
     0
  0
SCALE
  5
15E
102
{ACAD_REACTORS
330
141
102
}
330
141
100
AcDbScale
 70
     0
300
1" = 1'-0"
140
1.0
141
12.0
290
     0
  0
SCALE
  5
15F
102
{ACAD_REACTORS
330
141
102
}
330
141
100
AcDbScale
 70
     0
300
1-1/2" = 1'-0"
140
1.5
141
12.0
290
     0
  0
SCALE
  5
160
102
{ACAD_REACTORS
330
141
102
}
330
141
100
AcDbScale
 70
     0
300
3" = 1'-0"
140
3.0
141
12.0
290
     0
  0
SCALE
  5
161
102
{ACAD_REACTORS
330
141
102
}
330
141
100
AcDbScale
 70
     0
300
6" = 1'-0"
140
6.0
141
12.0
290
     0
  0
SCALE
  5
162
102
{ACAD_REACTORS
330
141
102
}
330
141
100
AcDbScale
 70
     0
300
1'-0" = 1'-0"
140
12.0
141
12.0
290
     0
  0
TABLESTYLE
  5
1BC
102
{ACAD_XDICTIONARY
360
1DE
102
}
102
{ACAD_REACTORS
330
1BB
102
}
330
1BB
100
AcDbTableStyle
  3
Standard
 70
     0
 71
     0
 40
1.5
 41
1.5
280
     0
281
     0
  7
Standard
140
4.5
170
     2
 62
     0
 63
     7
283
     0
274
    -2
284
     1
 64
     0
275
    -2
285
     1
 65
     0
276
    -2
286
     1
 66
     0
277
    -2
287
     1
 67
     0
278
    -2
288
     1
 68
     0
279
    -2
289
     1
 69
     0
  7
Standard
140
6.0
170
     5
 62
     0
 63
     7
283
     0
274
    -2
284
     1
 64
     0
275
    -2
285
     1
 65
     0
276
    -2
286
     1
 66
     0
277
    -2
287
     1
 67
     0
278
    -2
288
     1
 68
     0
279
    -2
289
     1
 69
     0
  7
Standard
140
4.5
170
     5
 62
     0
 63
     7
283
     0
274
    -2
284
     1
 64
     0
275
    -2
285
     1
 65
     0
276
    -2
286
     1
 66
     0
277
    -2
287
     1
 67
     0
278
    -2
288
     1
 68
     0
279
    -2
289
     1
 69
     0
  0
VISUALSTYLE
  5
1AC
102
{ACAD_XDICTIONARY
360
1F3
102
}
102
{ACAD_REACTORS
330
1A6
102
}
330
1A6
100
AcDbVisualStyle
  2
2dWireframe
 70
     4
 71
     0
 72
     2
 73
     0
 90
        0
 40
-0.6
 41
-30.0
 62
     5
 63
     7
 74
     1
 91
        4
 64
     7
 65
   257
 75
     1
175
     1
 42
1.0
 92
        0
 66
   257
 43
1.0
 76
     1
 77
     6
 78
     2
 67
     7
 79
     5
170
     0
171
     0
290
     0
174
     0
 93
        1
 44
0.0
173
     0
291
     0
 45
0.0
1001
ACAD
1000
AcDbSavedByObjectVersion
1070
     0
  0
VISUALSTYLE
  5
1AE
102
{ACAD_XDICTIONARY
360
1F7
102
}
102
{ACAD_REACTORS
330
1A6
102
}
330
1A6
100
AcDbVisualStyle
  2
3D Hidden
 70
     6
 71
     1
 72
     2
 73
     2
 90
        0
 40
-0.6
 41
-30.0
 62
     5
 63
     7
 74
     2
 91
        2
 64
     7
 65
   257
 75
     2
175
     1
 42
179.0
 92
        0
 66
   257
 43
1.0
 76
     1
 77
     6
 78
     2
 67
     7
 79
     3
170
     0
171
     0
290
     0
174
     0
 93
        1
 44
0.0
173
     0
291
     0
 45
0.0
1001
ACAD
1000
AcDbSavedByObjectVersion
1070
     0
  0
VISUALSTYLE
  5
1AD
102
{ACAD_XDICTIONARY
360
1F5
102
}
102
{ACAD_REACTORS
330
1A6
102
}
330
1A6
100
AcDbVisualStyle
  2
3dWireframe
 70
     5
 71
     0
 72
     2
 73
     0
 90
        0
 40
-0.6
 41
-30.0
 62
     5
 63
     7
 74
     1
 91
        4
 64
     7
 65
   257
 75
     1
175
     1
 42
1.0
 92
        0
 66
   257
 43
1.0
 76
     1
 77
     6
 78
     2
 67
     7
 79
     5
170
     0
171
     0
290
     0
174
     0
 93
        1
 44
0.0
173
     0
291
     0
 45
0.0
1001
ACAD
1000
AcDbSavedByObjectVersion
1070
     0
  0
VISUALSTYLE
  5
1AB
102
{ACAD_XDICTIONARY
360
1F1
102
}
102
{ACAD_REACTORS
330
1A6
102
}
330
1A6
100
AcDbVisualStyle
  2
Basic
 70
     7
 71
     1
 72
     0
 73
     1
 90
        0
 40
-0.6
 41
-30.0
 62
     5
 63
     7
 74
     0
 91
        4
 64
     7
 65
   257
 75
     1
175
     1
 42
1.0
 92
        8
 66
     7
 43
1.0
 76
     1
 77
     6
 78
     2
 67
     7
 79
     5
170
     0
171
     0
290
     0
174
     0
 93
        1
 44
0.0
173
     0
291
     1
 45
0.0
1001
ACAD
1000
AcDbSavedByObjectVersion
1070
     0
  0
VISUALSTYLE
  5
1B2
102
{ACAD_XDICTIONARY
360
1FF
102
}
102
{ACAD_REACTORS
330
1A6
102
}
330
1A6
100
AcDbVisualStyle
  2
Brighten
 70
    12
 71
     2
 72
     2
 73
     0
 90
        0
 40
-0.6
 41
-30.0
 62
     5
 63
     7
 74
     1
 91
        4
 64
     7
 65
   257
 75
     1
175
     1
 42
1.0
 92
        8
 66
     7
 43
1.0
 76
     1
 77
     6
 78
     2
 67
     7
 79
     5
170
     0
171
     0
290
     0
174
     0
 93
        1
 44
50.0
173
     0
291
     1
 45
0.0
1001
ACAD
1000
AcDbSavedByObjectVersion
1070
     0
  0
VISUALSTYLE
  5
1B6
102
{ACAD_XDICTIONARY
360
207
102
}
102
{ACAD_REACTORS
330
1A6
102
}
330
1A6
100
AcDbVisualStyle
  2
ColorChange
 70
    16
 71
     2
 72
     2
 73
     3
 90
        0
 40
-0.6
 41
-30.0
 62
     5
 63
     8
 74
     1
 91
        4
 64
     7
 65
   257
 75
     1
175
     1
 42
1.0
 92
        8
 66
     8
 43
1.0
 76
     1
 77
     6
 78
     2
 67
     7
 79
     5
170
     0
171
     0
290
     0
174
     0
 93
        1
 44
0.0
173
     0
291
     1
 45
0.0
1001
ACAD
1000
AcDbSavedByObjectVersion
1070
     0
  0
VISUALSTYLE
  5
1AF
102
{ACAD_XDICTIONARY
360
1F9
102
}
102
{ACAD_REACTORS
330
1A6
102
}
330
1A6
100
AcDbVisualStyle
  2
Conceptual
 70
     9
 71
     3
 72
     2
 73
     0
 90
        0
 40
-0.6
 41
-30.0
 62
     5
 63
     7
 74
     2
 91
        2
 64
     7
 65
   257
 75
     1
175
     1
 42
179.0
 92
        8
 66
     7
 43
1.0
 76
     1
 77
     6
 78
     2
 67
     7
 79
     3
170
     0
171
     0
290
     0
174
     0
 93
        1
 44
0.0
173
     0
291
     0
 45
0.0
1001
ACAD
1000
AcDbSavedByObjectVersion
1070
     0
  0
VISUALSTYLE
  5
1B1
102
{ACAD_XDICTIONARY
360
1FD
102
}
102
{ACAD_REACTORS
330
1A6
102
}
330
1A6
100
AcDbVisualStyle
  2
Dim
 70
    11
 71
     2
 72
     2
 73
     0
 90
        0
 40
-0.6
 41
-30.0
 62
     5
 63
     7
 74
     1
 91
        4
 64
     7
 65
   257
 75
     1
175
     1
 42
1.0
 92
        8
 66
     7
 43
1.0
 76
     1
 77
     6
 78
     2
 67
     7
 79
     5
170
     0
171
     0
290
     0
174
     0
 93
        1
 44
-50.0
173
     0
291
     1
 45
0.0
1001
ACAD
1000
AcDbSavedByObjectVersion
1070
     0
  0
VISUALSTYLE
  5
1B9
102
{ACAD_XDICTIONARY
360
20D
102
}
102
{ACAD_REACTORS
330
1A6
102
}
330
1A6
100
AcDbVisualStyle
  2
EdgeColorOff
 70
    22
 71
     2
 72
     2
 73
     0
 90
        0
 40
-0.6
 41
-30.0
 62
     5
 63
     7
 74
     1
 91
        4
 64
     7
 65
   257
 75
     1
175
     1
 42
1.0
 92
        8
 66
     7
 43
1.0
 76
     1
 77
     6
 78
     2
 67
     7
 79
     5
170
     0
171
     0
290
     0
174
     0
 93
        1
 44
0.0
173
     0
291
     1
 45
0.0
1001
ACAD
1000
AcDbSavedByObjectVersion
1070
     0
  0
VISUALSTYLE
  5
1B5
102
{ACAD_XDICTIONARY
360
205
102
}
102
{ACAD_REACTORS
330
1A6
102
}
330
1A6
100
AcDbVisualStyle
  2
Facepattern
 70
    15
 71
     2
 72
     2
 73
     0
 90
        0
 40
-0.6
 41
-30.0
 62
     5
 63
     7
 74
     1
 91
        4
 64
     7
 65
   257
 75
     1
175
     1
 42
1.0
 92
        8
 66
     7
 43
1.0
 76
     1
 77
     6
 78
     2
 67
     7
 79
     5
170
     0
171
     0
290
     0
174
     0
 93
        1
 44
0.0
173
     0
291
     1
 45
0.0
1001
ACAD
1000
AcDbSavedByObjectVersion
1070
     0
  0
VISUALSTYLE
  5
1A7
102
{ACAD_XDICTIONARY
360
1E9
102
}
102
{ACAD_REACTORS
330
1A6
102
}
330
1A6
100
AcDbVisualStyle
  2
Flat
 70
     0
 71
     2
 72
     1
 73
     1
 90
        2
 40
-0.6
 41
30.0
 62
     5
 63
     7
 74
     0
 91
        4
 64
     7
 65
   257
 75
     1
175
     1
 42
1.0
 92
        8
 66
     7
 43
1.0
 76
     1
 77
     6
 78
     2
 67
     7
 79
     5
170
     0
171
     0
290
     0
174
     0
 93
       13
 44
0.0
173
     0
291
     1
 45
0.0
1001
ACAD
1000
AcDbSavedByObjectVersion
1070
     0
  0
VISUALSTYLE
  5
1A8
102
{ACAD_XDICTIONARY
360
1EB
102
}
102
{ACAD_REACTORS
330
1A6
102
}
330
1A6
100
AcDbVisualStyle
  2
FlatWithEdges
 70
     1
 71
     2
 72
     1
 73
     1
 90
        2
 40
-0.6
 41
30.0
 62
     5
 63
     7
 74
     1
 91
        4
 64
     7
 65
   257
 75
     1
175
     1
 42
1.0
 92
        0
 66
   257
 43
1.0
 76
     1
 77
     6
 78
     2
 67
     7
 79
     5
170
     0
171
     0
290
     0
174
     0
 93
       13
 44
0.0
173
     0
291
     1
 45
0.0
1001
ACAD
1000
AcDbSavedByObjectVersion
1070
     0
  0
VISUALSTYLE
  5
1A9
102
{ACAD_XDICTIONARY
360
1ED
102
}
102
{ACAD_REACTORS
330
1A6
102
}
330
1A6
100
AcDbVisualStyle
  2
Gouraud
 70
     2
 71
     2
 72
     2
 73
     1
 90
        2
 40
-0.6
 41
30.0
 62
     5
 63
     7
 74
     0
 91
        4
 64
     7
 65
   257
 75
     1
175
     1
 42
1.0
 92
        0
 66
     7
 43
1.0
 76
     1
 77
     6
 78
     2
 67
     7
 79
     5
170
     0
171
     0
290
     0
174
     0
 93
       13
 44
0.0
173
     0
291
     1
 45
0.0
1001
ACAD
1000
AcDbSavedByObjectVersion
1070
     0
  0
VISUALSTYLE
  5
1AA
102
{ACAD_XDICTIONARY
360
1EF
102
}
102
{ACAD_REACTORS
330
1A6
102
}
330
1A6
100
AcDbVisualStyle
  2
GouraudWithEdges
 70
     3
 71
     2
 72
     2
 73
     1
 90
        2
 40
-0.6
 41
30.0
 62
     5
 63
     7
 74
     1
 91
        4
 64
     7
 65
   257
 75
     1
175
     1
 42
1.0
 92
        0
 66
   257
 43
1.0
 76
     1
 77
     6
 78
     2
 67
     7
 79
     5
170
     0
171
     0
290
     0
174
     0
 93
       13
 44
0.0
173
     0
291
     1
 45
0.0
1001
ACAD
1000
AcDbSavedByObjectVersion
1070
     0
  0
VISUALSTYLE
  5
1B7
102
{ACAD_XDICTIONARY
360
209
102
}
102
{ACAD_REACTORS
330
1A6
102
}
330
1A6
100
AcDbVisualStyle
  2
JitterOff
 70
    20
 71
     2
 72
     2
 73
     0
 90
        0
 40
-0.6
 41
-30.0
 62
     5
 63
     7
 74
     1
 91
        4
 64
     7
 65
   257
 75
     1
175
     1
 42
1.0
 92
       10
 66
     7
 43
1.0
 76
     1
 77
     6
 78
     2
 67
     7
 79
     5
170
     0
171
     0
290
     0
174
     0
 93
        1
 44
0.0
173
     0
291
     1
 45
0.0
1001
ACAD
1000
AcDbSavedByObjectVersion
1070
     0
  0
VISUALSTYLE
  5
1B4
102
{ACAD_XDICTIONARY
360
203
102
}
102
{ACAD_REACTORS
330
1A6
102
}
330
1A6
100
AcDbVisualStyle
  2
Linepattern
 70
    14
 71
     2
 72
     2
 73
     0
 90
        0
 40
-0.6
 41
-30.0
 62
     5
 63
     7
 74
     1
 91
        4
 64
     7
 65
   257
 75
     7
175
     7
 42
1.0
 92
        8
 66
     7
 43
1.0
 76
     1
 77
     6
 78
     2
 67
     7
 79
     5
170
     0
171
     0
290
     0
174
     0
 93
        1
 44
0.0
173
     0
291
     1
 45
0.0
1001
ACAD
1000
AcDbSavedByObjectVersion
1070
     0
  0
VISUALSTYLE
  5
1B8
102
{ACAD_XDICTIONARY
360
20B
102
}
102
{ACAD_REACTORS
330
1A6
102
}
330
1A6
100
AcDbVisualStyle
  2
OverhangOff
 70
    21
 71
     2
 72
     2
 73
     0
 90
        0
 40
-0.6
 41
-30.0
 62
     5
 63
     7
 74
     1
 91
        4
 64
     7
 65
   257
 75
     1
175
     1
 42
1.0
 92
        9
 66
     7
 43
1.0
 76
     1
 77
     6
 78
     2
 67
     7
 79
     5
170
     0
171
     0
290
     0
174
     0
 93
        1
 44
0.0
173
     0
291
     1
 45
0.0
1001
ACAD
1000
AcDbSavedByObjectVersion
1070
     0
  0
VISUALSTYLE
  5
1B0
102
{ACAD_XDICTIONARY
360
1FB
102
}
102
{ACAD_REACTORS
330
1A6
102
}
330
1A6
100
AcDbVisualStyle
  2
Realistic
 70
     8
 71
     2
 72
     2
 73
     0
 90
        0
 40
-0.6
 41
-30.0
 62
     5
 63
     7
 74
     1
 91
        0
 64
     7
 65
   257
 75
     1
175
     1
 42
1.0
 92
        8
 66
     8
 43
1.0
 76
     1
 77
     6
 78
     2
 67
     7
 79
     5
170
     0
171
     0
290
     0
174
     0
 93
       13
 44
0.0
173
     0
291
     0
 45
0.0
1001
ACAD
1000
AcDbSavedByObjectVersion
1070
     0
  0
VISUALSTYLE
  5
1B3
102
{ACAD_XDICTIONARY
360
201
102
}
102
{ACAD_REACTORS
330
1A6
102
}
330
1A6
100
AcDbVisualStyle
  2
Thicken
 70
    13
 71
     2
 72
     2
 73
     0
 90
        0
 40
-0.6
 41
-30.0
 62
     5
 63
     7
 74
     1
 91
        4
 64
     7
 65
   257
 75
     1
175
     1
 42
1.0
 92
       12
 66
     7
 43
1.0
 76
     1
 77
     6
 78
     2
 67
     7
 79
     5
170
     0
171
     0
290
     0
174
     0
 93
        1
 44
0.0
173
     0
291
     1
 45
0.0
1001
ACAD
1000
AcDbSavedByObjectVersion
1070
     0
  0
DICTIONARYVAR
  5
17E
102
{ACAD_REACTORS
330
17D
102
}
330
17D
100
DictionaryVariables
280
     0
  1
1:1
  0
DICTIONARYVAR
  5
1D9
102
{ACAD_REACTORS
330
17D
102
}
330
17D
100
DictionaryVariables
280
     0
  1
STANDARD
  0
DICTIONARYVAR
  5
1D8
102
{ACAD_REACTORS
330
17D
102
}
330
17D
100
DictionaryVariables
280
     0
  1
STANDARD
  0
DICTIONARYVAR
  5
1DC
102
{ACAD_REACTORS
330
17D
102
}
330
17D
100
DictionaryVariables
280
     0
  1
1
  0
DICTIONARYVAR
  5
1DB
102
{ACAD_REACTORS
330
17D
102
}
330
17D
100
DictionaryVariables
280
     0
  1
0
  0
DICTIONARYVAR
  5
1DA
102
{ACAD_REACTORS
330
17D
102
}
330
17D
100
DictionaryVariables
280
     0
  1
127
  0
DICTIONARYVAR
  5
1DD
102
{ACAD_REACTORS
330
17D
102
}
330
17D
100
DictionaryVariables
280
     0
  1
2
  0
XRECORD
  5
1D7
102
{ACAD_REACTORS
330
1D5
102
}
330
1D5
100
AcDbXrecord
280
     1
  0
DICTIONARY
  5
1E4
330
21
100
AcDbDictionary
280
     1
281
     1
  3
ACAD_XREC_ROUNDTRIP
360
1E5
  0
DICTIONARY
  5
1E2
330
20
100
AcDbDictionary
280
     1
281
     1
  3
ACAD_XREC_ROUNDTRIP
360
1E3
  0
DICTIONARY
  5
197
330
196
100
AcDbDictionary
280
     1
281
     1
  3
ACAD_XREC_ROUNDTRIP
360
1E7
  3
BUMPTILE
360
199
  3
DIFFUSETILE
360
198
  3
OPACITYTILE
360
19C
  3
REFLECTIONTILE
360
19B
  3
REFRACTIONTILE
360
19D
  3
SPECULARTILE
360
19A
  0
DICTIONARY
  5
18F
330
18E
100
AcDbDictionary
280
     1
281
     1
  3
ACAD_XREC_ROUNDTRIP
360
1E6
  3
BUMPTILE
360
191
  3
DIFFUSETILE
360
190
  3
OPACITYTILE
360
194
  3
REFLECTIONTILE
360
193
  3
REFRACTIONTILE
360
195
  3
SPECULARTILE
360
192
  0
DICTIONARY
  5
19F
330
19E
100
AcDbDictionary
280
     1
281
     1
  3
ACAD_XREC_ROUNDTRIP
360
1E8
  3
BUMPTILE
360
1A1
  3
DIFFUSETILE
360
1A0
  3
OPACITYTILE
360
1A4
  3
REFLECTIONTILE
360
1A3
  3
REFRACTIONTILE
360
1A5
  3
SPECULARTILE
360
1A2
  0
DICTIONARY
  5
1DE
330
1BC
100
AcDbDictionary
280
     1
281
     1
  3
ACAD_ROUNDTRIP_2008_TABLESTYLE_CELLSTYLEMAP
360
1DF
  3
ACAD_XREC_ROUNDTRIP
360
20F
  0
DICTIONARY
  5
1F3
330
1AC
100
AcDbDictionary
280
     1
281
     1
  3
ACAD_XREC_ROUNDTRIP
360
1F4
  0
DICTIONARY
  5
1F7
330
1AE
100
AcDbDictionary
280
     1
281
     1
  3
ACAD_XREC_ROUNDTRIP
360
1F8
  0
DICTIONARY
  5
1F5
330
1AD
100
AcDbDictionary
280
     1
281
     1
  3
ACAD_XREC_ROUNDTRIP
360
1F6
  0
DICTIONARY
  5
1F1
330
1AB
100
AcDbDictionary
280
     1
281
     1
  3
ACAD_XREC_ROUNDTRIP
360
1F2
  0
DICTIONARY
  5
1FF
330
1B2
100
AcDbDictionary
280
     1
281
     1
  3
ACAD_XREC_ROUNDTRIP
360
200
  0
DICTIONARY
  5
207
330
1B6
100
AcDbDictionary
280
     1
281
     1
  3
ACAD_XREC_ROUNDTRIP
360
208
  0
DICTIONARY
  5
1F9
330
1AF
100
AcDbDictionary
280
     1
281
     1
  3
ACAD_XREC_ROUNDTRIP
360
1FA
  0
DICTIONARY
  5
1FD
330
1B1
100
AcDbDictionary
280
     1
281
     1
  3
ACAD_XREC_ROUNDTRIP
360
1FE
  0
DICTIONARY
  5
20D
330
1B9
100
AcDbDictionary
280
     1
281
     1
  3
ACAD_XREC_ROUNDTRIP
360
20E
  0
DICTIONARY
  5
205
330
1B5
100
AcDbDictionary
280
     1
281
     1
  3
ACAD_XREC_ROUNDTRIP
360
206
  0
DICTIONARY
  5
1E9
330
1A7
100
AcDbDictionary
280
     1
281
     1
  3
ACAD_XREC_ROUNDTRIP
360
1EA
  0
DICTIONARY
  5
1EB
330
1A8
100
AcDbDictionary
280
     1
281
     1
  3
ACAD_XREC_ROUNDTRIP
360
1EC
  0
DICTIONARY
  5
1ED
330
1A9
100
AcDbDictionary
280
     1
281
     1
  3
ACAD_XREC_ROUNDTRIP
360
1EE
  0
DICTIONARY
  5
1EF
330
1AA
100
AcDbDictionary
280
     1
281
     1
  3
ACAD_XREC_ROUNDTRIP
360
1F0
  0
DICTIONARY
  5
209
330
1B7
100
AcDbDictionary
280
     1
281
     1
  3
ACAD_XREC_ROUNDTRIP
360
20A
  0
DICTIONARY
  5
203
330
1B4
100
AcDbDictionary
280
     1
281
     1
  3
ACAD_XREC_ROUNDTRIP
360
204
  0
DICTIONARY
  5
20B
330
1B8
100
AcDbDictionary
280
     1
281
     1
  3
ACAD_XREC_ROUNDTRIP
360
20C
  0
DICTIONARY
  5
1FB
330
1B0
100
AcDbDictionary
280
     1
281
     1
  3
ACAD_XREC_ROUNDTRIP
360
1FC
  0
DICTIONARY
  5
201
330
1B3
100
AcDbDictionary
280
     1
281
     1
  3
ACAD_XREC_ROUNDTRIP
360
202
  0
XRECORD
  5
1E5
102
{ACAD_REACTORS
330
1E4
102
}
330
1E4
100
AcDbXrecord
280
     1
102
SHADEPLOT
 70
     0
102
SHADEPLOTRESLEVEL
 70
     2
102
SHADEPLOTCUSTOMDPI
 70
   300
  0
XRECORD
  5
1E3
102
{ACAD_REACTORS
330
1E2
102
}
330
1E2
100
AcDbXrecord
280
     1
102
SHADEPLOT
 70
     0
102
SHADEPLOTRESLEVEL
 70
     2
102
SHADEPLOTCUSTOMDPI
 70
   300
  0
XRECORD
  5
1E7
102
{ACAD_REACTORS
330
197
102
}
330
197
100
AcDbXrecord
280
     1
102
MATERIAL
148
0.0
149
0.0
149
0.0
 93
        0
 94
      127
282
     0
 72
     0
 77
     0
171
     0
175
     0
179
     0
273
     0
  0
XRECORD
  5
199
102
{ACAD_REACTORS
330
197
102
}
330
197
100
AcDbXrecord
280
     1
270
     1
271
     1
  0
XRECORD
  5
198
102
{ACAD_REACTORS
330
197
102
}
330
197
100
AcDbXrecord
280
     1
270
     1
271
     1
  0
XRECORD
  5
19C
102
{ACAD_REACTORS
330
197
102
}
330
197
100
AcDbXrecord
280
     1
270
     1
271
     1
  0
XRECORD
  5
19B
102
{ACAD_REACTORS
330
197
102
}
330
197
100
AcDbXrecord
280
     1
270
     1
271
     1
  0
XRECORD
  5
19D
102
{ACAD_REACTORS
330
197
102
}
330
197
100
AcDbXrecord
280
     1
270
     1
271
     1
  0
XRECORD
  5
19A
102
{ACAD_REACTORS
330
197
102
}
330
197
100
AcDbXrecord
280
     1
270
     1
271
     1
  0
XRECORD
  5
1E6
102
{ACAD_REACTORS
330
18F
102
}
330
18F
100
AcDbXrecord
280
     1
102
MATERIAL
148
0.0
149
0.0
149
0.0
 93
        0
 94
      127
282
     0
 72
     0
 77
     0
171
     0
175
     0
179
     0
273
     0
  0
XRECORD
  5
191
102
{ACAD_REACTORS
330
18F
102
}
330
18F
100
AcDbXrecord
280
     1
270
     1
271
     1
  0
XRECORD
  5
190
102
{ACAD_REACTORS
330
18F
102
}
330
18F
100
AcDbXrecord
280
     1
270
     1
271
     1
  0
XRECORD
  5
194
102
{ACAD_REACTORS
330
18F
102
}
330
18F
100
AcDbXrecord
280
     1
270
     1
271
     1
  0
XRECORD
  5
193
102
{ACAD_REACTORS
330
18F
102
}
330
18F
100
AcDbXrecord
280
     1
270
     1
271
     1
  0
XRECORD
  5
195
102
{ACAD_REACTORS
330
18F
102
}
330
18F
100
AcDbXrecord
280
     1
270
     1
271
     1
  0
XRECORD
  5
192
102
{ACAD_REACTORS
330
18F
102
}
330
18F
100
AcDbXrecord
280
     1
270
     1
271
     1
  0
XRECORD
  5
1E8
102
{ACAD_REACTORS
330
19F
102
}
330
19F
100
AcDbXrecord
280
     1
102
MATERIAL
148
0.0
149
0.0
149
0.0
 93
        0
 94
      127
282
     0
 72
     0
 77
     0
171
     0
175
     0
179
     0
273
     0
  0
XRECORD
  5
1A1
102
{ACAD_REACTORS
330
19F
102
}
330
19F
100
AcDbXrecord
280
     1
270
     1
271
     1
  0
XRECORD
  5
1A0
102
{ACAD_REACTORS
330
19F
102
}
330
19F
100
AcDbXrecord
280
     1
270
     1
271
     1
  0
XRECORD
  5
1A4
102
{ACAD_REACTORS
330
19F
102
}
330
19F
100
AcDbXrecord
280
     1
270
     1
271
     1
  0
XRECORD
  5
1A3
102
{ACAD_REACTORS
330
19F
102
}
330
19F
100
AcDbXrecord
280
     1
270
     1
271
     1
  0
XRECORD
  5
1A5
102
{ACAD_REACTORS
330
19F
102
}
330
19F
100
AcDbXrecord
280
     1
270
     1
271
     1
  0
XRECORD
  5
1A2
102
{ACAD_REACTORS
330
19F
102
}
330
19F
100
AcDbXrecord
280
     1
270
     1
271
     1
  0
CELLSTYLEMAP
  5
1DF
102
{ACAD_REACTORS
330
1DE
102
}
330
1DE
100
AcDbCellStyleMap
 90
        3
300
CELLSTYLE
  1
TABLEFORMAT_BEGIN
 90
        5
170
     1
 91
        0
 92
    32768
 62
   257
 93
        1
300
CONTENTFORMAT
  1
CONTENTFORMAT_BEGIN
 90
        0
 91
        0
 92
      512
 93
        0
300

 40
0.0
140
1.0
 94
        5
 62
     0
340
17
144
6.0
309
CONTENTFORMAT_END
171
     1
301
MARGIN
  1
CELLMARGIN_BEGIN
 40
1.5
 40
1.5
 40
1.5
 40
1.5
 40
4.5
 40
4.5
309
CELLMARGIN_END
 94
        6
 95
        1
302
GRIDFORMAT
  1
GRIDFORMAT_BEGIN
 90
        0
 91
        1
 62
     0
 92
       -2
340
0
 93
        0
 40
1.125
309
GRIDFORMAT_END
 95
        2
302
GRIDFORMAT
  1
GRIDFORMAT_BEGIN
 90
        0
 91
        1
 62
     0
 92
       -2
340
0
 93
        0
 40
1.125
309
GRIDFORMAT_END
 95
        4
302
GRIDFORMAT
  1
GRIDFORMAT_BEGIN
 90
        0
 91
        1
 62
     0
 92
       -2
340
0
 93
        0
 40
1.125
309
GRIDFORMAT_END
 95
        8
302
GRIDFORMAT
  1
GRIDFORMAT_BEGIN
 90
        0
 91
        1
 62
     0
 92
       -2
340
0
 93
        0
 40
1.125
309
GRIDFORMAT_END
 95
       16
302
GRIDFORMAT
  1
GRIDFORMAT_BEGIN
 90
        0
 91
        1
 62
     0
 92
       -2
340
0
 93
        0
 40
1.125
309
GRIDFORMAT_END
 95
       32
302
GRIDFORMAT
  1
GRIDFORMAT_BEGIN
 90
        0
 91
        1
 62
     0
 92
       -2
340
0
 93
        0
 40
1.125
309
GRIDFORMAT_END
309
TABLEFORMAT_END
  1
CELLSTYLE_BEGIN
 90
        1
 91
        1
300
_TITLE
309
CELLSTYLE_END
300
CELLSTYLE
  1
TABLEFORMAT_BEGIN
 90
        5
170
     1
 91
        0
 92
        0
 62
   257
 93
        1
300
CONTENTFORMAT
  1
CONTENTFORMAT_BEGIN
 90
        0
 91
        0
 92
      512
 93
        0
300

 40
0.0
140
1.0
 94
        5
 62
     0
340
17
144
4.5
309
CONTENTFORMAT_END
171
     1
301
MARGIN
  1
CELLMARGIN_BEGIN
 40
1.5
 40
1.5
 40
1.5
 40
1.5
 40
4.5
 40
4.5
309
CELLMARGIN_END
 94
        6
 95
        1
302
GRIDFORMAT
  1
GRIDFORMAT_BEGIN
 90
        0
 91
        1
 62
     0
 92
       -2
340
0
 93
        0
 40
1.125
309
GRIDFORMAT_END
 95
        2
302
GRIDFORMAT
  1
GRIDFORMAT_BEGIN
 90
        0
 91
        1
 62
     0
 92
       -2
340
0
 93
        0
 40
1.125
309
GRIDFORMAT_END
 95
        4
302
GRIDFORMAT
  1
GRIDFORMAT_BEGIN
 90
        0
 91
        1
 62
     0
 92
       -2
340
0
 93
        0
 40
1.125
309
GRIDFORMAT_END
 95
        8
302
GRIDFORMAT
  1
GRIDFORMAT_BEGIN
 90
        0
 91
        1
 62
     0
 92
       -2
340
0
 93
        0
 40
1.125
309
GRIDFORMAT_END
 95
       16
302
GRIDFORMAT
  1
GRIDFORMAT_BEGIN
 90
        0
 91
        1
 62
     0
 92
       -2
340
0
 93
        0
 40
1.125
309
GRIDFORMAT_END
 95
       32
302
GRIDFORMAT
  1
GRIDFORMAT_BEGIN
 90
        0
 91
        1
 62
     0
 92
       -2
340
0
 93
        0
 40
1.125
309
GRIDFORMAT_END
309
TABLEFORMAT_END
  1
CELLSTYLE_BEGIN
 90
        2
 91
        1
300
_HEADER
309
CELLSTYLE_END
300
CELLSTYLE
  1
TABLEFORMAT_BEGIN
 90
        5
170
     1
 91
        0
 92
        0
 62
   257
 93
        1
300
CONTENTFORMAT
  1
CONTENTFORMAT_BEGIN
 90
        0
 91
        0
 92
      512
 93
        0
300

 40
0.0
140
1.0
 94
        2
 62
     0
340
17
144
4.5
309
CONTENTFORMAT_END
171
     1
301
MARGIN
  1
CELLMARGIN_BEGIN
 40
1.5
 40
1.5
 40
1.5
 40
1.5
 40
4.5
 40
4.5
309
CELLMARGIN_END
 94
        6
 95
        1
302
GRIDFORMAT
  1
GRIDFORMAT_BEGIN
 90
        0
 91
        1
 62
     0
 92
       -2
340
0
 93
        0
 40
1.125
309
GRIDFORMAT_END
 95
        2
302
GRIDFORMAT
  1
GRIDFORMAT_BEGIN
 90
        0
 91
        1
 62
     0
 92
       -2
340
0
 93
        0
 40
1.125
309
GRIDFORMAT_END
 95
        4
302
GRIDFORMAT
  1
GRIDFORMAT_BEGIN
 90
        0
 91
        1
 62
     0
 92
       -2
340
0
 93
        0
 40
1.125
309
GRIDFORMAT_END
 95
        8
302
GRIDFORMAT
  1
GRIDFORMAT_BEGIN
 90
        0
 91
        1
 62
     0
 92
       -2
340
0
 93
        0
 40
1.125
309
GRIDFORMAT_END
 95
       16
302
GRIDFORMAT
  1
GRIDFORMAT_BEGIN
 90
        0
 91
        1
 62
     0
 92
       -2
340
0
 93
        0
 40
1.125
309
GRIDFORMAT_END
 95
       32
302
GRIDFORMAT
  1
GRIDFORMAT_BEGIN
 90
        0
 91
        1
 62
     0
 92
       -2
340
0
 93
        0
 40
1.125
309
GRIDFORMAT_END
309
TABLEFORMAT_END
  1
CELLSTYLE_BEGIN
 90
        3
 91
        2
300
_DATA
309
CELLSTYLE_END
  0
XRECORD
  5
20F
102
{ACAD_REACTORS
330
1DE
102
}
330
1DE
100
AcDbXrecord
280
     1
102
ACAD_ROUNDTRIP_PRE2007_TABLESTYLE
 90
      512
 91
        0
  1

 92
      512
 93
        0
  2

 94
      512
 95
        0
  3

  0
XRECORD
  5
1F4
102
{ACAD_REACTORS
330
1F3
102
}
330
1F3
100
AcDbXrecord
280
     1
102
RTVSPropertyOp0
 70
     1
102
RTVSPropertyOp1
 70
     1
102
RTVSPropertyOp2
 70
     1
102
RTVSPropertyOp3
 70
     1
102
RTVSPropertyOp4
 70
     1
102
RTVSPropertyOp5
 70
     1
102
RTVSPropertyOp6
 70
     1
102
RTVSPropertyOp7
 70
     1
102
RTVSPropertyOp8
 70
     1
102
RTVSPropertyOp9
 70
     1
102
RTVSPropertyOp10
 70
     1
102
RTVSPropertyOp11
 70
     1
102
RTVSPropertyOp12
 70
     1
102
RTVSPropertyOp13
 70
     1
102
RTVSPropertyOp14
 70
     1
102
RTVSPropertyOp15
 70
     1
102
RTVSPropertyOp16
 70
     1
102
RTVSPropertyOp17
 70
     1
102
RTVSPropertyOp18
 70
     1
102
RTVSPropertyOp19
 70
     1
102
RTVSPropertyOp20
 70
     1
102
RTVSPropertyOp21
 70
     1
102
RTVSPropertyOp22
 70
     1
102
RTVSPropertyOp23
 70
     1
102
RTVSPropertyOp24
 70
     1
102
RTVSPropertyOp25
 70
     1
102
RTVSPropertyOp26
 70
     1
102
RTVSPropertyOp27
 70
     1
  0
XRECORD
  5
1F8
102
{ACAD_REACTORS
330
1F7
102
}
330
1F7
100
AcDbXrecord
280
     1
102
RTVSPropertyOp0
 70
     1
102
RTVSPropertyOp1
 70
     1
102
RTVSPropertyOp2
 70
     1
102
RTVSPropertyOp3
 70
     1
102
RTVSPropertyOp4
 70
     1
102
RTVSPropertyOp5
 70
     1
102
RTVSPropertyOp6
 70
     1
102
RTVSPropertyOp7
 70
     1
102
RTVSPropertyOp8
 70
     1
102
RTVSPropertyOp9
 70
     1
102
RTVSPropertyOp10
 70
     1
102
RTVSPropertyOp11
 70
     1
102
RTVSPropertyOp12
 70
     1
102
RTVSPropertyOp13
 70
     1
102
RTVSPropertyOp14
 70
     1
102
RTVSPropertyOp15
 70
     1
102
RTVSPropertyOp16
 70
     1
102
RTVSPropertyOp17
 70
     1
102
RTVSPropertyOp18
 70
     1
102
RTVSPropertyOp19
 70
     1
102
RTVSPropertyOp20
 70
     1
102
RTVSPropertyOp21
 70
     1
102
RTVSPropertyOp22
 70
     1
102
RTVSPropertyOp23
 70
     1
102
RTVSPropertyOp24
 70
     1
102
RTVSPropertyOp25
 70
     1
102
RTVSPropertyOp26
 70
     1
102
RTVSPropertyOp27
 70
     1
  0
XRECORD
  5
1F6
102
{ACAD_REACTORS
330
1F5
102
}
330
1F5
100
AcDbXrecord
280
     1
102
RTVSPropertyOp0
 70
     1
102
RTVSPropertyOp1
 70
     1
102
RTVSPropertyOp2
 70
     1
102
RTVSPropertyOp3
 70
     1
102
RTVSPropertyOp4
 70
     1
102
RTVSPropertyOp5
 70
     1
102
RTVSPropertyOp6
 70
     1
102
RTVSPropertyOp7
 70
     1
102
RTVSPropertyOp8
 70
     1
102
RTVSPropertyOp9
 70
     1
102
RTVSPropertyOp10
 70
     1
102
RTVSPropertyOp11
 70
     1
102
RTVSPropertyOp12
 70
     1
102
RTVSPropertyOp13
 70
     1
102
RTVSPropertyOp14
 70
     1
102
RTVSPropertyOp15
 70
     1
102
RTVSPropertyOp16
 70
     1
102
RTVSPropertyOp17
 70
     1
102
RTVSPropertyOp18
 70
     1
102
RTVSPropertyOp19
 70
     1
102
RTVSPropertyOp20
 70
     1
102
RTVSPropertyOp21
 70
     1
102
RTVSPropertyOp22
 70
     1
102
RTVSPropertyOp23
 70
     1
102
RTVSPropertyOp24
 70
     1
102
RTVSPropertyOp25
 70
     1
102
RTVSPropertyOp26
 70
     1
102
RTVSPropertyOp27
 70
     1
  0
XRECORD
  5
1F2
102
{ACAD_REACTORS
330
1F1
102
}
330
1F1
100
AcDbXrecord
280
     1
102
RTVSPropertyOp0
 70
     1
102
RTVSPropertyOp1
 70
     1
102
RTVSPropertyOp2
 70
     1
102
RTVSPropertyOp3
 70
     1
102
RTVSPropertyOp4
 70
     1
102
RTVSPropertyOp5
 70
     1
102
RTVSPropertyOp6
 70
     1
102
RTVSPropertyOp7
 70
     1
102
RTVSPropertyOp8
 70
     1
102
RTVSPropertyOp9
 70
     1
102
RTVSPropertyOp10
 70
     1
102
RTVSPropertyOp11
 70
     1
102
RTVSPropertyOp12
 70
     1
102
RTVSPropertyOp13
 70
     1
102
RTVSPropertyOp14
 70
     1
102
RTVSPropertyOp15
 70
     1
102
RTVSPropertyOp16
 70
     1
102
RTVSPropertyOp17
 70
     1
102
RTVSPropertyOp18
 70
     1
102
RTVSPropertyOp19
 70
     1
102
RTVSPropertyOp20
 70
     1
102
RTVSPropertyOp21
 70
     1
102
RTVSPropertyOp22
 70
     1
102
RTVSPropertyOp23
 70
     1
102
RTVSPropertyOp24
 70
     1
102
RTVSPropertyOp25
 70
     1
102
RTVSPropertyOp26
 70
     1
102
RTVSPropertyOp27
 70
     1
  0
XRECORD
  5
200
102
{ACAD_REACTORS
330
1FF
102
}
330
1FF
100
AcDbXrecord
280
     1
102
RTVSPropertyOp0
 70
     1
102
RTVSPropertyOp1
 70
     1
102
RTVSPropertyOp2
 70
     1
102
RTVSPropertyOp3
 70
     1
102
RTVSPropertyOp4
 70
     1
102
RTVSPropertyOp5
 70
     1
102
RTVSPropertyOp6
 70
     1
102
RTVSPropertyOp7
 70
     1
102
RTVSPropertyOp8
 70
     1
102
RTVSPropertyOp9
 70
     1
102
RTVSPropertyOp10
 70
     1
102
RTVSPropertyOp11
 70
     1
102
RTVSPropertyOp12
 70
     1
102
RTVSPropertyOp13
 70
     1
102
RTVSPropertyOp14
 70
     1
102
RTVSPropertyOp15
 70
     1
102
RTVSPropertyOp16
 70
     1
102
RTVSPropertyOp17
 70
     1
102
RTVSPropertyOp18
 70
     1
102
RTVSPropertyOp19
 70
     1
102
RTVSPropertyOp20
 70
     1
102
RTVSPropertyOp21
 70
     1
102
RTVSPropertyOp22
 70
     1
102
RTVSPropertyOp23
 70
     1
102
RTVSPropertyOp24
 70
     1
102
RTVSPropertyOp25
 70
     1
102
RTVSPropertyOp26
 70
     1
102
RTVSPropertyOp27
 70
     1
  0
XRECORD
  5
208
102
{ACAD_REACTORS
330
207
102
}
330
207
100
AcDbXrecord
280
     1
102
RTVSPropertyOp0
 70
     1
102
RTVSPropertyOp1
 70
     1
102
RTVSPropertyOp2
 70
     1
102
RTVSPropertyOp3
 70
     1
102
RTVSPropertyOp4
 70
     1
102
RTVSPropertyOp5
 70
     1
102
RTVSPropertyOp6
 70
     1
102
RTVSPropertyOp7
 70
     1
102
RTVSPropertyOp8
 70
     1
102
RTVSPropertyOp9
 70
     1
102
RTVSPropertyOp10
 70
     1
102
RTVSPropertyOp11
 70
     1
102
RTVSPropertyOp12
 70
     1
102
RTVSPropertyOp13
 70
     1
102
RTVSPropertyOp14
 70
     1
102
RTVSPropertyOp15
 70
     1
102
RTVSPropertyOp16
 70
     1
102
RTVSPropertyOp17
 70
     1
102
RTVSPropertyOp18
 70
     1
102
RTVSPropertyOp19
 70
     1
102
RTVSPropertyOp20
 70
     1
102
RTVSPropertyOp21
 70
     1
102
RTVSPropertyOp22
 70
     1
102
RTVSPropertyOp23
 70
     1
102
RTVSPropertyOp24
 70
     1
102
RTVSPropertyOp25
 70
     1
102
RTVSPropertyOp26
 70
     1
102
RTVSPropertyOp27
 70
     1
  0
XRECORD
  5
1FA
102
{ACAD_REACTORS
330
1F9
102
}
330
1F9
100
AcDbXrecord
280
     1
102
RTVSPropertyOp0
 70
     1
102
RTVSPropertyOp1
 70
     1
102
RTVSPropertyOp2
 70
     1
102
RTVSPropertyOp3
 70
     1
102
RTVSPropertyOp4
 70
     1
102
RTVSPropertyOp5
 70
     1
102
RTVSPropertyOp6
 70
     1
102
RTVSPropertyOp7
 70
     1
102
RTVSPropertyOp8
 70
     1
102
RTVSPropertyOp9
 70
     1
102
RTVSPropertyOp10
 70
     1
102
RTVSPropertyOp11
 70
     1
102
RTVSPropertyOp12
 70
     1
102
RTVSPropertyOp13
 70
     1
102
RTVSPropertyOp14
 70
     1
102
RTVSPropertyOp15
 70
     1
102
RTVSPropertyOp16
 70
     1
102
RTVSPropertyOp17
 70
     1
102
RTVSPropertyOp18
 70
     1
102
RTVSPropertyOp19
 70
     1
102
RTVSPropertyOp20
 70
     1
102
RTVSPropertyOp21
 70
     1
102
RTVSPropertyOp22
 70
     1
102
RTVSPropertyOp23
 70
     1
102
RTVSPropertyOp24
 70
     1
102
RTVSPropertyOp25
 70
     1
102
RTVSPropertyOp26
 70
     1
102
RTVSPropertyOp27
 70
     1
  0
XRECORD
  5
1FE
102
{ACAD_REACTORS
330
1FD
102
}
330
1FD
100
AcDbXrecord
280
     1
102
RTVSPropertyOp0
 70
     1
102
RTVSPropertyOp1
 70
     1
102
RTVSPropertyOp2
 70
     1
102
RTVSPropertyOp3
 70
     1
102
RTVSPropertyOp4
 70
     1
102
RTVSPropertyOp5
 70
     1
102
RTVSPropertyOp6
 70
     1
102
RTVSPropertyOp7
 70
     1
102
RTVSPropertyOp8
 70
     1
102
RTVSPropertyOp9
 70
     1
102
RTVSPropertyOp10
 70
     1
102
RTVSPropertyOp11
 70
     1
102
RTVSPropertyOp12
 70
     1
102
RTVSPropertyOp13
 70
     1
102
RTVSPropertyOp14
 70
     1
102
RTVSPropertyOp15
 70
     1
102
RTVSPropertyOp16
 70
     1
102
RTVSPropertyOp17
 70
     1
102
RTVSPropertyOp18
 70
     1
102
RTVSPropertyOp19
 70
     1
102
RTVSPropertyOp20
 70
     1
102
RTVSPropertyOp21
 70
     1
102
RTVSPropertyOp22
 70
     1
102
RTVSPropertyOp23
 70
     1
102
RTVSPropertyOp24
 70
     1
102
RTVSPropertyOp25
 70
     1
102
RTVSPropertyOp26
 70
     1
102
RTVSPropertyOp27
 70
     1
  0
XRECORD
  5
20E
102
{ACAD_REACTORS
330
20D
102
}
330
20D
100
AcDbXrecord
280
     1
102
RTVSPropertyOp0
 70
     0
102
RTVSPropertyOp1
 70
     0
102
RTVSPropertyOp2
 70
     0
102
RTVSPropertyOp3
 70
     0
102
RTVSPropertyOp4
 70
     0
102
RTVSPropertyOp5
 70
     0
102
RTVSPropertyOp6
 70
     0
102
RTVSPropertyOp7
 70
     0
102
RTVSPropertyOp8
 70
     0
102
RTVSPropertyOp9
 70
     0
102
RTVSPropertyOp10
 70
     0
102
RTVSPropertyOp11
 70
     0
102
RTVSPropertyOp12
 70
     0
102
RTVSPropertyOp13
 70
     0
102
RTVSPropertyOp14
 70
     2
102
RTVSPropertyOp15
 70
     0
102
RTVSPropertyOp16
 70
     0
102
RTVSPropertyOp17
 70
     0
102
RTVSPropertyOp18
 70
     0
102
RTVSPropertyOp19
 70
     0
102
RTVSPropertyOp20
 70
     0
102
RTVSPropertyOp21
 70
     0
102
RTVSPropertyOp22
 70
     0
102
RTVSPropertyOp23
 70
     0
102
RTVSPropertyOp24
 70
     0
102
RTVSPropertyOp25
 70
     0
102
RTVSPropertyOp26
 70
     0
102
RTVSPropertyOp27
 70
     0
  0
XRECORD
  5
206
102
{ACAD_REACTORS
330
205
102
}
330
205
100
AcDbXrecord
280
     1
102
RTVSPropertyOp0
 70
     1
102
RTVSPropertyOp1
 70
     1
102
RTVSPropertyOp2
 70
     1
102
RTVSPropertyOp3
 70
     1
102
RTVSPropertyOp4
 70
     1
102
RTVSPropertyOp5
 70
     1
102
RTVSPropertyOp6
 70
     1
102
RTVSPropertyOp7
 70
     1
102
RTVSPropertyOp8
 70
     1
102
RTVSPropertyOp9
 70
     1
102
RTVSPropertyOp10
 70
     1
102
RTVSPropertyOp11
 70
     1
102
RTVSPropertyOp12
 70
     1
102
RTVSPropertyOp13
 70
     1
102
RTVSPropertyOp14
 70
     1
102
RTVSPropertyOp15
 70
     1
102
RTVSPropertyOp16
 70
     1
102
RTVSPropertyOp17
 70
     1
102
RTVSPropertyOp18
 70
     1
102
RTVSPropertyOp19
 70
     1
102
RTVSPropertyOp20
 70
     1
102
RTVSPropertyOp21
 70
     1
102
RTVSPropertyOp22
 70
     1
102
RTVSPropertyOp23
 70
     1
102
RTVSPropertyOp24
 70
     1
102
RTVSPropertyOp25
 70
     1
102
RTVSPropertyOp26
 70
     1
102
RTVSPropertyOp27
 70
     1
  0
XRECORD
  5
1EA
102
{ACAD_REACTORS
330
1E9
102
}
330
1E9
100
AcDbXrecord
280
     1
102
RTVSPropertyOp0
 70
     1
102
RTVSPropertyOp1
 70
     1
102
RTVSPropertyOp2
 70
     1
102
RTVSPropertyOp3
 70
     1
102
RTVSPropertyOp4
 70
     1
102
RTVSPropertyOp5
 70
     1
102
RTVSPropertyOp6
 70
     1
102
RTVSPropertyOp7
 70
     1
102
RTVSPropertyOp8
 70
     1
102
RTVSPropertyOp9
 70
     1
102
RTVSPropertyOp10
 70
     1
102
RTVSPropertyOp11
 70
     1
102
RTVSPropertyOp12
 70
     1
102
RTVSPropertyOp13
 70
     1
102
RTVSPropertyOp14
 70
     1
102
RTVSPropertyOp15
 70
     1
102
RTVSPropertyOp16
 70
     1
102
RTVSPropertyOp17
 70
     1
102
RTVSPropertyOp18
 70
     1
102
RTVSPropertyOp19
 70
     1
102
RTVSPropertyOp20
 70
     1
102
RTVSPropertyOp21
 70
     1
102
RTVSPropertyOp22
 70
     1
102
RTVSPropertyOp23
 70
     1
102
RTVSPropertyOp24
 70
     1
102
RTVSPropertyOp25
 70
     1
102
RTVSPropertyOp26
 70
     1
102
RTVSPropertyOp27
 70
     1
  0
XRECORD
  5
1EC
102
{ACAD_REACTORS
330
1EB
102
}
330
1EB
100
AcDbXrecord
280
     1
102
RTVSPropertyOp0
 70
     1
102
RTVSPropertyOp1
 70
     1
102
RTVSPropertyOp2
 70
     1
102
RTVSPropertyOp3
 70
     1
102
RTVSPropertyOp4
 70
     1
102
RTVSPropertyOp5
 70
     1
102
RTVSPropertyOp6
 70
     1
102
RTVSPropertyOp7
 70
     1
102
RTVSPropertyOp8
 70
     1
102
RTVSPropertyOp9
 70
     1
102
RTVSPropertyOp10
 70
     1
102
RTVSPropertyOp11
 70
     1
102
RTVSPropertyOp12
 70
     1
102
RTVSPropertyOp13
 70
     1
102
RTVSPropertyOp14
 70
     1
102
RTVSPropertyOp15
 70
     1
102
RTVSPropertyOp16
 70
     1
102
RTVSPropertyOp17
 70
     1
102
RTVSPropertyOp18
 70
     1
102
RTVSPropertyOp19
 70
     1
102
RTVSPropertyOp20
 70
     1
102
RTVSPropertyOp21
 70
     1
102
RTVSPropertyOp22
 70
     1
102
RTVSPropertyOp23
 70
     1
102
RTVSPropertyOp24
 70
     1
102
RTVSPropertyOp25
 70
     1
102
RTVSPropertyOp26
 70
     1
102
RTVSPropertyOp27
 70
     1
  0
XRECORD
  5
1EE
102
{ACAD_REACTORS
330
1ED
102
}
330
1ED
100
AcDbXrecord
280
     1
102
RTVSPropertyOp0
 70
     1
102
RTVSPropertyOp1
 70
     1
102
RTVSPropertyOp2
 70
     1
102
RTVSPropertyOp3
 70
     1
102
RTVSPropertyOp4
 70
     1
102
RTVSPropertyOp5
 70
     1
102
RTVSPropertyOp6
 70
     1
102
RTVSPropertyOp7
 70
     1
102
RTVSPropertyOp8
 70
     1
102
RTVSPropertyOp9
 70
     1
102
RTVSPropertyOp10
 70
     1
102
RTVSPropertyOp11
 70
     1
102
RTVSPropertyOp12
 70
     1
102
RTVSPropertyOp13
 70
     1
102
RTVSPropertyOp14
 70
     1
102
RTVSPropertyOp15
 70
     1
102
RTVSPropertyOp16
 70
     1
102
RTVSPropertyOp17
 70
     1
102
RTVSPropertyOp18
 70
     1
102
RTVSPropertyOp19
 70
     1
102
RTVSPropertyOp20
 70
     1
102
RTVSPropertyOp21
 70
     1
102
RTVSPropertyOp22
 70
     1
102
RTVSPropertyOp23
 70
     1
102
RTVSPropertyOp24
 70
     1
102
RTVSPropertyOp25
 70
     1
102
RTVSPropertyOp26
 70
     1
102
RTVSPropertyOp27
 70
     1
  0
XRECORD
  5
1F0
102
{ACAD_REACTORS
330
1EF
102
}
330
1EF
100
AcDbXrecord
280
     1
102
RTVSPropertyOp0
 70
     1
102
RTVSPropertyOp1
 70
     1
102
RTVSPropertyOp2
 70
     1
102
RTVSPropertyOp3
 70
     1
102
RTVSPropertyOp4
 70
     1
102
RTVSPropertyOp5
 70
     1
102
RTVSPropertyOp6
 70
     1
102
RTVSPropertyOp7
 70
     1
102
RTVSPropertyOp8
 70
     1
102
RTVSPropertyOp9
 70
     1
102
RTVSPropertyOp10
 70
     1
102
RTVSPropertyOp11
 70
     1
102
RTVSPropertyOp12
 70
     1
102
RTVSPropertyOp13
 70
     1
102
RTVSPropertyOp14
 70
     1
102
RTVSPropertyOp15
 70
     1
102
RTVSPropertyOp16
 70
     1
102
RTVSPropertyOp17
 70
     1
102
RTVSPropertyOp18
 70
     1
102
RTVSPropertyOp19
 70
     1
102
RTVSPropertyOp20
 70
     1
102
RTVSPropertyOp21
 70
     1
102
RTVSPropertyOp22
 70
     1
102
RTVSPropertyOp23
 70
     1
102
RTVSPropertyOp24
 70
     1
102
RTVSPropertyOp25
 70
     1
102
RTVSPropertyOp26
 70
     1
102
RTVSPropertyOp27
 70
     1
  0
XRECORD
  5
20A
102
{ACAD_REACTORS
330
209
102
}
330
209
100
AcDbXrecord
280
     1
102
RTVSPropertyOp0
 70
     0
102
RTVSPropertyOp1
 70
     0
102
RTVSPropertyOp2
 70
     0
102
RTVSPropertyOp3
 70
     0
102
RTVSPropertyOp4
 70
     0
102
RTVSPropertyOp5
 70
     0
102
RTVSPropertyOp6
 70
     0
102
RTVSPropertyOp7
 70
     0
102
RTVSPropertyOp8
 70
     0
102
RTVSPropertyOp9
 70
     0
102
RTVSPropertyOp10
 70
     0
102
RTVSPropertyOp11
 70
     0
102
RTVSPropertyOp12
 70
     0
102
RTVSPropertyOp13
 70
     0
102
RTVSPropertyOp14
 70
     2
102
RTVSPropertyOp15
 70
     0
102
RTVSPropertyOp16
 70
     0
102
RTVSPropertyOp17
 70
     0
102
RTVSPropertyOp18
 70
     0
102
RTVSPropertyOp19
 70
     0
102
RTVSPropertyOp20
 70
     0
102
RTVSPropertyOp21
 70
     0
102
RTVSPropertyOp22
 70
     0
102
RTVSPropertyOp23
 70
     0
102
RTVSPropertyOp24
 70
     0
102
RTVSPropertyOp25
 70
     0
102
RTVSPropertyOp26
 70
     0
102
RTVSPropertyOp27
 70
     0
  0
XRECORD
  5
204
102
{ACAD_REACTORS
330
203
102
}
330
203
100
AcDbXrecord
280
     1
102
RTVSPropertyOp0
 70
     1
102
RTVSPropertyOp1
 70
     1
102
RTVSPropertyOp2
 70
     1
102
RTVSPropertyOp3
 70
     1
102
RTVSPropertyOp4
 70
     1
102
RTVSPropertyOp5
 70
     1
102
RTVSPropertyOp6
 70
     1
102
RTVSPropertyOp7
 70
     1
102
RTVSPropertyOp8
 70
     1
102
RTVSPropertyOp9
 70
     1
102
RTVSPropertyOp10
 70
     1
102
RTVSPropertyOp11
 70
     1
102
RTVSPropertyOp12
 70
     1
102
RTVSPropertyOp13
 70
     1
102
RTVSPropertyOp14
 70
     1
102
RTVSPropertyOp15
 70
     1
102
RTVSPropertyOp16
 70
     1
102
RTVSPropertyOp17
 70
     1
102
RTVSPropertyOp18
 70
     1
102
RTVSPropertyOp19
 70
     1
102
RTVSPropertyOp20
 70
     1
102
RTVSPropertyOp21
 70
     1
102
RTVSPropertyOp22
 70
     1
102
RTVSPropertyOp23
 70
     1
102
RTVSPropertyOp24
 70
     1
102
RTVSPropertyOp25
 70
     1
102
RTVSPropertyOp26
 70
     1
102
RTVSPropertyOp27
 70
     1
  0
XRECORD
  5
20C
102
{ACAD_REACTORS
330
20B
102
}
330
20B
100
AcDbXrecord
280
     1
102
RTVSPropertyOp0
 70
     0
102
RTVSPropertyOp1
 70
     0
102
RTVSPropertyOp2
 70
     0
102
RTVSPropertyOp3
 70
     0
102
RTVSPropertyOp4
 70
     0
102
RTVSPropertyOp5
 70
     0
102
RTVSPropertyOp6
 70
     0
102
RTVSPropertyOp7
 70
     0
102
RTVSPropertyOp8
 70
     0
102
RTVSPropertyOp9
 70
     0
102
RTVSPropertyOp10
 70
     0
102
RTVSPropertyOp11
 70
     0
102
RTVSPropertyOp12
 70
     0
102
RTVSPropertyOp13
 70
     0
102
RTVSPropertyOp14
 70
     2
102
RTVSPropertyOp15
 70
     0
102
RTVSPropertyOp16
 70
     0
102
RTVSPropertyOp17
 70
     0
102
RTVSPropertyOp18
 70
     0
102
RTVSPropertyOp19
 70
     0
102
RTVSPropertyOp20
 70
     0
102
RTVSPropertyOp21
 70
     0
102
RTVSPropertyOp22
 70
     0
102
RTVSPropertyOp23
 70
     0
102
RTVSPropertyOp24
 70
     0
102
RTVSPropertyOp25
 70
     0
102
RTVSPropertyOp26
 70
     0
102
RTVSPropertyOp27
 70
     0
  0
XRECORD
  5
1FC
102
{ACAD_REACTORS
330
1FB
102
}
330
1FB
100
AcDbXrecord
280
     1
102
RTVSPropertyOp0
 70
     1
102
RTVSPropertyOp1
 70
     1
102
RTVSPropertyOp2
 70
     1
102
RTVSPropertyOp3
 70
     1
102
RTVSPropertyOp4
 70
     1
102
RTVSPropertyOp5
 70
     1
102
RTVSPropertyOp6
 70
     1
102
RTVSPropertyOp7
 70
     1
102
RTVSPropertyOp8
 70
     1
102
RTVSPropertyOp9
 70
     1
102
RTVSPropertyOp10
 70
     1
102
RTVSPropertyOp11
 70
     1
102
RTVSPropertyOp12
 70
     1
102
RTVSPropertyOp13
 70
     1
102
RTVSPropertyOp14
 70
     1
102
RTVSPropertyOp15
 70
     1
102
RTVSPropertyOp16
 70
     1
102
RTVSPropertyOp17
 70
     1
102
RTVSPropertyOp18
 70
     1
102
RTVSPropertyOp19
 70
     1
102
RTVSPropertyOp20
 70
     1
102
RTVSPropertyOp21
 70
     1
102
RTVSPropertyOp22
 70
     1
102
RTVSPropertyOp23
 70
     1
102
RTVSPropertyOp24
 70
     1
102
RTVSPropertyOp25
 70
     1
102
RTVSPropertyOp26
 70
     1
102
RTVSPropertyOp27
 70
     1
  0
XRECORD
  5
202
102
{ACAD_REACTORS
330
201
102
}
330
201
100
AcDbXrecord
280
     1
102
RTVSPropertyOp0
 70
     1
102
RTVSPropertyOp1
 70
     1
102
RTVSPropertyOp2
 70
     1
102
RTVSPropertyOp3
 70
     1
102
RTVSPropertyOp4
 70
     1
102
RTVSPropertyOp5
 70
     1
102
RTVSPropertyOp6
 70
     1
102
RTVSPropertyOp7
 70
     1
102
RTVSPropertyOp8
 70
     1
102
RTVSPropertyOp9
 70
     1
102
RTVSPropertyOp10
 70
     1
102
RTVSPropertyOp11
 70
     1
102
RTVSPropertyOp12
 70
     1
102
RTVSPropertyOp13
 70
     1
102
RTVSPropertyOp14
 70
     1
102
RTVSPropertyOp15
 70
     1
102
RTVSPropertyOp16
 70
     1
102
RTVSPropertyOp17
 70
     1
102
RTVSPropertyOp18
 70
     1
102
RTVSPropertyOp19
 70
     1
102
RTVSPropertyOp20
 70
     1
102
RTVSPropertyOp21
 70
     1
102
RTVSPropertyOp22
 70
     1
102
RTVSPropertyOp23
 70
     1
102
RTVSPropertyOp24
 70
     1
102
RTVSPropertyOp25
 70
     1
102
RTVSPropertyOp26
 70
     1
102
RTVSPropertyOp27
 70
     1
  0
ENDSEC
  0
EOF
