  0
SECTION
  2
HEADER
  9
$ACADVER
  1
AC1015
  9
$ACADMAINTVER
 70
    20
  9
$DWGCODEPAGE
  3
ANSI_1252
  9
$INSBASE
 10
0.0
 20
0.0
 30
0.0
  9
$EXTMIN
 10
-22.83260433333333
 20
-14.425
 30
-0.0000000000000044
  9
$EXTMAX
 10
108.8425
 20
96.83260433333334
 30
0.0000000000000009
  9
$LIMMIN
 10
-0.5
 20
-0.5
  9
$LIMMAX
 10
5.0
 20
5.0
  9
$ORTHOMODE
 70
     0
  9
$REGENMODE
 70
     1
  9
$FILLMODE
 70
     1
  9
$QTEXTMODE
 70
     0
  9
$MIRRTEXT
 70
     1
  9
$LTSCALE
 40
1.0
  9
$ATTMODE
 70
     1
  9
$TEXTSIZE
 40
2.5
  9
$TRACEWID
 40
0.05
  9
$TEXTSTYLE
  7
Standard
  9
$CLAYER
  8
NOCUT
  9
$CELTYPE
  6
ByLayer
  9
$CECOLOR
 62
   256
  9
$CELTSCALE
 40
1.0
  9
$DISPSILH
 70
     0
  9
$DIMSCALE
 40
1.0
  9
$DIMASZ
 40
0.18
  9
$DIMEXO
 40
0.0625
  9
$DIMDLI
 40
0.38
  9
$DIMRND
 40
0.0
  9
$DIMDLE
 40
0.0
  9
$DIMEXE
 40
0.18
  9
$DIMTP
 40
0.0
  9
$DIMTM
 40
0.0
  9
$DIMTXT
 40
0.18
  9
$DIMCEN
 40
0.09
  9
$DIMTSZ
 40
0.0
  9
$DIMTOL
 70
     0
  9
$DIMLIM
 70
     0
  9
$DIMTIH
 70
     1
  9
$DIMTOH
 70
     1
  9
$DIMSE1
 70
     0
  9
$DIMSE2
 70
     0
  9
$DIMTAD
 70
     0
  9
$DIMZIN
 70
     0
  9
$DIMBLK
  1

  9
$DIMASO
 70
     1
  9
$DIMSHO
 70
     1
  9
$DIMPOST
  1

  9
$DIMAPOST
  1

  9
$DIMALT
 70
     0
  9
$DIMALTD
 70
     2
  9
$DIMALTF
 40
25.4
  9
$DIMLFAC
 40
1.0
  9
$DIMTOFL
 70
     0
  9
$DIMTVP
 40
0.0
  9
$DIMTIX
 70
     0
  9
$DIMSOXD
 70
     0
  9
$DIMSAH
 70
     0
  9
$DIMBLK1
  1

  9
$DIMBLK2
  1

  9
$DIMSTYLE
  2
Standard
  9
$DIMCLRD
 70
     0
  9
$DIMCLRE
 70
     0
  9
$DIMCLRT
 70
     0
  9
$DIMTFAC
 40
1.0
  9
$DIMGAP
 40
0.09
  9
$DIMJUST
 70
     0
  9
$DIMSD1
 70
     0
  9
$DIMSD2
 70
     0
  9
$DIMTOLJ
 70
     1
  9
$DIMTZIN
 70
     0
  9
$DIMALTZ
 70
     0
  9
$DIMALTTZ
 70
     0
  9
$DIMUPT
 70
     0
  9
$DIMDEC
 70
     4
  9
$DIMTDEC
 70
     4
  9
$DIMALTU
 70
     2
  9
$DIMALTTD
 70
     2
  9
$DIMTXSTY
  7
Standard
  9
$DIMAUNIT
 70
     0
  9
$DIMADEC
 70
     0
  9
$DIMALTRND
 40
0.0
  9
$DIMAZIN
 70
     0
  9
$DIMDSEP
 70
     0
  9
$DIMATFIT
 70
     3
  9
$DIMFRAC
 70
     0
  9
$DIMLDRBLK
  1

  9
$DIMLUNIT
 70
     2
  9
$DIMLWD
 70
     0
  9
$DIMLWE
 70
     0
  9
$DIMTMOVE
 70
     0
  9
$LUNITS
 70
     2
  9
$LUPREC
 70
     4
  9
$SKETCHINC
 40
0.1
  9
$FILLETRAD
 40
0.0
  9
$AUNITS
 70
     0
  9
$AUPREC
 70
     0
  9
$MENU
  1
acad
  9
$ELEVATION
 40
0.0
  9
$PELEVATION
 40
0.0
  9
$THICKNESS
 40
0.0
  9
$LIMCHECK
 70
     0
  9
$CHAMFERA
 40
0.0
  9
$CHAMFERB
 40
0.0
  9
$CHAMFERC
 40
0.0
  9
$CHAMFERD
 40
0.0
  9
$SKPOLY
 70
     0
  9
$TDCREATE
 40
2457459.598744769
  9
$TDUCREATE
 40
2457459.557078102
  9
$TDUPDATE
 40
2457459.600427708
  9
$TDUUPDATE
 40
2457459.558761042
  9
$TDINDWG
 40
0.0016833218
  9
$TDUSRTIMER
 40
0.0016832986
  9
$USRTIMER
 70
     1
  9
$ANGBASE
 50
0.0
  9
$ANGDIR
 70
     0
  9
$PDMODE
 70
     0
  9
$PDSIZE
 40
0.0
  9
$PLINEWID
 40
0.0
  9
$SPLFRAME
 70
     0
  9
$SPLINETYPE
 70
     6
  9
$SPLINESEGS
 70
     8
  9
$HANDSEED
  5
34C
  9
$SURFTAB1
 70
     6
  9
$SURFTAB2
 70
     6
  9
$SURFTYPE
 70
     6
  9
$SURFU
 70
     6
  9
$SURFV
 70
     6
  9
$UCSBASE
  2

  9
$UCSNAME
  2

  9
$UCSORG
 10
0.0
 20
0.0
 30
0.0
  9
$UCSXDIR
 10
1.0
 20
0.0
 30
0.0
  9
$UCSYDIR
 10
0.0
 20
1.0
 30
0.0
  9
$UCSORTHOREF
  2

  9
$UCSORTHOVIEW
 70
     0
  9
$UCSORGTOP
 10
0.0
 20
0.0
 30
0.0
  9
$UCSORGBOTTOM
 10
0.0
 20
0.0
 30
0.0
  9
$UCSORGLEFT
 10
0.0
 20
0.0
 30
0.0
  9
$UCSORGRIGHT
 10
0.0
 20
0.0
 30
0.0
  9
$UCSORGFRONT
 10
0.0
 20
0.0
 30
0.0
  9
$UCSORGBACK
 10
0.0
 20
0.0
 30
0.0
  9
$PUCSBASE
  2

  9
$PUCSNAME
  2

  9
$PUCSORG
 10
0.0
 20
0.0
 30
0.0
  9
$PUCSXDIR
 10
1.0
 20
0.0
 30
0.0
  9
$PUCSYDIR
 10
0.0
 20
1.0
 30
0.0
  9
$PUCSORTHOREF
  2

  9
$PUCSORTHOVIEW
 70
     0
  9
$PUCSORGTOP
 10
0.0
 20
0.0
 30
0.0
  9
$PUCSORGBOTTOM
 10
0.0
 20
0.0
 30
0.0
  9
$PUCSORGLEFT
 10
0.0
 20
0.0
 30
0.0
  9
$PUCSORGRIGHT
 10
0.0
 20
0.0
 30
0.0
  9
$PUCSORGFRONT
 10
0.0
 20
0.0
 30
0.0
  9
$PUCSORGBACK
 10
0.0
 20
0.0
 30
0.0
  9
$USERI1
 70
     0
  9
$USERI2
 70
     0
  9
$USERI3
 70
     0
  9
$USERI4
 70
     0
  9
$USERI5
 70
     0
  9
$USERR1
 40
0.0
  9
$USERR2
 40
0.0
  9
$USERR3
 40
0.0
  9
$USERR4
 40
0.0
  9
$USERR5
 40
0.0
  9
$WORLDVIEW
 70
     1
  9
$SHADEDGE
 70
     3
  9
$SHADEDIF
 70
    70
  9
$TILEMODE
 70
     1
  9
$MAXACTVP
 70
    64
  9
$PINSBASE
 10
0.0
 20
0.0
 30
0.0
  9
$PLIMCHECK
 70
     0
  9
$PEXTMIN
 10
-0.5
 20
-0.5
 30
-0.5
  9
$PEXTMAX
 10
5.0
 20
5.0
 30
5.0
  9
$PLIMMIN
 10
-0.5
 20
-0.5
  9
$PLIMMAX
 10
5.0
 20
5.0
  9
$UNITMODE
 70
     0
  9
$VISRETAIN
 70
     0
  9
$PLINEGEN
 70
     1
  9
$PSLTSCALE
 70
     0
  9
$TREEDEPTH
 70
  3020
  9
$CMLSTYLE
  2
Standard
  9
$CMLJUST
 70
     0
  9
$CMLSCALE
 40
1.0
  9
$PROXYGRAPHICS
 70
     0
  9
$MEASUREMENT
 70
     1
  9
$CELWEIGHT
370
     0
  9
$ENDCAPS
280
     0
  9
$JOINSTYLE
280
     0
  9
$LWDISPLAY
290
     0
  9
$INSUNITS
 70
     0
  9
$HYPERLINKBASE
  1

  9
$STYLESHEET
  1

  9
$XEDIT
290
     1
  9
$CEPSNTYPE
380
     0
  9
$PSTYLEMODE
290
     1
  9
$FINGERPRINTGUID
  2

  9
$VERSIONGUID
  2
{1278909B-9D21-4218-960E-1F6FB330630C}
  9
$EXTNAMES
290
     1
  9
$PSVPSCALE
 40
0.0
  9
$OLESTARTUP
290
     0
  0
ENDSEC
  0
SECTION
  2
CLASSES
  0
CLASS
  1
IMAGE
  2
AcDbRasterImage
  3
ISM
 90
    34943
280
     0
281
     1
  0
CLASS
  1
DICTIONARYVAR
  2
AcDbDictionaryVar
  3
ObjectDBX Classes
 90
        0
280
     0
281
     0
  0
CLASS
  1
RASTERVARIABLES
  2
AcDbRasterVariables
  3
ISM
 90
    32768
280
     0
281
     0
  0
CLASS
  1
IMAGEDEF
  2
AcDbRasterImageDef
  3
ISM
 90
    32768
280
     0
281
     0
  0
CLASS
  1
IMAGEDEF_REACTOR
  2
AcDbRasterImageDefReactor
  3
ISM
 90
    32769
280
     0
281
     0
  0
CLASS
  1
IDBUFFER
  2
AcDbIdBuffer
  3
ObjectDBX Classes
 90
    32768
280
     0
281
     0
  0
CLASS
  1
SPATIAL_FILTER
  2
AcDbSpatialFilter
  3
ObjectDBX Classes
 90
    32768
280
     0
281
     0
  0
CLASS
  1
SORTENTSTABLE
  2
AcDbSortentsTable
  3
ObjectDBX Classes
 90
    32768
280
     0
281
     0
  0
CLASS
  1
LAYER_INDEX
  2
AcDbLayerIndex
  3
ObjectDBX Classes
 90
    32768
280
     0
281
     0
  0
CLASS
  1
SPATIAL_INDEX
  2
AcDbSpatialIndex
  3
ObjectDBX Classes
 90
    32768
280
     0
281
     0
  0
CLASS
  1
OBJECT_PTR
  2
CAseDLPNTableRecord
  3
ASE-LPNTableRecord
 90
    32769
280
     0
281
     0
  0
CLASS
  1
LAYOUT
  2
AcDbLayout
  3
ObjectDBX Classes
 90
        0
280
     0
281
     0
  0
CLASS
  1
PLOTSETTINGS
  2
AcDbPlotSettings
  3
ObjectDBX Classes
 90
    32768
280
     0
281
     0
  0
CLASS
  1
ACDBDICTIONARYWDFLT
  2
AcDbDictionaryWithDefault
  3
ObjectDBX Classes
 90
        0
280
     0
281
     0
  0
CLASS
  1
ACDBPLACEHOLDER
  2
AcDbPlaceHolder
  3
ObjectDBX Classes
 90
        0
280
     0
281
     0
  0
CLASS
  1
VBA_PROJECT
  2
AcDbVbaProject
  3
acad
 90
    32768
280
     0
281
     0
  0
CLASS
  1
WIPEOUT
  2
AcDbWipeout
  3
"WipeOut|Product Desc: Object Enabler for WipeOut entity                        |Company: Autodesk, Inc.                        |WEB Address: www.autodesk.com"
 90
    34943
280
     0
281
     1
  0
CLASS
  1
WIPEOUTVARIABLES
  2
AcDbWipeoutVariables
  3
"WipeOut|Product Desc:     WipeOut Dbx Application|Company:          Autodesk, Inc.|WEB Address:      www.autodesk.com"
 90
        0
280
     0
281
     0
  0
CLASS
  1
RTEXT
  2
RText
  3
RText|AutoCAD Express Tool|expresstools@autodesk.com
 90
    35839
280
     0
281
     1
  0
CLASS
  1
ARCALIGNEDTEXT
  2
AcDbArcAlignedText
  3
ATEXT|AutoCAD Express Tool|expresstools@autodesk.com
 90
    32768
280
     0
281
     1
  0
CLASS
  1
SCALE
  2
AcDbScale
  3
ObjectDBX Classes
 90
     1153
280
     0
281
     0
  0
CLASS
  1
MATERIAL
  2
AcDbMaterial
  3
ObjectDBX Classes
 90
     1153
280
     0
281
     0
  0
CLASS
  1
VISUALSTYLE
  2
AcDbVisualStyle
  3
ObjectDBX Classes
 90
     4095
280
     0
281
     0
  0
CLASS
  1
TABLESTYLE
  2
AcDbTableStyle
  3
ObjectDBX Classes
 90
     4095
280
     0
281
     0
  0
CLASS
  1
MLEADERSTYLE
  2
AcDbMLeaderStyle
  3
ACDB_MLEADERSTYLE_CLASS
 90
     4095
280
     0
281
     0
  0
CLASS
  1
CELLSTYLEMAP
  2
AcDbCellStyleMap
  3
ObjectDBX Classes
 90
     1152
280
     0
281
     0
  0
ENDSEC
  0
SECTION
  2
TABLES
  0
TABLE
  2
VPORT
  5
7
330
0
100
AcDbSymbolTable
 70
    16
  0
VPORT
  5
289
330
7
100
AcDbSymbolTableRecord
100
AcDbViewportTableRecord
  2
*ACTIVE
 70
     0
 10
0.0
 20
0.0
 11
1.0
 21
1.0
 12
232.7051740134228
 22
41.17999799999999
 13
0.0
 23
0.0
 14
1.0
 24
1.0
 15
0.0
 25
0.0
 16
0.0
 26
0.0
 36
1.0
 17
0.0
 27
0.0
 37
0.0
 40
254.0844367493034
 41
2.186577181208053
 42
50.0
 43
272.9400720000001
 44
-272.9400720000001
 50
0.0
 51
0.0
 71
    16
 72
   100
 73
     1
 74
     1
 75
     0
 76
     0
 77
     0
 78
     0
281
     0
 65
     0
110
0.0
120
0.0
130
0.0
111
1.0
121
0.0
131
0.0
112
0.0
122
1.0
132
0.0
 79
     0
146
0.0
  0
VPORT
  5
28A
330
7
100
AcDbSymbolTableRecord
100
AcDbViewportTableRecord
  2
L1
 70
     0
 10
0.0
 20
0.0
 11
1.0
 21
1.0
 12
42.4575
 22
41.17999799999999
 13
0.0
 23
0.0
 14
1.0
 24
1.0
 15
0.0
 25
0.0
 16
0.0
 26
0.0
 36
1.0
 17
0.0
 27
0.0
 37
0.0
 40
254.0
 41
0.6885640000000001
 42
50.0
 43
272.9400720000001
 44
-272.9400720000001
 50
0.0
 51
0.0
 71
    16
 72
   100
 73
     1
 74
     1
 75
     0
 76
     0
 77
     0
 78
     0
281
     0
 65
     0
110
0.0
120
0.0
130
0.0
111
1.0
121
0.0
131
0.0
112
0.0
122
1.0
132
0.0
 79
     0
146
0.0
  0
VPORT
  5
28B
330
7
100
AcDbSymbolTableRecord
100
AcDbViewportTableRecord
  2
L2
 70
     0
 10
0.0
 20
0.0
 11
0.5
 21
1.0
 12
0.0
 22
0.0
 13
0.0
 23
0.0
 14
1.0
 24
1.0
 15
0.0
 25
0.0
 16
0.0
 26
-1.0
 36
0.0
 17
0.0
 27
0.0
 37
0.0
 40
1587.917457
 41
0.6885640000000001
 42
50.0
 43
817.406646
 44
-817.406646
 50
0.0
 51
0.0
 71
    16
 72
   100
 73
     1
 74
     1
 75
     0
 76
     0
 77
     0
 78
     0
281
     0
 65
     0
110
0.0
120
0.0
130
0.0
111
1.0
121
0.0
131
0.0
112
0.0
122
1.0
132
0.0
 79
     0
146
0.0
  0
VPORT
  5
28C
330
7
100
AcDbSymbolTableRecord
100
AcDbViewportTableRecord
  2
L2
 70
     0
 10
0.5
 20
0.0
 11
1.0
 21
1.0
 12
0.0
 22
0.0
 13
0.0
 23
0.0
 14
1.0
 24
1.0
 15
0.0
 25
0.0
 16
1.0
 26
0.0
 36
0.0
 17
0.0
 27
0.0
 37
0.0
 40
1587.917457
 41
0.6885640000000001
 42
50.0
 43
804.051903
 44
-804.051903
 50
0.0
 51
0.0
 71
    16
 72
   100
 73
     1
 74
     1
 75
     0
 76
     0
 77
     0
 78
     0
281
     0
 65
     0
110
0.0
120
0.0
130
0.0
111
1.0
121
0.0
131
0.0
112
0.0
122
1.0
132
0.0
 79
     0
146
0.0
  0
VPORT
  5
28D
330
7
100
AcDbSymbolTableRecord
100
AcDbViewportTableRecord
  2
L3
 70
     0
 10
0.0
 20
0.5
 11
1.0
 21
1.0
 12
42.4575
 22
41.17999799999999
 13
0.0
 23
0.0
 14
1.0
 24
1.0
 15
0.0
 25
0.0
 16
0.0
 26
0.0
 36
1.0
 17
0.0
 27
0.0
 37
0.0
 40
254.0
 41
0.6885640000000001
 42
50.0
 43
272.9400720000001
 44
-272.9400720000001
 50
0.0
 51
0.0
 71
    16
 72
   100
 73
     1
 74
     1
 75
     0
 76
     0
 77
     0
 78
     0
281
     0
 65
     0
110
0.0
120
0.0
130
0.0
111
1.0
121
0.0
131
0.0
112
0.0
122
1.0
132
0.0
 79
     0
146
0.0
  0
VPORT
  5
28E
330
7
100
AcDbSymbolTableRecord
100
AcDbViewportTableRecord
  2
L3
 70
     0
 10
0.0
 20
0.0
 11
1.0
 21
0.5
 12
0.0
 22
0.0
 13
0.0
 23
0.0
 14
1.0
 24
1.0
 15
0.0
 25
0.0
 16
0.0
 26
-1.0
 36
0.0
 17
0.0
 27
0.0
 37
0.0
 40
1587.917457
 41
0.6885640000000001
 42
50.0
 43
817.406646
 44
-817.406646
 50
0.0
 51
0.0
 71
    16
 72
   100
 73
     1
 74
     1
 75
     0
 76
     0
 77
     0
 78
     0
281
     0
 65
     0
110
0.0
120
0.0
130
0.0
111
1.0
121
0.0
131
0.0
112
0.0
122
1.0
132
0.0
 79
     0
146
0.0
  0
VPORT
  5
28F
330
7
100
AcDbSymbolTableRecord
100
AcDbViewportTableRecord
  2
L4
 70
     0
 10
0.0
 20
0.5
 11
0.5
 21
1.0
 12
42.4575
 22
41.17999799999999
 13
0.0
 23
0.0
 14
1.0
 24
1.0
 15
0.0
 25
0.0
 16
0.0
 26
0.0
 36
1.0
 17
0.0
 27
0.0
 37
0.0
 40
254.0
 41
0.6885640000000001
 42
50.0
 43
272.9400720000001
 44
-272.9400720000001
 50
0.0
 51
0.0
 71
    16
 72
   100
 73
     1
 74
     1
 75
     0
 76
     0
 77
     0
 78
     0
281
     0
 65
     0
110
0.0
120
0.0
130
0.0
111
1.0
121
0.0
131
0.0
112
0.0
122
1.0
132
0.0
 79
     0
146
0.0
  0
VPORT
  5
290
330
7
100
AcDbSymbolTableRecord
100
AcDbViewportTableRecord
  2
L4
 70
     0
 10
0.0
 20
0.0
 11
0.5
 21
0.5
 12
0.0
 22
0.0
 13
0.0
 23
0.0
 14
1.0
 24
1.0
 15
0.0
 25
0.0
 16
0.0
 26
-1.0
 36
0.0
 17
0.0
 27
0.0
 37
0.0
 40
1587.917457
 41
0.6885640000000001
 42
50.0
 43
817.406646
 44
-817.406646
 50
0.0
 51
0.0
 71
    16
 72
   100
 73
     1
 74
     1
 75
     0
 76
     0
 77
     0
 78
     0
281
     0
 65
     0
110
0.0
120
0.0
130
0.0
111
1.0
121
0.0
131
0.0
112
0.0
122
1.0
132
0.0
 79
     0
146
0.0
  0
VPORT
  5
291
330
7
100
AcDbSymbolTableRecord
100
AcDbViewportTableRecord
  2
L4
 70
     0
 10
0.5
 20
0.0
 11
1.0
 21
0.5
 12
0.0
 22
0.0
 13
0.0
 23
0.0
 14
1.0
 24
1.0
 15
0.0
 25
0.0
 16
1.0
 26
0.0
 36
0.0
 17
0.0
 27
0.0
 37
0.0
 40
1587.917457
 41
0.6885640000000001
 42
50.0
 43
804.051903
 44
-804.051903
 50
0.0
 51
0.0
 71
    16
 72
   100
 73
     1
 74
     1
 75
     0
 76
     0
 77
     0
 78
     0
281
     0
 65
     0
110
0.0
120
0.0
130
0.0
111
1.0
121
0.0
131
0.0
112
0.0
122
1.0
132
0.0
 79
     0
146
0.0
  0
VPORT
  5
292
330
7
100
AcDbSymbolTableRecord
100
AcDbViewportTableRecord
  2
L4
 70
     0
 10
0.5
 20
0.5
 11
1.0
 21
1.0
 12
0.0
 22
0.0
 13
0.0
 23
0.0
 14
1.0
 24
1.0
 15
0.0
 25
0.0
 16
0.5773500000000001
 26
-0.5773500000000001
 36
0.5773500000000001
 17
0.0
 27
0.0
 37
0.0
 40
1558.933959
 41
0.688564
 42
50.0
 43
811.918084
 44
-811.918084
 50
0.0
 51
0.0
 71
    16
 72
   100
 73
     1
 74
     1
 75
     0
 76
     0
 77
     0
 78
     0
281
     0
 65
     0
110
0.0
120
0.0
130
0.0
111
1.0
121
0.0
131
0.0
112
0.0
122
1.0
132
0.0
 79
     0
146
0.0
  0
VPORT
  5
293
330
7
100
AcDbSymbolTableRecord
100
AcDbViewportTableRecord
  2
L6
 70
     0
 10
0.0
 20
0.5
 11
0.333333
 21
1.0
 12
0.0
 22
0.0
 13
0.0
 23
0.0
 14
1.0
 24
1.0
 15
0.0
 25
0.0
 16
0.718873
 26
-0.5850489999999999
 36
0.375419
 17
0.0
 27
0.0
 37
0.0
 40
1645.157538
 41
0.6885640000000001
 42
50.0
 43
851.8005329999999
 44
-851.8005329999999
 50
0.0
 51
0.0
 71
    16
 72
   100
 73
     1
 74
     1
 75
     0
 76
     0
 77
     0
 78
     0
281
     0
 65
     0
110
0.0
120
0.0
130
0.0
111
1.0
121
0.0
131
0.0
112
0.0
122
1.0
132
0.0
 79
     0
146
0.0
  0
VPORT
  5
294
330
7
100
AcDbSymbolTableRecord
100
AcDbViewportTableRecord
  2
L6
 70
     0
 10
0.0
 20
0.0
 11
0.333333
 21
0.5
 12
0.0
 22
0.0
 13
0.0
 23
0.0
 14
1.0
 24
1.0
 15
0.0
 25
0.0
 16
-1.0
 26
0.0
 36
0.0
 17
0.0
 27
0.0
 37
0.0
 40
1587.917457
 41
0.6885640000000001
 42
50.0
 43
804.051903
 44
-804.051903
 50
0.0
 51
0.0
 71
    16
 72
   100
 73
     1
 74
     1
 75
     0
 76
     0
 77
     0
 78
     0
281
     0
 65
     0
110
0.0
120
0.0
130
0.0
111
1.0
121
0.0
131
0.0
112
0.0
122
1.0
132
0.0
 79
     0
146
0.0
  0
VPORT
  5
295
330
7
100
AcDbSymbolTableRecord
100
AcDbViewportTableRecord
  2
L6
 70
     0
 10
0.333333
 20
0.5
 11
0.666667
 21
1.0
 12
42.4575
 22
41.17999799999999
 13
0.0
 23
0.0
 14
1.0
 24
1.0
 15
0.0
 25
0.0
 16
0.0
 26
0.0
 36
1.0
 17
0.0
 27
0.0
 37
0.0
 40
254.0
 41
0.6885640000000001
 42
50.0
 43
272.9400720000001
 44
-272.9400720000001
 50
0.0
 51
0.0
 71
    16
 72
   100
 73
     1
 74
     1
 75
     0
 76
     0
 77
     0
 78
     0
281
     0
 65
     0
110
0.0
120
0.0
130
0.0
111
1.0
121
0.0
131
0.0
112
0.0
122
1.0
132
0.0
 79
     0
146
0.0
  0
VPORT
  5
296
330
7
100
AcDbSymbolTableRecord
100
AcDbViewportTableRecord
  2
L6
 70
     0
 10
0.333333
 20
0.0
 11
0.666667
 21
0.5
 12
0.0
 22
0.0
 13
0.0
 23
0.0
 14
1.0
 24
1.0
 15
0.0
 25
0.0
 16
0.0
 26
-1.0
 36
0.0
 17
0.0
 27
0.0
 37
0.0
 40
1587.917457
 41
0.6885640000000001
 42
50.0
 43
817.406646
 44
-817.406646
 50
0.0
 51
0.0
 71
    16
 72
   100
 73
     1
 74
     1
 75
     0
 76
     0
 77
     0
 78
     0
281
     0
 65
     0
110
0.0
120
0.0
130
0.0
111
1.0
121
0.0
131
0.0
112
0.0
122
1.0
132
0.0
 79
     0
146
0.0
  0
VPORT
  5
297
330
7
100
AcDbSymbolTableRecord
100
AcDbViewportTableRecord
  2
L6
 70
     0
 10
0.666667
 20
0.5
 11
1.0
 21
1.0
 12
0.0
 22
0.0
 13
0.0
 23
0.0
 14
1.0
 24
1.0
 15
0.0
 25
0.0
 16
0.5773500000000001
 26
-0.5773500000000001
 36
0.5773500000000001
 17
0.0
 27
0.0
 37
0.0
 40
1558.933959
 41
0.688564
 42
50.0
 43
811.918084
 44
-811.918084
 50
0.0
 51
0.0
 71
    16
 72
   100
 73
     1
 74
     1
 75
     0
 76
     0
 77
     0
 78
     0
281
     0
 65
     0
110
0.0
120
0.0
130
0.0
111
1.0
121
0.0
131
0.0
112
0.0
122
1.0
132
0.0
 79
     0
146
0.0
  0
VPORT
  5
298
330
7
100
AcDbSymbolTableRecord
100
AcDbViewportTableRecord
  2
L6
 70
     0
 10
0.666667
 20
0.0
 11
1.0
 21
0.5
 12
0.0
 22
0.0
 13
0.0
 23
0.0
 14
1.0
 24
1.0
 15
0.0
 25
0.0
 16
1.0
 26
0.0
 36
0.0
 17
0.0
 27
0.0
 37
0.0
 40
1587.917457
 41
0.6885640000000001
 42
50.0
 43
804.051903
 44
-804.051903
 50
0.0
 51
0.0
 71
    16
 72
   100
 73
     1
 74
     1
 75
     0
 76
     0
 77
     0
 78
     0
281
     0
 65
     0
110
0.0
120
0.0
130
0.0
111
1.0
121
0.0
131
0.0
112
0.0
122
1.0
132
0.0
 79
     0
146
0.0
  0
ENDTAB
  0
TABLE
  2
LTYPE
  5
4
330
0
100
AcDbSymbolTable
 70
     7
  0
LTYPE
  5
11
330
4
100
AcDbSymbolTableRecord
100
AcDbLinetypeTableRecord
  2
ByBlock
 70
     0
  3

 72
    65
 73
     0
 40
0.0
  0
LTYPE
  5
12
330
4
100
AcDbSymbolTableRecord
100
AcDbLinetypeTableRecord
  2
ByLayer
 70
     0
  3

 72
    65
 73
     0
 40
0.0
  0
LTYPE
  5
13
330
4
100
AcDbSymbolTableRecord
100
AcDbLinetypeTableRecord
  2
Continuous
 70
     0
  3
Solid line
 72
    65
 73
     0
 40
0.0
  0
LTYPE
  5
24
330
4
100
AcDbSymbolTableRecord
100
AcDbLinetypeTableRecord
  2
DASHED
 70
     0
  3
__ __ __ __ __ __ __ __ __
 72
    65
 73
     2
 40
25.72
 49
12.86
 74
     0
 49
-12.86
 74
     0
  0
LTYPE
  5
25
330
4
100
AcDbSymbolTableRecord
100
AcDbLinetypeTableRecord
  2
HIDDEN
 70
     0
  3
_ _ _ _ _ _ _ _ _ _ _ _ _ _ _
 72
    65
 73
     2
 40
0.5
 49
0.25
 74
     0
 49
-0.25
 74
     0
  0
LTYPE
  5
26
330
4
100
AcDbSymbolTableRecord
100
AcDbLinetypeTableRecord
  2
PHANTOM
 70
     0
  3
____ _ _ ____ _ _ _____ _ _ ____
 72
    65
 73
     6
 40
50.5
 49
18.0
 74
     0
 49
-6.5
 74
     0
 49
6.5
 74
     0
 49
-6.5
 74
     0
 49
6.5
 74
     0
 49
-6.5
 74
     0
  0
LTYPE
  5
27
330
4
100
AcDbSymbolTableRecord
100
AcDbLinetypeTableRecord
  2
CENTER
 70
     0
  3
____ _ ____ _ ____ _ ____
 72
    65
 73
     4
 40
47.5
 49
22.0
 74
     0
 49
-8.5
 74
     0
 49
8.5
 74
     0
 49
-8.5
 74
     0
  0
LTYPE
  5
28
330
4
100
AcDbSymbolTableRecord
100
AcDbLinetypeTableRecord
  2
DOT
 70
     0
  3
.........................
 72
    65
 73
     2
 40
10.0
 49
0.0
 74
     0
 49
-10.0
 74
     0
  0
LTYPE
  5
29
330
4
100
AcDbSymbolTableRecord
100
AcDbLinetypeTableRecord
  2
DASHDOT
 70
     0
  3
_._._._._._._._._._._._._._._._.
 72
    65
 73
     4
 40
70.0
 49
31.0
 74
     0
 49
-13.0
 74
     0
 49
13.0
 74
     0
 49
-13.0
 74
     0
  0
ENDTAB
  0
TABLE
  2
LAYER
  5
2
330
0
100
AcDbSymbolTable
 70
    10
  0
LAYER
  5
14
102
{ACAD_XDICTIONARY
360
2FD
102
}
330
2
100
AcDbSymbolTableRecord
100
AcDbLayerTableRecord
  2
0
 70
     0
 62
     7
  6
Continuous
370
    -3
390
1D
  0
LAYER
  5
2BB
330
2
100
AcDbSymbolTableRecord
100
AcDbLayerTableRecord
  2
DEFPOINTS
 70
     0
 62
     7
  6
Continuous
290
     0
370
    -3
390
1D
  0
LAYER
  5
2BC
102
{ACAD_XDICTIONARY
360
2FF
102
}
330
2
100
AcDbSymbolTableRecord
100
AcDbLayerTableRecord
  2
NOCUT
 70
     0
 62
     7
  6
Continuous
370
    -3
390
1D
  0
LAYER
  5
2BD
102
{ACAD_XDICTIONARY
360
301
102
}
330
2
100
AcDbSymbolTableRecord
100
AcDbLayerTableRecord
  2
CUT
 70
     0
 62
     1
  6
Continuous
370
    -3
390
1D
  0
LAYER
  5
2BE
102
{ACAD_XDICTIONARY
360
303
102
}
330
2
100
AcDbSymbolTableRecord
100
AcDbLayerTableRecord
  2
1
 70
     0
 62
     4
  6
Continuous
370
    -3
390
1D
  0
LAYER
  5
2BF
102
{ACAD_XDICTIONARY
360
305
102
}
330
2
100
AcDbSymbolTableRecord
100
AcDbLayerTableRecord
  2
SK1
 70
     0
 62
     4
  6
Continuous
370
    -3
390
1D
  0
LAYER
  5
2C0
102
{ACAD_XDICTIONARY
360
307
102
}
330
2
100
AcDbSymbolTableRecord
100
AcDbLayerTableRecord
  2
SK4
 70
     0
 62
     2
  6
CENTER
370
    -3
390
1D
  0
LAYER
  5
2C1
102
{ACAD_XDICTIONARY
360
309
102
}
330
2
100
AcDbSymbolTableRecord
100
AcDbLayerTableRecord
  2
4
 70
     0
 62
     2
  6
CENTER
370
    -3
390
1D
  0
LAYER
  5
2C2
102
{ACAD_XDICTIONARY
360
30B
102
}
330
2
100
AcDbSymbolTableRecord
100
AcDbLayerTableRecord
  2
2
 70
     0
 62
     7
  6
Continuous
370
    -3
390
1D
  0
LAYER
  5
2C3
102
{ACAD_XDICTIONARY
360
30D
102
}
330
2
100
AcDbSymbolTableRecord
100
AcDbLayerTableRecord
  2
SK2
 70
     0
 62
     7
  6
Continuous
370
    -3
390
1D
  0
ENDTAB
  0
TABLE
  2
STYLE
  5
3
330
0
100
AcDbSymbolTable
 70
     2
  0
STYLE
  5
17
330
3
100
AcDbSymbolTableRecord
100
AcDbTextStyleTableRecord
  2
Standard
 70
     0
 40
0.0
 41
1.0
 50
0.0
 71
     0
 42
2.5
  3
txt
  4

  0
STYLE
  5
243
330
3
100
AcDbSymbolTableRecord
100
AcDbTextStyleTableRecord
  2
blockfont
 70
     0
 40
0.0
 41
1.0
 50
0.0
 71
     0
 42
0.2
  3
simplex.shx
  4

  0
ENDTAB
  0
TABLE
  2
VIEW
  5
5
330
0
100
AcDbSymbolTable
 70
     8
  0
VIEW
  5
281
330
5
100
AcDbSymbolTableRecord
100
AcDbViewTableRecord
  2
TOP
 70
     0
 40
254.0
 10
42.4575
 20
41.17999799999999
 41
388.757829
 11
0.0
 21
0.0
 31
1.0
 12
0.0
 22
0.0
 32
0.0
 42
50.0
 43
272.9400720000001
 44
-272.9400720000001
 50
0.0
 71
    16
281
     0
 72
     0
  0
VIEW
  5
282
330
5
100
AcDbSymbolTableRecord
100
AcDbViewTableRecord
  2
FRONT
 70
     0
 40
1587.917457
 10
0.0
 20
0.0
 41
388.757829
 11
0.0
 21
-1.0
 31
0.0
 12
0.0
 22
0.0
 32
0.0
 42
50.0
 43
817.406646
 44
-817.406646
 50
0.0
 71
    16
281
     0
 72
     0
  0
VIEW
  5
283
330
5
100
AcDbSymbolTableRecord
100
AcDbViewTableRecord
  2
RIGHT
 70
     0
 40
1587.917457
 10
0.0
 20
0.0
 41
254.0
 11
1.0
 21
0.0
 31
0.0
 12
0.0
 22
0.0
 32
0.0
 42
50.0
 43
804.051903
 44
-804.051903
 50
0.0
 71
    16
281
     0
 72
     0
  0
VIEW
  5
284
330
5
100
AcDbSymbolTableRecord
100
AcDbViewTableRecord
  2
BACK
 70
     0
 40
1587.917457
 10
0.0
 20
0.0
 41
388.757829
 11
0.0
 21
1.0
 31
0.0
 12
0.0
 22
0.0
 32
0.0
 42
50.0
 43
817.406646
 44
-817.406646
 50
0.0
 71
    16
281
     0
 72
     0
  0
VIEW
  5
285
330
5
100
AcDbSymbolTableRecord
100
AcDbViewTableRecord
  2
BOTTOM
 70
     0
 40
254.0
 10
0.0
 20
0.0
 41
388.757829
 11
0.0
 21
0.0
 31
-1.0
 12
0.0
 22
0.0
 32
0.0
 42
50.0
 43
793.958728
 44
-793.958728
 50
180.0
 71
    16
281
     0
 72
     0
  0
VIEW
  5
286
330
5
100
AcDbSymbolTableRecord
100
AcDbViewTableRecord
  2
LEFT
 70
     0
 40
1587.917457
 10
0.0
 20
0.0
 41
254.0
 11
-1.0
 21
0.0
 31
0.0
 12
0.0
 22
0.0
 32
0.0
 42
50.0
 43
804.051903
 44
-804.051903
 50
0.0
 71
    16
281
     0
 72
     0
  0
VIEW
  5
287
330
5
100
AcDbSymbolTableRecord
100
AcDbViewTableRecord
  2
TFR-ISO
 70
     0
 40
1558.933959
 10
0.0
 20
0.0
 41
454.49842
 11
0.5773500000000001
 21
-0.5773500000000001
 31
0.5773500000000001
 12
0.0
 22
0.0
 32
0.0
 42
50.0
 43
811.918084
 44
-811.918084
 50
0.0
 71
    16
281
     0
 72
     0
  0
VIEW
  5
288
330
5
100
AcDbSymbolTableRecord
100
AcDbViewTableRecord
  2
TFR-TRI
 70
     0
 40
1645.157538
 10
0.0
 20
0.0
 41
442.39492
 11
0.718873
 21
-0.5850489999999999
 31
0.375419
 12
0.0
 22
0.0
 32
0.0
 42
50.0
 43
851.8005329999999
 44
-851.8005329999999
 50
0.0
 71
    16
281
     0
 72
     0
  0
ENDTAB
  0
TABLE
  2
UCS
  5
6
330
0
100
AcDbSymbolTable
 70
     0
  0
ENDTAB
  0
TABLE
  2
APPID
  5
8
330
0
100
AcDbSymbolTable
 70
     3
  0
APPID
  5
16
330
8
100
AcDbSymbolTableRecord
100
AcDbRegAppTableRecord
  2
ACAD
 70
     0
  0
APPID
  5
311
330
8
100
AcDbSymbolTableRecord
100
AcDbRegAppTableRecord
  2
DCO15
 70
     0
  0
APPID
  5
34B
330
8
100
AcDbSymbolTableRecord
100
AcDbRegAppTableRecord
  2
ACAD_MLEADERVER
 70
     0
  0
ENDTAB
  0
TABLE
  2
DIMSTYLE
  5
9
330
0
100
AcDbSymbolTable
 70
     1
100
AcDbDimStyleTable
 71
     0
  0
DIMSTYLE
105
18
102
{ACAD_REACTORS
330
24B
330
256
330
262
330
26C
330
276
330
280
102
}
330
9
100
AcDbSymbolTableRecord
100
AcDbDimStyleTableRecord
  2
Standard
 70
     0
340
17
  0
ENDTAB
  0
TABLE
  2
BLOCK_RECORD
  5
1
330
0
100
AcDbSymbolTable
 70
     6
  0
BLOCK_RECORD
  5
A
330
1
100
AcDbSymbolTableRecord
100
AcDbBlockTableRecord
  2
*MODEL_SPACE
340
20
  0
BLOCK_RECORD
  5
B
330
1
100
AcDbSymbolTableRecord
100
AcDbBlockTableRecord
  2
*PAPER_SPACE
340
21
  0
BLOCK_RECORD
  5
240
330
1
100
AcDbSymbolTableRecord
100
AcDbBlockTableRecord
  2
_D0
340
0
  0
BLOCK_RECORD
  5
24C
330
1
100
AcDbSymbolTableRecord
100
AcDbBlockTableRecord
  2
_D1
340
0
  0
BLOCK_RECORD
  5
257
330
1
100
AcDbSymbolTableRecord
100
AcDbBlockTableRecord
  2
_D2
340
0
  0
BLOCK_RECORD
  5
263
330
1
100
AcDbSymbolTableRecord
100
AcDbBlockTableRecord
  2
_D3
340
0
  0
BLOCK_RECORD
  5
26D
330
1
100
AcDbSymbolTableRecord
100
AcDbBlockTableRecord
  2
_D4
340
0
  0
BLOCK_RECORD
  5
277
330
1
100
AcDbSymbolTableRecord
100
AcDbBlockTableRecord
  2
_D5
340
0
  0
ENDTAB
  0
ENDSEC
  0
SECTION
  2
BLOCKS
  0
BLOCK
  5
D
330
A
100
AcDbEntity
  8
0
390
1D
100
AcDbBlockBegin
  2
*MODEL_SPACE
 70
     0
 10
0.0
 20
0.0
 30
0.0
  3
*MODEL_SPACE
  1

  0
ENDBLK
  5
E
330
A
100
AcDbEntity
  8
0
390
1D
100
AcDbBlockEnd
  0
BLOCK
  5
F
330
B
100
AcDbEntity
 67
     1
  8
0
390
1D
100
AcDbBlockBegin
  2
*PAPER_SPACE
 70
     0
 10
0.0
 20
0.0
 30
0.0
  3
*PAPER_SPACE
  1

  0
ENDBLK
  5
10
330
B
100
AcDbEntity
 67
     1
  8
0
390
1D
100
AcDbBlockEnd
  0
BLOCK
  5
241
330
240
100
AcDbEntity
  8
0
390
1D
100
AcDbBlockBegin
  2
_D0
 70
     0
 10
0.0
 20
0.0
 30
0.0
  3
_D0
  1

  0
MTEXT
  5
242
330
240
100
AcDbEntity
  8
2
390
1D
100
AcDbMText
 10
42.891604
 20
75.739271
 30
0.0
 40
4.57
 41
0.0
 71
     7
 72
     5
  1
\W01.000;\Fsimplex.shx;21
 73
     2
 44
0.9036139999999999
1001
ACAD
1000
MTEXTBEGIN
1070
    73
1070
     2
1070
    44
1040
0.9036139999999999
1070
    74
1070
     0
1000
MTEXTEND
  0
LINE
  5
245
330
240
100
AcDbEntity
  8
2
390
1D
100
AcDbLine
 10
36.0
 20
0.0
 30
0.0
 11
36.0
 21
78.43
 31
0.0
  0
LINE
  5
246
330
240
100
AcDbEntity
  8
2
390
1D
100
AcDbLine
 10
57.0
 20
0.0
 30
0.0
 11
57.0
 21
78.43
 31
0.0
  0
LINE
  5
247
330
240
100
AcDbEntity
  8
2
390
1D
100
AcDbLine
 10
24.575
 20
74.93000000000001
 30
0.0
 11
68.425
 21
74.93000000000001
 31
0.0
  0
SOLID
  5
248
330
240
100
AcDbEntity
  8
2
390
1D
100
AcDbTrace
 10
36.0
 20
74.93000000000001
 30
0.0
 11
31.430002
 21
74.32834799999999
 31
0.0
 12
31.429998
 22
75.53165200000001
 32
0.0
 13
36.0
 23
74.93000000000001
 33
0.0
  0
SOLID
  5
249
330
240
100
AcDbEntity
  8
2
390
1D
100
AcDbTrace
 10
57.0
 20
74.93000000000001
 30
0.0
 11
61.569998
 21
75.53165200000001
 31
0.0
 12
61.570002
 22
74.32834799999999
 32
0.0
 13
57.0
 23
74.93000000000001
 33
0.0
  0
ENDBLK
  5
24A
330
240
100
AcDbEntity
  8
0
390
1D
100
AcDbBlockEnd
  0
BLOCK
  5
24D
330
24C
100
AcDbEntity
  8
0
390
1D
100
AcDbBlockBegin
  2
_D1
 70
     0
 10
0.0
 20
0.0
 30
0.0
  3
_D1
  1

  0
MTEXT
  5
24E
330
24C
100
AcDbEntity
  8
2
390
1D
100
AcDbMText
 10
104.890729
 20
19.7875
 30
0.0
 40
4.57
 41
0.0
 71
     7
 72
     5
  1
\W01.000;\Fsimplex.shx;2.3
 11
0.0
 21
1.0
 31
0.0
 73
     2
 44
0.9036139999999999
1001
ACAD
1000
MTEXTBEGIN
1070
    73
1070
     2
1070
    44
1040
0.9036139999999999
1070
    74
1070
     0
1000
MTEXTEND
  0
MTEXT
  5
24F
330
24C
100
AcDbEntity
  8
2
390
1D
100
AcDbMText
 10
104.890729
 20
10.683203
 30
0.0
 40
4.57
 41
0.0
 71
     7
 72
     5
  1
\W01.000;\Fsimplex.shx;%%c
 11
0.0
 21
1.0
 31
0.0
 73
     2
 44
0.9036139999999999
1001
ACAD
1000
MTEXTBEGIN
1070
    73
1070
     2
1070
    44
1040
0.9036139999999999
1070
    74
1070
     0
1000
MTEXTEND
  0
LINE
  5
250
330
24C
100
AcDbEntity
  8
2
390
1D
100
AcDbLine
 10
57.0
 20
1.149999999999999
 30
0.0
 11
108.8425
 21
1.149999999999999
 31
0.0
  0
LINE
  5
251
330
24C
100
AcDbEntity
  8
2
390
1D
100
AcDbLine
 10
57.0
 20
-1.149999999999999
 30
0.0
 11
108.8425
 21
-1.149999999999999
 31
0.0
  0
LINE
  5
252
330
24C
100
AcDbEntity
  8
2
390
1D
100
AcDbLine
 10
106.8425
 20
-12.575
 30
0.0
 11
106.8425
 21
33.126187
 31
0.0
  0
SOLID
  5
253
330
24C
100
AcDbEntity
  8
2
390
1D
100
AcDbTrace
 10
106.8425
 20
1.149999999999999
 30
0.0
 11
106.240848
 21
5.719998
 31
0.0
 12
107.444152
 22
5.720002
 32
0.0
 13
106.8425
 23
1.149999999999999
 33
0.0
  0
SOLID
  5
254
330
24C
100
AcDbEntity
  8
2
390
1D
100
AcDbTrace
 10
106.8425
 20
-1.149999999999999
 30
0.0
 11
107.444152
 21
-5.719998
 31
0.0
 12
106.240848
 22
-5.720002
 32
0.0
 13
106.8425
 23
-1.149999999999999
 33
0.0
  0
ENDBLK
  5
255
330
24C
100
AcDbEntity
  8
0
390
1D
100
AcDbBlockEnd
  0
BLOCK
  5
258
330
257
100
AcDbEntity
  8
0
390
1D
100
AcDbBlockBegin
  2
_D2
 70
     0
 10
0.0
 20
0.0
 30
0.0
  3
_D2
  1

  0
MTEXT
  5
259
330
257
100
AcDbEntity
  8
SK2
390
1D
100
AcDbMText
 10
-16.739271
 20
21.6375
 30
0.0
 40
4.57
 41
0.0
 71
     7
 72
     5
  1
\W01.000;\Fsimplex.shx;6
 11
0.0
 21
1.0
 31
0.0
 73
     2
 44
0.9036139999999999
1001
ACAD
1000
MTEXTBEGIN
1070
    73
1070
     2
1070
    44
1040
0.9036139999999999
1070
    74
1070
     0
1000
MTEXTEND
  0
MTEXT
  5
25B
330
257
100
AcDbEntity
  8
SK2
390
1D
100
AcDbMText
 10
-16.739271
 20
12.533203
 30
0.0
 40
4.57
 41
0.0
 71
     7
 72
     5
  1
\W01.000;\Fsimplex.shx;%%c
 11
0.0
 21
1.0
 31
0.0
 73
     2
 44
0.9036139999999999
1001
ACAD
1000
MTEXTBEGIN
1070
    73
1070
     2
1070
    44
1040
0.9036139999999999
1070
    74
1070
     0
1000
MTEXTEND
  0
LINE
  5
25C
330
257
100
AcDbEntity
  8
SK2
390
1D
100
AcDbLine
 10
0.4
 20
3.0
 30
0.0
 11
-18.2875
 21
3.0
 31
0.0
  0
LINE
  5
25D
330
257
100
AcDbEntity
  8
SK2
390
1D
100
AcDbLine
 10
0.4
 20
-3.0
 30
0.0
 11
-18.2875
 21
-3.0
 31
0.0
  0
LINE
  5
25E
330
257
100
AcDbEntity
  8
SK2
390
1D
100
AcDbLine
 10
-14.7875
 20
-14.425
 30
0.0
 11
-14.7875
 21
25.017396
 31
0.0
  0
SOLID
  5
25F
330
257
100
AcDbEntity
  8
SK2
390
1D
100
AcDbTrace
 10
-14.7875
 20
3.0
 30
0.0
 11
-15.389152
 21
7.569998
 31
0.0
 12
-14.185848
 22
7.570002
 32
0.0
 13
-14.7875
 23
3.0
 33
0.0
  0
SOLID
  5
260
330
257
100
AcDbEntity
  8
SK2
390
1D
100
AcDbTrace
 10
-14.7875
 20
-3.0
 30
0.0
 11
-14.185848
 21
-7.569998
 31
0.0
 12
-15.389152
 22
-7.570002
 32
0.0
 13
-14.7875
 23
-3.0
 33
0.0
  0
ENDBLK
  5
261
330
257
100
AcDbEntity
  8
0
390
1D
100
AcDbBlockEnd
  0
BLOCK
  5
264
330
263
100
AcDbEntity
  8
0
390
1D
100
AcDbBlockBegin
  2
_D3
 70
     0
 10
0.0
 20
0.0
 30
0.0
  3
_D3
  1

  0
MTEXT
  5
265
330
263
100
AcDbEntity
  8
2
390
1D
100
AcDbMText
 10
64.2125
 20
60.73927099999999
 30
0.0
 40
4.57
 41
0.0
 71
     7
 72
     5
  1
\W01.000;\Fsimplex.shx;15.7
 73
     2
 44
0.9036139999999999
1001
ACAD
1000
MTEXTBEGIN
1070
    73
1070
     2
1070
    44
1040
0.9036139999999999
1070
    74
1070
     0
1000
MTEXTEND
  0
LINE
  5
266
330
263
100
AcDbEntity
  8
2
390
1D
100
AcDbLine
 10
57.0
 20
0.0
 30
0.0
 11
57.0
 21
63.42999999999999
 31
0.0
  0
LINE
  5
267
330
263
100
AcDbEntity
  8
2
390
1D
100
AcDbLine
 10
41.29999999999999
 20
0.0
 30
0.0
 11
41.29999999999999
 21
63.42999999999999
 31
0.0
  0
LINE
  5
268
330
263
100
AcDbEntity
  8
2
390
1D
100
AcDbLine
 10
41.29999999999999
 20
59.93
 30
0.0
 11
82.53058299999999
 21
59.93
 31
0.0
  0
SOLID
  5
269
330
263
100
AcDbEntity
  8
2
390
1D
100
AcDbTrace
 10
57.0
 20
59.93
 30
0.0
 11
52.430002
 21
59.328348
 31
0.0
 12
52.42999799999999
 22
60.531652
 32
0.0
 13
57.0
 23
59.93
 33
0.0
  0
SOLID
  5
26A
330
263
100
AcDbEntity
  8
2
390
1D
100
AcDbTrace
 10
41.29999999999999
 20
59.93
 30
0.0
 11
45.869998
 21
60.531652
 31
0.0
 12
45.870002
 22
59.328348
 32
0.0
 13
41.29999999999999
 23
59.93
 33
0.0
  0
ENDBLK
  5
26B
330
263
100
AcDbEntity
  8
0
390
1D
100
AcDbBlockEnd
  0
BLOCK
  5
26E
330
26D
100
AcDbEntity
  8
0
390
1D
100
AcDbBlockBegin
  2
_D4
 70
     0
 10
0.0
 20
0.0
 30
0.0
  3
_D4
  1

  0
MTEXT
  5
26F
330
26D
100
AcDbEntity
  8
SK2
390
1D
100
AcDbMText
 10
24.891604
 20
90.739271
 30
0.0
 40
4.57
 41
0.0
 71
     7
 72
     5
  1
\W01.000;\Fsimplex.shx;57
 73
     2
 44
0.9036139999999999
1001
ACAD
1000
MTEXTBEGIN
1070
    73
1070
     2
1070
    44
1040
0.9036139999999999
1070
    74
1070
     0
1000
MTEXTEND
  0
LINE
  5
270
330
26D
100
AcDbEntity
  8
SK2
390
1D
100
AcDbLine
 10
0.0
 20
0.0
 30
0.0
 11
0.0
 21
91.93000000000001
 31
0.0
  0
LINE
  5
271
330
26D
100
AcDbEntity
  8
SK2
390
1D
100
AcDbLine
 10
57.0
 20
0.0
 30
0.0
 11
57.0
 21
91.93000000000001
 31
0.0
  0
LINE
  5
272
330
26D
100
AcDbEntity
  8
SK2
390
1D
100
AcDbLine
 10
0.0
 20
89.93
 30
0.0
 11
57.0
 21
89.93
 31
0.0
  0
SOLID
  5
273
330
26D
100
AcDbEntity
  8
SK2
390
1D
100
AcDbTrace
 10
0.0
 20
89.93
 30
0.0
 11
4.569998
 21
90.531652
 31
0.0
 12
4.570001999999999
 22
89.328348
 32
0.0
 13
0.0
 23
89.93
 33
0.0
  0
SOLID
  5
274
330
26D
100
AcDbEntity
  8
SK2
390
1D
100
AcDbTrace
 10
57.0
 20
89.93
 30
0.0
 11
52.430002
 21
89.328348
 31
0.0
 12
52.42999799999999
 22
90.531652
 32
0.0
 13
57.0
 23
89.93
 33
0.0
  0
ENDBLK
  5
275
330
26D
100
AcDbEntity
  8
0
390
1D
100
AcDbBlockEnd
  0
BLOCK
  5
278
330
277
100
AcDbEntity
  8
0
390
1D
100
AcDbBlockBegin
  2
_D5
 70
     0
 10
0.0
 20
0.0
 30
0.0
  3
_D5
  1

  0
MTEXT
  5
279
330
277
100
AcDbEntity
  8
2
390
1D
100
AcDbMText
 10
64.2125
 20
45.739278
 30
0.0
 40
4.57
 41
0.0
 71
     7
 72
     5
  1
\W01.000;\Fsimplex.shx;6.5
 73
     2
 44
0.9036139999999999
1001
ACAD
1000
MTEXTBEGIN
1070
    73
1070
     2
1070
    44
1040
0.9036139999999999
1070
    74
1070
     0
1000
MTEXTEND
  0
LINE
  5
27A
330
277
100
AcDbEntity
  8
2
390
1D
100
AcDbLine
 10
50.5
 20
0.0
 30
0.0
 11
50.5
 21
46.930007
 31
0.0
  0
LINE
  5
27B
330
277
100
AcDbEntity
  8
2
390
1D
100
AcDbLine
 10
57.0
 20
0.0
 30
0.0
 11
57.0
 21
46.930007
 31
0.0
  0
LINE
  5
27C
330
277
100
AcDbEntity
  8
2
390
1D
100
AcDbLine
 10
77.551187
 20
44.930007
 30
0.0
 11
39.075
 21
44.930007
 31
0.0
  0
SOLID
  5
27D
330
277
100
AcDbEntity
  8
2
390
1D
100
AcDbTrace
 10
50.5
 20
44.930007
 30
0.0
 11
45.930002
 21
44.328355
 31
0.0
 12
45.929998
 22
45.531659
 32
0.0
 13
50.5
 23
44.930007
 33
0.0
  0
SOLID
  5
27E
330
277
100
AcDbEntity
  8
2
390
1D
100
AcDbTrace
 10
57.0
 20
44.930007
 30
0.0
 11
61.569998
 21
45.531659
 31
0.0
 12
61.570002
 22
44.328355
 32
0.0
 13
57.0
 23
44.930007
 33
0.0
  0
ENDBLK
  5
27F
330
277
100
AcDbEntity
  8
0
390
1D
100
AcDbBlockEnd
  0
ENDSEC
  0
SECTION
  2
ENTITIES
  0
POINT
  5
2A
330
A
100
AcDbEntity
  8
DEFPOINTS
390
1D
100
AcDbPoint
 10
57.0
 20
0.0
 30
0.0
  0
POINT
  5
2C
330
A
100
AcDbEntity
  8
DEFPOINTS
390
1D
100
AcDbPoint
 10
50.5
 20
1.7
 30
0.0
  0
POINT
  5
2D
330
A
100
AcDbEntity
  8
DEFPOINTS
390
1D
100
AcDbPoint
 10
57.0
 20
1.149999999999999
 30
0.0
  0
POINT
  5
2E
330
A
100
AcDbEntity
  8
DEFPOINTS
390
1D
100
AcDbPoint
 10
57.0
 20
-1.149999999999999
 30
0.0
  0
POINT
  5
2F
330
A
100
AcDbEntity
  8
DEFPOINTS
390
1D
100
AcDbPoint
 10
50.5
 20
0.0
 30
0.0
  0
POINT
  5
30
330
A
100
AcDbEntity
  8
DEFPOINTS
390
1D
100
AcDbPoint
 10
0.0
 20
0.0
 30
0.0
  0
POINT
  5
31
330
A
100
AcDbEntity
  8
DEFPOINTS
390
1D
100
AcDbPoint
 10
36.0
 20
0.0
 30
0.0
  0
POINT
  5
32
330
A
100
AcDbEntity
  8
DEFPOINTS
390
1D
100
AcDbPoint
 10
50.5
 20
-1.7
 30
0.0
  0
POINT
  5
33
330
A
100
AcDbEntity
  8
DEFPOINTS
390
1D
100
AcDbPoint
 10
41.29999999999999
 20
0.0
 30
0.0
  0
LINE
  5
38
330
A
100
AcDbEntity
  8
CUT
390
1D
100
AcDbLine
 10
49.964645
 20
1.7
 30
0.0
 11
49.964645
 21
1.479435
 31
0.0
  0
LINE
  5
3A
330
A
100
AcDbEntity
  8
CUT
390
1D
100
AcDbLine
 10
49.964645
 20
1.479435
 30
0.0
 11
49.964645
 21
-1.7
 31
0.0
  0
LINE
  5
3B
330
A
100
AcDbEntity
  8
CUT
390
1D
100
AcDbLine
 10
49.956957
 20
-1.7
 30
0.0
 11
49.964645
 21
-1.7
 31
0.0
  0
LINE
  5
3C
330
A
100
AcDbEntity
  8
CUT
390
1D
100
AcDbLine
 10
49.964645
 20
1.7
 30
0.0
 11
49.956957
 21
1.7
 31
0.0
  0
LINE
  5
3D
330
A
100
AcDbEntity
  8
CUT
390
1D
100
AcDbLine
 10
49.956957
 20
1.7
 30
0.0
 11
49.956957
 21
-1.7
 31
0.0
  0
LINE
  5
3E
330
A
100
AcDbEntity
  8
CUT
390
1D
100
AcDbLine
 10
50.282187
 20
1.149999999999999
 30
0.0
 11
50.282187
 21
1.000793999999999
 31
0.0
  0
LINE
  5
3F
330
A
100
AcDbEntity
  8
CUT
390
1D
100
AcDbLine
 10
50.282187
 20
1.000793999999999
 30
0.0
 11
50.282187
 21
-1.149999999999999
 31
0.0
  0
LINE
  5
42
330
A
100
AcDbEntity
  8
CUT
390
1D
100
AcDbLine
 10
49.964645
 20
-1.7
 30
0.0
 11
50.282187
 21
-1.149999999999999
 31
0.0
  0
LINE
  5
43
330
A
100
AcDbEntity
  8
CUT
390
1D
100
AcDbLine
 10
50.282187
 20
1.149999999999999
 30
0.0
 11
49.964645
 21
1.7
 31
0.0
  0
LINE
  5
44
330
A
100
AcDbEntity
  8
CUT
390
1D
100
AcDbLine
 10
57.0
 20
1.149999999999999
 30
0.0
 11
57.0
 21
1.000793999999999
 31
0.0
  0
LINE
  5
45
330
A
100
AcDbEntity
  8
CUT
390
1D
100
AcDbLine
 10
57.0
 20
1.000793999999999
 30
0.0
 11
57.0
 21
-1.149999999999999
 31
0.0
  0
LINE
  5
46
330
A
100
AcDbEntity
  8
CUT
390
1D
100
AcDbLine
 10
50.282187
 20
-1.149999999999999
 30
0.0
 11
57.0
 21
-1.149999999999999
 31
0.0
  0
LINE
  5
48
330
A
100
AcDbEntity
  8
CUT
390
1D
100
AcDbLine
 10
57.0
 20
1.149999999999999
 30
0.0
 11
50.282187
 21
1.149999999999999
 31
0.0
  0
LINE
  5
52
330
A
100
AcDbEntity
  8
1
390
1D
100
AcDbLine
 10
50.445
 20
0.8679999999999999
 30
0.0
 11
50.445
 21
0.424425
 31
0.0
  0
LINE
  5
54
330
A
100
AcDbEntity
  8
1
390
1D
100
AcDbLine
 10
49.964645
 20
-1.7
 30
0.0
 11
49.964645
 21
-1.396009999999999
 31
0.0
  0
LINE
  5
55
330
A
100
AcDbEntity
  8
1
390
1D
100
AcDbLine
 10
36.0
 20
3.0
 30
0.0
 11
36.0
 21
-3.0
 31
0.0
  0
LINE
  5
56
330
A
100
AcDbEntity
  8
1
390
1D
100
AcDbLine
 10
41.835898
 20
-1.7
 30
0.0
 11
43.96685499999999
 21
-1.7
 31
0.0
  0
LINE
  5
57
330
A
100
AcDbEntity
  8
1
390
1D
100
AcDbLine
 10
45.44691799999999
 20
1.7
 30
0.0
 11
41.835898
 21
1.7
 31
0.0
  0
LINE
  5
58
330
A
100
AcDbEntity
  8
1
390
1D
100
AcDbLine
 10
50.445
 20
0.8679999999999999
 30
0.0
 11
50.329892
 21
1.067372999999999
 31
0.0
  0
LINE
  5
59
330
A
100
AcDbEntity
  8
1
390
1D
100
AcDbLine
 10
41.835898
 20
-1.7
 30
0.0
 11
41.835898
 21
1.479435
 31
0.0
  0
LINE
  5
5A
330
A
100
AcDbEntity
  8
1
390
1D
100
AcDbLine
 10
41.835898
 20
1.479435
 30
0.0
 11
41.835898
 21
1.7
 31
0.0
  0
LINE
  5
5B
330
A
100
AcDbEntity
  8
1
390
1D
100
AcDbLine
 10
49.939526
 20
-1.7
 30
0.0
 11
49.964645
 21
-1.7
 31
0.0
  0
LINE
  5
5C
330
A
100
AcDbEntity
  8
1
390
1D
100
AcDbLine
 10
49.964645
 20
0.847277
 30
0.0
 11
49.964645
 21
1.538163999999999
 31
0.0
  0
LINE
  5
5D
330
A
100
AcDbEntity
  8
1
390
1D
100
AcDbLine
 10
39.04833400000001
 20
3.0
 30
0.0
 11
36.0
 21
3.0
 31
0.0
  0
LINE
  5
5E
330
A
100
AcDbEntity
  8
1
390
1D
100
AcDbLine
 10
40.835898
 20
1.967949
 30
0.0
 11
40.835898
 21
1.712618999999999
 31
0.0
  0
LINE
  5
5F
330
A
100
AcDbEntity
  8
1
390
1D
100
AcDbLine
 10
40.835898
 20
1.712618999999999
 30
0.0
 11
40.835898
 21
-1.967949
 31
0.0
  0
LINE
  5
60
330
A
100
AcDbEntity
  8
1
390
1D
100
AcDbLine
 10
36.0
 20
-3.0
 30
0.0
 11
38.672116
 21
-3.0
 31
0.0
  0
LINE
  5
61
330
A
100
AcDbEntity
  8
1
390
1D
100
AcDbLine
 10
39.396644
 20
-2.798902999999999
 30
0.0
 11
40.835898
 21
-1.967949
 31
0.0
  0
LINE
  5
62
330
A
100
AcDbEntity
  8
1
390
1D
100
AcDbLine
 10
40.835898
 20
1.967949
 30
0.0
 11
39.04833400000001
 21
3.0
 31
0.0
  0
LINE
  5
63
330
A
100
AcDbEntity
  8
1
390
1D
100
AcDbLine
 10
39.04833400000001
 20
-2.925112999999999
 30
0.0
 11
39.04833400000001
 21
0.286398
 31
0.0
  0
LINE
  5
64
330
A
100
AcDbEntity
  8
1
390
1D
100
AcDbLine
 10
39.04833400000001
 20
3.0
 30
0.0
 11
39.04833400000001
 21
2.039433
 31
0.0
  0
LINE
  5
65
330
A
100
AcDbEntity
  8
1
390
1D
100
AcDbLine
 10
56.217813
 20
-0.446203
 30
0.0
 11
56.217813
 21
0.628097
 31
0.0
  0
LINE
  5
66
330
A
100
AcDbEntity
  8
1
390
1D
100
AcDbLine
 10
56.055
 20
-0.287481
 30
0.0
 11
56.055
 21
0.715133
 31
0.0
  0
LINE
  5
67
330
A
100
AcDbEntity
  8
1
390
1D
100
AcDbLine
 10
56.717813
 20
-0.5260670000000001
 30
0.0
 11
56.717813
 21
0.5553460000000001
 31
0.0
  0
LINE
  5
68
330
A
100
AcDbEntity
  8
1
390
1D
100
AcDbLine
 10
56.55499999999999
 20
-0.348335
 30
0.0
 11
56.55499999999999
 21
0.6753420000000001
 31
0.0
  0
LINE
  5
69
330
A
100
AcDbEntity
  8
1
390
1D
100
AcDbLine
 10
55.782187
 20
-0.37444
 30
0.0
 11
55.782187
 21
0.688824
 31
0.0
  0
LINE
  5
6A
330
A
100
AcDbEntity
  8
1
390
1D
100
AcDbLine
 10
55.717813
 20
-0.363686
 30
0.0
 11
55.717813
 21
0.697577
 31
0.0
  0
LINE
  5
6B
330
A
100
AcDbEntity
  8
1
390
1D
100
AcDbLine
 10
55.282187
 20
-0.290036
 30
0.0
 11
55.282187
 21
0.755232
 31
0.0
  0
LINE
  5
6C
330
A
100
AcDbEntity
  8
1
390
1D
100
AcDbLine
 10
55.217813
 20
-0.279037
 30
0.0
 11
55.217813
 21
0.763511
 31
0.0
  0
LINE
  5
6D
330
A
100
AcDbEntity
  8
1
390
1D
100
AcDbLine
 10
55.555
 20
-0.225016
 30
0.0
 11
55.555
 21
0.7508160000000001
 31
0.0
  0
LINE
  5
6E
330
A
100
AcDbEntity
  8
1
390
1D
100
AcDbLine
 10
55.945
 20
-0.273863
 30
0.0
 11
55.945
 21
0.7233430000000001
 31
0.0
  0
LINE
  5
6F
330
A
100
AcDbEntity
  8
1
390
1D
100
AcDbLine
 10
55.445
 20
-0.211097
 30
0.0
 11
55.445
 21
0.758092
 31
0.0
  0
LINE
  5
70
330
A
100
AcDbEntity
  8
1
390
1D
100
AcDbLine
 10
55.055
 20
-0.161339
 30
0.0
 11
55.055
 21
0.782157
 31
0.0
  0
LINE
  5
71
330
A
100
AcDbEntity
  8
1
390
1D
100
AcDbLine
 10
56.282187
 20
-0.456644
 30
0.0
 11
56.282187
 21
0.6189090000000001
 31
0.0
  0
LINE
  5
72
330
A
100
AcDbEntity
  8
1
390
1D
100
AcDbLine
 10
56.445
 20
-0.335105
 30
0.0
 11
56.445
 21
0.6844380000000001
 31
0.0
  0
LINE
  5
73
330
A
100
AcDbEntity
  8
1
390
1D
100
AcDbLine
 10
54.782187
 20
-0.203978
 30
0.0
 11
54.782187
 21
0.8177979999999999
 31
0.0
  0
LINE
  5
74
330
A
100
AcDbEntity
  8
1
390
1D
100
AcDbLine
 10
54.71781299999999
 20
-0.192807
 30
0.0
 11
54.71781299999999
 21
0.8255540000000001
 31
0.0
  0
LINE
  5
75
330
A
100
AcDbEntity
  8
1
390
1D
100
AcDbLine
 10
54.945
 20
-0.147207
 30
0.0
 11
54.945
 21
0.788446
 31
0.0
  0
LINE
  5
76
330
A
100
AcDbEntity
  8
1
390
1D
100
AcDbLine
 10
54.555
 20
-0.096844
 30
0.0
 11
54.555
 21
0.808915
 31
0.0
  0
LINE
  5
77
330
A
100
AcDbEntity
  8
1
390
1D
100
AcDbLine
 10
56.782187
 20
-0.536132
 30
0.0
 11
56.782187
 21
0.5457520000000001
 31
0.0
  0
LINE
  5
78
330
A
100
AcDbEntity
  8
1
390
1D
100
AcDbLine
 10
56.945
 20
-0.394436
 30
0.0
 11
56.945
 21
0.641583
 31
0.0
  0
LINE
  5
79
330
A
100
AcDbEntity
  8
1
390
1D
100
AcDbLine
 10
54.282187
 20
-0.116826
 30
0.0
 11
54.282187
 21
0.8761269999999999
 31
0.0
  0
LINE
  5
7A
330
A
100
AcDbEntity
  8
1
390
1D
100
AcDbLine
 10
54.217813
 20
-0.105555
 30
0.0
 11
54.217813
 21
0.8833069999999999
 31
0.0
  0
LINE
  5
7B
330
A
100
AcDbEntity
  8
1
390
1D
100
AcDbLine
 10
54.445
 20
-0.082582
 30
0.0
 11
54.445
 21
0.8141629999999999
 31
0.0
  0
LINE
  5
7C
330
A
100
AcDbEntity
  8
1
390
1D
100
AcDbLine
 10
54.05499999999999
 20
-0.0319
 30
0.0
 11
54.05499999999999
 21
0.8308610000000001
 31
0.0
  0
LINE
  5
7D
330
A
100
AcDbEntity
  8
1
390
1D
100
AcDbLine
 10
53.782187
 20
-0.029132
 30
0.0
 11
53.782187
 21
0.929794
 31
0.0
  0
LINE
  5
7E
330
A
100
AcDbEntity
  8
1
390
1D
100
AcDbLine
 10
53.717813
 20
-0.01783
 30
0.0
 11
53.717813
 21
0.9363430000000001
 31
0.0
  0
LINE
  5
7F
330
A
100
AcDbEntity
  8
1
390
1D
100
AcDbLine
 10
53.945
 20
-0.017587
 30
0.0
 11
53.945
 21
0.8350239999999999
 31
0.0
  0
LINE
  5
80
330
A
100
AcDbEntity
  8
1
390
1D
100
AcDbLine
 10
53.555
 20
0.033155
 30
0.0
 11
53.555
 21
0.847811
 31
0.0
  0
LINE
  5
81
330
A
100
AcDbEntity
  8
1
390
1D
100
AcDbLine
 10
49.964645
 20
-1.7
 30
0.0
 11
50.445
 21
-0.8679999999999999
 31
0.0
  0
LINE
  5
82
330
A
100
AcDbEntity
  8
1
390
1D
100
AcDbLine
 10
50.445
 20
-0.8679999999999999
 30
0.0
 11
50.445
 21
-0.228235
 31
0.0
  0
LINE
  5
83
330
A
100
AcDbEntity
  8
1
390
1D
100
AcDbLine
 10
53.282187
 20
0.058579
 30
0.0
 11
53.282187
 21
0.9783689999999999
 31
0.0
  0
LINE
  5
84
330
A
100
AcDbEntity
  8
1
390
1D
100
AcDbLine
 10
53.217813
 20
0.069847
 30
0.0
 11
53.217813
 21
0.984232
 31
0.0
  0
LINE
  5
85
330
A
100
AcDbEntity
  8
1
390
1D
100
AcDbLine
 10
53.445
 20
0.047453
 30
0.0
 11
53.445
 21
0.8508559999999999
 31
0.0
  0
LINE
  5
86
330
A
100
AcDbEntity
  8
1
390
1D
100
AcDbLine
 10
53.055
 20
0.098033
 30
0.0
 11
53.055
 21
0.859647
 31
0.0
  0
LINE
  5
87
330
A
100
AcDbEntity
  8
1
390
1D
100
AcDbLine
 10
52.782187
 20
0.145823
 30
0.0
 11
52.782187
 21
1.021444
 31
0.0
  0
LINE
  5
88
330
A
100
AcDbEntity
  8
1
390
1D
100
AcDbLine
 10
52.717813
 20
0.156999
 30
0.0
 11
52.717813
 21
1.026570999999999
 31
0.0
  0
LINE
  5
89
330
A
100
AcDbEntity
  8
1
390
1D
100
AcDbLine
 10
52.945
 20
0.112258
 30
0.0
 11
52.945
 21
0.8615589999999999
 31
0.0
  0
LINE
  5
8A
330
A
100
AcDbEntity
  8
1
390
1D
100
AcDbLine
 10
52.555
 20
0.162494
 30
0.0
 11
52.555
 21
0.8663309999999999
 31
0.0
  0
LINE
  5
8B
330
A
100
AcDbEntity
  8
1
390
1D
100
AcDbLine
 10
52.282187
 20
0.232175
 30
0.0
 11
52.282187
 21
1.058661999999999
 31
0.0
  0
LINE
  5
8C
330
A
100
AcDbEntity
  8
1
390
1D
100
AcDbLine
 10
52.21781299999999
 20
0.243208
 30
0.0
 11
52.21781299999999
 21
1.063012999999999
 31
0.0
  0
LINE
  5
8D
330
A
100
AcDbEntity
  8
1
390
1D
100
AcDbLine
 10
52.445
 20
0.176599
 30
0.0
 11
52.445
 21
0.8671139999999999
 31
0.0
  0
LINE
  5
8E
330
A
100
AcDbEntity
  8
1
390
1D
100
AcDbLine
 10
52.059928
 20
0.8765350000000001
 30
0.0
 11
52.055
 21
0.8679999999999999
 31
0.0
  0
LINE
  5
8F
330
A
100
AcDbEntity
  8
1
390
1D
100
AcDbLine
 10
52.055
 20
0.8679999999999999
 30
0.0
 11
52.055
 21
0.226343
 31
0.0
  0
LINE
  5
90
330
A
100
AcDbEntity
  8
1
390
1D
100
AcDbLine
 10
51.782187
 20
0.317254
 30
0.0
 11
51.782187
 21
1.089762
 31
0.0
  0
LINE
  5
91
330
A
100
AcDbEntity
  8
1
390
1D
100
AcDbLine
 10
51.717813
 20
0.328096
 30
0.0
 11
51.717813
 21
1.093313999999999
 31
0.0
  0
LINE
  5
92
330
A
100
AcDbEntity
  8
1
390
1D
100
AcDbLine
 10
51.945
 20
0.8679999999999999
 30
0.0
 11
51.945
 21
0.240288
 31
0.0
  0
LINE
  5
93
330
A
100
AcDbEntity
  8
1
390
1D
100
AcDbLine
 10
51.945
 20
0.8679999999999999
 30
0.0
 11
51.93283
 21
0.889079
 31
0.0
  0
LINE
  5
94
330
A
100
AcDbEntity
  8
1
390
1D
100
AcDbLine
 10
51.587638
 20
0.9245309999999999
 30
0.0
 11
51.55499999999999
 21
0.8679999999999999
 31
0.0
  0
LINE
  5
95
330
A
100
AcDbEntity
  8
1
390
1D
100
AcDbLine
 10
51.55499999999999
 20
0.8679999999999999
 30
0.0
 11
51.55499999999999
 21
0.289354
 31
0.0
  0
LINE
  5
96
330
A
100
AcDbEntity
  8
1
390
1D
100
AcDbLine
 10
51.282187
 20
0.4006610000000001
 30
0.0
 11
51.282187
 21
1.11461
 31
0.0
  0
LINE
  5
97
330
A
100
AcDbEntity
  8
1
390
1D
100
AcDbLine
 10
51.217813
 20
0.4112550000000001
 30
0.0
 11
51.217813
 21
1.117346999999999
 31
0.0
  0
LINE
  5
98
330
A
100
AcDbEntity
  8
1
390
1D
100
AcDbLine
 10
51.445
 20
0.8679999999999999
 30
0.0
 11
51.445
 21
0.303072
 31
0.0
  0
LINE
  5
99
330
A
100
AcDbEntity
  8
1
390
1D
100
AcDbLine
 10
51.445
 20
0.8679999999999999
 30
0.0
 11
51.400842
 21
0.9444839999999999
 31
0.0
  0
LINE
  5
9A
330
A
100
AcDbEntity
  8
1
390
1D
100
AcDbLine
 10
51.117178
 20
0.9756959999999999
 30
0.0
 11
51.055
 21
0.8679999999999999
 31
0.0
  0
LINE
  5
9B
330
A
100
AcDbEntity
  8
1
390
1D
100
AcDbLine
 10
51.055
 20
0.8679999999999999
 30
0.0
 11
51.055
 21
0.351186
 31
0.0
  0
LINE
  5
9C
330
A
100
AcDbEntity
  8
1
390
1D
100
AcDbLine
 10
57.0
 20
-0.4008300000000001
 30
0.0
 11
57.0
 21
0.6366350000000001
 31
0.0
  0
LINE
  5
9D
330
A
100
AcDbEntity
  8
1
390
1D
100
AcDbLine
 10
50.945
 20
0.8679999999999999
 30
0.0
 11
50.945
 21
0.364592
 31
0.0
  0
LINE
  5
9E
330
A
100
AcDbEntity
  8
1
390
1D
100
AcDbLine
 10
50.945
 20
0.8679999999999999
 30
0.0
 11
50.866489
 21
1.003983999999999
 31
0.0
  0
LINE
  5
9F
330
A
100
AcDbEntity
  8
1
390
1D
100
AcDbLine
 10
50.782187
 20
0.4819340000000001
 30
0.0
 11
50.782187
 21
1.133045999999999
 31
0.0
  0
LINE
  5
A0
330
A
100
AcDbEntity
  8
1
390
1D
100
AcDbLine
 10
50.717813
 20
0.4922170000000001
 30
0.0
 11
50.717813
 21
1.134943
 31
0.0
  0
LINE
  5
A1
330
A
100
AcDbEntity
  8
1
390
1D
100
AcDbLine
 10
50.64811699999999
 20
1.029284
 30
0.0
 11
50.555
 21
0.8679999999999999
 31
0.0
  0
LINE
  5
A2
330
A
100
AcDbEntity
  8
1
390
1D
100
AcDbLine
 10
50.555
 20
0.8679999999999999
 30
0.0
 11
50.555
 21
0.411429
 31
0.0
  0
LINE
  5
A3
330
A
100
AcDbEntity
  8
1
390
1D
100
AcDbLine
 10
50.717813
 20
-1.149999999999999
 30
0.0
 11
50.717813
 21
-0.728106
 31
0.0
  0
LINE
  5
A4
330
A
100
AcDbEntity
  8
1
390
1D
100
AcDbLine
 10
50.555
 20
-0.8679999999999999
 30
0.0
 11
50.717813
 21
-1.149999999999999
 31
0.0
  0
LINE
  5
A5
330
A
100
AcDbEntity
  8
1
390
1D
100
AcDbLine
 10
50.555
 20
-0.8679999999999999
 30
0.0
 11
50.555
 21
-0.242148
 31
0.0
  0
LINE
  5
A6
330
A
100
AcDbEntity
  8
1
390
1D
100
AcDbLine
 10
50.945
 20
-0.8679999999999999
 30
0.0
 11
50.945
 21
-0.290832
 31
0.0
  0
LINE
  5
A7
330
A
100
AcDbEntity
  8
1
390
1D
100
AcDbLine
 10
50.782187
 20
-1.149999999999999
 30
0.0
 11
50.945
 21
-0.8679999999999999
 31
0.0
  0
LINE
  5
A8
330
A
100
AcDbEntity
  8
1
390
1D
100
AcDbLine
 10
50.782187
 20
-1.149999999999999
 30
0.0
 11
50.782187
 21
-0.736907
 31
0.0
  0
LINE
  5
A9
330
A
100
AcDbEntity
  8
1
390
1D
100
AcDbLine
 10
51.217813
 20
-1.149999999999999
 30
0.0
 11
51.217813
 21
-0.7943150000000001
 31
0.0
  0
LINE
  5
AA
330
A
100
AcDbEntity
  8
1
390
1D
100
AcDbLine
 10
51.055
 20
-0.8679999999999999
 30
0.0
 11
51.217813
 21
-1.149999999999999
 31
0.0
  0
LINE
  5
AB
330
A
100
AcDbEntity
  8
1
390
1D
100
AcDbLine
 10
51.055
 20
-0.8679999999999999
 30
0.0
 11
51.055
 21
-0.3043719999999999
 31
0.0
  0
LINE
  5
AC
330
A
100
AcDbEntity
  8
1
390
1D
100
AcDbLine
 10
51.445
 20
-0.8679999999999999
 30
0.0
 11
51.445
 21
-0.351666
 31
0.0
  0
LINE
  5
AD
330
A
100
AcDbEntity
  8
1
390
1D
100
AcDbLine
 10
51.282187
 20
-1.149999999999999
 30
0.0
 11
51.445
 21
-0.8679999999999999
 31
0.0
  0
LINE
  5
AE
330
A
100
AcDbEntity
  8
1
390
1D
100
AcDbLine
 10
51.282187
 20
-1.149999999999999
 30
0.0
 11
51.282187
 21
-0.802476
 31
0.0
  0
LINE
  5
AF
330
A
100
AcDbEntity
  8
1
390
1D
100
AcDbLine
 10
51.717813
 20
-1.149999999999999
 30
0.0
 11
51.717813
 21
-0.8554829999999999
 31
0.0
  0
LINE
  5
B0
330
A
100
AcDbEntity
  8
1
390
1D
100
AcDbLine
 10
51.55499999999999
 20
-0.8679999999999999
 30
0.0
 11
51.717813
 21
-1.149999999999999
 31
0.0
  0
LINE
  5
B1
330
A
100
AcDbEntity
  8
1
390
1D
100
AcDbLine
 10
51.55499999999999
 20
-0.8679999999999999
 30
0.0
 11
51.55499999999999
 21
-0.364798
 31
0.0
  0
LINE
  5
B2
330
A
100
AcDbEntity
  8
1
390
1D
100
AcDbLine
 10
51.945
 20
-0.8679999999999999
 30
0.0
 11
51.945
 21
-0.4105960000000001
 31
0.0
  0
LINE
  5
B3
330
A
100
AcDbEntity
  8
1
390
1D
100
AcDbLine
 10
52.055
 20
0.8679999999999999
 30
0.0
 11
51.945
 21
0.8679999999999999
 31
0.0
  0
LINE
  5
B4
330
A
100
AcDbEntity
  8
1
390
1D
100
AcDbLine
 10
51.782187
 20
-1.149999999999999
 30
0.0
 11
51.945
 21
-0.8679999999999999
 31
0.0
  0
LINE
  5
B5
330
A
100
AcDbEntity
  8
1
390
1D
100
AcDbLine
 10
51.782187
 20
-1.149999999999999
 30
0.0
 11
51.782187
 21
-0.8629839999999999
 31
0.0
  0
LINE
  5
B6
330
A
100
AcDbEntity
  8
1
390
1D
100
AcDbLine
 10
52.717813
 20
-1.149999999999999
 30
0.0
 11
52.717813
 21
-0.962161
 31
0.0
  0
LINE
  5
B7
330
A
100
AcDbEntity
  8
1
390
1D
100
AcDbLine
 10
52.555
 20
-0.8679999999999999
 30
0.0
 11
52.717813
 21
-1.149999999999999
 31
0.0
  0
LINE
  5
B8
330
A
100
AcDbEntity
  8
1
390
1D
100
AcDbLine
 10
52.555
 20
-0.8679999999999999
 30
0.0
 11
52.555
 21
-0.479756
 31
0.0
  0
LINE
  5
B9
330
A
100
AcDbEntity
  8
1
390
1D
100
AcDbLine
 10
52.21781299999999
 20
-1.149999999999999
 30
0.0
 11
52.21781299999999
 21
-0.911477
 31
0.0
  0
LINE
  5
BA
330
A
100
AcDbEntity
  8
1
390
1D
100
AcDbLine
 10
52.055
 20
-0.8679999999999999
 30
0.0
 11
52.21781299999999
 21
-1.149999999999999
 31
0.0
  0
LINE
  5
BB
330
A
100
AcDbEntity
  8
1
390
1D
100
AcDbLine
 10
52.055
 20
-0.8679999999999999
 30
0.0
 11
52.055
 21
-0.423294
 31
0.0
  0
LINE
  5
BC
330
A
100
AcDbEntity
  8
1
390
1D
100
AcDbLine
 10
52.445
 20
-0.8679999999999999
 30
0.0
 11
52.445
 21
-0.467519
 31
0.0
  0
LINE
  5
BD
330
A
100
AcDbEntity
  8
1
390
1D
100
AcDbLine
 10
51.55499999999999
 20
0.8679999999999999
 30
0.0
 11
51.445
 21
0.8679999999999999
 31
0.0
  0
LINE
  5
BE
330
A
100
AcDbEntity
  8
1
390
1D
100
AcDbLine
 10
52.282187
 20
-1.149999999999999
 30
0.0
 11
52.445
 21
-0.8679999999999999
 31
0.0
  0
LINE
  5
BF
330
A
100
AcDbEntity
  8
1
390
1D
100
AcDbLine
 10
52.282187
 20
-1.149999999999999
 30
0.0
 11
52.282187
 21
-0.9183049999999999
 31
0.0
  0
LINE
  5
C0
330
A
100
AcDbEntity
  8
1
390
1D
100
AcDbLine
 10
53.217813
 20
-1.149999999999999
 30
0.0
 11
53.217813
 21
-1.007229
 31
0.0
  0
LINE
  5
C1
330
A
100
AcDbEntity
  8
1
390
1D
100
AcDbLine
 10
50.717813
 20
-1.149999999999999
 30
0.0
 11
50.782187
 21
-1.149999999999999
 31
0.0
  0
LINE
  5
C2
330
A
100
AcDbEntity
  8
1
390
1D
100
AcDbLine
 10
51.055
 20
0.8679999999999999
 30
0.0
 11
50.945
 21
0.8679999999999999
 31
0.0
  0
LINE
  5
C3
330
A
100
AcDbEntity
  8
1
390
1D
100
AcDbLine
 10
50.445
 20
-0.8679999999999999
 30
0.0
 11
50.555
 21
-0.8679999999999999
 31
0.0
  0
LINE
  5
C4
330
A
100
AcDbEntity
  8
1
390
1D
100
AcDbLine
 10
53.055
 20
-0.8679999999999999
 30
0.0
 11
53.217813
 21
-1.149999999999999
 31
0.0
  0
LINE
  5
C5
330
A
100
AcDbEntity
  8
1
390
1D
100
AcDbLine
 10
53.055
 20
-0.8679999999999999
 30
0.0
 11
53.055
 21
-0.533859
 31
0.0
  0
LINE
  5
C6
330
A
100
AcDbEntity
  8
1
390
1D
100
AcDbLine
 10
56.445
 20
-0.8679999999999999
 30
0.0
 11
56.55499999999999
 21
-0.8679999999999999
 31
0.0
  0
LINE
  5
C7
330
A
100
AcDbEntity
  8
1
390
1D
100
AcDbLine
 10
51.217813
 20
-1.149999999999999
 30
0.0
 11
51.282187
 21
-1.149999999999999
 31
0.0
  0
LINE
  5
C8
330
A
100
AcDbEntity
  8
1
390
1D
100
AcDbLine
 10
52.945
 20
-0.8679999999999999
 30
0.0
 11
52.945
 21
-0.522185
 31
0.0
  0
LINE
  5
C9
330
A
100
AcDbEntity
  8
1
390
1D
100
AcDbLine
 10
50.555
 20
0.8679999999999999
 30
0.0
 11
50.445
 21
0.8679999999999999
 31
0.0
  0
LINE
  5
CA
330
A
100
AcDbEntity
  8
1
390
1D
100
AcDbLine
 10
52.782187
 20
-1.149999999999999
 30
0.0
 11
52.945
 21
-0.8679999999999999
 31
0.0
  0
LINE
  5
CB
330
A
100
AcDbEntity
  8
1
390
1D
100
AcDbLine
 10
52.782187
 20
-1.149999999999999
 30
0.0
 11
52.782187
 21
-0.968285
 31
0.0
  0
LINE
  5
CC
330
A
100
AcDbEntity
  8
1
390
1D
100
AcDbLine
 10
53.717813
 20
-1.046377
 30
0.0
 11
53.717813
 21
-1.149999999999999
 31
0.0
  0
LINE
  5
CD
330
A
100
AcDbEntity
  8
1
390
1D
100
AcDbLine
 10
50.945
 20
-0.8679999999999999
 30
0.0
 11
51.055
 21
-0.8679999999999999
 31
0.0
  0
LINE
  5
CE
330
A
100
AcDbEntity
  8
1
390
1D
100
AcDbLine
 10
51.445
 20
-0.8679999999999999
 30
0.0
 11
51.55499999999999
 21
-0.8679999999999999
 31
0.0
  0
LINE
  5
CF
330
A
100
AcDbEntity
  8
1
390
1D
100
AcDbLine
 10
53.555
 20
-0.8679999999999999
 30
0.0
 11
53.717813
 21
-1.149999999999999
 31
0.0
  0
LINE
  5
D0
330
A
100
AcDbEntity
  8
1
390
1D
100
AcDbLine
 10
53.555
 20
-0.8679999999999999
 30
0.0
 11
53.555
 21
-0.5850900000000001
 31
0.0
  0
LINE
  5
D1
330
A
100
AcDbEntity
  8
1
390
1D
100
AcDbLine
 10
53.445
 20
-0.8679999999999999
 30
0.0
 11
53.445
 21
-0.5740910000000001
 31
0.0
  0
LINE
  5
D2
330
A
100
AcDbEntity
  8
1
390
1D
100
AcDbLine
 10
51.717813
 20
-1.149999999999999
 30
0.0
 11
51.782187
 21
-1.149999999999999
 31
0.0
  0
LINE
  5
D3
330
A
100
AcDbEntity
  8
1
390
1D
100
AcDbLine
 10
51.945
 20
-0.8679999999999999
 30
0.0
 11
52.055
 21
-0.8679999999999999
 31
0.0
  0
LINE
  5
D4
330
A
100
AcDbEntity
  8
1
390
1D
100
AcDbLine
 10
53.282187
 20
-1.149999999999999
 30
0.0
 11
53.445
 21
-0.8679999999999999
 31
0.0
  0
LINE
  5
D5
330
A
100
AcDbEntity
  8
1
390
1D
100
AcDbLine
 10
53.282187
 20
-1.149999999999999
 30
0.0
 11
53.282187
 21
-1.012605999999999
 31
0.0
  0
LINE
  5
D6
330
A
100
AcDbEntity
  8
1
390
1D
100
AcDbLine
 10
53.945
 20
-0.8679999999999999
 30
0.0
 11
53.945
 21
-0.622743
 31
0.0
  0
LINE
  5
D7
330
A
100
AcDbEntity
  8
1
390
1D
100
AcDbLine
 10
52.445
 20
-0.8679999999999999
 30
0.0
 11
52.555
 21
-0.8679999999999999
 31
0.0
  0
LINE
  5
D8
330
A
100
AcDbEntity
  8
1
390
1D
100
AcDbLine
 10
53.782187
 20
-1.149999999999999
 30
0.0
 11
53.945
 21
-0.8679999999999999
 31
0.0
  0
LINE
  5
D9
330
A
100
AcDbEntity
  8
1
390
1D
100
AcDbLine
 10
53.782187
 20
-1.050974999999999
 30
0.0
 11
53.782187
 21
-1.149999999999999
 31
0.0
  0
LINE
  5
DA
330
A
100
AcDbEntity
  8
1
390
1D
100
AcDbLine
 10
54.217813
 20
-1.079385
 30
0.0
 11
54.217813
 21
-1.149999999999999
 31
0.0
  0
LINE
  5
DB
330
A
100
AcDbEntity
  8
1
390
1D
100
AcDbLine
 10
54.05499999999999
 20
-0.8679999999999999
 30
0.0
 11
54.217813
 21
-1.149999999999999
 31
0.0
  0
LINE
  5
DC
330
A
100
AcDbEntity
  8
1
390
1D
100
AcDbLine
 10
54.05499999999999
 20
-0.8679999999999999
 30
0.0
 11
54.05499999999999
 21
-0.6329640000000002
 31
0.0
  0
LINE
  5
DD
330
A
100
AcDbEntity
  8
1
390
1D
100
AcDbLine
 10
54.445
 20
-0.8679999999999999
 30
0.0
 11
54.445
 21
-0.6677
 31
0.0
  0
LINE
  5
DE
330
A
100
AcDbEntity
  8
1
390
1D
100
AcDbLine
 10
52.21781299999999
 20
-1.149999999999999
 30
0.0
 11
52.282187
 21
-1.149999999999999
 31
0.0
  0
LINE
  5
DF
330
A
100
AcDbEntity
  8
1
390
1D
100
AcDbLine
 10
52.945
 20
-0.8679999999999999
 30
0.0
 11
53.055
 21
-0.8679999999999999
 31
0.0
  0
LINE
  5
E0
330
A
100
AcDbEntity
  8
1
390
1D
100
AcDbLine
 10
53.445
 20
-0.8679999999999999
 30
0.0
 11
53.555
 21
-0.8679999999999999
 31
0.0
  0
LINE
  5
E1
330
A
100
AcDbEntity
  8
1
390
1D
100
AcDbLine
 10
52.717813
 20
-1.149999999999999
 30
0.0
 11
52.782187
 21
-1.149999999999999
 31
0.0
  0
LINE
  5
E2
330
A
100
AcDbEntity
  8
1
390
1D
100
AcDbLine
 10
54.282187
 20
-1.149999999999999
 30
0.0
 11
54.445
 21
-0.8679999999999999
 31
0.0
  0
LINE
  5
E3
330
A
100
AcDbEntity
  8
1
390
1D
100
AcDbLine
 10
54.282187
 20
-1.083180999999999
 30
0.0
 11
54.282187
 21
-1.149999999999999
 31
0.0
  0
LINE
  5
E4
330
A
100
AcDbEntity
  8
1
390
1D
100
AcDbLine
 10
54.71781299999999
 20
-1.106117
 30
0.0
 11
54.71781299999999
 21
-1.149999999999999
 31
0.0
  0
LINE
  5
E5
330
A
100
AcDbEntity
  8
1
390
1D
100
AcDbLine
 10
54.555
 20
-0.8679999999999999
 30
0.0
 11
54.71781299999999
 21
-1.149999999999999
 31
0.0
  0
LINE
  5
E6
330
A
100
AcDbEntity
  8
1
390
1D
100
AcDbLine
 10
54.555
 20
-0.8679999999999999
 30
0.0
 11
54.555
 21
-0.6770579999999999
 31
0.0
  0
LINE
  5
E7
330
A
100
AcDbEntity
  8
1
390
1D
100
AcDbLine
 10
55.217813
 20
-1.126512999999999
 30
0.0
 11
55.217813
 21
-1.149999999999999
 31
0.0
  0
LINE
  5
E8
330
A
100
AcDbEntity
  8
1
390
1D
100
AcDbLine
 10
53.945
 20
-0.8679999999999999
 30
0.0
 11
54.05499999999999
 21
-0.8679999999999999
 31
0.0
  0
LINE
  5
E9
330
A
100
AcDbEntity
  8
1
390
1D
100
AcDbLine
 10
55.055
 20
-0.8679999999999999
 30
0.0
 11
55.217813
 21
-1.149999999999999
 31
0.0
  0
LINE
  5
EA
330
A
100
AcDbEntity
  8
1
390
1D
100
AcDbLine
 10
55.055
 20
-0.717024
 30
0.0
 11
55.055
 21
-0.8679999999999999
 31
0.0
  0
LINE
  5
EB
330
A
100
AcDbEntity
  8
1
390
1D
100
AcDbLine
 10
54.945
 20
-0.7086000000000001
 30
0.0
 11
54.945
 21
-0.8679999999999999
 31
0.0
  0
LINE
  5
EC
330
A
100
AcDbEntity
  8
1
390
1D
100
AcDbLine
 10
53.217813
 20
-1.149999999999999
 30
0.0
 11
53.282187
 21
-1.149999999999999
 31
0.0
  0
LINE
  5
ED
330
A
100
AcDbEntity
  8
1
390
1D
100
AcDbLine
 10
54.445
 20
-0.8679999999999999
 30
0.0
 11
54.555
 21
-0.8679999999999999
 31
0.0
  0
LINE
  5
EE
330
A
100
AcDbEntity
  8
1
390
1D
100
AcDbLine
 10
54.782187
 20
-1.149999999999999
 30
0.0
 11
54.945
 21
-0.8679999999999999
 31
0.0
  0
LINE
  5
EF
330
A
100
AcDbEntity
  8
1
390
1D
100
AcDbLine
 10
54.782187
 20
-1.109099
 30
0.0
 11
54.782187
 21
-1.149999999999999
 31
0.0
  0
LINE
  5
F0
330
A
100
AcDbEntity
  8
1
390
1D
100
AcDbLine
 10
55.717813
 20
-1.140568
 30
0.0
 11
55.717813
 21
-1.149999999999999
 31
0.0
  0
LINE
  5
F1
330
A
100
AcDbEntity
  8
1
390
1D
100
AcDbLine
 10
54.945
 20
-0.8679999999999999
 30
0.0
 11
55.055
 21
-0.8679999999999999
 31
0.0
  0
LINE
  5
F2
330
A
100
AcDbEntity
  8
1
390
1D
100
AcDbLine
 10
55.555
 20
-0.8679999999999999
 30
0.0
 11
55.717813
 21
-1.149999999999999
 31
0.0
  0
LINE
  5
F3
330
A
100
AcDbEntity
  8
1
390
1D
100
AcDbLine
 10
55.555
 20
-0.7526010000000002
 30
0.0
 11
55.555
 21
-0.8679999999999999
 31
0.0
  0
LINE
  5
F4
330
A
100
AcDbEntity
  8
1
390
1D
100
AcDbLine
 10
55.445
 20
-0.7451620000000001
 30
0.0
 11
55.445
 21
-0.8679999999999999
 31
0.0
  0
LINE
  5
F5
330
A
100
AcDbEntity
  8
1
390
1D
100
AcDbLine
 10
55.282187
 20
-1.149999999999999
 30
0.0
 11
55.445
 21
-0.8679999999999999
 31
0.0
  0
LINE
  5
F6
330
A
100
AcDbEntity
  8
1
390
1D
100
AcDbLine
 10
55.282187
 20
-1.128678
 30
0.0
 11
55.282187
 21
-1.149999999999999
 31
0.0
  0
LINE
  5
F7
330
A
100
AcDbEntity
  8
1
390
1D
100
AcDbLine
 10
56.217813
 20
-1.148311999999999
 30
0.0
 11
56.217813
 21
-1.149999999999999
 31
0.0
  0
LINE
  5
F8
330
A
100
AcDbEntity
  8
1
390
1D
100
AcDbLine
 10
53.717813
 20
-1.149999999999999
 30
0.0
 11
53.782187
 21
-1.149999999999999
 31
0.0
  0
LINE
  5
F9
330
A
100
AcDbEntity
  8
1
390
1D
100
AcDbLine
 10
55.445
 20
-0.8679999999999999
 30
0.0
 11
55.555
 21
-0.8679999999999999
 31
0.0
  0
LINE
  5
FA
330
A
100
AcDbEntity
  8
1
390
1D
100
AcDbLine
 10
56.055
 20
-0.8679999999999999
 30
0.0
 11
56.217813
 21
-1.149999999999999
 31
0.0
  0
LINE
  5
FB
330
A
100
AcDbEntity
  8
1
390
1D
100
AcDbLine
 10
56.055
 20
-0.7836020000000001
 30
0.0
 11
56.055
 21
-0.8679999999999999
 31
0.0
  0
LINE
  5
FC
330
A
100
AcDbEntity
  8
1
390
1D
100
AcDbLine
 10
55.945
 20
-0.7771819999999999
 30
0.0
 11
55.945
 21
-0.8679999999999999
 31
0.0
  0
LINE
  5
FD
330
A
100
AcDbEntity
  8
1
390
1D
100
AcDbLine
 10
55.782187
 20
-1.149999999999999
 30
0.0
 11
55.945
 21
-0.8679999999999999
 31
0.0
  0
LINE
  5
FE
330
A
100
AcDbEntity
  8
1
390
1D
100
AcDbLine
 10
55.782187
 20
-1.141917999999999
 30
0.0
 11
55.782187
 21
-1.149999999999999
 31
0.0
  0
LINE
  5
FF
330
A
100
AcDbEntity
  8
1
390
1D
100
AcDbLine
 10
56.55499999999999
 20
-0.8099029999999999
 30
0.0
 11
56.55499999999999
 21
-0.8679999999999999
 31
0.0
  0
LINE
  5
100
330
A
100
AcDbEntity
  8
1
390
1D
100
AcDbLine
 10
54.217813
 20
-1.149999999999999
 30
0.0
 11
54.282187
 21
-1.149999999999999
 31
0.0
  0
LINE
  5
101
330
A
100
AcDbEntity
  8
1
390
1D
100
AcDbLine
 10
55.945
 20
-0.8679999999999999
 30
0.0
 11
56.055
 21
-0.8679999999999999
 31
0.0
  0
LINE
  5
102
330
A
100
AcDbEntity
  8
1
390
1D
100
AcDbLine
 10
56.55499999999999
 20
-0.8679999999999999
 30
0.0
 11
56.708566
 21
-1.133985
 31
0.0
  0
LINE
  5
103
330
A
100
AcDbEntity
  8
1
390
1D
100
AcDbLine
 10
56.445
 20
-0.8045250000000001
 30
0.0
 11
56.445
 21
-0.8679999999999999
 31
0.0
  0
LINE
  5
104
330
A
100
AcDbEntity
  8
1
390
1D
100
AcDbLine
 10
56.282187
 20
-1.149999999999999
 30
0.0
 11
56.445
 21
-0.8679999999999999
 31
0.0
  0
LINE
  5
105
330
A
100
AcDbEntity
  8
1
390
1D
100
AcDbLine
 10
56.282187
 20
-1.148851999999999
 30
0.0
 11
56.282187
 21
-1.149999999999999
 31
0.0
  0
LINE
  5
106
330
A
100
AcDbEntity
  8
1
390
1D
100
AcDbLine
 10
54.71781299999999
 20
-1.149999999999999
 30
0.0
 11
54.782187
 21
-1.149999999999999
 31
0.0
  0
LINE
  5
107
330
A
100
AcDbEntity
  8
1
390
1D
100
AcDbLine
 10
56.945
 20
-0.8270979999999999
 30
0.0
 11
56.945
 21
-0.8679999999999999
 31
0.0
  0
LINE
  5
108
330
A
100
AcDbEntity
  8
1
390
1D
100
AcDbLine
 10
56.797691
 20
-1.123145999999999
 30
0.0
 11
56.945
 21
-0.8679999999999999
 31
0.0
  0
LINE
  5
109
330
A
100
AcDbEntity
  8
1
390
1D
100
AcDbLine
 10
57.0
 20
-0.8679999999999999
 30
0.0
 11
57.0
 21
-0.829287
 31
0.0
  0
LINE
  5
10A
330
A
100
AcDbEntity
  8
1
390
1D
100
AcDbLine
 10
56.945
 20
-0.8679999999999999
 30
0.0
 11
57.0
 21
-0.8679999999999999
 31
0.0
  0
LINE
  5
10B
330
A
100
AcDbEntity
  8
1
390
1D
100
AcDbLine
 10
55.217813
 20
-1.149999999999999
 30
0.0
 11
55.282187
 21
-1.149999999999999
 31
0.0
  0
LINE
  5
10C
330
A
100
AcDbEntity
  8
1
390
1D
100
AcDbLine
 10
55.717813
 20
-1.149999999999999
 30
0.0
 11
55.782187
 21
-1.149999999999999
 31
0.0
  0
LINE
  5
10D
330
A
100
AcDbEntity
  8
1
390
1D
100
AcDbLine
 10
56.217813
 20
-1.149999999999999
 30
0.0
 11
56.282187
 21
-1.149999999999999
 31
0.0
  0
LINE
  5
10E
330
A
100
AcDbEntity
  8
1
390
1D
100
AcDbLine
 10
54.408452
 20
0.8480989999999998
 30
0.0
 11
54.399074
 21
0.8475809999999999
 31
0.0
  0
LINE
  5
10F
330
A
100
AcDbEntity
  8
SK1
390
1D
100
AcDbLine
 10
0.4
 20
3.0
 30
0.0
 11
0.0
 21
2.6
 31
0.0
  0
LINE
  5
111
330
A
100
AcDbEntity
  8
SK1
390
1D
100
AcDbLine
 10
0.4
 20
3.0
 30
0.0
 11
0.4
 21
2.610766999999999
 31
0.0
  0
LINE
  5
112
330
A
100
AcDbEntity
  8
SK1
390
1D
100
AcDbLine
 10
0.4
 20
2.610766999999999
 30
0.0
 11
0.4
 21
-3.0
 31
0.0
  0
LINE
  5
113
330
A
100
AcDbEntity
  8
SK1
390
1D
100
AcDbLine
 10
0.0
 20
-2.6
 30
0.0
 11
0.4
 21
-3.0
 31
0.0
  0
LINE
  5
114
330
A
100
AcDbEntity
  8
SK1
390
1D
100
AcDbLine
 10
0.0
 20
2.6
 30
0.0
 11
0.0
 21
2.262665
 31
0.0
  0
LINE
  5
115
330
A
100
AcDbEntity
  8
SK1
390
1D
100
AcDbLine
 10
0.0
 20
2.262665
 30
0.0
 11
0.0
 21
-2.6
 31
0.0
  0
LINE
  5
116
330
A
100
AcDbEntity
  8
SK1
390
1D
100
AcDbLine
 10
36.0
 20
3.0
 30
0.0
 11
36.0
 21
-3.0
 31
0.0
  0
LINE
  5
117
330
A
100
AcDbEntity
  8
SK1
390
1D
100
AcDbLine
 10
0.4
 20
-3.0
 30
0.0
 11
36.0
 21
-3.0
 31
0.0
  0
LINE
  5
118
330
A
100
AcDbEntity
  8
SK1
390
1D
100
AcDbLine
 10
36.0
 20
3.0
 30
0.0
 11
0.4
 21
3.0
 31
0.0
  0
ARC
  5
11B
330
A
100
AcDbEntity
  8
1
390
1D
100
AcDbCircle
 10
-41.835898
 20
-3.7
 30
0.0
 40
2.0
210
0.0
220
0.0
230
-1.0
100
AcDbArc
 50
60.0
 51
90.0
  0
ARC
  5
11C
330
A
100
AcDbEntity
  8
1
390
1D
100
AcDbCircle
 10
-41.835898
 20
3.7
 30
0.0
 40
2.0
210
0.0
220
0.0
230
-1.0
100
AcDbArc
 50
270.0
 51
300.0
  0
ELLIPSE
  5
11D
330
A
100
AcDbEntity
  8
1
390
1D
100
AcDbEllipse
 10
52.06208499999999
 20
-10.270301
 30
0.0
 11
62.94169062330702
 21
-11.21672932477151
 31
0.0
210
0.0
220
0.0
230
0.9999999999999996
 40
0.142718
 41
1.632352775263882
 42
1.729168038299605
  0
ELLIPSE
  5
11E
330
A
100
AcDbEntity
  8
1
390
1D
100
AcDbEllipse
 10
52.279194
 20
-9.052013
 30
0.0
 11
63.08395188716144
 21
-11.24208145742403
 31
0.0
210
0.0
220
0.0
230
1.0
 40
0.1427180000000001
 41
1.632352775338238
 42
1.679728507670849
  0
ELLIPSE
  5
11F
330
A
100
AcDbEntity
  8
1
390
1D
100
AcDbEllipse
 10
52.06208499999999
 20
-10.270301
 30
0.0
 11
62.94169062330702
 21
-11.21672932477151
 31
0.0
210
0.0
220
0.0
230
0.9999999999999996
 40
0.142718
 41
1.793745244492813
 42
1.816181871850186
  0
SPLINE
  5
120
330
A
100
AcDbEntity
  8
1
390
1D
100
AcDbSpline
210
-0.0000000004021888
220
-0.0000000004720302
230
-1.0
 70
     8
 71
     3
 72
     8
 73
     4
 74
     0
 42
0.0000000001
 43
0.0000000001
 40
0.0
 40
0.0
 40
0.0
 40
0.0
 40
1.0
 40
1.0
 40
1.0
 40
1.0
 10
50.04590000832883
 20
0.7780441422605123
 30
-0.0000000000000018
 10
50.01881457804568
 20
0.8012209114221491
 30
-0.0000000000000017
 10
49.99172934371745
 20
0.824298454148618
 30
-0.0000000000000018
 10
49.96464457603354
 20
0.8472771034212769
 30
-0.0000000000000019
  0
SPLINE
  5
121
330
A
100
AcDbEntity
  8
1
390
1D
100
AcDbSpline
210
0.0
220
0.0
230
1.0
 70
     8
 71
     3
 72
     8
 73
     4
 74
     0
 42
0.0000000001
 43
0.0000000001
 40
0.0
 40
0.0
 40
0.0
 40
0.0
 40
1.0
 40
1.0
 40
1.0
 40
1.0
 10
49.7878673848806
 20
-0.6143452066274904
 30
-0.0000000000000014
 10
49.74706723560057
 20
-0.8595483295061967
 30
-0.0000000000000014
 10
49.70658580556528
 20
-1.104590761847533
 30
-0.0000000000000012
 10
49.6664448929074
 20
-1.349298914812095
 30
-0.0000000000000014
  0
SPLINE
  5
122
330
A
100
AcDbEntity
  8
1
390
1D
100
AcDbSpline
210
0.0000000000156308
220
-0.0000000000024901
230
1.0
 70
     8
 71
     3
 72
     8
 73
     4
 74
     0
 42
0.0000000001
 43
0.0000000001
 40
0.0
 40
0.0
 40
0.0
 40
0.0
 40
1.0
 40
1.0
 40
1.0
 40
1.0
 10
49.78786738376084
 20
-0.6143452064770827
 30
-0.0000000000000014
 10
49.7982546627233
 20
-0.5510541481171459
 30
-0.0000000000000014
 10
49.80819998414887
 20
-0.4886173509691504
 30
-0.0000000000000014
 10
49.81769669117535
 20
-0.4270476821747026
 30
-0.0000000000000013
  0
SPLINE
  5
123
330
A
100
AcDbEntity
  8
1
390
1D
100
AcDbSpline
210
0.0000000000027608
220
-0.0000000000003726
230
1.0
 70
     8
 71
     3
 72
    18
 73
    14
 74
     0
 42
0.0000000001
 43
0.0000000001
 40
0.0
 40
0.0
 40
0.0
 40
0.0
 40
0.0377008299238168
 40
0.0377008299238168
 40
0.1980840249365149
 40
0.1980840249365149
 40
0.3584672199492152
 40
0.3584672199492152
 40
0.6792336099746093
 40
0.6792336099746093
 40
0.8396168049873063
 40
0.8396168049873063
 40
1.0
 40
1.0
 40
1.0
 40
1.0
 10
49.81769669117535
 20
-0.4270476821747026
 30
-0.0000000000000012
 10
49.81896153503806
 20
-0.4188473641605129
 30
-0.0000000000000013
 10
49.8202184209552
 20
-0.4106624280873917
 30
-0.0000000000000013
 10
49.82678033390488
 20
-0.3677389129835547
 30
-0.0000000000000013
 10
49.83196073872522
 20
-0.333174399136567
 30
-0.0000000000000013
 10
49.84186067354113
 20
-0.2657162834644851
 30
-0.0000000000000013
 10
49.8465996680249
 20
-0.2326990855839881
 30
-0.0000000000000013
 10
49.86018270912802
 20
-0.1357865255357638
 30
-0.0000000000000012
 10
49.86839954713213
 20
-0.0740074761544633
 30
-0.0000000000000012
 10
49.8793531990429
 20
0.0140330597636762
 30
-0.0000000000000011
 10
49.88275179257176
 20
0.0424314495991212
 30
-0.000000000000001
 10
49.8889597479253
 20
0.0966806455884353
 30
-0.0000000000000009
 10
49.89178106197875
 20
0.1226265323318216
 30
-0.0000000000000009
 10
49.89430868024181
 20
0.1473477035369797
 30
-0.0000000000000008
  0
SPLINE
  5
124
330
A
100
AcDbEntity
  8
1
390
1D
100
AcDbSpline
210
-0.0000000000000542
220
0.0000000000000096
230
1.0
 70
     8
 71
     3
 72
    12
 73
     8
 74
     0
 42
0.0000000001
 43
0.0000000001
 40
0.0
 40
0.0
 40
0.0
 40
0.0
 40
0.4999999999999999
 40
0.4999999999999999
 40
0.7500000000000001
 40
0.7500000000000001
 40
1.0
 40
1.0
 40
1.0
 40
1.0
 10
49.94799294259673
 20
0.4499430958207428
 30
-0.0000000000000009
 10
49.93981761231106
 20
0.4206563990810537
 30
-0.0000000000000008
 10
49.92854591642164
 20
0.3669515006066604
 30
-0.0000000000000007
 10
49.91304116619295
 20
0.2798781989135364
 30
-0.0000000000000008
 10
49.90811514247258
 20
0.2498762708785876
 30
-0.0000000000000008
 10
49.89972431643866
 20
0.1933516758317069
 30
-0.0000000000000008
 10
49.89639838040439
 20
0.1677858513330648
 30
-0.0000000000000008
 10
49.89430868023612
 20
0.1473477035401629
 30
-0.0000000000000008
  0
SPLINE
  5
125
330
A
100
AcDbEntity
  8
1
390
1D
100
AcDbSpline
210
-0.0000000007926976
220
0.0000000002397899
230
1.0
 70
     8
 71
     3
 72
     8
 73
     4
 74
     0
 42
0.0000000001
 43
0.0000000001
 40
0.0
 40
0.0
 40
0.0
 40
0.0
 40
1.0
 40
1.0
 40
1.0
 40
1.0
 10
50.04590000850033
 20
0.7780441428184873
 30
-0.0000000000000018
 10
50.03064456328139
 20
0.7279971294533425
 30
-0.0000000000000018
 10
50.01529051431862
 20
0.677242258461149
 30
-0.0000000000000016
 10
49.99983609337505
 20
0.6257668360030948
 30
-0.0000000000000014
  0
SPLINE
  5
126
330
A
100
AcDbEntity
  8
1
390
1D
100
AcDbSpline
210
-0.000000000208874
220
0.0000000000600852
230
1.0
 70
     8
 71
     3
 72
    12
 73
     8
 74
     0
 42
0.0000000001
 43
0.0000000001
 40
0.0
 40
0.0
 40
0.0
 40
0.0
 40
0.2702450113932358
 40
0.2702450113932358
 40
0.5404899814218336
 40
0.5404899814218336
 40
1.0
 40
1.0
 40
1.0
 40
1.0
 10
49.96487186065752
 20
0.5086528043829049
 30
-0.0000000000000012
 10
49.9633935815246
 20
0.5036736807019225
 30
-0.0000000000000011
 10
49.9619035727601
 20
0.4986097062704289
 30
-0.0000000000000011
 10
49.95890072806395
 20
0.488314370092951
 30
-0.000000000000001
 10
49.95738779236472
 20
0.4830826545495485
 30
-0.000000000000001
 10
49.95327230040658
 20
0.4687320454525549
 30
-0.000000000000001
 10
49.9506481811174
 20
0.4594550331390792
 30
-0.0000000000000009
 10
49.94799294052427
 20
0.4499430962134738
 30
-0.0000000000000009
  0
SPLINE
  5
127
330
A
100
AcDbEntity
  8
1
390
1D
100
AcDbSpline
210
-0.0000000030373058
220
0.000000000906891
230
1.0
 70
     8
 71
     3
 72
    12
 73
     8
 74
     0
 42
0.0000000001
 43
0.0000000001
 40
0.0
 40
0.0
 40
0.0
 40
0.0
 40
0.2689651901164712
 40
0.2689651901164712
 40
0.5379303830987019
 40
0.5379303830987019
 40
1.0
 40
1.0
 40
1.0
 40
1.0
 10
49.99983609096339
 20
0.6257668366765188
 30
-0.0000000000000013
 10
49.99671647567782
 20
0.6153760549457843
 30
-0.0000000000000015
 10
49.99359280093479
 20
0.6049560046454304
 30
-0.0000000000000013
 10
49.9873373277385
 20
0.5840572739789991
 30
-0.0000000000000013
 10
49.98420552605342
 20
0.5735785740893107
 30
-0.0000000000000012
 10
49.97568240370998
 20
0.5450181328718032
 30
-0.0000000000000012
 10
49.97028313278145
 20
0.5268789806480072
 30
-0.0000000000000012
 10
49.96487186389481
 20
0.5086528037125504
 30
-0.0000000000000011
  0
SPLINE
  5
128
330
A
100
AcDbEntity
  8
1
390
1D
100
AcDbSpline
210
-0.0000000000000001
220
0.0000000000000094
230
1.0
 70
     8
 71
     3
 72
    24
 73
    20
 74
     0
 42
0.0000000001
 43
0.0000000001
 40
0.0
 40
0.0
 40
0.0
 40
0.0
 40
0.0525121147452169
 40
0.0525121147452169
 40
0.0889539564857831
 40
0.0889539564857831
 40
0.1071748773560662
 40
0.1071748773560662
 40
0.1253957982263492
 40
0.1253957982263492
 40
0.1982794817074868
 40
0.1982794817074868
 40
0.2711631651886243
 40
0.2711631651886243
 40
0.4169305321508995
 40
0.4169305321508995
 40
0.7084652660754497
 40
0.7084652660754497
 40
1.0
 40
1.0
 40
1.0
 40
1.0
 10
43.96703150796207
 20
-1.69999355598037
 30
0.0
 10
43.97169488366603
 20
-1.699987078642663
 30
-0.0000000000000001
 10
43.96810721019874
 20
-1.696643625225191
 30
-0.0000000000000002
 10
43.94796286164353
 20
-1.68540673382995
 30
-0.0000000000000002
 10
43.93573651438987
 20
-1.679290453880412
 30
-0.0000000000000004
 10
43.91207981599779
 20
-1.668350615662006
 30
-0.0000000000000003
 10
43.9054678326289
 20
-1.663643680603001
 30
-0.0000000000000006
 10
43.93200336492042
 20
-1.656285404795255
 30
-0.0000000000000006
 10
43.951312790048
 20
-1.653707733245539
 30
-0.0000000000000006
 10
44.04774043786022
 20
-1.642302399535366
 30
-0.0000000000000006
 10
44.13265993837143
 20
-1.637824906430296
 30
-0.0000000000000008
 10
44.30097121480196
 20
-1.62985746001408
 30
-0.0000000000000008
 10
44.38536776293267
 20
-1.627098923418486
 30
-0.0000000000000007
 10
44.63896185719335
 20
-1.621228754494155
 30
-0.0000000000000009
 10
44.80855900619451
 20
-1.620499271611038
 30
-0.0000000000000007
 10
45.31880248145557
 20
-1.627364537303321
 30
-0.0000000000000007
 10
45.65847241960904
 20
-1.637695124912909
 30
-0.0000000000000007
 10
46.33736471100417
 20
-1.653437192952424
 30
-0.0000000000000007
 10
46.67667019752463
 20
-1.660859023516537
 30
-0.0000000000000004
 10
47.01584706501274
 20
-1.667546074987114
 30
-0.0000000000000006
  0
SPLINE
  5
129
330
A
100
AcDbEntity
  8
1
390
1D
100
AcDbSpline
210
0.0000000000000003
220
0.0000000000000241
230
1.0
 70
     8
 71
     3
 72
     8
 73
     4
 74
     0
 42
0.0000000001
 43
0.0000000001
 40
0.0
 40
0.0
 40
0.0
 40
0.0
 40
1.0
 40
1.0
 40
1.0
 40
1.0
 10
47.01584706512796
 20
-1.667546074973359
 30
-0.0000000000000003
 10
47.99173915369157
 20
-1.686786304041334
 30
-0.0000000000000003
 10
48.96633826909715
 20
-1.699999416036519
 30
-0.0000000000000003
 10
49.93952317529585
 20
-1.700000019341189
 30
-0.0000000000000001
  0
SPLINE
  5
12A
330
A
100
AcDbEntity
  8
1
390
1D
100
AcDbSpline
210
0.0000000000008833
220
0.0000000000056391
230
1.0
 70
     8
 71
     3
 72
     8
 73
     4
 74
     0
 42
0.0000000001
 43
0.0000000001
 40
0.0
 40
0.0
 40
0.0
 40
0.0
 40
1.0
 40
1.0
 40
1.0
 40
1.0
 10
49.66644487148369
 20
-1.349299066222499
 30
-0.0000000000000013
 10
49.76583304641771
 20
-1.365390728018724
 30
-0.0000000000000014
 10
49.86523038183725
 20
-1.380964916423807
 30
-0.0000000000000012
 10
49.96464457603423
 20
-1.396009608963482
 30
-0.0000000000000013
  0
SPLINE
  5
12B
330
A
100
AcDbEntity
  8
1
390
1D
100
AcDbSpline
210
0.0000000000000085
220
0.0000000000001105
230
1.0
 70
     8
 71
     3
 72
     8
 73
     4
 74
     0
 42
0.0000000001
 43
0.0000000001
 40
0.0
 40
0.0
 40
0.0
 40
0.0
 40
1.0
 40
1.0
 40
1.0
 40
1.0
 10
49.66644491257341
 20
-1.349298899046801
 30
-0.0000000000000013
 10
48.91603334959751
 20
-1.309034596244771
 30
-0.0000000000000014
 10
48.1674152832893
 20
-1.255348383186004
 30
-0.0000000000000018
 10
47.42205920392376
 20
-1.176195647035001
 30
-0.0000000000000017
  0
SPLINE
  5
12C
330
A
100
AcDbEntity
  8
1
390
1D
100
AcDbSpline
210
-0.000000000000004
220
0.0000000000000221
230
1.0
 70
     8
 71
     3
 72
    18
 73
    14
 74
     0
 42
0.0000000001
 43
0.0000000001
 40
0.0
 40
0.0
 40
0.0
 40
0.0
 40
0.2221305795429305
 40
0.2221305795429305
 40
0.416597934657202
 40
0.416597934657202
 40
0.513831612214335
 40
0.513831612214335
 40
0.6110652897714678
 40
0.6110652897714678
 40
0.8055326448857339
 40
0.8055326448857339
 40
1.0
 40
1.0
 40
1.0
 40
1.0
 10
38.67227316968439
 20
-2.999970696842808
 30
-0.0000000000000002
 10
38.70524388268859
 20
-2.999964760282864
 30
-0.0000000000000002
 10
38.7296715976874
 20
-2.998171315133049
 30
-0.0000000000000003
 10
38.75013701734019
 20
-2.990099618326041
 30
-0.0000000000000004
 10
38.7488888581824
 20
-2.984353125533062
 30
-0.0000000000000007
 10
38.72971334967383
 20
-2.973596746102884
 30
-0.0000000000000004
 10
38.72041739584131
 20
-2.9696089142613
 30
-0.0000000000000004
 10
38.69679471994675
 20
-2.961170837872942
 30
-0.0000000000000007
 10
38.6923422970176
 20
-2.955615372712997
 30
-0.0000000000000009
 10
38.75366919778691
 20
-2.943364613218307
 30
-0.0000000000000007
 10
38.81486351071919
 20
-2.938985216361743
 30
-0.0000000000000009
 10
38.92975736317908
 20
-2.930933441900663
 30
-0.0000000000000009
 10
38.98868430179749
 20
-2.927778421170728
 30
-0.0000000000000007
 10
39.04833395016039
 20
-2.925112582094016
 30
-0.0000000000000011
  0
SPLINE
  5
12D
330
A
100
AcDbEntity
  8
1
390
1D
100
AcDbSpline
210
-0.0000000000044369
220
-0.0000000000047877
230
-1.0
 70
     8
 71
     3
 72
     8
 73
     4
 74
     0
 42
0.0000000001
 43
0.0000000001
 40
0.0
 40
0.0
 40
0.0
 40
0.0
 40
1.0
 40
1.0
 40
1.0
 40
1.0
 10
50.04590000835026
 20
0.778044142816384
 30
-0.0000000000000019
 10
50.11510021075594
 20
0.7107582545981473
 30
-0.0000000000000016
 10
50.1843848347437
 20
0.6465187842757701
 30
-0.0000000000000016
 10
50.25371691614487
 20
0.5854630202063618
 30
-0.0000000000000014
  0
SPLINE
  5
12E
330
A
100
AcDbEntity
  8
1
390
1D
100
AcDbSpline
210
-0.0000000000483886
220
-0.0000000000586526
230
-1.0
 70
     8
 71
     3
 72
    10
 73
     6
 74
     0
 42
0.0000000001
 43
0.0000000001
 40
0.0
 40
0.0
 40
0.0
 40
0.0
 40
0.4999838450252334
 40
0.4999838450252334
 40
1.0
 40
1.0
 40
1.0
 40
1.0
 10
50.40870233827821
 20
0.4543702977311456
 30
-0.0000000000000012
 10
50.41475106468864
 20
0.4494652227081133
 30
-0.0000000000000011
 10
50.42080028542928
 20
0.4445169394700201
 30
-0.000000000000001
 10
50.43289958552612
 20
0.434534825990852
 30
-0.0000000000000011
 10
50.43894976268797
 20
0.4295009097849062
 30
-0.0000000000000011
 10
50.44499999999999
 20
0.4244248795559429
 30
-0.0000000000000011
  0
SPLINE
  5
12F
330
A
100
AcDbEntity
  8
1
390
1D
100
AcDbSpline
210
-0.0000000000157016
220
-0.0000000000185384
230
-1.0
 70
     8
 71
     3
 72
    12
 73
     8
 74
     0
 42
0.0000000001
 43
0.0000000001
 40
0.0
 40
0.0
 40
0.0
 40
0.0
 40
0.1837081825939431
 40
0.1837081825939431
 40
0.5917998311430086
 40
0.5917998311430086
 40
1.0
 40
1.0
 40
1.0
 40
1.0
 10
50.25371691614487
 20
0.5854630202063618
 30
-0.0000000000000014
 10
50.26320644051009
 20
0.5771062804537906
 30
-0.0000000000000014
 10
50.2726966472526
 20
0.5688093058499817
 30
-0.0000000000000014
 10
50.30326915359763
 20
0.5422758342735961
 30
-0.0000000000000014
 10
50.32435397056197
 20
0.5242754522415681
 30
-0.0000000000000012
 10
50.36652717701986
 20
0.4888725220363881
 30
-0.0000000000000012
 10
50.38761700351711
 20
0.4714689631145462
 30
-0.0000000000000012
 10
50.40870233827821
 20
0.4543702977311456
 30
-0.0000000000000011
  0
SPLINE
  5
130
330
A
100
AcDbEntity
  8
1
390
1D
100
AcDbSpline
210
-0.0000000000000008
220
-0.0000000000000351
230
1.0
 70
     8
 71
     3
 72
     8
 73
     4
 74
     0
 42
0.0000000001
 43
0.0000000001
 40
0.0
 40
0.0
 40
0.0
 40
0.0
 40
1.0
 40
1.0
 40
1.0
 40
1.0
 10
47.42205920392347
 20
1.651076115827323
 30
-0.0000000000000006
 10
46.7710838372397
 20
1.69272487185185
 30
-0.0000000000000004
 10
46.11085596158607
 20
1.70126330206773
 30
-0.0000000000000001
 10
45.44697605330077
 20
1.700318259220637
 30
0.0
  0
SPLINE
  5
131
330
A
100
AcDbEntity
  8
1
390
1D
100
AcDbSpline
210
0.0000000000029942
220
0.0000000000024508
230
1.0
 70
     8
 71
     3
 72
    10
 73
     6
 74
     0
 42
0.0000000001
 43
0.0000000001
 40
0.0
 40
0.0
 40
0.0
 40
0.0
 40
0.5
 40
0.5
 40
1.0
 40
1.0
 40
1.0
 40
1.0
 10
50.27510979183285
 20
1.155451452575845
 30
-0.0000000000000003
 10
50.23406885531847
 20
1.215293591502643
 30
-0.0000000000000004
 10
50.18520089286397
 20
1.27665189549674
 30
-0.0000000000000004
 10
50.07978757305363
 20
1.403933384478136
 30
-0.0000000000000008
 10
50.02324250567256
 20
1.469735705707591
 30
-0.000000000000001
 10
49.96464457603417
 20
1.538164240994376
 30
-0.000000000000001
  0
SPLINE
  5
132
330
A
100
AcDbEntity
  8
1
390
1D
100
AcDbSpline
210
0.000000000001781
220
0.0000000000011083
230
1.0
 70
     8
 71
     3
 72
     8
 73
     4
 74
     0
 42
0.0000000001
 43
0.0000000001
 40
0.0
 40
0.0
 40
0.0
 40
0.0
 40
1.0
 40
1.0
 40
1.0
 40
1.0
 10
50.32980619736907
 20
1.067570002510364
 30
-0.0000000000000001
 10
50.31145440528007
 20
1.099344966603269
 30
-0.0000000000000001
 10
50.29320095192492
 20
1.128694700005326
 30
-0.0000000000000002
 10
50.27510979183285
 20
1.155451452575845
 30
-0.0000000000000002
  0
SPLINE
  5
133
330
A
100
AcDbEntity
  8
1
390
1D
100
AcDbSpline
210
-0.0000000000000132
220
0.0000000000000126
230
-1.0
 70
     8
 71
     3
 72
    10
 73
     6
 74
     0
 42
0.0000000001
 43
0.0000000001
 40
0.0
 40
0.0
 40
0.0
 40
0.0
 40
0.5
 40
0.5
 40
1.0
 40
1.0
 40
1.0
 40
1.0
 10
37.5758023270626
 20
0.3213943954426099
 30
-0.0000000000000044
 10
37.61538986693479
 20
0.5163700865450096
 30
-0.0000000000000045
 10
37.73031407420172
 20
0.6810066717679321
 30
-0.0000000000000041
 10
38.00034680879145
 20
0.9550856628347899
 30
-0.0000000000000038
 10
38.15895403834855
 20
1.06874159304516
 30
-0.0000000000000041
 10
38.32451868382572
 20
1.168430867012034
 30
-0.0000000000000039
  0
SPLINE
  5
134
330
A
100
AcDbEntity
  8
1
390
1D
100
AcDbSpline
210
-0.0000000000000008
220
-0.0000000000000329
230
1.0
 70
     8
 71
     3
 72
     8
 73
     4
 74
     0
 42
0.0000000001
 43
0.0000000001
 40
0.0
 40
0.0
 40
0.0
 40
0.0
 40
1.0
 40
1.0
 40
1.0
 40
1.0
 10
39.04833395016043
 20
0.2863977005084735
 30
-0.0000000000000041
 10
38.55713841611839
 20
0.2834167857983516
 30
-0.0000000000000043
 10
38.06629115128555
 20
0.2949587264444631
 30
-0.0000000000000038
 10
37.5758023270626
 20
0.3213943954426099
 30
-0.0000000000000039
  0
SPLINE
  5
135
330
A
100
AcDbEntity
  8
1
390
1D
100
AcDbSpline
210
-0.0000000000001178
220
-0.0000000000032406
230
1.0
 70
     8
 71
     3
 72
     8
 73
     4
 74
     0
 42
0.0000000001
 43
0.0000000001
 40
0.0
 40
0.0
 40
0.0
 40
0.0
 40
1.0
 40
1.0
 40
1.0
 40
1.0
 10
49.66644491057855
 20
1.570218743824
 30
-0.0000000000000009
 10
48.91603334827028
 20
1.59558439457976
 30
-0.0000000000000006
 10
48.16741528262878
 20
1.624965039235008
 30
-0.0000000000000008
 10
47.42205920392347
 20
1.651076115827323
 30
-0.0000000000000006
  0
SPLINE
  5
136
330
A
100
AcDbEntity
  8
1
390
1D
100
AcDbSpline
210
-0.0000000000000164
220
-0.0000000000001774
230
1.0
 70
     8
 71
     3
 72
     8
 73
     4
 74
     0
 42
0.0000000001
 43
0.0000000001
 40
0.0
 40
0.0
 40
0.0
 40
0.0
 40
1.0
 40
1.0
 40
1.0
 40
1.0
 10
47.01584706512796
 20
1.120072820722156
 30
-0.0000000000000018
 10
48.00013635299872
 20
1.045004326378944
 30
-0.000000000000002
 10
48.98311032084479
 20
0.9548012319093004
 30
-0.0000000000000022
 10
49.96464457603417
 20
0.8472771034207653
 30
-0.0000000000000021
  0
SPLINE
  5
137
330
A
100
AcDbEntity
  8
1
390
1D
100
AcDbSpline
210
0.0
220
0.0
230
1.0
 70
     8
 71
     3
 72
    14
 73
    10
 74
     0
 42
0.0000000001
 43
0.0000000001
 40
0.0
 40
0.0
 40
0.0
 40
0.0
 40
0.5000000000000001
 40
0.5000000000000001
 40
0.7500000000000002
 40
0.7500000000000002
 40
0.8750000000000001
 40
0.8750000000000001
 40
1.0
 40
1.0
 40
1.0
 40
1.0
 10
45.0671245422551
 20
-0.7967069536862823
 30
-0.0000000000000022
 10
44.7084567334848
 20
-0.7090571887724196
 30
-0.0000000000000022
 10
44.35098136352264
 20
-0.6075164640004687
 30
-0.0000000000000023
 10
43.85474979379899
 20
-0.3623904769351043
 30
-0.0000000000000023
 10
43.68442666776229
 20
-0.2681987193993791
 30
-0.0000000000000022
 10
43.53152749690122
 20
-0.0330049119642126
 30
-0.0000000000000021
 10
43.51233986303082
 20
0.0675706822810866
 30
-0.0000000000000021
 10
43.57656590951546
 20
0.2421555925075722
 30
-0.0000000000000022
 10
43.64376582820614
 20
0.3113918491445133
 30
-0.0000000000000024
 10
43.71632025956109
 20
0.3692204558632284
 30
-0.0000000000000024
  0
SPLINE
  5
138
330
A
100
AcDbEntity
  8
1
390
1D
100
AcDbSpline
210
-0.0000000000007988
220
-0.0000000000074308
230
1.0
 70
     8
 71
     3
 72
     8
 73
     4
 74
     0
 42
0.0000000001
 43
0.0000000001
 40
0.0
 40
0.0
 40
0.0
 40
0.0
 40
1.0
 40
1.0
 40
1.0
 40
1.0
 10
49.66644487147874
 20
1.570218638439883
 30
-0.000000000000001
 10
49.76583304641446
 20
1.560081229116804
 30
-0.0000000000000009
 10
49.86523038183554
 20
1.549390599824561
 30
-0.000000000000001
 10
49.96464457603423
 20
1.538164240994376
 30
-0.0000000000000011
  0
SPLINE
  5
139
330
A
100
AcDbEntity
  8
1
390
1D
100
AcDbSpline
210
0.0000000000000402
220
0.0000000000002507
230
1.0
 70
     8
 71
     3
 72
    10
 73
     6
 74
     0
 42
0.0000000001
 43
0.0000000001
 40
0.0
 40
0.0
 40
0.0
 40
0.0
 40
0.5
 40
0.5
 40
1.0
 40
1.0
 40
1.0
 40
1.0
 10
47.42205920392376
 20
-1.176195647035001
 30
-0.0000000000000019
 10
47.03455220774503
 20
-1.101040594920335
 30
-0.0000000000000019
 10
46.64367781314496
 20
-1.032952918650835
 30
-0.0000000000000018
 10
45.85790149408659
 20
-0.9080757263395183
 30
-0.0000000000000022
 10
45.4630206646359
 20
-0.8510309137913623
 30
-0.000000000000002
 10
45.0671245422551
 20
-0.7967069536862823
 30
-0.0000000000000021
  0
SPLINE
  5
13A
330
A
100
AcDbEntity
  8
1
390
1D
100
AcDbSpline
210
0.0000000000000001
220
-0.0000000000000009
230
1.0
 70
     8
 71
     3
 72
    26
 73
    22
 74
     0
 42
0.0000000001
 43
0.0000000001
 40
0.0
 40
0.0
 40
0.0
 40
0.0
 40
0.1250000000000162
 40
0.1250000000000162
 40
0.1875000000000243
 40
0.1875000000000243
 40
0.2187500000000284
 40
0.2187500000000284
 40
0.2343750000000305
 40
0.2343750000000305
 40
0.2500000000000325
 40
0.2500000000000325
 40
0.312500000000032
 40
0.312500000000032
 40
0.3750000000000314
 40
0.3750000000000314
 40
0.5000000000000251
 40
0.5000000000000251
 40
0.7500000000000126
 40
0.7500000000000126
 40
1.0
 40
1.0
 40
1.0
 40
1.0
 10
43.71632025956103
 20
0.3692204558632284
 30
-0.0000000000000023
 10
43.83682571485143
 20
0.4901228982449198
 30
-0.0000000000000023
 10
43.92718846048388
 20
0.6359556277789693
 30
-0.0000000000000021
 10
43.97322873874156
 20
0.8628863754721578
 30
-0.0000000000000022
 10
43.97272051799802
 20
0.9357562486539448
 30
-0.0000000000000019
 10
43.94796286164375
 20
1.038686595381931
 30
-0.0000000000000019
 10
43.93573651439015
 20
1.071396522849227
 30
-0.0000000000000018
 10
43.91207981599815
 20
1.117477114296149
 30
-0.0000000000000019
 10
43.90546783262857
 20
1.135030326447577
 30
-0.0000000000000018
 10
43.93200336491969
 20
1.160192550275211
 30
-0.0000000000000018
 10
43.9513127900472
 20
1.168185567005422
 30
-0.0000000000000017
 10
44.04774043785926
 20
1.202911072322762
 30
-0.0000000000000019
 10
44.13265993837057
 20
1.213631516441693
 30
-0.0000000000000016
 10
44.30097121480116
 20
1.233652328571053
 30
-0.0000000000000017
 10
44.38536776293187
 20
1.240099764059835
 30
-0.0000000000000017
 10
44.63896185719261
 20
1.253724245915919
 30
-0.0000000000000017
 10
44.80855900619371
 20
1.255256181586049
 30
-0.0000000000000016
 10
45.31880248145472
 20
1.239640562468537
 30
-0.0000000000000016
 10
45.65847241960847
 20
1.214705334932772
 30
-0.0000000000000016
 10
46.33736471100383
 20
1.17000631017089
 30
-0.0000000000000018
 10
46.67667019752445
 20
1.145940720565931
 30
-0.0000000000000018
 10
47.01584706501268
 20
1.120072820669009
 30
-0.0000000000000017
  0
SPLINE
  5
13B
330
A
100
AcDbEntity
  8
1
390
1D
100
AcDbSpline
210
0.0000000000000044
220
-0.0000000000000032
230
1.0
 70
     8
 71
     3
 72
    20
 73
    16
 74
     0
 42
0.0000000001
 43
0.0000000001
 40
0.0
 40
0.0
 40
0.0
 40
0.0
 40
0.2500000000000023
 40
0.2500000000000023
 40
0.5000000000000047
 40
0.5000000000000047
 40
0.6250000000000058
 40
0.6250000000000058
 40
0.6875000000000049
 40
0.6875000000000049
 40
0.7500000000000039
 40
0.7500000000000039
 40
0.8750000000000019
 40
0.8750000000000019
 40
1.0
 40
1.0
 40
1.0
 40
1.0
 10
38.32451868382572
 20
1.168430867012034
 30
-0.0000000000000036
 10
38.42119876636718
 20
1.23365992433844
 30
-0.0000000000000037
 10
38.51036598593243
 20
1.305146709902202
 30
-0.0000000000000036
 10
38.66093564557735
 20
1.470343680681991
 30
-0.0000000000000037
 10
38.72147732630395
 20
1.564828758454325
 30
-0.0000000000000031
 10
38.75013701734014
 20
1.712041135018012
 30
-0.0000000000000034
 10
38.74888885818246
 20
1.761939959979087
 30
-0.0000000000000033
 10
38.72971334967394
 20
1.831657818544726
 30
-0.0000000000000033
 10
38.72041739584147
 20
1.854465283166178
 30
-0.000000000000003
 10
38.69679471994692
 20
1.897937076113464
 30
-0.0000000000000032
 10
38.69234229701739
 20
1.92350213241076
 30
-0.0000000000000036
 10
38.75366919778646
 20
1.975680735642811
 30
-0.0000000000000031
 10
38.81486351071896
 20
1.991084248656476
 30
-0.0000000000000032
 10
38.92975736317896
 20
2.019998311817972
 30
-0.0000000000000032
 10
38.98868430179743
 20
2.03062834587672
 30
-0.0000000000000028
 10
39.04833395016039
 20
2.03943347603257
 30
-0.000000000000003
  0
SPLINE
  5
13C
330
A
100
AcDbEntity
  8
1
390
1D
100
AcDbSpline
210
0.0000000000000032
220
-0.0000000000000082
230
1.0
 70
     8
 71
     3
 72
    20
 73
    16
 74
     0
 42
0.0000000001
 43
0.0000000001
 40
0.0
 40
0.0
 40
0.0
 40
0.0
 40
0.1966520739456477
 40
0.1966520739456477
 40
0.3933041478912954
 40
0.3933041478912954
 40
0.4424671663777005
 40
0.4424671663777005
 40
0.4916301848641055
 40
0.4916301848641055
 40
0.5899562218369089
 40
0.5899562218369089
 40
0.7866082957825201
 40
0.7866082957825201
 40
1.0
 40
1.0
 40
1.0
 40
1.0
 10
39.04833395016043
 20
-2.925112582093901
 30
-0.0000000000000009
 10
39.1013577738164
 20
-2.896492231019407
 30
-0.0000000000000009
 10
39.15403091931773
 20
-2.868622461226038
 30
-0.0000000000000007
 10
39.25782133160408
 20
-2.815811282434993
 30
-0.0000000000000007
 10
39.31295857357401
 20
-2.787829506486331
 30
-0.0000000000000009
 10
39.36191783506496
 20
-2.770127443898787
 30
-0.0000000000000007
 10
39.37015299885576
 20
-2.768024584378679
 30
-0.0000000000000007
 10
39.37111896605683
 20
-2.772854649604653
 30
-0.0000000000000004
 10
39.36337406047204
 20
-2.7796014595595
 30
-0.0000000000000007
 10
39.34851530535333
 20
-2.794935031926173
 30
-0.0000000000000009
 10
39.34072501364738
 20
-2.803656906061121
 30
-0.0000000000000007
 10
39.32489493278882
 20
-2.824262092749336
 30
-0.0000000000000002
 10
39.32475211478868
 20
-2.830462021326808
 30
-0.0000000000000004
 10
39.34572393480488
 20
-2.826521035901464
 30
-0.0000000000000003
 10
39.36782754809263
 20
-2.815529252391683
 30
-0.0000000000000002
 10
39.39644594763303
 20
-2.799004392881727
 30
-0.0000000000000001
  0
SPLINE
  5
13D
330
A
100
AcDbEntity
  8
1
390
1D
100
AcDbSpline
210
0.0000000000002415
220
0.000000000000792
230
1.0
 70
     8
 71
     3
 72
     8
 73
     4
 74
     0
 42
0.0000000001
 43
0.0000000001
 40
0.0
 40
0.0
 40
0.0
 40
0.0
 40
1.0
 40
1.0
 40
1.0
 40
1.0
 10
40.13869600834602
 20
-0.0455953850470223
 30
-0.0000000000000036
 10
39.77477271637071
 20
0.0512863142687934
 30
-0.0000000000000037
 10
39.41166009098941
 20
0.1632459883650768
 30
-0.0000000000000041
 10
39.04833395016043
 20
0.2863977005084735
 30
-0.0000000000000043
  0
SPLINE
  5
13E
330
A
100
AcDbEntity
  8
1
390
1D
100
AcDbSpline
210
0.0000000000000033
220
0.0000000000000017
230
1.0
 70
     8
 71
     3
 72
    10
 73
     6
 74
     0
 42
0.0000000001
 43
0.0000000001
 40
0.0
 40
0.0
 40
0.0
 40
0.0
 40
0.5
 40
0.5
 40
1.0
 40
1.0
 40
1.0
 40
1.0
 10
39.70648109013718
 20
0.9704034736759579
 30
-0.0000000000000034
 10
39.8410278105398
 20
0.834498895600916
 30
-0.0000000000000032
 10
39.96622619280299
 20
0.6854402582092689
 30
-0.0000000000000032
 10
40.13991594219788
 20
0.3460429839594781
 30
-0.0000000000000034
 10
40.18066413445757
 20
0.144330533072548
 30
-0.000000000000003
 10
40.13869600834607
 20
-0.0455953850470223
 30
-0.0000000000000031
  0
SPLINE
  5
13F
330
A
100
AcDbEntity
  8
1
390
1D
100
AcDbSpline
210
0.0000000000000053
220
0.0000000000000029
230
-1.0
 70
     8
 71
     3
 72
    22
 73
    18
 74
     0
 42
0.0000000001
 43
0.0000000001
 40
0.0
 40
0.0
 40
0.0
 40
0.0
 40
0.1250000000000203
 40
0.1250000000000203
 40
0.2500000000000405
 40
0.2500000000000405
 40
0.2812500000000393
 40
0.2812500000000393
 40
0.312500000000038
 40
0.312500000000038
 40
0.3750000000000358
 40
0.3750000000000358
 40
0.500000000000029
 40
0.500000000000029
 40
0.7500000000000146
 40
0.7500000000000146
 40
1.0
 40
1.0
 40
1.0
 40
1.0
 10
39.04833395016043
 20
2.039433476032456
 30
-0.0000000000000027
 10
39.10135777381618
 20
2.014563590695388
 30
-0.0000000000000031
 10
39.15403091931722
 20
1.988002450191459
 30
-0.0000000000000032
 10
39.25782133160311
 20
1.927759542815067
 30
-0.0000000000000031
 10
39.31295857357265
 20
1.8962635552067
 30
-0.000000000000003
 10
39.36191783506389
 20
1.8375559296191
 30
-0.0000000000000028
 10
39.37015299885508
 20
1.823885357367998
 30
-0.0000000000000028
 10
39.3711189660574
 20
1.800024009481149
 30
-0.0000000000000032
 10
39.36337406047267
 20
1.792081623695195
 30
-0.0000000000000032
 10
39.34851530535377
 20
1.764212502490523
 30
-0.0000000000000029
 10
39.34072501364773
 20
1.743904732203418
 30
-0.0000000000000033
 10
39.32489493278888
 20
1.678435577959874
 30
-0.000000000000003
 10
39.32475211478858
 20
1.627362258093568
 30
-0.000000000000003
 10
39.35492561420642
 20
1.468284343567631
 30
-0.0000000000000031
 10
39.41305300529467
 20
1.356641878310483
 30
-0.0000000000000032
 10
39.54679163769821
 20
1.154980053682379
 30
-0.0000000000000036
 10
39.6248788013632
 20
1.060203854994711
 30
-0.0000000000000032
 10
39.70648109013718
 20
0.9704034736759579
 30
-0.0000000000000037
  0
SPLINE
  5
140
330
A
100
AcDbEntity
  8
1
390
1D
100
AcDbSpline
210
0.0000000000345566
220
0.0000000000350025
230
-1.0
 70
     8
 71
     3
 72
    10
 73
     6
 74
     0
 42
0.0000000001
 43
0.0000000001
 40
0.0
 40
0.0
 40
0.0
 40
0.0
 40
0.4999183803662347
 40
0.4999183803662347
 40
1.0
 40
1.0
 40
1.0
 40
1.0
 10
56.08855383643106
 20
-0.3185895937865553
 30
-0.0000000000000011
 10
56.11007936000198
 20
-0.3391977196573635
 30
-0.0000000000000012
 10
56.13161657007486
 20
-0.3601375212705307
 30
-0.0000000000000012
 10
56.17470567441291
 20
-0.4026769396996315
 30
-0.0000000000000015
 10
56.19625939609456
 20
-0.4242784893554585
 30
-0.0000000000000014
 10
56.21781277591151
 20
-0.4462025402837071
 30
-0.0000000000000014
  0
SPLINE
  5
141
330
A
100
AcDbEntity
  8
1
390
1D
100
AcDbSpline
210
-0.000000000021094
220
-0.0000000000227515
230
1.0
 70
     8
 71
     3
 72
     8
 73
     4
 74
     0
 42
0.0000000001
 43
0.0000000001
 40
0.0
 40
0.0
 40
0.0
 40
0.0
 40
1.0
 40
1.0
 40
1.0
 40
1.0
 10
56.05500000000001
 20
-0.2874805207687246
 30
-0.0000000000000011
 10
56.06620478169203
 20
-0.2975293372734882
 30
-0.0000000000000012
 10
56.07739092758146
 20
-0.3079024376810366
 30
-0.0000000000000011
 10
56.08855383643099
 20
-0.3185895937865553
 30
-0.0000000000000013
  0
SPLINE
  5
142
330
A
100
AcDbEntity
  8
1
390
1D
100
AcDbSpline
210
-0.0000000000000161
220
-0.0000000000000301
230
1.0
 70
     8
 71
     3
 72
     8
 73
     4
 74
     0
 42
0.0000000001
 43
0.0000000001
 40
0.0
 40
0.0
 40
0.0
 40
0.0
 40
1.0
 40
1.0
 40
1.0
 40
1.0
 10
56.21781277591151
 20
0.628097320893005
 30
-0.0000000000000014
 10
56.16459542318961
 20
0.6901365038109475
 30
-0.0000000000000013
 10
56.11031443396945
 20
0.7199388934069475
 30
-0.0000000000000009
 10
56.05500000000001
 20
0.7151329761608736
 30
-0.0000000000000007
  0
SPLINE
  5
143
330
A
100
AcDbEntity
  8
1
390
1D
100
AcDbSpline
210
0.0000000000272829
220
0.000000000024737
230
-1.0
 70
     8
 71
     3
 72
    10
 73
     6
 74
     0
 42
0.0000000001
 43
0.0000000001
 40
0.0
 40
0.0
 40
0.0
 40
0.0
 40
0.499917523963828
 40
0.499917523963828
 40
1.0
 40
1.0
 40
1.0
 40
1.0
 10
56.58773669457024
 20
-0.3826023770211009
 30
-0.0000000000000012
 10
56.60939583027015
 20
-0.4058827989466637
 30
-0.0000000000000012
 10
56.63106826795847
 20
-0.4294797057567621
 30
-0.0000000000000014
 10
56.67443003153568
 20
-0.4773031318236464
 30
-0.0000000000000013
 10
56.69612122293137
 20
-0.5015318073257618
 30
-0.0000000000000014
 10
56.71781277591145
 20
-0.5260671420660401
 30
-0.0000000000000014
  0
SPLINE
  5
144
330
A
100
AcDbEntity
  8
1
390
1D
100
AcDbSpline
210
0.0
220
0.0
230
1.0
 70
     8
 71
     3
 72
     8
 73
     4
 74
     0
 42
0.0000000001
 43
0.0000000001
 40
0.0
 40
0.0
 40
0.0
 40
0.0
 40
1.0
 40
1.0
 40
1.0
 40
1.0
 10
56.555
 20
-0.3483354152090783
 30
-0.0000000000000011
 10
56.56593138279628
 20
-0.3594695231890341
 30
-0.0000000000000011
 10
56.57684498628538
 20
-0.3708953741251548
 30
-0.0000000000000011
 10
56.58773669457024
 20
-0.3826023770211009
 30
-0.0000000000000011
  0
SPLINE
  5
145
330
A
100
AcDbEntity
  8
1
390
1D
100
AcDbSpline
210
-0.0000000000000284
220
-0.0000000000000386
230
1.0
 70
     8
 71
     3
 72
     8
 73
     4
 74
     0
 42
0.0000000001
 43
0.0000000001
 40
0.0
 40
0.0
 40
0.0
 40
0.0
 40
1.0
 40
1.0
 40
1.0
 40
1.0
 10
56.71781277591145
 20
0.5553456760555946
 30
-0.0000000000000014
 10
56.66470298214989
 20
0.6277402967469357
 30
-0.0000000000000012
 10
56.6104092763722
 20
0.6685564268796043
 30
-0.0000000000000009
 10
56.555
 20
0.6753422499529052
 30
-0.0000000000000008
  0
SPLINE
  5
146
330
A
100
AcDbEntity
  8
1
390
1D
100
AcDbSpline
210
0.0000000004196325
220
0.0000000030861728
230
1.0
 70
     8
 71
     3
 72
     8
 73
     4
 74
     0
 42
0.0000000001
 43
0.0000000001
 40
0.0
 40
0.0
 40
0.0
 40
0.0
 40
1.0
 40
1.0
 40
1.0
 40
1.0
 10
55.78218722408855
 20
0.6888237210334865
 30
-0.0000000000000012
 10
55.76072899004942
 20
0.6917511374899732
 30
-0.0000000000000013
 10
55.73927084708288
 20
0.6946688731524091
 30
-0.0000000000000012
 10
55.71781277591151
 20
0.6975768211405012
 30
-0.0000000000000013
  0
SPLINE
  5
147
330
A
100
AcDbEntity
  8
1
390
1D
100
AcDbSpline
210
0.0000000075081769
220
0.0000000449410406
230
0.9999999999999991
 70
     8
 71
     3
 72
     8
 73
     4
 74
     0
 42
0.0000000001
 43
0.0000000001
 40
0.0
 40
0.0
 40
0.0
 40
0.0
 40
1.0
 40
1.0
 40
1.0
 40
1.0
 10
55.71781277591156
 20
-0.3636856281676728
 30
-0.0000000000000017
 10
55.73927099508779
 20
-0.3672765466824899
 30
-0.0000000000000016
 10
55.76072913298378
 20
-0.3708615564801789
 30
-0.0000000000000016
 10
55.78218722408855
 20
-0.3744404722779109
 30
-0.0000000000000014
  0
SPLINE
  5
148
330
A
100
AcDbEntity
  8
1
390
1D
100
AcDbSpline
210
-0.0000000004681416
220
-0.0000000036402601
230
1.0
 70
     8
 71
     3
 72
     8
 73
     4
 74
     0
 42
0.0000000001
 43
0.0000000001
 40
0.0
 40
0.0
 40
0.0
 40
0.0
 40
1.0
 40
1.0
 40
1.0
 40
1.0
 10
55.28218722408855
 20
0.7552322322603118
 30
-0.0000000000000013
 10
55.26072915886629
 20
0.7580024076651739
 30
-0.0000000000000012
 10
55.23927101760506
 20
0.7607619892424964
 30
-0.0000000000000012
 10
55.21781277591145
 20
0.763510846805616
 30
-0.0000000000000012
  0
SPLINE
  5
149
330
A
100
AcDbEntity
  8
1
390
1D
100
AcDbSpline
210
-0.0000000093943151
220
-0.0000000549831527
230
0.9999999999999985
 70
     8
 71
     3
 72
     8
 73
     4
 74
     0
 42
0.0000000001
 43
0.0000000001
 40
0.0
 40
0.0
 40
0.0
 40
0.0
 40
1.0
 40
1.0
 40
1.0
 40
1.0
 10
55.21781277591151
 20
-0.2790373678798801
 30
-0.0000000000000015
 10
55.23927079820089
 20
-0.2827080766529662
 30
-0.0000000000000016
 10
55.26072893598904
 20
-0.2863744322327761
 30
-0.0000000000000016
 10
55.28218722408855
 20
-0.2900362416797293
 30
-0.0000000000000017
  0
SPLINE
  5
14A
330
A
100
AcDbEntity
  8
1
390
1D
100
AcDbSpline
210
-0.000000000022825
220
-0.0000000000263817
230
1.0
 70
     8
 71
     3
 72
    10
 73
     6
 74
     0
 42
0.0000000001
 43
0.0000000001
 40
0.0
 40
0.0
 40
0.0
 40
0.0
 40
0.4999191930138633
 40
0.4999191930138633
 40
1.0
 40
1.0
 40
1.0
 40
1.0
 10
55.58941633417554
 20
-0.252598977382263
 30
-0.0000000000000013
 10
55.61080067301612
 20
-0.27042765389848
 30
-0.0000000000000012
 10
55.63219509964511
 20
-0.2886004977793846
 30
-0.0000000000000014
 10
55.67499643477611
 20
-0.325631018197555
 30
-0.0000000000000012
 10
55.69640513353903
 20
-0.3444903981907714
 30
-0.0000000000000016
 10
55.71781277591168
 20
-0.3636856281678433
 30
-0.0000000000000016
  0
SPLINE
  5
14B
330
A
100
AcDbEntity
  8
1
390
1D
100
AcDbSpline
210
0.0000000000079516
220
0.0000000000099215
230
-1.0
 70
     8
 71
     3
 72
     8
 73
     4
 74
     0
 42
0.0000000001
 43
0.0000000001
 40
0.0
 40
0.0
 40
0.0
 40
0.0
 40
1.0
 40
1.0
 40
1.0
 40
1.0
 10
55.55500000000001
 20
-0.2250160039557727
 30
-0.0000000000000011
 10
55.56649330566984
 20
-0.2338559648747491
 30
-0.0000000000000012
 10
55.57796713396635
 20
-0.2430534829705948
 30
-0.0000000000000012
 10
55.58941633417554
 20
-0.252598977382263
 30
-0.0000000000000012
  0
SPLINE
  5
14C
330
A
100
AcDbEntity
  8
1
390
1D
100
AcDbSpline
210
-0.0000000000000042
220
-0.000000000000013
230
1.0
 70
     8
 71
     3
 72
     8
 73
     4
 74
     0
 42
0.0000000001
 43
0.0000000001
 40
0.0
 40
0.0
 40
0.0
 40
0.0
 40
1.0
 40
1.0
 40
1.0
 40
1.0
 10
55.71781277591151
 20
0.6975768211405012
 30
-0.0000000000000012
 10
55.66449739814885
 20
0.7488526369437523
 30
-0.000000000000001
 10
55.6102305029956
 20
0.7673657349801602
 30
-0.0000000000000009
 10
55.55500000000001
 20
0.7508156062735907
 30
-0.0000000000000006
  0
SPLINE
  5
14D
330
A
100
AcDbEntity
  8
1
390
1D
100
AcDbSpline
210
0.0
220
0.0
230
1.0
 70
     8
 71
     3
 72
     8
 73
     4
 74
     0
 42
0.0000000001
 43
0.0000000001
 40
0.0
 40
0.0
 40
0.0
 40
0.0
 40
1.0
 40
1.0
 40
1.0
 40
1.0
 10
55.91114488360915
 20
-0.2953415491566602
 30
-0.0000000000000012
 10
55.9224268408991
 20
-0.2880309193117228
 30
-0.0000000000000012
 10
55.93371228701425
 20
-0.2808716885378999
 30
-0.0000000000000012
 10
55.945
 20
-0.2738626356182863
 30
-0.0000000000000012
  0
SPLINE
  5
14E
330
A
100
AcDbEntity
  8
1
390
1D
100
AcDbSpline
210
0.0000000000075675
220
-0.0000000000123379
230
1.0
 70
     8
 71
     3
 72
    10
 73
     6
 74
     0
 42
0.0000000001
 43
0.0000000001
 40
0.0
 40
0.0
 40
0.0
 40
0.0
 40
0.4999174383821209
 40
0.4999174383821209
 40
1.0
 40
1.0
 40
1.0
 40
1.0
 10
55.78218722408855
 20
-0.3744404722780246
 30
-0.0000000000000015
 10
55.80368591282763
 20
-0.3619937897651084
 30
-0.0000000000000015
 10
55.82518400167027
 20
-0.3491788480594664
 30
-0.0000000000000013
 10
55.86817307957471
 20
-0.3228124934312859
 30
-0.0000000000000014
 10
55.88966591499929
 20
-0.3092597714049816
 30
-0.0000000000000013
 10
55.91114488360915
 20
-0.2953415491566602
 30
-0.0000000000000012
  0
SPLINE
  5
14F
330
A
100
AcDbEntity
  8
1
390
1D
100
AcDbSpline
210
0.0000000000000041
220
-0.0000000000000196
230
1.0
 70
     8
 71
     3
 72
     8
 73
     4
 74
     0
 42
0.0000000001
 43
0.0000000001
 40
0.0
 40
0.0
 40
0.0
 40
0.0
 40
1.0
 40
1.0
 40
1.0
 40
1.0
 10
55.945
 20
0.7233433721285678
 30
-0.0000000000000007
 10
55.89045896823045
 20
0.7386625515709966
 30
-0.0000000000000008
 10
55.8355715130391
 20
0.7270224083694643
 30
-0.000000000000001
 10
55.78218722408855
 20
0.6888237210339981
 30
-0.0000000000000013
  0
SPLINE
  5
150
330
A
100
AcDbEntity
  8
1
390
1D
100
AcDbSpline
210
-0.000000000010151
220
0.0000000000202568
230
1.0
 70
     8
 71
     3
 72
     8
 73
     4
 74
     0
 42
0.0000000001
 43
0.0000000001
 40
0.0
 40
0.0
 40
0.0
 40
0.0
 40
1.0
 40
1.0
 40
1.0
 40
1.0
 10
55.41026384040282
 20
-0.2285042648209696
 30
-0.0000000000000012
 10
55.42183950775592
 20
-0.2225362225745471
 30
-0.0000000000000012
 10
55.43341869873501
 20
-0.2167344824102315
 30
-0.0000000000000011
 10
55.44499999999999
 20
-0.2110972543328558
 30
-0.0000000000000013
  0
SPLINE
  5
151
330
A
100
AcDbEntity
  8
1
390
1D
100
AcDbSpline
210
0.0000000000071007
220
-0.0000000000147803
230
1.0
 70
     8
 71
     3
 72
    10
 73
     6
 74
     0
 42
0.0000000001
 43
0.0000000001
 40
0.0
 40
0.0
 40
0.0
 40
0.0
 40
0.499918445561439
 40
0.499918445561439
 40
1.0
 40
1.0
 40
1.0
 40
1.0
 10
55.28218722408855
 20
-0.2900362416797861
 30
-0.0000000000000017
 10
55.30353720369777
 20
-0.2805258585552224
 30
-0.0000000000000015
 10
55.32488728906599
 20
-0.2706431049063554
 30
-0.0000000000000014
 10
55.36758240423068
 20
-0.250132556436995
 30
-0.0000000000000013
 10
55.38892923976231
 20
-0.2395036995877717
 30
-0.0000000000000012
 10
55.41026384040282
 20
-0.2285042648209696
 30
-0.0000000000000013
  0
SPLINE
  5
152
330
A
100
AcDbEntity
  8
1
390
1D
100
AcDbSpline
210
0.0000000000000001
220
-0.0000000000000034
230
1.0
 70
     8
 71
     3
 72
     8
 73
     4
 74
     0
 42
0.0000000001
 43
0.0000000001
 40
0.0
 40
0.0
 40
0.0
 40
0.0
 40
1.0
 40
1.0
 40
1.0
 40
1.0
 10
55.44499999999999
 20
0.7580917327881025
 30
-0.0000000000000006
 10
55.39054749311025
 20
0.7840784892323427
 30
-0.0000000000000008
 10
55.33566716176665
 20
0.7830611434005164
 30
-0.000000000000001
 10
55.28218722408855
 20
0.7552322322606529
 30
-0.0000000000000013
  0
SPLINE
  5
153
330
A
100
AcDbEntity
  8
1
390
1D
100
AcDbSpline
210
-0.0000000000164433
220
-0.0000000000222985
230
1.0
 70
     8
 71
     3
 72
    10
 73
     6
 74
     0
 42
0.0000000001
 43
0.0000000001
 40
0.0
 40
0.0
 40
0.0
 40
0.0
 40
0.4999201067597065
 40
0.4999201067597065
 40
1.0
 40
1.0
 40
1.0
 40
1.0
 10
55.09031626861729
 20
-0.1850192206645716
 30
-0.0000000000000013
 10
55.11155311144557
 20
-0.1999840539301658
 30
-0.0000000000000013
 10
55.13279849422435
 20
-0.2153024849482677
 30
-0.0000000000000013
 10
55.17529959330261
 20
-0.2466433018546468
 30
-0.0000000000000015
 10
55.19655706077401
 20
-0.2626671546358921
 30
-0.0000000000000014
 10
55.21781277591151
 20
-0.2790373678798801
 30
-0.0000000000000017
  0
SPLINE
  5
154
330
A
100
AcDbEntity
  8
1
390
1D
100
AcDbSpline
210
0.0
220
0.0
230
1.0
 70
     8
 71
     3
 72
     8
 73
     4
 74
     0
 42
0.0000000001
 43
0.0000000001
 40
0.0
 40
0.0
 40
0.0
 40
0.0
 40
1.0
 40
1.0
 40
1.0
 40
1.0
 10
55.05500000000001
 20
-0.161339446487716
 30
-0.0000000000000012
 10
55.06679427479457
 20
-0.1688447217084672
 30
-0.0000000000000012
 10
55.07856828399787
 20
-0.1767408417897514
 30
-0.0000000000000012
 10
55.09031626861729
 20
-0.1850192206645716
 30
-0.0000000000000012
  0
SPLINE
  5
155
330
A
100
AcDbEntity
  8
1
390
1D
100
AcDbSpline
210
-0.0000000000000017
220
-0.000000000000015
230
1.0
 70
     8
 71
     3
 72
    10
 73
     6
 74
     0
 42
0.0000000001
 43
0.0000000001
 40
0.0
 40
0.0
 40
0.0
 40
0.0
 40
0.5000000000000002
 40
0.5000000000000002
 40
1.0
 40
1.0
 40
1.0
 40
1.0
 10
55.21781277591145
 20
0.763510846805616
 30
-0.0000000000000012
 10
55.19111214154725
 20
0.7835647753485091
 30
-0.000000000000001
 10
55.16433624481805
 20
0.7951162867826156
 30
-0.0000000000000009
 10
55.11016717448757
 20
0.8015719466906716
 30
-0.0000000000000007
 10
55.08258053576168
 20
0.7963666462704282
 30
-0.0000000000000007
 10
55.05500000000001
 20
0.78215725480311
 30
-0.0000000000000005
  0
SPLINE
  5
156
330
A
100
AcDbEntity
  8
1
390
1D
100
AcDbSpline
210
-0.0000000005437083
220
-0.0000000038094003
230
1.0
 70
     8
 71
     3
 72
     8
 73
     4
 74
     0
 42
0.0000000001
 43
0.0000000001
 40
0.0
 40
0.0
 40
0.0
 40
0.0
 40
1.0
 40
1.0
 40
1.0
 40
1.0
 10
56.28218722408854
 20
0.6189092894486521
 30
-0.0000000000000015
 10
56.26072886074996
 20
0.6219809633376486
 30
-0.0000000000000013
 10
56.23927071612638
 20
0.6250436666528572
 30
-0.0000000000000014
 10
56.21781277591151
 20
0.6280973208931187
 30
-0.0000000000000014
  0
SPLINE
  5
157
330
A
100
AcDbEntity
  8
1
390
1D
100
AcDbSpline
210
-0.0000000020471988
220
-0.0000000126211046
230
1.0
 70
     8
 71
     3
 72
     8
 73
     4
 74
     0
 42
0.0000000001
 43
0.0000000001
 40
0.0
 40
0.0
 40
0.0
 40
0.0
 40
1.0
 40
1.0
 40
1.0
 40
1.0
 10
56.21781277591151
 20
-0.4462025402837071
 30
-0.0000000000000014
 10
56.2392708118869
 20
-0.4496905193140038
 30
-0.0000000000000014
 10
56.26072913250447
 20
-0.453171206850584
 30
-0.0000000000000015
 10
56.28218722409036
 20
-0.4566443417523375
 30
-0.0000000000000015
  0
SPLINE
  5
158
330
A
100
AcDbEntity
  8
1
390
1D
100
AcDbSpline
210
-0.0000000000499383
220
0.0000000000654101
230
1.0
 70
     8
 71
     3
 72
     8
 73
     4
 74
     0
 42
0.0000000001
 43
0.0000000001
 40
0.0
 40
0.0
 40
0.0
 40
0.0
 40
1.0
 40
1.0
 40
1.0
 40
1.0
 10
56.41198032918874
 20
-0.3603149188473367
 30
-0.0000000000000011
 10
56.42298382547336
 20
-0.3517753827494516
 30
-0.0000000000000011
 10
56.43399073337923
 20
-0.3433724523526394
 30
-0.0000000000000011
 10
56.44499999999999
 20
-0.3351053942286626
 30
-0.0000000000000012
  0
SPLINE
  5
159
330
A
100
AcDbEntity
  8
1
390
1D
100
AcDbSpline
210
-0.000000000009653
220
0.0000000000130067
230
-1.0
 70
     8
 71
     3
 72
    10
 73
     6
 74
     0
 42
0.0000000001
 43
0.0000000001
 40
0.0
 40
0.0
 40
0.0
 40
0.0
 40
0.4999164999151889
 40
0.4999164999151889
 40
1.0
 40
1.0
 40
1.0
 40
1.0
 10
56.28218722408854
 20
-0.45664434175211
 30
-0.0000000000000013
 10
56.30382708187688
 20
-0.4413117581351004
 30
-0.0000000000000015
 10
56.32546561130164
 20
-0.425617917005809
 30
-0.0000000000000014
 10
56.36873346139907
 20
-0.3935079592038733
 30
-0.0000000000000013
 10
56.39036466766481
 20
-0.3770902888832666
 30
-0.0000000000000012
 10
56.41198032918874
 20
-0.3603149188473367
 30
-0.0000000000000012
  0
SPLINE
  5
15A
330
A
100
AcDbEntity
  8
1
390
1D
100
AcDbSpline
210
0.000000000000011
220
-0.0000000000000275
230
1.0
 70
     8
 71
     3
 72
     8
 73
     4
 74
     0
 42
0.0000000001
 43
0.0000000001
 40
0.0
 40
0.0
 40
0.0
 40
0.0
 40
1.0
 40
1.0
 40
1.0
 40
1.0
 10
56.44499999999999
 20
0.6844378682455386
 30
-0.0000000000000008
 10
56.39036394090317
 20
0.6891870834811016
 30
-0.0000000000000009
 10
56.33547003150233
 20
0.6671440071331177
 30
-0.0000000000000012
 10
56.28218722408768
 20
0.6189092894486521
 30
-0.0000000000000013
  0
SPLINE
  5
15B
330
A
100
AcDbEntity
  8
1
390
1D
100
AcDbSpline
210
0.0
220
0.0
230
1.0
 70
     8
 71
     3
 72
     8
 73
     4
 74
     0
 42
0.0000000001
 43
0.0000000001
 40
0.0
 40
0.0
 40
0.0
 40
0.0
 40
1.0
 40
1.0
 40
1.0
 40
1.0
 10
54.78218722408849
 20
0.8177977567045786
 30
-0.0000000000000012
 10
54.76072838748371
 20
0.8203949850749268
 30
-0.0000000000000011
 10
54.73927024732899
 20
0.822980432606073
 30
-0.0000000000000011
 10
54.7178127759118
 20
0.8255539561669706
 30
-0.0000000000000012
  0
SPLINE
  5
15C
330
A
100
AcDbEntity
  8
1
390
1D
100
AcDbSpline
210
0.0000000075677006
220
0.0000000436091313
230
0.9999999999999989
 70
     8
 71
     3
 72
     8
 73
     4
 74
     0
 42
0.0000000001
 43
0.0000000001
 40
0.0
 40
0.0
 40
0.0
 40
0.0
 40
1.0
 40
1.0
 40
1.0
 40
1.0
 10
54.71781277591151
 20
-0.1928071334430683
 30
-0.0000000000000016
 10
54.73927106700539
 20
-0.1965337749989544
 30
-0.0000000000000015
 10
54.76072920498616
 20
-0.2002575678186531
 30
-0.0000000000000016
 10
54.78218722408854
 20
-0.2039783186090176
 30
-0.0000000000000015
  0
SPLINE
  5
15D
330
A
100
AcDbEntity
  8
1
390
1D
100
AcDbSpline
210
-0.0000000000241594
220
0.0000000000662942
230
-1.0
 70
     8
 71
     3
 72
     8
 73
     4
 74
     0
 42
0.0000000001
 43
0.0000000001
 40
0.0
 40
0.0
 40
0.0
 40
0.0
 40
1.0
 40
1.0
 40
1.0
 40
1.0
 10
54.90935336694939
 20
-0.1601982179601578
 30
-0.0000000000000014
 10
54.92123261492793
 20
-0.1556877598584947
 30
-0.0000000000000013
 10
54.93311536832914
 20
-0.1513582543520329
 30
-0.0000000000000012
 10
54.94499999999999
 20
-0.1472072690639834
 30
-0.0000000000000011
  0
SPLINE
  5
15E
330
A
100
AcDbEntity
  8
1
390
1D
100
AcDbSpline
210
0.0000000000038434
220
-0.0000000000111642
230
1.0
 70
     8
 71
     3
 72
    10
 73
     6
 74
     0
 42
0.0000000001
 43
0.0000000001
 40
0.0
 40
0.0
 40
0.0
 40
0.0
 40
0.4999196248373401
 40
0.4999196248373401
 40
1.0
 40
1.0
 40
1.0
 40
1.0
 10
54.78218722408854
 20
-0.2039783186090176
 30
-0.0000000000000016
 10
54.8033836598359
 20
-0.1974290046773035
 30
-0.0000000000000017
 10
54.82458087800303
 20
-0.1905062823698245
 30
-0.0000000000000014
 10
54.86697222750677
 20
-0.1759132327042039
 30
-0.0000000000000014
 10
54.88816812060799
 20
-0.1682420912902103
 30
-0.0000000000000013
 10
54.90935336694939
 20
-0.1601982179601578
 30
-0.0000000000000012
  0
SPLINE
  5
15F
330
A
100
AcDbEntity
  8
1
390
1D
100
AcDbSpline
210
0.0000000000000025
220
0.0000000000000136
230
1.0
 70
     8
 71
     3
 72
     8
 73
     4
 74
     0
 42
0.0000000001
 43
0.0000000001
 40
0.0
 40
0.0
 40
0.0
 40
0.0
 40
1.0
 40
1.0
 40
1.0
 40
1.0
 10
54.94499999999999
 20
0.7884455668252031
 30
-0.0000000000000005
 10
54.89062579106445
 20
0.8251580123147732
 30
-0.0000000000000007
 10
54.83575387577765
 20
0.8349525378147291
 30
-0.0000000000000009
 10
54.78218722408854
 20
0.8177977567048058
 30
-0.0000000000000011
  0
SPLINE
  5
160
330
A
100
AcDbEntity
  8
1
390
1D
100
AcDbSpline
210
-0.0000000000117639
220
-0.0000000000194482
230
1.0
 70
     8
 71
     3
 72
    10
 73
     6
 74
     0
 42
0.0000000001
 43
0.0000000001
 40
0.0
 40
0.0
 40
0.0
 40
0.0
 40
0.4999212233277797
 40
0.4999212233277797
 40
1.0
 40
1.0
 40
1.0
 40
1.0
 10
54.59122361896118
 20
-0.1162356732011176
 30
-0.0000000000000012
 10
54.61231156817813
 20
-0.1282800315951249
 30
-0.0000000000000014
 10
54.63340661383377
 20
-0.1406841474397993
 30
-0.0000000000000014
 10
54.67560502370385
 20
-0.1662091334085289
 30
-0.0000000000000015
 10
54.69671009658032
 20
-0.1793312282310922
 30
-0.0000000000000015
 10
54.71781277591145
 20
-0.1928071334430683
 30
-0.0000000000000017
  0
SPLINE
  5
161
330
A
100
AcDbEntity
  8
1
390
1D
100
AcDbSpline
210
-0.000000000001537
220
-0.000000000002871
230
1.0
 70
     8
 71
     3
 72
    10
 73
     6
 74
     0
 42
0.0000000001
 43
0.0000000001
 40
0.0
 40
0.0
 40
0.0
 40
0.0
 40
0.4999205099954521
 40
0.4999205099954521
 40
1.0
 40
1.0
 40
1.0
 40
1.0
 10
54.555
 20
-0.0968437319911573
 30
-0.0000000000000013
 10
54.56104808807885
 20
-0.099865174982483
 30
-0.0000000000000011
 10
54.56709070577488
 20
-0.1029921354780186
 30
-0.0000000000000013
 10
54.57916530303794
 20
-0.1094563912008653
 30
-0.0000000000000013
 10
54.58519775868245
 20
-0.1127940099041211
 30
-0.0000000000000013
 10
54.59122361896118
 20
-0.1162356732011176
 30
-0.0000000000000012
  0
SPLINE
  5
162
330
A
100
AcDbEntity
  8
1
390
1D
100
AcDbSpline
210
-0.0000000000000014
220
0.0000000000000134
230
1.0
 70
     8
 71
     3
 72
    10
 73
     6
 74
     0
 42
0.0000000001
 43
0.0000000001
 40
0.0
 40
0.0
 40
0.0
 40
0.0
 40
0.5
 40
0.5
 40
1.0
 40
1.0
 40
1.0
 40
1.0
 10
54.71781277591145
 20
0.8255539561660611
 30
-0.000000000000001
 10
54.69107684662151
 20
0.8398319590001506
 30
-0.000000000000001
 10
54.66428738431864
 20
0.8455705492236234
 30
-0.0000000000000008
 10
54.61012377976924
 20
0.8402772683584771
 30
-0.0000000000000007
 10
54.58255499656793
 20
0.8290941877830277
 30
-0.0000000000000006
 10
54.555
 20
0.8089146022587101
 30
-0.0000000000000004
  0
SPLINE
  5
163
330
A
100
AcDbEntity
  8
1
390
1D
100
AcDbSpline
210
0.0000000003347777
220
0.0000000022463838
230
1.0
 70
     8
 71
     3
 72
     8
 73
     4
 74
     0
 42
0.0000000001
 43
0.0000000001
 40
0.0
 40
0.0
 40
0.0
 40
0.0
 40
1.0
 40
1.0
 40
1.0
 40
1.0
 10
56.78218722408826
 20
0.5457519821368919
 30
-0.0000000000000013
 10
56.76072876779152
 20
0.5489583879898987
 30
-0.0000000000000016
 10
56.73927062172982
 20
0.5521563018555753
 30
-0.0000000000000014
 10
56.71781277591151
 20
0.5553456760555946
 30
-0.0000000000000014
  0
SPLINE
  5
164
330
A
100
AcDbEntity
  8
1
390
1D
100
AcDbSpline
210
0.0000000003458825
220
0.0000000022123182
230
1.0
 70
     8
 71
     3
 72
     8
 73
     4
 74
     0
 42
0.0000000001
 43
0.0000000001
 40
0.0
 40
0.0
 40
0.0
 40
0.0
 40
1.0
 40
1.0
 40
1.0
 40
1.0
 10
56.71781277591151
 20
-0.5260671420660401
 30
-0.0000000000000015
 10
56.73927084607822
 20
-0.5294306905717008
 30
-0.0000000000000014
 10
56.76072898505856
 20
-0.5327855886044404
 30
-0.0000000000000013
 10
56.78218722408854
 20
-0.5361316805311845
 30
-0.0000000000000015
  0
SPLINE
  5
165
330
A
100
AcDbEntity
  8
1
390
1D
100
AcDbSpline
210
0.0
220
0.0
230
1.0
 70
     8
 71
     3
 72
     8
 73
     4
 74
     0
 42
0.0000000001
 43
0.0000000001
 40
0.0
 40
0.0
 40
0.0
 40
0.0
 40
1.0
 40
1.0
 40
1.0
 40
1.0
 10
56.91277712975818
 20
-0.4230325139020011
 30
-0.0000000000000011
 10
56.92351508880932
 20
-0.4133784066078193
 30
-0.0000000000000011
 10
56.93425634665653
 20
-0.4038463430125034
 30
-0.0000000000000011
 10
56.94499999999999
 20
-0.3944359966537832
 30
-0.0000000000000011
  0
SPLINE
  5
166
330
A
100
AcDbEntity
  8
1
390
1D
100
AcDbSpline
210
-0.0000000000054953
220
0.0000000000063453
230
-1.0
 70
     8
 71
     3
 72
    10
 73
     6
 74
     0
 42
0.0000000001
 43
0.0000000001
 40
0.0
 40
0.0
 40
0.0
 40
0.0
 40
0.4999154825200196
 40
0.4999154825200196
 40
1.0
 40
1.0
 40
1.0
 40
1.0
 10
56.78218722408854
 20
-0.5361316805311845
 30
-0.0000000000000012
 10
56.8039618880963
 20
-0.5179850101705484
 30
-0.0000000000000014
 10
56.82573446846345
 20
-0.4994866256880642
 30
-0.0000000000000014
 10
56.86926822495763
 20
-0.4617867044153742
 30
-0.0000000000000011
 10
56.8910313279427
 20
-0.442583371092269
 30
-0.0000000000000012
 10
56.91277712975818
 20
-0.4230325139020011
 30
-0.0000000000000013
  0
SPLINE
  5
167
330
A
100
AcDbEntity
  8
1
390
1D
100
AcDbSpline
210
-0.0000000000000602
220
0.0000000000001026
230
-1.0
 70
     8
 71
     3
 72
    10
 73
     6
 74
     0
 42
0.0000000001
 43
0.0000000001
 40
0.0
 40
0.0
 40
0.0
 40
0.0
 40
0.4926268392289014
 40
0.4926268392289014
 40
1.0
 40
1.0
 40
1.0
 40
1.0
 10
56.94500000000005
 20
0.6415829133515559
 30
-0.0000000000000008
 10
56.91813056954817
 20
0.6387845145753204
 30
-0.0000000000000009
 10
56.89100177998415
 20
0.6295151458277815
 30
-0.0000000000000011
 10
56.83656484346336
 20
0.5978885816962816
 30
-0.0000000000000012
 10
56.80906493845879
 20
0.5750270369535997
 30
-0.0000000000000013
 10
56.78218722408849
 20
0.5457519821377446
 30
-0.0000000000000014
  0
SPLINE
  5
168
330
A
100
AcDbEntity
  8
1
390
1D
100
AcDbSpline
210
0.000000000159037
220
0.0000000014258428
230
1.0
 70
     8
 71
     3
 72
     8
 73
     4
 74
     0
 42
0.0000000001
 43
0.0000000001
 40
0.0
 40
0.0
 40
0.0
 40
0.0
 40
1.0
 40
1.0
 40
1.0
 40
1.0
 10
54.28218722408849
 20
0.8761270405089476
 30
-0.000000000000001
 10
54.26072862035443
 20
0.8785334351932192
 30
-0.0000000000000011
 10
54.23927048178342
 20
0.88092689870831
 30
-0.000000000000001
 10
54.21781277591203
 20
0.8833072813455942
 30
-0.0000000000000011
  0
SPLINE
  5
169
330
A
100
AcDbEntity
  8
1
390
1D
100
AcDbSpline
210
0.0
220
0.0
230
1.0
 70
     8
 71
     3
 72
     8
 73
     4
 74
     0
 42
0.0000000001
 43
0.0000000001
 40
0.0
 40
0.0
 40
0.0
 40
0.0
 40
1.0
 40
1.0
 40
1.0
 40
1.0
 10
54.21781277591151
 20
-0.1055545701462393
 30
-0.0000000000000016
 10
54.23927076479339
 20
-0.1093130916993346
 30
-0.0000000000000016
 10
54.26072890324622
 20
-0.1130703412484309
 30
-0.0000000000000016
 10
54.28218722408854
 20
-0.1168261317504857
 30
-0.0000000000000016
  0
SPLINE
  5
16A
330
A
100
AcDbEntity
  8
1
390
1D
100
AcDbSpline
210
0.0000000000043256
220
-0.0000000000191875
230
1.0
 70
     8
 71
     3
 72
    10
 73
     6
 74
     0
 42
0.0000000001
 43
0.0000000001
 40
0.0
 40
0.0
 40
0.0
 40
0.0
 40
0.4999840355814252
 40
0.4999840355814252
 40
1.0
 40
1.0
 40
1.0
 40
1.0
 10
54.40845160208278
 20
-0.0908219493326783
 30
-0.0000000000000013
 10
54.41454145357523
 20
-0.0893518661432609
 30
-0.0000000000000013
 10
54.42063211120853
 20
-0.0879304701454089
 30
-0.0000000000000013
 10
54.43281496818379
 20
-0.0851841773322235
 30
-0.0000000000000012
 10
54.43890726481236
 20
-0.0838592647700693
 30
-0.0000000000000012
 10
54.44499999999999
 20
-0.0825822417750715
 30
-0.0000000000000013
  0
SPLINE
  5
16B
330
A
100
AcDbEntity
  8
1
390
1D
100
AcDbSpline
210
0.0000000000008906
220
-0.0000000000043246
230
1.0
 70
     8
 71
     3
 72
    10
 73
     6
 74
     0
 42
0.0000000001
 43
0.0000000001
 40
0.0
 40
0.0
 40
0.0
 40
0.0
 40
0.4999210305365218
 40
0.4999210305365218
 40
1.0
 40
1.0
 40
1.0
 40
1.0
 10
54.28218722408854
 20
-0.1168261317512247
 30
-0.0000000000000016
 10
54.3032316710919
 20
-0.1132358731236991
 30
-0.0000000000000017
 10
54.32427753424189
 20
-0.1092742172999124
 30
-0.0000000000000015
 10
54.36636803118318
 20
-0.1006067204965575
 30
-0.0000000000000014
 10
54.38741437895584
 20
-0.0959003109492755
 30
-0.0000000000000014
 10
54.40845160208278
 20
-0.0908219493326783
 30
-0.0000000000000014
  0
SPLINE
  5
16C
330
A
100
AcDbEntity
  8
1
390
1D
100
AcDbSpline
210
0.000000000000012
220
0.0000000000000314
230
1.0
 70
     8
 71
     3
 72
     8
 73
     4
 74
     0
 42
0.0000000001
 43
0.0000000001
 40
0.0
 40
0.0
 40
0.0
 40
0.0
 40
1.0
 40
1.0
 40
1.0
 40
1.0
 10
54.44499999999999
 20
0.8141628047353037
 30
-0.0000000000000004
 10
54.39068980599848
 20
0.8616003145764352
 30
-0.0000000000000006
 10
54.33582802074261
 20
0.8823485695987756
 30
-0.0000000000000008
 10
54.28218722409066
 20
0.8761270405093455
 30
-0.0000000000000011
  0
SPLINE
  5
16D
330
A
100
AcDbEntity
  8
1
390
1D
100
AcDbSpline
210
-0.0000000000068862
220
-0.000000000014693
230
1.0
 70
     8
 71
     3
 72
    10
 73
     6
 74
     0
 42
0.0000000001
 43
0.0000000001
 40
0.0
 40
0.0
 40
0.0
 40
0.0
 40
0.4999225967326341
 40
0.4999225967326341
 40
1.0
 40
1.0
 40
1.0
 40
1.0
 10
54.09208809872223
 20
-0.0466305226075292
 30
-0.0000000000000012
 10
54.11303403270221
 20
-0.0557273718700344
 30
-0.0000000000000014
 10
54.13398578672836
 20
-0.0651868677067
 30
-0.0000000000000013
 10
54.17589582485459
 20
-0.0848290588870668
 30
-0.0000000000000014
 10
54.1968557715353
 20
-0.0950127347267085
 30
-0.0000000000000015
 10
54.21781277591145
 20
-0.1055545701462393
 30
-0.0000000000000017
  0
SPLINE
  5
16E
330
A
100
AcDbEntity
  8
1
390
1D
100
AcDbSpline
210
-0.0000000000022998
220
-0.0000000000057904
230
1.0
 70
     8
 71
     3
 72
    10
 73
     6
 74
     0
 42
0.0000000001
 43
0.0000000001
 40
0.0
 40
0.0
 40
0.0
 40
0.0
 40
0.4999163343174275
 40
0.4999163343174275
 40
1.0
 40
1.0
 40
1.0
 40
1.0
 10
54.055
 20
-0.0319003256147994
 30
-0.0000000000000011
 10
54.06119247166873
 20
-0.0341303273349922
 30
-0.0000000000000013
 10
54.0673793281939
 20
-0.036472996044381
 30
-0.0000000000000012
 10
54.07974210142179
 20
-0.0413832274237507
 30
-0.0000000000000012
 10
54.08591853118672
 20
-0.0439510705506905
 30
-0.0000000000000013
 10
54.09208809872229
 20
-0.0466305226075292
 30
-0.0000000000000012
  0
SPLINE
  5
16F
330
A
100
AcDbEntity
  8
1
390
1D
100
AcDbSpline
210
-0.0000000000000046
220
0.0000000000000142
230
1.0
 70
     8
 71
     3
 72
     8
 73
     4
 74
     0
 42
0.0000000001
 43
0.0000000001
 40
0.0
 40
0.0
 40
0.0
 40
0.0
 40
1.0
 40
1.0
 40
1.0
 40
1.0
 10
54.21781277591145
 20
0.8833072813446847
 30
-0.0000000000000012
 10
54.16428910172738
 20
0.8999692821100211
 30
-0.0000000000000007
 10
54.11008097306984
 20
0.8831528543097988
 30
-0.0000000000000006
 10
54.05500000000318
 20
0.8308606015157806
 30
-0.0000000000000004
  0
SPLINE
  5
170
330
A
100
AcDbEntity
  8
1
390
1D
100
AcDbSpline
210
0.0
220
0.0
230
1.0
 70
     8
 71
     3
 72
     8
 73
     4
 74
     0
 42
0.0000000001
 43
0.0000000001
 40
0.0
 40
0.0
 40
0.0
 40
0.0
 40
1.0
 40
1.0
 40
1.0
 40
1.0
 10
53.78218722408849
 20
0.9297943641041117
 30
-0.0000000000000009
 10
53.76072888726661
 20
0.9319913441108838
 30
-0.0000000000000009
 10
53.73927074996458
 20
0.9341742283789928
 30
-0.0000000000000009
 10
53.71781277591151
 20
0.9363428703857719
 30
-0.0000000000000009
  0
SPLINE
  5
171
330
A
100
AcDbEntity
  8
1
390
1D
100
AcDbSpline
210
0.0000286600941313
220
0.0001632377245843
230
0.9999999862660221
 70
     8
 71
     3
 72
     8
 73
     4
 74
     0
 42
0.0000000001
 43
0.0000000001
 40
0.0
 40
0.0
 40
0.0
 40
0.0
 40
1.0
 40
1.0
 40
1.0
 40
1.0
 10
53.71781277591151
 20
-0.0178295983833436
 30
-0.0000000000000017
 10
53.73927101092011
 20
-0.0215969887238998
 30
-0.0000000000000016
 10
53.76072915014538
 20
-0.0253645068147534
 30
-0.0000000000000015
 10
53.78218722408854
 20
-0.0291319785101791
 30
-0.0000000000000016
  0
SPLINE
  5
172
330
A
100
AcDbEntity
  8
1
390
1D
100
AcDbSpline
210
0.00000000000132
220
-0.0000000000154696
230
1.0
 70
     8
 71
     3
 72
    10
 73
     6
 74
     0
 42
0.0000000001
 43
0.0000000001
 40
0.0
 40
0.0
 40
0.0
 40
0.0
 40
0.4999830753011569
 40
0.4999830753011569
 40
1.0
 40
1.0
 40
1.0
 40
1.0
 10
53.9076163552196
 20
-0.0207770441760999
 30
-0.0000000000000014
 10
53.91384551755192
 20
-0.0201426706685197
 30
-0.0000000000000013
 10
53.9200754436133
 20
-0.0195599667601414
 30
-0.0000000000000013
 10
53.93253672784294
 20
-0.0184968950830466
 30
-0.0000000000000012
 10
53.93876819151167
 20
-0.0180165252266988
 30
-0.0000000000000013
 10
53.94499999999999
 20
-0.0175868635547545
 30
-0.0000000000000012
  0
SPLINE
  5
173
330
A
100
AcDbEntity
  8
1
390
1D
100
AcDbSpline
210
0.0000000000000804
220
-0.0000000000012076
230
1.0
 70
     8
 71
     3
 72
    10
 73
     6
 74
     0
 42
0.0000000001
 43
0.0000000001
 40
0.0
 40
0.0
 40
0.0
 40
0.0
 40
0.4999226663282412
 40
0.4999226663282412
 40
1.0
 40
1.0
 40
1.0
 40
1.0
 10
53.78218722408854
 20
-0.0291319785102928
 30
-0.0000000000000017
 10
53.80309091977818
 20
-0.0284741055791073
 30
-0.0000000000000013
 10
53.82399660386671
 20
-0.0274496521032006
 30
-0.0000000000000014
 10
53.86580843740325
 20
-0.0246655122615493
 30
-0.0000000000000014
 10
53.88671625013216
 20
-0.022905496167823
 30
-0.0000000000000013
 10
53.9076163552196
 20
-0.0207770441760999
 30
-0.0000000000000013
  0
SPLINE
  5
174
330
A
100
AcDbEntity
  8
1
390
1D
100
AcDbSpline
210
-0.0000000000000793
220
-0.0000000000001361
230
-1.0
 70
     8
 71
     3
 72
    10
 73
     6
 74
     0
 42
0.0000000001
 43
0.0000000001
 40
0.0
 40
0.0
 40
0.0
 40
0.0
 40
0.4926547049659562
 40
0.4926547049659562
 40
1.0
 40
1.0
 40
1.0
 40
1.0
 10
53.94499999999999
 20
0.8350236009700324
 30
-0.0000000000000003
 10
53.91836290436344
 20
0.8635351859819593
 30
-0.0000000000000004
 10
53.89136583872772
 20
0.8858310376122062
 30
-0.0000000000000005
 10
53.83694882793145
 20
0.9178564680544809
 30
-0.0000000000000007
 10
53.80933106714735
 20
0.92731310928707
 30
-0.0000000000000009
 10
53.78218722408854
 20
0.9297943641041117
 30
-0.0000000000000011
  0
SPLINE
  5
175
330
A
100
AcDbEntity
  8
1
390
1D
100
AcDbSpline
210
-0.0000000000022678
220
-0.0000000000068712
230
1.0
 70
     8
 71
     3
 72
    10
 73
     6
 74
     0
 42
0.0000000001
 43
0.0000000001
 40
0.0
 40
0.0
 40
0.0
 40
0.0
 40
0.4999242319175178
 40
0.4999242319175178
 40
1.0
 40
1.0
 40
1.0
 40
1.0
 10
53.59284198365162
 20
0.0234166211607771
 30
-0.0000000000000014
 10
53.61366396181267
 20
0.0172663638485915
 30
-0.0000000000000013
 10
53.63449071422518
 20
0.0107536077979944
 30
-0.0000000000000014
 10
53.67614928164306
 20
-0.0029956118486894
 30
-0.0000000000000014
 10
53.69698271063418
 20
-0.0102328144881767
 30
-0.0000000000000016
 10
53.71781277591151
 20
-0.0178295983833436
 30
-0.0000000000000016
  0
SPLINE
  5
176
330
A
100
AcDbEntity
  8
1
390
1D
100
AcDbSpline
210
-0.0000000000022161
220
-0.0000000000086114
230
1.0
 70
     8
 71
     3
 72
    10
 73
     6
 74
     0
 42
0.0000000001
 43
0.0000000001
 40
0.0
 40
0.0
 40
0.0
 40
0.0
 40
0.4999130421065745
 40
0.4999130421065745
 40
1.0
 40
1.0
 40
1.0
 40
1.0
 10
53.55500000000001
 20
0.0331551829379464
 30
-0.0000000000000012
 10
53.5613183045964
 20
0.0317686597073816
 30
-0.0000000000000013
 10
53.56763090947215
 20
0.0302638079646158
 30
-0.0000000000000012
 10
53.58024499333249
 20
0.0270175831098527
 30
-0.0000000000000013
 10
53.58654701646242
 20
0.0252759866680208
 30
-0.0000000000000013
 10
53.59284198365162
 20
0.0234166211607771
 30
-0.0000000000000014
  0
SPLINE
  5
177
330
A
100
AcDbEntity
  8
1
390
1D
100
AcDbSpline
210
-0.0000000000000141
220
0.0000000000000259
230
1.0
 70
     8
 71
     3
 72
     8
 73
     4
 74
     0
 42
0.0000000001
 43
0.0000000001
 40
0.0
 40
0.0
 40
0.0
 40
0.0
 40
1.0
 40
1.0
 40
1.0
 40
1.0
 10
53.71781277591151
 20
0.9363428703857719
 30
-0.0000000000000009
 10
53.66425947383846
 20
0.9408333748364155
 30
-0.0000000000000007
 10
53.61007704528781
 20
0.9119243167624517
 30
-0.0000000000000006
 10
53.55500000000001
 20
0.8478109479946738
 30
-0.0000000000000003
  0
SPLINE
  5
178
330
A
100
AcDbEntity
  8
1
390
1D
100
AcDbSpline
210
-0.0000000000001037
220
0.0000000000000458
230
1.0
 70
     8
 71
     3
 72
    10
 73
     6
 74
     0
 42
0.0000000001
 43
0.0000000001
 40
0.0
 40
0.0
 40
0.0
 40
0.0
 40
0.5
 40
0.5
 40
1.0
 40
1.0
 40
1.0
 40
1.0
 10
50.27510979183285
 20
-0.6865031265134008
 30
-0.0000000000000014
 10
50.23406885531841
 20
-0.8093279766725345
 30
-0.0000000000000014
 10
50.18520089286385
 20
-0.9292793136266935
 30
-0.0000000000000014
 10
50.07978757305346
 20
-1.165349006628729
 30
-0.0000000000000013
 10
50.02324250567233
 20
-1.281299812936709
 30
-0.0000000000000012
 10
49.96464457603384
 20
-1.39600960896422
 30
-0.0000000000000014
  0
SPLINE
  5
179
330
A
100
AcDbEntity
  8
1
390
1D
100
AcDbSpline
210
0.0000000000002869
220
-0.0000000000001063
230
1.0
 70
     8
 71
     3
 72
     8
 73
     4
 74
     0
 42
0.0000000001
 43
0.0000000001
 40
0.0
 40
0.0
 40
0.0
 40
0.0
 40
1.0
 40
1.0
 40
1.0
 40
1.0
 10
50.44499999999999
 20
-0.2282346016598922
 30
-0.0000000000000012
 10
50.38807601996251
 20
-0.3728814603391015
 30
-0.0000000000000012
 10
50.33082331674767
 20
-0.5284560411164421
 30
-0.0000000000000013
 10
50.27510979183279
 20
-0.6865031265134008
 30
-0.0000000000000012
  0
SPLINE
  5
17A
330
A
100
AcDbEntity
  8
1
390
1D
100
AcDbSpline
210
0.0000000000762785
220
0.0000000008375981
230
1.0
 70
     8
 71
     3
 72
     8
 73
     4
 74
     0
 42
0.0000000001
 43
0.0000000001
 40
0.0
 40
0.0
 40
0.0
 40
0.0
 40
1.0
 40
1.0
 40
1.0
 40
1.0
 10
53.28218722408848
 20
0.9783690548396748
 30
-0.0000000000000008
 10
53.2607291789231
 20
0.9803384454529577
 30
-0.0000000000000007
 10
53.23927104242046
 20
0.9822926386335666
 30
-0.0000000000000009
 10
53.21781277591146
 20
0.9842315005440127
 30
-0.0000000000000008
  0
SPLINE
  5
17B
330
A
100
AcDbEntity
  8
1
390
1D
100
AcDbSpline
210
-0.0000000861681168
220
-0.0000004922639178
230
0.9999999999998752
 70
     8
 71
     3
 72
     8
 73
     4
 74
     0
 42
0.0000000001
 43
0.0000000001
 40
0.0
 40
0.0
 40
0.0
 40
0.0
 40
1.0
 40
1.0
 40
1.0
 40
1.0
 10
53.21781277591151
 20
0.0698469356067335
 30
-0.0000000000000014
 10
53.23927123553346
 20
0.0660921620557247
 30
-0.0000000000000016
 10
53.26072937579851
 20
0.0623359831043899
 30
-0.0000000000000015
 10
53.28218722408848
 20
0.0585785553060418
 30
-0.0000000000000016
  0
SPLINE
  5
17C
330
A
100
AcDbEntity
  8
1
390
1D
100
AcDbSpline
210
0.0000000000008561
220
0.0000000000156696
230
1.0
 70
     8
 71
     3
 72
    10
 73
     6
 74
     0
 42
0.0000000001
 43
0.0000000001
 40
0.0
 40
0.0
 40
0.0
 40
0.0
 40
0.4999822763207022
 40
0.4999822763207022
 40
1.0
 40
1.0
 40
1.0
 40
1.0
 10
53.40692169517165
 20
0.0495326291694482
 30
-0.0000000000000014
 10
53.41326676897603
 20
0.0492930817062529
 30
-0.0000000000000013
 10
53.41961254852811
 20
0.0489996130858117
 30
-0.0000000000000013
 10
53.43230539780996
 20
0.0483059451459553
 30
-0.0000000000000012
 10
53.43865258008015
 20
0.0479057321726941
 30
-0.0000000000000012
 10
53.445
 20
0.0474527105370157
 30
-0.0000000000000011
  0
SPLINE
  5
17D
330
A
100
AcDbEntity
  8
1
390
1D
100
AcDbSpline
210
0.0000000000001148
220
0.0000000000015825
230
1.0
 70
     8
 71
     3
 72
    10
 73
     6
 74
     0
 42
0.0000000001
 43
0.0000000001
 40
0.0
 40
0.0
 40
0.0
 40
0.0
 40
0.499924488339934
 40
0.499924488339934
 40
1.0
 40
1.0
 40
1.0
 40
1.0
 10
53.28218722408848
 20
0.0585785553060418
 30
-0.0000000000000016
 10
53.30297380322895
 20
0.0563501435572675
 30
-0.0000000000000015
 10
53.3237628616929
 20
0.0544811310348905
 30
-0.0000000000000015
 10
53.36534291857203
 20
0.0514646962863594
 30
-0.0000000000000015
 10
53.38613552868367
 20
0.0503173755105308
 30
-0.0000000000000013
 10
53.40692169517165
 20
0.0495326291694482
 30
-0.0000000000000013
  0
SPLINE
  5
17E
330
A
100
AcDbEntity
  8
1
390
1D
100
AcDbSpline
210
0.0000000000001105
220
0.0000000000001409
230
1.0
 70
     8
 71
     3
 72
    10
 73
     6
 74
     0
 42
0.0000000001
 43
0.0000000001
 40
0.0
 40
0.0
 40
0.0
 40
0.0
 40
0.4926222591743687
 40
0.4926222591743687
 40
1.0
 40
1.0
 40
1.0
 40
1.0
 10
53.445
 20
0.8508563211457842
 30
-0.0000000000000003
 10
53.41837732541968
 20
0.8845032060630728
 30
-0.0000000000000003
 10
53.39139161742172
 20
0.9121096430502008
 30
-0.0000000000000004
 10
53.33697835428285
 20
0.9550727815827711
 30
-0.0000000000000007
 10
53.30935183473553
 20
0.9702014120096578
 30
-0.0000000000000007
 10
53.28218722408802
 20
0.9783690548397315
 30
-0.0000000000000008
  0
SPLINE
  5
17F
330
A
100
AcDbEntity
  8
1
390
1D
100
AcDbSpline
210
-0.0000000000007467
220
-0.0000000000039228
230
1.0
 70
     8
 71
     3
 72
    10
 73
     6
 74
     0
 42
0.0000000001
 43
0.0000000001
 40
0.0
 40
0.0
 40
0.0
 40
0.0
 40
0.4999260880217561
 40
0.4999260880217561
 40
1.0
 40
1.0
 40
1.0
 40
1.0
 10
53.09340385688085
 20
0.0935277810770572
 30
-0.0000000000000013
 10
53.1141334083374
 20
0.0903002546185121
 30
-0.0000000000000014
 10
53.13486697846304
 20
0.0867129600147223
 30
-0.0000000000000015
 10
53.17633812375436
 20
0.0788192454427872
 30
-0.0000000000000014
 10
53.19707726385246
 20
0.0745123202996183
 30
-0.0000000000000016
 10
53.21781277591151
 20
0.0698469356067335
 30
-0.0000000000000016
  0
SPLINE
  5
180
330
A
100
AcDbEntity
  8
1
390
1D
100
AcDbSpline
210
-0.0000000000005824
220
-0.0000000000049644
230
1.0
 70
     8
 71
     3
 72
    10
 73
     6
 74
     0
 42
0.0000000001
 43
0.0000000001
 40
0.0
 40
0.0
 40
0.0
 40
0.0
 40
0.4999111193539675
 40
0.4999111193539675
 40
1.0
 40
1.0
 40
1.0
 40
1.0
 10
53.05500000000001
 20
0.0980331573475723
 30
-0.0000000000000012
 10
53.06141199066428
 20
0.0975259928777632
 30
-0.0000000000000012
 10
53.06781826938055
 20
0.0968970349866822
 30
-0.0000000000000012
 10
53.0806196572459
 20
0.0953953425948839
 30
-0.0000000000000013
 10
53.08701533092227
 20
0.0945224546283043
 30
-0.0000000000000013
 10
53.09340385688085
 20
0.0935277810770572
 30
-0.0000000000000014
  0
SPLINE
  5
181
330
A
100
AcDbEntity
  8
1
390
1D
100
AcDbSpline
210
0.0000000000000289
220
-0.0000000000000377
230
-1.0
 70
     8
 71
     3
 72
     8
 73
     4
 74
     0
 42
0.0000000001
 43
0.0000000001
 40
0.0
 40
0.0
 40
0.0
 40
0.0
 40
1.0
 40
1.0
 40
1.0
 40
1.0
 10
53.21781277591146
 20
0.9842315005440127
 30
-0.0000000000000008
 10
53.16425493147483
 20
0.9763603395896323
 30
-0.0000000000000006
 10
53.11009998220891
 20
0.9353427614520342
 30
-0.0000000000000003
 10
53.05500000000001
 20
0.859646962914212
 30
-0.0000000000000002
  0
SPLINE
  5
182
330
A
100
AcDbEntity
  8
1
390
1D
100
AcDbSpline
210
-0.0000000000520057
220
-0.0000000006529676
230
1.0
 70
     8
 71
     3
 72
     8
 73
     4
 74
     0
 42
0.0000000001
 43
0.0000000001
 40
0.0
 40
0.0
 40
0.0
 40
0.0
 40
1.0
 40
1.0
 40
1.0
 40
1.0
 10
52.78218722408855
 20
1.021444040919049
 30
-0.0000000000000008
 10
52.76072948275709
 20
1.023169276443809
 30
-0.0000000000000006
 10
52.73927134646857
 20
1.024878346851096
 30
-0.0000000000000007
 10
52.71781277591173
 20
1.026571139103339
 30
-0.0000000000000007
  0
SPLINE
  5
183
330
A
100
AcDbEntity
  8
1
390
1D
100
AcDbSpline
210
0.0000000198551958
220
0.0000001143659302
230
0.9999999999999932
 70
     8
 71
     3
 72
     8
 73
     4
 74
     0
 42
0.0000000001
 43
0.0000000001
 40
0.0
 40
0.0
 40
0.0
 40
0.0
 40
1.0
 40
1.0
 40
1.0
 40
1.0
 10
52.71781277591151
 20
0.1569993550147046
 30
-0.0000000000000017
 10
52.73927088107718
 20
0.1532765698805179
 30
-0.0000000000000017
 10
52.76072902243448
 20
0.1495511561423655
 30
-0.0000000000000016
 10
52.78218722408849
 20
0.1458232498040957
 30
-0.0000000000000016
  0
SPLINE
  5
184
330
A
100
AcDbEntity
  8
1
390
1D
100
AcDbSpline
210
0.0000000000018462
220
0.0000000000095592
230
1.0
 70
     8
 71
     3
 72
    10
 73
     6
 74
     0
 42
0.0000000001
 43
0.0000000001
 40
0.0
 40
0.0
 40
0.0
 40
0.0
 40
0.4999817220550307
 40
0.4999817220550307
 40
1.0
 40
1.0
 40
1.0
 40
1.0
 10
52.90645350068098
 20
0.1197020447258979
 30
-0.0000000000000012
 10
52.9128767600157
 20
0.1185708218002901
 30
-0.0000000000000012
 10
52.91930065714985
 20
0.1173844563674606
 30
-0.0000000000000012
 10
52.93214958161893
 20
0.1149026266349438
 30
-0.0000000000000013
 10
52.93857472644789
 20
0.1136071317829419
 30
-0.0000000000000012
 10
52.94499999999999
 20
0.1122577284925228
 30
-0.0000000000000011
  0
SPLINE
  5
185
330
A
100
AcDbEntity
  8
1
390
1D
100
AcDbSpline
210
0.0000000000012602
220
0.0000000000059948
230
1.0
 70
     8
 71
     3
 72
    10
 73
     6
 74
     0
 42
0.0000000001
 43
0.0000000001
 40
0.0
 40
0.0
 40
0.0
 40
0.0
 40
0.4999264132901539
 40
0.4999264132901539
 40
1.0
 40
1.0
 40
1.0
 40
1.0
 10
52.78218722408849
 20
0.1458232498040957
 30
-0.0000000000000016
 10
52.80289468523188
 20
0.1407663726735677
 30
-0.0000000000000016
 10
52.82360501670041
 20
0.136059935200251
 30
-0.0000000000000016
 10
52.86502881846677
 20
0.1273514528379565
 30
-0.0000000000000013
 10
52.8857438508524
 20
0.1233492944235195
 30
-0.0000000000000014
 10
52.90645350068093
 20
0.1197020447258979
 30
-0.0000000000000013
  0
SPLINE
  5
186
330
A
100
AcDbEntity
  8
1
390
1D
100
AcDbSpline
210
0.0000000000001783
220
0.0000000000001815
230
1.0
 70
     8
 71
     3
 72
    10
 73
     6
 74
     0
 42
0.0000000001
 43
0.0000000001
 40
0.0
 40
0.0
 40
0.0
 40
0.0
 40
0.4925795328155746
 40
0.4925795328155746
 40
1.0
 40
1.0
 40
1.0
 40
1.0
 10
52.94499999999999
 20
0.8615591455216531
 30
-0.0000000000000002
 10
52.91838061469952
 20
0.9001965338091508
 30
-0.0000000000000002
 10
52.89140086880315
 20
0.9330153318342128
 30
-0.0000000000000003
 10
52.83699114467288
 20
0.986796089774714
 30
-0.0000000000000006
 10
52.80936112326823
 20
1.007576703014024
 30
-0.0000000000000007
 10
52.78218722408793
 20
1.02144404091922
 30
-0.0000000000000006
  0
SPLINE
  5
187
330
A
100
AcDbEntity
  8
1
390
1D
100
AcDbSpline
210
0.0000000000004872
220
0.0000000000032897
230
1.0
 70
     8
 71
     3
 72
     8
 73
     4
 74
     0
 42
0.0000000001
 43
0.0000000001
 40
0.0
 40
0.0
 40
0.0
 40
0.0
 40
1.0
 40
1.0
 40
1.0
 40
1.0
 10
50.27510979183285
 20
-0.6865031265134008
 30
-0.0000000000000013
 10
50.11269565655492
 20
-0.6630581353482512
 30
-0.0000000000000013
 10
49.95028152127691
 20
-0.6389845582593239
 30
-0.0000000000000014
 10
49.78786738599871
 20
-0.6143452068166085
 30
-0.0000000000000013
  0
SPLINE
  5
188
330
A
100
AcDbEntity
  8
1
390
1D
100
AcDbSpline
210
-0.0000000000000643
220
-0.0000000000012618
230
1.0
 70
     8
 71
     3
 72
    10
 73
     6
 74
     0
 42
0.0000000001
 43
0.0000000001
 40
0.0
 40
0.0
 40
0.0
 40
0.0
 40
0.4999280865056483
 40
0.4999280865056483
 40
1.0
 40
1.0
 40
1.0
 40
1.0
 10
52.59368322475683
 20
0.1633253670941031
 30
-0.0000000000000012
 10
52.61436686507227
 20
0.1629815780284503
 30
-0.0000000000000013
 10
52.63505411640079
 20
0.162282705151199
 30
-0.0000000000000013
 10
52.67643206153672
 20
0.1601743131433864
 30
-0.0000000000000014
 10
52.69712427354801
 20
0.1587645111941924
 30
-0.0000000000000017
 10
52.71781277591151
 20
0.1569993550147046
 30
-0.0000000000000014
  0
SPLINE
  5
189
330
A
100
AcDbEntity
  8
1
390
1D
100
AcDbSpline
210
0.0000000000000099
220
-0.0000000000004604
230
1.0
 70
     8
 71
     3
 72
    10
 73
     6
 74
     0
 42
0.0000000001
 43
0.0000000001
 40
0.0
 40
0.0
 40
0.0
 40
0.0
 40
0.4999110296236539
 40
0.4999110296236539
 40
1.0
 40
1.0
 40
1.0
 40
1.0
 10
52.55500000000001
 20
0.1624939221583759
 30
-0.0000000000000013
 10
52.5614584316877
 20
0.1628776427756975
 30
-0.0000000000000013
 10
52.56791121789825
 20
0.1631389736830897
 30
-0.0000000000000012
 10
52.58080573583572
 20
0.1634163540215354
 30
-0.0000000000000012
 10
52.58724803689051
 20
0.1634323283054755
 30
-0.0000000000000012
 10
52.59368322475683
 20
0.1633253670941599
 30
-0.0000000000000013
  0
SPLINE
  5
18A
330
A
100
AcDbEntity
  8
1
390
1D
100
AcDbSpline
210
0.0000000000000588
220
-0.0000000000000597
230
-1.0
 70
     8
 71
     3
 72
     8
 73
     4
 74
     0
 42
0.0000000001
 43
0.0000000001
 40
0.0
 40
0.0
 40
0.0
 40
0.0
 40
1.0
 40
1.0
 40
1.0
 40
1.0
 10
52.71781277591145
 20
1.026571139103225
 30
-0.0000000000000007
 10
52.66427735606266
 20
1.006255442224527
 30
-0.0000000000000005
 10
52.61014971895491
 20
0.9532286814612119
 30
-0.0000000000000003
 10
52.55500000000001
 20
0.8663312412954269
 30
0.0
  0
SPLINE
  5
18B
330
A
100
AcDbEntity
  8
1
390
1D
100
AcDbSpline
210
0.0
220
0.0
230
1.0
 70
     8
 71
     3
 72
     8
 73
     4
 74
     0
 42
0.0000000001
 43
0.0000000001
 40
0.0
 40
0.0
 40
0.0
 40
0.0
 40
1.0
 40
1.0
 40
1.0
 40
1.0
 10
49.9998360885155
 20
0.6257668370905663
 30
-0.0000000000000015
 10
50.0844630310587
 20
0.6124804405756663
 30
-0.0000000000000013
 10
50.16908997360179
 20
0.5990424082098116
 30
-0.0000000000000016
 10
50.25371691614487
 20
0.5854630202063618
 30
-0.0000000000000014
  0
SPLINE
  5
18C
330
A
100
AcDbEntity
  8
1
390
1D
100
AcDbSpline
210
-0.0000000000167419
220
-0.0000000002477233
230
1.0
 70
     8
 71
     3
 72
     8
 73
     4
 74
     0
 42
0.0000000001
 43
0.0000000001
 40
0.0
 40
0.0
 40
0.0
 40
0.0
 40
1.0
 40
1.0
 40
1.0
 40
1.0
 10
52.28218722408854
 20
1.05866222417893
 30
-0.0000000000000006
 10
52.26072869505822
 20
1.060129458278026
 30
-0.0000000000000007
 10
52.23927054919341
 20
1.061579668666468
 30
-0.0000000000000006
 10
52.21781277590986
 20
1.063012835827919
 30
-0.0000000000000006
  0
SPLINE
  5
18D
330
A
100
AcDbEntity
  8
1
390
1D
100
AcDbSpline
210
-0.0000000148920358
220
-0.0000000868902218
230
0.999999999999996
 70
     8
 71
     3
 72
     8
 73
     4
 74
     0
 42
0.0000000001
 43
0.0000000001
 40
0.0
 40
0.0
 40
0.0
 40
0.0
 40
1.0
 40
1.0
 40
1.0
 40
1.0
 10
52.21781277591151
 20
0.243207664530928
 30
-0.0000000000000015
 10
52.23927105472136
 20
0.2395335399046417
 30
-0.0000000000000015
 10
52.26072919657145
 20
0.2358558089978828
 30
-0.0000000000000015
 10
52.28218722408854
 20
0.232174599772236
 30
-0.0000000000000017
  0
SPLINE
  5
18E
330
A
100
AcDbEntity
  8
1
390
1D
100
AcDbSpline
210
-0.0000000000176626
220
-0.0000000000537004
230
-1.0
 70
     8
 71
     3
 72
    10
 73
     6
 74
     0
 42
0.0000000001
 43
0.0000000001
 40
0.0
 40
0.0
 40
0.0
 40
0.0
 40
0.4999814957330658
 40
0.4999814957330658
 40
1.0
 40
1.0
 40
1.0
 40
1.0
 10
52.40630405668657
 20
0.1893264296654138
 30
-0.0000000000000013
 10
52.41275237252052
 20
0.1873145546003912
 30
-0.0000000000000013
 10
52.41920125785315
 20
0.1852476225915893
 30
-0.0000000000000013
 10
52.43210000414479
 20
0.1810048578918213
 30
-0.0000000000000011
 10
52.43854998451991
 20
0.1788289780351988
 30
-0.0000000000000012
 10
52.44499999999999
 20
0.176599350381764
 30
-0.0000000000000012
  0
SPLINE
  5
18F
330
A
100
AcDbEntity
  8
1
390
1D
100
AcDbSpline
210
0.0000000000022182
220
0.0000000000064253
230
1.0
 70
     8
 71
     3
 72
    10
 73
     6
 74
     0
 42
0.0000000001
 43
0.0000000001
 40
0.0
 40
0.0
 40
0.0
 40
0.0
 40
0.4999283305244112
 40
0.4999283305244112
 40
1.0
 40
1.0
 40
1.0
 40
1.0
 10
52.28218722408849
 20
0.2321745997719518
 30
-0.0000000000000015
 10
52.30286899274233
 20
0.2243495660744657
 30
-0.0000000000000014
 10
52.32355390638645
 20
0.2168648943267044
 30
-0.0000000000000016
 10
52.36492774480405
 20
0.2025804797089563
 30
-0.0000000000000014
 10
52.38561818737224
 20
0.1957804225750692
 30
-0.0000000000000013
 10
52.40630405668657
 20
0.1893264296654138
 30
-0.0000000000000013
  0
SPLINE
  5
190
330
A
100
AcDbEntity
  8
1
390
1D
100
AcDbSpline
210
-0.0000000000001154
220
-0.000000000000098
230
-1.0
 70
     8
 71
     3
 72
     8
 73
     4
 74
     0
 42
0.0000000001
 43
0.0000000001
 40
0.0
 40
0.0
 40
0.0
 40
0.0
 40
1.0
 40
1.0
 40
1.0
 40
1.0
 10
52.44499999999999
 20
0.8671136569790292
 30
-0.0000000000000001
 10
52.39073573711659
 20
0.9556033911181883
 30
-0.0000000000000003
 10
52.33592639189681
 20
1.020039861565692
 30
-0.0000000000000004
 10
52.28218722408854
 20
1.058662224178646
 30
-0.0000000000000007
  0
SPLINE
  5
191
330
A
100
AcDbEntity
  8
1
390
1D
100
AcDbSpline
210
-0.0000000000001463
220
0.0000000000016861
230
1.0
 70
     8
 71
     3
 72
    10
 73
     6
 74
     0
 42
0.0000000001
 43
0.0000000001
 40
0.0
 40
0.0
 40
0.0
 40
0.0
 40
0.4999300913523241
 40
0.4999300913523241
 40
1.0
 40
1.0
 40
1.0
 40
1.0
 10
52.09358798033804
 20
0.2324302063512391
 30
-0.0000000000000013
 10
52.11428748552396
 20
0.2349259762814882
 30
-0.0000000000000013
 10
52.13499059351061
 20
0.2370724112945482
 30
-0.0000000000000013
 10
52.17640026887102
 20
0.2406654831589776
 30
-0.0000000000000014
 10
52.19710831379052
 20
0.2421120456951371
 30
-0.0000000000000015
 10
52.21781277591151
 20
0.243207664530928
 30
-0.0000000000000015
  0
SPLINE
  5
192
330
A
100
AcDbEntity
  8
1
390
1D
100
AcDbSpline
210
-0.0000000000003859
220
0.0000000000024459
230
1.0
 70
     8
 71
     3
 72
    10
 73
     6
 74
     0
 42
0.0000000001
 43
0.0000000001
 40
0.0
 40
0.0
 40
0.0
 40
0.0
 40
0.4999130859204636
 40
0.4999130859204636
 40
1.0
 40
1.0
 40
1.0
 40
1.0
 10
52.055
 20
0.2263429381911806
 30
-0.0000000000000011
 10
52.06144227450301
 20
0.2275973232291335
 30
-0.0000000000000012
 10
52.06787904794925
 20
0.22873206012315
 30
-0.0000000000000012
 10
52.08074181709435
 20
0.2307614883703195
 30
-0.0000000000000012
 10
52.08716836772101
 20
0.2316561841710723
 30
-0.0000000000000012
 10
52.09358798033815
 20
0.2324302063512391
 30
-0.0000000000000012
  0
SPLINE
  5
193
330
A
100
AcDbEntity
  8
1
390
1D
100
AcDbSpline
210
-0.0000000000000842
220
0.0000000000000712
230
1.0
 70
     8
 71
     3
 72
     8
 73
     4
 74
     0
 42
0.0000000001
 43
0.0000000001
 40
0.0
 40
0.0
 40
0.0
 40
0.0
 40
1.0
 40
1.0
 40
1.0
 40
1.0
 10
52.21781277591151
 20
1.063012835829852
 30
-0.0000000000000006
 10
52.16593696860496
 20
1.03127676884992
 30
-0.0000000000000004
 10
52.11348033015689
 20
0.9693561376598154
 30
-0.0000000000000002
 10
52.05998494474664
 20
0.8766365461910368
 30
0.0
  0
SPLINE
  5
194
330
A
100
AcDbEntity
  8
1
390
1D
100
AcDbSpline
210
0.0000000000218927
220
0.0000000003967045
230
1.0
 70
     8
 71
     3
 72
     8
 73
     4
 74
     0
 42
0.0000000001
 43
0.0000000001
 40
0.0
 40
0.0
 40
0.0
 40
0.0
 40
1.0
 40
1.0
 40
1.0
 40
1.0
 10
51.78218722408854
 20
1.089761539079972
 30
-0.0000000000000004
 10
51.76072878542158
 20
1.090963020172694
 30
-0.0000000000000005
 10
51.7392706407357
 20
1.092147231256092
 30
-0.0000000000000004
 10
51.71781277591151
 20
1.093314126016195
 30
-0.0000000000000005
  0
SPLINE
  5
195
330
A
100
AcDbEntity
  8
1
390
1D
100
AcDbSpline
210
-0.0000000096956653
220
-0.0000000575704039
230
0.9999999999999984
 70
     8
 71
     3
 72
     8
 73
     4
 74
     0
 42
0.0000000001
 43
0.0000000001
 40
0.0
 40
0.0
 40
0.0
 40
0.0
 40
1.0
 40
1.0
 40
1.0
 40
1.0
 10
51.71781277591151
 20
0.3280959120103262
 30
-0.0000000000000014
 10
51.73927069276488
 20
0.3244868150453613
 30
-0.0000000000000015
 10
51.76072883322575
 20
0.3208729158043298
 30
-0.0000000000000016
 10
51.78218722408843
 20
0.3172543656079938
 30
-0.0000000000000016
  0
SPLINE
  5
196
330
A
100
AcDbEntity
  8
1
390
1D
100
AcDbSpline
210
0.0000000000261456
220
0.0000000000567465
230
1.0
 70
     8
 71
     3
 72
    10
 73
     6
 74
     0
 42
0.0000000001
 43
0.0000000001
 40
0.0
 40
0.0
 40
0.0
 40
0.0
 40
0.4999816689478603
 40
0.4999816689478603
 40
1.0
 40
1.0
 40
1.0
 40
1.0
 10
51.90654944234614
 20
0.2580032156827201
 30
-0.0000000000000012
 10
51.91295697767618
 20
0.2551568099655697
 30
-0.0000000000000013
 10
51.91936502625128
 20
0.2522569251875666
 30
-0.0000000000000013
 10
51.93218197934733
 20
0.2463513711053338
 30
-0.000000000000001
 10
51.93859100142191
 20
0.2433456400990508
 30
-0.0000000000000012
 10
51.94500000000005
 20
0.2402877443316243
 30
-0.0000000000000012
  0
SPLINE
  5
197
330
A
100
AcDbEntity
  8
1
390
1D
100
AcDbSpline
210
0.0000000000054439
220
0.0000000000114261
230
1.0
 70
     8
 71
     3
 72
    10
 73
     6
 74
     0
 42
0.0000000001
 43
0.0000000001
 40
0.0
 40
0.0
 40
0.0
 40
0.0
 40
0.4999300683417735
 40
0.4999300683417735
 40
1.0
 40
1.0
 40
1.0
 40
1.0
 10
51.78218722408849
 20
0.3172543656077664
 30
-0.0000000000000015
 10
51.80290944819262
 20
0.3067159370020818
 30
-0.0000000000000014
 10
51.82363496260268
 20
0.2965075111719671
 30
-0.0000000000000014
 10
51.86509049890566
 20
0.2767552544182763
 30
-0.0000000000000013
 10
51.88582200384008
 20
0.267210921364665
 30
-0.0000000000000013
 10
51.90654944234614
 20
0.2580032156827201
 30
-0.0000000000000012
  0
SPLINE
  5
198
330
A
100
AcDbEntity
  8
1
390
1D
100
AcDbSpline
210
0.0000000000002182
220
0.0000000000001637
230
1.0
 70
     8
 71
     3
 72
     8
 73
     4
 74
     0
 42
0.0000000001
 43
0.0000000001
 40
0.0
 40
0.0
 40
0.0
 40
0.0
 40
1.0
 40
1.0
 40
1.0
 40
1.0
 10
51.93272955268923
 20
0.8892589194026072
 30
0.0
 10
51.88244736536365
 20
0.9764171373604428
 30
-0.0000000000000002
 10
51.8318492521156
 20
1.04385572518754
 30
-0.0000000000000004
 10
51.78218722408456
 20
1.089761539083269
 30
-0.0000000000000006
  0
SPLINE
  5
199
330
A
100
AcDbEntity
  8
1
390
1D
100
AcDbSpline
210
-0.0000000000020289
220
0.0000000000091462
230
1.0
 70
     8
 71
     3
 72
    10
 73
     6
 74
     0
 42
0.0000000001
 43
0.0000000001
 40
0.0
 40
0.0
 40
0.0
 40
0.0
 40
0.4999316868975025
 40
0.4999316868975025
 40
1.0
 40
1.0
 40
1.0
 40
1.0
 10
51.59312287169575
 20
0.3004368240981989
 30
-0.0000000000000011
 10
51.61389931494675
 20
0.3057353626435315
 30
-0.0000000000000013
 10
51.63467969959821
 20
0.3106900906793157
 30
-0.0000000000000013
 10
51.67624444557565
 20
0.3199105362512569
 30
-0.0000000000000014
 10
51.69703025787715
 20
0.3241763745569983
 30
-0.0000000000000016
 10
51.71781277591164
 20
0.328095912010383
 30
-0.0000000000000016
  0
SPLINE
  5
19A
330
A
100
AcDbEntity
  8
1
390
1D
100
AcDbSpline
210
-0.0000000000031815
220
0.0000000000109433
230
1.0
 70
     8
 71
     3
 72
    10
 73
     6
 74
     0
 42
0.0000000001
 43
0.0000000001
 40
0.0
 40
0.0
 40
0.0
 40
0.0
 40
0.4999168298882465
 40
0.4999168298882465
 40
1.0
 40
1.0
 40
1.0
 40
1.0
 10
51.555
 20
0.2893539170664212
 30
-0.0000000000000011
 10
51.56136436229076
 20
0.2914298091698129
 30
-0.0000000000000011
 10
51.56772341989295
 20
0.2933916605674654
 30
-0.0000000000000013
 10
51.58043114478203
 20
0.2970863730050724
 30
-0.0000000000000012
 10
51.58678033679997
 20
0.2988193111670512
 30
-0.0000000000000012
 10
51.59312287169575
 20
0.3004368240981989
 30
-0.0000000000000013
  0
SPLINE
  5
19B
330
A
100
AcDbEntity
  8
1
390
1D
100
AcDbSpline
210
0.0000000000001683
220
-0.0000000000001297
230
-1.0
 70
     8
 71
     3
 72
     8
 73
     4
 74
     0
 42
0.0000000001
 43
0.0000000001
 40
0.0
 40
0.0
 40
0.0
 40
0.0
 40
1.0
 40
1.0
 40
1.0
 40
1.0
 10
51.71781277591151
 20
1.093314126016195
 30
-0.0000000000000005
 10
51.67498209665331
 20
1.057257842809235
 30
-0.0000000000000004
 10
51.63171968580111
 20
1.001089503473564
 30
-0.0000000000000002
 10
51.58774057031889
 20
0.9247712178135428
 30
0.0
  0
SPLINE
  5
19C
330
A
100
AcDbEntity
  8
1
390
1D
100
AcDbSpline
210
0.0000000005385303
220
0.0000000042577393
230
1.0
 70
     8
 71
     3
 72
     8
 73
     4
 74
     0
 42
0.0000000001
 43
0.0000000001
 40
0.0
 40
0.0
 40
0.0
 40
0.0
 40
1.0
 40
1.0
 40
1.0
 40
1.0
 10
50.55500000000001
 20
-0.2421476554995934
 30
-0.0000000000000011
 10
50.51833308740333
 20
-0.237522798803866
 30
-0.0000000000000011
 10
50.4816663978105
 20
-0.2328849686999774
 30
-0.0000000000000011
 10
50.44500000000153
 20
-0.2282346016511951
 30
-0.0000000000000012
  0
SPLINE
  5
19D
330
A
100
AcDbEntity
  8
1
390
1D
100
AcDbSpline
210
0.0
220
0.0
230
1.0
 70
     8
 71
     3
 72
     8
 73
     4
 74
     0
 42
0.0000000001
 43
0.0000000001
 40
0.0
 40
0.0
 40
0.0
 40
0.0
 40
1.0
 40
1.0
 40
1.0
 40
1.0
 10
57.0
 20
-0.4721325901309683
 30
-0.0000000000000006
 10
56.955478533879
 20
-0.4695018351304158
 30
-0.0000000000000006
 10
56.91095706775803
 20
-0.4668337089764806
 30
-0.0000000000000006
 10
56.86643560163702
 20
-0.4641289774349957
 30
-0.0000000000000006
  0
SPLINE
  5
19E
330
A
100
AcDbEntity
  8
1
390
1D
100
AcDbSpline
210
0.0
220
0.0
230
1.0
 70
     8
 71
     3
 72
     8
 73
     4
 74
     0
 42
0.0000000001
 43
0.0000000001
 40
0.0
 40
0.0
 40
0.0
 40
0.0
 40
1.0
 40
1.0
 40
1.0
 40
1.0
 10
56.65004509924927
 20
-0.4506980111412986
 30
-0.0000000000000006
 10
56.54016581930608
 20
-0.4437349449324871
 30
-0.0000000000000006
 10
56.43028653936336
 20
-0.4365564699754145
 30
-0.0000000000000006
 10
56.32040725942085
 20
-0.4291740978529219
 30
-0.0000000000000006
  0
SPLINE
  5
19F
330
A
100
AcDbEntity
  8
1
390
1D
100
AcDbSpline
210
0.0000000000000123
220
0.0000000000001337
230
1.0
 70
     8
 71
     3
 72
     9
 73
     5
 74
     0
 42
0.0000000001
 43
0.0000000001
 40
0.0
 40
0.0
 40
0.0
 40
0.0
 40
0.6219642549630635
 40
1.0
 40
1.0
 40
1.0
 40
1.0
 10
56.19183834774503
 20
-0.4204436702945031
 30
-0.0000000000000006
 10
54.88622556513964
 20
-0.3308554074077961
 30
-0.0000000000000008
 10
52.78704900934848
 20
-0.1415484827404043
 30
-0.0000000000000008
 10
50.68787245349914
 20
0.0706147389676062
 30
-0.0000000000000009
 10
49.8943086802414
 20
0.1473477035369797
 30
-0.0000000000000009
  0
SPLINE
  5
1A0
330
A
100
AcDbEntity
  8
1
390
1D
100
AcDbSpline
210
0.0
220
0.0
230
1.0
 70
    28
 71
     2
 72
     6
 73
     3
 74
     0
 42
0.0000000001
 43
0.0000000001
 40
0.0
 40
0.0
 40
0.0
 40
1.0
 40
1.0
 40
1.0
 10
57.00000000244653
 20
-0.4721325902756349
 30
-0.0000000000000006
 41
1.0
 10
57.0000000024465
 20
-0.6642648494473208
 30
-0.0000000000000005
 41
0.9664927289094279
 10
57.0000000024465
 20
-0.8292870399626195
 30
-0.0000000000000004
 41
0.9626838162786416
  0
SPLINE
  5
1A1
330
A
100
AcDbEntity
  8
1
390
1D
100
AcDbSpline
210
0.0000000000150126
220
0.0000000003772284
230
1.0
 70
     8
 71
     3
 72
     8
 73
     4
 74
     0
 42
0.0000000001
 43
0.0000000001
 40
0.0
 40
0.0
 40
0.0
 40
0.0
 40
1.0
 40
1.0
 40
1.0
 40
1.0
 10
57.00000000487688
 20
-0.8292870402773358
 30
-0.0000000000000003
 10
56.98166668408351
 20
-0.828567199730287
 30
-0.0000000000000003
 10
56.96333334534569
 20
-0.8278375829803508
 30
-0.0000000000000004
 10
56.9450000000021
 20
-0.82709820556272
 30
-0.0000000000000003
  0
SPLINE
  5
1A2
330
A
100
AcDbEntity
  8
1
390
1D
100
AcDbSpline
210
0.0000000000006728
220
-0.0000000000003394
230
-1.0
 70
     8
 71
     3
 72
     8
 73
     4
 74
     0
 42
0.0000000001
 43
0.0000000001
 40
0.0
 40
0.0
 40
0.0
 40
0.0
 40
1.0
 40
1.0
 40
1.0
 40
1.0
 10
56.94500000000005
 20
-0.8270982055697686
 30
-0.0000000000000004
 10
56.89026548644506
 20
-0.9515615495060956
 30
-0.0000000000000003
 10
56.8353650734354
 20
-1.06080711285125
 30
-0.0000000000000001
 10
56.78218722408849
 20
-1.149512221493069
 30
0.0000000000000001
  0
SPLINE
  5
1A3
330
A
100
AcDbEntity
  8
1
390
1D
100
AcDbSpline
210
0.0000000000000987
220
-0.0000000000238658
230
1.0
 70
     8
 71
     3
 72
     8
 73
     4
 74
     0
 42
0.0000000001
 43
0.0000000001
 40
0.0
 40
0.0
 40
0.0
 40
0.0
 40
1.0
 40
1.0
 40
1.0
 40
1.0
 10
56.78218722408826
 20
-1.149512221494263
 30
0.0
 10
56.76072876779148
 20
-1.149618307695732
 30
0.0
 10
56.73927062172982
 20
-1.149707084173144
 30
0.0000000000000001
 10
56.71781277591151
 20
-1.149778557000388
 30
-0.0000000000000001
  0
SPLINE
  5
1A4
330
A
100
AcDbEntity
  8
1
390
1D
100
AcDbSpline
210
-0.0000000000012128
220
-0.0000000000005803
230
-1.0
 70
     8
 71
     3
 72
    10
 73
     6
 74
     0
 42
0.0000000001
 43
0.0000000001
 40
0.0
 40
0.0
 40
0.0
 40
0.0
 40
0.5
 40
0.5
 40
1.0
 40
1.0
 40
1.0
 40
1.0
 10
56.71781277591151
 20
-1.149778557000388
 30
0.0000000000000001
 10
56.69125787903067
 20
-1.105101897174734
 30
-0.0000000000000001
 10
56.66454931197501
 20
-1.054311061051692
 30
-0.0000000000000001
 10
56.61036940589338
 20
-0.9409983765095832
 30
-0.0000000000000003
 10
56.5827046381861
 20
-0.8779967989954116
 30
-0.0000000000000004
 10
56.555
 20
-0.8099026720711322
 30
-0.0000000000000005
  0
SPLINE
  5
1A5
330
A
100
AcDbEntity
  8
1
390
1D
100
AcDbSpline
210
-0.0000000000030122
220
-0.0000000000616107
230
1.0
 70
     8
 71
     3
 72
     8
 73
     4
 74
     0
 42
0.0000000001
 43
0.0000000001
 40
0.0
 40
0.0
 40
0.0
 40
0.0
 40
1.0
 40
1.0
 40
1.0
 40
1.0
 10
56.555
 20
-0.8099026720711322
 30
-0.0000000000000004
 10
56.51833323249285
 20
-0.8081485755695325
 30
-0.0000000000000005
 10
56.48166654064254
 20
-0.8063558673471789
 30
-0.0000000000000004
 10
56.44500000000005
 20
-0.8045246807706121
 30
-0.0000000000000004
  0
SPLINE
  5
1A6
330
A
100
AcDbEntity
  8
1
390
1D
100
AcDbSpline
210
-0.0000000000007515
220
0.0000000000003551
230
1.0
 70
     8
 71
     3
 72
     8
 73
     4
 74
     0
 42
0.0000000001
 43
0.0000000001
 40
0.0
 40
0.0
 40
0.0
 40
0.0
 40
1.0
 40
1.0
 40
1.0
 40
1.0
 10
56.44499999999999
 20
-0.8045246807706121
 30
-0.0000000000000005
 10
56.39036394090317
 20
-0.9348834319519594
 30
-0.0000000000000004
 10
56.33547003150267
 20
-1.05146763106012
 30
-0.0000000000000002
 10
56.28218722408803
 20
-1.148852326741063
 30
-0.0000000000000001
  0
SPLINE
  5
1A7
330
A
100
AcDbEntity
  8
1
390
1D
100
AcDbSpline
210
0.0000000000007306
220
0.0000000000870489
230
1.0
 70
     8
 71
     3
 72
     8
 73
     4
 74
     0
 42
0.0000000001
 43
0.0000000001
 40
0.0
 40
0.0
 40
0.0
 40
0.0
 40
1.0
 40
1.0
 40
1.0
 40
1.0
 10
56.28218722408854
 20
-1.148852326741405
 30
0.0
 10
56.26072886075003
 20
-1.148689546143089
 30
-0.0000000000000001
 10
56.23927071612644
 20
-1.148509439567079
 30
-0.0000000000000001
 10
56.21781277591164
 20
-1.148311998137444
 30
-0.0000000000000001
  0
SPLINE
  5
1A8
330
A
100
AcDbEntity
  8
1
390
1D
100
AcDbSpline
210
-0.0000000000012648
220
-0.000000000000564
230
-1.0
 70
     8
 71
     3
 72
    10
 73
     6
 74
     0
 42
0.0000000001
 43
0.0000000001
 40
0.0
 40
0.0
 40
0.0
 40
0.0
 40
0.5
 40
0.5
 40
1.0
 40
1.0
 40
1.0
 40
1.0
 10
56.21781277591151
 20
-1.148311998137784
 30
-0.0000000000000001
 10
56.19120409955053
 20
-1.098658881299342
 30
-0.0000000000000002
 10
56.1644695419522
 20
-1.04332465160138
 30
-0.0000000000000002
 10
56.11029252560024
 20
-0.9217342966460931
 30
-0.0000000000000004
 10
56.08265721698479
 20
-0.8549775288047953
 30
-0.0000000000000005
 10
56.05500000000001
 20
-0.7836024253033998
 30
-0.0000000000000005
  0
SPLINE
  5
1A9
330
A
100
AcDbEntity
  8
1
390
1D
100
AcDbSpline
210
0.0000000000259944
220
0.0000000004453525
230
1.0
 70
     8
 71
     3
 72
     8
 73
     4
 74
     0
 42
0.0000000001
 43
0.0000000001
 40
0.0
 40
0.0
 40
0.0
 40
0.0
 40
1.0
 40
1.0
 40
1.0
 40
1.0
 10
56.05500000000001
 20
-0.7836024253033998
 30
-0.0000000000000004
 10
56.01833312881661
 20
-0.7815001409276761
 30
-0.0000000000000006
 10
55.98166644212529
 20
-0.7793599176804947
 30
-0.0000000000000006
 10
55.94500000000032
 20
-0.7771819440588957
 30
-0.0000000000000006
  0
SPLINE
  5
1AA
330
A
100
AcDbEntity
  8
1
390
1D
100
AcDbSpline
210
0.0000000000007253
220
-0.0000000000003236
230
-1.0
 70
     8
 71
     3
 72
     8
 73
     4
 74
     0
 42
0.0000000001
 43
0.0000000001
 40
0.0
 40
0.0
 40
0.0
 40
0.0
 40
1.0
 40
1.0
 40
1.0
 40
1.0
 10
55.945
 20
-0.7771819440582704
 30
-0.0000000000000005
 10
55.8904589682304
 20
-0.9128475009178488
 30
-0.0000000000000004
 10
55.8355715130391
 20
-1.036273015189635
 30
-0.0000000000000003
 10
55.78218722408855
 20
-1.141918231026864
 30
-0.0000000000000002
  0
SPLINE
  5
1AB
330
A
100
AcDbEntity
  8
1
390
1D
100
AcDbSpline
210
0.0000000000014933
220
0.0000000000711982
230
1.0
 70
     8
 71
     3
 72
     8
 73
     4
 74
     0
 42
0.0000000001
 43
0.0000000001
 40
0.0
 40
0.0
 40
0.0
 40
0.0
 40
1.0
 40
1.0
 40
1.0
 40
1.0
 10
55.78218722408848
 20
-1.141918231028058
 30
-0.0000000000000002
 10
55.76072899004937
 20
-1.141485583968971
 30
-0.0000000000000002
 10
55.73927084708293
 20
-1.141035514884209
 30
-0.0000000000000003
 10
55.71781277591151
 20
-1.140568009925801
 30
-0.0000000000000002
  0
SPLINE
  5
1AC
330
A
100
AcDbEntity
  8
1
390
1D
100
AcDbSpline
210
-0.0000000000013844
220
-0.0000000000005804
230
-1.0
 70
     8
 71
     3
 72
    10
 73
     6
 74
     0
 42
0.0000000001
 43
0.0000000001
 40
0.0
 40
0.0
 40
0.0
 40
0.0
 40
0.5
 40
0.5
 40
1.0
 40
1.0
 40
1.0
 40
1.0
 10
55.71781277591151
 20
-1.140568009925801
 30
-0.0000000000000003
 10
55.69115508703014
 20
-1.086149737152936
 30
-0.0000000000000003
 10
55.6643978040143
 20
-1.026507602108494
 30
-0.0000000000000004
 10
55.61022431725114
 20
-0.8971617967671932
 30
-0.0000000000000005
 10
55.58261525149783
 20
-0.8269367858096074
 30
-0.0000000000000006
 10
55.55500000000001
 20
-0.7526013131976584
 30
-0.0000000000000006
  0
SPLINE
  5
1AD
330
A
100
AcDbEntity
  8
1
390
1D
100
AcDbSpline
210
-0.0000000000184692
220
-0.000000000273074
230
1.0
 70
     8
 71
     3
 72
     8
 73
     4
 74
     0
 42
0.0000000001
 43
0.0000000001
 40
0.0
 40
0.0
 40
0.0
 40
0.0
 40
1.0
 40
1.0
 40
1.0
 40
1.0
 10
55.55500000000001
 20
-0.7526013131976584
 30
-0.0000000000000007
 10
55.51833309689222
 20
-0.7501582398558071
 30
-0.0000000000000006
 10
55.48166641515752
 20
-0.7476782237208113
 30
-0.0000000000000006
 10
55.44500000000204
 20
-0.74516154962663
 30
-0.0000000000000006
  0
SPLINE
  5
1AE
330
A
100
AcDbEntity
  8
1
390
1D
100
AcDbSpline
210
0.0000000000010871
220
-0.0000000000004612
230
-1.0
 70
     8
 71
     3
 72
     8
 73
     4
 74
     0
 42
0.0000000001
 43
0.0000000001
 40
0.0
 40
0.0
 40
0.0
 40
0.0
 40
1.0
 40
1.0
 40
1.0
 40
1.0
 10
55.44500000000005
 20
-0.7451615496382829
 30
-0.0000000000000006
 10
55.39054749311208
 20
-0.8855012510880442
 30
-0.0000000000000006
 10
55.33566716176483
 20
-1.015230442789857
 30
-0.0000000000000004
 10
55.28218722408855
 20
-1.128677502778714
 30
-0.0000000000000003
  0
SPLINE
  5
1AF
330
A
100
AcDbEntity
  8
1
390
1D
100
AcDbSpline
210
0.0000000000038566
220
0.000000000114684
230
1.0
 70
     8
 71
     3
 72
     8
 73
     4
 74
     0
 42
0.0000000001
 43
0.0000000001
 40
0.0
 40
0.0
 40
0.0
 40
0.0
 40
1.0
 40
1.0
 40
1.0
 40
1.0
 10
55.28218722408855
 20
-1.128677502779965
 30
-0.0000000000000003
 10
55.26072915886629
 20
-1.127973421282717
 30
-0.0000000000000003
 10
55.23927101760511
 20
-1.127251820855178
 30
-0.0000000000000004
 10
55.21781277591151
 20
-1.126512692657456
 30
-0.0000000000000003
  0
SPLINE
  5
1B0
330
A
100
AcDbEntity
  8
1
390
1D
100
AcDbSpline
210
0.000000000001923
220
0.0000000000007638
230
1.0
 70
     8
 71
     3
 72
    10
 73
     6
 74
     0
 42
0.0000000001
 43
0.0000000001
 40
0.0
 40
0.0
 40
0.0
 40
0.0
 40
0.5
 40
0.5
 40
1.0
 40
1.0
 40
1.0
 40
1.0
 10
55.21781277591145
 20
-1.126512692657456
 30
-0.0000000000000003
 10
55.19111214154719
 20
-1.067562207763842
 30
-0.0000000000000005
 10
55.16433624481805
 20
-1.003871248514486
 30
-0.0000000000000004
 10
55.11016717448757
 20
-0.8673444119170312
 30
-0.0000000000000006
 10
55.08258053576168
 20
-0.7939668346809868
 30
-0.0000000000000006
 10
55.05500000000001
 20
-0.7170242080882192
 30
-0.0000000000000007
  0
SPLINE
  5
1B1
330
A
100
AcDbEntity
  8
1
390
1D
100
AcDbSpline
210
0.0000000000258364
220
0.0000000003373705
230
1.0
 70
     8
 71
     3
 72
     8
 73
     4
 74
     0
 42
0.0000000001
 43
0.0000000001
 40
0.0
 40
0.0
 40
0.0
 40
0.0
 40
1.0
 40
1.0
 40
1.0
 40
1.0
 10
55.05500000000001
 20
-0.7170242080882192
 30
-0.0000000000000006
 10
55.01833313341364
 20
-0.7142515345622087
 30
-0.0000000000000007
 10
54.98166645629402
 20
-0.711443410743641
 30
-0.0000000000000007
 10
54.94499999999999
 20
-0.7086002493913952
 30
-0.0000000000000007
  0
SPLINE
  5
1B2
330
A
100
AcDbEntity
  8
1
390
1D
100
AcDbSpline
210
-0.0000000000016637
220
0.000000000000676
230
1.0
 70
     8
 71
     3
 72
     8
 73
     4
 74
     0
 42
0.0000000001
 43
0.0000000001
 40
0.0
 40
0.0
 40
0.0
 40
0.0
 40
1.0
 40
1.0
 40
1.0
 40
1.0
 10
54.94499999999999
 20
-0.7086002493913952
 30
-0.0000000000000007
 10
54.89062579106445
 20
-0.8529233101936597
 30
-0.0000000000000006
 10
54.83575387577753
 20
-0.9883636473001049
 30
-0.0000000000000006
 10
54.78218722408843
 20
-1.109098936796498
 30
-0.0000000000000003
  0
SPLINE
  5
1B3
330
A
100
AcDbEntity
  8
1
390
1D
100
AcDbSpline
210
0.000000000014993
220
0.0000000003236799
230
1.0
 70
     8
 71
     3
 72
     8
 73
     4
 74
     0
 42
0.0000000001
 43
0.0000000001
 40
0.0
 40
0.0
 40
0.0
 40
0.0
 40
1.0
 40
1.0
 40
1.0
 40
1.0
 10
54.78218722408854
 20
-1.109098936797578
 30
-0.0000000000000004
 10
54.76072838748371
 20
-1.108122478834389
 30
-0.0000000000000003
 10
54.73927024732905
 20
-1.107128523664982
 30
-0.0000000000000005
 10
54.71781277591185
 20
-1.106117081562842
 30
-0.0000000000000004
  0
SPLINE
  5
1B4
330
A
100
AcDbEntity
  8
1
390
1D
100
AcDbSpline
210
-0.0000000000029255
220
-0.000000000001109
230
-1.0
 70
     8
 71
     3
 72
    10
 73
     6
 74
     0
 42
0.0000000001
 43
0.0000000001
 40
0.0
 40
0.0
 40
0.0
 40
0.0
 40
0.5000000000000002
 40
0.5000000000000002
 40
1.0
 40
1.0
 40
1.0
 40
1.0
 10
54.71781277591145
 20
-1.106117081564149
 30
-0.0000000000000004
 10
54.69107684662151
 20
-1.042899434593834
 30
-0.0000000000000006
 10
54.66428738431864
 20
-0.9754521765435695
 30
-0.0000000000000006
 10
54.61012377976924
 20
-0.8323897692737887
 30
-0.0000000000000007
 10
54.58255499656786
 20
-0.7562132111291931
 30
-0.0000000000000008
 10
54.555
 20
-0.6770575114915119
 30
-0.0000000000000008
  0
SPLINE
  5
1B5
330
A
100
AcDbEntity
  8
1
390
1D
100
AcDbSpline
210
-0.0000000000365216
220
-0.0000000004293306
230
1.0
 70
     8
 71
     3
 72
     8
 73
     4
 74
     0
 42
0.0000000001
 43
0.0000000001
 40
0.0
 40
0.0
 40
0.0
 40
0.0
 40
1.0
 40
1.0
 40
1.0
 40
1.0
 10
54.555
 20
-0.6770575114915119
 30
-0.0000000000000008
 10
54.5183332316273
 20
-0.673971585361528
 30
-0.0000000000000008
 10
54.48166655852162
 20
-0.6708523196258512
 30
-0.0000000000000008
 10
54.44499999999999
 20
-0.6677002726344199
 30
-0.0000000000000007
  0
SPLINE
  5
1B6
330
A
100
AcDbEntity
  8
1
390
1D
100
AcDbSpline
210
-0.0000000000012522
220
0.0000000000004905
230
1.0
 70
     8
 71
     3
 72
     8
 73
     4
 74
     0
 42
0.0000000001
 43
0.0000000001
 40
0.0
 40
0.0
 40
0.0
 40
0.0
 40
1.0
 40
1.0
 40
1.0
 40
1.0
 10
54.44499999999999
 20
-0.6677002726344199
 30
-0.0000000000000008
 10
54.39068980599848
 20
-0.8152469220304396
 30
-0.0000000000000007
 10
54.33582802073885
 20
-0.9557386498823916
 30
-0.0000000000000007
 10
54.28218722408701
 20
-1.08318060782068
 30
-0.0000000000000006
  0
SPLINE
  5
1B7
330
A
100
AcDbEntity
  8
1
390
1D
100
AcDbSpline
210
0.0000000000125291
220
0.0000000002124923
230
1.0
 70
     8
 71
     3
 72
     8
 73
     4
 74
     0
 42
0.0000000001
 43
0.0000000001
 40
0.0
 40
0.0
 40
0.0
 40
0.0
 40
1.0
 40
1.0
 40
1.0
 40
1.0
 10
54.28218722408849
 20
-1.083180607818235
 30
-0.0000000000000006
 10
54.26072862035375
 20
-1.081932729812535
 30
-0.0000000000000005
 10
54.23927048178217
 20
-1.080667489923769
 30
-0.0000000000000006
 10
54.21781277591009
 20
-1.079384920320592
 30
-0.0000000000000006
  0
SPLINE
  5
1B8
330
A
100
AcDbEntity
  8
1
390
1D
100
AcDbSpline
210
-0.0000000000020726
220
-0.0000000000007551
230
-1.0
 70
     8
 71
     3
 72
    10
 73
     6
 74
     0
 42
0.0000000001
 43
0.0000000001
 40
0.0
 40
0.0
 40
0.0
 40
0.0
 40
0.5
 40
0.5
 40
1.0
 40
1.0
 40
1.0
 40
1.0
 10
54.21781277591145
 20
-1.079384920315646
 30
-0.0000000000000006
 10
54.19105093881989
 20
-1.012206157633045
 30
-0.0000000000000006
 10
54.16425388541791
 20
-0.9413366473361291
 30
-0.0000000000000007
 10
54.11009683475118
 20
-0.7924698765401104
 30
-0.0000000000000008
 10
54.08254048653663
 20
-0.7138926665612076
 30
-0.0000000000000008
 10
54.05500000000387
 20
-0.6329641961505672
 30
-0.0000000000000007
  0
SPLINE
  5
1B9
330
A
100
AcDbEntity
  8
1
390
1D
100
AcDbSpline
210
0.0
220
0.0
230
1.0
 70
     8
 71
     3
 72
     8
 73
     4
 74
     0
 42
0.0000000001
 43
0.0000000001
 40
0.0
 40
0.0
 40
0.0
 40
0.0
 40
1.0
 40
1.0
 40
1.0
 40
1.0
 10
54.05500000000007
 20
-0.6329641961479524
 30
-0.0000000000000009
 10
54.01833338002085
 20
-0.6295873294932335
 30
-0.0000000000000008
 10
53.98166670997483
 20
-0.6261799029412601
 30
-0.0000000000000008
 10
53.94500000000022
 20
-0.6227426202160587
 30
-0.0000000000000009
  0
SPLINE
  5
1BA
330
A
100
AcDbEntity
  8
1
390
1D
100
AcDbSpline
210
-0.0000000000009858
220
0.0000000000003746
230
1.0
 70
     8
 71
     3
 72
     8
 73
     4
 74
     0
 42
0.0000000001
 43
0.0000000001
 40
0.0
 40
0.0
 40
0.0
 40
0.0
 40
1.0
 40
1.0
 40
1.0
 40
1.0
 10
53.94499999999999
 20
-0.6227426202154902
 30
-0.0000000000000008
 10
53.89073556700315
 20
-0.7726778640305838
 30
-0.0000000000000008
 10
53.83588572724352
 20
-0.9174850612877207
 30
-0.0000000000000008
 10
53.78218722408854
 20
-1.050974677233966
 30
-0.0000000000000007
  0
SPLINE
  5
1BB
330
A
100
AcDbEntity
  8
1
390
1D
100
AcDbSpline
210
-0.0000000000186971
220
-0.0000000002617799
230
1.0
 70
     8
 71
     3
 72
     8
 73
     4
 74
     0
 42
0.0000000001
 43
0.0000000001
 40
0.0
 40
0.0
 40
0.0
 40
0.0
 40
1.0
 40
1.0
 40
1.0
 40
1.0
 10
53.78218722408854
 20
-1.050974677235217
 30
-0.0000000000000007
 10
53.76072888726661
 20
-1.049459085084151
 30
-0.0000000000000007
 10
53.73927074996458
 20
-1.047926462066641
 30
-0.0000000000000006
 10
53.71781277591151
 20
-1.046376867377887
 30
-0.0000000000000007
  0
SPLINE
  5
1BC
330
A
100
AcDbEntity
  8
1
390
1D
100
AcDbSpline
210
0.0000000000048155
220
0.0000000000016977
230
1.0
 70
     8
 71
     3
 72
    10
 73
     6
 74
     0
 42
0.0000000001
 43
0.0000000001
 40
0.0
 40
0.0
 40
0.0
 40
0.0
 40
0.4999999999999999
 40
0.4999999999999999
 40
1.0
 40
1.0
 40
1.0
 40
1.0
 10
53.71781277591145
 20
-1.046376867377944
 30
-0.0000000000000006
 10
53.69103612487498
 20
-0.9755904181597545
 30
-0.0000000000000008
 10
53.6642382416909
 20
-0.9016796561375599
 30
-0.0000000000000008
 10
53.61008870643786
 20
-0.7478343218067494
 30
-0.0000000000000008
 10
53.58253852264392
 20
-0.6673031643369427
 30
-0.0000000000000009
 10
53.55500000000001
 20
-0.5850899873516369
 30
-0.0000000000000009
  0
SPLINE
  5
1BD
330
A
100
AcDbEntity
  8
1
390
1D
100
AcDbSpline
210
0.0000000001286395
220
0.0000000012865044
230
1.0
 70
     8
 71
     3
 72
     8
 73
     4
 74
     0
 42
0.0000000001
 43
0.0000000001
 40
0.0
 40
0.0
 40
0.0
 40
0.0
 40
1.0
 40
1.0
 40
1.0
 40
1.0
 10
53.55500000000001
 20
-0.5850899873516369
 30
-0.0000000000000008
 10
53.51833356163286
 20
-0.581450530419204
 30
-0.0000000000000009
 10
53.481666893306
 20
-0.577783926034158
 30
-0.0000000000000008
 10
53.4450000000001
 20
-0.5740910025166955
 30
-0.000000000000001
  0
SPLINE
  5
1BE
330
A
100
AcDbEntity
  8
1
390
1D
100
AcDbSpline
210
-0.0000000000043096
220
0.0000000000015993
230
1.0
 70
     8
 71
     3
 72
     8
 73
     4
 74
     0
 42
0.0000000001
 43
0.0000000001
 40
0.0
 40
0.0
 40
0.0
 40
0.0
 40
1.0
 40
1.0
 40
1.0
 40
1.0
 10
53.445
 20
-0.5740910025164112
 30
-0.0000000000000009
 10
53.39075969287092
 20
-0.7255043922178288
 30
-0.0000000000000009
 10
53.33592327196311
 20
-0.8738105397792992
 30
-0.0000000000000008
 10
53.2821872240882
 20
-1.012606436016255
 30
-0.0000000000000007
  0
SPLINE
  5
1BF
330
A
100
AcDbEntity
  8
1
390
1D
100
AcDbSpline
210
-0.0000000001666158
220
-0.0000000019944478
230
1.0
 70
     8
 71
     3
 72
     8
 73
     4
 74
     0
 42
0.0000000001
 43
0.0000000001
 40
0.0
 40
0.0
 40
0.0
 40
0.0
 40
1.0
 40
1.0
 40
1.0
 40
1.0
 10
53.28218722408848
 20
-1.012606436016654
 30
-0.0000000000000009
 10
53.26072917892315
 20
-1.01083027416206
 30
-0.0000000000000008
 10
53.23927104242046
 20
-1.009037638275855
 30
-0.0000000000000008
 10
53.21781277591146
 20
-1.007228616547592
 30
-0.0000000000000007
  0
SPLINE
  5
1C0
330
A
100
AcDbEntity
  8
1
390
1D
100
AcDbSpline
210
-0.0000000000095573
220
-0.0000000000032833
230
-1.0
 70
     8
 71
     3
 72
    10
 73
     6
 74
     0
 42
0.0000000001
 43
0.0000000001
 40
0.0
 40
0.0
 40
0.0
 40
0.0
 40
0.5
 40
0.5
 40
1.0
 40
1.0
 40
1.0
 40
1.0
 10
53.21781277591146
 20
-1.007228616547592
 30
-0.0000000000000007
 10
53.19103385369317
 20
-0.9332383101399841
 30
-0.0000000000000008
 10
53.16424239973479
 20
-0.8567162395937089
 30
-0.0000000000000009
 10
53.11010101330055
 20
-0.6988141634887484
 30
-0.0000000000000009
 10
53.08254999110449
 20
-0.6168237859578199
 30
-0.0000000000000009
 10
53.05500000000001
 20
-0.5338586887876318
 30
-0.000000000000001
  0
SPLINE
  5
1C1
330
A
100
AcDbEntity
  8
1
390
1D
100
AcDbSpline
210
0.0000000000397123
220
0.0000000003741891
230
1.0
 70
     8
 71
     3
 72
     8
 73
     4
 74
     0
 42
0.0000000001
 43
0.0000000001
 40
0.0
 40
0.0
 40
0.0
 40
0.0
 40
1.0
 40
1.0
 40
1.0
 40
1.0
 10
53.05500000000001
 20
-0.5338586887876318
 30
-0.0000000000000009
 10
53.01833375432146
 20
-0.5299902558779764
 30
-0.0000000000000011
 10
52.98166708604646
 20
-0.5260985892403483
 30
-0.0000000000000009
 10
52.94499999999999
 20
-0.5221846003902329
 30
-0.000000000000001
  0
SPLINE
  5
1C2
330
A
100
AcDbEntity
  8
1
390
1D
100
AcDbSpline
210
0.0
220
0.0
230
1.0
 70
     8
 71
     3
 72
     8
 73
     4
 74
     0
 42
0.0000000001
 43
0.0000000001
 40
0.0
 40
0.0
 40
0.0
 40
0.0
 40
1.0
 40
1.0
 40
1.0
 40
1.0
 10
52.94499999999999
 20
-0.5221846003902329
 30
-0.000000000000001
 10
52.89075994258798
 20
-0.6740971261866094
 30
-0.0000000000000009
 10
52.83593752143604
 20
-0.8250062022319752
 30
-0.0000000000000009
 10
52.78218722408928
 20
-0.9682851892682718
 30
-0.000000000000001
  0
SPLINE
  5
1C3
330
A
100
AcDbEntity
  8
1
390
1D
100
AcDbSpline
210
0.0000000001598074
220
0.0000000016796972
230
1.0
 70
     8
 71
     3
 72
     8
 73
     4
 74
     0
 42
0.0000000001
 43
0.0000000001
 40
0.0
 40
0.0
 40
0.0
 40
0.0
 40
1.0
 40
1.0
 40
1.0
 40
1.0
 10
52.78218722408849
 20
-0.9682851892713983
 30
-0.0000000000000008
 10
52.76072948275709
 20
-0.9662593016873302
 30
-0.0000000000000008
 10
52.73927134646857
 20
-0.964217725759795
 30
-0.0000000000000009
 10
52.71781277591173
 20
-0.962160576953579
 30
-0.0000000000000009
  0
SPLINE
  5
1C4
330
A
100
AcDbEntity
  8
1
390
1D
100
AcDbSpline
210
0.00000000002968
220
0.0000000000100042
230
1.0
 70
     8
 71
     3
 72
    10
 73
     6
 74
     0
 42
0.0000000001
 43
0.0000000001
 40
0.0
 40
0.0
 40
0.0
 40
0.0
 40
0.5000000000000001
 40
0.5000000000000001
 40
1.0
 40
1.0
 40
1.0
 40
1.0
 10
52.71781277591145
 20
-0.9621605769548864
 30
-0.0000000000000009
 10
52.69104506598704
 20
-0.885419607823735
 30
-0.0000000000000008
 10
52.66426735812911
 20
-0.8067630506289447
 30
-0.0000000000000009
 10
52.61013420346063
 20
-0.6458149698945022
 30
-0.0000000000000009
 10
52.58257485947746
 20
-0.5629032404544887
 30
-0.0000000000000011
 10
52.55500000000001
 20
-0.4797556975592557
 30
-0.0000000000000011
  0
SPLINE
  5
1C5
330
A
100
AcDbEntity
  8
1
390
1D
100
AcDbSpline
210
0.0000000003314969
220
0.0000000029799207
230
1.0
 70
     8
 71
     3
 72
     8
 73
     4
 74
     0
 42
0.0000000001
 43
0.0000000001
 40
0.0
 40
0.0
 40
0.0
 40
0.0
 40
1.0
 40
1.0
 40
1.0
 40
1.0
 10
52.55500000000001
 20
-0.4797556975592557
 30
-0.000000000000001
 10
52.5183339321876
 20
-0.4756955284319134
 30
-0.0000000000000009
 10
52.48166726210651
 20
-0.4716163189098097
 30
-0.0000000000000011
 10
52.44499999999999
 20
-0.4675190046606303
 30
-0.0000000000000011
  0
SPLINE
  5
1C6
330
A
100
AcDbEntity
  8
1
390
1D
100
AcDbSpline
210
-0.0000000000713098
220
0.0000000000257414
230
1.0
 70
     8
 71
     3
 72
     8
 73
     4
 74
     0
 42
0.0000000001
 43
0.0000000001
 40
0.0
 40
0.0
 40
0.0
 40
0.0
 40
1.0
 40
1.0
 40
1.0
 40
1.0
 10
52.44499999999999
 20
-0.4675190046606303
 30
-0.0000000000000011
 10
52.39073573711659
 20
-0.6188976118727965
 30
-0.000000000000001
 10
52.33592639189681
 20
-0.7714414012308453
 30
-0.000000000000001
 10
52.28218722408854
 20
-0.9183050460765116
 30
-0.0000000000000008
  0
SPLINE
  5
1C7
330
A
100
AcDbEntity
  8
1
390
1D
100
AcDbSpline
210
0.0000000003397798
220
0.0000000032035098
230
1.0
 70
     8
 71
     3
 72
     8
 73
     4
 74
     0
 42
0.0000000001
 43
0.0000000001
 40
0.0
 40
0.0
 40
0.0
 40
0.0
 40
1.0
 40
1.0
 40
1.0
 40
1.0
 10
52.28218722408854
 20
-0.918305046077876
 30
-0.0000000000000008
 10
52.26072869505913
 20
-0.9160436578475241
 30
-0.0000000000000009
 10
52.23927054919528
 20
-0.9137676905760939
 30
-0.0000000000000009
 10
52.21781277591265
 20
-0.9114771840908133
 30
-0.000000000000001
  0
SPLINE
  5
1C8
330
A
100
AcDbEntity
  8
1
390
1D
100
AcDbSpline
210
0.0000000001080894
220
0.0000000000359991
230
1.0
 70
     8
 71
     3
 72
    10
 73
     6
 74
     0
 42
0.0000000001
 43
0.0000000001
 40
0.0
 40
0.0
 40
0.0
 40
0.0
 40
0.5
 40
0.5
 40
1.0
 40
1.0
 40
1.0
 40
1.0
 10
52.21781277591151
 20
-0.9114771840976345
 30
-0.0000000000000009
 10
52.19106968897211
 20
-0.8324817677248006
 30
-0.000000000000001
 10
52.16431231313783
 20
-0.7522071071582559
 30
-0.000000000000001
 10
52.11018659795918
 20
-0.589294736958152
 30
-0.0000000000000011
 10
52.08261148806593
 20
-0.5060321633008585
 30
-0.0000000000000011
 10
52.055
 20
-0.4232941697648586
 30
-0.000000000000001
  0
SPLINE
  5
1C9
330
A
100
AcDbEntity
  8
1
390
1D
100
AcDbSpline
210
0.0
220
0.0
230
1.0
 70
     8
 71
     3
 72
     8
 73
     4
 74
     0
 42
0.0000000001
 43
0.0000000001
 40
0.0
 40
0.0
 40
0.0
 40
0.0
 40
1.0
 40
1.0
 40
1.0
 40
1.0
 10
52.055
 20
-0.4232941697648586
 30
-0.0000000000000011
 10
52.01833381055206
 20
-0.4190776269103936
 30
-0.000000000000001
 10
51.98166710309147
 20
-0.4148447131238983
 30
-0.000000000000001
 10
51.94499999999999
 20
-0.4105955863611825
 30
-0.0000000000000011
  0
SPLINE
  5
1CA
330
A
100
AcDbEntity
  8
1
390
1D
100
AcDbSpline
210
-0.0000000000254819
220
0.0000000000091655
230
1.0
 70
     8
 71
     3
 72
     8
 73
     4
 74
     0
 42
0.0000000001
 43
0.0000000001
 40
0.0
 40
0.0
 40
0.0
 40
0.0
 40
1.0
 40
1.0
 40
1.0
 40
1.0
 10
51.94499999999999
 20
-0.4105955863611825
 30
-0.0000000000000011
 10
51.89068992654085
 20
-0.5603632183205037
 30
-0.0000000000000012
 10
51.83589124426515
 20
-0.713503885274065
 30
-0.0000000000000011
 10
51.78218722408462
 20
-0.8629842762207431
 30
-0.0000000000000011
  0
SPLINE
  5
1CB
330
A
100
AcDbEntity
  8
1
390
1D
100
AcDbSpline
210
0.0000000001421331
220
0.0000000012196799
230
1.0
 70
     8
 71
     3
 72
     8
 73
     4
 74
     0
 42
0.0000000001
 43
0.0000000001
 40
0.0
 40
0.0
 40
0.0
 40
0.0
 40
1.0
 40
1.0
 40
1.0
 40
1.0
 10
51.78218722408854
 20
-0.8629842762111934
 30
-0.000000000000001
 10
51.76072878542158
 20
-0.8604979840998794
 30
-0.0000000000000011
 10
51.7392706407357
 20
-0.8579973878859163
 30
-0.000000000000001
 10
51.71781277591151
 20
-0.855482525672869
 30
-0.0000000000000011
  0
SPLINE
  5
1CC
330
A
100
AcDbEntity
  8
1
390
1D
100
AcDbSpline
210
0.0
220
0.0
230
1.0
 70
     8
 71
     3
 72
    10
 73
     6
 74
     0
 42
0.0000000001
 43
0.0000000001
 40
0.0
 40
0.0
 40
0.0
 40
0.0
 40
0.5
 40
0.5
 40
1.0
 40
1.0
 40
1.0
 40
1.0
 10
51.71781277591151
 20
-0.855482525672869
 30
-0.0000000000000011
 10
51.69110517954925
 20
-0.774744321556284
 30
-0.0000000000000011
 10
51.66437255295442
 20
-0.6933786343639668
 30
-0.0000000000000011
 10
51.61025245250801
 20
-0.5295924153737701
 30
-0.0000000000000012
 10
51.58265545490276
 20
-0.4465482403265925
 30
-0.0000000000000011
 10
51.555
 20
-0.3647980530405448
 30
-0.0000000000000011
  0
SPLINE
  5
1CD
330
A
100
AcDbEntity
  8
1
390
1D
100
AcDbSpline
210
-0.0000000001084163
220
-0.0000000009081578
230
1.0
 70
     8
 71
     3
 72
     8
 73
     4
 74
     0
 42
0.0000000001
 43
0.0000000001
 40
0.0
 40
0.0
 40
0.0
 40
0.0
 40
1.0
 40
1.0
 40
1.0
 40
1.0
 10
51.555
 20
-0.3647980530405448
 30
-0.0000000000000011
 10
51.51833348871247
 20
-0.3604363228776606
 30
-0.0000000000000011
 10
51.4816667873181
 20
-0.3560589776173515
 30
-0.000000000000001
 10
51.44500000000005
 20
-0.3516662212487063
 30
-0.0000000000000011
  0
SPLINE
  5
1CE
330
A
100
AcDbEntity
  8
1
390
1D
100
AcDbSpline
210
0.0000000000043507
220
-0.0000000000015703
230
1.0
 70
     8
 71
     3
 72
     8
 73
     4
 74
     0
 42
0.0000000001
 43
0.0000000001
 40
0.0
 40
0.0
 40
0.0
 40
0.0
 40
1.0
 40
1.0
 40
1.0
 40
1.0
 10
51.44499999999999
 20
-0.3516662212487063
 30
-0.0000000000000011
 10
51.39062693737099
 20
-0.4987310502420997
 30
-0.0000000000000012
 10
51.33583542309275
 20
-0.651389086487086
 30
-0.0000000000000011
 10
51.28218722408831
 20
-0.8024757943496183
 30
-0.0000000000000012
  0
SPLINE
  5
1CF
330
A
100
AcDbEntity
  8
1
390
1D
100
AcDbSpline
210
-0.0000000002656734
220
-0.0000000020955722
230
1.0
 70
     8
 71
     3
 72
     8
 73
     4
 74
     0
 42
0.0000000001
 43
0.0000000001
 40
0.0
 40
0.0
 40
0.0
 40
0.0
 40
1.0
 40
1.0
 40
1.0
 40
1.0
 10
51.28218722408849
 20
-0.8024757943504141
 30
-0.0000000000000012
 10
51.26072891589502
 20
-0.7997693207673251
 30
-0.0000000000000012
 10
51.23927077313233
 20
-0.7970488744728073
 30
-0.0000000000000012
 10
51.21781277591151
 20
-0.7943145075702205
 30
-0.0000000000000011
  0
SPLINE
  5
1D0
330
A
100
AcDbEntity
  8
1
390
1D
100
AcDbSpline
210
-0.0000000000033281
220
-0.0000000000011043
230
1.0
 70
     8
 71
     3
 72
    10
 73
     6
 74
     0
 42
0.0000000001
 43
0.0000000001
 40
0.0
 40
0.0
 40
0.0
 40
0.0
 40
0.5000000000000001
 40
0.5000000000000001
 40
1.0
 40
1.0
 40
1.0
 40
1.0
 10
51.21781277591151
 20
-0.7943145075705047
 30
-0.0000000000000012
 10
51.19114843184365
 20
-0.7123477541968555
 30
-0.0000000000000012
 10
51.16444282714553
 20
-0.6304183874569276
 30
-0.0000000000000011
 10
51.11032596887469
 20
-0.4668402729535046
 30
-0.0000000000000012
 10
51.08270271652639
 20
-0.3845754590610113
 30
-0.0000000000000012
 10
51.05500000000001
 20
-0.3043724237675747
 30
-0.0000000000000011
  0
SPLINE
  5
1D1
330
A
100
AcDbEntity
  8
1
390
1D
100
AcDbSpline
210
0.0000000004007447
220
0.0000000032554977
230
1.0
 70
     8
 71
     3
 72
     8
 73
     4
 74
     0
 42
0.0000000001
 43
0.0000000001
 40
0.0
 40
0.0
 40
0.0
 40
0.0
 40
1.0
 40
1.0
 40
1.0
 40
1.0
 10
51.05500000000001
 20
-0.3043724237675747
 30
-0.0000000000000011
 10
51.01833324706222
 20
-0.29987329765504
 30
-0.0000000000000012
 10
50.98166655166585
 20
-0.2953596191928227
 30
-0.0000000000000012
 10
50.94500000000005
 20
-0.2908316913610634
 30
-0.0000000000000012
  0
SPLINE
  5
1D2
330
A
100
AcDbEntity
  8
1
390
1D
100
AcDbSpline
210
-0.0000000000021078
220
0.0000000000007689
230
-1.0
 70
     8
 71
     3
 72
     8
 73
     4
 74
     0
 42
0.0000000001
 43
0.0000000001
 40
0.0
 40
0.0
 40
0.0
 40
0.0
 40
1.0
 40
1.0
 40
1.0
 40
1.0
 10
50.945
 20
-0.290831691360836
 30
-0.0000000000000012
 10
50.89055541588061
 20
-0.4341365981661626
 30
-0.0000000000000012
 10
50.83576627340062
 20
-0.5852335626128138
 30
-0.0000000000000012
 10
50.78218722408866
 20
-0.736907074613157
 30
-0.0000000000000013
  0
SPLINE
  5
1D3
330
A
100
AcDbEntity
  8
1
390
1D
100
AcDbSpline
210
-0.000000000110313
220
-0.0000000008068827
230
1.0
 70
     8
 71
     3
 72
     8
 73
     4
 74
     0
 42
0.0000000001
 43
0.0000000001
 40
0.0
 40
0.0
 40
0.0
 40
0.0
 40
1.0
 40
1.0
 40
1.0
 40
1.0
 10
50.78218722408855
 20
-0.736907074614976
 30
-0.0000000000000013
 10
50.76072909364666
 20
-0.7339868927746239
 30
-0.0000000000000011
 10
50.73927095298166
 20
-0.7310532177349387
 30
-0.0000000000000013
 10
50.71781277590878
 20
-0.7281061258495356
 30
-0.0000000000000012
  0
SPLINE
  5
1D4
330
A
100
AcDbEntity
  8
1
390
1D
100
AcDbSpline
210
-0.0000000000012887
220
-0.0000000000004311
230
-1.0
 70
     8
 71
     3
 72
    10
 73
     6
 74
     0
 42
0.0000000001
 43
0.0000000001
 40
0.0
 40
0.0
 40
0.0
 40
0.0
 40
0.5000000000000001
 40
0.5000000000000001
 40
1.0
 40
1.0
 40
1.0
 40
1.0
 10
50.71781277591151
 20
-0.7281061258344721
 30
-0.0000000000000012
 10
50.69119580699703
 20
-0.6454327402532272
 30
-0.0000000000000011
 10
50.66451732902049
 20
-0.563472542392276
 30
-0.0000000000000012
 10
50.61040116446037
 20
-0.4011864830429773
 30
-0.0000000000000012
 10
50.5827494876895
 20
-0.3202589265186475
 30
-0.0000000000000012
 10
50.55500000000001
 20
-0.2421476554995934
 30
-0.0000000000000012
  0
SPLINE
  5
1D5
330
A
100
AcDbEntity
  8
1
390
1D
100
AcDbSpline
210
0.0000000000079962
220
0.000000000078312
230
1.0
 70
     8
 71
     3
 72
    11
 73
     7
 74
     0
 42
0.0000000001
 43
0.0000000001
 40
0.0
 40
0.0
 40
0.0
 40
0.0
 40
0.1068109635207195
 40
0.4368658483743231
 40
0.7477316963388001
 40
1.0
 40
1.0
 40
1.0
 40
1.0
 10
53.79767879189744
 20
0.9276994850375263
 30
-0.0000000000000008
 10
53.79310046087306
 20
0.9281501696375908
 30
-0.0000000000000008
 10
53.78096140266872
 20
0.9293490209839205
 30
-0.0000000000000008
 10
53.75890581735643
 20
0.9315575666313408
 30
-0.0000000000000009
 10
53.73259264731183
 20
0.9342616768672655
 30
-0.0000000000000008
 10
53.7162217115262
 20
0.9359916253575308
 30
-0.0000000000000009
 10
53.70891759506061
 20
0.9367724426204517
 30
-0.0000000000000009
  0
SPLINE
  5
1D6
330
A
100
AcDbEntity
  8
1
390
1D
100
AcDbSpline
210
-0.0000000000789869
220
-0.0000000008019432
230
1.0
 70
     8
 71
     3
 72
    16
 73
    12
 74
     0
 42
0.0000000001
 43
0.0000000001
 40
0.0
 40
0.0
 40
0.0
 40
0.0
 40
0.1889625447466816
 40
0.3730626481464222
 40
0.5290064711709978
 40
0.6568023558547738
 40
0.7564650066532197
 40
0.8033983538036395
 40
0.8548025540592472
 40
0.9181524590418144
 40
1.0
 40
1.0
 40
1.0
 40
1.0
 10
54.31616709120453
 20
0.8764594234070273
 30
-0.0000000000000009
 10
54.30825521466977
 20
0.8772350209313799
 30
-0.0000000000000009
 10
54.29263359830059
 20
0.8787678103367966
 30
-0.0000000000000008
 10
54.27047839668397
 20
0.8809457583503785
 30
-0.0000000000000009
 10
54.25088084741901
 20
0.8828752325417212
 30
-0.0000000000000009
 10
54.2348167773884
 20
0.8844588796080756
 30
-0.0000000000000008
 10
54.22331697533508
 20
0.8855936960675308
 30
-0.0000000000000009
 10
54.21501883347701
 20
0.8864129956742772
 30
-0.0000000000000008
 10
54.208243465865
 20
0.8870821067409337
 30
-0.0000000000000009
 10
54.19982745410941
 20
0.8879134675904655
 30
-0.0000000000000008
 10
54.19524928520779
 20
0.8883657968094194
 30
-0.0000000000000008
 10
54.1906711246634
 20
0.8888182106032058
 30
-0.000000000000001
  0
SPLINE
  5
1D7
330
A
100
AcDbEntity
  8
1
390
1D
100
AcDbSpline
210
0.0000000000330233
220
0.0000000003481761
230
1.0
 70
     8
 71
     3
 72
    19
 73
    15
 74
     0
 42
0.0000000001
 43
0.0000000001
 40
0.0
 40
0.0
 40
0.0
 40
0.0
 40
0.0215857065563498
 40
0.0682985579216597
 40
0.1148476022688934
 40
0.161634405704619
 40
0.2221273554645374
 40
0.3028961969317953
 40
0.3805815013303358
 40
0.4707838931054041
 40
0.5696101353631994
 40
0.6674005664715327
 40
0.7637019805449854
 40
1.0
 40
1.0
 40
1.0
 40
1.0
 10
54.84753700703949
 20
0.8253758086686048
 30
-0.0000000000000008
 10
54.8429568245151
 20
0.8258072714309866
 30
-0.0000000000000009
 10
54.83837665150876
 20
0.8262388350413644
 30
-0.0000000000000008
 10
54.83379650467124
 20
0.8266706768728472
 30
-0.0000000000000009
 10
54.829216363301
 20
0.8271025765204747
 30
-0.0000000000000009
 10
54.81807028380433
 20
0.8281546127495857
 30
-0.0000000000000009
 10
54.80636546515126
 20
0.8292602199291536
 30
-0.0000000000000008
 10
54.79273784348084
 20
0.8305487755279727
 30
-0.0000000000000008
 10
54.77726130191132
 20
0.8320138267717993
 30
-0.0000000000000008
 10
54.76066101978569
 20
0.8335871590801389
 30
-0.0000000000000008
 10
54.7428095023514
 20
0.8352813741557838
 30
-0.0000000000000007
 10
54.72457851118189
 20
0.8370140720534777
 30
-0.000000000000001
 10
54.69779156516813
 20
0.839563333913361
 30
-0.0000000000000008
 10
54.6770913080395
 20
0.8415387329978329
 30
-0.0000000000000009
 10
54.66238479548684
 20
0.8429447781488761
 30
-0.0000000000000009
  0
SPLINE
  5
1D8
330
A
100
AcDbEntity
  8
1
390
1D
100
AcDbSpline
210
0.0000000000099536
220
0.0000000001091804
230
1.0
 70
     8
 71
     3
 72
    14
 73
    10
 74
     0
 42
0.0000000001
 43
0.0000000001
 40
0.0
 40
0.0
 40
0.0
 40
0.0
 40
0.0423257182677711
 40
0.1441365029956107
 40
0.2516305355613877
 40
0.3582427130204832
 40
0.6636891706724973
 40
0.96012005973497
 40
1.0
 40
1.0
 40
1.0
 40
1.0
 10
55.38165867374035
 20
0.7761132546566709
 30
-0.0000000000000008
 10
55.3770768119987
 20
0.7765265041983696
 30
-0.0000000000000008
 10
55.36574163415918
 20
0.7775493444397626
 30
-0.0000000000000008
 10
55.34499907617725
 20
0.7794253127668185
 30
-0.0000000000000009
 10
55.31895722485025
 20
0.7817849366350629
 30
-0.0000000000000008
 10
55.27612913236818
 20
0.7856740407949588
 30
-0.0000000000000008
 10
55.21772645624025
 20
0.7910023690382105
 30
-0.0000000000000008
 10
55.16482468030921
 20
0.7958484658913676
 30
-0.0000000000000008
 10
55.13774854456525
 20
0.7983473666059781
 30
-0.0000000000000009
 10
55.13316757277869
 20
0.7987703674217025
 30
-0.0000000000000008
  0
SPLINE
  5
1D9
330
A
100
AcDbEntity
  8
1
390
1D
100
AcDbSpline
210
0.0000000000121187
220
0.0000000001385996
230
1.0
 70
     8
 71
     3
 72
    15
 73
    11
 74
     0
 42
0.0000000001
 43
0.0000000001
 40
0.0
 40
0.0
 40
0.0
 40
0.0
 40
0.1300031075488249
 40
0.2648467311831202
 40
0.4060707146766485
 40
0.5536749571230032
 40
0.7230299764410017
 40
0.9000712250442074
 40
0.9573001863040307
 40
1.0
 40
1.0
 40
1.0
 40
1.0
 10
55.91276668102341
 20
0.7292463797832625
 30
-0.0000000000000008
 10
55.89929487704154
 20
0.7304061739728809
 30
-0.0000000000000008
 10
55.87217106984969
 20
0.7327519893495378
 30
-0.0000000000000008
 10
55.83074178268089
 20
0.736342454832311
 30
-0.0000000000000008
 10
55.78735224910901
 20
0.7401183209119041
 30
-0.0000000000000009
 10
55.74042829617172
 20
0.7442171213359075
 30
-0.0000000000000008
 10
55.6898361592826
 20
0.748655098118661
 30
-0.0000000000000008
 10
55.64849958536746
 20
0.7522979096593191
 30
-0.0000000000000009
 10
55.62013415483665
 20
0.7548051238129006
 30
-0.0000000000000008
 10
55.61000484744858
 20
0.7557018719142494
 30
-0.0000000000000008
 10
55.6054223322707
 20
0.7561078113850753
 30
-0.0000000000000009
  0
SPLINE
  5
1DA
330
A
100
AcDbEntity
  8
1
390
1D
100
AcDbSpline
210
0.0000000000086865
220
0.0000000001039246
230
1.0
 70
     8
 71
     3
 72
    24
 73
    20
 74
     0
 42
0.0000000001
 43
0.0000000001
 40
0.0
 40
0.0
 40
0.0
 40
0.0
 40
0.0864892917159818
 40
0.2546854701092308
 40
0.4316781055938422
 40
0.5038336721335824
 40
0.5700344840479989
 40
0.6292968306165225
 40
0.6816207870359707
 40
0.7270064181320678
 40
0.7699068796804428
 40
0.8039642307862857
 40
0.8292413532458258
 40
0.8462876815097967
 40
0.8644718738708723
 40
0.8877613730853754
 40
0.9161561564689087
 40
0.9635349023452304
 40
1.0
 40
1.0
 40
1.0
 40
1.0
 10
56.44418108204809
 20
0.6845103528056029
 30
-0.0000000000000007
 10
56.43360852075426
 20
0.6853771905201143
 30
-0.0000000000000007
 10
56.402475458602
 20
0.6879344505954919
 30
-0.0000000000000008
 10
56.34970672992587
 20
0.6922964518869322
 30
-0.0000000000000007
 10
56.29869015073751
 20
0.6965358141824823
 30
-0.0000000000000008
 10
56.26014155639939
 20
0.6997533682645667
 30
-0.0000000000000008
 10
56.2359844133686
 20
0.7017743930269944
 30
-0.0000000000000007
 10
56.21425152127107
 20
0.7035964817634977
 30
-0.0000000000000008
 10
56.19506313869795
 20
0.7052082688789483
 30
-0.0000000000000008
 10
56.17787491630867
 20
0.7066544240107647
 30
-0.0000000000000008
 10
56.16291971833817
 20
0.7079145675044743
 30
-0.0000000000000008
 10
56.15042273480208
 20
0.7089689377735909
 30
-0.0000000000000008
 10
56.14108633151403
 20
0.7097574323506706
 30
-0.0000000000000008
 10
56.13369020627225
 20
0.7103825046895622
 30
-0.0000000000000008
 10
56.12653727739314
 20
0.710987380250458
 30
-0.0000000000000008
 10
56.1179973435335
 20
0.7117100399165111
 30
-0.0000000000000008
 10
56.10588911303353
 20
0.7127355664636639
 30
-0.0000000000000008
 10
56.09217055509089
 20
0.7138987725402329
 30
-0.0000000000000008
 10
56.08198609661767
 20
0.7147639556386793
 30
-0.0000000000000007
 10
56.07740217069007
 20
0.7151536417947401
 30
-0.0000000000000008
  0
SPLINE
  5
1DB
330
A
100
AcDbEntity
  8
1
390
1D
100
AcDbSpline
210
0.0000000000021124
220
0.000000000026422
230
1.0
 70
     8
 71
     3
 72
    32
 73
    28
 74
     0
 42
0.0000000001
 43
0.0000000001
 40
0.0
 40
0.0
 40
0.0
 40
0.0
 40
0.0545075581954168
 40
0.1033614624349608
 40
0.1465618173484651
 40
0.1841087135870772
 40
0.2160022284938393
 40
0.2422424267001556
 40
0.2582126182680576
 40
0.2710028666873898
 40
0.280613186088805
 40
0.2870435870393439
 40
0.2934698720507338
 40
0.3019341331439074
 40
0.3136181573448344
 40
0.3285219313486466
 40
0.3466454382477531
 40
0.3679886576283713
 40
0.3925515656769405
 40
0.4200276362994064
 40
0.5066617123636058
 40
0.5909608198533274
 40
0.6882725447901665
 40
0.7822753019486002
 40
0.8745815451943668
 40
0.9765193903469871
 40
1.0
 40
1.0
 40
1.0
 40
1.0
 10
57.0000000024462
 20
0.6400845196689602
 30
-0.0000000000000006
 10
56.99015594314364
 20
0.6408492145733931
 30
-0.0000000000000007
 10
56.97148881323426
 20
0.6423015491167803
 30
-0.0000000000000007
 10
56.94501951373843
 20
0.6443669795831966
 30
-0.0000000000000007
 10
56.92161321147488
 20
0.6461981649617883
 30
-0.0000000000000007
 10
56.90126990585094
 20
0.64779334239023
 30
-0.0000000000000008
 10
56.88398959698134
 20
0.6491509835133798
 30
-0.0000000000000008
 10
56.87060608903493
 20
0.650204179633704
 30
-0.0000000000000007
 10
56.86067270183338
 20
0.6509867937916171
 30
-0.0000000000000007
 10
56.85374274465892
 20
0.6515332161460492
 30
-0.0000000000000007
 10
56.84906118873645
 20
0.6519025834588987
 30
-0.0000000000000007
 10
56.84447499226772
 20
0.6522645698643716
 30
-0.0000000000000007
 10
56.83988880951097
 20
0.65262672994926
 30
-0.0000000000000007
 10
56.83530263791421
 20
0.6529890313328104
 30
-0.0000000000000006
 10
56.82949771199361
 20
0.6534478433442814
 30
-0.0000000000000007
 10
56.82142289022647
 20
0.6540865337754554
 30
-0.0000000000000007
 10
56.81160362306957
 20
0.6548639124729334
 30
-0.0000000000000008
 10
56.8000399127531
 20
0.6557803928558315
 30
-0.0000000000000007
 10
56.78678711317013
 20
0.6568320686981793
 30
-0.0000000000000007
 10
56.76174274429776
 20
0.6588223028859943
 30
-0.0000000000000007
 10
56.72590995797714
 20
0.6616787750986646
 30
-0.0000000000000007
 10
56.67746475244951
 20
0.6655585786135703
 30
-0.0000000000000007
 10
56.62768872387442
 20
0.6695645905325023
 30
-0.0000000000000007
 10
56.57646661551462
 20
0.6737075979427232
 30
-0.0000000000000008
 10
56.5244091422894
 20
0.6779406030159976
 30
-0.0000000000000007
 10
56.48508822945138
 20
0.6811492919392777
 30
-0.0000000000000008
 10
56.46261004478528
 20
0.6829960802329718
 30
-0.0000000000000007
 10
56.45802505979957
 20
0.6833731013014567
 30
-0.0000000000000008
  0
SPLINE
  5
1DC
330
A
100
AcDbEntity
  8
1
390
1D
100
AcDbSpline
210
-0.0000000005106353
220
-0.0000000056762095
230
1.0
 70
     8
 71
     3
 72
     8
 73
     4
 74
     0
 42
0.0000000001
 43
0.0000000001
 40
0.0
 40
0.0
 40
0.0
 40
0.0
 40
1.0
 40
1.0
 40
1.0
 40
1.0
 10
57.00000000487694
 20
0.6366350821872402
 30
-0.0000000000000009
 10
56.98166668408339
 20
0.6382919765322868
 30
-0.0000000000000009
 10
56.96333334534546
 20
0.639941263045273
 30
-0.0000000000000008
 10
56.94500000000181
 20
0.6415829133583771
 30
-0.0000000000000008
  0
SPLINE
  5
1DD
330
A
100
AcDbEntity
  8
1
390
1D
100
AcDbSpline
210
0.0
220
0.0
230
1.0
 70
     8
 71
     3
 72
     8
 73
     4
 74
     0
 42
0.0000000001
 43
0.0000000001
 40
0.0
 40
0.0
 40
0.0
 40
0.0
 40
1.0
 40
1.0
 40
1.0
 40
1.0
 10
56.555
 20
0.6753422499529052
 30
-0.0000000000000007
 10
56.51833323249285
 20
0.6784057393751937
 30
-0.0000000000000008
 10
56.48166654064254
 20
0.6814377211954934
 30
-0.0000000000000008
 10
56.44500000000005
 20
0.6844378682455386
 30
-0.0000000000000007
  0
SPLINE
  5
1DE
330
A
100
AcDbEntity
  8
1
390
1D
100
AcDbSpline
210
0.0
220
0.0
230
1.0
 70
     8
 71
     3
 72
     8
 73
     4
 74
     0
 42
0.0000000001
 43
0.0000000001
 40
0.0
 40
0.0
 40
0.0
 40
0.0
 40
1.0
 40
1.0
 40
1.0
 40
1.0
 10
56.05500000000001
 20
0.7151329761608736
 30
-0.0000000000000007
 10
56.01833312881661
 20
0.7179030371181057
 30
-0.0000000000000007
 10
55.98166644212529
 20
0.7206399699090298
 30
-0.0000000000000007
 10
55.94500000000032
 20
0.7233433721286247
 30
-0.0000000000000007
  0
SPLINE
  5
1DF
330
A
100
AcDbEntity
  8
1
390
1D
100
AcDbSpline
210
-0.0000000000194853
220
-0.0000000002945763
230
1.0
 70
     8
 71
     3
 72
     8
 73
     4
 74
     0
 42
0.0000000001
 43
0.0000000001
 40
0.0
 40
0.0
 40
0.0
 40
0.0
 40
1.0
 40
1.0
 40
1.0
 40
1.0
 10
55.55500000000001
 20
0.7508156062734202
 30
-0.0000000000000007
 10
55.51833309689147
 20
0.7532761526680929
 30
-0.0000000000000006
 10
55.48166641515615
 20
0.7557016739935989
 30
-0.0000000000000006
 10
55.44499999999999
 20
0.7580917327881025
 30
-0.0000000000000006
  0
SPLINE
  5
1E0
330
A
100
AcDbEntity
  8
1
390
1D
100
AcDbSpline
210
-0.0000000000086566
220
-0.0000000001514269
230
1.0
 70
     8
 71
     3
 72
     8
 73
     4
 74
     0
 42
0.0000000001
 43
0.0000000001
 40
0.0
 40
0.0
 40
0.0
 40
0.0
 40
1.0
 40
1.0
 40
1.0
 40
1.0
 10
55.05500000000001
 20
0.78215725480311
 30
-0.0000000000000006
 10
55.01833313341364
 20
0.7842905040114943
 30
-0.0000000000000005
 10
54.98166645629396
 20
0.7863867501832261
 30
-0.0000000000000006
 10
54.94499999999999
 20
0.7884455668252031
 30
-0.0000000000000005
  0
SPLINE
  5
1E1
330
A
100
AcDbEntity
  8
1
390
1D
100
AcDbSpline
210
0.0
220
0.0
230
1.0
 70
     8
 71
     3
 72
     8
 73
     4
 74
     0
 42
0.0000000001
 43
0.0000000001
 40
0.0
 40
0.0
 40
0.0
 40
0.0
 40
1.0
 40
1.0
 40
1.0
 40
1.0
 10
54.555
 20
0.8089146022587101
 30
-0.0000000000000004
 10
54.51833323162737
 20
0.8107029726325551
 30
-0.0000000000000004
 10
54.48166655852162
 20
0.8124524960552435
 30
-0.0000000000000004
 10
54.44499999999999
 20
0.8141628047353037
 30
-0.0000000000000004
  0
SPLINE
  5
1E2
330
A
100
AcDbEntity
  8
1
390
1D
100
AcDbSpline
210
0.0000000000016495
220
0.0000000000435853
230
1.0
 70
     8
 71
     3
 72
     8
 73
     4
 74
     0
 42
0.0000000001
 43
0.0000000001
 40
0.0
 40
0.0
 40
0.0
 40
0.0
 40
1.0
 40
1.0
 40
1.0
 40
1.0
 10
54.05500000000007
 20
0.8308606015124837
 30
-0.0000000000000003
 10
54.01833338002075
 20
0.8322886996011789
 30
-0.0000000000000003
 10
53.98166670997489
 20
0.8336764544693551
 30
-0.0000000000000004
 10
53.94500000000028
 20
0.8350236009702598
 30
-0.0000000000000003
  0
SPLINE
  5
1E3
330
A
100
AcDbEntity
  8
1
390
1D
100
AcDbSpline
210
-0.0000000000024957
220
-0.0000000000901452
230
1.0
 70
     8
 71
     3
 72
     8
 73
     4
 74
     0
 42
0.0000000001
 43
0.0000000001
 40
0.0
 40
0.0
 40
0.0
 40
0.0
 40
1.0
 40
1.0
 40
1.0
 40
1.0
 10
53.55500000000001
 20
0.8478109479946738
 30
-0.0000000000000003
 10
53.51833356163279
 20
0.8488674220860161
 30
-0.0000000000000002
 10
53.481666893306
 20
0.8498825893801154
 30
-0.0000000000000002
 10
53.44500000000005
 20
0.8508563211458408
 30
-0.0000000000000002
  0
SPLINE
  5
1E4
330
A
100
AcDbEntity
  8
1
390
1D
100
AcDbSpline
210
0.0000000000012802
220
0.0000000000736437
230
1.0
 70
     8
 71
     3
 72
     8
 73
     4
 74
     0
 42
0.0000000001
 43
0.0000000001
 40
0.0
 40
0.0
 40
0.0
 40
0.0
 40
1.0
 40
1.0
 40
1.0
 40
1.0
 10
53.05500000000001
 20
0.859646962914212
 30
-0.0000000000000001
 10
53.01833375432146
 20
0.8603259594670475
 30
-0.0000000000000001
 10
52.98166708604646
 20
0.8609633453343121
 30
-0.0000000000000002
 10
52.94499999999999
 20
0.8615591455216531
 30
-0.0000000000000002
  0
SPLINE
  5
1E5
330
A
100
AcDbEntity
  8
1
390
1D
100
AcDbSpline
210
0.0
220
0.0
230
1.0
 70
     8
 71
     3
 72
     8
 73
     4
 74
     0
 42
0.0000000001
 43
0.0000000001
 40
0.0
 40
0.0
 40
0.0
 40
0.0
 40
1.0
 40
1.0
 40
1.0
 40
1.0
 10
52.55500000000001
 20
0.8663312412954269
 30
-0.0000000000000001
 10
52.51833393218765
 20
0.8666332008572794
 30
-0.0000000000000001
 10
52.48166726210651
 20
0.8668939478205857
 30
-0.0000000000000001
 10
52.44500000000005
 20
0.8671136569790292
 30
-0.0000000000000001
  0
SPLINE
  5
1E6
330
A
100
AcDbEntity
  8
1
390
1D
100
AcDbSpline
210
-0.0000000000002837
220
-0.0000000000001978
230
-1.0
 70
     8
 71
     3
 72
     8
 73
     4
 74
     0
 42
0.0000000001
 43
0.0000000001
 40
0.0
 40
0.0
 40
0.0
 40
0.0
 40
1.0
 40
1.0
 40
1.0
 40
1.0
 10
51.40077932591021
 20
0.9446354407623973
 30
0.0
 10
51.36104439249624
 20
1.013515546847259
 30
-0.0000000000000001
 10
51.32131177272221
 20
1.070545962909136
 30
-0.0000000000000002
 10
51.28218722408831
 20
1.114609784489857
 30
-0.0000000000000003
  0
SPLINE
  5
1E7
330
A
100
AcDbEntity
  8
1
390
1D
100
AcDbSpline
210
-0.0000000000309409
220
-0.0000000007276591
230
1.0
 70
     8
 71
     3
 72
     8
 73
     4
 74
     0
 42
0.0000000001
 43
0.0000000001
 40
0.0
 40
0.0
 40
0.0
 40
0.0
 40
1.0
 40
1.0
 40
1.0
 40
1.0
 10
51.28218722408854
 20
1.114609784490084
 30
-0.0000000000000005
 10
51.26072891589502
 20
1.11553994249283
 30
-0.0000000000000003
 10
51.23927077313233
 20
1.116452387875085
 30
-0.0000000000000004
 10
51.21781277591157
 20
1.11734705328081
 30
-0.0000000000000003
  0
SPLINE
  5
1E8
330
A
100
AcDbEntity
  8
1
390
1D
100
AcDbSpline
210
-0.0000000000004926
220
0.0000000000003442
230
1.0
 70
     8
 71
     3
 72
    10
 73
     6
 74
     0
 42
0.0000000001
 43
0.0000000001
 40
0.0
 40
0.0
 40
0.0
 40
0.0
 40
0.8015842344575238
 40
0.8015842344575238
 40
1.0
 40
1.0
 40
1.0
 40
1.0
 10
51.21781277591151
 20
1.11734705328081
 30
-0.0000000000000003
 10
51.19114843184365
 20
1.088855990641774
 30
-0.0000000000000003
 10
51.16444282714553
 20
1.052861838871934
 30
-0.0000000000000002
 10
51.13068663787396
 20
0.9986679274949212
 30
-0.0000000000000001
 10
51.12395427053035
 20
0.9874304507271743
 30
-0.0000000000000001
 10
51.11719465710354
 20
0.9757204361431492
 30
0.0
  0
SPLINE
  5
1E9
330
A
100
AcDbEntity
  8
1
390
1D
100
AcDbSpline
210
0.0000000000005991
220
0.0000000000003914
230
1.0
 70
     8
 71
     3
 72
     8
 73
     4
 74
     0
 42
0.0000000001
 43
0.0000000001
 40
0.0
 40
0.0
 40
0.0
 40
0.0
 40
1.0
 40
1.0
 40
1.0
 40
1.0
 10
50.86646447061963
 20
1.004090255555297
 30
0.0
 10
50.83819075377516
 20
1.053066384566534
 30
-0.0000000000000001
 10
50.81002565057952
 20
1.096215017951579
 30
-0.0000000000000001
 10
50.78218722409104
 20
1.133045567432475
 30
-0.0000000000000002
  0
SPLINE
  5
1EA
330
A
100
AcDbEntity
  8
1
390
1D
100
AcDbSpline
210
-0.0000000000028571
220
-0.000000000096939
230
1.0
 70
     8
 71
     3
 72
     8
 73
     4
 74
     0
 42
0.0000000001
 43
0.0000000001
 40
0.0
 40
0.0
 40
0.0
 40
0.0
 40
1.0
 40
1.0
 40
1.0
 40
1.0
 10
50.78218722408848
 20
1.13304556743651
 30
-0.0000000000000003
 10
50.76072909364746
 20
1.13369631069895
 30
-0.0000000000000003
 10
50.7392709529833
 20
1.134328772572416
 30
-0.0000000000000002
 10
50.71781277591123
 20
1.134942874846786
 30
-0.0000000000000003
  0
SPLINE
  5
1EB
330
A
100
AcDbEntity
  8
1
390
1D
100
AcDbSpline
210
0.0000000000010103
220
-0.0000000000006662
230
-1.0
 70
     8
 71
     3
 72
     8
 73
     4
 74
     0
 42
0.0000000001
 43
0.0000000001
 40
0.0
 40
0.0
 40
0.0
 40
0.0
 40
1.0
 40
1.0
 40
1.0
 40
1.0
 10
50.71781277591151
 20
1.13494287484707
 30
-0.0000000000000003
 10
50.69472009072524
 20
1.105138090275203
 30
-0.0000000000000002
 10
50.67158110663139
 20
1.069945149058525
 30
-0.0000000000000001
 10
50.64818809100967
 20
1.029409544910321
 30
0.0
  0
SPLINE
  5
1EC
330
A
100
AcDbEntity
  8
1
390
1D
100
AcDbSpline
210
-0.0000000000262342
220
-0.0000000002049954
230
1.0
 70
     8
 71
     3
 72
     8
 73
     4
 74
     0
 42
0.0000000001
 43
0.0000000001
 40
0.0
 40
0.0
 40
0.0
 40
0.0
 40
1.0
 40
1.0
 40
1.0
 40
1.0
 10
50.90787210614417
 20
0.3909245442856673
 30
-0.0000000000000012
 10
50.80244965056721
 20
0.404564008633713
 30
-0.0000000000000012
 10
50.69702719499014
 20
0.4180607176673449
 30
-0.0000000000000011
 10
50.59160473941296
 20
0.4313969829096891
 30
-0.000000000000001
  0
SPLINE
  5
1ED
330
A
100
AcDbEntity
  8
1
390
1D
100
AcDbSpline
210
-0.0000000000464967
220
-0.0000000000655571
230
-1.0
 70
     8
 71
     3
 72
    10
 73
     6
 74
     0
 42
0.0000000001
 43
0.0000000001
 40
0.0
 40
0.0
 40
0.0
 40
0.0
 40
0.4999829923414282
 40
0.4999829923414282
 40
1.0
 40
1.0
 40
1.0
 40
1.0
 10
50.90787210614417
 20
0.3909245442856673
 30
-0.0000000000000012
 10
50.91405925950301
 20
0.3866292216914076
 30
-0.0000000000000012
 10
50.92024688737865
 20
0.3822868275225915
 30
-0.0000000000000011
 10
50.9326229414271
 20
0.3735088756000096
 30
-0.0000000000000011
 10
50.9388114729216
 20
0.3690732370631054
 30
-0.0000000000000012
 10
50.945
 20
0.3645917112559687
 30
-0.0000000000000011
  0
SPLINE
  5
1EE
330
A
100
AcDbEntity
  8
1
390
1D
100
AcDbSpline
210
-0.0000000003131176
220
-0.0000000025693534
230
1.0
 70
     8
 71
     3
 72
     8
 73
     4
 74
     0
 42
0.0000000001
 43
0.0000000001
 40
0.0
 40
0.0
 40
0.0
 40
0.0
 40
1.0
 40
1.0
 40
1.0
 40
1.0
 10
50.945
 20
0.3645917112559687
 30
-0.0000000000000011
 10
50.98166608943296
 20
0.3601366941620086
 30
-0.0000000000000012
 10
51.01833276935457
 20
0.3556680253258264
 30
-0.0000000000000011
 10
51.05500000000075
 20
0.3511864967824181
 30
-0.0000000000000012
  0
SPLINE
  5
1EF
330
A
100
AcDbEntity
  8
1
390
1D
100
AcDbSpline
210
0.000000000006398
220
-0.0000000000152308
230
-1.0
 70
     8
 71
     3
 72
    10
 73
     6
 74
     0
 42
0.0000000001
 43
0.0000000001
 40
0.0
 40
0.0
 40
0.0
 40
0.0
 40
0.4999214395103177
 40
0.4999214395103177
 40
1.0
 40
1.0
 40
1.0
 40
1.0
 10
51.05500000000001
 20
0.3511864967827023
 30
-0.0000000000000011
 10
51.06124696448535
 20
0.3540205006750625
 30
-0.0000000000000011
 10
51.06748883642615
 20
0.356747779344289
 30
-0.0000000000000011
 10
51.07996261452809
 20
0.3619878844498885
 30
-0.0000000000000012
 10
51.08619500729549
 20
0.3645008489696124
 30
-0.0000000000000012
 10
51.09242106857692
 20
0.3669054530788003
 30
-0.0000000000000012
  0
SPLINE
  5
1F0
330
A
100
AcDbEntity
  8
1
390
1D
100
AcDbSpline
210
-0.000000000030462
220
-0.0000000002305939
230
1.0
 70
     8
 71
     3
 72
     8
 73
     4
 74
     0
 42
0.0000000001
 43
0.0000000001
 40
0.0
 40
0.0
 40
0.0
 40
0.0
 40
1.0
 40
1.0
 40
1.0
 40
1.0
 10
51.40711729464125
 20
0.3253350521177936
 30
-0.0000000000000012
 10
51.30221855261988
 20
0.3393113561626819
 30
-0.0000000000000013
 10
51.19731981059846
 20
0.353173965205599
 30
-0.0000000000000011
 10
51.09242106857687
 20
0.3669054530788003
 30
-0.0000000000000011
  0
SPLINE
  5
1F1
330
A
100
AcDbEntity
  8
1
390
1D
100
AcDbSpline
210
-0.0000000000092245
220
-0.0000000000156958
230
-1.0
 70
     8
 71
     3
 72
    10
 73
     6
 74
     0
 42
0.0000000001
 43
0.0000000001
 40
0.0
 40
0.0
 40
0.0
 40
0.0
 40
0.4999822212353087
 40
0.4999822212353087
 40
1.0
 40
1.0
 40
1.0
 40
1.0
 10
51.40711729464125
 20
0.3253350521177936
 30
-0.0000000000000012
 10
51.41343024975464
 20
0.321725032774566
 30
-0.0000000000000011
 10
51.4197436850277
 20
0.3180643740395226
 30
-0.0000000000000011
 10
51.43237135048764
 20
0.3106428641246453
 30
-0.0000000000000011
 10
51.43868569300724
 20
0.3068819400454004
 30
-0.0000000000000012
 10
51.44499999999999
 20
0.3030716399869675
 30
-0.0000000000000011
  0
SPLINE
  5
1F2
330
A
100
AcDbEntity
  8
1
390
1D
100
AcDbSpline
210
0.0000000005931317
220
0.0000000047561944
230
1.0
 70
     8
 71
     3
 72
     8
 73
     4
 74
     0
 42
0.0000000001
 43
0.0000000001
 40
0.0
 40
0.0
 40
0.0
 40
0.0
 40
1.0
 40
1.0
 40
1.0
 40
1.0
 10
51.44499999999999
 20
0.3030716399869675
 30
-0.0000000000000012
 10
51.48166608223528
 20
0.2985090575652976
 30
-0.0000000000000011
 10
51.5183327657154
 20
0.2939362506026555
 30
-0.0000000000000012
 10
51.555
 20
0.2893539170664212
 30
-0.0000000000000011
  0
SPLINE
  5
1F3
330
A
100
AcDbEntity
  8
1
390
1D
100
AcDbSpline
210
-0.0000000000325589
220
-0.0000000002404796
230
1.0
 70
     8
 71
     3
 72
     8
 73
     4
 74
     0
 42
0.0000000001
 43
0.0000000001
 40
0.0
 40
0.0
 40
0.0
 40
0.0
 40
1.0
 40
1.0
 40
1.0
 40
1.0
 10
51.90654944234614
 20
0.2580032156827201
 30
-0.0000000000000012
 10
51.80207391879616
 20
0.2722388368258635
 30
-0.0000000000000011
 10
51.69759839524601
 20
0.2863891116635955
 30
-0.0000000000000011
 10
51.59312287169581
 20
0.3004368240981989
 30
-0.0000000000000011
  0
SPLINE
  5
1F4
330
A
100
AcDbEntity
  8
1
390
1D
100
AcDbSpline
210
0.0
220
0.0
230
1.0
 70
     8
 71
     3
 72
     8
 73
     4
 74
     0
 42
0.0000000001
 43
0.0000000001
 40
0.0
 40
0.0
 40
0.0
 40
0.0
 40
1.0
 40
1.0
 40
1.0
 40
1.0
 10
51.94499999999999
 20
0.2402877443316243
 30
-0.0000000000000011
 10
51.98166613674124
 20
0.2356465883748911
 30
-0.0000000000000012
 10
52.01833282479549
 20
0.2309981320343013
 30
-0.0000000000000012
 10
52.055
 20
0.2263429381911806
 30
-0.0000000000000011
  0
SPLINE
  5
1F5
330
A
100
AcDbEntity
  8
1
390
1D
100
AcDbSpline
210
-0.0000000001579129
220
-0.0000000011455395
230
1.0
 70
     8
 71
     3
 72
     9
 73
     5
 74
     0
 42
0.0000000001
 43
0.0000000001
 40
0.0
 40
0.0
 40
0.0
 40
0.0
 40
0.4198826559219584
 40
1.0
 40
1.0
 40
1.0
 40
1.0
 10
52.40630405668657
 20
0.1893264296654138
 30
-0.0000000000000014
 10
52.36253603779108
 20
0.1953859376747573
 30
-0.0000000000000014
 10
52.25829734567503
 20
0.2097929688370641
 30
-0.0000000000000013
 10
52.15405865355882
 20
0.2241351870309245
 30
-0.0000000000000013
 10
52.09358798033815
 20
0.2324302063512391
 30
-0.0000000000000013
  0
SPLINE
  5
1F6
330
A
100
AcDbEntity
  8
1
390
1D
100
AcDbSpline
210
0.0000000046440413
220
0.0000000362160907
230
0.9999999999999992
 70
     8
 71
     3
 72
     8
 73
     4
 74
     0
 42
0.0000000001
 43
0.0000000001
 40
0.0
 40
0.0
 40
0.0
 40
0.0
 40
1.0
 40
1.0
 40
1.0
 40
1.0
 10
52.44499999999999
 20
0.176599350381764
 30
-0.0000000000000012
 10
52.48166630216758
 20
0.1719027322637317
 30
-0.0000000000000012
 10
52.51833299952858
 20
0.1672008202211259
 30
-0.0000000000000011
 10
52.55500000000001
 20
0.1624939221583759
 30
-0.0000000000000011
  0
SPLINE
  5
1F7
330
A
100
AcDbEntity
  8
1
390
1D
100
AcDbSpline
210
-0.000000000061278
220
-0.0000000004393347
230
1.0
 70
     8
 71
     3
 72
     8
 73
     4
 74
     0
 42
0.0000000001
 43
0.0000000001
 40
0.0
 40
0.0
 40
0.0
 40
0.0
 40
1.0
 40
1.0
 40
1.0
 40
1.0
 10
52.90645350068093
 20
0.1197020447258979
 30
-0.0000000000000013
 10
52.80219674203936
 20
0.1342810795278524
 30
-0.0000000000000013
 10
52.69793998339764
 20
0.1488275082429027
 30
-0.0000000000000012
 10
52.59368322475586
 20
0.1633253670942167
 30
-0.0000000000000013
  0
SPLINE
  5
1F8
330
A
100
AcDbEntity
  8
1
390
1D
100
AcDbSpline
210
0.0
220
0.0
230
1.0
 70
     8
 71
     3
 72
     8
 73
     4
 74
     0
 42
0.0000000001
 43
0.0000000001
 40
0.0
 40
0.0
 40
0.0
 40
0.0
 40
1.0
 40
1.0
 40
1.0
 40
1.0
 10
52.94499999999999
 20
0.1122577284925228
 30
-0.0000000000000012
 10
52.98166649983647
 20
0.1075198731766704
 30
-0.0000000000000012
 10
53.01833319256786
 20
0.1027782223095528
 30
-0.0000000000000012
 10
53.05500000000001
 20
0.0980331573475723
 30
-0.0000000000000012
  0
SPLINE
  5
1F9
330
A
100
AcDbEntity
  8
1
390
1D
100
AcDbSpline
210
0.0000000428140098
220
0.000000329394428
230
0.9999999999999447
 70
     8
 71
     3
 72
     8
 73
     4
 74
     0
 42
0.0000000001
 43
0.0000000001
 40
0.0
 40
0.0
 40
0.0
 40
0.0
 40
1.0
 40
1.0
 40
1.0
 40
1.0
 10
53.445
 20
0.0474527105370157
 30
-0.0000000000000012
 10
53.48166663925741
 20
0.0426886462077505
 30
-0.0000000000000012
 10
53.518333327797
 20
0.0379226475149608
 30
-0.0000000000000011
 10
53.55500000000001
 20
0.0331551829379464
 30
-0.0000000000000011
  0
SPLINE
  5
1FA
330
A
100
AcDbEntity
  8
1
390
1D
100
AcDbSpline
210
0.0
220
0.0
230
1.0
 70
     8
 71
     3
 72
     8
 73
     4
 74
     0
 42
0.0000000001
 43
0.0000000001
 40
0.0
 40
0.0
 40
0.0
 40
0.0
 40
1.0
 40
1.0
 40
1.0
 40
1.0
 10
53.94499999999999
 20
-0.0175868635547545
 30
-0.0000000000000012
 10
53.98166672486826
 20
-0.0223585305867005
 30
-0.0000000000000012
 10
54.01833340971888
 20
-0.0271298698999658
 30
-0.0000000000000012
 10
54.055
 20
-0.0319003256147994
 30
-0.0000000000000012
  0
SPLINE
  5
1FB
330
A
100
AcDbEntity
  8
1
390
1D
100
AcDbSpline
210
-0.0000000143611514
220
-0.0000001107682085
230
0.9999999999999939
 70
     8
 71
     3
 72
     8
 73
     4
 74
     0
 42
0.0000000001
 43
0.0000000001
 40
0.0
 40
0.0
 40
0.0
 40
0.0
 40
1.0
 40
1.0
 40
1.0
 40
1.0
 10
54.44499999999999
 20
-0.0825822417750146
 30
-0.0000000000000011
 10
54.48166676316009
 20
-0.0873392528519048
 30
-0.0000000000000013
 10
54.51833344493508
 20
-0.0920932934401435
 30
-0.0000000000000012
 10
54.55500000000045
 20
-0.0968437319910436
 30
-0.0000000000000013
  0
SPLINE
  5
1FC
330
A
100
AcDbEntity
  8
1
390
1D
100
AcDbSpline
210
0.0
220
0.0
230
1.0
 70
     8
 71
     3
 72
     8
 73
     4
 74
     0
 42
0.0000000001
 43
0.0000000001
 40
0.0
 40
0.0
 40
0.0
 40
0.0
 40
1.0
 40
1.0
 40
1.0
 40
1.0
 10
54.94499999999999
 20
-0.1472072690639834
 30
-0.0000000000000012
 10
54.98166676287184
 20
-0.1519241458126999
 30
-0.0000000000000012
 10
55.01833344230585
 20
-0.1566351001978887
 30
-0.0000000000000012
 10
55.05500000000006
 20
-0.161339446487716
 30
-0.0000000000000012
  0
SPLINE
  5
1FD
330
A
100
AcDbEntity
  8
1
390
1D
100
AcDbSpline
210
0.0000000003300586
220
0.0000000026084427
230
1.0
 70
     8
 71
     3
 72
     8
 73
     4
 74
     0
 42
0.0000000001
 43
0.0000000001
 40
0.0
 40
0.0
 40
0.0
 40
0.0
 40
1.0
 40
1.0
 40
1.0
 40
1.0
 10
55.44499999999999
 20
-0.2110972543328558
 30
-0.0000000000000011
 10
55.48166673475657
 20
-0.2157461479938547
 30
-0.0000000000000012
 10
55.51833341268747
 20
-0.2203859685615726
 30
-0.0000000000000011
 10
55.55500000000006
 20
-0.2250160039558296
 30
-0.0000000000000011
  0
SPLINE
  5
1FE
330
A
100
AcDbEntity
  8
1
390
1D
100
AcDbSpline
210
0.0000000012302385
220
0.0000000099373382
230
1.0
 70
     8
 71
     3
 72
     8
 73
     4
 74
     0
 42
0.0000000001
 43
0.0000000001
 40
0.0
 40
0.0
 40
0.0
 40
0.0
 40
1.0
 40
1.0
 40
1.0
 40
1.0
 10
55.945
 20
-0.2738626356182863
 30
-0.0000000000000012
 10
55.9816666910142
 20
-0.2784144571183447
 30
-0.0000000000000012
 10
56.01833336834328
 20
-0.2829539882243353
 30
-0.0000000000000011
 10
56.05500000000006
 20
-0.2874805207687246
 30
-0.000000000000001
  0
SPLINE
  5
1FF
330
A
100
AcDbEntity
  8
1
390
1D
100
AcDbSpline
210
0.0000000001061508
220
0.0000000008825781
230
1.0
 70
     8
 71
     3
 72
     8
 73
     4
 74
     0
 42
0.0000000001
 43
0.0000000001
 40
0.0
 40
0.0
 40
0.0
 40
0.0
 40
1.0
 40
1.0
 40
1.0
 40
1.0
 10
56.44499999999999
 20
-0.3351053942286626
 30
-0.0000000000000011
 10
56.48166664457284
 20
-0.339531064270659
 30
-0.0000000000000012
 10
56.51833332222157
 20
-0.3439412964036706
 30
-0.0000000000000011
 10
56.55500000000007
 20
-0.3483354152090783
 30
-0.0000000000000011
  0
SPLINE
  5
200
330
A
100
AcDbEntity
  8
1
390
1D
100
AcDbSpline
210
-0.0000000011514853
220
-0.0000000099054385
230
1.0
 70
     8
 71
     3
 72
     8
 73
     4
 74
     0
 42
0.0000000001
 43
0.0000000001
 40
0.0
 40
0.0
 40
0.0
 40
0.0
 40
1.0
 40
1.0
 40
1.0
 40
1.0
 10
56.94499999999999
 20
-0.3944359966537832
 30
-0.000000000000001
 10
56.96333331989763
 20
-0.3965718274799883
 30
-0.0000000000000011
 10
56.98166665474577
 20
-0.3987030602324353
 30
-0.000000000000001
 10
57.0
 20
-0.4008296171332972
 30
-0.0000000000000011
  0
SPLINE
  5
201
330
A
100
AcDbEntity
  8
1
390
1D
100
AcDbSpline
210
-0.0000000000000795
220
-0.0000000000006917
230
1.0
 70
     8
 71
     3
 72
     9
 73
     5
 74
     0
 42
0.0000000001
 43
0.0000000001
 40
0.0
 40
0.0
 40
0.0
 40
0.0
 40
0.2714713809116789
 40
1.0
 40
1.0
 40
1.0
 40
1.0
 10
53.14211187905573
 20
0.085115235776982
 30
-0.0000000000000011
 10
52.85307458603774
 20
0.1199249911196034
 30
-0.0000000000000011
 10
51.7883682731748
 20
0.2477702718891237
 30
-0.000000000000001
 10
50.7236619602968
 20
0.3702294086189113
 30
-0.000000000000001
 10
49.9479929404381
 20
0.4499430959046435
 30
-0.0000000000000009
  0
SPLINE
  5
202
330
A
100
AcDbEntity
  8
1
390
1D
100
AcDbSpline
210
-0.0000000000008681
220
-0.0000000000070975
230
1.0
 70
     8
 71
     3
 72
     8
 73
     4
 74
     0
 42
0.0000000001
 43
0.0000000001
 40
0.0
 40
0.0
 40
0.0
 40
0.0
 40
1.0
 40
1.0
 40
1.0
 40
1.0
 10
50.40870233827821
 20
0.4543702977311456
 30
-0.0000000000000011
 10
50.26075884685952
 20
0.4728168791269809
 30
-0.0000000000000011
 10
50.11281535544076
 20
0.4909273430434383
 30
-0.000000000000001
 10
49.96487186402187
 20
0.5086528041402972
 30
-0.0000000000000011
  0
SPLINE
  5
203
330
A
100
AcDbEntity
  8
1
390
1D
100
AcDbSpline
210
-0.0000000002690171
220
-0.0000000022770828
230
1.0
 70
     8
 71
     3
 72
     8
 73
     4
 74
     0
 42
0.0000000001
 43
0.0000000001
 40
0.0
 40
0.0
 40
0.0
 40
0.0
 40
1.0
 40
1.0
 40
1.0
 40
1.0
 10
50.44499999999999
 20
0.4244248795559429
 30
-0.000000000000001
 10
50.48166614407147
 20
0.4201101699333094
 30
-0.000000000000001
 10
50.5183328214614
 20
0.4157780760575633
 30
-0.000000000000001
 10
50.55500000000001
 20
0.4114294394755122
 30
-0.0000000000000011
  0
SPLINE
  5
204
330
A
100
AcDbEntity
  8
1
390
1D
100
AcDbSpline
210
-0.0000000000103351
220
0.0000000000189459
230
1.0
 70
     8
 71
     3
 72
    10
 73
     6
 74
     0
 42
0.0000000001
 43
0.0000000001
 40
0.0
 40
0.0
 40
0.0
 40
0.0
 40
0.4999262651841924
 40
0.4999262651841924
 40
1.0
 40
1.0
 40
1.0
 40
1.0
 10
50.55500000000001
 20
0.4114294394755122
 30
-0.000000000000001
 10
50.56111049278793
 20
0.4149554818794173
 30
-0.0000000000000011
 10
50.56721609680465
 20
0.4183828451384671
 30
-0.0000000000000011
 10
50.57941775090598
 20
0.4250391677613267
 30
-0.000000000000001
 10
50.58551424779859
 20
0.428268313652552
 30
-0.0000000000000011
 10
50.591604739413
 20
0.4313969829096891
 30
-0.0000000000000012
  0
SPLINE
  5
205
330
A
100
AcDbEntity
  8
1
390
1D
100
AcDbSpline
210
0.0000000008104595
220
0.0000000049248851
230
1.0
 70
     8
 71
     3
 72
     8
 73
     4
 74
     0
 42
0.0000000001
 43
0.0000000001
 40
0.0
 40
0.0
 40
0.0
 40
0.0
 40
1.0
 40
1.0
 40
1.0
 40
1.0
 10
51.21781277591151
 20
0.4112545812680537
 30
-0.0000000000000016
 10
51.23927091636352
 20
0.4077293475559713
 30
-0.0000000000000015
 10
51.2607290555921
 20
0.4041980549476989
 30
-0.0000000000000014
 10
51.28218722408854
 20
0.4006608720746386
 30
-0.0000000000000016
  0
SPLINE
  5
206
330
A
100
AcDbEntity
  8
1
390
1D
100
AcDbSpline
210
0.0000000000108549
220
0.0000000000180029
230
1.0
 70
     8
 71
     3
 72
    10
 73
     6
 74
     0
 42
0.0000000001
 43
0.0000000001
 40
0.0
 40
0.0
 40
0.0
 40
0.0
 40
0.4999314539636107
 40
0.4999314539636107
 40
1.0
 40
1.0
 40
1.0
 40
1.0
 10
51.28218722408849
 20
0.4006608720745817
 30
-0.0000000000000015
 10
51.30300400965984
 20
0.3874640258329123
 30
-0.0000000000000015
 10
51.32382409592537
 20
0.3745867343473606
 30
-0.0000000000000014
 10
51.36546887585126
 20
0.3494761210030788
 30
-0.0000000000000013
 10
51.38629502979973
 20
0.3372421190137516
 30
-0.0000000000000013
 10
51.40711729464125
 20
0.3253350521177936
 30
-0.0000000000000012
  0
SPLINE
  5
207
330
A
100
AcDbEntity
  8
1
390
1D
100
AcDbSpline
210
-0.000000000002193
220
0.0000000000062004
230
1.0
 70
     8
 71
     3
 72
    10
 73
     6
 74
     0
 42
0.0000000001
 43
0.0000000001
 40
0.0
 40
0.0
 40
0.0
 40
0.0
 40
0.4999328930999295
 40
0.4999328930999295
 40
1.0
 40
1.0
 40
1.0
 40
1.0
 10
51.09242106857692
 20
0.3669054530788003
 30
-0.0000000000000013
 10
51.11331337311469
 20
0.3749743941104953
 30
-0.0000000000000012
 10
51.13421028432367
 20
0.3827052289919379
 30
-0.0000000000000013
 10
51.17600905477765
 20
0.3974891484819523
 30
-0.0000000000000015
 10
51.1969123504357
 20
0.4045425393325104
 30
-0.0000000000000014
 10
51.21781277591151
 20
0.4112545812680537
 30
-0.0000000000000014
  0
SPLINE
  5
208
330
A
100
AcDbEntity
  8
1
390
1D
100
AcDbSpline
210
0.0000000000132341
220
0.0000000000182762
230
1.0
 70
     8
 71
     3
 72
    10
 73
     6
 74
     0
 42
0.0000000001
 43
0.0000000001
 40
0.0
 40
0.0
 40
0.0
 40
0.0
 40
0.4999325836928625
 40
0.4999325836928625
 40
1.0
 40
1.0
 40
1.0
 40
1.0
 10
50.78218722408848
 20
0.4819336751431251
 30
-0.0000000000000014
 10
50.80313010455654
 20
0.4661449830136918
 30
-0.0000000000000015
 10
50.82407615339127
 20
0.4506647526666258
 30
-0.0000000000000014
 10
50.86597255041425
 20
0.4203262659961525
 30
-0.0000000000000014
 10
50.88692434447466
 20
0.4054671600540587
 30
-0.0000000000000011
 10
50.90787210614417
 20
0.3909245442856673
 30
-0.0000000000000013
  0
SPLINE
  5
209
330
A
100
AcDbEntity
  8
1
390
1D
100
AcDbSpline
210
0.0000000050500888
220
0.0000000316141557
230
0.9999999999999996
 70
     8
 71
     3
 72
     8
 73
     4
 74
     0
 42
0.0000000001
 43
0.0000000001
 40
0.0
 40
0.0
 40
0.0
 40
0.0
 40
1.0
 40
1.0
 40
1.0
 40
1.0
 10
50.71781277591146
 20
0.4922169199722363
 30
-0.0000000000000016
 10
50.73927074056127
 20
0.4887965960937208
 30
-0.0000000000000016
 10
50.76072887890746
 20
0.4853687885620275
 30
-0.0000000000000015
 10
50.78218722408855
 20
0.4819336751431251
 30
-0.0000000000000013
  0
SPLINE
  5
20A
330
A
100
AcDbEntity
  8
1
390
1D
100
AcDbSpline
210
0.0000000000084733
220
-0.0000000000175829
230
-1.0
 70
     8
 71
     3
 72
    10
 73
     6
 74
     0
 42
0.0000000001
 43
0.0000000001
 40
0.0
 40
0.0
 40
0.0
 40
0.0
 40
0.4999338217159361
 40
0.4999338217159361
 40
1.0
 40
1.0
 40
1.0
 40
1.0
 10
50.59160473941296
 20
0.4313969829096891
 30
-0.0000000000000011
 10
50.6126314714586
 20
0.4421983589385833
 30
-0.0000000000000011
 10
50.63366379868422
 20
0.4526680054696612
 30
-0.0000000000000012
 10
50.67573482285724
 20
0.4729422814329496
 30
-0.0000000000000015
 10
50.69677494990992
 20
0.4827473953521917
 30
-0.0000000000000014
 10
50.71781277591151
 20
0.492216919972293
 30
-0.0000000000000014
  0
SPLINE
  5
20B
330
A
100
AcDbEntity
  8
1
390
1D
100
AcDbSpline
210
0.0000000000141707
220
-0.0000000000670698
230
1.0
 70
     8
 71
     3
 72
    10
 73
     6
 74
     0
 42
0.0000000001
 43
0.0000000001
 40
0.0
 40
0.0
 40
0.0
 40
0.0
 40
0.2920822062908017
 40
0.8090711750820883
 40
1.0
 40
1.0
 40
1.0
 40
1.0
 10
43.96793966020964
 20
-1.699993552346426
 30
-0.0000000000000001
 10
43.99998672787678
 20
-1.69313674405049
 30
0.0
 10
44.08876790236927
 20
-1.674207247744448
 30
0.0
 10
44.19854193469997
 20
-1.651064907011801
 30
0.0
 10
44.27626905530457
 20
-1.634783406582641
 30
0.0
 10
44.29723366069918
 20
-1.630399975473324
 30
0.0
  0
SPLINE
  5
20C
330
A
100
AcDbEntity
  8
1
390
1D
100
AcDbSpline
210
0.0
220
0.0
230
1.0
 70
    28
 71
     2
 72
     6
 73
     3
 74
     0
 42
0.0000000001
 43
0.0000000001
 40
0.0
 40
0.0
 40
0.0
 40
1.0
 40
1.0
 40
1.0
 10
57.000000002472
 20
-0.4016995902771098
 30
-0.0000000000000006
 41
0.8471239602530113
 10
57.00000000247203
 20
-0.4333037964644405
 30
-0.0000000000000006
 41
0.9000260973678946
 10
57.00000000247206
 20
-0.4721325902771127
 30
-0.0000000000000006
 41
1.0
  0
SPLINE
  5
20D
330
A
100
AcDbEntity
  8
1
390
1D
100
AcDbSpline
210
0.0000000000569231
220
-0.0000000002013354
230
1.0
 70
     8
 71
     3
 72
     9
 73
     5
 74
     0
 42
0.0000000001
 43
0.0000000001
 40
0.0
 40
0.0
 40
0.0
 40
0.0
 40
0.3441231227740738
 40
1.0
 40
1.0
 40
1.0
 40
1.0
 10
38.73635372483147
 20
-2.995453499674681
 30
-0.0000000000000002
 10
38.76361129344167
 20
-2.987675900137731
 30
-0.0000000000000007
 10
38.84283950722204
 20
-2.965145476726718
 30
-0.0000000000000005
 10
38.92212287762442
 20
-2.942806144714836
 30
-0.0000000000000003
 10
38.97414715593129
 20
-2.928241058938568
 30
-0.0000000000000003
  0
SPLINE
  5
20E
330
A
100
AcDbEntity
  8
1
390
1D
100
AcDbSpline
210
-0.0000000000036523
220
0.0000000000133399
230
-1.0
 70
     8
 71
     3
 72
     9
 73
     5
 74
     0
 42
0.0000000001
 43
0.0000000001
 40
0.0
 40
0.0
 40
0.0
 40
0.0
 40
0.7663489453991334
 40
1.0
 40
1.0
 40
1.0
 40
1.0
 10
39.11436602639219
 20
-2.889214062185828
 30
-0.0000000000000001
 10
39.17158055026801
 20
-2.873384612056667
 30
-0.0000000000000001
 10
39.2462777759514
 20
-2.852872106651375
 30
-0.0000000000000001
 10
39.32102638348425
 20
-2.832556722214292
 30
-0.0000000000000002
 10
39.3384942123356
 20
-2.827820045807015
 30
0.0
  0
SPLINE
  5
20F
330
A
100
AcDbEntity
  8
1
390
1D
100
AcDbSpline
210
-0.0000000001360555
220
-0.0000000000891925
230
1.0
 70
     8
 71
     3
 72
    11
 73
     7
 74
     0
 42
0.0000000001
 43
0.0000000001
 40
0.0
 40
0.0
 40
0.0
 40
0.0
 40
0.9602369304052295
 40
0.9602369304052295
 40
0.9602369304052295
 40
1.0
 40
1.0
 40
1.0
 40
1.0
 10
53.78218722408854
 20
1.010175599429202
 30
0.0000000000000007
 10
53.80309091977818
 20
0.9784954911148702
 30
0.0000000000000008
 10
53.82399660386671
 20
0.9466372393716824
 30
0.0000000000000007
 10
53.84242647840814
 20
0.9183967723449958
 30
0.0000000000000007
 10
53.8449407270226
 20
0.9145441386803611
 30
0.0000000000000007
 10
53.84745457469053
 20
0.9106912434257438
 30
0.0000000000000007
 10
53.84996802139202
 20
0.9068380865416299
 30
0.0000000000000007
  0
SPLINE
  5
210
330
A
100
AcDbEntity
  8
1
390
1D
100
AcDbSpline
210
-0.0000000000000007
220
0.0000000000000465
230
1.0
 70
     8
 71
     3
 72
     8
 73
     4
 74
     0
 42
0.0000000001
 43
0.0000000001
 40
0.0
 40
0.0
 40
0.0
 40
0.0
 40
1.0
 40
1.0
 40
1.0
 40
1.0
 10
57.0
 20
0.7943353450451128
 30
0.0000000000000001
 10
56.47227478217979
 20
0.7933951042681429
 30
0.0000000000000002
 10
55.94454956436959
 20
0.7849983907636329
 30
0.0000000000000003
 10
55.41682434656474
 20
0.7692193172104567
 30
0.0000000000000003
  0
SPLINE
  5
211
330
A
100
AcDbEntity
  8
1
390
1D
100
AcDbSpline
210
0.0
220
0.0
230
1.0
 70
    28
 71
     2
 72
     6
 73
     3
 74
     0
 42
0.0000000001
 43
0.0000000001
 40
0.0
 40
0.0
 40
0.0
 40
1.0
 40
1.0
 40
1.0
 10
57.00000000247206
 20
0.7943353450495465
 30
0.0000000000000001
 41
1.0
 10
57.00000000247211
 20
0.7022757752682206
 30
0.0000000000000001
 41
0.7960830528141808
 10
57.0000000024721
 20
0.640657345049608
 30
0.0
 41
0.7880026952686398
  0
SPLINE
  5
212
330
A
100
AcDbEntity
  8
1
390
1D
100
AcDbSpline
210
0.0
220
0.0
230
1.0
 70
     8
 71
     3
 72
     8
 73
     4
 74
     0
 42
0.0000000001
 43
0.0000000001
 40
0.0
 40
0.0
 40
0.0
 40
0.0
 40
1.0
 40
1.0
 40
1.0
 40
1.0
 10
56.71781277591145
 20
1.148649188289653
 30
0.0000000000000001
 10
56.73927084607822
 20
1.14883246902417
 30
0.0000000000000001
 10
56.76072898505856
 20
1.148997103490501
 30
0.0000000000000001
 10
56.78218722408854
 20
1.149143087644062
 30
0.0000000000000001
  0
SPLINE
  5
213
330
A
100
AcDbEntity
  8
1
390
1D
100
AcDbSpline
210
-0.0000000000000075
220
0.0000000000010178
230
1.0
 70
     8
 71
     3
 72
     8
 73
     4
 74
     0
 42
0.0000000001
 43
0.0000000001
 40
0.0
 40
0.0
 40
0.0
 40
0.0
 40
1.0
 40
1.0
 40
1.0
 40
1.0
 10
56.91277712975818
 20
0.9227501077061221
 30
0.0000000000000001
 10
56.80443031802844
 20
0.9223200556644995
 30
0.0000000000000001
 10
56.69608350629915
 20
0.9215201387166873
 30
0.0000000000000001
 10
56.58773669457021
 20
0.9203528862270788
 30
0.0000000000000002
  0
SPLINE
  5
214
330
A
100
AcDbEntity
  8
1
390
1D
100
AcDbSpline
210
-0.000000000401727
220
0.0000000002288949
230
1.0
 70
     8
 71
     3
 72
    10
 73
     6
 74
     0
 42
0.0000000001
 43
0.0000000001
 40
0.0
 40
0.0
 40
0.0
 40
0.0
 40
0.4999175239638385
 40
0.4999175239638385
 40
1.0
 40
1.0
 40
1.0
 40
1.0
 10
56.58773669457024
 20
0.9203528862270788
 30
0.0000000000000001
 10
56.60939583027015
 20
0.958516710835852
 30
0.0000000000000001
 10
56.63106826795847
 20
0.9966245612628199
 30
0.0000000000000001
 10
56.67443003153568
 20
1.072725690570222
 30
0.0000000000000001
 10
56.69612122293137
 20
1.110722023205539
 30
0.0000000000000001
 10
56.71781277591151
 20
1.148649188289653
 30
0.0
  0
SPLINE
  5
215
330
A
100
AcDbEntity
  8
1
390
1D
100
AcDbSpline
210
-0.0000000064875182
220
-0.0000000037422662
230
1.0
 70
     8
 71
     3
 72
    10
 73
     6
 74
     0
 42
0.0000000001
 43
0.0000000001
 40
0.0
 40
0.0
 40
0.0
 40
0.0
 40
0.4999154825200361
 40
0.4999154825200361
 40
1.0
 40
1.0
 40
1.0
 40
1.0
 10
56.78218722408854
 20
1.14914308764412
 30
0.0000000000000002
 10
56.8039618880963
 20
1.111431761362779
 30
0.0000000000000001
 10
56.82573446846345
 20
1.073708440786788
 30
0.0000000000000001
 10
56.86926822495763
 20
0.9982420481854887
 30
0.0
 10
56.8910313279427
 20
0.9604958343798557
 30
0.0000000000000001
 10
56.91277712975818
 20
0.9227501077061221
 30
0.0000000000000001
  0
SPLINE
  5
216
330
A
100
AcDbEntity
  8
1
390
1D
100
AcDbSpline
210
0.0
220
0.0
230
1.0
 70
    24
 71
     1
 72
     4
 73
     2
 74
     0
 42
0.0000000001
 43
0.0000000001
 40
0.0
 40
0.0
 40
1.0
 40
1.0
 10
54.40845160208278
 20
0.8480992338294301
 30
0.0000000000000006
 10
54.41532836492331
 20
0.8370540426993215
 30
0.0000000000000005
  0
SPLINE
  5
217
330
A
100
AcDbEntity
  8
1
390
1D
100
AcDbSpline
210
-0.000000000761132
220
0.0000000004407676
230
1.0
 70
     8
 71
     3
 72
    11
 73
     7
 74
     0
 42
0.0000000001
 43
0.0000000001
 40
0.0
 40
0.0
 40
0.0
 40
0.0
 40
0.221359895753071
 40
0.221359895753071
 40
0.221359895753071
 40
1.0
 40
1.0
 40
1.0
 40
1.0
 10
54.56708430481552
 20
0.8161608422055721
 30
0.0000000000000005
 10
54.56939698727662
 20
0.820137742042664
 30
0.0000000000000005
 10
54.5717079023543
 20
0.824115668894484
 30
0.0000000000000005
 10
54.57401706784485
 20
0.8280946118818516
 30
0.0000000000000005
 10
54.57916530303794
 20
0.8369655803778073
 30
0.0000000000000004
 10
54.58519775868245
 20
0.8473971809059435
 30
0.0000000000000006
 10
54.59122361896118
 20
0.8578529585657861
 30
0.0000000000000004
  0
SPLINE
  5
218
330
A
100
AcDbEntity
  8
1
390
1D
100
AcDbSpline
210
-0.0000000000003324
220
0.0000000000068733
230
1.0
 70
     8
 71
     3
 72
     8
 73
     4
 74
     0
 42
0.0000000001
 43
0.0000000001
 40
0.0
 40
0.0
 40
0.0
 40
0.0
 40
1.0
 40
1.0
 40
1.0
 40
1.0
 10
54.90935336694939
 20
0.8732366952283427
 30
0.0000000000000004
 10
54.80331011761985
 20
0.8684473630694355
 30
0.0000000000000004
 10
54.69726686829046
 20
0.8633186603687477
 30
0.0000000000000004
 10
54.59122361896118
 20
0.8578529585657861
 30
0.0000000000000005
  0
SPLINE
  5
219
330
A
100
AcDbEntity
  8
1
390
1D
100
AcDbSpline
210
-0.0000000012549578
220
-0.0000000007606416
230
1.0
 70
     8
 71
     3
 72
     8
 73
     4
 74
     0
 42
0.0000000001
 43
0.0000000001
 40
0.0
 40
0.0
 40
0.0
 40
0.0
 40
1.0
 40
1.0
 40
1.0
 40
1.0
 10
54.90935336694939
 20
0.8732366952283427
 30
0.0000000000000005
 10
54.92123261492793
 20
0.8535753136272319
 30
0.0000000000000004
 10
54.93311536832914
 20
0.8339703223756487
 30
0.0000000000000004
 10
54.94499999999999
 20
0.81442447316374
 30
0.0000000000000004
  0
SPLINE
  5
21A
330
A
100
AcDbEntity
  8
1
390
1D
100
AcDbSpline
210
0.0
220
0.0
230
1.0
 70
     8
 71
     3
 72
     8
 73
     4
 74
     0
 42
0.0000000001
 43
0.0000000001
 40
0.0
 40
0.0
 40
0.0
 40
0.0
 40
1.0
 40
1.0
 40
1.0
 40
1.0
 10
54.94499999999999
 20
0.81442447316374
 30
0.0000000000000004
 10
54.98166676287184
 20
0.8160799495244077
 30
0.0000000000000004
 10
55.01833344230585
 20
0.8176985588992238
 30
0.0000000000000004
 10
55.05500000000006
 20
0.819280031359824
 30
0.0000000000000004
  0
SPLINE
  5
21B
330
A
100
AcDbEntity
  8
1
390
1D
100
AcDbSpline
210
0.0
220
0.0
230
1.0
 70
     8
 71
     3
 72
     8
 73
     4
 74
     0
 42
0.0000000001
 43
0.0000000001
 40
0.0
 40
0.0
 40
0.0
 40
0.0
 40
1.0
 40
1.0
 40
1.0
 40
1.0
 10
55.05500000000001
 20
0.8192800313598809
 30
0.0000000000000004
 10
55.06679427479457
 20
0.839808280552404
 30
0.0000000000000004
 10
55.07856828399787
 20
0.8604153025499385
 30
0.0000000000000004
 10
55.09031626861729
 20
0.8810798263242531
 30
0.0000000000000004
  0
SPLINE
  5
21C
330
A
100
AcDbEntity
  8
1
390
1D
100
AcDbSpline
210
-0.0000000000002502
220
0.0000000000065377
230
1.0
 70
     8
 71
     3
 72
     8
 73
     4
 74
     0
 42
0.0000000001
 43
0.0000000001
 40
0.0
 40
0.0
 40
0.0
 40
0.0
 40
1.0
 40
1.0
 40
1.0
 40
1.0
 10
55.41026384040282
 20
0.8933264313931204
 30
0.0000000000000003
 10
55.30361464980746
 20
0.8895904623484511
 30
0.0000000000000004
 10
55.19696545921227
 20
0.8855074565507834
 30
0.0000000000000005
 10
55.09031626861729
 20
0.8810798263242531
 30
0.0000000000000004
  0
SPLINE
  5
21D
330
A
100
AcDbEntity
  8
1
390
1D
100
AcDbSpline
210
0.0
220
0.0
230
1.0
 70
     8
 71
     3
 72
     8
 73
     4
 74
     0
 42
0.0000000001
 43
0.0000000001
 40
0.0
 40
0.0
 40
0.0
 40
0.0
 40
1.0
 40
1.0
 40
1.0
 40
1.0
 10
55.41026384040282
 20
0.8933264313931204
 30
0.0000000000000003
 10
55.42183950775592
 20
0.8737403507007002
 30
0.0000000000000003
 10
55.43341869873508
 20
0.8541937682583693
 30
0.0000000000000003
 10
55.44499999999999
 20
0.8346895339257685
 30
0.0000000000000003
  0
SPLINE
  5
21E
330
A
100
AcDbEntity
  8
1
390
1D
100
AcDbSpline
210
-0.0000000000014847
220
0.000000000042633
230
1.0
 70
     8
 71
     3
 72
     8
 73
     4
 74
     0
 42
0.0000000001
 43
0.0000000001
 40
0.0
 40
0.0
 40
0.0
 40
0.0
 40
1.0
 40
1.0
 40
1.0
 40
1.0
 10
55.44499999999999
 20
0.8346895339257685
 30
0.0000000000000003
 10
55.48166673475657
 20
0.8360045373019033
 30
0.0000000000000004
 10
55.51833341268747
 20
0.8372815310826808
 30
0.0000000000000003
 10
55.55500000000001
 20
0.8385202942104683
 30
0.0000000000000003
  0
SPLINE
  5
21F
330
A
100
AcDbEntity
  8
1
390
1D
100
AcDbSpline
210
0.0000000006879149
220
-0.0000000003896815
230
1.0
 70
     8
 71
     3
 72
     8
 73
     4
 74
     0
 42
0.0000000001
 43
0.0000000001
 40
0.0
 40
0.0
 40
0.0
 40
0.0
 40
1.0
 40
1.0
 40
1.0
 40
1.0
 10
55.55500000000001
 20
0.8385202942104683
 30
0.0000000000000002
 10
55.56649330566984
 20
0.8587356002998944
 30
0.0000000000000003
 10
55.57796713396635
 20
0.8789938370753134
 30
0.0000000000000002
 10
55.58941633417554
 20
0.899275374150477
 30
0.0000000000000003
  0
SPLINE
  5
220
330
A
100
AcDbEntity
  8
1
390
1D
100
AcDbSpline
210
-0.0000000000000976
220
0.0000000000034741
230
1.0
 70
     8
 71
     3
 72
     8
 73
     4
 74
     0
 42
0.0000000001
 43
0.0000000001
 40
0.0
 40
0.0
 40
0.0
 40
0.0
 40
1.0
 40
1.0
 40
1.0
 40
1.0
 10
55.91114488360915
 20
0.9083116890697624
 30
0.0000000000000002
 10
55.80390203379772
 20
0.9056534962069235
 30
0.0000000000000003
 10
55.69665918398653
 20
0.9026405736227616
 30
0.0000000000000003
 10
55.58941633417554
 20
0.899275374150477
 30
0.0000000000000003
  0
SPLINE
  5
221
330
A
100
AcDbEntity
  8
1
390
1D
100
AcDbSpline
210
0.0000000053393895
220
0.0000000031131047
230
-1.0
 70
     8
 71
     3
 72
     8
 73
     4
 74
     0
 42
0.0000000001
 43
0.0000000001
 40
0.0
 40
0.0
 40
0.0
 40
0.0
 40
1.0
 40
1.0
 40
1.0
 40
1.0
 10
55.91114488360915
 20
0.9083116890697624
 30
0.0000000000000003
 10
55.9224268408991
 20
0.8889312360579424
 30
0.0000000000000002
 10
55.93371228701425
 20
0.869574959493093
 30
0.0000000000000002
 10
55.945
 20
0.8502457243713479
 30
0.0000000000000002
  0
SPLINE
  5
222
330
A
100
AcDbEntity
  8
1
390
1D
100
AcDbSpline
210
-0.0000000000023432
220
0.0000000000927555
230
1.0
 70
     8
 71
     3
 72
     8
 73
     4
 74
     0
 42
0.0000000001
 43
0.0000000001
 40
0.0
 40
0.0
 40
0.0
 40
0.0
 40
1.0
 40
1.0
 40
1.0
 40
1.0
 10
55.945
 20
0.8502457243713479
 30
0.0000000000000003
 10
55.9816666910142
 20
0.8512109502872249
 30
0.0000000000000002
 10
56.01833336834335
 20
0.8521372792551458
 30
0.0000000000000002
 10
56.05500000000006
 20
0.8530245564418805
 30
0.0000000000000002
  0
SPLINE
  5
223
330
A
100
AcDbEntity
  8
1
390
1D
100
AcDbSpline
210
0.0
220
0.0
230
1.0
 70
     8
 71
     3
 72
     8
 73
     4
 74
     0
 42
0.0000000001
 43
0.0000000001
 40
0.0
 40
0.0
 40
0.0
 40
0.0
 40
1.0
 40
1.0
 40
1.0
 40
1.0
 10
56.05500000000001
 20
0.8530245564419942
 30
0.0000000000000002
 10
56.06620478169203
 20
0.8728067865209254
 30
0.0000000000000002
 10
56.07739092758146
 20
0.8925995954944596
 30
0.0000000000000002
 10
56.08855383643106
 20
0.91238506780644
 30
0.0000000000000002
  0
SPLINE
  5
224
330
A
100
AcDbEntity
  8
1
390
1D
100
AcDbSpline
210
-0.0000000000000106
220
0.0000000000005971
230
1.0
 70
     8
 71
     3
 72
     8
 73
     4
 74
     0
 42
0.0000000001
 43
0.0000000001
 40
0.0
 40
0.0
 40
0.0
 40
0.0
 40
1.0
 40
1.0
 40
1.0
 40
1.0
 10
56.41198032918874
 20
0.9181376059490276
 30
0.0000000000000002
 10
56.30417149826918
 20
0.9165816051697108
 30
0.0000000000000002
 10
56.19636266734993
 20
0.9146632618309807
 30
0.0000000000000003
 10
56.08855383643099
 20
0.91238506780644
 30
0.0000000000000002
  0
SPLINE
  5
225
330
A
100
AcDbEntity
  8
1
390
1D
100
AcDbSpline
210
0.000000017333058
220
0.0000000100138197
230
-0.9999999999999998
 70
     8
 71
     3
 72
     8
 73
     4
 74
     0
 42
0.0000000001
 43
0.0000000001
 40
0.0
 40
0.0
 40
0.0
 40
0.0
 40
1.0
 40
1.0
 40
1.0
 40
1.0
 10
56.41198032918874
 20
0.9181376059490276
 30
0.0000000000000002
 10
56.42298382547336
 20
0.899074807102238
 30
0.0000000000000001
 10
56.43399073337923
 20
0.880022501950691
 30
0.0000000000000001
 10
56.44499999999999
 20
0.8609835019313436
 30
0.0000000000000001
  0
SPLINE
  5
226
330
A
100
AcDbEntity
  8
1
390
1D
100
AcDbSpline
210
0.0000000000005663
220
-0.0000000000364711
230
1.0
 70
     8
 71
     3
 72
     8
 73
     4
 74
     0
 42
0.0000000001
 43
0.0000000001
 40
0.0
 40
0.0
 40
0.0
 40
0.0
 40
1.0
 40
1.0
 40
1.0
 40
1.0
 10
56.44499999999999
 20
0.8609835019313436
 30
0.0000000000000001
 10
56.48166664457284
 20
0.8615922844348915
 30
0.0000000000000002
 10
56.51833332222157
 20
0.8621615997114417
 30
0.0000000000000001
 10
56.55500000000007
 20
0.8626913665177653
 30
0.0000000000000002
  0
SPLINE
  5
227
330
A
100
AcDbEntity
  8
1
390
1D
100
AcDbSpline
210
0.0
220
0.0
230
1.0
 70
     8
 71
     3
 72
     8
 73
     4
 74
     0
 42
0.0000000001
 43
0.0000000001
 40
0.0
 40
0.0
 40
0.0
 40
0.0
 40
1.0
 40
1.0
 40
1.0
 40
1.0
 10
56.94499999999999
 20
0.8668322032298192
 30
0.0000000000000001
 10
56.96333331989763
 20
0.8669565358816271
 30
0.0000000000000001
 10
56.98166665474577
 20
0.8670709422214031
 30
0.0000000000000001
 10
57.0
 20
0.8671754204218586
 30
0.0000000000000001
  0
SPLINE
  5
228
330
A
100
AcDbEntity
  8
1
390
1D
100
AcDbSpline
210
0.0000000439825077
220
-0.0000000249702018
230
0.9999999999999989
 70
     8
 71
     3
 72
     8
 73
     4
 74
     0
 42
0.0000000001
 43
0.0000000001
 40
0.0
 40
0.0
 40
0.0
 40
0.0
 40
1.0
 40
1.0
 40
1.0
 40
1.0
 10
56.555
 20
0.862691366517879
 30
0.0000000000000001
 10
56.56593138279628
 20
0.8819355719809891
 30
0.0000000000000002
 10
56.57684498628538
 20
0.9011614812498008
 30
0.0000000000000001
 10
56.58773669457024
 20
0.9203528862270788
 30
0.0000000000000002
  0
SPLINE
  5
229
330
A
100
AcDbEntity
  8
1
390
1D
100
AcDbSpline
210
0.0000000722516317
220
0.0000000416351488
230
0.9999999999999966
 70
     8
 71
     3
 72
     8
 73
     4
 74
     0
 42
0.0000000001
 43
0.0000000001
 40
0.0
 40
0.0
 40
0.0
 40
0.0
 40
1.0
 40
1.0
 40
1.0
 40
1.0
 10
56.91277712975818
 20
0.9227501077061221
 30
0.0
 10
56.92351508880932
 20
0.9041114724965952
 30
0.0
 10
56.93425634665653
 20
0.8854712710590318
 30
0.0000000000000001
 10
56.94499999999999
 20
0.8668322032298192
 30
0.0
  0
SPLINE
  5
22A
330
A
100
AcDbEntity
  8
1
390
1D
100
AcDbSpline
210
0.0
220
0.0
230
1.0
 70
    28
 71
     2
 72
     6
 73
     3
 74
     0
 42
0.0000000001
 43
0.0000000001
 40
0.0
 40
0.0
 40
0.0
 40
1.0
 40
1.0
 40
1.0
 10
57.00000000000002
 20
0.867175420421584
 30
0.0000000000000001
 41
0.9997995434526464
 10
56.99999999999995
 20
0.8308100342838116
 30
0.0000000000000001
 41
0.9997694322013408
 10
57.0
 20
0.7943353450451128
 30
0.0000000000000001
 41
1.0
  0
SPLINE
  5
22B
330
A
100
AcDbEntity
  8
1
390
1D
100
AcDbSpline
210
-0.0000000000054592
220
0.0000000002581486
230
1.0
 70
     8
 71
     3
 72
     8
 73
     4
 74
     0
 42
0.0000000001
 43
0.0000000001
 40
0.0
 40
0.0
 40
0.0
 40
0.0
 40
1.0
 40
1.0
 40
1.0
 40
1.0
 10
56.21781277591151
 20
1.141007839343388
 30
0.0000000000000002
 10
56.23927081188629
 20
1.141480175656567
 30
0.0000000000000003
 10
56.26072913250322
 20
1.141933970692889
 30
0.0000000000000002
 10
56.28218722408849
 20
1.142369193112529
 30
0.0000000000000001
  0
SPLINE
  5
22C
330
A
100
AcDbEntity
  8
1
390
1D
100
AcDbSpline
210
-0.0000000009805495
220
0.0000000005543905
230
1.0
 70
     8
 71
     3
 72
    10
 73
     6
 74
     0
 42
0.0000000001
 43
0.0000000001
 40
0.0
 40
0.0
 40
0.0
 40
0.0
 40
0.4999183803662209
 40
0.4999183803662209
 40
1.0
 40
1.0
 40
1.0
 40
1.0
 10
56.08855383643099
 20
0.91238506780644
 30
0.0000000000000002
 10
56.11007936000198
 20
0.9505375472679702
 30
0.0000000000000002
 10
56.13161657007486
 20
0.9886671170904719
 30
0.0000000000000002
 10
56.17470567441291
 20
1.06487720489747
 30
0.0000000000000002
 10
56.19625939609456
 20
1.102960774548876
 30
0.0000000000000001
 10
56.21781277591145
 20
1.14100783934333
 30
0.0000000000000002
  0
SPLINE
  5
22D
330
A
100
AcDbEntity
  8
1
390
1D
100
AcDbSpline
210
-0.0000000002788737
220
-0.000000000161425
230
1.0
 70
     8
 71
     3
 72
    10
 73
     6
 74
     0
 42
0.0000000001
 43
0.0000000001
 40
0.0
 40
0.0
 40
0.0
 40
0.0
 40
0.4999164999167552
 40
0.4999164999167552
 40
1.0
 40
1.0
 40
1.0
 40
1.0
 10
56.28218722408854
 20
1.142369193112755
 30
0.0000000000000002
 10
56.30382708187688
 20
1.105080249487401
 30
0.0000000000000003
 10
56.32546561130164
 20
1.067748209003752
 30
0.0000000000000001
 10
56.36873346139902
 20
0.9930022580963395
 30
0.0000000000000002
 10
56.39036466766481
 20
0.9555852495811334
 30
0.0000000000000002
 10
56.41198032918874
 20
0.9181376059490276
 30
0.0000000000000002
  0
SPLINE
  5
22E
330
A
100
AcDbEntity
  8
1
390
1D
100
AcDbSpline
210
0.0000000000038984
220
-0.0000000001129732
230
1.0
 70
     8
 71
     3
 72
     8
 73
     4
 74
     0
 42
0.0000000001
 43
0.0000000001
 40
0.0
 40
0.0
 40
0.0
 40
0.0
 40
1.0
 40
1.0
 40
1.0
 40
1.0
 10
55.71781277591151
 20
1.126657384726229
 30
0.0000000000000003
 10
55.73927099508773
 20
1.12741616004348
 30
0.0000000000000003
 10
55.76072913298371
 20
1.128156626582835
 30
0.0000000000000004
 10
55.78218722408855
 20
1.128878746183999
 30
0.0000000000000003
  0
SPLINE
  5
22F
330
A
100
AcDbEntity
  8
1
390
1D
100
AcDbSpline
210
0.0
220
0.0
230
1.0
 70
     8
 71
     3
 72
    10
 73
     6
 74
     0
 42
0.0000000001
 43
0.0000000001
 40
0.0
 40
0.0
 40
0.0
 40
0.0
 40
0.4999191930135847
 40
0.4999191930135847
 40
1.0
 40
1.0
 40
1.0
 40
1.0
 10
55.58941633417554
 20
0.899275374150477
 30
0.0000000000000003
 10
55.61080067301612
 20
0.9371563835745178
 30
0.0000000000000003
 10
55.63219509964506
 20
0.9750469968354307
 30
0.0000000000000003
 10
55.67499643477601
 20
1.050843618767032
 30
0.0000000000000003
 10
55.69640513353892
 20
1.088752656838777
 30
0.0000000000000003
 10
55.71781277591151
 20
1.126657384726285
 30
0.0000000000000003
  0
SPLINE
  5
230
330
A
100
AcDbEntity
  8
1
390
1D
100
AcDbSpline
210
0.000000000111147
220
0.0000000000649848
230
-1.0
 70
     8
 71
     3
 72
    10
 73
     6
 74
     0
 42
0.0000000001
 43
0.0000000001
 40
0.0
 40
0.0
 40
0.0
 40
0.0
 40
0.4999174383820524
 40
0.4999174383820524
 40
1.0
 40
1.0
 40
1.0
 40
1.0
 10
55.78218722408855
 20
1.128878746184057
 30
0.0000000000000003
 10
55.80368591282763
 20
1.092260785525581
 30
0.0000000000000002
 10
55.82518400167027
 20
1.055569596732141
 30
0.0000000000000004
 10
55.86817307957471
 20
0.9820451448975402
 30
0.0000000000000003
 10
55.88966591499934
 20
0.9452088454042952
 30
0.0000000000000002
 10
55.91114488360921
 20
0.9083116890697624
 30
0.0000000000000003
  0
SPLINE
  5
231
330
A
100
AcDbEntity
  8
1
390
1D
100
AcDbSpline
210
-0.0000000000076993
220
0.0000000001616028
230
1.0
 70
     8
 71
     3
 72
     8
 73
     4
 74
     0
 42
0.0000000001
 43
0.0000000001
 40
0.0
 40
0.0
 40
0.0
 40
0.0
 40
1.0
 40
1.0
 40
1.0
 40
1.0
 10
55.21781277591145
 20
1.105685652167949
 30
0.0000000000000005
 10
55.23927079820089
 20
1.106725907248688
 30
0.0000000000000003
 10
55.26072893598898
 20
1.10774825782886
 30
0.0000000000000005
 10
55.28218722408849
 20
1.10875264542858
 30
0.0000000000000004
  0
SPLINE
  5
232
330
A
100
AcDbEntity
  8
1
390
1D
100
AcDbSpline
210
-0.0000000032796622
220
0.0000000018616975
230
-1.0
 70
     8
 71
     3
 72
    10
 73
     6
 74
     0
 42
0.0000000001
 43
0.0000000001
 40
0.0
 40
0.0
 40
0.0
 40
0.0
 40
0.499920106759605
 40
0.499920106759605
 40
1.0
 40
1.0
 40
1.0
 40
1.0
 10
55.09031626861729
 20
0.8810798263242531
 30
0.0000000000000003
 10
55.11155311144557
 20
0.9184351053557408
 30
0.0000000000000004
 10
55.13279849422435
 20
0.9558316469620535
 30
0.0000000000000003
 10
55.17529959330261
 20
1.030702958665755
 30
0.0000000000000004
 10
55.19655706077401
 20
1.068180711049308
 30
0.0000000000000004
 10
55.21781277591145
 20
1.105685652167949
 30
0.0000000000000004
  0
SPLINE
  5
233
330
A
100
AcDbEntity
  8
1
390
1D
100
AcDbSpline
210
0.0
220
0.0
230
1.0
 70
     8
 71
     3
 72
    10
 73
     6
 74
     0
 42
0.0000000001
 43
0.0000000001
 40
0.0
 40
0.0
 40
0.0
 40
0.0
 40
0.4999184455614524
 40
0.4999184455614524
 40
1.0
 40
1.0
 40
1.0
 40
1.0
 10
55.28218722408855
 20
1.10875264542858
 30
0.0000000000000004
 10
55.30353720369777
 20
1.073049267375949
 30
0.0000000000000004
 10
55.32488728906599
 20
1.037243779662049
 30
0.0000000000000003
 10
55.36758240423068
 20
0.9654329574511278
 30
0.0000000000000003
 10
55.38892923976231
 20
0.9294246706513149
 30
0.0000000000000004
 10
55.41026384040282
 20
0.8933264313931204
 30
0.0000000000000004
  0
SPLINE
  5
234
330
A
100
AcDbEntity
  8
1
390
1D
100
AcDbSpline
210
0.0000000000514013
220
-0.00000000085037
230
1.0
 70
     8
 71
     3
 72
     8
 73
     4
 74
     0
 42
0.0000000001
 43
0.0000000001
 40
0.0
 40
0.0
 40
0.0
 40
0.0
 40
1.0
 40
1.0
 40
1.0
 40
1.0
 10
54.71781277591145
 20
1.078235556916467
 30
0.0000000000000005
 10
54.73927106700539
 20
1.079550013619666
 30
0.0000000000000004
 10
54.76072920498616
 20
1.080847092170359
 30
0.0000000000000005
 10
54.78218722408854
 20
1.08212671809565
 30
0.0000000000000006
  0
SPLINE
  5
235
330
A
100
AcDbEntity
  8
1
390
1D
100
AcDbSpline
210
0.0000000009050459
220
-0.0000000005198661
230
-1.0
 70
     8
 71
     3
 72
    10
 73
     6
 74
     0
 42
0.0000000001
 43
0.0000000001
 40
0.0
 40
0.0
 40
0.0
 40
0.0
 40
0.4999212233277566
 40
0.4999212233277566
 40
1.0
 40
1.0
 40
1.0
 40
1.0
 10
54.59122361896118
 20
0.8578529585657861
 30
0.0000000000000006
 10
54.6123115681781
 20
0.8944437353372336
 30
0.0000000000000005
 10
54.63340661383377
 20
0.9311061803285269
 30
0.0000000000000006
 10
54.67560502370385
 20
1.004569779222209
 30
0.0000000000000005
 10
54.69671009658032
 20
1.04137384120736
 30
0.0000000000000006
 10
54.71781277591145
 20
1.078235556916467
 30
0.0000000000000004
  0
SPLINE
  5
236
330
A
100
AcDbEntity
  8
1
390
1D
100
AcDbSpline
210
0.0000000001439892
220
0.0000000000876575
230
-1.0
 70
     8
 71
     3
 72
    10
 73
     6
 74
     0
 42
0.0000000001
 43
0.0000000001
 40
0.0
 40
0.0
 40
0.0
 40
0.0
 40
0.4999196248373606
 40
0.4999196248373606
 40
1.0
 40
1.0
 40
1.0
 40
1.0
 10
54.78218722408854
 20
1.08212671809565
 30
0.0000000000000006
 10
54.8033836598359
 20
1.047567385225363
 30
0.0000000000000004
 10
54.82458087800303
 20
1.012878643319141
 30
0.0000000000000005
 10
54.86697222750677
 20
0.9432466048810395
 30
0.0000000000000005
 10
54.88816812060799
 20
0.9083004647011991
 30
0.0000000000000005
 10
54.90935336694939
 20
0.8732366952283427
 30
0.0000000000000004
  0
SPLINE
  5
237
330
A
100
AcDbEntity
  8
1
390
1D
100
AcDbSpline
210
0.0
220
0.0
230
1.0
 70
     8
 71
     3
 72
     8
 73
     4
 74
     0
 42
0.0000000001
 43
0.0000000001
 40
0.0
 40
0.0
 40
0.0
 40
0.0
 40
1.0
 40
1.0
 40
1.0
 40
1.0
 10
54.21781277591145
 20
1.044502385361
 30
0.0000000000000007
 10
54.23927076479339
 20
1.04608161657785
 30
0.0000000000000007
 10
54.26072890324622
 20
1.047644152138844
 30
0.0000000000000007
 10
54.28218722408849
 20
1.049189903112164
 30
0.0000000000000007
  0
SPLINE
  5
238
330
A
100
AcDbEntity
  8
1
390
1D
100
AcDbSpline
210
0.0
220
0.0
230
1.0
 70
     8
 71
     3
 72
    10
 73
     6
 74
     0
 42
0.0000000001
 43
0.0000000001
 40
0.0
 40
0.0
 40
0.0
 40
0.0
 40
0.4999210305368325
 40
0.4999210305368325
 40
1.0
 40
1.0
 40
1.0
 40
1.0
 10
54.28218722408854
 20
1.049189903112392
 30
0.0000000000000006
 10
54.30323167109185
 20
1.0159814512769
 30
0.0000000000000006
 10
54.32427753424196
 20
0.9826181781513696
 30
0.0000000000000006
 10
54.36636803118318
 20
0.9155860235117076
 30
0.0000000000000006
 10
54.38741437895584
 20
0.8819144306748967
 30
0.0000000000000006
 10
54.40845160208278
 20
0.8480992338294301
 30
0.0000000000000006
  0
SPLINE
  5
239
330
A
100
AcDbEntity
  8
1
390
1D
100
AcDbSpline
210
0.0000000005936447
220
-0.0000000003470369
230
1.0
 70
     8
 71
     3
 72
    10
 73
     6
 74
     0
 42
0.0000000001
 43
0.0000000001
 40
0.0
 40
0.0
 40
0.0
 40
0.0
 40
0.3635423406455051
 40
0.3635423406455051
 40
1.0
 40
1.0
 40
1.0
 40
1.0
 10
54.11902480926187
 20
0.8754945193891785
 30
0.0000000000000006
 10
54.13099499869678
 20
0.8958907044964234
 30
0.0000000000000006
 10
54.14296627665003
 20
0.9163185639679339
 30
0.0000000000000006
 10
54.17589582485459
 20
0.9725927683597888
 30
0.0000000000000007
 10
54.1968557715353
 20
1.008504217562687
 30
0.0000000000000006
 10
54.21781277591145
 20
1.044502385361
 30
0.0000000000000007
  0
SPLINE
  5
23A
330
A
100
AcDbEntity
  8
1
390
1D
100
AcDbSpline
210
0.0
220
0.0
230
1.0
 70
     8
 71
     3
 72
     8
 73
     4
 74
     0
 42
0.0000000001
 43
0.0000000001
 40
0.0
 40
0.0
 40
0.0
 40
0.0
 40
1.0
 40
1.0
 40
1.0
 40
1.0
 10
53.71781277591164
 20
1.004724308619131
 30
0.0000000000000008
 10
53.73927101092015
 20
1.006557413498682
 30
0.0000000000000007
 10
53.76072915014543
 20
1.008374542000296
 30
0.0000000000000007
 10
53.78218722408849
 20
1.010175599429202
 30
0.0000000000000008
  0
SPLINE
  5
23B
330
A
100
AcDbEntity
  8
1
390
1D
100
AcDbSpline
210
0.0000000036528765
220
-0.0000000021825873
230
1.0
 70
     8
 71
     3
 72
     8
 73
     4
 74
     0
 42
0.0000000001
 43
0.0000000001
 40
0.0
 40
0.0
 40
0.0
 40
0.0
 40
1.0
 40
1.0
 40
1.0
 40
1.0
 10
53.67449857297907
 20
0.9322317365186449
 30
0.0000000000000007
 10
53.68893729038433
 20
0.9563393095797325
 30
0.0000000000000007
 10
53.70337584104827
 20
0.9805044110728999
 30
0.0000000000000007
 10
53.71781277591168
 20
1.004724308619473
 30
0.0000000000000009
  0
LINE
  5
23C
330
A
100
AcDbEntity
  8
SK4
390
1D
100
AcDbLine
 10
-0.125
 20
0.0
 30
0.0
 11
57.125
 21
0.0
 31
0.0
  0
LINE
  5
23E
330
A
100
AcDbEntity
  8
4
390
1D
100
AcDbLine
 10
35.875
 20
0.0
 30
0.0
 11
57.125
 21
0.0
 31
0.0
  0
DIMENSION
  5
24B
330
A
100
AcDbEntity
  8
2
390
1D
100
AcDbDimension
  2
_D0
 10
57.0
 20
78.43
 30
0.0
 11
46.5
 21
79.5
 31
0.0
 70
    33
  1
 <> 
 71
     5
 42
-1.0
  3
Standard
100
AcDbAlignedDimension
 13
36.0
 23
0.0
 33
0.0
 14
57.0
 24
0.0
 34
0.0
1001
ACAD
1000
DSTYLE
1002
{
1070
   271
1070
     3
1070
   272
1070
     3
1070
    77
1070
     1
1070
    73
1070
     0
1070
   179
1070
     3
1070
   171
1070
     3
1070
   274
1070
     3
1070
   177
1070
     7
1070
   176
1070
     7
1070
   178
1070
     7
1070
    78
1070
     8
1070
    47
1040
0.005
1070
    48
1040
-0.005
1070
    41
1040
4.57
1070
   147
1040
1.5
1070
    42
1040
0.0
1070
    44
1040
3.5
1070
   140
1040
4.57
1070
     6
1000
_CLOSEDFILLED
1070
     7
1000
_CLOSEDFILLED
1002
}
  0
DIMENSION
  5
256
330
A
100
AcDbEntity
  8
2
390
1D
100
AcDbDimension
  2
_D1
 10
101.13
 20
20.173094
 30
0.0
 11
101.13
 21
20.173094
 31
0.0
 70
    32
  1
%%c <> 
 71
     0
 72
     0
 41
0.0
 42
-1.0
 53
90.0
  3
Standard
100
AcDbAlignedDimension
 13
57.0
 23
1.149999999999999
 33
0.0
 14
57.0
 24
-1.149999999999999
 34
0.0
 50
90.0
100
AcDbRotatedDimension
1001
ACAD
1000
DSTYLE
1002
{
1070
   271
1070
     3
1070
   272
1070
     3
1070
    77
1070
     1
1070
    73
1070
     0
1070
   179
1070
     3
1070
   177
1070
     7
1070
   176
1070
     7
1070
   178
1070
     7
1070
    78
1070
     8
1070
    47
1040
0.005
1070
    48
1040
-0.005
1070
    41
1040
4.57
1070
   147
1040
1.5
1070
    42
1040
0.0
1070
    44
1040
2.0
1070
   140
1040
4.57
1070
     6
1000
_CLOSEDFILLED
1070
     7
1000
_CLOSEDFILLED
1002
}
  0
DIMENSION
  5
262
330
A
100
AcDbEntity
  8
SK2
390
1D
100
AcDbDimension
  2
_D2
 10
-20.5
 20
17.043698
 30
0.0
 11
-20.5
 21
17.043698
 31
0.0
 70
    32
  1
%%c <> 
 71
     0
 72
     0
 41
0.0
 42
-1.0
 53
90.0
  3
Standard
100
AcDbAlignedDimension
 13
0.4
 23
3.0
 33
0.0
 14
0.4
 24
-3.0
 34
0.0
 50
90.0
100
AcDbRotatedDimension
1001
ACAD
1000
DSTYLE
1002
{
1070
   271
1070
     3
1070
   272
1070
     3
1070
    77
1070
     1
1070
    73
1070
     0
1070
   179
1070
     3
1070
   171
1070
     3
1070
   274
1070
     3
1070
   177
1070
     7
1070
   176
1070
     7
1070
   178
1070
     7
1070
    78
1070
     8
1070
    47
1040
0.005
1070
    48
1040
-0.005
1070
    41
1040
4.57
1070
   147
1040
1.5
1070
    42
1040
0.0
1070
    44
1040
3.5
1070
   140
1040
4.57
1070
     6
1000
_CLOSEDFILLED
1070
     7
1000
_CLOSEDFILLED
1002
}
  0
DIMENSION
  5
26C
330
A
100
AcDbEntity
  8
2
390
1D
100
AcDbDimension
  2
_D3
 10
72.800292
 20
64.5
 30
0.0
 11
72.800292
 21
64.5
 31
0.0
 70
    32
  1
 <> 
 71
     5
 42
-1.0
  3
Standard
100
AcDbAlignedDimension
 13
57.0
 23
0.0
 33
0.0
 14
41.29999999999999
 24
0.0
 34
0.0
100
AcDbRotatedDimension
1001
ACAD
1000
DSTYLE
1002
{
1070
   271
1070
     3
1070
   272
1070
     3
1070
    77
1070
     1
1070
    73
1070
     0
1070
   179
1070
     3
1070
   171
1070
     3
1070
   274
1070
     3
1070
   177
1070
     7
1070
   176
1070
     7
1070
   178
1070
     7
1070
    78
1070
     8
1070
    47
1040
0.005
1070
    48
1040
-0.005
1070
    41
1040
4.57
1070
   147
1040
1.5
1070
    42
1040
0.0
1070
    44
1040
3.5
1070
   140
1040
4.57
1070
     6
1000
_CLOSEDFILLED
1070
     7
1000
_CLOSEDFILLED
1002
}
  0
DIMENSION
  5
276
330
A
100
AcDbEntity
  8
SK2
390
1D
100
AcDbDimension
  2
_D4
 10
28.5
 20
94.50000000000001
 30
0.0
 11
28.5
 21
94.50000000000001
 31
0.0
 70
    32
  1
 <> 
 71
     5
 42
-1.0
  3
Standard
100
AcDbAlignedDimension
 13
0.0
 23
0.0
 33
0.0
 14
57.0
 24
0.0
 34
0.0
100
AcDbRotatedDimension
1001
ACAD
1000
DSTYLE
1002
{
1070
   271
1070
     3
1070
   272
1070
     3
1070
    77
1070
     1
1070
    73
1070
     0
1070
   179
1070
     3
1070
   177
1070
     7
1070
   176
1070
     7
1070
   178
1070
     7
1070
    78
1070
     8
1070
    47
1040
0.005
1070
    48
1040
-0.005
1070
    41
1040
4.57
1070
   147
1040
1.5
1070
    42
1040
0.0
1070
    44
1040
2.0
1070
   140
1040
4.57
1070
     6
1000
_CLOSEDFILLED
1070
     7
1000
_CLOSEDFILLED
1002
}
  0
DIMENSION
  5
280
330
A
100
AcDbEntity
  8
2
390
1D
100
AcDbDimension
  2
_D5
 10
70.310594
 20
49.500007
 30
0.0
 11
70.310594
 21
49.500007
 31
0.0
 70
    32
  1
 <> 
 71
     5
 42
-1.0
  3
Standard
100
AcDbAlignedDimension
 13
50.5
 23
0.0
 33
0.0
 14
57.0
 24
0.0
 34
0.0
100
AcDbRotatedDimension
1001
ACAD
1000
DSTYLE
1002
{
1070
   271
1070
     3
1070
   272
1070
     3
1070
    77
1070
     1
1070
    73
1070
     0
1070
   179
1070
     3
1070
   177
1070
     7
1070
   176
1070
     7
1070
   178
1070
     7
1070
    78
1070
     8
1070
    47
1040
0.005
1070
    48
1040
-0.005
1070
    41
1040
4.57
1070
   147
1040
1.5
1070
    42
1040
0.0
1070
    44
1040
2.0
1070
   140
1040
4.57
1070
     6
1000
_CLOSEDFILLED
1070
     7
1000
_CLOSEDFILLED
1002
}
  0
ENDSEC
  0
SECTION
  2
OBJECTS
  0
DICTIONARY
  5
19
330
0
100
AcDbDictionary
281
     1
  3
ACAD_COLOR
350
2F7
  3
ACAD_GROUP
350
1A
  3
ACAD_LAYOUT
350
1E
  3
ACAD_MATERIAL
350
2CA
  3
ACAD_MLEADERSTYLE
350
2C6
  3
ACAD_MLINESTYLE
350
1B
  3
ACAD_PLOTSETTINGS
350
22
  3
ACAD_PLOTSTYLENAME
350
1F
  3
ACAD_SCALELIST
350
299
  3
ACAD_TABLESTYLE
350
2F8
  3
ACAD_VISUALSTYLE
350
2E3
  3
ACAD_WIPEOUT_VARS
350
23
  3
ACDB_RECOMPOSE_DATA
350
31B
  3
AcDbVariableDictionary
350
2C4
  3
ASE_INDEX_DICTIONARY
350
310
  3
DWGPROPS
350
31C
  0
DICTIONARY
  5
2FD
330
14
100
AcDbDictionary
280
     1
281
     1
  3
ADSK_XREC_LAYER_RECONCILED
360
2FE
  0
DICTIONARY
  5
2FF
330
2BC
100
AcDbDictionary
280
     1
281
     1
  3
ADSK_XREC_LAYER_RECONCILED
360
300
  0
DICTIONARY
  5
301
330
2BD
100
AcDbDictionary
280
     1
281
     1
  3
ADSK_XREC_LAYER_RECONCILED
360
302
  0
DICTIONARY
  5
303
330
2BE
100
AcDbDictionary
280
     1
281
     1
  3
ADSK_XREC_LAYER_RECONCILED
360
304
  0
DICTIONARY
  5
305
330
2BF
100
AcDbDictionary
280
     1
281
     1
  3
ADSK_XREC_LAYER_RECONCILED
360
306
  0
DICTIONARY
  5
307
330
2C0
100
AcDbDictionary
280
     1
281
     1
  3
ADSK_XREC_LAYER_RECONCILED
360
308
  0
DICTIONARY
  5
309
330
2C1
100
AcDbDictionary
280
     1
281
     1
  3
ADSK_XREC_LAYER_RECONCILED
360
30A
  0
DICTIONARY
  5
30B
330
2C2
100
AcDbDictionary
280
     1
281
     1
  3
ADSK_XREC_LAYER_RECONCILED
360
30C
  0
DICTIONARY
  5
30D
330
2C3
100
AcDbDictionary
280
     1
281
     1
  3
ADSK_XREC_LAYER_RECONCILED
360
30E
  0
DICTIONARY
  5
2F7
102
{ACAD_REACTORS
330
19
102
}
330
19
100
AcDbDictionary
281
     1
  0
DICTIONARY
  5
1A
102
{ACAD_REACTORS
330
19
102
}
330
19
100
AcDbDictionary
281
     1
  0
DICTIONARY
  5
1E
102
{ACAD_REACTORS
330
19
102
}
330
19
100
AcDbDictionary
281
     1
  3
Layout1
350
21
  3
Model
350
20
  0
DICTIONARY
  5
2CA
102
{ACAD_REACTORS
330
19
102
}
330
19
100
AcDbDictionary
281
     1
  3
ByBlock
350
2D3
  3
ByLayer
350
2CB
  3
Global
350
2DB
  0
DICTIONARY
  5
2C6
102
{ACAD_REACTORS
330
19
102
}
330
19
100
AcDbDictionary
281
     1
  3
Standard
350
2FA
  0
DICTIONARY
  5
1B
102
{ACAD_REACTORS
330
19
102
}
330
19
100
AcDbDictionary
281
     1
  3
Standard
350
1C
  0
DICTIONARY
  5
22
102
{ACAD_REACTORS
330
19
102
}
330
19
100
AcDbDictionary
281
     1
  0
ACDBDICTIONARYWDFLT
  5
1F
102
{ACAD_REACTORS
330
19
102
}
330
19
100
AcDbDictionary
281
     1
  3
Normal
350
1D
100
AcDbDictionaryWithDefault
340
1D
  0
DICTIONARY
  5
299
102
{ACAD_REACTORS
330
19
102
}
330
19
100
AcDbDictionary
281
     1
  3
A0
350
29A
  3
A1
350
29B
  3
A2
350
29C
  3
A3
350
29D
  3
A4
350
29E
  3
A5
350
29F
  3
A6
350
2A0
  3
A7
350
2A1
  3
A8
350
2A2
  3
A9
350
2A3
  3
B0
350
2A4
  3
B1
350
2A5
  3
B2
350
2A6
  3
B3
350
2A7
  3
B4
350
2A8
  3
B5
350
2A9
  3
B6
350
2AA
  3
B7
350
2AB
  3
B8
350
2AC
  3
B9
350
2AD
  3
C0
350
2AE
  3
C1
350
2AF
  3
C2
350
2B0
  3
C3
350
2B1
  3
C4
350
2B2
  3
C5
350
2B3
  3
C6
350
2B4
  3
C7
350
2B5
  3
C8
350
2B6
  3
C9
350
2B7
  3
D0
350
2B8
  3
D1
350
2B9
  3
D2
350
2BA
  0
DICTIONARY
  5
2F8
102
{ACAD_REACTORS
330
19
102
}
330
19
100
AcDbDictionary
281
     1
  3
Standard
350
2F9
  0
DICTIONARY
  5
2E3
102
{ACAD_REACTORS
330
19
102
}
330
19
100
AcDbDictionary
281
     1
  3
2dWireframe
350
2E9
  3
3D Hidden
350
2EB
  3
3dWireframe
350
2EA
  3
Basic
350
2E8
  3
Brighten
350
2EF
  3
ColorChange
350
2F3
  3
Conceptual
350
2EC
  3
Dim
350
2EE
  3
EdgeColorOff
350
2F6
  3
Facepattern
350
2F2
  3
Flat
350
2E4
  3
FlatWithEdges
350
2E5
  3
Gouraud
350
2E6
  3
GouraudWithEdges
350
2E7
  3
JitterOff
350
2F4
  3
Linepattern
350
2F1
  3
OverhangOff
350
2F5
  3
Realistic
350
2ED
  3
Thicken
350
2F0
  0
WIPEOUTVARIABLES
  5
23
330
19
100
AcDbWipeoutVariables
 70
     1
  0
XRECORD
  5
31B
102
{ACAD_REACTORS
330
19
102
}
330
19
100
AcDbXrecord
280
     1
 90
        1
330
2F9
  0
DICTIONARY
  5
2C4
102
{ACAD_REACTORS
330
19
102
}
330
19
100
AcDbDictionary
281
     1
  3
CANNOSCALE
350
2C7
  3
CMLEADERSTYLE
350
314
  3
CTABLESTYLE
350
313
  3
DIMASSOC
350
317
  3
INDEXCTL
350
316
  3
SORTENTS
350
315
  3
XCLIPFRAME
350
318
  0
DICTIONARY
  5
310
102
{ACAD_REACTORS
330
19
102
}
330
19
100
AcDbDictionary
281
     1
  3
ASEBlockHierarchyIndexRecord
350
312
1001
DCO15
1040
1871111972.954
  0
XRECORD
  5
31C
102
{ACAD_REACTORS
330
19
102
}
330
19
100
AcDbXrecord
280
     1
  1
DWGPROPS COOKIE
  2

  3

  4

  6

  7

  8
tdm012
  9

300
=
301
=
302
=
303
=
304
=
305
=
306
=
307
=
308
=
309
=
 40
0.0016832175925926
 41
2457459.598744769
 42
2457459.600427708
  1

 90
        0
  0
XRECORD
  5
2FE
102
{ACAD_REACTORS
330
2FD
102
}
330
2FD
100
AcDbXrecord
280
     1
290
     1
  0
XRECORD
  5
300
102
{ACAD_REACTORS
330
2FF
102
}
330
2FF
100
AcDbXrecord
280
     1
290
     1
  0
XRECORD
  5
302
102
{ACAD_REACTORS
330
301
102
}
330
301
100
AcDbXrecord
280
     1
290
     1
  0
XRECORD
  5
304
102
{ACAD_REACTORS
330
303
102
}
330
303
100
AcDbXrecord
280
     1
290
     1
  0
XRECORD
  5
306
102
{ACAD_REACTORS
330
305
102
}
330
305
100
AcDbXrecord
280
     1
290
     1
  0
XRECORD
  5
308
102
{ACAD_REACTORS
330
307
102
}
330
307
100
AcDbXrecord
280
     1
290
     1
  0
XRECORD
  5
30A
102
{ACAD_REACTORS
330
309
102
}
330
309
100
AcDbXrecord
280
     1
290
     1
  0
XRECORD
  5
30C
102
{ACAD_REACTORS
330
30B
102
}
330
30B
100
AcDbXrecord
280
     1
290
     1
  0
XRECORD
  5
30E
102
{ACAD_REACTORS
330
30D
102
}
330
30D
100
AcDbXrecord
280
     1
290
     1
  0
LAYOUT
  5
21
102
{ACAD_XDICTIONARY
360
31F
102
}
102
{ACAD_REACTORS
330
1E
102
}
330
1E
100
AcDbPlotSettings
  1

  2

  4

  6

 40
0.0
 41
0.0
 42
0.0
 43
0.0
 44
0.0
 45
0.0
 46
0.0
 47
0.0
 48
0.0
 49
0.0
140
0.0
141
0.0
142
1.0
143
1.0
 70
     0
 72
     0
 73
     0
 74
     0
  7

 75
     0
147
1.0
148
0.0
149
0.0
100
AcDbLayout
  1
Layout1
 70
     0
 71
     1
 10
-0.5
 20
-0.5
 11
5.0
 21
5.0
 12
0.0
 22
0.0
 32
0.0
 14
-0.5
 24
-0.5
 34
-0.5
 15
5.0
 25
5.0
 35
5.0
146
0.0
 13
0.0
 23
0.0
 33
0.0
 16
1.0
 26
0.0
 36
0.0
 17
0.0
 27
1.0
 37
0.0
 76
     0
330
B
  0
LAYOUT
  5
20
102
{ACAD_XDICTIONARY
360
31D
102
}
102
{ACAD_REACTORS
330
1E
102
}
330
1E
100
AcDbPlotSettings
  1

  2

  4

  6

 40
0.0
 41
0.0
 42
0.0
 43
0.0
 44
0.0
 45
0.0
 46
0.0
 47
0.0
 48
0.0
 49
0.0
140
0.0
141
0.0
142
1.0
143
1.0
 70
  1024
 72
     0
 73
     0
 74
     0
  7

 75
     0
147
1.0
148
0.0
149
0.0
100
AcDbLayout
  1
Model
 70
     0
 71
     0
 10
0.0
 20
0.0
 11
0.0
 21
0.0
 12
0.0
 22
0.0
 32
0.0
 14
-22.83260433333333
 24
-14.425
 34
-0.0000000000000044
 15
108.8425
 25
96.83260433333334
 35
0.0000000000000009
146
0.0
 13
0.0
 23
0.0
 33
0.0
 16
0.0
 26
0.0
 36
0.0
 17
0.0
 27
0.0
 37
0.0
 76
     0
330
A
331
289
  0
MATERIAL
  5
2D3
102
{ACAD_XDICTIONARY
360
2D4
102
}
102
{ACAD_REACTORS
330
2CA
102
}
330
2CA
100
AcDbMaterial
  1
ByBlock
 72
     0
 43
0.0208333333333333
 43
0.0
 43
0.0
 43
0.0
 43
0.0
 43
0.0208333333333333
 43
0.0
 43
0.0
 43
0.0
 43
0.0
 43
1.0
 43
0.0
 43
0.0
 43
0.0
 43
0.0
 43
1.0
 77
     0
 47
0.0208333333333333
 47
0.0
 47
0.0
 47
0.0
 47
0.0
 47
0.0208333333333333
 47
0.0
 47
0.0
 47
0.0
 47
0.0
 47
1.0
 47
0.0
 47
0.0
 47
0.0
 47
0.0
 47
1.0
171
     0
 49
0.0208333333333333
 49
0.0
 49
0.0
 49
0.0
 49
0.0
 49
0.0208333333333333
 49
0.0
 49
0.0
 49
0.0
 49
0.0
 49
1.0
 49
0.0
 49
0.0
 49
0.0
 49
0.0
 49
1.0
175
     0
142
0.0208333333333333
142
0.0
142
0.0
142
0.0
142
0.0
142
0.0208333333333333
142
0.0
142
0.0
142
0.0
142
0.0
142
1.0
142
0.0
142
0.0
142
0.0
142
0.0
142
1.0
179
     0
144
0.0208333333333333
144
0.0
144
0.0
144
0.0
144
0.0
144
0.0208333333333333
144
0.0
144
0.0
144
0.0
144
0.0
144
1.0
144
0.0
144
0.0
144
0.0
144
0.0
144
1.0
147
0.0208333333333333
147
0.0
147
0.0
147
0.0
147
0.0
147
0.0208333333333333
147
0.0
147
0.0
147
0.0
147
0.0
147
1.0
147
0.0
147
0.0
147
0.0
147
0.0
147
1.0
  0
MATERIAL
  5
2CB
102
{ACAD_XDICTIONARY
360
2CC
102
}
102
{ACAD_REACTORS
330
2CA
102
}
330
2CA
100
AcDbMaterial
  1
ByLayer
 72
     0
 43
0.0208333333333333
 43
0.0
 43
0.0
 43
0.0
 43
0.0
 43
0.0208333333333333
 43
0.0
 43
0.0
 43
0.0
 43
0.0
 43
1.0
 43
0.0
 43
0.0
 43
0.0
 43
0.0
 43
1.0
 77
     0
 47
0.0208333333333333
 47
0.0
 47
0.0
 47
0.0
 47
0.0
 47
0.0208333333333333
 47
0.0
 47
0.0
 47
0.0
 47
0.0
 47
1.0
 47
0.0
 47
0.0
 47
0.0
 47
0.0
 47
1.0
171
     0
 49
0.0208333333333333
 49
0.0
 49
0.0
 49
0.0
 49
0.0
 49
0.0208333333333333
 49
0.0
 49
0.0
 49
0.0
 49
0.0
 49
1.0
 49
0.0
 49
0.0
 49
0.0
 49
0.0
 49
1.0
175
     0
142
0.0208333333333333
142
0.0
142
0.0
142
0.0
142
0.0
142
0.0208333333333333
142
0.0
142
0.0
142
0.0
142
0.0
142
1.0
142
0.0
142
0.0
142
0.0
142
0.0
142
1.0
179
     0
144
0.0208333333333333
144
0.0
144
0.0
144
0.0
144
0.0
144
0.0208333333333333
144
0.0
144
0.0
144
0.0
144
0.0
144
1.0
144
0.0
144
0.0
144
0.0
144
0.0
144
1.0
147
0.0208333333333333
147
0.0
147
0.0
147
0.0
147
0.0
147
0.0208333333333333
147
0.0
147
0.0
147
0.0
147
0.0
147
1.0
147
0.0
147
0.0
147
0.0
147
0.0
147
1.0
  0
MATERIAL
  5
2DB
102
{ACAD_XDICTIONARY
360
2DC
102
}
102
{ACAD_REACTORS
330
2CA
102
}
330
2CA
100
AcDbMaterial
  1
Global
 72
     0
 43
0.0208333333333333
 43
0.0
 43
0.0
 43
0.0
 43
0.0
 43
0.0208333333333333
 43
0.0
 43
0.0
 43
0.0
 43
0.0
 43
1.0
 43
0.0
 43
0.0
 43
0.0
 43
0.0
 43
1.0
 77
     0
 47
0.0208333333333333
 47
0.0
 47
0.0
 47
0.0
 47
0.0
 47
0.0208333333333333
 47
0.0
 47
0.0
 47
0.0
 47
0.0
 47
1.0
 47
0.0
 47
0.0
 47
0.0
 47
0.0
 47
1.0
171
     0
 49
0.0208333333333333
 49
0.0
 49
0.0
 49
0.0
 49
0.0
 49
0.0208333333333333
 49
0.0
 49
0.0
 49
0.0
 49
0.0
 49
1.0
 49
0.0
 49
0.0
 49
0.0
 49
0.0
 49
1.0
175
     0
142
0.0208333333333333
142
0.0
142
0.0
142
0.0
142
0.0
142
0.0208333333333333
142
0.0
142
0.0
142
0.0
142
0.0
142
1.0
142
0.0
142
0.0
142
0.0
142
0.0
142
1.0
179
     0
144
0.0208333333333333
144
0.0
144
0.0
144
0.0
144
0.0
144
0.0208333333333333
144
0.0
144
0.0
144
0.0
144
0.0
144
1.0
144
0.0
144
0.0
144
0.0
144
0.0
144
1.0
147
0.0208333333333333
147
0.0
147
0.0
147
0.0
147
0.0
147
0.0208333333333333
147
0.0
147
0.0
147
0.0
147
0.0
147
1.0
147
0.0
147
0.0
147
0.0
147
0.0
147
1.0
  0
MLEADERSTYLE
  5
2FA
102
{ACAD_REACTORS
330
2C6
102
}
330
2C6
100
AcDbMLeaderStyle
170
     2
171
     1
172
     0
 90
        2
 40
0.0
 41
0.0
173
     1
 91
-1056964608
340
11
 92
       -2
290
     1
 42
2.0
291
     1
 43
0.36
  3
Standard
 44
4.0
300

342
17
174
     1
178
     6
175
     1
176
     0
 93
-1056964608
 45
4.0
292
     0
297
     0
 46
4.0
 94
-1056964608
 47
1.0
 49
1.0
140
1.0
293
     1
141
0.0
294
     1
177
     0
142
1.0
295
     0
296
     0
143
0.125
1001
ACAD_MLEADERVER
1070
     2
  0
MLINESTYLE
  5
1C
102
{ACAD_REACTORS
330
1B
102
}
330
1B
100
AcDbMlineStyle
  2
STANDARD
 70
     0
  3

 62
     0
 51
90.0
 52
90.0
 71
     2
 49
0.5
 62
   256
  6
BYLAYER
 49
-0.5
 62
   256
  6
BYLAYER
  0
ACDBPLACEHOLDER
  5
1D
102
{ACAD_REACTORS
330
1F
102
}
330
1F
  0
SCALE
  5
29A
102
{ACAD_REACTORS
330
299
102
}
330
299
100
AcDbScale
 70
     0
300
1:1
140
1.0
141
1.0
290
     1
  0
SCALE
  5
29B
102
{ACAD_REACTORS
330
299
102
}
330
299
100
AcDbScale
 70
     0
300
1:2
140
1.0
141
2.0
290
     0
  0
SCALE
  5
29C
102
{ACAD_REACTORS
330
299
102
}
330
299
100
AcDbScale
 70
     0
300
1:4
140
1.0
141
4.0
290
     0
  0
SCALE
  5
29D
102
{ACAD_REACTORS
330
299
102
}
330
299
100
AcDbScale
 70
     0
300
1:5
140
1.0
141
5.0
290
     0
  0
SCALE
  5
29E
102
{ACAD_REACTORS
330
299
102
}
330
299
100
AcDbScale
 70
     0
300
1:8
140
1.0
141
8.0
290
     0
  0
SCALE
  5
29F
102
{ACAD_REACTORS
330
299
102
}
330
299
100
AcDbScale
 70
     0
300
1:10
140
1.0
141
10.0
290
     0
  0
SCALE
  5
2A0
102
{ACAD_REACTORS
330
299
102
}
330
299
100
AcDbScale
 70
     0
300
1:16
140
1.0
141
16.0
290
     0
  0
SCALE
  5
2A1
102
{ACAD_REACTORS
330
299
102
}
330
299
100
AcDbScale
 70
     0
300
1:20
140
1.0
141
20.0
290
     0
  0
SCALE
  5
2A2
102
{ACAD_REACTORS
330
299
102
}
330
299
100
AcDbScale
 70
     0
300
1:30
140
1.0
141
30.0
290
     0
  0
SCALE
  5
2A3
102
{ACAD_REACTORS
330
299
102
}
330
299
100
AcDbScale
 70
     0
300
1:40
140
1.0
141
40.0
290
     0
  0
SCALE
  5
2A4
102
{ACAD_REACTORS
330
299
102
}
330
299
100
AcDbScale
 70
     0
300
1:50
140
1.0
141
50.0
290
     0
  0
SCALE
  5
2A5
102
{ACAD_REACTORS
330
299
102
}
330
299
100
AcDbScale
 70
     0
300
1:100
140
1.0
141
100.0
290
     0
  0
SCALE
  5
2A6
102
{ACAD_REACTORS
330
299
102
}
330
299
100
AcDbScale
 70
     0
300
2:1
140
2.0
141
1.0
290
     0
  0
SCALE
  5
2A7
102
{ACAD_REACTORS
330
299
102
}
330
299
100
AcDbScale
 70
     0
300
4:1
140
4.0
141
1.0
290
     0
  0
SCALE
  5
2A8
102
{ACAD_REACTORS
330
299
102
}
330
299
100
AcDbScale
 70
     0
300
8:1
140
8.0
141
1.0
290
     0
  0
SCALE
  5
2A9
102
{ACAD_REACTORS
330
299
102
}
330
299
100
AcDbScale
 70
     0
300
10:1
140
10.0
141
1.0
290
     0
  0
SCALE
  5
2AA
102
{ACAD_REACTORS
330
299
102
}
330
299
100
AcDbScale
 70
     0
300
100:1
140
100.0
141
1.0
290
     0
  0
SCALE
  5
2AB
102
{ACAD_REACTORS
330
299
102
}
330
299
100
AcDbScale
 70
     0
300
1/128" = 1'-0"
140
0.0078125
141
12.0
290
     0
  0
SCALE
  5
2AC
102
{ACAD_REACTORS
330
299
102
}
330
299
100
AcDbScale
 70
     0
300
1/64" = 1'-0"
140
0.015625
141
12.0
290
     0
  0
SCALE
  5
2AD
102
{ACAD_REACTORS
330
299
102
}
330
299
100
AcDbScale
 70
     0
300
1/32" = 1'-0"
140
0.03125
141
12.0
290
     0
  0
SCALE
  5
2AE
102
{ACAD_REACTORS
330
299
102
}
330
299
100
AcDbScale
 70
     0
300
1/16" = 1'-0"
140
0.0625
141
12.0
290
     0
  0
SCALE
  5
2AF
102
{ACAD_REACTORS
330
299
102
}
330
299
100
AcDbScale
 70
     0
300
3/32" = 1'-0"
140
0.09375
141
12.0
290
     0
  0
SCALE
  5
2B0
102
{ACAD_REACTORS
330
299
102
}
330
299
100
AcDbScale
 70
     0
300
1/8" = 1'-0"
140
0.125
141
12.0
290
     0
  0
SCALE
  5
2B1
102
{ACAD_REACTORS
330
299
102
}
330
299
100
AcDbScale
 70
     0
300
3/16" = 1'-0"
140
0.1875
141
12.0
290
     0
  0
SCALE
  5
2B2
102
{ACAD_REACTORS
330
299
102
}
330
299
100
AcDbScale
 70
     0
300
1/4" = 1'-0"
140
0.25
141
12.0
290
     0
  0
SCALE
  5
2B3
102
{ACAD_REACTORS
330
299
102
}
330
299
100
AcDbScale
 70
     0
300
3/8" = 1'-0"
140
0.375
141
12.0
290
     0
  0
SCALE
  5
2B4
102
{ACAD_REACTORS
330
299
102
}
330
299
100
AcDbScale
 70
     0
300
1/2" = 1'-0"
140
0.5
141
12.0
290
     0
  0
SCALE
  5
2B5
102
{ACAD_REACTORS
330
299
102
}
330
299
100
AcDbScale
 70
     0
300
3/4" = 1'-0"
140
0.75
141
12.0
290
     0
  0
SCALE
  5
2B6
102
{ACAD_REACTORS
330
299
102
}
330
299
100
AcDbScale
 70
     0
300
1" = 1'-0"
140
1.0
141
12.0
290
     0
  0
SCALE
  5
2B7
102
{ACAD_REACTORS
330
299
102
}
330
299
100
AcDbScale
 70
     0
300
1-1/2" = 1'-0"
140
1.5
141
12.0
290
     0
  0
SCALE
  5
2B8
102
{ACAD_REACTORS
330
299
102
}
330
299
100
AcDbScale
 70
     0
300
3" = 1'-0"
140
3.0
141
12.0
290
     0
  0
SCALE
  5
2B9
102
{ACAD_REACTORS
330
299
102
}
330
299
100
AcDbScale
 70
     0
300
6" = 1'-0"
140
6.0
141
12.0
290
     0
  0
SCALE
  5
2BA
102
{ACAD_REACTORS
330
299
102
}
330
299
100
AcDbScale
 70
     0
300
1'-0" = 1'-0"
140
12.0
141
12.0
290
     0
  0
TABLESTYLE
  5
2F9
102
{ACAD_XDICTIONARY
360
319
102
}
102
{ACAD_REACTORS
330
2F8
102
}
330
2F8
100
AcDbTableStyle
  3
Standard
 70
     0
 71
     0
 40
1.5
 41
1.5
280
     0
281
     0
  7
Standard
140
4.5
170
     2
 62
     0
 63
     7
283
     0
274
    -2
284
     1
 64
     0
275
    -2
285
     1
 65
     0
276
    -2
286
     1
 66
     0
277
    -2
287
     1
 67
     0
278
    -2
288
     1
 68
     0
279
    -2
289
     1
 69
     0
  7
Standard
140
6.0
170
     5
 62
     0
 63
     7
283
     0
274
    -2
284
     1
 64
     0
275
    -2
285
     1
 65
     0
276
    -2
286
     1
 66
     0
277
    -2
287
     1
 67
     0
278
    -2
288
     1
 68
     0
279
    -2
289
     1
 69
     0
  7
Standard
140
4.5
170
     5
 62
     0
 63
     7
283
     0
274
    -2
284
     1
 64
     0
275
    -2
285
     1
 65
     0
276
    -2
286
     1
 66
     0
277
    -2
287
     1
 67
     0
278
    -2
288
     1
 68
     0
279
    -2
289
     1
 69
     0
  0
VISUALSTYLE
  5
2E9
102
{ACAD_XDICTIONARY
360
32E
102
}
102
{ACAD_REACTORS
330
2E3
102
}
330
2E3
100
AcDbVisualStyle
  2
2dWireframe
 70
     4
 71
     0
 72
     2
 73
     0
 90
        0
 40
-0.6
 41
-30.0
 62
     5
 63
     7
 74
     1
 91
        4
 64
     7
 65
   257
 75
     1
175
     1
 42
1.0
 92
        0
 66
   257
 43
1.0
 76
     1
 77
     6
 78
     2
 67
     7
 79
     5
170
     0
171
     0
290
     0
174
     0
 93
        1
 44
0.0
173
     0
291
     0
 45
0.0
1001
ACAD
1000
AcDbSavedByObjectVersion
1070
     0
  0
VISUALSTYLE
  5
2EB
102
{ACAD_XDICTIONARY
360
332
102
}
102
{ACAD_REACTORS
330
2E3
102
}
330
2E3
100
AcDbVisualStyle
  2
3D Hidden
 70
     6
 71
     1
 72
     2
 73
     2
 90
        0
 40
-0.6
 41
-30.0
 62
     5
 63
     7
 74
     2
 91
        2
 64
     7
 65
   257
 75
     2
175
     1
 42
179.0
 92
        0
 66
   257
 43
1.0
 76
     1
 77
     6
 78
     2
 67
     7
 79
     3
170
     0
171
     0
290
     0
174
     0
 93
        1
 44
0.0
173
     0
291
     0
 45
0.0
1001
ACAD
1000
AcDbSavedByObjectVersion
1070
     0
  0
VISUALSTYLE
  5
2EA
102
{ACAD_XDICTIONARY
360
330
102
}
102
{ACAD_REACTORS
330
2E3
102
}
330
2E3
100
AcDbVisualStyle
  2
3dWireframe
 70
     5
 71
     0
 72
     2
 73
     0
 90
        0
 40
-0.6
 41
-30.0
 62
     5
 63
     7
 74
     1
 91
        4
 64
     7
 65
   257
 75
     1
175
     1
 42
1.0
 92
        0
 66
   257
 43
1.0
 76
     1
 77
     6
 78
     2
 67
     7
 79
     5
170
     0
171
     0
290
     0
174
     0
 93
        1
 44
0.0
173
     0
291
     0
 45
0.0
1001
ACAD
1000
AcDbSavedByObjectVersion
1070
     0
  0
VISUALSTYLE
  5
2E8
102
{ACAD_XDICTIONARY
360
32C
102
}
102
{ACAD_REACTORS
330
2E3
102
}
330
2E3
100
AcDbVisualStyle
  2
Basic
 70
     7
 71
     1
 72
     0
 73
     1
 90
        0
 40
-0.6
 41
-30.0
 62
     5
 63
     7
 74
     0
 91
        4
 64
     7
 65
   257
 75
     1
175
     1
 42
1.0
 92
        8
 66
     7
 43
1.0
 76
     1
 77
     6
 78
     2
 67
     7
 79
     5
170
     0
171
     0
290
     0
174
     0
 93
        1
 44
0.0
173
     0
291
     1
 45
0.0
1001
ACAD
1000
AcDbSavedByObjectVersion
1070
     0
  0
VISUALSTYLE
  5
2EF
102
{ACAD_XDICTIONARY
360
33A
102
}
102
{ACAD_REACTORS
330
2E3
102
}
330
2E3
100
AcDbVisualStyle
  2
Brighten
 70
    12
 71
     2
 72
     2
 73
     0
 90
        0
 40
-0.6
 41
-30.0
 62
     5
 63
     7
 74
     1
 91
        4
 64
     7
 65
   257
 75
     1
175
     1
 42
1.0
 92
        8
 66
     7
 43
1.0
 76
     1
 77
     6
 78
     2
 67
     7
 79
     5
170
     0
171
     0
290
     0
174
     0
 93
        1
 44
50.0
173
     0
291
     1
 45
0.0
1001
ACAD
1000
AcDbSavedByObjectVersion
1070
     0
  0
VISUALSTYLE
  5
2F3
102
{ACAD_XDICTIONARY
360
342
102
}
102
{ACAD_REACTORS
330
2E3
102
}
330
2E3
100
AcDbVisualStyle
  2
ColorChange
 70
    16
 71
     2
 72
     2
 73
     3
 90
        0
 40
-0.6
 41
-30.0
 62
     5
 63
     8
 74
     1
 91
        4
 64
     7
 65
   257
 75
     1
175
     1
 42
1.0
 92
        8
 66
     8
 43
1.0
 76
     1
 77
     6
 78
     2
 67
     7
 79
     5
170
     0
171
     0
290
     0
174
     0
 93
        1
 44
0.0
173
     0
291
     1
 45
0.0
1001
ACAD
1000
AcDbSavedByObjectVersion
1070
     0
  0
VISUALSTYLE
  5
2EC
102
{ACAD_XDICTIONARY
360
334
102
}
102
{ACAD_REACTORS
330
2E3
102
}
330
2E3
100
AcDbVisualStyle
  2
Conceptual
 70
     9
 71
     3
 72
     2
 73
     0
 90
        0
 40
-0.6
 41
-30.0
 62
     5
 63
     7
 74
     2
 91
        2
 64
     7
 65
   257
 75
     1
175
     1
 42
179.0
 92
        8
 66
     7
 43
1.0
 76
     1
 77
     6
 78
     2
 67
     7
 79
     3
170
     0
171
     0
290
     0
174
     0
 93
        1
 44
0.0
173
     0
291
     0
 45
0.0
1001
ACAD
1000
AcDbSavedByObjectVersion
1070
     0
  0
VISUALSTYLE
  5
2EE
102
{ACAD_XDICTIONARY
360
338
102
}
102
{ACAD_REACTORS
330
2E3
102
}
330
2E3
100
AcDbVisualStyle
  2
Dim
 70
    11
 71
     2
 72
     2
 73
     0
 90
        0
 40
-0.6
 41
-30.0
 62
     5
 63
     7
 74
     1
 91
        4
 64
     7
 65
   257
 75
     1
175
     1
 42
1.0
 92
        8
 66
     7
 43
1.0
 76
     1
 77
     6
 78
     2
 67
     7
 79
     5
170
     0
171
     0
290
     0
174
     0
 93
        1
 44
-50.0
173
     0
291
     1
 45
0.0
1001
ACAD
1000
AcDbSavedByObjectVersion
1070
     0
  0
VISUALSTYLE
  5
2F6
102
{ACAD_XDICTIONARY
360
348
102
}
102
{ACAD_REACTORS
330
2E3
102
}
330
2E3
100
AcDbVisualStyle
  2
EdgeColorOff
 70
    22
 71
     2
 72
     2
 73
     0
 90
        0
 40
-0.6
 41
-30.0
 62
     5
 63
     7
 74
     1
 91
        4
 64
     7
 65
   257
 75
     1
175
     1
 42
1.0
 92
        8
 66
     7
 43
1.0
 76
     1
 77
     6
 78
     2
 67
     7
 79
     5
170
     0
171
     0
290
     0
174
     0
 93
        1
 44
0.0
173
     0
291
     1
 45
0.0
1001
ACAD
1000
AcDbSavedByObjectVersion
1070
     0
  0
VISUALSTYLE
  5
2F2
102
{ACAD_XDICTIONARY
360
340
102
}
102
{ACAD_REACTORS
330
2E3
102
}
330
2E3
100
AcDbVisualStyle
  2
Facepattern
 70
    15
 71
     2
 72
     2
 73
     0
 90
        0
 40
-0.6
 41
-30.0
 62
     5
 63
     7
 74
     1
 91
        4
 64
     7
 65
   257
 75
     1
175
     1
 42
1.0
 92
        8
 66
     7
 43
1.0
 76
     1
 77
     6
 78
     2
 67
     7
 79
     5
170
     0
171
     0
290
     0
174
     0
 93
        1
 44
0.0
173
     0
291
     1
 45
0.0
1001
ACAD
1000
AcDbSavedByObjectVersion
1070
     0
  0
VISUALSTYLE
  5
2E4
102
{ACAD_XDICTIONARY
360
324
102
}
102
{ACAD_REACTORS
330
2E3
102
}
330
2E3
100
AcDbVisualStyle
  2
Flat
 70
     0
 71
     2
 72
     1
 73
     1
 90
        2
 40
-0.6
 41
30.0
 62
     5
 63
     7
 74
     0
 91
        4
 64
     7
 65
   257
 75
     1
175
     1
 42
1.0
 92
        8
 66
     7
 43
1.0
 76
     1
 77
     6
 78
     2
 67
     7
 79
     5
170
     0
171
     0
290
     0
174
     0
 93
       13
 44
0.0
173
     0
291
     1
 45
0.0
1001
ACAD
1000
AcDbSavedByObjectVersion
1070
     0
  0
VISUALSTYLE
  5
2E5
102
{ACAD_XDICTIONARY
360
326
102
}
102
{ACAD_REACTORS
330
2E3
102
}
330
2E3
100
AcDbVisualStyle
  2
FlatWithEdges
 70
     1
 71
     2
 72
     1
 73
     1
 90
        2
 40
-0.6
 41
30.0
 62
     5
 63
     7
 74
     1
 91
        4
 64
     7
 65
   257
 75
     1
175
     1
 42
1.0
 92
        0
 66
   257
 43
1.0
 76
     1
 77
     6
 78
     2
 67
     7
 79
     5
170
     0
171
     0
290
     0
174
     0
 93
       13
 44
0.0
173
     0
291
     1
 45
0.0
1001
ACAD
1000
AcDbSavedByObjectVersion
1070
     0
  0
VISUALSTYLE
  5
2E6
102
{ACAD_XDICTIONARY
360
328
102
}
102
{ACAD_REACTORS
330
2E3
102
}
330
2E3
100
AcDbVisualStyle
  2
Gouraud
 70
     2
 71
     2
 72
     2
 73
     1
 90
        2
 40
-0.6
 41
30.0
 62
     5
 63
     7
 74
     0
 91
        4
 64
     7
 65
   257
 75
     1
175
     1
 42
1.0
 92
        0
 66
     7
 43
1.0
 76
     1
 77
     6
 78
     2
 67
     7
 79
     5
170
     0
171
     0
290
     0
174
     0
 93
       13
 44
0.0
173
     0
291
     1
 45
0.0
1001
ACAD
1000
AcDbSavedByObjectVersion
1070
     0
  0
VISUALSTYLE
  5
2E7
102
{ACAD_XDICTIONARY
360
32A
102
}
102
{ACAD_REACTORS
330
2E3
102
}
330
2E3
100
AcDbVisualStyle
  2
GouraudWithEdges
 70
     3
 71
     2
 72
     2
 73
     1
 90
        2
 40
-0.6
 41
30.0
 62
     5
 63
     7
 74
     1
 91
        4
 64
     7
 65
   257
 75
     1
175
     1
 42
1.0
 92
        0
 66
   257
 43
1.0
 76
     1
 77
     6
 78
     2
 67
     7
 79
     5
170
     0
171
     0
290
     0
174
     0
 93
       13
 44
0.0
173
     0
291
     1
 45
0.0
1001
ACAD
1000
AcDbSavedByObjectVersion
1070
     0
  0
VISUALSTYLE
  5
2F4
102
{ACAD_XDICTIONARY
360
344
102
}
102
{ACAD_REACTORS
330
2E3
102
}
330
2E3
100
AcDbVisualStyle
  2
JitterOff
 70
    20
 71
     2
 72
     2
 73
     0
 90
        0
 40
-0.6
 41
-30.0
 62
     5
 63
     7
 74
     1
 91
        4
 64
     7
 65
   257
 75
     1
175
     1
 42
1.0
 92
       10
 66
     7
 43
1.0
 76
     1
 77
     6
 78
     2
 67
     7
 79
     5
170
     0
171
     0
290
     0
174
     0
 93
        1
 44
0.0
173
     0
291
     1
 45
0.0
1001
ACAD
1000
AcDbSavedByObjectVersion
1070
     0
  0
VISUALSTYLE
  5
2F1
102
{ACAD_XDICTIONARY
360
33E
102
}
102
{ACAD_REACTORS
330
2E3
102
}
330
2E3
100
AcDbVisualStyle
  2
Linepattern
 70
    14
 71
     2
 72
     2
 73
     0
 90
        0
 40
-0.6
 41
-30.0
 62
     5
 63
     7
 74
     1
 91
        4
 64
     7
 65
   257
 75
     7
175
     7
 42
1.0
 92
        8
 66
     7
 43
1.0
 76
     1
 77
     6
 78
     2
 67
     7
 79
     5
170
     0
171
     0
290
     0
174
     0
 93
        1
 44
0.0
173
     0
291
     1
 45
0.0
1001
ACAD
1000
AcDbSavedByObjectVersion
1070
     0
  0
VISUALSTYLE
  5
2F5
102
{ACAD_XDICTIONARY
360
346
102
}
102
{ACAD_REACTORS
330
2E3
102
}
330
2E3
100
AcDbVisualStyle
  2
OverhangOff
 70
    21
 71
     2
 72
     2
 73
     0
 90
        0
 40
-0.6
 41
-30.0
 62
     5
 63
     7
 74
     1
 91
        4
 64
     7
 65
   257
 75
     1
175
     1
 42
1.0
 92
        9
 66
     7
 43
1.0
 76
     1
 77
     6
 78
     2
 67
     7
 79
     5
170
     0
171
     0
290
     0
174
     0
 93
        1
 44
0.0
173
     0
291
     1
 45
0.0
1001
ACAD
1000
AcDbSavedByObjectVersion
1070
     0
  0
VISUALSTYLE
  5
2ED
102
{ACAD_XDICTIONARY
360
336
102
}
102
{ACAD_REACTORS
330
2E3
102
}
330
2E3
100
AcDbVisualStyle
  2
Realistic
 70
     8
 71
     2
 72
     2
 73
     0
 90
        0
 40
-0.6
 41
-30.0
 62
     5
 63
     7
 74
     1
 91
        0
 64
     7
 65
   257
 75
     1
175
     1
 42
1.0
 92
        8
 66
     8
 43
1.0
 76
     1
 77
     6
 78
     2
 67
     7
 79
     5
170
     0
171
     0
290
     0
174
     0
 93
       13
 44
0.0
173
     0
291
     0
 45
0.0
1001
ACAD
1000
AcDbSavedByObjectVersion
1070
     0
  0
VISUALSTYLE
  5
2F0
102
{ACAD_XDICTIONARY
360
33C
102
}
102
{ACAD_REACTORS
330
2E3
102
}
330
2E3
100
AcDbVisualStyle
  2
Thicken
 70
    13
 71
     2
 72
     2
 73
     0
 90
        0
 40
-0.6
 41
-30.0
 62
     5
 63
     7
 74
     1
 91
        4
 64
     7
 65
   257
 75
     1
175
     1
 42
1.0
 92
       12
 66
     7
 43
1.0
 76
     1
 77
     6
 78
     2
 67
     7
 79
     5
170
     0
171
     0
290
     0
174
     0
 93
        1
 44
0.0
173
     0
291
     1
 45
0.0
1001
ACAD
1000
AcDbSavedByObjectVersion
1070
     0
  0
DICTIONARYVAR
  5
2C7
102
{ACAD_REACTORS
330
2C4
102
}
330
2C4
100
DictionaryVariables
280
     0
  1
1:1
  0
DICTIONARYVAR
  5
314
102
{ACAD_REACTORS
330
2C4
102
}
330
2C4
100
DictionaryVariables
280
     0
  1
STANDARD
  0
DICTIONARYVAR
  5
313
102
{ACAD_REACTORS
330
2C4
102
}
330
2C4
100
DictionaryVariables
280
     0
  1
STANDARD
  0
DICTIONARYVAR
  5
317
102
{ACAD_REACTORS
330
2C4
102
}
330
2C4
100
DictionaryVariables
280
     0
  1
1
  0
DICTIONARYVAR
  5
316
102
{ACAD_REACTORS
330
2C4
102
}
330
2C4
100
DictionaryVariables
280
     0
  1
0
  0
DICTIONARYVAR
  5
315
102
{ACAD_REACTORS
330
2C4
102
}
330
2C4
100
DictionaryVariables
280
     0
  1
127
  0
DICTIONARYVAR
  5
318
102
{ACAD_REACTORS
330
2C4
102
}
330
2C4
100
DictionaryVariables
280
     0
  1
2
  0
XRECORD
  5
312
102
{ACAD_REACTORS
330
310
102
}
330
310
100
AcDbXrecord
280
     1
  0
DICTIONARY
  5
31F
330
21
100
AcDbDictionary
280
     1
281
     1
  3
ACAD_XREC_ROUNDTRIP
360
320
  0
DICTIONARY
  5
31D
330
20
100
AcDbDictionary
280
     1
281
     1
  3
ACAD_XREC_ROUNDTRIP
360
31E
  0
DICTIONARY
  5
2D4
330
2D3
100
AcDbDictionary
280
     1
281
     1
  3
ACAD_XREC_ROUNDTRIP
360
322
  3
BUMPTILE
360
2D6
  3
DIFFUSETILE
360
2D5
  3
OPACITYTILE
360
2D9
  3
REFLECTIONTILE
360
2D8
  3
REFRACTIONTILE
360
2DA
  3
SPECULARTILE
360
2D7
  0
DICTIONARY
  5
2CC
330
2CB
100
AcDbDictionary
280
     1
281
     1
  3
ACAD_XREC_ROUNDTRIP
360
321
  3
BUMPTILE
360
2CE
  3
DIFFUSETILE
360
2CD
  3
OPACITYTILE
360
2D1
  3
REFLECTIONTILE
360
2D0
  3
REFRACTIONTILE
360
2D2
  3
SPECULARTILE
360
2CF
  0
DICTIONARY
  5
2DC
330
2DB
100
AcDbDictionary
280
     1
281
     1
  3
ACAD_XREC_ROUNDTRIP
360
323
  3
BUMPTILE
360
2DE
  3
DIFFUSETILE
360
2DD
  3
OPACITYTILE
360
2E1
  3
REFLECTIONTILE
360
2E0
  3
REFRACTIONTILE
360
2E2
  3
SPECULARTILE
360
2DF
  0
DICTIONARY
  5
319
330
2F9
100
AcDbDictionary
280
     1
281
     1
  3
ACAD_ROUNDTRIP_2008_TABLESTYLE_CELLSTYLEMAP
360
31A
  3
ACAD_XREC_ROUNDTRIP
360
34A
  0
DICTIONARY
  5
32E
330
2E9
100
AcDbDictionary
280
     1
281
     1
  3
ACAD_XREC_ROUNDTRIP
360
32F
  0
DICTIONARY
  5
332
330
2EB
100
AcDbDictionary
280
     1
281
     1
  3
ACAD_XREC_ROUNDTRIP
360
333
  0
DICTIONARY
  5
330
330
2EA
100
AcDbDictionary
280
     1
281
     1
  3
ACAD_XREC_ROUNDTRIP
360
331
  0
DICTIONARY
  5
32C
330
2E8
100
AcDbDictionary
280
     1
281
     1
  3
ACAD_XREC_ROUNDTRIP
360
32D
  0
DICTIONARY
  5
33A
330
2EF
100
AcDbDictionary
280
     1
281
     1
  3
ACAD_XREC_ROUNDTRIP
360
33B
  0
DICTIONARY
  5
342
330
2F3
100
AcDbDictionary
280
     1
281
     1
  3
ACAD_XREC_ROUNDTRIP
360
343
  0
DICTIONARY
  5
334
330
2EC
100
AcDbDictionary
280
     1
281
     1
  3
ACAD_XREC_ROUNDTRIP
360
335
  0
DICTIONARY
  5
338
330
2EE
100
AcDbDictionary
280
     1
281
     1
  3
ACAD_XREC_ROUNDTRIP
360
339
  0
DICTIONARY
  5
348
330
2F6
100
AcDbDictionary
280
     1
281
     1
  3
ACAD_XREC_ROUNDTRIP
360
349
  0
DICTIONARY
  5
340
330
2F2
100
AcDbDictionary
280
     1
281
     1
  3
ACAD_XREC_ROUNDTRIP
360
341
  0
DICTIONARY
  5
324
330
2E4
100
AcDbDictionary
280
     1
281
     1
  3
ACAD_XREC_ROUNDTRIP
360
325
  0
DICTIONARY
  5
326
330
2E5
100
AcDbDictionary
280
     1
281
     1
  3
ACAD_XREC_ROUNDTRIP
360
327
  0
DICTIONARY
  5
328
330
2E6
100
AcDbDictionary
280
     1
281
     1
  3
ACAD_XREC_ROUNDTRIP
360
329
  0
DICTIONARY
  5
32A
330
2E7
100
AcDbDictionary
280
     1
281
     1
  3
ACAD_XREC_ROUNDTRIP
360
32B
  0
DICTIONARY
  5
344
330
2F4
100
AcDbDictionary
280
     1
281
     1
  3
ACAD_XREC_ROUNDTRIP
360
345
  0
DICTIONARY
  5
33E
330
2F1
100
AcDbDictionary
280
     1
281
     1
  3
ACAD_XREC_ROUNDTRIP
360
33F
  0
DICTIONARY
  5
346
330
2F5
100
AcDbDictionary
280
     1
281
     1
  3
ACAD_XREC_ROUNDTRIP
360
347
  0
DICTIONARY
  5
336
330
2ED
100
AcDbDictionary
280
     1
281
     1
  3
ACAD_XREC_ROUNDTRIP
360
337
  0
DICTIONARY
  5
33C
330
2F0
100
AcDbDictionary
280
     1
281
     1
  3
ACAD_XREC_ROUNDTRIP
360
33D
  0
XRECORD
  5
320
102
{ACAD_REACTORS
330
31F
102
}
330
31F
100
AcDbXrecord
280
     1
102
SHADEPLOT
 70
     0
102
SHADEPLOTRESLEVEL
 70
     2
102
SHADEPLOTCUSTOMDPI
 70
   300
  0
XRECORD
  5
31E
102
{ACAD_REACTORS
330
31D
102
}
330
31D
100
AcDbXrecord
280
     1
102
SHADEPLOT
 70
     0
102
SHADEPLOTRESLEVEL
 70
     2
102
SHADEPLOTCUSTOMDPI
 70
   300
  0
XRECORD
  5
322
102
{ACAD_REACTORS
330
2D4
102
}
330
2D4
100
AcDbXrecord
280
     1
102
MATERIAL
148
0.0
149
0.0
149
0.0
 93
        0
 94
      127
282
     0
 72
     0
 77
     0
171
     0
175
     0
179
     0
273
     0
  0
XRECORD
  5
2D6
102
{ACAD_REACTORS
330
2D4
102
}
330
2D4
100
AcDbXrecord
280
     1
270
     1
271
     1
  0
XRECORD
  5
2D5
102
{ACAD_REACTORS
330
2D4
102
}
330
2D4
100
AcDbXrecord
280
     1
270
     1
271
     1
  0
XRECORD
  5
2D9
102
{ACAD_REACTORS
330
2D4
102
}
330
2D4
100
AcDbXrecord
280
     1
270
     1
271
     1
  0
XRECORD
  5
2D8
102
{ACAD_REACTORS
330
2D4
102
}
330
2D4
100
AcDbXrecord
280
     1
270
     1
271
     1
  0
XRECORD
  5
2DA
102
{ACAD_REACTORS
330
2D4
102
}
330
2D4
100
AcDbXrecord
280
     1
270
     1
271
     1
  0
XRECORD
  5
2D7
102
{ACAD_REACTORS
330
2D4
102
}
330
2D4
100
AcDbXrecord
280
     1
270
     1
271
     1
  0
XRECORD
  5
321
102
{ACAD_REACTORS
330
2CC
102
}
330
2CC
100
AcDbXrecord
280
     1
102
MATERIAL
148
0.0
149
0.0
149
0.0
 93
        0
 94
      127
282
     0
 72
     0
 77
     0
171
     0
175
     0
179
     0
273
     0
  0
XRECORD
  5
2CE
102
{ACAD_REACTORS
330
2CC
102
}
330
2CC
100
AcDbXrecord
280
     1
270
     1
271
     1
  0
XRECORD
  5
2CD
102
{ACAD_REACTORS
330
2CC
102
}
330
2CC
100
AcDbXrecord
280
     1
270
     1
271
     1
  0
XRECORD
  5
2D1
102
{ACAD_REACTORS
330
2CC
102
}
330
2CC
100
AcDbXrecord
280
     1
270
     1
271
     1
  0
XRECORD
  5
2D0
102
{ACAD_REACTORS
330
2CC
102
}
330
2CC
100
AcDbXrecord
280
     1
270
     1
271
     1
  0
XRECORD
  5
2D2
102
{ACAD_REACTORS
330
2CC
102
}
330
2CC
100
AcDbXrecord
280
     1
270
     1
271
     1
  0
XRECORD
  5
2CF
102
{ACAD_REACTORS
330
2CC
102
}
330
2CC
100
AcDbXrecord
280
     1
270
     1
271
     1
  0
XRECORD
  5
323
102
{ACAD_REACTORS
330
2DC
102
}
330
2DC
100
AcDbXrecord
280
     1
102
MATERIAL
148
0.0
149
0.0
149
0.0
 93
        0
 94
      127
282
     0
 72
     0
 77
     0
171
     0
175
     0
179
     0
273
     0
  0
XRECORD
  5
2DE
102
{ACAD_REACTORS
330
2DC
102
}
330
2DC
100
AcDbXrecord
280
     1
270
     1
271
     1
  0
XRECORD
  5
2DD
102
{ACAD_REACTORS
330
2DC
102
}
330
2DC
100
AcDbXrecord
280
     1
270
     1
271
     1
  0
XRECORD
  5
2E1
102
{ACAD_REACTORS
330
2DC
102
}
330
2DC
100
AcDbXrecord
280
     1
270
     1
271
     1
  0
XRECORD
  5
2E0
102
{ACAD_REACTORS
330
2DC
102
}
330
2DC
100
AcDbXrecord
280
     1
270
     1
271
     1
  0
XRECORD
  5
2E2
102
{ACAD_REACTORS
330
2DC
102
}
330
2DC
100
AcDbXrecord
280
     1
270
     1
271
     1
  0
XRECORD
  5
2DF
102
{ACAD_REACTORS
330
2DC
102
}
330
2DC
100
AcDbXrecord
280
     1
270
     1
271
     1
  0
CELLSTYLEMAP
  5
31A
102
{ACAD_REACTORS
330
319
102
}
330
319
100
AcDbCellStyleMap
 90
        3
300
CELLSTYLE
  1
TABLEFORMAT_BEGIN
 90
        5
170
     1
 91
        0
 92
    32768
 62
   257
 93
        1
300
CONTENTFORMAT
  1
CONTENTFORMAT_BEGIN
 90
        0
 91
        0
 92
      512
 93
        0
300

 40
0.0
140
1.0
 94
        5
 62
     0
340
17
144
6.0
309
CONTENTFORMAT_END
171
     1
301
MARGIN
  1
CELLMARGIN_BEGIN
 40
1.5
 40
1.5
 40
1.5
 40
1.5
 40
4.5
 40
4.5
309
CELLMARGIN_END
 94
        6
 95
        1
302
GRIDFORMAT
  1
GRIDFORMAT_BEGIN
 90
        0
 91
        1
 62
     0
 92
       -2
340
0
 93
        0
 40
1.125
309
GRIDFORMAT_END
 95
        2
302
GRIDFORMAT
  1
GRIDFORMAT_BEGIN
 90
        0
 91
        1
 62
     0
 92
       -2
340
0
 93
        0
 40
1.125
309
GRIDFORMAT_END
 95
        4
302
GRIDFORMAT
  1
GRIDFORMAT_BEGIN
 90
        0
 91
        1
 62
     0
 92
       -2
340
0
 93
        0
 40
1.125
309
GRIDFORMAT_END
 95
        8
302
GRIDFORMAT
  1
GRIDFORMAT_BEGIN
 90
        0
 91
        1
 62
     0
 92
       -2
340
0
 93
        0
 40
1.125
309
GRIDFORMAT_END
 95
       16
302
GRIDFORMAT
  1
GRIDFORMAT_BEGIN
 90
        0
 91
        1
 62
     0
 92
       -2
340
0
 93
        0
 40
1.125
309
GRIDFORMAT_END
 95
       32
302
GRIDFORMAT
  1
GRIDFORMAT_BEGIN
 90
        0
 91
        1
 62
     0
 92
       -2
340
0
 93
        0
 40
1.125
309
GRIDFORMAT_END
309
TABLEFORMAT_END
  1
CELLSTYLE_BEGIN
 90
        1
 91
        1
300
_TITLE
309
CELLSTYLE_END
300
CELLSTYLE
  1
TABLEFORMAT_BEGIN
 90
        5
170
     1
 91
        0
 92
        0
 62
   257
 93
        1
300
CONTENTFORMAT
  1
CONTENTFORMAT_BEGIN
 90
        0
 91
        0
 92
      512
 93
        0
300

 40
0.0
140
1.0
 94
        5
 62
     0
340
17
144
4.5
309
CONTENTFORMAT_END
171
     1
301
MARGIN
  1
CELLMARGIN_BEGIN
 40
1.5
 40
1.5
 40
1.5
 40
1.5
 40
4.5
 40
4.5
309
CELLMARGIN_END
 94
        6
 95
        1
302
GRIDFORMAT
  1
GRIDFORMAT_BEGIN
 90
        0
 91
        1
 62
     0
 92
       -2
340
0
 93
        0
 40
1.125
309
GRIDFORMAT_END
 95
        2
302
GRIDFORMAT
  1
GRIDFORMAT_BEGIN
 90
        0
 91
        1
 62
     0
 92
       -2
340
0
 93
        0
 40
1.125
309
GRIDFORMAT_END
 95
        4
302
GRIDFORMAT
  1
GRIDFORMAT_BEGIN
 90
        0
 91
        1
 62
     0
 92
       -2
340
0
 93
        0
 40
1.125
309
GRIDFORMAT_END
 95
        8
302
GRIDFORMAT
  1
GRIDFORMAT_BEGIN
 90
        0
 91
        1
 62
     0
 92
       -2
340
0
 93
        0
 40
1.125
309
GRIDFORMAT_END
 95
       16
302
GRIDFORMAT
  1
GRIDFORMAT_BEGIN
 90
        0
 91
        1
 62
     0
 92
       -2
340
0
 93
        0
 40
1.125
309
GRIDFORMAT_END
 95
       32
302
GRIDFORMAT
  1
GRIDFORMAT_BEGIN
 90
        0
 91
        1
 62
     0
 92
       -2
340
0
 93
        0
 40
1.125
309
GRIDFORMAT_END
309
TABLEFORMAT_END
  1
CELLSTYLE_BEGIN
 90
        2
 91
        1
300
_HEADER
309
CELLSTYLE_END
300
CELLSTYLE
  1
TABLEFORMAT_BEGIN
 90
        5
170
     1
 91
        0
 92
        0
 62
   257
 93
        1
300
CONTENTFORMAT
  1
CONTENTFORMAT_BEGIN
 90
        0
 91
        0
 92
      512
 93
        0
300

 40
0.0
140
1.0
 94
        2
 62
     0
340
17
144
4.5
309
CONTENTFORMAT_END
171
     1
301
MARGIN
  1
CELLMARGIN_BEGIN
 40
1.5
 40
1.5
 40
1.5
 40
1.5
 40
4.5
 40
4.5
309
CELLMARGIN_END
 94
        6
 95
        1
302
GRIDFORMAT
  1
GRIDFORMAT_BEGIN
 90
        0
 91
        1
 62
     0
 92
       -2
340
0
 93
        0
 40
1.125
309
GRIDFORMAT_END
 95
        2
302
GRIDFORMAT
  1
GRIDFORMAT_BEGIN
 90
        0
 91
        1
 62
     0
 92
       -2
340
0
 93
        0
 40
1.125
309
GRIDFORMAT_END
 95
        4
302
GRIDFORMAT
  1
GRIDFORMAT_BEGIN
 90
        0
 91
        1
 62
     0
 92
       -2
340
0
 93
        0
 40
1.125
309
GRIDFORMAT_END
 95
        8
302
GRIDFORMAT
  1
GRIDFORMAT_BEGIN
 90
        0
 91
        1
 62
     0
 92
       -2
340
0
 93
        0
 40
1.125
309
GRIDFORMAT_END
 95
       16
302
GRIDFORMAT
  1
GRIDFORMAT_BEGIN
 90
        0
 91
        1
 62
     0
 92
       -2
340
0
 93
        0
 40
1.125
309
GRIDFORMAT_END
 95
       32
302
GRIDFORMAT
  1
GRIDFORMAT_BEGIN
 90
        0
 91
        1
 62
     0
 92
       -2
340
0
 93
        0
 40
1.125
309
GRIDFORMAT_END
309
TABLEFORMAT_END
  1
CELLSTYLE_BEGIN
 90
        3
 91
        2
300
_DATA
309
CELLSTYLE_END
  0
XRECORD
  5
34A
102
{ACAD_REACTORS
330
319
102
}
330
319
100
AcDbXrecord
280
     1
102
ACAD_ROUNDTRIP_PRE2007_TABLESTYLE
 90
      512
 91
        0
  1

 92
      512
 93
        0
  2

 94
      512
 95
        0
  3

  0
XRECORD
  5
32F
102
{ACAD_REACTORS
330
32E
102
}
330
32E
100
AcDbXrecord
280
     1
102
RTVSPropertyOp0
 70
     1
102
RTVSPropertyOp1
 70
     1
102
RTVSPropertyOp2
 70
     1
102
RTVSPropertyOp3
 70
     1
102
RTVSPropertyOp4
 70
     1
102
RTVSPropertyOp5
 70
     1
102
RTVSPropertyOp6
 70
     1
102
RTVSPropertyOp7
 70
     1
102
RTVSPropertyOp8
 70
     1
102
RTVSPropertyOp9
 70
     1
102
RTVSPropertyOp10
 70
     1
102
RTVSPropertyOp11
 70
     1
102
RTVSPropertyOp12
 70
     1
102
RTVSPropertyOp13
 70
     1
102
RTVSPropertyOp14
 70
     1
102
RTVSPropertyOp15
 70
     1
102
RTVSPropertyOp16
 70
     1
102
RTVSPropertyOp17
 70
     1
102
RTVSPropertyOp18
 70
     1
102
RTVSPropertyOp19
 70
     1
102
RTVSPropertyOp20
 70
     1
102
RTVSPropertyOp21
 70
     1
102
RTVSPropertyOp22
 70
     1
102
RTVSPropertyOp23
 70
     1
102
RTVSPropertyOp24
 70
     1
102
RTVSPropertyOp25
 70
     1
102
RTVSPropertyOp26
 70
     1
102
RTVSPropertyOp27
 70
     1
  0
XRECORD
  5
333
102
{ACAD_REACTORS
330
332
102
}
330
332
100
AcDbXrecord
280
     1
102
RTVSPropertyOp0
 70
     1
102
RTVSPropertyOp1
 70
     1
102
RTVSPropertyOp2
 70
     1
102
RTVSPropertyOp3
 70
     1
102
RTVSPropertyOp4
 70
     1
102
RTVSPropertyOp5
 70
     1
102
RTVSPropertyOp6
 70
     1
102
RTVSPropertyOp7
 70
     1
102
RTVSPropertyOp8
 70
     1
102
RTVSPropertyOp9
 70
     1
102
RTVSPropertyOp10
 70
     1
102
RTVSPropertyOp11
 70
     1
102
RTVSPropertyOp12
 70
     1
102
RTVSPropertyOp13
 70
     1
102
RTVSPropertyOp14
 70
     1
102
RTVSPropertyOp15
 70
     1
102
RTVSPropertyOp16
 70
     1
102
RTVSPropertyOp17
 70
     1
102
RTVSPropertyOp18
 70
     1
102
RTVSPropertyOp19
 70
     1
102
RTVSPropertyOp20
 70
     1
102
RTVSPropertyOp21
 70
     1
102
RTVSPropertyOp22
 70
     1
102
RTVSPropertyOp23
 70
     1
102
RTVSPropertyOp24
 70
     1
102
RTVSPropertyOp25
 70
     1
102
RTVSPropertyOp26
 70
     1
102
RTVSPropertyOp27
 70
     1
  0
XRECORD
  5
331
102
{ACAD_REACTORS
330
330
102
}
330
330
100
AcDbXrecord
280
     1
102
RTVSPropertyOp0
 70
     1
102
RTVSPropertyOp1
 70
     1
102
RTVSPropertyOp2
 70
     1
102
RTVSPropertyOp3
 70
     1
102
RTVSPropertyOp4
 70
     1
102
RTVSPropertyOp5
 70
     1
102
RTVSPropertyOp6
 70
     1
102
RTVSPropertyOp7
 70
     1
102
RTVSPropertyOp8
 70
     1
102
RTVSPropertyOp9
 70
     1
102
RTVSPropertyOp10
 70
     1
102
RTVSPropertyOp11
 70
     1
102
RTVSPropertyOp12
 70
     1
102
RTVSPropertyOp13
 70
     1
102
RTVSPropertyOp14
 70
     1
102
RTVSPropertyOp15
 70
     1
102
RTVSPropertyOp16
 70
     1
102
RTVSPropertyOp17
 70
     1
102
RTVSPropertyOp18
 70
     1
102
RTVSPropertyOp19
 70
     1
102
RTVSPropertyOp20
 70
     1
102
RTVSPropertyOp21
 70
     1
102
RTVSPropertyOp22
 70
     1
102
RTVSPropertyOp23
 70
     1
102
RTVSPropertyOp24
 70
     1
102
RTVSPropertyOp25
 70
     1
102
RTVSPropertyOp26
 70
     1
102
RTVSPropertyOp27
 70
     1
  0
XRECORD
  5
32D
102
{ACAD_REACTORS
330
32C
102
}
330
32C
100
AcDbXrecord
280
     1
102
RTVSPropertyOp0
 70
     1
102
RTVSPropertyOp1
 70
     1
102
RTVSPropertyOp2
 70
     1
102
RTVSPropertyOp3
 70
     1
102
RTVSPropertyOp4
 70
     1
102
RTVSPropertyOp5
 70
     1
102
RTVSPropertyOp6
 70
     1
102
RTVSPropertyOp7
 70
     1
102
RTVSPropertyOp8
 70
     1
102
RTVSPropertyOp9
 70
     1
102
RTVSPropertyOp10
 70
     1
102
RTVSPropertyOp11
 70
     1
102
RTVSPropertyOp12
 70
     1
102
RTVSPropertyOp13
 70
     1
102
RTVSPropertyOp14
 70
     1
102
RTVSPropertyOp15
 70
     1
102
RTVSPropertyOp16
 70
     1
102
RTVSPropertyOp17
 70
     1
102
RTVSPropertyOp18
 70
     1
102
RTVSPropertyOp19
 70
     1
102
RTVSPropertyOp20
 70
     1
102
RTVSPropertyOp21
 70
     1
102
RTVSPropertyOp22
 70
     1
102
RTVSPropertyOp23
 70
     1
102
RTVSPropertyOp24
 70
     1
102
RTVSPropertyOp25
 70
     1
102
RTVSPropertyOp26
 70
     1
102
RTVSPropertyOp27
 70
     1
  0
XRECORD
  5
33B
102
{ACAD_REACTORS
330
33A
102
}
330
33A
100
AcDbXrecord
280
     1
102
RTVSPropertyOp0
 70
     1
102
RTVSPropertyOp1
 70
     1
102
RTVSPropertyOp2
 70
     1
102
RTVSPropertyOp3
 70
     1
102
RTVSPropertyOp4
 70
     1
102
RTVSPropertyOp5
 70
     1
102
RTVSPropertyOp6
 70
     1
102
RTVSPropertyOp7
 70
     1
102
RTVSPropertyOp8
 70
     1
102
RTVSPropertyOp9
 70
     1
102
RTVSPropertyOp10
 70
     1
102
RTVSPropertyOp11
 70
     1
102
RTVSPropertyOp12
 70
     1
102
RTVSPropertyOp13
 70
     1
102
RTVSPropertyOp14
 70
     1
102
RTVSPropertyOp15
 70
     1
102
RTVSPropertyOp16
 70
     1
102
RTVSPropertyOp17
 70
     1
102
RTVSPropertyOp18
 70
     1
102
RTVSPropertyOp19
 70
     1
102
RTVSPropertyOp20
 70
     1
102
RTVSPropertyOp21
 70
     1
102
RTVSPropertyOp22
 70
     1
102
RTVSPropertyOp23
 70
     1
102
RTVSPropertyOp24
 70
     1
102
RTVSPropertyOp25
 70
     1
102
RTVSPropertyOp26
 70
     1
102
RTVSPropertyOp27
 70
     1
  0
XRECORD
  5
343
102
{ACAD_REACTORS
330
342
102
}
330
342
100
AcDbXrecord
280
     1
102
RTVSPropertyOp0
 70
     1
102
RTVSPropertyOp1
 70
     1
102
RTVSPropertyOp2
 70
     1
102
RTVSPropertyOp3
 70
     1
102
RTVSPropertyOp4
 70
     1
102
RTVSPropertyOp5
 70
     1
102
RTVSPropertyOp6
 70
     1
102
RTVSPropertyOp7
 70
     1
102
RTVSPropertyOp8
 70
     1
102
RTVSPropertyOp9
 70
     1
102
RTVSPropertyOp10
 70
     1
102
RTVSPropertyOp11
 70
     1
102
RTVSPropertyOp12
 70
     1
102
RTVSPropertyOp13
 70
     1
102
RTVSPropertyOp14
 70
     1
102
RTVSPropertyOp15
 70
     1
102
RTVSPropertyOp16
 70
     1
102
RTVSPropertyOp17
 70
     1
102
RTVSPropertyOp18
 70
     1
102
RTVSPropertyOp19
 70
     1
102
RTVSPropertyOp20
 70
     1
102
RTVSPropertyOp21
 70
     1
102
RTVSPropertyOp22
 70
     1
102
RTVSPropertyOp23
 70
     1
102
RTVSPropertyOp24
 70
     1
102
RTVSPropertyOp25
 70
     1
102
RTVSPropertyOp26
 70
     1
102
RTVSPropertyOp27
 70
     1
  0
XRECORD
  5
335
102
{ACAD_REACTORS
330
334
102
}
330
334
100
AcDbXrecord
280
     1
102
RTVSPropertyOp0
 70
     1
102
RTVSPropertyOp1
 70
     1
102
RTVSPropertyOp2
 70
     1
102
RTVSPropertyOp3
 70
     1
102
RTVSPropertyOp4
 70
     1
102
RTVSPropertyOp5
 70
     1
102
RTVSPropertyOp6
 70
     1
102
RTVSPropertyOp7
 70
     1
102
RTVSPropertyOp8
 70
     1
102
RTVSPropertyOp9
 70
     1
102
RTVSPropertyOp10
 70
     1
102
RTVSPropertyOp11
 70
     1
102
RTVSPropertyOp12
 70
     1
102
RTVSPropertyOp13
 70
     1
102
RTVSPropertyOp14
 70
     1
102
RTVSPropertyOp15
 70
     1
102
RTVSPropertyOp16
 70
     1
102
RTVSPropertyOp17
 70
     1
102
RTVSPropertyOp18
 70
     1
102
RTVSPropertyOp19
 70
     1
102
RTVSPropertyOp20
 70
     1
102
RTVSPropertyOp21
 70
     1
102
RTVSPropertyOp22
 70
     1
102
RTVSPropertyOp23
 70
     1
102
RTVSPropertyOp24
 70
     1
102
RTVSPropertyOp25
 70
     1
102
RTVSPropertyOp26
 70
     1
102
RTVSPropertyOp27
 70
     1
  0
XRECORD
  5
339
102
{ACAD_REACTORS
330
338
102
}
330
338
100
AcDbXrecord
280
     1
102
RTVSPropertyOp0
 70
     1
102
RTVSPropertyOp1
 70
     1
102
RTVSPropertyOp2
 70
     1
102
RTVSPropertyOp3
 70
     1
102
RTVSPropertyOp4
 70
     1
102
RTVSPropertyOp5
 70
     1
102
RTVSPropertyOp6
 70
     1
102
RTVSPropertyOp7
 70
     1
102
RTVSPropertyOp8
 70
     1
102
RTVSPropertyOp9
 70
     1
102
RTVSPropertyOp10
 70
     1
102
RTVSPropertyOp11
 70
     1
102
RTVSPropertyOp12
 70
     1
102
RTVSPropertyOp13
 70
     1
102
RTVSPropertyOp14
 70
     1
102
RTVSPropertyOp15
 70
     1
102
RTVSPropertyOp16
 70
     1
102
RTVSPropertyOp17
 70
     1
102
RTVSPropertyOp18
 70
     1
102
RTVSPropertyOp19
 70
     1
102
RTVSPropertyOp20
 70
     1
102
RTVSPropertyOp21
 70
     1
102
RTVSPropertyOp22
 70
     1
102
RTVSPropertyOp23
 70
     1
102
RTVSPropertyOp24
 70
     1
102
RTVSPropertyOp25
 70
     1
102
RTVSPropertyOp26
 70
     1
102
RTVSPropertyOp27
 70
     1
  0
XRECORD
  5
349
102
{ACAD_REACTORS
330
348
102
}
330
348
100
AcDbXrecord
280
     1
102
RTVSPropertyOp0
 70
     0
102
RTVSPropertyOp1
 70
     0
102
RTVSPropertyOp2
 70
     0
102
RTVSPropertyOp3
 70
     0
102
RTVSPropertyOp4
 70
     0
102
RTVSPropertyOp5
 70
     0
102
RTVSPropertyOp6
 70
     0
102
RTVSPropertyOp7
 70
     0
102
RTVSPropertyOp8
 70
     0
102
RTVSPropertyOp9
 70
     0
102
RTVSPropertyOp10
 70
     0
102
RTVSPropertyOp11
 70
     0
102
RTVSPropertyOp12
 70
     0
102
RTVSPropertyOp13
 70
     0
102
RTVSPropertyOp14
 70
     2
102
RTVSPropertyOp15
 70
     0
102
RTVSPropertyOp16
 70
     0
102
RTVSPropertyOp17
 70
     0
102
RTVSPropertyOp18
 70
     0
102
RTVSPropertyOp19
 70
     0
102
RTVSPropertyOp20
 70
     0
102
RTVSPropertyOp21
 70
     0
102
RTVSPropertyOp22
 70
     0
102
RTVSPropertyOp23
 70
     0
102
RTVSPropertyOp24
 70
     0
102
RTVSPropertyOp25
 70
     0
102
RTVSPropertyOp26
 70
     0
102
RTVSPropertyOp27
 70
     0
  0
XRECORD
  5
341
102
{ACAD_REACTORS
330
340
102
}
330
340
100
AcDbXrecord
280
     1
102
RTVSPropertyOp0
 70
     1
102
RTVSPropertyOp1
 70
     1
102
RTVSPropertyOp2
 70
     1
102
RTVSPropertyOp3
 70
     1
102
RTVSPropertyOp4
 70
     1
102
RTVSPropertyOp5
 70
     1
102
RTVSPropertyOp6
 70
     1
102
RTVSPropertyOp7
 70
     1
102
RTVSPropertyOp8
 70
     1
102
RTVSPropertyOp9
 70
     1
102
RTVSPropertyOp10
 70
     1
102
RTVSPropertyOp11
 70
     1
102
RTVSPropertyOp12
 70
     1
102
RTVSPropertyOp13
 70
     1
102
RTVSPropertyOp14
 70
     1
102
RTVSPropertyOp15
 70
     1
102
RTVSPropertyOp16
 70
     1
102
RTVSPropertyOp17
 70
     1
102
RTVSPropertyOp18
 70
     1
102
RTVSPropertyOp19
 70
     1
102
RTVSPropertyOp20
 70
     1
102
RTVSPropertyOp21
 70
     1
102
RTVSPropertyOp22
 70
     1
102
RTVSPropertyOp23
 70
     1
102
RTVSPropertyOp24
 70
     1
102
RTVSPropertyOp25
 70
     1
102
RTVSPropertyOp26
 70
     1
102
RTVSPropertyOp27
 70
     1
  0
XRECORD
  5
325
102
{ACAD_REACTORS
330
324
102
}
330
324
100
AcDbXrecord
280
     1
102
RTVSPropertyOp0
 70
     1
102
RTVSPropertyOp1
 70
     1
102
RTVSPropertyOp2
 70
     1
102
RTVSPropertyOp3
 70
     1
102
RTVSPropertyOp4
 70
     1
102
RTVSPropertyOp5
 70
     1
102
RTVSPropertyOp6
 70
     1
102
RTVSPropertyOp7
 70
     1
102
RTVSPropertyOp8
 70
     1
102
RTVSPropertyOp9
 70
     1
102
RTVSPropertyOp10
 70
     1
102
RTVSPropertyOp11
 70
     1
102
RTVSPropertyOp12
 70
     1
102
RTVSPropertyOp13
 70
     1
102
RTVSPropertyOp14
 70
     1
102
RTVSPropertyOp15
 70
     1
102
RTVSPropertyOp16
 70
     1
102
RTVSPropertyOp17
 70
     1
102
RTVSPropertyOp18
 70
     1
102
RTVSPropertyOp19
 70
     1
102
RTVSPropertyOp20
 70
     1
102
RTVSPropertyOp21
 70
     1
102
RTVSPropertyOp22
 70
     1
102
RTVSPropertyOp23
 70
     1
102
RTVSPropertyOp24
 70
     1
102
RTVSPropertyOp25
 70
     1
102
RTVSPropertyOp26
 70
     1
102
RTVSPropertyOp27
 70
     1
  0
XRECORD
  5
327
102
{ACAD_REACTORS
330
326
102
}
330
326
100
AcDbXrecord
280
     1
102
RTVSPropertyOp0
 70
     1
102
RTVSPropertyOp1
 70
     1
102
RTVSPropertyOp2
 70
     1
102
RTVSPropertyOp3
 70
     1
102
RTVSPropertyOp4
 70
     1
102
RTVSPropertyOp5
 70
     1
102
RTVSPropertyOp6
 70
     1
102
RTVSPropertyOp7
 70
     1
102
RTVSPropertyOp8
 70
     1
102
RTVSPropertyOp9
 70
     1
102
RTVSPropertyOp10
 70
     1
102
RTVSPropertyOp11
 70
     1
102
RTVSPropertyOp12
 70
     1
102
RTVSPropertyOp13
 70
     1
102
RTVSPropertyOp14
 70
     1
102
RTVSPropertyOp15
 70
     1
102
RTVSPropertyOp16
 70
     1
102
RTVSPropertyOp17
 70
     1
102
RTVSPropertyOp18
 70
     1
102
RTVSPropertyOp19
 70
     1
102
RTVSPropertyOp20
 70
     1
102
RTVSPropertyOp21
 70
     1
102
RTVSPropertyOp22
 70
     1
102
RTVSPropertyOp23
 70
     1
102
RTVSPropertyOp24
 70
     1
102
RTVSPropertyOp25
 70
     1
102
RTVSPropertyOp26
 70
     1
102
RTVSPropertyOp27
 70
     1
  0
XRECORD
  5
329
102
{ACAD_REACTORS
330
328
102
}
330
328
100
AcDbXrecord
280
     1
102
RTVSPropertyOp0
 70
     1
102
RTVSPropertyOp1
 70
     1
102
RTVSPropertyOp2
 70
     1
102
RTVSPropertyOp3
 70
     1
102
RTVSPropertyOp4
 70
     1
102
RTVSPropertyOp5
 70
     1
102
RTVSPropertyOp6
 70
     1
102
RTVSPropertyOp7
 70
     1
102
RTVSPropertyOp8
 70
     1
102
RTVSPropertyOp9
 70
     1
102
RTVSPropertyOp10
 70
     1
102
RTVSPropertyOp11
 70
     1
102
RTVSPropertyOp12
 70
     1
102
RTVSPropertyOp13
 70
     1
102
RTVSPropertyOp14
 70
     1
102
RTVSPropertyOp15
 70
     1
102
RTVSPropertyOp16
 70
     1
102
RTVSPropertyOp17
 70
     1
102
RTVSPropertyOp18
 70
     1
102
RTVSPropertyOp19
 70
     1
102
RTVSPropertyOp20
 70
     1
102
RTVSPropertyOp21
 70
     1
102
RTVSPropertyOp22
 70
     1
102
RTVSPropertyOp23
 70
     1
102
RTVSPropertyOp24
 70
     1
102
RTVSPropertyOp25
 70
     1
102
RTVSPropertyOp26
 70
     1
102
RTVSPropertyOp27
 70
     1
  0
XRECORD
  5
32B
102
{ACAD_REACTORS
330
32A
102
}
330
32A
100
AcDbXrecord
280
     1
102
RTVSPropertyOp0
 70
     1
102
RTVSPropertyOp1
 70
     1
102
RTVSPropertyOp2
 70
     1
102
RTVSPropertyOp3
 70
     1
102
RTVSPropertyOp4
 70
     1
102
RTVSPropertyOp5
 70
     1
102
RTVSPropertyOp6
 70
     1
102
RTVSPropertyOp7
 70
     1
102
RTVSPropertyOp8
 70
     1
102
RTVSPropertyOp9
 70
     1
102
RTVSPropertyOp10
 70
     1
102
RTVSPropertyOp11
 70
     1
102
RTVSPropertyOp12
 70
     1
102
RTVSPropertyOp13
 70
     1
102
RTVSPropertyOp14
 70
     1
102
RTVSPropertyOp15
 70
     1
102
RTVSPropertyOp16
 70
     1
102
RTVSPropertyOp17
 70
     1
102
RTVSPropertyOp18
 70
     1
102
RTVSPropertyOp19
 70
     1
102
RTVSPropertyOp20
 70
     1
102
RTVSPropertyOp21
 70
     1
102
RTVSPropertyOp22
 70
     1
102
RTVSPropertyOp23
 70
     1
102
RTVSPropertyOp24
 70
     1
102
RTVSPropertyOp25
 70
     1
102
RTVSPropertyOp26
 70
     1
102
RTVSPropertyOp27
 70
     1
  0
XRECORD
  5
345
102
{ACAD_REACTORS
330
344
102
}
330
344
100
AcDbXrecord
280
     1
102
RTVSPropertyOp0
 70
     0
102
RTVSPropertyOp1
 70
     0
102
RTVSPropertyOp2
 70
     0
102
RTVSPropertyOp3
 70
     0
102
RTVSPropertyOp4
 70
     0
102
RTVSPropertyOp5
 70
     0
102
RTVSPropertyOp6
 70
     0
102
RTVSPropertyOp7
 70
     0
102
RTVSPropertyOp8
 70
     0
102
RTVSPropertyOp9
 70
     0
102
RTVSPropertyOp10
 70
     0
102
RTVSPropertyOp11
 70
     0
102
RTVSPropertyOp12
 70
     0
102
RTVSPropertyOp13
 70
     0
102
RTVSPropertyOp14
 70
     2
102
RTVSPropertyOp15
 70
     0
102
RTVSPropertyOp16
 70
     0
102
RTVSPropertyOp17
 70
     0
102
RTVSPropertyOp18
 70
     0
102
RTVSPropertyOp19
 70
     0
102
RTVSPropertyOp20
 70
     0
102
RTVSPropertyOp21
 70
     0
102
RTVSPropertyOp22
 70
     0
102
RTVSPropertyOp23
 70
     0
102
RTVSPropertyOp24
 70
     0
102
RTVSPropertyOp25
 70
     0
102
RTVSPropertyOp26
 70
     0
102
RTVSPropertyOp27
 70
     0
  0
XRECORD
  5
33F
102
{ACAD_REACTORS
330
33E
102
}
330
33E
100
AcDbXrecord
280
     1
102
RTVSPropertyOp0
 70
     1
102
RTVSPropertyOp1
 70
     1
102
RTVSPropertyOp2
 70
     1
102
RTVSPropertyOp3
 70
     1
102
RTVSPropertyOp4
 70
     1
102
RTVSPropertyOp5
 70
     1
102
RTVSPropertyOp6
 70
     1
102
RTVSPropertyOp7
 70
     1
102
RTVSPropertyOp8
 70
     1
102
RTVSPropertyOp9
 70
     1
102
RTVSPropertyOp10
 70
     1
102
RTVSPropertyOp11
 70
     1
102
RTVSPropertyOp12
 70
     1
102
RTVSPropertyOp13
 70
     1
102
RTVSPropertyOp14
 70
     1
102
RTVSPropertyOp15
 70
     1
102
RTVSPropertyOp16
 70
     1
102
RTVSPropertyOp17
 70
     1
102
RTVSPropertyOp18
 70
     1
102
RTVSPropertyOp19
 70
     1
102
RTVSPropertyOp20
 70
     1
102
RTVSPropertyOp21
 70
     1
102
RTVSPropertyOp22
 70
     1
102
RTVSPropertyOp23
 70
     1
102
RTVSPropertyOp24
 70
     1
102
RTVSPropertyOp25
 70
     1
102
RTVSPropertyOp26
 70
     1
102
RTVSPropertyOp27
 70
     1
  0
XRECORD
  5
347
102
{ACAD_REACTORS
330
346
102
}
330
346
100
AcDbXrecord
280
     1
102
RTVSPropertyOp0
 70
     0
102
RTVSPropertyOp1
 70
     0
102
RTVSPropertyOp2
 70
     0
102
RTVSPropertyOp3
 70
     0
102
RTVSPropertyOp4
 70
     0
102
RTVSPropertyOp5
 70
     0
102
RTVSPropertyOp6
 70
     0
102
RTVSPropertyOp7
 70
     0
102
RTVSPropertyOp8
 70
     0
102
RTVSPropertyOp9
 70
     0
102
RTVSPropertyOp10
 70
     0
102
RTVSPropertyOp11
 70
     0
102
RTVSPropertyOp12
 70
     0
102
RTVSPropertyOp13
 70
     0
102
RTVSPropertyOp14
 70
     2
102
RTVSPropertyOp15
 70
     0
102
RTVSPropertyOp16
 70
     0
102
RTVSPropertyOp17
 70
     0
102
RTVSPropertyOp18
 70
     0
102
RTVSPropertyOp19
 70
     0
102
RTVSPropertyOp20
 70
     0
102
RTVSPropertyOp21
 70
     0
102
RTVSPropertyOp22
 70
     0
102
RTVSPropertyOp23
 70
     0
102
RTVSPropertyOp24
 70
     0
102
RTVSPropertyOp25
 70
     0
102
RTVSPropertyOp26
 70
     0
102
RTVSPropertyOp27
 70
     0
  0
XRECORD
  5
337
102
{ACAD_REACTORS
330
336
102
}
330
336
100
AcDbXrecord
280
     1
102
RTVSPropertyOp0
 70
     1
102
RTVSPropertyOp1
 70
     1
102
RTVSPropertyOp2
 70
     1
102
RTVSPropertyOp3
 70
     1
102
RTVSPropertyOp4
 70
     1
102
RTVSPropertyOp5
 70
     1
102
RTVSPropertyOp6
 70
     1
102
RTVSPropertyOp7
 70
     1
102
RTVSPropertyOp8
 70
     1
102
RTVSPropertyOp9
 70
     1
102
RTVSPropertyOp10
 70
     1
102
RTVSPropertyOp11
 70
     1
102
RTVSPropertyOp12
 70
     1
102
RTVSPropertyOp13
 70
     1
102
RTVSPropertyOp14
 70
     1
102
RTVSPropertyOp15
 70
     1
102
RTVSPropertyOp16
 70
     1
102
RTVSPropertyOp17
 70
     1
102
RTVSPropertyOp18
 70
     1
102
RTVSPropertyOp19
 70
     1
102
RTVSPropertyOp20
 70
     1
102
RTVSPropertyOp21
 70
     1
102
RTVSPropertyOp22
 70
     1
102
RTVSPropertyOp23
 70
     1
102
RTVSPropertyOp24
 70
     1
102
RTVSPropertyOp25
 70
     1
102
RTVSPropertyOp26
 70
     1
102
RTVSPropertyOp27
 70
     1
  0
XRECORD
  5
33D
102
{ACAD_REACTORS
330
33C
102
}
330
33C
100
AcDbXrecord
280
     1
102
RTVSPropertyOp0
 70
     1
102
RTVSPropertyOp1
 70
     1
102
RTVSPropertyOp2
 70
     1
102
RTVSPropertyOp3
 70
     1
102
RTVSPropertyOp4
 70
     1
102
RTVSPropertyOp5
 70
     1
102
RTVSPropertyOp6
 70
     1
102
RTVSPropertyOp7
 70
     1
102
RTVSPropertyOp8
 70
     1
102
RTVSPropertyOp9
 70
     1
102
RTVSPropertyOp10
 70
     1
102
RTVSPropertyOp11
 70
     1
102
RTVSPropertyOp12
 70
     1
102
RTVSPropertyOp13
 70
     1
102
RTVSPropertyOp14
 70
     1
102
RTVSPropertyOp15
 70
     1
102
RTVSPropertyOp16
 70
     1
102
RTVSPropertyOp17
 70
     1
102
RTVSPropertyOp18
 70
     1
102
RTVSPropertyOp19
 70
     1
102
RTVSPropertyOp20
 70
     1
102
RTVSPropertyOp21
 70
     1
102
RTVSPropertyOp22
 70
     1
102
RTVSPropertyOp23
 70
     1
102
RTVSPropertyOp24
 70
     1
102
RTVSPropertyOp25
 70
     1
102
RTVSPropertyOp26
 70
     1
102
RTVSPropertyOp27
 70
     1
  0
ENDSEC
  0
EOF
