  0
SECTION
  2
HEADER
  9
$ACADVER
  1
AC1015
  9
$ACADMAINTVER
 70
    20
  9
$DWGCODEPAGE
  3
ANSI_1252
  9
$INSBASE
 10
0.0
 20
0.0
 30
0.0
  9
$EXTMIN
 10
-58.83260433333333
 20
-14.425
 30
-0.0000000000000011
  9
$EXTMAX
 10
74.2125
 20
96.83260433333334
 30
0.0000000000000003
  9
$LIMMIN
 10
-0.5
 20
-0.5
  9
$LIMMAX
 10
5.0
 20
5.0
  9
$ORTHOMODE
 70
     0
  9
$REGENMODE
 70
     1
  9
$FILLMODE
 70
     1
  9
$QTEXTMODE
 70
     0
  9
$MIRRTEXT
 70
     1
  9
$LTSCALE
 40
1.0
  9
$ATTMODE
 70
     1
  9
$TEXTSIZE
 40
5.0
  9
$TRACEWID
 40
0.05
  9
$TEXTSTYLE
  7
Standard
  9
$CLAYER
  8
NOCUT
  9
$CELTYPE
  6
ByLayer
  9
$CECOLOR
 62
   256
  9
$CELTSCALE
 40
1.0
  9
$DISPSILH
 70
     0
  9
$DIMSCALE
 40
1.0
  9
$DIMASZ
 40
0.18
  9
$DIMEXO
 40
0.0625
  9
$DIMDLI
 40
0.38
  9
$DIMRND
 40
0.0
  9
$DIMDLE
 40
0.0
  9
$DIMEXE
 40
0.18
  9
$DIMTP
 40
0.0
  9
$DIMTM
 40
0.0
  9
$DIMTXT
 40
0.18
  9
$DIMCEN
 40
0.09
  9
$DIMTSZ
 40
0.0
  9
$DIMTOL
 70
     0
  9
$DIMLIM
 70
     0
  9
$DIMTIH
 70
     1
  9
$DIMTOH
 70
     1
  9
$DIMSE1
 70
     0
  9
$DIMSE2
 70
     0
  9
$DIMTAD
 70
     0
  9
$DIMZIN
 70
     0
  9
$DIMBLK
  1

  9
$DIMASO
 70
     1
  9
$DIMSHO
 70
     1
  9
$DIMPOST
  1

  9
$DIMAPOST
  1

  9
$DIMALT
 70
     0
  9
$DIMALTD
 70
     2
  9
$DIMALTF
 40
25.4
  9
$DIMLFAC
 40
1.0
  9
$DIMTOFL
 70
     0
  9
$DIMTVP
 40
0.0
  9
$DIMTIX
 70
     0
  9
$DIMSOXD
 70
     0
  9
$DIMSAH
 70
     0
  9
$DIMBLK1
  1

  9
$DIMBLK2
  1

  9
$DIMSTYLE
  2
Standard
  9
$DIMCLRD
 70
     0
  9
$DIMCLRE
 70
     0
  9
$DIMCLRT
 70
     0
  9
$DIMTFAC
 40
1.0
  9
$DIMGAP
 40
0.09
  9
$DIMJUST
 70
     0
  9
$DIMSD1
 70
     0
  9
$DIMSD2
 70
     0
  9
$DIMTOLJ
 70
     1
  9
$DIMTZIN
 70
     0
  9
$DIMALTZ
 70
     0
  9
$DIMALTTZ
 70
     0
  9
$DIMUPT
 70
     0
  9
$DIMDEC
 70
     4
  9
$DIMTDEC
 70
     4
  9
$DIMALTU
 70
     2
  9
$DIMALTTD
 70
     2
  9
$DIMTXSTY
  7
Standard
  9
$DIMAUNIT
 70
     0
  9
$DIMADEC
 70
     0
  9
$DIMALTRND
 40
0.0
  9
$DIMAZIN
 70
     0
  9
$DIMDSEP
 70
     0
  9
$DIMATFIT
 70
     3
  9
$DIMFRAC
 70
     0
  9
$DIMLDRBLK
  1

  9
$DIMLUNIT
 70
     2
  9
$DIMLWD
 70
     0
  9
$DIMLWE
 70
     0
  9
$DIMTMOVE
 70
     0
  9
$LUNITS
 70
     2
  9
$LUPREC
 70
     4
  9
$SKETCHINC
 40
0.1
  9
$FILLETRAD
 40
0.0
  9
$AUNITS
 70
     0
  9
$AUPREC
 70
     0
  9
$MENU
  1
acad
  9
$ELEVATION
 40
0.0
  9
$PELEVATION
 40
0.0
  9
$THICKNESS
 40
0.0
  9
$LIMCHECK
 70
     0
  9
$CHAMFERA
 40
0.0
  9
$CHAMFERB
 40
0.0
  9
$CHAMFERC
 40
0.0
  9
$CHAMFERD
 40
0.0
  9
$SKPOLY
 70
     0
  9
$TDCREATE
 40
2457459.596404687
  9
$TDUCREATE
 40
2457459.554738021
  9
$TDUPDATE
 40
2457459.596984248
  9
$TDUUPDATE
 40
2457459.555317581
  9
$TDINDWG
 40
0.0005799306
  9
$TDUSRTIMER
 40
0.0005799074
  9
$USRTIMER
 70
     1
  9
$ANGBASE
 50
0.0
  9
$ANGDIR
 70
     0
  9
$PDMODE
 70
     0
  9
$PDSIZE
 40
0.0
  9
$PLINEWID
 40
0.0
  9
$SPLFRAME
 70
     0
  9
$SPLINETYPE
 70
     6
  9
$SPLINESEGS
 70
     8
  9
$HANDSEED
  5
216
  9
$SURFTAB1
 70
     6
  9
$SURFTAB2
 70
     6
  9
$SURFTYPE
 70
     6
  9
$SURFU
 70
     6
  9
$SURFV
 70
     6
  9
$UCSBASE
  2

  9
$UCSNAME
  2

  9
$UCSORG
 10
0.0
 20
0.0
 30
0.0
  9
$UCSXDIR
 10
1.0
 20
0.0
 30
0.0
  9
$UCSYDIR
 10
0.0
 20
1.0
 30
0.0
  9
$UCSORTHOREF
  2

  9
$UCSORTHOVIEW
 70
     0
  9
$UCSORGTOP
 10
0.0
 20
0.0
 30
0.0
  9
$UCSORGBOTTOM
 10
0.0
 20
0.0
 30
0.0
  9
$UCSORGLEFT
 10
0.0
 20
0.0
 30
0.0
  9
$UCSORGRIGHT
 10
0.0
 20
0.0
 30
0.0
  9
$UCSORGFRONT
 10
0.0
 20
0.0
 30
0.0
  9
$UCSORGBACK
 10
0.0
 20
0.0
 30
0.0
  9
$PUCSBASE
  2

  9
$PUCSNAME
  2

  9
$PUCSORG
 10
0.0
 20
0.0
 30
0.0
  9
$PUCSXDIR
 10
1.0
 20
0.0
 30
0.0
  9
$PUCSYDIR
 10
0.0
 20
1.0
 30
0.0
  9
$PUCSORTHOREF
  2

  9
$PUCSORTHOVIEW
 70
     0
  9
$PUCSORGTOP
 10
0.0
 20
0.0
 30
0.0
  9
$PUCSORGBOTTOM
 10
0.0
 20
0.0
 30
0.0
  9
$PUCSORGLEFT
 10
0.0
 20
0.0
 30
0.0
  9
$PUCSORGRIGHT
 10
0.0
 20
0.0
 30
0.0
  9
$PUCSORGFRONT
 10
0.0
 20
0.0
 30
0.0
  9
$PUCSORGBACK
 10
0.0
 20
0.0
 30
0.0
  9
$USERI1
 70
     0
  9
$USERI2
 70
     0
  9
$USERI3
 70
     0
  9
$USERI4
 70
     0
  9
$USERI5
 70
     0
  9
$USERR1
 40
0.0
  9
$USERR2
 40
0.0
  9
$USERR3
 40
0.0
  9
$USERR4
 40
0.0
  9
$USERR5
 40
0.0
  9
$WORLDVIEW
 70
     1
  9
$SHADEDGE
 70
     3
  9
$SHADEDIF
 70
    70
  9
$TILEMODE
 70
     1
  9
$MAXACTVP
 70
    64
  9
$PINSBASE
 10
0.0
 20
0.0
 30
0.0
  9
$PLIMCHECK
 70
     0
  9
$PEXTMIN
 10
-0.5
 20
-0.5
 30
-0.5
  9
$PEXTMAX
 10
5.0
 20
5.0
 30
5.0
  9
$PLIMMIN
 10
-0.5
 20
-0.5
  9
$PLIMMAX
 10
5.0
 20
5.0
  9
$UNITMODE
 70
     0
  9
$VISRETAIN
 70
     0
  9
$PLINEGEN
 70
     1
  9
$PSLTSCALE
 70
     0
  9
$TREEDEPTH
 70
  3020
  9
$CMLSTYLE
  2
Standard
  9
$CMLJUST
 70
     0
  9
$CMLSCALE
 40
1.0
  9
$PROXYGRAPHICS
 70
     0
  9
$MEASUREMENT
 70
     1
  9
$CELWEIGHT
370
     0
  9
$ENDCAPS
280
     0
  9
$JOINSTYLE
280
     0
  9
$LWDISPLAY
290
     0
  9
$INSUNITS
 70
     0
  9
$HYPERLINKBASE
  1

  9
$STYLESHEET
  1

  9
$XEDIT
290
     1
  9
$CEPSNTYPE
380
     0
  9
$PSTYLEMODE
290
     1
  9
$FINGERPRINTGUID
  2

  9
$VERSIONGUID
  2
{F2E1424C-40B7-4FA8-B975-41A19D9D2EAE}
  9
$EXTNAMES
290
     1
  9
$PSVPSCALE
 40
0.0
  9
$OLESTARTUP
290
     0
  0
ENDSEC
  0
SECTION
  2
CLASSES
  0
CLASS
  1
IMAGE
  2
AcDbRasterImage
  3
ISM
 90
    34943
280
     0
281
     1
  0
CLASS
  1
DICTIONARYVAR
  2
AcDbDictionaryVar
  3
ObjectDBX Classes
 90
        0
280
     0
281
     0
  0
CLASS
  1
RASTERVARIABLES
  2
AcDbRasterVariables
  3
ISM
 90
    32768
280
     0
281
     0
  0
CLASS
  1
IMAGEDEF
  2
AcDbRasterImageDef
  3
ISM
 90
    32768
280
     0
281
     0
  0
CLASS
  1
IMAGEDEF_REACTOR
  2
AcDbRasterImageDefReactor
  3
ISM
 90
    32769
280
     0
281
     0
  0
CLASS
  1
IDBUFFER
  2
AcDbIdBuffer
  3
ObjectDBX Classes
 90
    32768
280
     0
281
     0
  0
CLASS
  1
SPATIAL_FILTER
  2
AcDbSpatialFilter
  3
ObjectDBX Classes
 90
    32768
280
     0
281
     0
  0
CLASS
  1
SORTENTSTABLE
  2
AcDbSortentsTable
  3
ObjectDBX Classes
 90
    32768
280
     0
281
     0
  0
CLASS
  1
LAYER_INDEX
  2
AcDbLayerIndex
  3
ObjectDBX Classes
 90
    32768
280
     0
281
     0
  0
CLASS
  1
SPATIAL_INDEX
  2
AcDbSpatialIndex
  3
ObjectDBX Classes
 90
    32768
280
     0
281
     0
  0
CLASS
  1
OBJECT_PTR
  2
CAseDLPNTableRecord
  3
ASE-LPNTableRecord
 90
    32769
280
     0
281
     0
  0
CLASS
  1
LAYOUT
  2
AcDbLayout
  3
ObjectDBX Classes
 90
        0
280
     0
281
     0
  0
CLASS
  1
PLOTSETTINGS
  2
AcDbPlotSettings
  3
ObjectDBX Classes
 90
    32768
280
     0
281
     0
  0
CLASS
  1
ACDBDICTIONARYWDFLT
  2
AcDbDictionaryWithDefault
  3
ObjectDBX Classes
 90
        0
280
     0
281
     0
  0
CLASS
  1
ACDBPLACEHOLDER
  2
AcDbPlaceHolder
  3
ObjectDBX Classes
 90
        0
280
     0
281
     0
  0
CLASS
  1
VBA_PROJECT
  2
AcDbVbaProject
  3
acad
 90
    32768
280
     0
281
     0
  0
CLASS
  1
WIPEOUT
  2
AcDbWipeout
  3
"WipeOut|Product Desc: Object Enabler for WipeOut entity                        |Company: Autodesk, Inc.                        |WEB Address: www.autodesk.com"
 90
    34943
280
     0
281
     1
  0
CLASS
  1
WIPEOUTVARIABLES
  2
AcDbWipeoutVariables
  3
"WipeOut|Product Desc:     WipeOut Dbx Application|Company:          Autodesk, Inc.|WEB Address:      www.autodesk.com"
 90
        0
280
     0
281
     0
  0
CLASS
  1
RTEXT
  2
RText
  3
RText|AutoCAD Express Tool|expresstools@autodesk.com
 90
    35839
280
     0
281
     1
  0
CLASS
  1
ARCALIGNEDTEXT
  2
AcDbArcAlignedText
  3
ATEXT|AutoCAD Express Tool|expresstools@autodesk.com
 90
    32768
280
     0
281
     1
  0
CLASS
  1
SCALE
  2
AcDbScale
  3
ObjectDBX Classes
 90
     1153
280
     0
281
     0
  0
CLASS
  1
MATERIAL
  2
AcDbMaterial
  3
ObjectDBX Classes
 90
     1153
280
     0
281
     0
  0
CLASS
  1
VISUALSTYLE
  2
AcDbVisualStyle
  3
ObjectDBX Classes
 90
     4095
280
     0
281
     0
  0
CLASS
  1
TABLESTYLE
  2
AcDbTableStyle
  3
ObjectDBX Classes
 90
     4095
280
     0
281
     0
  0
CLASS
  1
MLEADERSTYLE
  2
AcDbMLeaderStyle
  3
ACDB_MLEADERSTYLE_CLASS
 90
     4095
280
     0
281
     0
  0
CLASS
  1
CELLSTYLEMAP
  2
AcDbCellStyleMap
  3
ObjectDBX Classes
 90
     1152
280
     0
281
     0
  0
ENDSEC
  0
SECTION
  2
TABLES
  0
TABLE
  2
VPORT
  5
7
330
0
100
AcDbSymbolTable
 70
    16
  0
VPORT
  5
136
330
7
100
AcDbSymbolTableRecord
100
AcDbViewportTableRecord
  2
*ACTIVE
 70
     0
 10
0.0
 20
0.0
 11
1.0
 21
1.0
 12
197.3901740134228
 22
23.892498
 13
0.0
 23
0.0
 14
1.0
 24
1.0
 15
0.0
 25
0.0
 16
0.0
 26
0.0
 36
1.0
 17
0.0
 27
0.0
 37
0.0
 40
254.1412232092543
 41
2.186577181208053
 42
50.0
 43
274.598704
 44
-274.598704
 50
0.0
 51
0.0
 71
    16
 72
   100
 73
     1
 74
     1
 75
     0
 76
     0
 77
     0
 78
     0
281
     0
 65
     0
110
0.0
120
0.0
130
0.0
111
1.0
121
0.0
131
0.0
112
0.0
122
1.0
132
0.0
 79
     0
146
0.0
  0
VPORT
  5
137
330
7
100
AcDbSymbolTableRecord
100
AcDbViewportTableRecord
  2
L1
 70
     0
 10
0.0
 20
0.0
 11
1.0
 21
1.0
 12
7.1425
 22
23.892498
 13
0.0
 23
0.0
 14
1.0
 24
1.0
 15
0.0
 25
0.0
 16
0.0
 26
0.0
 36
1.0
 17
0.0
 27
0.0
 37
0.0
 40
254.0
 41
0.6885640000000001
 42
50.0
 43
274.598704
 44
-274.598704
 50
0.0
 51
0.0
 71
    16
 72
   100
 73
     1
 74
     1
 75
     0
 76
     0
 77
     0
 78
     0
281
     0
 65
     0
110
0.0
120
0.0
130
0.0
111
1.0
121
0.0
131
0.0
112
0.0
122
1.0
132
0.0
 79
     0
146
0.0
  0
VPORT
  5
138
330
7
100
AcDbSymbolTableRecord
100
AcDbViewportTableRecord
  2
L2
 70
     0
 10
0.0
 20
0.0
 11
0.5
 21
1.0
 12
0.0
 22
0.0
 13
0.0
 23
0.0
 14
1.0
 24
1.0
 15
0.0
 25
0.0
 16
0.0
 26
-1.0
 36
0.0
 17
0.0
 27
0.0
 37
0.0
 40
1583.996559
 41
0.688564
 42
50.0
 43
815.290728
 44
-815.290728
 50
0.0
 51
0.0
 71
    16
 72
   100
 73
     1
 74
     1
 75
     0
 76
     0
 77
     0
 78
     0
281
     0
 65
     0
110
0.0
120
0.0
130
0.0
111
1.0
121
0.0
131
0.0
112
0.0
122
1.0
132
0.0
 79
     0
146
0.0
  0
VPORT
  5
139
330
7
100
AcDbSymbolTableRecord
100
AcDbViewportTableRecord
  2
L2
 70
     0
 10
0.5
 20
0.0
 11
1.0
 21
1.0
 12
0.0
 22
0.0
 13
0.0
 23
0.0
 14
1.0
 24
1.0
 15
0.0
 25
0.0
 16
1.0
 26
0.0
 36
0.0
 17
0.0
 27
0.0
 37
0.0
 40
1583.996559
 41
0.688564
 42
50.0
 43
802.116123
 44
-802.116123
 50
0.0
 51
0.0
 71
    16
 72
   100
 73
     1
 74
     1
 75
     0
 76
     0
 77
     0
 78
     0
281
     0
 65
     0
110
0.0
120
0.0
130
0.0
111
1.0
121
0.0
131
0.0
112
0.0
122
1.0
132
0.0
 79
     0
146
0.0
  0
VPORT
  5
13A
330
7
100
AcDbSymbolTableRecord
100
AcDbViewportTableRecord
  2
L3
 70
     0
 10
0.0
 20
0.5
 11
1.0
 21
1.0
 12
7.1425
 22
23.892498
 13
0.0
 23
0.0
 14
1.0
 24
1.0
 15
0.0
 25
0.0
 16
0.0
 26
0.0
 36
1.0
 17
0.0
 27
0.0
 37
0.0
 40
254.0
 41
0.6885640000000001
 42
50.0
 43
274.598704
 44
-274.598704
 50
0.0
 51
0.0
 71
    16
 72
   100
 73
     1
 74
     1
 75
     0
 76
     0
 77
     0
 78
     0
281
     0
 65
     0
110
0.0
120
0.0
130
0.0
111
1.0
121
0.0
131
0.0
112
0.0
122
1.0
132
0.0
 79
     0
146
0.0
  0
VPORT
  5
13B
330
7
100
AcDbSymbolTableRecord
100
AcDbViewportTableRecord
  2
L3
 70
     0
 10
0.0
 20
0.0
 11
1.0
 21
0.5
 12
0.0
 22
0.0
 13
0.0
 23
0.0
 14
1.0
 24
1.0
 15
0.0
 25
0.0
 16
0.0
 26
-1.0
 36
0.0
 17
0.0
 27
0.0
 37
0.0
 40
1583.996559
 41
0.688564
 42
50.0
 43
815.290728
 44
-815.290728
 50
0.0
 51
0.0
 71
    16
 72
   100
 73
     1
 74
     1
 75
     0
 76
     0
 77
     0
 78
     0
281
     0
 65
     0
110
0.0
120
0.0
130
0.0
111
1.0
121
0.0
131
0.0
112
0.0
122
1.0
132
0.0
 79
     0
146
0.0
  0
VPORT
  5
13C
330
7
100
AcDbSymbolTableRecord
100
AcDbViewportTableRecord
  2
L4
 70
     0
 10
0.0
 20
0.5
 11
0.5
 21
1.0
 12
7.1425
 22
23.892498
 13
0.0
 23
0.0
 14
1.0
 24
1.0
 15
0.0
 25
0.0
 16
0.0
 26
0.0
 36
1.0
 17
0.0
 27
0.0
 37
0.0
 40
254.0
 41
0.6885640000000001
 42
50.0
 43
274.598704
 44
-274.598704
 50
0.0
 51
0.0
 71
    16
 72
   100
 73
     1
 74
     1
 75
     0
 76
     0
 77
     0
 78
     0
281
     0
 65
     0
110
0.0
120
0.0
130
0.0
111
1.0
121
0.0
131
0.0
112
0.0
122
1.0
132
0.0
 79
     0
146
0.0
  0
VPORT
  5
13D
330
7
100
AcDbSymbolTableRecord
100
AcDbViewportTableRecord
  2
L4
 70
     0
 10
0.0
 20
0.0
 11
0.5
 21
0.5
 12
0.0
 22
0.0
 13
0.0
 23
0.0
 14
1.0
 24
1.0
 15
0.0
 25
0.0
 16
0.0
 26
-1.0
 36
0.0
 17
0.0
 27
0.0
 37
0.0
 40
1583.996559
 41
0.688564
 42
50.0
 43
815.290728
 44
-815.290728
 50
0.0
 51
0.0
 71
    16
 72
   100
 73
     1
 74
     1
 75
     0
 76
     0
 77
     0
 78
     0
281
     0
 65
     0
110
0.0
120
0.0
130
0.0
111
1.0
121
0.0
131
0.0
112
0.0
122
1.0
132
0.0
 79
     0
146
0.0
  0
VPORT
  5
13E
330
7
100
AcDbSymbolTableRecord
100
AcDbViewportTableRecord
  2
L4
 70
     0
 10
0.5
 20
0.0
 11
1.0
 21
0.5
 12
0.0
 22
0.0
 13
0.0
 23
0.0
 14
1.0
 24
1.0
 15
0.0
 25
0.0
 16
1.0
 26
0.0
 36
0.0
 17
0.0
 27
0.0
 37
0.0
 40
1583.996559
 41
0.688564
 42
50.0
 43
802.116123
 44
-802.116123
 50
0.0
 51
0.0
 71
    16
 72
   100
 73
     1
 74
     1
 75
     0
 76
     0
 77
     0
 78
     0
281
     0
 65
     0
110
0.0
120
0.0
130
0.0
111
1.0
121
0.0
131
0.0
112
0.0
122
1.0
132
0.0
 79
     0
146
0.0
  0
VPORT
  5
13F
330
7
100
AcDbSymbolTableRecord
100
AcDbViewportTableRecord
  2
L4
 70
     0
 10
0.5
 20
0.5
 11
1.0
 21
1.0
 12
0.0
 22
0.0
 13
0.0
 23
0.0
 14
1.0
 24
1.0
 15
0.0
 25
0.0
 16
0.5773500000000001
 26
-0.5773500000000001
 36
0.5773500000000001
 17
0.0
 27
0.0
 37
0.0
 40
1555.005323
 41
0.6885640000000001
 42
50.0
 43
809.8560009999999
 44
-809.8560009999999
 50
0.0
 51
0.0
 71
    16
 72
   100
 73
     1
 74
     1
 75
     0
 76
     0
 77
     0
 78
     0
281
     0
 65
     0
110
0.0
120
0.0
130
0.0
111
1.0
121
0.0
131
0.0
112
0.0
122
1.0
132
0.0
 79
     0
146
0.0
  0
VPORT
  5
140
330
7
100
AcDbSymbolTableRecord
100
AcDbViewportTableRecord
  2
L6
 70
     0
 10
0.0
 20
0.5
 11
0.333333
 21
1.0
 12
0.0
 22
0.0
 13
0.0
 23
0.0
 14
1.0
 24
1.0
 15
0.0
 25
0.0
 16
0.718873
 26
-0.5850489999999999
 36
0.375419
 17
0.0
 27
0.0
 37
0.0
 40
1641.004744
 41
0.6885640000000001
 42
50.0
 43
849.6493710000001
 44
-849.6493710000001
 50
0.0
 51
0.0
 71
    16
 72
   100
 73
     1
 74
     1
 75
     0
 76
     0
 77
     0
 78
     0
281
     0
 65
     0
110
0.0
120
0.0
130
0.0
111
1.0
121
0.0
131
0.0
112
0.0
122
1.0
132
0.0
 79
     0
146
0.0
  0
VPORT
  5
141
330
7
100
AcDbSymbolTableRecord
100
AcDbViewportTableRecord
  2
L6
 70
     0
 10
0.0
 20
0.0
 11
0.333333
 21
0.5
 12
0.0
 22
0.0
 13
0.0
 23
0.0
 14
1.0
 24
1.0
 15
0.0
 25
0.0
 16
-1.0
 26
0.0
 36
0.0
 17
0.0
 27
0.0
 37
0.0
 40
1583.996559
 41
0.688564
 42
50.0
 43
802.116123
 44
-802.116123
 50
0.0
 51
0.0
 71
    16
 72
   100
 73
     1
 74
     1
 75
     0
 76
     0
 77
     0
 78
     0
281
     0
 65
     0
110
0.0
120
0.0
130
0.0
111
1.0
121
0.0
131
0.0
112
0.0
122
1.0
132
0.0
 79
     0
146
0.0
  0
VPORT
  5
142
330
7
100
AcDbSymbolTableRecord
100
AcDbViewportTableRecord
  2
L6
 70
     0
 10
0.333333
 20
0.5
 11
0.666667
 21
1.0
 12
7.1425
 22
23.892498
 13
0.0
 23
0.0
 14
1.0
 24
1.0
 15
0.0
 25
0.0
 16
0.0
 26
0.0
 36
1.0
 17
0.0
 27
0.0
 37
0.0
 40
254.0
 41
0.6885640000000001
 42
50.0
 43
274.598704
 44
-274.598704
 50
0.0
 51
0.0
 71
    16
 72
   100
 73
     1
 74
     1
 75
     0
 76
     0
 77
     0
 78
     0
281
     0
 65
     0
110
0.0
120
0.0
130
0.0
111
1.0
121
0.0
131
0.0
112
0.0
122
1.0
132
0.0
 79
     0
146
0.0
  0
VPORT
  5
143
330
7
100
AcDbSymbolTableRecord
100
AcDbViewportTableRecord
  2
L6
 70
     0
 10
0.333333
 20
0.0
 11
0.666667
 21
0.5
 12
0.0
 22
0.0
 13
0.0
 23
0.0
 14
1.0
 24
1.0
 15
0.0
 25
0.0
 16
0.0
 26
-1.0
 36
0.0
 17
0.0
 27
0.0
 37
0.0
 40
1583.996559
 41
0.688564
 42
50.0
 43
815.290728
 44
-815.290728
 50
0.0
 51
0.0
 71
    16
 72
   100
 73
     1
 74
     1
 75
     0
 76
     0
 77
     0
 78
     0
281
     0
 65
     0
110
0.0
120
0.0
130
0.0
111
1.0
121
0.0
131
0.0
112
0.0
122
1.0
132
0.0
 79
     0
146
0.0
  0
VPORT
  5
144
330
7
100
AcDbSymbolTableRecord
100
AcDbViewportTableRecord
  2
L6
 70
     0
 10
0.666667
 20
0.5
 11
1.0
 21
1.0
 12
0.0
 22
0.0
 13
0.0
 23
0.0
 14
1.0
 24
1.0
 15
0.0
 25
0.0
 16
0.5773500000000001
 26
-0.5773500000000001
 36
0.5773500000000001
 17
0.0
 27
0.0
 37
0.0
 40
1555.005323
 41
0.6885640000000001
 42
50.0
 43
809.8560009999999
 44
-809.8560009999999
 50
0.0
 51
0.0
 71
    16
 72
   100
 73
     1
 74
     1
 75
     0
 76
     0
 77
     0
 78
     0
281
     0
 65
     0
110
0.0
120
0.0
130
0.0
111
1.0
121
0.0
131
0.0
112
0.0
122
1.0
132
0.0
 79
     0
146
0.0
  0
VPORT
  5
145
330
7
100
AcDbSymbolTableRecord
100
AcDbViewportTableRecord
  2
L6
 70
     0
 10
0.666667
 20
0.0
 11
1.0
 21
0.5
 12
0.0
 22
0.0
 13
0.0
 23
0.0
 14
1.0
 24
1.0
 15
0.0
 25
0.0
 16
1.0
 26
0.0
 36
0.0
 17
0.0
 27
0.0
 37
0.0
 40
1583.996559
 41
0.688564
 42
50.0
 43
802.116123
 44
-802.116123
 50
0.0
 51
0.0
 71
    16
 72
   100
 73
     1
 74
     1
 75
     0
 76
     0
 77
     0
 78
     0
281
     0
 65
     0
110
0.0
120
0.0
130
0.0
111
1.0
121
0.0
131
0.0
112
0.0
122
1.0
132
0.0
 79
     0
146
0.0
  0
ENDTAB
  0
TABLE
  2
LTYPE
  5
4
330
0
100
AcDbSymbolTable
 70
     9
  0
LTYPE
  5
11
330
4
100
AcDbSymbolTableRecord
100
AcDbLinetypeTableRecord
  2
ByBlock
 70
     0
  3

 72
    65
 73
     0
 40
0.0
  0
LTYPE
  5
12
330
4
100
AcDbSymbolTableRecord
100
AcDbLinetypeTableRecord
  2
ByLayer
 70
     0
  3

 72
    65
 73
     0
 40
0.0
  0
LTYPE
  5
13
330
4
100
AcDbSymbolTableRecord
100
AcDbLinetypeTableRecord
  2
Continuous
 70
     0
  3
Solid line
 72
    65
 73
     0
 40
0.0
  0
LTYPE
  5
24
330
4
100
AcDbSymbolTableRecord
100
AcDbLinetypeTableRecord
  2
DASHED
 70
     0
  3
Dashed
 72
    65
 73
     2
 40
15.0
 49
12.0
 74
     4
 75
     0
340
0
 46
0.0
 50
0.0
 44
0.0
 45
0.0
 49
-3.0
 74
     4
 75
     0
340
0
 46
0.0
 50
0.0
 44
0.0
 45
0.0
  0
LTYPE
  5
25
330
4
100
AcDbSymbolTableRecord
100
AcDbLinetypeTableRecord
  2
HIDDEN
 70
     0
  3
Hidden __ __ __ __ __ __ __ __ __ __ __ __ __ _
 72
    65
 73
     2
 40
9.524999999999996
 49
6.349999999999997
 74
     4
 75
     0
340
0
 46
0.0
 50
0.0
 44
0.0
 45
0.0
 49
-3.174999999999998
 74
     4
 75
     0
340
0
 46
0.0
 50
0.0
 44
0.0
 45
0.0
  0
LTYPE
  5
26
330
4
100
AcDbSymbolTableRecord
100
AcDbLinetypeTableRecord
  2
PHANTOM
 70
     0
  3
____ _ _ ____ _ _ _____ _ _ ____
 72
    65
 73
     6
 40
50.5
 49
18.0
 74
     0
 49
-6.5
 74
     0
 49
6.5
 74
     0
 49
-6.5
 74
     0
 49
6.5
 74
     0
 49
-6.5
 74
     0
  0
LTYPE
  5
27
330
4
100
AcDbSymbolTableRecord
100
AcDbLinetypeTableRecord
  2
CENTER
 70
     0
  3
Dash dot __ . __ . __ . __ . __ . __ . __ . __
 72
    65
 73
     4
 40
25.4
 49
12.7
 74
     4
 75
     0
340
0
 46
0.0
 50
0.0
 44
0.0
 45
0.0
 49
-6.349999999999997
 74
     4
 75
     0
340
0
 46
0.0
 50
0.0
 44
0.0
 45
0.0
 49
0.0
 74
     4
 75
     0
340
0
 46
0.0
 50
0.0
 44
0.0
 45
0.0
 49
-6.349999999999997
 74
     4
 75
     0
340
0
 46
0.0
 50
0.0
 44
0.0
 45
0.0
  0
LTYPE
  5
28
330
4
100
AcDbSymbolTableRecord
100
AcDbLinetypeTableRecord
  2
DOT
 70
     0
  3
.........................
 72
    65
 73
     2
 40
10.0
 49
0.0
 74
     0
 49
-10.0
 74
     0
  0
LTYPE
  5
29
330
4
100
AcDbSymbolTableRecord
100
AcDbLinetypeTableRecord
  2
DASHDOT
 70
     0
  3
_._._._._._._._._._._._._._._._.
 72
    65
 73
     4
 40
70.0
 49
31.0
 74
     0
 49
-13.0
 74
     0
 49
13.0
 74
     0
 49
-13.0
 74
     0
  0
LTYPE
  5
16B
330
4
100
AcDbSymbolTableRecord
100
AcDbLinetypeTableRecord
  2
DOT_CENTER
 70
     0
  3
Dot_Center
 72
    65
 73
     4
 40
2.0
 49
1.25
 74
     4
 75
     0
340
0
 46
0.0
 50
0.0
 44
0.0
 45
0.0
 49
-0.25
 74
     4
 75
     0
340
0
 46
0.0
 50
0.0
 44
0.0
 45
0.0
 49
0.25
 74
     4
 75
     0
340
0
 46
0.0
 50
0.0
 44
0.0
 45
0.0
 49
-0.25
 74
     4
 75
     0
340
0
 46
0.0
 50
0.0
 44
0.0
 45
0.0
  0
LTYPE
  5
16C
330
4
100
AcDbSymbolTableRecord
100
AcDbLinetypeTableRecord
  2
LONG_DASHED
 70
     0
  3
Long_Dashed
 72
    65
 73
     2
 40
2.0
 49
1.5
 74
     4
 75
     0
340
0
 46
0.0
 50
0.0
 44
0.0
 45
0.0
 49
-0.5
 74
     4
 75
     0
340
0
 46
0.0
 50
0.0
 44
0.0
 45
0.0
  0
ENDTAB
  0
TABLE
  2
LAYER
  5
2
330
0
100
AcDbSymbolTable
 70
    11
  0
LAYER
  5
14
102
{ACAD_XDICTIONARY
360
1C5
102
}
330
2
100
AcDbSymbolTableRecord
100
AcDbLayerTableRecord
  2
0
 70
     0
 62
     7
  6
Continuous
370
    -3
390
1D
  0
LAYER
  5
186
330
2
100
AcDbSymbolTableRecord
100
AcDbLayerTableRecord
  2
DEFPOINTS
 70
     0
 62
     7
  6
Continuous
290
     0
370
    -3
390
1D
  0
LAYER
  5
187
102
{ACAD_XDICTIONARY
360
1C7
102
}
330
2
100
AcDbSymbolTableRecord
100
AcDbLayerTableRecord
  2
NOCUT
 70
     0
 62
     7
  6
Continuous
370
    -3
390
1D
  0
LAYER
  5
188
102
{ACAD_XDICTIONARY
360
1C9
102
}
330
2
100
AcDbSymbolTableRecord
100
AcDbLayerTableRecord
  2
CUT
 70
     0
 62
     1
  6
Continuous
370
    -3
390
1D
  0
LAYER
  5
189
102
{ACAD_XDICTIONARY
360
1CB
102
}
330
2
100
AcDbSymbolTableRecord
100
AcDbLayerTableRecord
  2
1
 70
     0
 62
     4
  6
Continuous
370
    -3
390
1D
  0
LAYER
  5
18A
102
{ACAD_XDICTIONARY
360
1CD
102
}
330
2
100
AcDbSymbolTableRecord
100
AcDbLayerTableRecord
  2
SK1
 70
     0
 62
     4
  6
Continuous
370
    -3
390
1D
  0
LAYER
  5
18B
102
{ACAD_XDICTIONARY
360
1CF
102
}
330
2
100
AcDbSymbolTableRecord
100
AcDbLayerTableRecord
  2
4
 70
     0
 62
     2
  6
CENTER
370
    -3
390
1D
  0
LAYER
  5
18C
102
{ACAD_XDICTIONARY
360
1D1
102
}
330
2
100
AcDbSymbolTableRecord
100
AcDbLayerTableRecord
  2
SK4
 70
     0
 62
     2
  6
CENTER
370
    -3
390
1D
  0
LAYER
  5
18D
102
{ACAD_XDICTIONARY
360
1D3
102
}
330
2
100
AcDbSymbolTableRecord
100
AcDbLayerTableRecord
  2
SK6
 70
     0
 62
     5
  6
Continuous
370
    -3
390
1D
  0
LAYER
  5
18E
102
{ACAD_XDICTIONARY
360
1D5
102
}
330
2
100
AcDbSymbolTableRecord
100
AcDbLayerTableRecord
  2
2
 70
     0
 62
     7
  6
Continuous
370
    -3
390
1D
  0
LAYER
  5
18F
102
{ACAD_XDICTIONARY
360
1D7
102
}
330
2
100
AcDbSymbolTableRecord
100
AcDbLayerTableRecord
  2
SK2
 70
     0
 62
     7
  6
Continuous
370
    -3
390
1D
  0
ENDTAB
  0
TABLE
  2
STYLE
  5
3
330
0
100
AcDbSymbolTable
 70
     5
  0
STYLE
  5
17
330
3
100
AcDbSymbolTableRecord
100
AcDbTextStyleTableRecord
  2
Standard
 70
     0
 40
0.0
 41
1.0
 50
0.0
 71
     0
 42
5.0
  3
txt
  4

  0
STYLE
  5
EC
330
3
100
AcDbSymbolTableRecord
100
AcDbTextStyleTableRecord
  2
blockfont
 70
     0
 40
0.0
 41
1.0
 50
0.0
 71
     0
 42
0.2
  3
simplex.shx
  4

  0
STYLE
  5
168
330
3
100
AcDbSymbolTableRecord
100
AcDbTextStyleTableRecord
  2
TXT
 70
     0
 40
8.0
 41
1.0
 50
0.0
 71
     0
 42
8.0
  3
txt
  4

  0
STYLE
  5
169
330
3
100
AcDbSymbolTableRecord
100
AcDbTextStyleTableRecord
  2
SIMPLEX
 70
     0
 40
0.0
 41
1.0
 50
0.0
 71
     0
 42
3.5
  3
simplex
  4

  0
STYLE
  5
16A
330
3
100
AcDbSymbolTableRecord
100
AcDbTextStyleTableRecord
  2
S07
 70
     0
 40
0.0
 41
0.7
 50
0.0
 71
     0
 42
2.5
  3
SIMPLEX.shx
  4

  0
ENDTAB
  0
TABLE
  2
VIEW
  5
5
330
0
100
AcDbSymbolTable
 70
     8
  0
VIEW
  5
12E
330
5
100
AcDbSymbolTableRecord
100
AcDbViewTableRecord
  2
TOP
 70
     0
 40
254.0
 10
7.1425
 20
23.892498
 41
386.976471
 11
0.0
 21
0.0
 31
1.0
 12
0.0
 22
0.0
 32
0.0
 42
50.0
 43
274.598704
 44
-274.598704
 50
0.0
 71
    16
281
     0
 72
     0
  0
VIEW
  5
12F
330
5
100
AcDbSymbolTableRecord
100
AcDbViewTableRecord
  2
FRONT
 70
     0
 40
1583.996559
 10
0.0
 20
0.0
 41
386.976471
 11
0.0
 21
-1.0
 31
0.0
 12
0.0
 22
0.0
 32
0.0
 42
50.0
 43
815.290728
 44
-815.290728
 50
0.0
 71
    16
281
     0
 72
     0
  0
VIEW
  5
130
330
5
100
AcDbSymbolTableRecord
100
AcDbViewTableRecord
  2
RIGHT
 70
     0
 40
1583.996559
 10
0.0
 20
0.0
 41
254.0
 11
1.0
 21
0.0
 31
0.0
 12
0.0
 22
0.0
 32
0.0
 42
50.0
 43
802.116123
 44
-802.116123
 50
0.0
 71
    16
281
     0
 72
     0
  0
VIEW
  5
131
330
5
100
AcDbSymbolTableRecord
100
AcDbViewTableRecord
  2
BACK
 70
     0
 40
1583.996559
 10
0.0
 20
0.0
 41
386.976471
 11
0.0
 21
1.0
 31
0.0
 12
0.0
 22
0.0
 32
0.0
 42
50.0
 43
815.290728
 44
-815.290728
 50
0.0
 71
    16
281
     0
 72
     0
  0
VIEW
  5
132
330
5
100
AcDbSymbolTableRecord
100
AcDbViewTableRecord
  2
BOTTOM
 70
     0
 40
254.0
 10
0.0
 20
0.0
 41
386.976471
 11
0.0
 21
0.0
 31
-1.0
 12
0.0
 22
0.0
 32
0.0
 42
50.0
 43
791.99828
 44
-791.99828
 50
180.0
 71
    16
281
     0
 72
     0
  0
VIEW
  5
133
330
5
100
AcDbSymbolTableRecord
100
AcDbViewTableRecord
  2
LEFT
 70
     0
 40
1583.996559
 10
0.0
 20
0.0
 41
254.0
 11
-1.0
 21
0.0
 31
0.0
 12
0.0
 22
0.0
 32
0.0
 42
50.0
 43
802.116123
 44
-802.116123
 50
0.0
 71
    16
281
     0
 72
     0
  0
VIEW
  5
134
330
5
100
AcDbSymbolTableRecord
100
AcDbViewTableRecord
  2
TFR-ISO
 70
     0
 40
1555.005323
 10
0.0
 20
0.0
 41
453.238809
 11
0.5773500000000001
 21
-0.5773500000000001
 31
0.5773500000000001
 12
0.0
 22
0.0
 32
0.0
 42
50.0
 43
809.8560009999999
 44
-809.8560009999999
 50
0.0
 71
    16
281
     0
 72
     0
  0
VIEW
  5
135
330
5
100
AcDbSymbolTableRecord
100
AcDbViewTableRecord
  2
TFR-TRI
 70
     0
 40
1641.004744
 10
0.0
 20
0.0
 41
441.270493
 11
0.718873
 21
-0.5850489999999999
 31
0.375419
 12
0.0
 22
0.0
 32
0.0
 42
50.0
 43
849.6493710000001
 44
-849.6493710000001
 50
0.0
 71
    16
281
     0
 72
     0
  0
ENDTAB
  0
TABLE
  2
UCS
  5
6
330
0
100
AcDbSymbolTable
 70
     0
  0
ENDTAB
  0
TABLE
  2
APPID
  5
8
330
0
100
AcDbSymbolTable
 70
     3
  0
APPID
  5
16
330
8
100
AcDbSymbolTableRecord
100
AcDbRegAppTableRecord
  2
ACAD
 70
     0
  0
APPID
  5
1DB
330
8
100
AcDbSymbolTableRecord
100
AcDbRegAppTableRecord
  2
DCO15
 70
     0
  0
APPID
  5
215
330
8
100
AcDbSymbolTableRecord
100
AcDbRegAppTableRecord
  2
ACAD_MLEADERVER
 70
     0
  0
ENDTAB
  0
TABLE
  2
DIMSTYLE
  5
9
330
0
100
AcDbSymbolTable
 70
     1
100
AcDbDimStyleTable
 71
     0
  0
DIMSTYLE
105
18
102
{ACAD_REACTORS
330
F8
330
104
330
10F
330
119
330
123
330
12D
102
}
330
9
100
AcDbSymbolTableRecord
100
AcDbDimStyleTableRecord
  2
Standard
 70
     0
340
17
  0
ENDTAB
  0
TABLE
  2
BLOCK_RECORD
  5
1
330
0
100
AcDbSymbolTable
 70
     6
  0
BLOCK_RECORD
  5
A
330
1
100
AcDbSymbolTableRecord
100
AcDbBlockTableRecord
  2
*MODEL_SPACE
340
20
  0
BLOCK_RECORD
  5
B
330
1
100
AcDbSymbolTableRecord
100
AcDbBlockTableRecord
  2
*PAPER_SPACE
340
21
  0
BLOCK_RECORD
  5
EE
330
1
100
AcDbSymbolTableRecord
100
AcDbBlockTableRecord
  2
_D0
340
0
  0
BLOCK_RECORD
  5
F9
330
1
100
AcDbSymbolTableRecord
100
AcDbBlockTableRecord
  2
_D1
340
0
  0
BLOCK_RECORD
  5
105
330
1
100
AcDbSymbolTableRecord
100
AcDbBlockTableRecord
  2
_D2
340
0
  0
BLOCK_RECORD
  5
110
330
1
100
AcDbSymbolTableRecord
100
AcDbBlockTableRecord
  2
_D3
340
0
  0
BLOCK_RECORD
  5
11A
330
1
100
AcDbSymbolTableRecord
100
AcDbBlockTableRecord
  2
_D4
340
0
  0
BLOCK_RECORD
  5
124
330
1
100
AcDbSymbolTableRecord
100
AcDbBlockTableRecord
  2
_D5
340
0
  0
ENDTAB
  0
ENDSEC
  0
SECTION
  2
BLOCKS
  0
BLOCK
  5
D
330
A
100
AcDbEntity
  8
0
390
1D
100
AcDbBlockBegin
  2
*MODEL_SPACE
 70
     0
 10
0.0
 20
0.0
 30
0.0
  3
*MODEL_SPACE
  1

  0
ENDBLK
  5
E
330
A
100
AcDbEntity
  8
0
390
1D
100
AcDbBlockEnd
  0
BLOCK
  5
F
330
B
100
AcDbEntity
 67
     1
  8
0
390
1D
100
AcDbBlockBegin
  2
*PAPER_SPACE
 70
     0
 10
0.0
 20
0.0
 30
0.0
  3
*PAPER_SPACE
  1

  0
ENDBLK
  5
10
330
B
100
AcDbEntity
 67
     1
  8
0
390
1D
100
AcDbBlockEnd
  0
BLOCK
  5
EF
330
EE
100
AcDbEntity
  8
0
390
1D
100
AcDbBlockBegin
  2
_D0
 70
     0
 10
0.0
 20
0.0
 30
0.0
  3
_D0
  1

  0
MTEXT
  5
F0
330
EE
100
AcDbEntity
  8
2
390
1D
100
AcDbMText
 10
6.891603999999999
 20
75.739271
 30
0.0
 40
4.57
 41
0.0
 71
     7
 72
     5
  1
\W01.000;\Fsimplex.shx;21
  7
SIMPLEX
 73
     2
 44
0.9036139999999999
1001
ACAD
1000
MTEXTBEGIN
1070
    73
1070
     2
1070
    44
1040
0.9036139999999999
1070
    74
1070
     0
1000
MTEXTEND
  0
LINE
  5
F2
330
EE
100
AcDbEntity
  8
2
390
1D
100
AcDbLine
 10
0.0
 20
0.0
 30
0.0
 11
0.0
 21
78.43
 31
0.0
  0
LINE
  5
F3
330
EE
100
AcDbEntity
  8
2
390
1D
100
AcDbLine
 10
21.0
 20
0.0
 30
0.0
 11
21.0
 21
78.43
 31
0.0
  0
LINE
  5
F4
330
EE
100
AcDbEntity
  8
2
390
1D
100
AcDbLine
 10
-11.425
 20
74.93000000000001
 30
0.0
 11
32.425
 21
74.93000000000001
 31
0.0
  0
SOLID
  5
F5
330
EE
100
AcDbEntity
  8
2
390
1D
100
AcDbTrace
 10
0.0
 20
74.93000000000001
 30
0.0
 11
-4.569998
 21
74.32834799999999
 31
0.0
 12
-4.570001999999999
 22
75.53165200000001
 32
0.0
 13
0.0
 23
74.93000000000001
 33
0.0
  0
SOLID
  5
F6
330
EE
100
AcDbEntity
  8
2
390
1D
100
AcDbTrace
 10
21.0
 20
74.93000000000001
 30
0.0
 11
25.569998
 21
75.53165200000001
 31
0.0
 12
25.570002
 22
74.32834799999999
 32
0.0
 13
21.0
 23
74.93000000000001
 33
0.0
  0
ENDBLK
  5
F7
330
EE
100
AcDbEntity
  8
0
390
1D
100
AcDbBlockEnd
  0
BLOCK
  5
FA
330
F9
100
AcDbEntity
  8
0
390
1D
100
AcDbBlockBegin
  2
_D1
 70
     0
 10
0.0
 20
0.0
 30
0.0
  3
_D1
  1

  0
MTEXT
  5
FB
330
F9
100
AcDbEntity
  8
SK2
390
1D
100
AcDbMText
 10
-52.73927099999999
 20
21.6375
 30
0.0
 40
4.57
 41
0.0
 71
     7
 72
     5
  1
\W01.000;\Fsimplex.shx;6
  7
SIMPLEX
 11
0.0
 21
1.0
 31
0.0
 73
     2
 44
0.9036139999999999
1001
ACAD
1000
MTEXTBEGIN
1070
    73
1070
     2
1070
    44
1040
0.9036139999999999
1070
    74
1070
     0
1000
MTEXTEND
  0
MTEXT
  5
FD
330
F9
100
AcDbEntity
  8
SK2
390
1D
100
AcDbMText
 10
-52.73927099999999
 20
12.533203
 30
0.0
 40
4.57
 41
0.0
 71
     7
 72
     5
  1
\W01.000;\Fsimplex.shx;%%c
  7
SIMPLEX
 11
0.0
 21
1.0
 31
0.0
 73
     2
 44
0.9036139999999999
1001
ACAD
1000
MTEXTBEGIN
1070
    73
1070
     2
1070
    44
1040
0.9036139999999999
1070
    74
1070
     0
1000
MTEXTEND
  0
LINE
  5
FE
330
F9
100
AcDbEntity
  8
SK2
390
1D
100
AcDbLine
 10
-35.6
 20
3.0
 30
0.0
 11
-54.2875
 21
3.0
 31
0.0
  0
LINE
  5
FF
330
F9
100
AcDbEntity
  8
SK2
390
1D
100
AcDbLine
 10
-35.6
 20
-3.0
 30
0.0
 11
-54.2875
 21
-3.0
 31
0.0
  0
LINE
  5
100
330
F9
100
AcDbEntity
  8
SK2
390
1D
100
AcDbLine
 10
-50.7875
 20
-14.425
 30
0.0
 11
-50.7875
 21
25.017396
 31
0.0
  0
SOLID
  5
101
330
F9
100
AcDbEntity
  8
SK2
390
1D
100
AcDbTrace
 10
-50.7875
 20
3.0
 30
0.0
 11
-51.389152
 21
7.569998
 31
0.0
 12
-50.185848
 22
7.570002
 32
0.0
 13
-50.7875
 23
3.0
 33
0.0
  0
SOLID
  5
102
330
F9
100
AcDbEntity
  8
SK2
390
1D
100
AcDbTrace
 10
-50.7875
 20
-3.0
 30
0.0
 11
-50.185848
 21
-7.569998
 31
0.0
 12
-51.389152
 22
-7.570002
 32
0.0
 13
-50.7875
 23
-3.0
 33
0.0
  0
ENDBLK
  5
103
330
F9
100
AcDbEntity
  8
0
390
1D
100
AcDbBlockEnd
  0
BLOCK
  5
106
330
105
100
AcDbEntity
  8
0
390
1D
100
AcDbBlockBegin
  2
_D2
 70
     0
 10
0.0
 20
0.0
 30
0.0
  3
_D2
  1

  0
MTEXT
  5
107
330
105
100
AcDbEntity
  8
2
390
1D
100
AcDbMText
 10
70.26072899999999
 20
19.6125
 30
0.0
 40
4.57
 41
0.0
 71
     7
 72
     5
  1
\W01.000;\Fsimplex.shx;1.95
  7
SIMPLEX
 11
0.0
 21
1.0
 31
0.0
 73
     2
 44
0.9036139999999999
1001
ACAD
1000
MTEXTBEGIN
1070
    73
1070
     2
1070
    44
1040
0.9036139999999999
1070
    74
1070
     0
1000
MTEXTEND
  0
MTEXT
  5
108
330
105
100
AcDbEntity
  8
2
390
1D
100
AcDbMText
 10
70.26072899999999
 20
10.508203
 30
0.0
 40
4.57
 41
0.0
 71
     7
 72
     5
  1
\W01.000;\Fsimplex.shx;%%c
  7
SIMPLEX
 11
0.0
 21
1.0
 31
0.0
 73
     2
 44
0.9036139999999999
1001
ACAD
1000
MTEXTBEGIN
1070
    73
1070
     2
1070
    44
1040
0.9036139999999999
1070
    74
1070
     0
1000
MTEXTEND
  0
LINE
  5
109
330
105
100
AcDbEntity
  8
2
390
1D
100
AcDbLine
 10
21.0
 20
-0.975
 30
0.0
 11
74.2125
 21
-0.975
 31
0.0
  0
LINE
  5
10A
330
105
100
AcDbEntity
  8
2
390
1D
100
AcDbLine
 10
21.0
 20
0.975
 30
0.0
 11
74.2125
 21
0.975
 31
0.0
  0
LINE
  5
10B
330
105
100
AcDbEntity
  8
2
390
1D
100
AcDbLine
 10
72.21250000000001
 20
37.930583
 30
0.0
 11
72.21250000000001
 21
-12.4
 31
0.0
  0
SOLID
  5
10C
330
105
100
AcDbEntity
  8
2
390
1D
100
AcDbTrace
 10
72.21250000000001
 20
-0.975
 30
0.0
 11
72.81415200000001
 21
-5.544998
 31
0.0
 12
71.61084800000001
 22
-5.545001999999999
 32
0.0
 13
72.21250000000001
 23
-0.975
 33
0.0
  0
SOLID
  5
10D
330
105
100
AcDbEntity
  8
2
390
1D
100
AcDbTrace
 10
72.21250000000001
 20
0.975
 30
0.0
 11
71.61084800000001
 21
5.544998
 31
0.0
 12
72.81415200000001
 22
5.545001999999999
 32
0.0
 13
72.21250000000001
 23
0.975
 33
0.0
  0
ENDBLK
  5
10E
330
105
100
AcDbEntity
  8
0
390
1D
100
AcDbBlockEnd
  0
BLOCK
  5
111
330
110
100
AcDbEntity
  8
0
390
1D
100
AcDbBlockBegin
  2
_D3
 70
     0
 10
0.0
 20
0.0
 30
0.0
  3
_D3
  1

  0
MTEXT
  5
112
330
110
100
AcDbEntity
  8
2
390
1D
100
AcDbMText
 10
28.2125
 20
60.73927099999999
 30
0.0
 40
4.57
 41
0.0
 71
     7
 72
     5
  1
\W01.000;\Fsimplex.shx;5.675
  7
SIMPLEX
 73
     2
 44
0.9036139999999999
1001
ACAD
1000
MTEXTBEGIN
1070
    73
1070
     2
1070
    44
1040
0.9036139999999999
1070
    74
1070
     0
1000
MTEXTEND
  0
LINE
  5
113
330
110
100
AcDbEntity
  8
2
390
1D
100
AcDbLine
 10
21.0
 20
0.0
 30
0.0
 11
21.0
 21
63.42999999999999
 31
0.0
  0
LINE
  5
114
330
110
100
AcDbEntity
  8
2
390
1D
100
AcDbLine
 10
15.325
 20
0.0
 30
0.0
 11
15.325
 21
63.42999999999999
 31
0.0
  0
LINE
  5
115
330
110
100
AcDbEntity
  8
2
390
1D
100
AcDbLine
 10
3.9
 20
59.93
 30
0.0
 11
51.509979
 21
59.93
 31
0.0
  0
SOLID
  5
116
330
110
100
AcDbEntity
  8
2
390
1D
100
AcDbTrace
 10
21.0
 20
59.93
 30
0.0
 11
25.569998
 21
60.531652
 31
0.0
 12
25.570002
 22
59.328348
 32
0.0
 13
21.0
 23
59.93
 33
0.0
  0
SOLID
  5
117
330
110
100
AcDbEntity
  8
2
390
1D
100
AcDbTrace
 10
15.325
 20
59.93
 30
0.0
 11
10.755002
 21
59.328348
 31
0.0
 12
10.754998
 22
60.531652
 32
0.0
 13
15.325
 23
59.93
 33
0.0
  0
ENDBLK
  5
118
330
110
100
AcDbEntity
  8
0
390
1D
100
AcDbBlockEnd
  0
BLOCK
  5
11B
330
11A
100
AcDbEntity
  8
0
390
1D
100
AcDbBlockBegin
  2
_D4
 70
     0
 10
0.0
 20
0.0
 30
0.0
  3
_D4
  1

  0
MTEXT
  5
11C
330
11A
100
AcDbEntity
  8
2
390
1D
100
AcDbMText
 10
28.2125
 20
45.739278
 30
0.0
 40
4.57
 41
0.0
 71
     7
 72
     5
  1
\W01.000;\Fsimplex.shx;1.35
  7
SIMPLEX
 73
     2
 44
0.9036139999999999
1001
ACAD
1000
MTEXTBEGIN
1070
    73
1070
     2
1070
    44
1040
0.9036139999999999
1070
    74
1070
     0
1000
MTEXTEND
  0
LINE
  5
11D
330
11A
100
AcDbEntity
  8
2
390
1D
100
AcDbLine
 10
19.65
 20
0.0
 30
0.0
 11
19.65
 21
46.930007
 31
0.0
  0
LINE
  5
11E
330
11A
100
AcDbEntity
  8
2
390
1D
100
AcDbLine
 10
21.0
 20
0.0
 30
0.0
 11
21.0
 21
46.930007
 31
0.0
  0
LINE
  5
11F
330
11A
100
AcDbEntity
  8
2
390
1D
100
AcDbLine
 10
46.530583
 20
44.930007
 30
0.0
 11
8.224999999999999
 21
44.930007
 31
0.0
  0
SOLID
  5
120
330
11A
100
AcDbEntity
  8
2
390
1D
100
AcDbTrace
 10
19.65
 20
44.930007
 30
0.0
 11
15.080002
 21
44.328355
 31
0.0
 12
15.079998
 22
45.531659
 32
0.0
 13
19.65
 23
44.930007
 33
0.0
  0
SOLID
  5
121
330
11A
100
AcDbEntity
  8
2
390
1D
100
AcDbTrace
 10
21.0
 20
44.930007
 30
0.0
 11
25.569998
 21
45.531659
 31
0.0
 12
25.570002
 22
44.328355
 32
0.0
 13
21.0
 23
44.930007
 33
0.0
  0
ENDBLK
  5
122
330
11A
100
AcDbEntity
  8
0
390
1D
100
AcDbBlockEnd
  0
BLOCK
  5
125
330
124
100
AcDbEntity
  8
0
390
1D
100
AcDbBlockBegin
  2
_D5
 70
     0
 10
0.0
 20
0.0
 30
0.0
  3
_D5
  1

  0
MTEXT
  5
126
330
124
100
AcDbEntity
  8
SK2
390
1D
100
AcDbMText
 10
-11.108396
 20
90.739271
 30
0.0
 40
4.57
 41
0.0
 71
     7
 72
     5
  1
\W01.000;\Fsimplex.shx;57
  7
SIMPLEX
 73
     2
 44
0.9036139999999999
1001
ACAD
1000
MTEXTBEGIN
1070
    73
1070
     2
1070
    44
1040
0.9036139999999999
1070
    74
1070
     0
1000
MTEXTEND
  0
LINE
  5
127
330
124
100
AcDbEntity
  8
SK2
390
1D
100
AcDbLine
 10
-36.0
 20
0.0
 30
0.0
 11
-36.0
 21
91.93000000000001
 31
0.0
  0
LINE
  5
128
330
124
100
AcDbEntity
  8
SK2
390
1D
100
AcDbLine
 10
21.0
 20
0.0
 30
0.0
 11
21.0
 21
91.93000000000001
 31
0.0
  0
LINE
  5
129
330
124
100
AcDbEntity
  8
SK2
390
1D
100
AcDbLine
 10
-36.0
 20
89.93
 30
0.0
 11
21.0
 21
89.93
 31
0.0
  0
SOLID
  5
12A
330
124
100
AcDbEntity
  8
SK2
390
1D
100
AcDbTrace
 10
-36.0
 20
89.93
 30
0.0
 11
-31.430002
 21
90.531652
 31
0.0
 12
-31.429998
 22
89.328348
 32
0.0
 13
-36.0
 23
89.93
 33
0.0
  0
SOLID
  5
12B
330
124
100
AcDbEntity
  8
SK2
390
1D
100
AcDbTrace
 10
21.0
 20
89.93
 30
0.0
 11
16.430002
 21
89.328348
 31
0.0
 12
16.429998
 22
90.531652
 32
0.0
 13
21.0
 23
89.93
 33
0.0
  0
ENDBLK
  5
12C
330
124
100
AcDbEntity
  8
0
390
1D
100
AcDbBlockEnd
  0
ENDSEC
  0
SECTION
  2
ENTITIES
  0
POINT
  5
2A
330
A
100
AcDbEntity
  8
DEFPOINTS
390
1D
100
AcDbPoint
 10
21.0
 20
0.975
 30
0.0
  0
POINT
  5
2C
330
A
100
AcDbEntity
  8
DEFPOINTS
390
1D
100
AcDbPoint
 10
21.0
 20
0.0
 30
0.0
  0
POINT
  5
2D
330
A
100
AcDbEntity
  8
DEFPOINTS
390
1D
100
AcDbPoint
 10
19.65
 20
0.0
 30
0.0
  0
POINT
  5
2E
330
A
100
AcDbEntity
  8
DEFPOINTS
390
1D
100
AcDbPoint
 10
-36.0
 20
0.0
 30
0.0
  0
POINT
  5
2F
330
A
100
AcDbEntity
  8
DEFPOINTS
390
1D
100
AcDbPoint
 10
0.0
 20
0.0
 30
0.0
  0
POINT
  5
30
330
A
100
AcDbEntity
  8
DEFPOINTS
390
1D
100
AcDbPoint
 10
21.0
 20
-0.975
 30
0.0
  0
POINT
  5
31
330
A
100
AcDbEntity
  8
DEFPOINTS
390
1D
100
AcDbPoint
 10
19.65
 20
-0.65
 30
0.0
  0
POINT
  5
32
330
A
100
AcDbEntity
  8
DEFPOINTS
390
1D
100
AcDbPoint
 10
19.65
 20
0.65
 30
0.0
  0
POINT
  5
33
330
A
100
AcDbEntity
  8
DEFPOINTS
390
1D
100
AcDbPoint
 10
15.325
 20
0.0
 30
0.0
  0
LINE
  5
3F
330
A
100
AcDbEntity
  8
CUT
390
1D
100
AcDbLine
 10
21.0
 20
0.975
 30
0.0
 11
19.65
 21
0.975
 31
0.0
  0
LINE
  5
41
330
A
100
AcDbEntity
  8
CUT
390
1D
100
AcDbLine
 10
19.65
 20
-0.975
 30
0.0
 11
19.65
 21
0.975
 31
0.0
  0
LINE
  5
43
330
A
100
AcDbEntity
  8
CUT
390
1D
100
AcDbLine
 10
19.65
 20
-0.975
 30
0.0
 11
21.0
 21
-0.975
 31
0.0
  0
LINE
  5
44
330
A
100
AcDbEntity
  8
CUT
390
1D
100
AcDbLine
 10
21.0
 20
0.975
 30
0.0
 11
21.0
 21
0.7013
 31
0.0
  0
LINE
  5
45
330
A
100
AcDbEntity
  8
CUT
390
1D
100
AcDbLine
 10
21.0
 20
0.7013
 30
0.0
 11
21.0
 21
-0.975
 31
0.0
  0
LINE
  5
49
330
A
100
AcDbEntity
  8
1
390
1D
100
AcDbLine
 10
20.6
 20
-0.267776
 30
0.0
 11
20.6
 21
0.613057
 31
0.0
  0
LINE
  5
4B
330
A
100
AcDbEntity
  8
1
390
1D
100
AcDbLine
 10
20.353353
 20
-0.329055
 30
0.0
 11
20.353353
 21
0.5782040000000001
 31
0.0
  0
LINE
  5
4C
330
A
100
AcDbEntity
  8
1
390
1D
100
AcDbLine
 10
20.746647
 20
-0.4262420000000001
 30
0.0
 11
20.746647
 21
0.492519
 31
0.0
  0
LINE
  5
4D
330
A
100
AcDbEntity
  8
1
390
1D
100
AcDbLine
 10
20.95
 20
-0.329828
 30
0.0
 11
20.95
 21
0.573433
 31
0.0
  0
LINE
  5
4E
330
A
100
AcDbEntity
  8
1
390
1D
100
AcDbLine
 10
8.868427999999999
 20
-3.0
 30
0.0
 11
14.662227
 21
-0.89123
 31
0.0
  0
LINE
  5
4F
330
A
100
AcDbEntity
  8
1
390
1D
100
AcDbLine
 10
14.662227
 20
0.89123
 30
0.0
 11
8.868427999999999
 21
3.0
 31
0.0
  0
LINE
  5
50
330
A
100
AcDbEntity
  8
1
390
1D
100
AcDbLine
 10
0.0
 20
3.0
 30
0.0
 11
0.0
 21
-3.0
 31
0.0
  0
LINE
  5
51
330
A
100
AcDbEntity
  8
1
390
1D
100
AcDbLine
 10
8.868427999999999
 20
3.0
 30
0.0
 11
0.0
 21
3.0
 31
0.0
  0
LINE
  5
52
330
A
100
AcDbEntity
  8
1
390
1D
100
AcDbLine
 10
8.868427999999999
 20
3.0
 30
0.0
 11
8.868427999999999
 21
2.157845
 31
0.0
  0
LINE
  5
53
330
A
100
AcDbEntity
  8
1
390
1D
100
AcDbLine
 10
8.868427999999999
 20
2.157845
 30
0.0
 11
8.868427999999999
 21
-3.0
 31
0.0
  0
LINE
  5
54
330
A
100
AcDbEntity
  8
1
390
1D
100
AcDbLine
 10
0.0
 20
-3.0
 30
0.0
 11
8.868427999999999
 21
-3.0
 31
0.0
  0
LINE
  5
55
330
A
100
AcDbEntity
  8
SK1
390
1D
100
AcDbLine
 10
0.0
 20
3.0
 30
0.0
 11
-35.6
 21
3.0
 31
0.0
  0
LINE
  5
57
330
A
100
AcDbEntity
  8
SK1
390
1D
100
AcDbLine
 10
0.0
 20
3.0
 30
0.0
 11
0.0
 21
-3.0
 31
0.0
  0
LINE
  5
58
330
A
100
AcDbEntity
  8
1
390
1D
100
AcDbLine
 10
19.846647
 20
-0.198531
 30
0.0
 11
19.846647
 21
0.6798440000000001
 31
0.0
  0
LINE
  5
59
330
A
100
AcDbEntity
  8
1
390
1D
100
AcDbLine
 10
20.296647
 20
-0.314706
 30
0.0
 11
20.296647
 21
0.590102
 31
0.0
  0
LINE
  5
5A
330
A
100
AcDbEntity
  8
1
390
1D
100
AcDbLine
 10
20.5
 20
-0.249594
 30
0.0
 11
20.5
 21
0.6233560000000001
 31
0.0
  0
LINE
  5
5B
330
A
100
AcDbEntity
  8
1
390
1D
100
AcDbLine
 10
20.15
 20
-0.184665
 30
0.0
 11
20.15
 21
0.6556160000000001
 31
0.0
  0
LINE
  5
5C
330
A
100
AcDbEntity
  8
1
390
1D
100
AcDbLine
 10
19.903353
 20
-0.213361
 30
0.0
 11
19.903353
 21
0.669024
 31
0.0
  0
LINE
  5
5D
330
A
100
AcDbEntity
  8
SK1
390
1D
100
AcDbLine
 10
-35.6
 20
3.0
 30
0.0
 11
-36.0
 21
2.6
 31
0.0
  0
LINE
  5
5E
330
A
100
AcDbEntity
  8
SK1
390
1D
100
AcDbLine
 10
-35.6
 20
3.0
 30
0.0
 11
-35.6
 21
2.157845
 31
0.0
  0
LINE
  5
5F
330
A
100
AcDbEntity
  8
SK1
390
1D
100
AcDbLine
 10
-35.6
 20
2.157845
 30
0.0
 11
-35.6
 21
-3.0
 31
0.0
  0
LINE
  5
60
330
A
100
AcDbEntity
  8
SK1
390
1D
100
AcDbLine
 10
-36.0
 20
-2.6
 30
0.0
 11
-35.6
 21
-3.0
 31
0.0
  0
LINE
  5
61
330
A
100
AcDbEntity
  8
SK1
390
1D
100
AcDbLine
 10
-36.0
 20
2.6
 30
0.0
 11
-36.0
 21
1.870131999999999
 31
0.0
  0
LINE
  5
62
330
A
100
AcDbEntity
  8
SK1
390
1D
100
AcDbLine
 10
-36.0
 20
1.870131999999999
 30
0.0
 11
-36.0
 21
-2.6
 31
0.0
  0
LINE
  5
63
330
A
100
AcDbEntity
  8
1
390
1D
100
AcDbLine
 10
20.803353
 20
-0.439874
 30
0.0
 11
20.803353
 21
0.479741
 31
0.0
  0
LINE
  5
64
330
A
100
AcDbEntity
  8
SK1
390
1D
100
AcDbLine
 10
-35.6
 20
-3.0
 30
0.0
 11
0.0
 21
-3.0
 31
0.0
  0
LINE
  5
65
330
A
100
AcDbEntity
  8
1
390
1D
100
AcDbLine
 10
20.05
 20
-0.165799
 30
0.0
 11
20.05
 21
0.6637100000000001
 31
0.0
  0
LINE
  5
66
330
A
100
AcDbEntity
  8
1
390
1D
100
AcDbLine
 10
19.7
 20
-0.098925
 30
0.0
 11
19.7
 21
0.6879350000000001
 31
0.0
  0
LINE
  5
67
330
A
100
AcDbEntity
  8
1
390
1D
100
AcDbLine
 10
21.0
 20
-0.338468
 30
0.0
 11
21.0
 21
0.5673350000000001
 31
0.0
  0
LINE
  5
68
330
A
100
AcDbEntity
  8
1
390
1D
100
AcDbLine
 10
19.65
 20
-0.089283
 30
0.0
 11
19.65
 21
0.6908630000000001
 31
0.0
  0
LINE
  5
69
330
A
100
AcDbEntity
  8
1
390
1D
100
AcDbLine
 10
16.030308
 20
-0.65
 30
0.0
 11
19.65
 21
-0.65
 31
0.0
  0
LINE
  5
6A
330
A
100
AcDbEntity
  8
1
390
1D
100
AcDbLine
 10
19.190552
 20
0.65
 30
0.0
 11
16.030308
 21
0.65
 31
0.0
  0
LINE
  5
6B
330
A
100
AcDbEntity
  8
1
390
1D
100
AcDbLine
 10
19.7
 20
-0.721
 30
0.0
 11
19.846647
 21
-0.975
 31
0.0
  0
LINE
  5
6C
330
A
100
AcDbEntity
  8
1
390
1D
100
AcDbLine
 10
19.846647
 20
-0.9451719999999998
 30
0.0
 11
19.846647
 21
-0.975
 31
0.0
  0
LINE
  5
6D
330
A
100
AcDbEntity
  8
1
390
1D
100
AcDbLine
 10
19.7
 20
-0.721
 30
0.0
 11
19.7
 21
-0.53089
 31
0.0
  0
LINE
  5
6E
330
A
100
AcDbEntity
  8
1
390
1D
100
AcDbLine
 10
20.05
 20
-0.5757760000000001
 30
0.0
 11
20.05
 21
-0.721
 31
0.0
  0
LINE
  5
6F
330
A
100
AcDbEntity
  8
1
390
1D
100
AcDbLine
 10
19.903353
 20
-0.975
 30
0.0
 11
20.05
 21
-0.721
 31
0.0
  0
LINE
  5
70
330
A
100
AcDbEntity
  8
1
390
1D
100
AcDbLine
 10
19.903353
 20
-0.9487379999999999
 30
0.0
 11
19.903353
 21
-0.975
 31
0.0
  0
LINE
  5
71
330
A
100
AcDbEntity
  8
1
390
1D
100
AcDbLine
 10
20.15
 20
-0.721
 30
0.0
 11
20.296647
 21
-0.975
 31
0.0
  0
LINE
  5
72
330
A
100
AcDbEntity
  8
1
390
1D
100
AcDbLine
 10
20.296647
 20
-0.9672139999999998
 30
0.0
 11
20.296647
 21
-0.975
 31
0.0
  0
LINE
  5
73
330
A
100
AcDbEntity
  8
1
390
1D
100
AcDbLine
 10
20.15
 20
-0.587629
 30
0.0
 11
20.15
 21
-0.721
 31
0.0
  0
LINE
  5
74
330
A
100
AcDbEntity
  8
1
390
1D
100
AcDbLine
 10
19.65
 20
-0.721
 30
0.0
 11
19.65
 21
-0.5240700000000001
 31
0.0
  0
LINE
  5
75
330
A
100
AcDbEntity
  8
1
390
1D
100
AcDbLine
 10
19.65
 20
-0.721
 30
0.0
 11
19.7
 21
-0.721
 31
0.0
  0
LINE
  5
76
330
A
100
AcDbEntity
  8
1
390
1D
100
AcDbLine
 10
20.5
 20
-0.625447
 30
0.0
 11
20.5
 21
-0.721
 31
0.0
  0
LINE
  5
77
330
A
100
AcDbEntity
  8
1
390
1D
100
AcDbLine
 10
20.05
 20
-0.721
 30
0.0
 11
20.15
 21
-0.721
 31
0.0
  0
LINE
  5
78
330
A
100
AcDbEntity
  8
1
390
1D
100
AcDbLine
 10
20.353353
 20
-0.975
 30
0.0
 11
20.5
 21
-0.721
 31
0.0
  0
LINE
  5
79
330
A
100
AcDbEntity
  8
1
390
1D
100
AcDbLine
 10
20.353353
 20
-0.9689759999999999
 30
0.0
 11
20.353353
 21
-0.975
 31
0.0
  0
LINE
  5
7A
330
A
100
AcDbEntity
  8
1
390
1D
100
AcDbLine
 10
20.6
 20
-0.721
 30
0.0
 11
20.746647
 21
-0.975
 31
0.0
  0
LINE
  5
7B
330
A
100
AcDbEntity
  8
1
390
1D
100
AcDbLine
 10
20.6
 20
-0.635165
 30
0.0
 11
20.6
 21
-0.721
 31
0.0
  0
LINE
  5
7C
330
A
100
AcDbEntity
  8
1
390
1D
100
AcDbLine
 10
20.95
 20
-0.6652160000000001
 30
0.0
 11
20.95
 21
-0.721
 31
0.0
  0
LINE
  5
7D
330
A
100
AcDbEntity
  8
1
390
1D
100
AcDbLine
 10
20.5
 20
-0.721
 30
0.0
 11
20.6
 21
-0.721
 31
0.0
  0
LINE
  5
7E
330
A
100
AcDbEntity
  8
1
390
1D
100
AcDbLine
 10
20.812362
 20
-0.9593959999999999
 30
0.0
 11
20.95
 21
-0.721
 31
0.0
  0
LINE
  5
7F
330
A
100
AcDbEntity
  8
1
390
1D
100
AcDbLine
 10
20.803353
 20
-0.975
 30
0.0
 11
20.812362
 21
-0.9593959999999999
 31
0.0
  0
LINE
  5
80
330
A
100
AcDbEntity
  8
1
390
1D
100
AcDbLine
 10
21.0
 20
-0.721
 30
0.0
 11
21.0
 21
-0.6689970000000001
 31
0.0
  0
LINE
  5
81
330
A
100
AcDbEntity
  8
1
390
1D
100
AcDbLine
 10
20.95
 20
-0.721
 30
0.0
 11
21.0
 21
-0.721
 31
0.0
  0
LINE
  5
82
330
A
100
AcDbEntity
  8
1
390
1D
100
AcDbLine
 10
19.846647
 20
-0.975
 30
0.0
 11
19.903353
 21
-0.975
 31
0.0
  0
LINE
  5
83
330
A
100
AcDbEntity
  8
1
390
1D
100
AcDbLine
 10
20.296647
 20
-0.975
 30
0.0
 11
20.353353
 21
-0.975
 31
0.0
  0
ARC
  5
86
330
A
100
AcDbEntity
  8
1
390
1D
100
AcDbCircle
 10
-16.030308
 20
-4.65
 30
0.0
 40
4.0
210
0.0
220
0.0
230
-1.0
100
AcDbArc
 50
70.0
 51
90.0
  0
ARC
  5
87
330
A
100
AcDbEntity
  8
1
390
1D
100
AcDbCircle
 10
-16.030308
 20
4.65
 30
0.0
 40
4.0
210
0.0
220
0.0
230
-1.0
100
AcDbArc
 50
270.0
 51
290.0
  0
SPLINE
  5
88
330
A
100
AcDbEntity
  8
1
390
1D
100
AcDbSpline
210
-0.0000000000024509
220
-0.000000000002397
230
1.0
 70
     8
 71
     3
 72
    10
 73
     6
 74
     0
 42
0.0000000001
 43
0.0000000001
 40
0.0
 40
0.0
 40
0.0
 40
0.0
 40
0.4994326477229713
 40
0.4994326477229713
 40
1.0
 40
1.0
 40
1.0
 40
1.0
 10
20.60000000000002
 20
-0.2677762997280979
 30
-0.0000000000000007
 10
20.61227208890125
 20
-0.2792482725154741
 30
-0.0000000000000006
 10
20.6245148218394
 20
-0.2912370948041598
 30
-0.0000000000000007
 10
20.64894619199811
 20
-0.3162231872765915
 30
-0.0000000000000007
 10
20.66114158506502
 20
-0.3292297566521825
 30
-0.0000000000000007
 10
20.67329203996269
 20
-0.3427068343174824
 30
-0.0000000000000008
  0
SPLINE
  5
89
330
A
100
AcDbEntity
  8
1
390
1D
100
AcDbSpline
210
0.0000000019067887
220
0.0000000075350161
230
1.0
 70
     8
 71
     3
 72
     8
 73
     4
 74
     0
 42
0.0000000001
 43
0.0000000001
 40
0.0
 40
0.0
 40
0.0
 40
0.0
 40
1.0
 40
1.0
 40
1.0
 40
1.0
 10
20.29664696837415
 20
-0.3147055055451347
 30
-0.000000000000001
 10
20.31554879279571
 20
-0.3195012110118114
 30
-0.0000000000000009
 10
20.33445075834726
 20
-0.324284677373214
 30
-0.000000000000001
 10
20.35335303162583
 20
-0.3290553094059305
 30
-0.0000000000000008
  0
SPLINE
  5
8A
330
A
100
AcDbEntity
  8
1
390
1D
100
AcDbSpline
210
-0.0000000000991882
220
-0.0000000004727357
230
1.0
 70
     8
 71
     3
 72
     8
 73
     4
 74
     0
 42
0.0000000001
 43
0.0000000001
 40
0.0
 40
0.0
 40
0.0
 40
0.0
 40
1.0
 40
1.0
 40
1.0
 40
1.0
 10
20.353353031631
 20
0.5782040119231056
 30
-0.0000000000000008
 10
20.33445030982978
 20
0.5821904546951373
 30
-0.0000000000000009
 10
20.31554833512865
 20
0.586156576276835
 30
-0.0000000000000008
 10
20.2966469683742
 20
0.5901018790581816
 30
-0.0000000000000008
  0
SPLINE
  5
8B
330
A
100
AcDbEntity
  8
1
390
1D
100
AcDbSpline
210
-0.0000000000000136
220
-0.0000000000000179
230
1.0
 70
     8
 71
     3
 72
     8
 73
     4
 74
     0
 42
0.0000000001
 43
0.0000000001
 40
0.0
 40
0.0
 40
0.0
 40
0.0
 40
1.0
 40
1.0
 40
1.0
 40
1.0
 10
20.73750004704704
 20
0.5083264517156181
 30
-0.0000000000000008
 10
20.69217573627157
 20
0.5766188058301509
 30
-0.0000000000000007
 10
20.64594686628328
 20
0.6129353178615702
 30
-0.0000000000000006
 10
20.60000000000002
 20
0.6130566189473257
 30
-0.0000000000000004
  0
SPLINE
  5
8C
330
A
100
AcDbEntity
  8
1
390
1D
100
AcDbSpline
210
-0.0000000000310908
220
-0.0000000000273014
230
1.0
 70
     8
 71
     3
 72
    10
 73
     6
 74
     0
 42
0.0000000001
 43
0.0000000001
 40
0.0
 40
0.0
 40
0.0
 40
0.0
 40
0.4999173344073406
 40
0.4999173344073406
 40
1.0
 40
1.0
 40
1.0
 40
1.0
 10
20.67329203996269
 20
-0.3427068343174824
 30
-0.0000000000000007
 10
20.68552120831163
 20
-0.3562712196025473
 30
-0.0000000000000008
 10
20.69774902268665
 20
-0.3700160117976452
 30
-0.0000000000000009
 10
20.72220117594645
 20
-0.3978627679085776
 30
-0.0000000000000009
 10
20.73442652803777
 20
-0.411965997439154
 30
-0.0000000000000008
 10
20.74664696837419
 20
-0.4262424951846812
 30
-0.0000000000000009
  0
SPLINE
  5
8D
330
A
100
AcDbEntity
  8
1
390
1D
100
AcDbSpline
210
0.0000000004703223
220
0.0000000002721716
230
-1.0
 70
     8
 71
     3
 72
     8
 73
     4
 74
     0
 42
0.0000000001
 43
0.0000000001
 40
0.0
 40
0.0
 40
0.0
 40
0.0
 40
1.0
 40
1.0
 40
1.0
 40
1.0
 10
20.74664696837419
 20
0.4925186280995035
 30
-0.0000000000000009
 10
20.74354200502188
 20
0.497809741046524
 30
-0.0000000000000008
 10
20.74049166261574
 20
0.5030788305344914
 30
-0.0000000000000008
 10
20.73750004704704
 20
0.5083264517156181
 30
-0.0000000000000007
  0
SPLINE
  5
8E
330
A
100
AcDbEntity
  8
1
390
1D
100
AcDbSpline
210
-0.0000000000000415
220
0.0000000000000701
230
-1.0
 70
     8
 71
     3
 72
    10
 73
     6
 74
     0
 42
0.0000000001
 43
0.0000000001
 40
0.0
 40
0.0
 40
0.0
 40
0.0
 40
0.492022449550344
 40
0.492022449550344
 40
1.0
 40
1.0
 40
1.0
 40
1.0
 10
20.94999999999999
 20
0.5734328410874241
 30
-0.0000000000000004
 10
20.92778341355018
 20
0.5720860085878599
 30
-0.0000000000000006
 10
20.90502184059415
 20
0.564689980717219
 30
-0.0000000000000006
 10
20.85893128934862
 20
0.5377618858464644
 30
-0.0000000000000006
 10
20.83541250491101
 20
0.5177329029404519
 30
-0.0000000000000007
 10
20.8123263624953
 20
0.491738038692688
 30
-0.0000000000000009
  0
SPLINE
  5
8F
330
A
100
AcDbEntity
  8
1
390
1D
100
AcDbSpline
210
0.0
220
0.0
230
1.0
 70
     8
 71
     3
 72
     8
 73
     4
 74
     0
 42
0.0000000001
 43
0.0000000001
 40
0.0
 40
0.0
 40
0.0
 40
0.0
 40
1.0
 40
1.0
 40
1.0
 40
1.0
 10
20.81232636249513
 20
0.4917380386927448
 30
-0.0000000000000009
 10
20.809397092572
 20
0.4877015226330741
 30
-0.0000000000000009
 10
20.80640475249402
 20
0.4837023204377148
 30
-0.0000000000000009
 10
20.80335303162582
 20
0.4797414103942402
 30
-0.0000000000000009
  0
SPLINE
  5
90
330
A
100
AcDbEntity
  8
1
390
1D
100
AcDbSpline
210
-0.0000000000108237
220
0.00000000001454
230
-1.0
 70
     8
 71
     3
 72
    10
 73
     6
 74
     0
 42
0.0000000001
 43
0.0000000001
 40
0.0
 40
0.0
 40
0.0
 40
0.0
 40
0.4999151253660798
 40
0.4999151253660798
 40
1.0
 40
1.0
 40
1.0
 40
1.0
 10
20.80335303162582
 20
-0.4398737908736052
 30
-0.0000000000000009
 10
20.8156210262764
 20
-0.4311453593912233
 30
-0.0000000000000008
 10
20.82789336331848
 20
-0.4222117196714521
 30
-0.0000000000000009
 10
20.85244593160706
 20
-0.4039347519515674
 30
-0.0000000000000009
 10
20.86472721391613
 20
-0.3945905125987679
 30
-0.0000000000000008
 10
20.87700860856881
 20
-0.3850440331608525
 30
-0.0000000000000007
  0
SPLINE
  5
91
330
A
100
AcDbEntity
  8
1
390
1D
100
AcDbSpline
210
-0.0000000000333787
220
0.0000000000441272
230
-1.0
 70
     8
 71
     3
 72
    10
 73
     6
 74
     0
 42
0.0000000001
 43
0.0000000001
 40
0.0
 40
0.0
 40
0.0
 40
0.0
 40
0.4999662855050774
 40
0.4999662855050774
 40
1.0
 40
1.0
 40
1.0
 40
1.0
 10
20.87700860856876
 20
-0.3850440331608525
 30
-0.0000000000000008
 10
20.88917514185295
 20
-0.3755868368804158
 30
-0.0000000000000008
 10
20.9013414895976
 20
-0.3662597141659489
 30
-0.0000000000000007
 10
20.92567256728438
 20
-0.3478571566116102
 30
-0.0000000000000007
 10
20.9378377122087
 20
-0.3387814478257951
 30
-0.0000000000000006
 10
20.94999999999999
 20
-0.329828495064362
 30
-0.0000000000000007
  0
SPLINE
  5
92
330
A
100
AcDbEntity
  8
1
390
1D
100
AcDbSpline
210
0.0
220
0.0
230
1.0
 70
     8
 71
     3
 72
     8
 73
     4
 74
     0
 42
0.0000000001
 43
0.0000000001
 40
0.0
 40
0.0
 40
0.0
 40
0.0
 40
1.0
 40
1.0
 40
1.0
 40
1.0
 10
20.80335303162582
 20
0.4797414103942402
 30
-0.0000000000000009
 10
20.7844493805195
 20
0.4840174657755371
 30
-0.0000000000000009
 10
20.76554739172667
 20
0.4882766620745543
 30
-0.0000000000000009
 10
20.74664696837419
 20
0.4925186280995035
 30
-0.0000000000000009
  0
SPLINE
  5
93
330
A
100
AcDbEntity
  8
1
390
1D
100
AcDbSpline
210
0.0
220
0.0
230
1.0
 70
     8
 71
     3
 72
     8
 73
     4
 74
     0
 42
0.0000000001
 43
0.0000000001
 40
0.0
 40
0.0
 40
0.0
 40
0.0
 40
1.0
 40
1.0
 40
1.0
 40
1.0
 10
20.74664696837419
 20
-0.4262424951846812
 30
-0.0000000000000009
 10
20.76554891227744
 20
-0.4308036812363413
 30
-0.0000000000000009
 10
20.784450877545
 20
-0.4353476335134587
 30
-0.0000000000000009
 10
20.80335303162587
 20
-0.4398737908736052
 30
-0.0000000000000009
  0
SPLINE
  5
94
330
A
100
AcDbEntity
  8
1
390
1D
100
AcDbSpline
210
0.0
220
0.0
230
1.0
 70
     8
 71
     3
 72
     8
 73
     4
 74
     0
 42
0.0000000001
 43
0.0000000001
 40
0.0
 40
0.0
 40
0.0
 40
0.0
 40
1.0
 40
1.0
 40
1.0
 40
1.0
 10
19.84664696837422
 20
-0.1985310538352678
 30
-0.000000000000001
 10
19.8655489706718
 20
-0.2034817862897853
 30
-0.000000000000001
 10
19.88445094017231
 20
-0.2084252195570002
 30
-0.000000000000001
 10
19.90335303161254
 20
-0.2133607812781406
 30
-0.000000000000001
  0
SPLINE
  5
95
330
A
100
AcDbEntity
  8
1
390
1D
100
AcDbSpline
210
0.0000000000163482
220
-0.0000000000298584
230
1.0
 70
     8
 71
     3
 72
    10
 73
     6
 74
     0
 42
0.0000000001
 43
0.0000000001
 40
0.0
 40
0.0
 40
0.0
 40
0.0
 40
0.4999634638701744
 40
0.4999634638701744
 40
1.0
 40
1.0
 40
1.0
 40
1.0
 10
20.42630603888307
 20
-0.2899471799137245
 30
-0.0000000000000008
 10
20.43859090005401
 20
-0.282939070744419
 30
-0.0000000000000009
 10
20.45087508061278
 20
-0.276075493600672
 30
-0.0000000000000008
 10
20.47544049408975
 20
-0.2626276210798437
 30
-0.0000000000000007
 10
20.48772218211195
 20
-0.256043122501751
 30
-0.0000000000000007
 10
20.5
 20
-0.249594376716118
 30
-0.0000000000000007
  0
SPLINE
  5
96
330
A
100
AcDbEntity
  8
1
390
1D
100
AcDbSpline
210
-0.0000000000042252
220
0.0000000000078817
230
-1.0
 70
     8
 71
     3
 72
    10
 73
     6
 74
     0
 42
0.0000000001
 43
0.0000000001
 40
0.0
 40
0.0
 40
0.0
 40
0.0
 40
0.499916749284545
 40
0.499916749284545
 40
1.0
 40
1.0
 40
1.0
 40
1.0
 10
20.35335303162583
 20
-0.3290553094059305
 30
-0.000000000000001
 10
20.36550321609224
 20
-0.3229599906679823
 30
-0.0000000000000009
 10
20.37765802872798
 20
-0.3166532819146823
 30
-0.0000000000000009
 10
20.40197631874378
 20
-0.303617146573572
 30
-0.0000000000000009
 10
20.41414081678579
 20
-0.2968870389272524
 30
-0.0000000000000008
 10
20.42630603888301
 20
-0.2899471799137245
 30
-0.0000000000000009
  0
SPLINE
  5
97
330
A
100
AcDbEntity
  8
1
390
1D
100
AcDbSpline
210
-0.0000000000003147
220
0.0000000000003186
230
1.0
 70
     8
 71
     3
 72
     8
 73
     4
 74
     0
 42
0.0000000001
 43
0.0000000001
 40
0.0
 40
0.0
 40
0.0
 40
0.0
 40
1.0
 40
1.0
 40
1.0
 40
1.0
 10
20.36327865902922
 20
0.5880110184631349
 30
-0.0000000000000008
 10
20.36004582753759
 20
0.5846968290586006
 30
-0.0000000000000007
 10
20.35673561907186
 20
0.581427394935929
 30
-0.0000000000000007
 10
20.35335303162583
 20
0.5782040119241288
 30
-0.0000000000000008
  0
SPLINE
  5
98
330
A
100
AcDbEntity
  8
1
390
1D
100
AcDbSpline
210
0.0000000000024549
220
0.0000000000029765
230
-1.0
 70
     8
 71
     3
 72
    10
 73
     6
 74
     0
 42
0.0000000001
 43
0.0000000001
 40
0.0
 40
0.0
 40
0.0
 40
0.0
 40
0.4994130526799533
 40
0.4994130526799533
 40
1.0
 40
1.0
 40
1.0
 40
1.0
 10
20.14999999999998
 20
-0.1846646463944239
 30
-0.0000000000000007
 10
20.16239693159275
 20
-0.1937266589545175
 30
-0.0000000000000007
 10
20.17476483480368
 20
-0.2033529685865574
 30
-0.0000000000000007
 10
20.19944666438812
 20
-0.2237137454744129
 30
-0.0000000000000008
 10
20.21176765460621
 20
-0.2344567269709614
 30
-0.0000000000000008
 10
20.22404261641316
 20
-0.2457256640890364
 30
-0.0000000000000009
  0
SPLINE
  5
99
330
A
100
AcDbEntity
  8
1
390
1D
100
AcDbSpline
210
0.0000000000000042
220
0.0000000000000109
230
-1.0
 70
     8
 71
     3
 72
     8
 73
     4
 74
     0
 42
0.0000000001
 43
0.0000000001
 40
0.0
 40
0.0
 40
0.0
 40
0.0
 40
1.0
 40
1.0
 40
1.0
 40
1.0
 10
20.28658406658161
 20
0.6036231461457647
 30
-0.0000000000000008
 10
20.24142395265767
 20
0.6550070194253408
 30
-0.0000000000000007
 10
20.19554561664029
 20
0.6735585001699178
 30
-0.0000000000000005
 10
20.14999999999998
 20
0.6556155254828582
 30
-0.0000000000000003
  0
SPLINE
  5
9A
330
A
100
AcDbEntity
  8
1
390
1D
100
AcDbSpline
210
0.0000000000559196
220
0.0000000002930532
230
1.0
 70
     8
 71
     3
 72
     8
 73
     4
 74
     0
 42
0.0000000001
 43
0.0000000001
 40
0.0
 40
0.0
 40
0.0
 40
0.0
 40
1.0
 40
1.0
 40
1.0
 40
1.0
 10
19.90335303162988
 20
0.6690237995973121
 30
-0.0000000000000007
 10
19.88445155052159
 20
0.6726553025812337
 30
-0.0000000000000007
 10
19.8655495870168
 20
0.6762622968598749
 30
-0.0000000000000008
 10
19.84664696837422
 20
0.6798442322584038
 30
-0.0000000000000007
  0
SPLINE
  5
9B
330
A
100
AcDbEntity
  8
1
390
1D
100
AcDbSpline
210
-0.0000000000000038
220
0.0000000000000148
230
-1.0
 70
     8
 71
     3
 72
     8
 73
     4
 74
     0
 42
0.0000000001
 43
0.0000000001
 40
0.0
 40
0.0
 40
0.0
 40
0.0
 40
1.0
 40
1.0
 40
1.0
 40
1.0
 10
20.5
 20
0.6233561672504493
 30
-0.0000000000000003
 10
20.45514177783139
 20
0.6361796339618877
 30
-0.0000000000000005
 10
20.40876556005213
 20
0.6241869050293758
 30
-0.0000000000000007
 10
20.3632786590295
 20
0.5880110184630212
 30
-0.0000000000000008
  0
SPLINE
  5
9C
330
A
100
AcDbEntity
  8
1
390
1D
100
AcDbSpline
210
-0.0000000000801393
220
-0.0000000000596488
230
1.0
 70
     8
 71
     3
 72
     8
 73
     4
 74
     0
 42
0.0000000001
 43
0.0000000001
 40
0.0
 40
0.0
 40
0.0
 40
0.0
 40
1.0
 40
1.0
 40
1.0
 40
1.0
 10
20.29664696837415
 20
0.5901018790581248
 30
-0.0000000000000008
 10
20.29322483263218
 20
0.5946398234587491
 30
-0.0000000000000008
 10
20.28986870504355
 20
0.5991466452518353
 30
-0.0000000000000007
 10
20.28658406658161
 20
0.6036231461457647
 30
-0.0000000000000008
  0
SPLINE
  5
9D
330
A
100
AcDbEntity
  8
1
390
1D
100
AcDbSpline
210
-0.0000000000251682
220
-0.0000000000264903
230
1.0
 70
     8
 71
     3
 72
    10
 73
     6
 74
     0
 42
0.0000000001
 43
0.0000000001
 40
0.0
 40
0.0
 40
0.0
 40
0.0
 40
0.4999188808826812
 40
0.4999188808826812
 40
1.0
 40
1.0
 40
1.0
 40
1.0
 10
20.2240426164131
 20
-0.2457256640890364
 30
-0.0000000000000009
 10
20.23614766184625
 20
-0.2568386107476499
 30
-0.0000000000000008
 10
20.2482507938937
 20
-0.2681444754311428
 30
-0.0000000000000008
 10
20.2724526843694
 20
-0.2911390094935769
 30
-0.0000000000000009
 10
20.28455242597022
 20
-0.3028287332399486
 30
-0.000000000000001
 10
20.29664696837415
 20
-0.3147055055451347
 30
-0.000000000000001
  0
SPLINE
  5
9E
330
A
100
AcDbEntity
  8
1
390
1D
100
AcDbSpline
210
-0.0000000000050899
220
0.0000000000154476
230
-1.0
 70
     8
 71
     3
 72
    10
 73
     6
 74
     0
 42
0.0000000001
 43
0.0000000001
 40
0.0
 40
0.0
 40
0.0
 40
0.0
 40
0.499960961879421
 40
0.499960961879421
 40
1.0
 40
1.0
 40
1.0
 40
1.0
 10
19.97552816347883
 20
-0.190340872373838
 30
-0.0000000000000009
 10
19.98794409527738
 20
-0.1859443744006057
 30
-0.0000000000000009
 10
20.00035876886039
 20
-0.181704523319695
 30
-0.0000000000000008
 10
20.02518363512758
 20
-0.1735272292399941
 30
-0.0000000000000008
 10
20.03759432049674
 20
-0.1695896743430012
 30
-0.0000000000000008
 10
20.05000000000001
 20
-0.1657986841369734
 30
-0.0000000000000007
  0
SPLINE
  5
9F
330
A
100
AcDbEntity
  8
1
390
1D
100
AcDbSpline
210
0.0000000000028793
220
-0.0000000000090276
230
1.0
 70
     8
 71
     3
 72
    10
 73
     6
 74
     0
 42
0.0000000001
 43
0.0000000001
 40
0.0
 40
0.0
 40
0.0
 40
0.0
 40
0.4999191683201696
 40
0.4999191683201696
 40
1.0
 40
1.0
 40
1.0
 40
1.0
 10
19.90335303162584
 20
-0.2133607812816081
 30
-0.000000000000001
 10
19.91537300544513
 20
-0.2099495325533098
 30
-0.000000000000001
 10
19.9273978192329
 20
-0.2063258275686053
 30
-0.0000000000000009
 10
19.95145672829312
 20
-0.1986527661674131
 30
-0.0000000000000008
 10
19.96349180365223
 20
-0.1946029634065667
 30
-0.0000000000000007
 10
19.97552816347883
 20
-0.190340872373838
 30
-0.0000000000000009
  0
SPLINE
  5
A0
330
A
100
AcDbEntity
  8
1
390
1D
100
AcDbSpline
210
0.0
220
0.0
230
1.0
 70
    24
 71
     1
 72
     4
 73
     2
 74
     0
 42
0.0000000001
 43
0.0000000001
 40
0.0
 40
0.0
 40
1.0
 40
1.0
 10
19.91396242041708
 20
0.6756590992181373
 30
-0.0000000000000007
 10
19.90335303162584
 20
0.6690237995981079
 30
-0.0000000000000007
  0
SPLINE
  5
A1
330
A
100
AcDbEntity
  8
1
390
1D
100
AcDbSpline
210
0.0000000000000004
220
0.0000000000000046
230
1.0
 70
     8
 71
     3
 72
     8
 73
     4
 74
     0
 42
0.0000000001
 43
0.0000000001
 40
0.0
 40
0.0
 40
0.0
 40
0.0
 40
1.0
 40
1.0
 40
1.0
 40
1.0
 10
20.05000000000001
 20
0.6637099178151403
 30
-0.0000000000000003
 10
20.00548247132559
 20
0.6921983893099082
 30
-0.0000000000000004
 10
19.95935131638709
 20
0.6961022892788833
 30
-0.0000000000000006
 10
19.91396242041719
 20
0.6756590992180805
 30
-0.0000000000000007
  0
SPLINE
  5
A2
330
A
100
AcDbEntity
  8
1
390
1D
100
AcDbSpline
210
0.0
220
0.0
230
1.0
 70
     8
 71
     3
 72
     8
 73
     4
 74
     0
 42
0.0000000001
 43
0.0000000001
 40
0.0
 40
0.0
 40
0.0
 40
0.0
 40
1.0
 40
1.0
 40
1.0
 40
1.0
 10
19.84664696837416
 20
0.6798442322584038
 30
-0.0000000000000007
 10
19.84300361126503
 20
0.6832338504130462
 30
-0.0000000000000007
 10
19.83943500415057
 20
0.6865836395190854
 30
-0.0000000000000007
 10
19.83594776898792
 20
0.6898946328969942
 30
-0.0000000000000007
  0
SPLINE
  5
A3
330
A
100
AcDbEntity
  8
1
390
1D
100
AcDbSpline
210
-0.0000000000229171
220
-0.0000000000307077
230
1.0
 70
     8
 71
     3
 72
    10
 73
     6
 74
     0
 42
0.0000000001
 43
0.0000000001
 40
0.0
 40
0.0
 40
0.0
 40
0.0
 40
0.4999212978655623
 40
0.4999212978655623
 40
1.0
 40
1.0
 40
1.0
 40
1.0
 10
19.77479587180466
 20
-0.1449093240520369
 30
-0.0000000000000007
 10
19.78677601496826
 20
-0.1534471535348416
 30
-0.0000000000000009
 10
19.79875387594387
 20
-0.1621853054335247
 30
-0.0000000000000009
 10
19.82270463058626
 20
-0.1800600990436578
 30
-0.000000000000001
 10
19.83467846771066
 20
-0.1891975680572955
 30
-0.0000000000000009
 10
19.84664696837416
 20
-0.1985310538352678
 30
-0.0000000000000011
  0
SPLINE
  5
A4
330
A
100
AcDbEntity
  8
1
390
1D
100
AcDbSpline
210
0.0000000000014735
220
0.0000000000023966
230
-1.0
 70
     8
 71
     3
 72
    10
 73
     6
 74
     0
 42
0.0000000001
 43
0.0000000001
 40
0.0
 40
0.0
 40
0.0
 40
0.0
 40
0.4994011294400353
 40
0.4994011294400353
 40
1.0
 40
1.0
 40
1.0
 40
1.0
 10
19.69999999999999
 20
-0.0989248101012663
 30
-0.0000000000000006
 10
19.71252165174639
 20
-0.1053991926824551
 30
-0.0000000000000008
 10
19.72501488611863
 20
-0.1124731242935013
 30
-0.0000000000000008
 10
19.74994804997061
 20
-0.1278057573653655
 30
-0.0000000000000008
 10
19.76239526551706
 20
-0.1360718451904859
 30
-0.0000000000000009
 10
19.77479587180466
 20
-0.1449093240520369
 30
-0.0000000000000009
  0
SPLINE
  5
A5
330
A
100
AcDbEntity
  8
1
390
1D
100
AcDbSpline
210
0.0
220
0.0000000000000017
230
1.0
 70
     8
 71
     3
 72
    10
 73
     6
 74
     0
 42
0.0000000001
 43
0.0000000001
 40
0.0
 40
0.0
 40
0.0
 40
0.0
 40
0.5
 40
0.5
 40
1.0
 40
1.0
 40
1.0
 40
1.0
 10
19.83594776898792
 20
0.6898946328969942
 30
-0.0000000000000007
 10
19.81343469022374
 20
0.7067610291968549
 30
-0.0000000000000005
 10
19.79096468024107
 20
0.7150963537384314
 30
-0.0000000000000006
 10
19.7456655259798
 20
0.7148004489906726
 30
-0.0000000000000004
 10
19.72265267630854
 20
0.7059652200818505
 30
-0.0000000000000002
 10
19.69999999999999
 20
0.6879348848285645
 30
-0.0000000000000002
  0
SPLINE
  5
A6
330
A
100
AcDbEntity
  8
1
390
1D
100
AcDbSpline
210
-0.0000000002431535
220
-0.0000000014071568
230
1.0
 70
     8
 71
     3
 72
     8
 73
     4
 74
     0
 42
0.0000000001
 43
0.0000000001
 40
0.0
 40
0.0
 40
0.0
 40
0.0
 40
1.0
 40
1.0
 40
1.0
 40
1.0
 10
20.94999999999999
 20
-0.329828495064362
 30
-0.0000000000000007
 10
20.96666668136004
 20
-0.332718499233863
 30
-0.0000000000000006
 10
20.98333335546806
 20
-0.3355985497510119
 30
-0.0000000000000007
 10
21.00000000000028
 20
-0.3384683512570632
 30
-0.0000000000000007
  0
SPLINE
  5
A7
330
A
100
AcDbEntity
  8
1
390
1D
100
AcDbSpline
210
0.0
220
0.0
230
1.0
 70
     8
 71
     3
 72
     8
 73
     4
 74
     0
 42
0.0000000001
 43
0.0000000001
 40
0.0
 40
0.0
 40
0.0
 40
0.0
 40
1.0
 40
1.0
 40
1.0
 40
1.0
 10
21.0000000000008
 20
0.5673350388364611
 30
-0.0000000000000004
 10
20.98333319497567
 20
0.5693853380139445
 30
-0.0000000000000004
 10
20.96666651552306
 20
0.5714180047364721
 30
-0.0000000000000004
 10
20.9500000000001
 20
0.5734328410873673
 30
-0.0000000000000004
  0
SPLINE
  5
A8
330
A
100
AcDbEntity
  8
1
390
1D
100
AcDbSpline
210
0.0000000001191211
220
0.0000000006551538
230
1.0
 70
     8
 71
     3
 72
     8
 73
     4
 74
     0
 42
0.0000000001
 43
0.0000000001
 40
0.0
 40
0.0
 40
0.0
 40
0.0
 40
1.0
 40
1.0
 40
1.0
 40
1.0
 10
20.5
 20
-0.249594376716118
 30
-0.0000000000000007
 10
20.53333351276245
 20
-0.255685072698725
 30
-0.0000000000000006
 10
20.56666691494189
 20
-0.2617465006363204
 30
-0.0000000000000007
 10
20.60000000000042
 20
-0.2677762997280411
 30
-0.0000000000000006
  0
SPLINE
  5
A9
330
A
100
AcDbEntity
  8
1
390
1D
100
AcDbSpline
210
0.0
220
0.0
230
1.0
 70
     8
 71
     3
 72
     8
 73
     4
 74
     0
 42
0.0000000001
 43
0.0000000001
 40
0.0
 40
0.0
 40
0.0
 40
0.0
 40
1.0
 40
1.0
 40
1.0
 40
1.0
 10
20.60000000000002
 20
0.6130566189473257
 30
-0.0000000000000004
 10
20.56666613399318
 20
0.6165675174850094
 30
-0.0000000000000004
 10
20.5333327406953
 20
0.6200012755044782
 30
-0.0000000000000004
 10
20.5
 20
0.6233561672504493
 30
-0.0000000000000004
  0
SPLINE
  5
AA
330
A
100
AcDbEntity
  8
1
390
1D
100
AcDbSpline
210
-0.0000000004262143
220
-0.0000000022591459
230
1.0
 70
     8
 71
     3
 72
     8
 73
     4
 74
     0
 42
0.0000000001
 43
0.0000000001
 40
0.0
 40
0.0
 40
0.0
 40
0.0
 40
1.0
 40
1.0
 40
1.0
 40
1.0
 10
20.05000000000001
 20
-0.1657986841369734
 30
-0.0000000000000006
 10
20.08333344161059
 20
-0.1721074780943468
 30
-0.0000000000000008
 10
20.1166668646178
 20
-0.1783968343152083
 30
-0.0000000000000008
 10
20.14999999999998
 20
-0.1846646463944239
 30
-0.0000000000000007
  0
SPLINE
  5
AB
330
A
100
AcDbEntity
  8
1
390
1D
100
AcDbSpline
210
0.0
220
0.0
230
1.0
 70
     8
 71
     3
 72
     8
 73
     4
 74
     0
 42
0.0000000001
 43
0.0000000001
 40
0.0
 40
0.0
 40
0.0
 40
0.0
 40
1.0
 40
1.0
 40
1.0
 40
1.0
 10
20.14999999999998
 20
0.6556155254828582
 30
-0.0000000000000003
 10
20.11666668862352
 20
0.6583985938924571
 30
-0.0000000000000003
 10
20.08333333209083
 20
0.6610971991273687
 30
-0.0000000000000003
 10
20.05000000000001
 20
0.6637099178151403
 30
-0.0000000000000003
  0
SPLINE
  5
AC
330
A
100
AcDbEntity
  8
1
390
1D
100
AcDbSpline
210
-0.0000000000113255
220
-0.000000000193379
230
1.0
 70
     8
 71
     3
 72
     8
 73
     4
 74
     0
 42
0.0000000001
 43
0.0000000001
 40
0.0
 40
0.0
 40
0.0
 40
0.0
 40
1.0
 40
1.0
 40
1.0
 40
1.0
 10
19.69999999999999
 20
0.6879348848285645
 30
-0.0000000000000003
 10
19.68333356279078
 20
0.6889334244600036
 30
-0.0000000000000002
 10
19.66666689566455
 20
0.6899095576471268
 30
-0.0000000000000003
 10
19.64999999999986
 20
0.6908631907246559
 30
-0.0000000000000002
  0
SPLINE
  5
AD
330
A
100
AcDbEntity
  8
1
390
1D
100
AcDbSpline
210
-0.000000012505274
220
-0.0000000648482623
230
0.9999999999999978
 70
     8
 71
     3
 72
     8
 73
     4
 74
     0
 42
0.0000000001
 43
0.0000000001
 40
0.0
 40
0.0
 40
0.0
 40
0.0
 40
1.0
 40
1.0
 40
1.0
 40
1.0
 10
19.6499999999853
 20
-0.0892828805092449
 30
-0.0000000000000007
 10
19.66666660362824
 20
-0.0924999590377524
 30
-0.0000000000000007
 10
19.68333328502422
 20
-0.0957140062238295
 30
-0.0000000000000008
 10
19.69999999999999
 20
-0.0989248101012663
 30
-0.0000000000000008
  0
SPLINE
  5
AE
330
A
100
AcDbEntity
  8
1
390
1D
100
AcDbSpline
210
-0.0000000000000013
220
-0.0000000000001119
230
1.0
 70
     8
 71
     3
 72
     8
 73
     4
 74
     0
 42
0.0000000001
 43
0.0000000001
 40
0.0
 40
0.0
 40
0.0
 40
0.0
 40
1.0
 40
1.0
 40
1.0
 40
1.0
 10
19.19061833612835
 20
0.6499961547422118
 30
0.0
 10
19.34378761338064
 20
0.6500126513711848
 30
0.0
 10
19.49689738435359
 20
0.6483192251063202
 30
0.0
 10
19.64999999999986
 20
0.6448151171972541
 30
-0.0000000000000001
  0
SPLINE
  5
AF
330
A
100
AcDbEntity
  8
1
390
1D
100
AcDbSpline
210
0.0
220
0.0
230
1.0
 70
     8
 71
     3
 72
     8
 73
     4
 74
     0
 42
0.0000000001
 43
0.0000000001
 40
0.0
 40
0.0
 40
0.0
 40
0.0
 40
1.0
 40
1.0
 40
1.0
 40
1.0
 10
19.64999999999998
 20
-0.0926599702480644
 30
-0.0000000000000007
 10
19.44669194509885
 20
-0.0578582404764347
 30
-0.0000000000000006
 10
19.24343348627258
 20
-0.0224151771168977
 30
-0.0000000000000006
 10
19.04027565016588
 20
0.01356690436279
 30
-0.0000000000000007
  0
SPLINE
  5
B0
330
A
100
AcDbEntity
  8
1
390
1D
100
AcDbSpline
210
0.0
220
0.0000000000000003
230
1.0
 70
     8
 71
     3
 72
    22
 73
    18
 74
     0
 42
0.0000000001
 43
0.0000000001
 40
0.0
 40
0.0
 40
0.0
 40
0.0
 40
0.2500000000000128
 40
0.2500000000000128
 40
0.3750000000000108
 40
0.3750000000000108
 40
0.4375000000000099
 40
0.4375000000000099
 40
0.5000000000000087
 40
0.5000000000000087
 40
0.5625000000000077
 40
0.5625000000000077
 40
0.6250000000000066
 40
0.6250000000000066
 40
0.7500000000000044
 40
0.7500000000000044
 40
1.0
 40
1.0
 40
1.0
 40
1.0
 10
18.9685230768423
 20
-0.2899948861725079
 30
-0.0000000000000006
 10
18.88419908830564
 20
-0.2602018084242559
 30
-0.0000000000000006
 10
18.80159972412167
 20
-0.2261909913592604
 30
-0.0000000000000006
 10
18.68163104793041
 20
-0.1648265630117862
 30
-0.0000000000000006
 10
18.64240579853833
 20
-0.1426642523325086
 30
-0.0000000000000007
 10
18.58530844764425
 20
-0.1063555523346622
 30
-0.0000000000000007
 10
18.5665362058736
 20
-0.093719437594757
 30
-0.0000000000000006
 10
18.52979059596663
 20
-0.0674086887362364
 30
-0.0000000000000007
 10
18.50497833521831
 20
-0.0502242026634576
 30
-0.0000000000000005
 10
18.5158147964849
 20
-0.0052507616099433
 30
-0.0000000000000007
 10
18.54371167201742
 20
0.0027847122695448
 30
-0.0000000000000007
 10
18.58752603617171
 20
0.015414074467003
 30
-0.0000000000000006
 10
18.61001259351814
 20
0.0191273438701387
 30
-0.0000000000000006
 10
18.6780706754397
 20
0.0275825338791265
 30
-0.0000000000000007
 10
18.72346934499541
 20
0.0292023925246099
 30
-0.0000000000000007
 10
18.85939829220894
 20
0.0295546386561796
 30
-0.0000000000000007
 10
18.94987343550656
 20
0.0232121297087815
 30
-0.0000000000000007
 10
19.04027637274817
 20
0.0135668272688463
 30
-0.0000000000000007
  0
SPLINE
  5
B1
330
A
100
AcDbEntity
  8
1
390
1D
100
AcDbSpline
210
0.0000000000003594
220
0.0000000000023669
230
1.0
 70
     8
 71
     3
 72
     8
 73
     4
 74
     0
 42
0.0000000001
 43
0.0000000001
 40
0.0
 40
0.0
 40
0.0
 40
0.0
 40
1.0
 40
1.0
 40
1.0
 40
1.0
 10
18.96852149759002
 20
-0.2900010005474201
 30
-0.0000000000000006
 10
19.19581062358725
 20
-0.3257537931636421
 30
-0.0000000000000006
 10
19.42291318257941
 20
-0.3605421849250661
 30
-0.0000000000000006
 10
19.64999999999986
 20
-0.3933659864310926
 30
-0.0000000000000005
  0
SPLINE
  5
B2
330
A
100
AcDbEntity
  8
1
390
1D
100
AcDbSpline
210
-0.0000000000517345
220
-0.0000000002333603
230
1.0
 70
     8
 71
     3
 72
     8
 73
     4
 74
     0
 42
0.0000000001
 43
0.0000000001
 40
0.0
 40
0.0
 40
0.0
 40
0.0
 40
1.0
 40
1.0
 40
1.0
 40
1.0
 10
20.81232636249507
 20
0.4917380386927448
 30
-0.0000000000000009
 10
20.78738425734576
 20
0.4973018673621823
 30
-0.0000000000000009
 10
20.7624421521964
 20
0.5028316786300593
 30
-0.0000000000000008
 10
20.73750004704709
 20
0.5083264517155613
 30
-0.0000000000000009
  0
SPLINE
  5
B3
330
A
100
AcDbEntity
  8
1
390
1D
100
AcDbSpline
210
-0.0000000000007667
220
-0.0000000000059283
230
1.0
 70
     8
 71
     2
 72
     6
 73
     3
 74
     0
 42
0.0000000001
 43
0.0000000001
 40
0.0
 40
0.0
 40
0.0
 40
1.0
 40
1.0
 40
1.0
 10
19.98843341612627
 20
0.687430075184011
 30
-0.0000000000000005
 10
19.8840126623133
 20
0.7003557834419781
 30
-0.0000000000000004
 10
19.7800526400943
 20
0.7143817824180588
 30
-0.0000000000000004
  0
SPLINE
  5
B4
330
A
100
AcDbEntity
  8
1
390
1D
100
AcDbSpline
210
0.0000000000004844
220
0.0000000000040643
230
1.0
 70
     8
 71
     3
 72
    10
 73
     6
 74
     0
 42
0.0000000001
 43
0.0000000001
 40
0.0
 40
0.0
 40
0.0
 40
0.0
 40
0.4809003975500783
 40
0.8502621859927227
 40
1.0
 40
1.0
 40
1.0
 40
1.0
 10
20.48016675992847
 20
0.6275802903885506
 30
-0.0000000000000003
 10
20.43464974098703
 20
0.632784028160927
 30
-0.0000000000000005
 10
20.35417125307089
 20
0.6421599613056515
 30
-0.0000000000000004
 10
20.25956897469075
 20
0.6535929415263127
 30
-0.0000000000000004
 10
20.21042181512132
 20
0.6596133684354868
 30
-0.0000000000000004
 10
20.19624361714938
 20
0.6613586111622567
 30
-0.0000000000000004
  0
SPLINE
  5
B5
330
A
100
AcDbEntity
  8
1
390
1D
100
AcDbSpline
210
0.0
220
0.0
230
1.0
 70
    24
 71
     1
 72
     4
 73
     2
 74
     0
 42
0.0000000001
 43
0.0000000001
 40
0.0
 40
0.0
 40
1.0
 40
1.0
 10
21.0000000000008
 20
0.5698111278666716
 30
-0.0000000000000004
 10
20.60907504625749
 20
0.6125598227586125
 30
-0.0000000000000004
  0
SPLINE
  5
B6
330
A
100
AcDbEntity
  8
1
390
1D
100
AcDbSpline
210
0.0
220
0.0
230
1.0
 70
     8
 71
     3
 72
     8
 73
     4
 74
     0
 42
0.0000000001
 43
0.0000000001
 40
0.0
 40
0.0
 40
0.0
 40
0.0
 40
1.0
 40
1.0
 40
1.0
 40
1.0
 10
20.36327865902939
 20
0.5880110184630781
 30
-0.0000000000000007
 10
20.33771379488019
 20
0.5932576003598343
 30
-0.0000000000000008
 10
20.31214893073093
 20
0.5984620093096283
 30
-0.0000000000000008
 10
20.28658406658161
 20
0.6036231461457647
 30
-0.0000000000000007
  0
SPLINE
  5
B7
330
A
100
AcDbEntity
  8
1
390
1D
100
AcDbSpline
210
0.0
220
0.0
230
1.0
 70
     8
 71
     3
 72
     8
 73
     4
 74
     0
 42
0.0000000001
 43
0.0000000001
 40
0.0
 40
0.0
 40
0.0
 40
0.0
 40
1.0
 40
1.0
 40
1.0
 40
1.0
 10
19.91396242041708
 20
0.6756590992180805
 30
-0.0000000000000007
 10
19.8879575366048
 20
0.6804549630004431
 30
-0.0000000000000007
 10
19.86195265279258
 20
0.685200526528945
 30
-0.0000000000000007
 10
19.8359477689803
 20
0.6898946328983584
 30
-0.0000000000000007
  0
SPLINE
  5
B8
330
A
100
AcDbEntity
  8
1
390
1D
100
AcDbSpline
210
0.0000000000000435
220
-0.0000000000000125
230
-1.0
 70
     8
 71
     3
 72
    16
 73
    12
 74
     0
 42
0.0000000001
 43
0.0000000001
 40
0.0
 40
0.0
 40
0.0
 40
0.0
 40
0.1658762355382779
 40
0.1658762355382779
 40
0.3317524713777483
 40
0.3317524713777483
 40
0.4976287072172215
 40
0.4976287072172215
 40
0.663504943056692
 40
0.663504943056692
 40
1.0
 40
1.0
 40
1.0
 40
1.0
 10
18.98931906350964
 20
-0.1618178191588413
 30
-0.0000000000000006
 10
18.9910844886885
 20
-0.149988864751208
 30
-0.0000000000000006
 10
18.99314690978804
 20
-0.1381137304706499
 30
-0.0000000000000006
 10
18.9978204897792
 20
-0.1142781387942478
 30
-0.0000000000000006
 10
19.00045145530015
 20
-0.1022692907838518
 30
-0.0000000000000006
 10
19.00598899056898
 20
-0.0793787377770059
 30
-0.0000000000000006
 10
19.00895733981963
 20
-0.0682267210992222
 30
-0.0000000000000005
 10
19.01507406307991
 20
-0.04728990142155
 30
-0.0000000000000005
 10
19.01818924970604
 20
-0.0375952092641683
 30
-0.0000000000000006
 10
19.02770065333311
 20
-0.0107692278149329
 30
-0.0000000000000006
 10
19.03410262642785
 20
0.0035815226850673
 30
-0.0000000000000007
 10
19.04009454345896
 20
0.0132753357261777
 30
-0.0000000000000007
  0
SPLINE
  5
B9
330
A
100
AcDbEntity
  8
1
390
1D
100
AcDbSpline
210
0.0
220
0.0
230
1.0
 70
     8
 71
     3
 72
     8
 73
     4
 74
     0
 42
0.0000000001
 43
0.0000000001
 40
0.0
 40
0.0
 40
0.0
 40
0.0
 40
1.0
 40
1.0
 40
1.0
 40
1.0
 10
18.98931906342165
 20
-0.1618178190833532
 30
-0.0000000000000005
 10
18.98298550212837
 20
-0.2042548527690542
 30
-0.0000000000000006
 10
18.97604027338905
 20
-0.2469868894598335
 30
-0.0000000000000006
 10
18.96852233886455
 20
-0.2899951380946391
 30
-0.0000000000000005
  0
SPLINE
  5
BA
330
A
100
AcDbEntity
  8
1
390
1D
100
AcDbSpline
210
0.0
220
0.0
230
1.0
 70
    28
 71
     2
 72
     6
 73
     3
 74
     0
 42
0.0000000001
 43
0.0000000001
 40
0.0
 40
0.0
 40
0.0
 40
1.0
 40
1.0
 40
1.0
 10
21.00000000000098
 20
-0.3365617945988472
 30
-0.0000000000000004
 41
0.8111444799157215
 10
21.00000000000094
 20
-0.3682020083310897
 30
-0.0000000000000004
 41
0.8467979086588218
 10
21.00000000000097
 20
-0.4223707945988055
 30
-0.0000000000000004
 41
0.9999999999999998
  0
SPLINE
  5
BB
330
A
100
AcDbEntity
  8
1
390
1D
100
AcDbSpline
210
-0.0000000004184839
220
-0.0000000030683015
230
1.0
 70
     8
 71
     3
 72
     8
 73
     4
 74
     0
 42
0.0000000001
 43
0.0000000001
 40
0.0
 40
0.0
 40
0.0
 40
0.0
 40
1.0
 40
1.0
 40
1.0
 40
1.0
 10
19.69999999999999
 20
-0.530889740915427
 30
-0.0000000000000006
 10
19.68333356279078
 20
-0.5286327976473899
 30
-0.0000000000000006
 10
19.66666689566455
 20
-0.5263595327908775
 30
-0.0000000000000005
 10
19.64999999999986
 20
-0.5240703055503673
 30
-0.0000000000000004
  0
SPLINE
  5
BC
330
A
100
AcDbEntity
  8
1
390
1D
100
AcDbSpline
210
0.0
220
0.0
230
1.0
 70
    28
 71
     2
 72
     6
 73
     3
 74
     0
 42
0.0000000001
 43
0.0000000001
 40
0.0
 40
0.0
 40
0.0
 40
1.0
 40
1.0
 40
1.0
 10
19.65000000000001
 20
-0.3933659864246184
 30
-0.0000000000000006
 41
0.9792859341223731
 10
19.64999999999998
 20
-0.4591835787917934
 30
-0.0000000000000005
 41
0.9718604693104088
 10
19.65000000000002
 20
-0.5240703055468266
 30
-0.0000000000000006
 41
0.9692057401362145
  0
SPLINE
  5
BD
330
A
100
AcDbEntity
  8
1
390
1D
100
AcDbSpline
210
0.0
220
0.0
230
1.0
 70
     8
 71
     3
 72
     8
 73
     4
 74
     0
 42
0.0000000001
 43
0.0000000001
 40
0.0
 40
0.0
 40
0.0
 40
0.0
 40
1.0
 40
1.0
 40
1.0
 40
1.0
 10
21.0000000000008
 20
-0.6689972033011601
 30
-0.0000000000000003
 10
20.98333319497567
 20
-0.6677583048315796
 30
-0.0000000000000003
 10
20.966666515523
 20
-0.6664978334067087
 30
-0.0000000000000003
 10
20.9500000000001
 20
-0.6652158691193222
 30
-0.0000000000000003
  0
SPLINE
  5
BE
330
A
100
AcDbEntity
  8
1
390
1D
100
AcDbSpline
210
0.0000000000002483
220
-0.0000000000001163
230
-1.0
 70
     8
 71
     3
 72
     8
 73
     4
 74
     0
 42
0.0000000001
 43
0.0000000001
 40
0.0
 40
0.0
 40
0.0
 40
0.0
 40
1.0
 40
1.0
 40
1.0
 40
1.0
 10
20.95000000000005
 20
-0.665215869119038
 30
-0.0000000000000002
 10
20.90467380825089
 20
-0.7791250017361336
 30
-0.0000000000000002
 10
20.85796151533401
 20
-0.8787693373124625
 30
-0.0000000000000001
 10
20.8123263624953
 20
-0.9593566751232744
 30
0.0
  0
SPLINE
  5
BF
330
A
100
AcDbEntity
  8
1
390
1D
100
AcDbSpline
210
0.0000000000001683
220
0.0000000000160247
230
1.0
 70
     8
 71
     3
 72
     8
 73
     4
 74
     0
 42
0.0000000001
 43
0.0000000001
 40
0.0
 40
0.0
 40
0.0
 40
0.0
 40
1.0
 40
1.0
 40
1.0
 40
1.0
 10
20.81232636249513
 20
-0.9593566751232744
 30
0.0
 10
20.78738425734582
 20
-0.9591602349313461
 30
0.0000000000000001
 10
20.7624421521964
 20
-0.9588981601045816
 30
-0.0000000000000001
 10
20.73750004704704
 20
-0.9585706889125164
 30
-0.0000000000000001
  0
SPLINE
  5
C0
330
A
100
AcDbEntity
  8
1
390
1D
100
AcDbSpline
210
0.000000000000636
220
0.0000000000002702
230
1.0
 70
     8
 71
     3
 72
    10
 73
     6
 74
     0
 42
0.0000000001
 43
0.0000000001
 40
0.0
 40
0.0
 40
0.0
 40
0.0
 40
0.5000000000000002
 40
0.5000000000000002
 40
1.0
 40
1.0
 40
1.0
 40
1.0
 10
20.73750004704704
 20
-0.9585706889125164
 30
0.0000000000000001
 10
20.71483789165933
 20
-0.917077274233236
 30
-0.0000000000000001
 10
20.69215139514625
 20
-0.8692768717199896
 30
-0.0000000000000002
 10
20.64630969188801
 20
-0.7613593721810617
 30
-0.0000000000000002
 10
20.62297343314168
 20
-0.7006930810433687
 30
-0.0000000000000003
 10
20.60000000000002
 20
-0.6351647902143896
 30
-0.0000000000000003
  0
SPLINE
  5
C1
330
A
100
AcDbEntity
  8
1
390
1D
100
AcDbSpline
210
0.000000000007009
220
0.0000000000721264
230
1.0
 70
     8
 71
     3
 72
     8
 73
     4
 74
     0
 42
0.0000000001
 43
0.0000000001
 40
0.0
 40
0.0
 40
0.0
 40
0.0
 40
1.0
 40
1.0
 40
1.0
 40
1.0
 10
20.60000000000002
 20
-0.6351647902143896
 30
-0.0000000000000003
 10
20.56666613399318
 20
-0.6320081716367554
 30
-0.0000000000000003
 10
20.53333274069536
 20
-0.6287685678550475
 30
-0.0000000000000003
 10
20.5
 20
-0.6254472130231648
 30
-0.0000000000000004
  0
SPLINE
  5
C2
330
A
100
AcDbEntity
  8
1
390
1D
100
AcDbSpline
210
-0.0000000000001626
220
0.0000000000000688
230
1.0
 70
     8
 71
     3
 72
     8
 73
     4
 74
     0
 42
0.0000000001
 43
0.0000000001
 40
0.0
 40
0.0
 40
0.0
 40
0.0
 40
1.0
 40
1.0
 40
1.0
 40
1.0
 10
20.5
 20
-0.6254472130231648
 30
-0.0000000000000003
 10
20.45514177783139
 20
-0.7466545321585727
 30
-0.0000000000000003
 10
20.40876556005219
 20
-0.8560666159816605
 30
-0.0000000000000003
 10
20.3632786590295
 20
-0.9487801645703372
 30
-0.0000000000000002
  0
SPLINE
  5
C3
330
A
100
AcDbEntity
  8
1
390
1D
100
AcDbSpline
210
0.0000000000013818
220
0.0000000000330966
230
1.0
 70
     8
 71
     3
 72
     8
 73
     4
 74
     0
 42
0.0000000001
 43
0.0000000001
 40
0.0
 40
0.0
 40
0.0
 40
0.0
 40
1.0
 40
1.0
 40
1.0
 40
1.0
 10
20.36327865902939
 20
-0.9487801645703372
 30
0.0
 10
20.33771379488013
 20
-0.9477801725755055
 30
-0.0000000000000002
 10
20.31214893073087
 20
-0.946712729672072
 30
-0.0000000000000002
 10
20.28658406658161
 20
-0.9455780924264443
 30
-0.0000000000000001
  0
SPLINE
  5
C4
330
A
100
AcDbEntity
  8
1
390
1D
100
AcDbSpline
210
-0.0000000000005153
220
-0.0000000000001965
230
-1.0
 70
     8
 71
     3
 72
    10
 73
     6
 74
     0
 42
0.0000000001
 43
0.0000000001
 40
0.0
 40
0.0
 40
0.0
 40
0.0
 40
0.5
 40
0.5
 40
1.0
 40
1.0
 40
1.0
 40
1.0
 10
20.28658406658161
 20
-0.9455780924264443
 30
-0.0000000000000002
 10
20.26400400961961
 20
-0.8967262509490296
 30
-0.0000000000000002
 10
20.24143922324117
 20
-0.8423797460069977
 30
-0.0000000000000003
 10
20.19591495999771
 20
-0.7229220966877393
 30
-0.0000000000000004
 10
20.17277280832019
 20
-0.6572277138530467
 30
-0.0000000000000004
 10
20.15000000000003
 20
-0.5876287820208859
 30
-0.0000000000000003
  0
SPLINE
  5
C5
330
A
100
AcDbEntity
  8
1
390
1D
100
AcDbSpline
210
-0.0000000000084688
220
-0.0000000000714507
230
1.0
 70
     8
 71
     3
 72
     8
 73
     4
 74
     0
 42
0.0000000001
 43
0.0000000001
 40
0.0
 40
0.0
 40
0.0
 40
0.0
 40
1.0
 40
1.0
 40
1.0
 40
1.0
 10
20.14999999999998
 20
-0.5876287820208859
 30
-0.0000000000000005
 10
20.11666668862352
 20
-0.5837533553495291
 30
-0.0000000000000005
 10
20.08333333209083
 20
-0.5798018220563109
 30
-0.0000000000000006
 10
20.05000000000001
 20
-0.5757762756171588
 30
-0.0000000000000004
  0
SPLINE
  5
C6
330
A
100
AcDbEntity
  8
1
390
1D
100
AcDbSpline
210
-0.0000000000003627
220
0.0000000000001416
230
1.0
 70
     8
 71
     3
 72
     8
 73
     4
 74
     0
 42
0.0000000001
 43
0.0000000001
 40
0.0
 40
0.0
 40
0.0
 40
0.0
 40
1.0
 40
1.0
 40
1.0
 40
1.0
 10
20.05000000000001
 20
-0.5757762756171588
 30
-0.0000000000000004
 10
20.00548247132559
 20
-0.7028205943454396
 30
-0.0000000000000004
 10
19.95935131638709
 20
-0.8206948535486162
 30
-0.0000000000000003
 10
19.91396242041719
 20
-0.9243111722170738
 30
-0.0000000000000003
  0
SPLINE
  5
C7
330
A
100
AcDbEntity
  8
1
390
1D
100
AcDbSpline
210
0.0000000000044503
220
0.0000000000615472
230
1.0
 70
     8
 71
     3
 72
     8
 73
     4
 74
     0
 42
0.0000000001
 43
0.0000000001
 40
0.0
 40
0.0
 40
0.0
 40
0.0
 40
1.0
 40
1.0
 40
1.0
 40
1.0
 10
19.91396242041708
 20
-0.9243111722170171
 30
-0.0000000000000002
 10
19.88795753660486
 20
-0.9224989989767207
 30
-0.0000000000000002
 10
19.86195265279258
 20
-0.920618588214495
 30
-0.0000000000000002
 10
19.8359477689803
 20
-0.9186702099740388
 30
-0.0000000000000003
  0
SPLINE
  5
C8
330
A
100
AcDbEntity
  8
1
390
1D
100
AcDbSpline
210
0.0000000000012365
220
0.0000000000004331
230
1.0
 70
     8
 71
     3
 72
    10
 73
     6
 74
     0
 42
0.0000000001
 43
0.0000000001
 40
0.0
 40
0.0
 40
0.0
 40
0.0
 40
0.5
 40
0.5
 40
1.0
 40
1.0
 40
1.0
 40
1.0
 10
19.83594776898792
 20
-0.9186702099746073
 30
-0.0000000000000002
 10
19.81343469022374
 20
-0.8631365012412288
 30
-0.0000000000000003
 10
19.79096468024107
 20
-0.802966742648266
 30
-0.0000000000000003
 10
19.74566552597986
 20
-0.6735240888165209
 30
-0.0000000000000004
 10
19.7226526763086
 20
-0.6036419315162221
 30
-0.0000000000000005
 10
19.70000000000005
 20
-0.530889740915427
 30
-0.0000000000000004
  0
SPLINE
  5
C9
330
A
100
AcDbEntity
  8
1
390
1D
100
AcDbSpline
210
0.0
220
0.0
230
1.0
 70
    28
 71
     2
 72
     6
 73
     3
 74
     0
 42
0.0000000001
 43
0.0000000001
 40
0.0
 40
0.0
 40
0.0
 40
1.0
 40
1.0
 40
1.0
 10
21.00000000000023
 20
-0.4223707945986919
 30
-0.0000000000000004
 41
0.9999999999999998
 10
21.00000000000021
 20
-0.5536779233275079
 30
-0.0000000000000004
 41
0.9743627233284472
 10
21.00000000000024
 20
-0.6689972033115277
 30
-0.0000000000000003
 41
0.9690923238825536
  0
SPLINE
  5
CA
330
A
100
AcDbEntity
  8
1
390
1D
100
AcDbSpline
210
0.0000000000185334
220
0.0000000000074835
230
-1.0
 70
     8
 71
     3
 72
     8
 73
     4
 74
     0
 42
0.0000000001
 43
0.0000000001
 40
0.0
 40
0.0
 40
0.0
 40
0.0
 40
1.0
 40
1.0
 40
1.0
 40
1.0
 10
19.84664696837416
 20
-0.9451721594160742
 30
-0.0000000000000003
 10
19.84300361126503
 20
-0.9363872542682544
 30
-0.0000000000000003
 10
19.83943500415057
 20
-0.9275529516234541
 30
-0.0000000000000002
 10
19.83594776898792
 20
-0.9186702099746073
 30
-0.0000000000000003
  0
SPLINE
  5
CB
330
A
100
AcDbEntity
  8
1
390
1D
100
AcDbSpline
210
0.0
220
0.0
230
1.0
 70
     8
 71
     3
 72
     8
 73
     4
 74
     0
 42
0.0000000001
 43
0.0000000001
 40
0.0
 40
0.0
 40
0.0
 40
0.0
 40
1.0
 40
1.0
 40
1.0
 40
1.0
 10
19.91396242041708
 20
-0.9243111722170738
 30
-0.0000000000000002
 10
19.91051271997395
 20
-0.9324440781529688
 30
-0.0000000000000002
 10
19.90697421560832
 20
-0.9405863610590472
 30
-0.0000000000000002
 10
19.90335303162584
 20
-0.9487383374249134
 30
-0.0000000000000002
  0
SPLINE
  5
CC
330
A
100
AcDbEntity
  8
1
390
1D
100
AcDbSpline
210
-0.0000000000208095
220
-0.0000000000096799
230
1.0
 70
     8
 71
     3
 72
     8
 73
     4
 74
     0
 42
0.0000000001
 43
0.0000000001
 40
0.0
 40
0.0
 40
0.0
 40
0.0
 40
1.0
 40
1.0
 40
1.0
 40
1.0
 10
20.29664696837415
 20
-0.9672142970910611
 30
-0.0000000000000002
 10
20.29322483263218
 20
-0.9600469697959395
 30
-0.0000000000000002
 10
20.2898687050436
 20
-0.9528346184340536
 30
-0.0000000000000001
 10
20.28658406658161
 20
-0.9455780924264443
 30
-0.0000000000000002
  0
SPLINE
  5
CD
330
A
100
AcDbEntity
  8
1
390
1D
100
AcDbSpline
210
-0.0000000000355953
220
0.0000000000174964
230
1.0
 70
     8
 71
     3
 72
     8
 73
     4
 74
     0
 42
0.0000000001
 43
0.0000000001
 40
0.0
 40
0.0
 40
0.0
 40
0.0
 40
1.0
 40
1.0
 40
1.0
 40
1.0
 10
20.36327865902922
 20
-0.9487801645704507
 30
-0.0000000000000002
 10
20.36004582753759
 20
-0.9554984233629397
 30
-0.0000000000000002
 10
20.35673561907186
 20
-0.9622302760030834
 30
-0.0000000000000001
 10
20.35335303162583
 20
-0.9689761417005797
 30
-0.0000000000000002
  0
SPLINE
  5
CE
330
A
100
AcDbEntity
  8
1
390
1D
100
AcDbSpline
210
-0.0000000001520654
220
-0.0000000000847621
230
-1.0
 70
     8
 71
     3
 72
     8
 73
     4
 74
     0
 42
0.0000000001
 43
0.0000000001
 40
0.0
 40
0.0
 40
0.0
 40
0.0
 40
1.0
 40
1.0
 40
1.0
 40
1.0
 10
20.74664696837419
 20
-0.9749827188688866
 30
0.0000000000000001
 10
20.74354200502188
 20
-0.9695496164206359
 30
0.0
 10
20.74049166261574
 20
-0.9640787149149332
 30
0.0
 10
20.73750004704704
 20
-0.9585706889125164
 30
-0.0000000000000001
  0
SPLINE
  5
CF
330
A
100
AcDbEntity
  8
1
390
1D
100
AcDbSpline
210
-0.0000000001643612
220
0.0000000000945393
230
1.0
 70
     8
 71
     3
 72
     8
 73
     4
 74
     0
 42
0.0000000001
 43
0.0000000001
 40
0.0
 40
0.0
 40
0.0
 40
0.0
 40
1.0
 40
1.0
 40
1.0
 40
1.0
 10
20.81232636249513
 20
-0.9593566751232744
 30
-0.0000000000000001
 10
20.809397092572
 20
-0.9645419640689851
 30
-0.0000000000000001
 10
20.80640475249402
 20
-0.9697426167546725
 30
-0.0000000000000001
 10
20.80335303162582
 20
-0.9749590565976403
 30
0.0
  0
SPLINE
  5
D0
330
A
100
AcDbEntity
  8
1
390
1D
100
AcDbSpline
210
0.0
220
0.0
230
1.0
 70
     8
 71
     3
 72
     8
 73
     4
 74
     0
 42
0.0000000001
 43
0.0000000001
 40
0.0
 40
0.0
 40
0.0
 40
0.0
 40
1.0
 40
1.0
 40
1.0
 40
1.0
 10
19.90335303162988
 20
-0.9487383374251407
 30
-0.0000000000000002
 10
19.88445155052159
 20
-0.9475874770427596
 30
-0.0000000000000002
 10
19.8655495870168
 20
-0.9463987356410825
 30
-0.0000000000000002
 10
19.84664696837416
 20
-0.9451721594161311
 30
-0.0000000000000002
  0
SPLINE
  5
D1
330
A
100
AcDbEntity
  8
1
390
1D
100
AcDbSpline
210
0.0
220
0.0
230
1.0
 70
    28
 71
     2
 72
     6
 73
     3
 74
     0
 42
0.0000000001
 43
0.0000000001
 40
0.0
 40
0.0
 40
0.0
 40
1.0
 40
1.0
 40
1.0
 10
21.00000000000097
 20
0.7115331950339511
 30
0.0000000000000001
 41
0.9999999999999998
 10
21.00000000000102
 20
0.6468520307253805
 30
0.0000000000000001
 41
0.8282035735890165
 10
21.00000000000091
 20
0.5980491950338847
 30
0.0
 41
0.8042214829223228
  0
SPLINE
  5
D2
330
A
100
AcDbEntity
  8
1
390
1D
100
AcDbSpline
210
-0.000000000002553
220
-0.0000000000821692
230
1.0
 70
     8
 71
     3
 72
     8
 73
     4
 74
     0
 42
0.0000000001
 43
0.0000000001
 40
0.0
 40
0.0
 40
0.0
 40
0.0
 40
1.0
 40
1.0
 40
1.0
 40
1.0
 10
20.353353031631
 20
-0.9689761417006936
 30
-0.0000000000000002
 10
20.33445030982983
 20
-0.9684266381730708
 30
-0.0000000000000002
 10
20.31554833512865
 20
-0.9678393742419755
 30
-0.0000000000000001
 10
20.29664696837415
 20
-0.9672142970910611
 30
-0.0000000000000001
  0
SPLINE
  5
D3
330
A
100
AcDbEntity
  8
1
390
1D
100
AcDbSpline
210
-0.0000000001849168
220
-0.0000000001128629
230
1.0
 70
     8
 71
     3
 72
    10
 73
     6
 74
     0
 42
0.0000000001
 43
0.0000000001
 40
0.0
 40
0.0
 40
0.0
 40
0.0
 40
0.4999609618793708
 40
0.4999609618793708
 40
1.0
 40
1.0
 40
1.0
 40
1.0
 10
19.97552816347883
 20
0.8125885466133695
 30
0.0000000000000002
 10
19.98794409527738
 20
0.7921559503641902
 30
0.0000000000000003
 10
20.00035876886039
 20
0.7717722166871113
 30
0.0000000000000002
 10
20.02518363512752
 20
0.7311000566720054
 30
0.0000000000000003
 10
20.03759432049674
 20
0.7108108599363732
 30
0.0000000000000002
 10
20.05000000000001
 20
0.6905701799847748
 30
0.0000000000000002
  0
SPLINE
  5
D4
330
A
100
AcDbEntity
  8
1
390
1D
100
AcDbSpline
210
0.0
220
0.0
230
1.0
 70
     8
 71
     3
 72
     8
 73
     4
 74
     0
 42
0.0000000001
 43
0.0000000001
 40
0.0
 40
0.0
 40
0.0
 40
0.0
 40
1.0
 40
1.0
 40
1.0
 40
1.0
 10
20.05000000000001
 20
0.6905701799847748
 30
0.0000000000000002
 10
20.08333344161059
 20
0.6924335946527549
 30
0.0000000000000002
 10
20.1166668646178
 20
0.6942134663401589
 30
0.0000000000000002
 10
20.14999999999998
 20
0.6959091420687287
 30
0.0000000000000002
  0
SPLINE
  5
D5
330
A
100
AcDbEntity
  8
1
390
1D
100
AcDbSpline
210
0.0000000024747354
220
0.0000000014578524
230
1.0
 70
     8
 71
     3
 72
    10
 73
     6
 74
     0
 42
0.0000000001
 43
0.0000000001
 40
0.0
 40
0.0
 40
0.0
 40
0.0
 40
0.499963463870151
 40
0.499963463870151
 40
1.0
 40
1.0
 40
1.0
 40
1.0
 10
20.42630603888301
 20
0.8356924232122651
 30
0.0000000000000001
 10
20.43859090005401
 20
0.8147875624033531
 30
0.0000000000000001
 10
20.45087508061278
 20
0.7939104781877404
 30
0.0000000000000001
 10
20.47544049408975
 20
0.7522110633289003
 30
0.0000000000000002
 10
20.48772218211195
 20
0.7313879865266131
 30
0.0000000000000001
 10
20.5
 20
0.7105938555846479
 30
0.0000000000000002
  0
SPLINE
  5
D6
330
A
100
AcDbEntity
  8
1
390
1D
100
AcDbSpline
210
0.0000000000002234
220
-0.0000000000073522
230
1.0
 70
     8
 71
     3
 72
     8
 73
     4
 74
     0
 42
0.0000000001
 43
0.0000000001
 40
0.0
 40
0.0
 40
0.0
 40
0.0
 40
1.0
 40
1.0
 40
1.0
 40
1.0
 10
20.5
 20
0.7105938555846479
 30
0.0000000000000001
 10
20.53333351276245
 20
0.7116928753285379
 30
0.0000000000000001
 10
20.56666691494189
 20
0.7127056652498709
 30
0.0000000000000002
 10
20.60000000000042
 20
0.7136317483433459
 30
0.0000000000000001
  0
SPLINE
  5
D7
330
A
100
AcDbEntity
  8
1
390
1D
100
AcDbSpline
210
-0.0000000000004571
220
0.0000000000562301
230
1.0
 70
     8
 71
     3
 72
     8
 73
     4
 74
     0
 42
0.0000000001
 43
0.0000000001
 40
0.0
 40
0.0
 40
0.0
 40
0.0
 40
1.0
 40
1.0
 40
1.0
 40
1.0
 10
20.94999999999999
 20
0.7201534958591083
 30
0.0000000000000001
 10
20.96666668136004
 20
0.7203109371372422
 30
0.0000000000000001
 10
20.98333335546806
 20
0.7204464343546421
 30
0.0
 10
21.00000000000028
 20
0.7205599698718288
 30
0.0
  0
SPLINE
  5
D8
330
A
100
AcDbEntity
  8
1
390
1D
100
AcDbSpline
210
0.0
220
0.0
230
1.0
 70
     8
 71
     3
 72
    10
 73
     6
 74
     0
 42
0.0000000001
 43
0.0000000001
 40
0.0
 40
0.0
 40
0.0
 40
0.0
 40
0.3423189380636311
 40
0.3423189380636311
 40
1.0
 40
1.0
 40
1.0
 40
1.0
 10
19.71794479373551
 20
0.6988042045716157
 30
0.0000000000000003
 10
19.72446211389104
 20
0.710056811509844
 30
0.0000000000000003
 10
19.73096998381067
 20
0.7213478043368582
 30
0.0000000000000003
 10
19.74994804997056
 20
0.7544253903114396
 30
0.0000000000000003
 10
19.76239526551706
 20
0.7763113286356998
 30
0.0000000000000003
 10
19.77479587180466
 20
0.7982836790059764
 30
0.0000000000000003
  0
SPLINE
  5
D9
330
A
100
AcDbEntity
  8
1
390
1D
100
AcDbSpline
210
0.0000000000991182
220
-0.0000000000560324
230
1.0
 70
     8
 71
     3
 72
    10
 73
     6
 74
     0
 42
0.0000000001
 43
0.0000000001
 40
0.0
 40
0.0
 40
0.0
 40
0.0
 40
0.4994130526799497
 40
0.4994130526799497
 40
1.0
 40
1.0
 40
1.0
 40
1.0
 10
20.14999999999998
 20
0.6959091420687287
 30
0.0000000000000002
 10
20.16239693159275
 20
0.7175978175257569
 30
0.0000000000000002
 10
20.17476483480368
 20
0.7393688646160399
 30
0.0000000000000002
 10
20.19944666438812
 20
0.7830391726948279
 30
0.0000000000000002
 10
20.21176765460621
 20
0.8049514062964249
 30
0.0000000000000002
 10
20.22404261641316
 20
0.826871146381336
 30
0.0000000000000003
  0
SPLINE
  5
DA
330
A
100
AcDbEntity
  8
1
390
1D
100
AcDbSpline
210
-0.0000000010589615
220
0.0000000005996511
230
1.0
 70
     8
 71
     3
 72
    10
 73
     6
 74
     0
 42
0.0000000001
 43
0.0000000001
 40
0.0
 40
0.0
 40
0.0
 40
0.0
 40
0.4994326477229916
 40
0.4994326477229916
 40
1.0
 40
1.0
 40
1.0
 40
1.0
 10
20.60000000000002
 20
0.7136317483435164
 30
0.0000000000000001
 10
20.61227208890131
 20
0.7352198737228264
 30
0.0000000000000002
 10
20.6245148218394
 20
0.7568111849309958
 30
0.0000000000000001
 10
20.64894619199811
 20
0.7999654118505646
 30
0.0
 10
20.66114158506502
 20
0.8215403685939577
 30
0.0000000000000001
 10
20.67329203996269
 20
0.8430473538442129
 30
0.0000000000000001
  0
SPLINE
  5
DB
330
A
100
AcDbEntity
  8
1
390
1D
100
AcDbSpline
210
0.0
220
0.0
230
1.0
 70
     8
 71
     3
 72
    10
 73
     6
 74
     0
 42
0.0000000001
 43
0.0000000001
 40
0.0
 40
0.0
 40
0.0
 40
0.0
 40
0.4999662855050865
 40
0.4999662855050865
 40
1.0
 40
1.0
 40
1.0
 40
1.0
 10
20.87700860856876
 20
0.8462822258291566
 30
0.0000000000000001
 10
20.88917514185289
 20
0.8252444467723876
 30
0.0000000000000001
 10
20.9013414895976
 20
0.8042145758678884
 30
-0.0000000000000001
 10
20.92567256728438
 20
0.7621713095152814
 30
0.0000000000000001
 10
20.9378377122087
 20
0.7411572139869236
 30
0.0
 10
20.94999999999999
 20
0.7201534958591083
 30
0.0000000000000001
  0
SPLINE
  5
DC
330
A
100
AcDbEntity
  8
1
390
1D
100
AcDbSpline
210
0.0
220
0.0
230
1.0
 70
    28
 71
     1
 72
     4
 73
     2
 74
     0
 42
0.0000000001
 43
0.0000000001
 40
0.0
 40
0.0
 40
1.0
 40
1.0
 10
21.00000000000005
 20
0.7205599698717135
 30
-0.0000000000000001
 41
0.9999205121856622
 10
21.0
 20
0.7115331950339511
 30
0.0000000000000001
 41
0.9999999999999998
  0
SPLINE
  5
DD
330
A
100
AcDbEntity
  8
1
390
1D
100
AcDbSpline
210
0.0000000000000009
220
-0.0000000000021218
230
1.0
 70
     8
 71
     3
 72
     8
 73
     4
 74
     0
 42
0.0000000001
 43
0.0000000001
 40
0.0
 40
0.0
 40
0.0
 40
0.0
 40
1.0
 40
1.0
 40
1.0
 40
1.0
 10
20.80335303162582
 20
-0.9749590565976403
 30
0.0
 10
20.7844493805195
 20
-0.9750040697183521
 30
0.0
 10
20.76554739172673
 20
-0.9750119830626433
 30
-0.0000000000000001
 10
20.74664696837419
 20
-0.9749827188688866
 30
0.0000000000000001
  0
SPLINE
  5
DE
330
A
100
AcDbEntity
  8
1
390
1D
100
AcDbSpline
210
0.0
220
0.0
230
1.0
 70
     8
 71
     3
 72
     8
 73
     4
 74
     0
 42
0.0000000001
 43
0.0000000001
 40
0.0
 40
0.0
 40
0.0
 40
0.0
 40
1.0
 40
1.0
 40
1.0
 40
1.0
 10
20.74664696837414
 20
0.9725333567097324
 30
0.0000000000000001
 10
20.76554891227744
 20
0.9728938743571687
 30
0.0000000000000001
 10
20.784450877545
 20
0.9732149271840741
 30
0.0000000000000001
 10
20.80335303162582
 20
0.9734964724291332
 30
0.0000000000000001
  0
SPLINE
  5
DF
330
A
100
AcDbEntity
  8
1
390
1D
100
AcDbSpline
210
-0.0000000035737843
220
0.0000000020245608
230
1.0
 70
     8
 71
     3
 72
    10
 73
     6
 74
     0
 42
0.0000000001
 43
0.0000000001
 40
0.0
 40
0.0
 40
0.0
 40
0.0
 40
0.499917334407339
 40
0.499917334407339
 40
1.0
 40
1.0
 40
1.0
 40
1.0
 10
20.67329203996269
 20
0.8430473538442129
 30
0.0000000000000001
 10
20.68552120831163
 20
0.8646936663089377
 30
0.0000000000000001
 10
20.69774902268665
 20
0.8863088524286695
 30
0.0000000000000001
 10
20.72220117594645
 20
0.9294728671334267
 30
0.0000000000000001
 10
20.73442652803777
 20
0.9510234516882858
 30
0.0
 10
20.74664696837419
 20
0.9725333567097324
 30
-0.0000000000000001
  0
SPLINE
  5
E0
330
A
100
AcDbEntity
  8
1
390
1D
100
AcDbSpline
210
-0.0000000123388452
220
-0.0000000071440048
230
1.0
 70
     8
 71
     3
 72
    10
 73
     6
 74
     0
 42
0.0000000001
 43
0.0000000001
 40
0.0
 40
0.0
 40
0.0
 40
0.0
 40
0.4999151253660576
 40
0.4999151253660576
 40
1.0
 40
1.0
 40
1.0
 40
1.0
 10
20.80335303162582
 20
0.9734964724291332
 30
0.0000000000000002
 10
20.8156210262764
 20
0.9523338217385344
 30
0.0000000000000001
 10
20.82789336331842
 20
0.9311497724821151
 30
0.0
 10
20.85244593160706
 20
0.8887430738726607
 30
0.0
 10
20.86472721391613
 20
0.8675186175915428
 30
0.0
 10
20.87700860856881
 20
0.8462822258290998
 30
0.0000000000000001
  0
SPLINE
  5
E1
330
A
100
AcDbEntity
  8
1
390
1D
100
AcDbSpline
210
0.0000000000077743
220
-0.0000000001558651
230
1.0
 70
     8
 71
     3
 72
     8
 73
     4
 74
     0
 42
0.0000000001
 43
0.0000000001
 40
0.0
 40
0.0
 40
0.0
 40
0.0
 40
1.0
 40
1.0
 40
1.0
 40
1.0
 10
20.29664696837415
 20
0.9565330100266463
 30
0.0000000000000002
 10
20.31554879279565
 20
0.9575145037161405
 30
0.0000000000000001
 10
20.33445075834726
 20
0.9584573513097893
 30
0.0000000000000003
 10
20.35335303162583
 20
0.9593614124874534
 30
0.0000000000000003
  0
SPLINE
  5
E2
330
A
100
AcDbEntity
  8
1
390
1D
100
AcDbSpline
210
0.0
220
0.0
230
1.0
 70
     8
 71
     3
 72
    10
 73
     6
 74
     0
 42
0.0000000001
 43
0.0000000001
 40
0.0
 40
0.0
 40
0.0
 40
0.0
 40
0.4999167492845154
 40
0.4999167492845154
 40
1.0
 40
1.0
 40
1.0
 40
1.0
 10
20.35335303162583
 20
0.9593614124874534
 30
0.0000000000000002
 10
20.36550321609224
 20
0.9388450800574899
 30
0.0000000000000001
 10
20.37765802872798
 20
0.9182797296429612
 30
0.0000000000000002
 10
20.40197631874378
 20
0.8770549092172359
 30
0.0000000000000002
 10
20.41414081678579
 20
0.8563936970087979
 30
0.0000000000000001
 10
20.42630603888307
 20
0.8356924232122651
 30
0.0000000000000002
  0
SPLINE
  5
E3
330
A
100
AcDbEntity
  8
1
390
1D
100
AcDbSpline
210
0.0
220
0.0
230
1.0
 70
     8
 71
     3
 72
    10
 73
     6
 74
     0
 42
0.0000000001
 43
0.0000000001
 40
0.0
 40
0.0
 40
0.0
 40
0.0
 40
0.4999188808827375
 40
0.4999188808827375
 40
1.0
 40
1.0
 40
1.0
 40
1.0
 10
20.2240426164131
 20
0.826871146381336
 30
0.0000000000000001
 10
20.23614766184619
 20
0.8484874620800724
 30
0.0000000000000003
 10
20.24825079389376
 20
0.8701023600100368
 30
0.0000000000000001
 10
20.27245268436945
 20
0.9133250290977912
 30
0.0000000000000002
 10
20.28455242597022
 20
0.9349345455260618
 30
0.0000000000000001
 10
20.29664696837415
 20
0.9565330100266463
 30
0.0000000000000002
  0
SPLINE
  5
E4
330
A
100
AcDbEntity
  8
1
390
1D
100
AcDbSpline
210
0.0000000000002197
220
-0.0000000000026849
230
1.0
 70
     8
 71
     3
 72
     8
 73
     4
 74
     0
 42
0.0000000001
 43
0.0000000001
 40
0.0
 40
0.0
 40
0.0
 40
0.0
 40
1.0
 40
1.0
 40
1.0
 40
1.0
 10
19.84664696837416
 20
0.9259503613601507
 30
0.0000000000000003
 10
19.86554897067623
 20
0.9275340267026875
 30
0.0000000000000004
 10
19.88445094018118
 20
0.9290805595820188
 30
0.0000000000000004
 10
19.9033530316259
 20
0.9305897501933488
 30
0.0000000000000003
  0
SPLINE
  5
E5
330
A
100
AcDbEntity
  8
1
390
1D
100
AcDbSpline
210
-0.000000000325858
220
-0.0000000001993087
230
1.0
 70
     8
 71
     3
 72
    10
 73
     6
 74
     0
 42
0.0000000001
 43
0.0000000001
 40
0.0
 40
0.0
 40
0.0
 40
0.0
 40
0.4999191683437154
 40
0.4999191683437154
 40
1.0
 40
1.0
 40
1.0
 40
1.0
 10
19.90335303162584
 20
0.9305897501932349
 30
0.0000000000000003
 10
19.91537300544513
 20
0.9110688482996351
 30
0.0000000000000004
 10
19.9273978192329
 20
0.8914736923806572
 30
0.0000000000000003
 10
19.95145672829312
 20
0.8521383296948101
 30
0.0000000000000003
 10
19.96349180365223
 20
0.8323964905227398
 30
0.0000000000000002
 10
19.97552816347883
 20
0.8125885466133695
 30
0.0000000000000003
  0
SPLINE
  5
E6
330
A
100
AcDbEntity
  8
1
390
1D
100
AcDbSpline
210
0.0000000014431796
220
-0.0000000008122159
230
1.0
 70
     8
 71
     3
 72
    10
 73
     6
 74
     0
 42
0.0000000001
 43
0.0000000001
 40
0.0
 40
0.0
 40
0.0
 40
0.0
 40
0.4999212978655971
 40
0.4999212978655971
 40
1.0
 40
1.0
 40
1.0
 40
1.0
 10
19.77479587180466
 20
0.7982836790059764
 30
0.0000000000000003
 10
19.78677601496826
 20
0.8195110203934063
 30
0.0000000000000003
 10
19.79875387594387
 20
0.8407651352047196
 30
0.0000000000000003
 10
19.82270463058626
 20
0.8833226838410723
 30
0.0000000000000004
 10
19.83467846771066
 20
0.9046278031959218
 30
0.0000000000000004
 10
19.84664696837416
 20
0.9259503613601507
 30
0.0000000000000003
  0
LINE
  5
E7
330
A
100
AcDbEntity
  8
4
390
1D
100
AcDbLine
 10
-0.125
 20
0.0
 30
0.0
 11
21.125
 21
0.0
 31
0.0
  0
LINE
  5
E9
330
A
100
AcDbEntity
  8
SK4
390
1D
100
AcDbLine
 10
-36.125
 20
0.0
 30
0.0
 11
21.125
 21
0.0
 31
0.0
  0
MTEXT
  5
EB
330
A
100
AcDbEntity
  8
SK6
390
1D
100
AcDbMText
 10
2.9
 20
-50.453125
 30
0.0
 40
4.5
 41
0.0
 71
     7
 72
     5
  1
\W01.000;\Fsimplex.shx;
  7
SIMPLEX
 73
     2
 44
0.9036139999999999
1001
ACAD
1000
MTEXTBEGIN
1070
    73
1070
     2
1070
    44
1040
0.9036139999999999
1070
    74
1070
     0
1000
MTEXTEND
  0
DIMENSION
  5
F8
330
A
100
AcDbEntity
  8
2
390
1D
100
AcDbDimension
  2
_D0
 10
21.0
 20
78.43
 30
0.0
 11
10.5
 21
79.5
 31
0.0
 70
    33
  1
 <> 
 71
     5
 42
-1.0
  3
Standard
100
AcDbAlignedDimension
 13
0.0
 23
0.0
 33
0.0
 14
21.0
 24
0.0
 34
0.0
1001
ACAD
1000
DSTYLE
1002
{
1070
   271
1070
     3
1070
   272
1070
     3
1070
    77
1070
     1
1070
    73
1070
     0
1070
   179
1070
     3
1070
   171
1070
     3
1070
   274
1070
     3
1070
   177
1070
     7
1070
   176
1070
     7
1070
   178
1070
     7
1070
    78
1070
     8
1070
    47
1040
0.005
1070
    48
1040
-0.005
1070
    41
1040
4.57
1070
   147
1040
1.5
1070
    42
1040
0.0
1070
    44
1040
3.5
1070
   140
1040
4.57
1070
     6
1000
_CLOSEDFILLED
1070
     7
1000
_CLOSEDFILLED
1002
}
  0
DIMENSION
  5
104
330
A
100
AcDbEntity
  8
SK2
390
1D
100
AcDbDimension
  2
_D1
 10
-56.5
 20
17.043698
 30
0.0
 11
-56.5
 21
17.043698
 31
0.0
 70
    32
  1
%%c <> 
 71
     0
 72
     0
 41
0.0
 42
-1.0
 53
90.0
  3
Standard
100
AcDbAlignedDimension
 13
-35.6
 23
3.0
 33
0.0
 14
-35.6
 24
-3.0
 34
0.0
 50
90.0
100
AcDbRotatedDimension
1001
ACAD
1000
DSTYLE
1002
{
1070
   271
1070
     3
1070
   272
1070
     3
1070
    77
1070
     1
1070
    73
1070
     0
1070
   179
1070
     3
1070
   171
1070
     3
1070
   274
1070
     3
1070
   177
1070
     7
1070
   176
1070
     7
1070
   178
1070
     7
1070
    78
1070
     8
1070
    47
1040
0.005
1070
    48
1040
-0.005
1070
    41
1040
4.57
1070
   147
1040
1.5
1070
    42
1040
0.0
1070
    44
1040
3.5
1070
   140
1040
4.57
1070
     6
1000
_CLOSEDFILLED
1070
     7
1000
_CLOSEDFILLED
1002
}
  0
DIMENSION
  5
10F
330
A
100
AcDbEntity
  8
2
390
1D
100
AcDbDimension
  2
_D2
 10
66.5
 20
22.487792
 30
0.0
 11
66.5
 21
22.487792
 31
0.0
 70
    32
  1
%%c <> 
 71
     0
 72
     0
 41
0.0
 42
-1.0
 53
90.0
  3
Standard
100
AcDbAlignedDimension
 13
21.0
 23
-0.975
 33
0.0
 14
21.0
 24
0.975
 34
0.0
 50
90.0
100
AcDbRotatedDimension
1001
ACAD
1000
DSTYLE
1002
{
1070
   271
1070
     3
1070
   272
1070
     3
1070
    77
1070
     1
1070
    73
1070
     0
1070
   179
1070
     3
1070
   177
1070
     7
1070
   176
1070
     7
1070
   178
1070
     7
1070
    78
1070
     8
1070
    47
1040
0.005
1070
    48
1040
-0.005
1070
    41
1040
4.57
1070
   147
1040
1.5
1070
    42
1040
0.0
1070
    44
1040
2.0
1070
   140
1040
4.57
1070
     6
1000
_CLOSEDFILLED
1070
     7
1000
_CLOSEDFILLED
1002
}
  0
DIMENSION
  5
119
330
A
100
AcDbEntity
  8
2
390
1D
100
AcDbDimension
  2
_D3
 10
39.28999000000001
 20
64.5
 30
0.0
 11
39.28999000000001
 21
64.5
 31
0.0
 70
    32
  1
 <> 
 71
     5
 42
-1.0
  3
Standard
100
AcDbAlignedDimension
 13
21.0
 23
0.0
 33
0.0
 14
15.325
 24
0.0
 34
0.0
100
AcDbRotatedDimension
1001
ACAD
1000
DSTYLE
1002
{
1070
   271
1070
     3
1070
   272
1070
     3
1070
    77
1070
     1
1070
    73
1070
     0
1070
   179
1070
     3
1070
   171
1070
     3
1070
   274
1070
     3
1070
   177
1070
     7
1070
   176
1070
     7
1070
   178
1070
     7
1070
    78
1070
     8
1070
    47
1040
0.005
1070
    48
1040
-0.005
1070
    41
1040
4.57
1070
   147
1040
1.5
1070
    42
1040
0.0
1070
    44
1040
3.5
1070
   140
1040
4.57
1070
     6
1000
_CLOSEDFILLED
1070
     7
1000
_CLOSEDFILLED
1002
}
  0
DIMENSION
  5
123
330
A
100
AcDbEntity
  8
2
390
1D
100
AcDbDimension
  2
_D4
 10
36.800292
 20
49.500007
 30
0.0
 11
36.800292
 21
49.500007
 31
0.0
 70
    32
  1
 <> 
 71
     5
 42
-1.0
  3
Standard
100
AcDbAlignedDimension
 13
19.65
 23
0.0
 33
0.0
 14
21.0
 24
0.0
 34
0.0
100
AcDbRotatedDimension
1001
ACAD
1000
DSTYLE
1002
{
1070
   271
1070
     3
1070
   272
1070
     3
1070
    77
1070
     1
1070
    73
1070
     0
1070
   179
1070
     3
1070
   177
1070
     7
1070
   176
1070
     7
1070
   178
1070
     7
1070
    78
1070
     8
1070
    47
1040
0.005
1070
    48
1040
-0.005
1070
    41
1040
4.57
1070
   147
1040
1.5
1070
    42
1040
0.0
1070
    44
1040
2.0
1070
   140
1040
4.57
1070
     6
1000
_CLOSEDFILLED
1070
     7
1000
_CLOSEDFILLED
1002
}
  0
DIMENSION
  5
12D
330
A
100
AcDbEntity
  8
SK2
390
1D
100
AcDbDimension
  2
_D5
 10
-7.5
 20
94.50000000000001
 30
0.0
 11
-7.5
 21
94.50000000000001
 31
0.0
 70
    32
  1
 <> 
 71
     5
 42
-1.0
  3
Standard
100
AcDbAlignedDimension
 13
-36.0
 23
0.0
 33
0.0
 14
21.0
 24
0.0
 34
0.0
100
AcDbRotatedDimension
1001
ACAD
1000
DSTYLE
1002
{
1070
   271
1070
     3
1070
   272
1070
     3
1070
    77
1070
     1
1070
    73
1070
     0
1070
   179
1070
     3
1070
   177
1070
     7
1070
   176
1070
     7
1070
   178
1070
     7
1070
    78
1070
     8
1070
    47
1040
0.005
1070
    48
1040
-0.005
1070
    41
1040
4.57
1070
   147
1040
1.5
1070
    42
1040
0.0
1070
    44
1040
2.0
1070
   140
1040
4.57
1070
     6
1000
_CLOSEDFILLED
1070
     7
1000
_CLOSEDFILLED
1002
}
  0
ENDSEC
  0
SECTION
  2
OBJECTS
  0
DICTIONARY
  5
19
330
0
100
AcDbDictionary
281
     1
  3
ACAD_COLOR
350
1BF
  3
ACAD_GROUP
350
1A
  3
ACAD_LAYOUT
350
1E
  3
ACAD_MATERIAL
350
192
  3
ACAD_MLEADERSTYLE
350
185
  3
ACAD_MLINESTYLE
350
1B
  3
ACAD_PLOTSETTINGS
350
22
  3
ACAD_PLOTSTYLENAME
350
1F
  3
ACAD_SCALELIST
350
146
  3
ACAD_TABLESTYLE
350
1C0
  3
ACAD_VISUALSTYLE
350
1AB
  3
ACAD_WIPEOUT_VARS
350
23
  3
ACDB_RECOMPOSE_DATA
350
1E5
  3
AcDbVariableDictionary
350
182
  3
ASE_INDEX_DICTIONARY
350
1DA
  3
DWGPROPS
350
1E6
  0
DICTIONARY
  5
1C5
330
14
100
AcDbDictionary
280
     1
281
     1
  3
ADSK_XREC_LAYER_RECONCILED
360
1C6
  0
DICTIONARY
  5
1C7
330
187
100
AcDbDictionary
280
     1
281
     1
  3
ADSK_XREC_LAYER_RECONCILED
360
1C8
  0
DICTIONARY
  5
1C9
330
188
100
AcDbDictionary
280
     1
281
     1
  3
ADSK_XREC_LAYER_RECONCILED
360
1CA
  0
DICTIONARY
  5
1CB
330
189
100
AcDbDictionary
280
     1
281
     1
  3
ADSK_XREC_LAYER_RECONCILED
360
1CC
  0
DICTIONARY
  5
1CD
330
18A
100
AcDbDictionary
280
     1
281
     1
  3
ADSK_XREC_LAYER_RECONCILED
360
1CE
  0
DICTIONARY
  5
1CF
330
18B
100
AcDbDictionary
280
     1
281
     1
  3
ADSK_XREC_LAYER_RECONCILED
360
1D0
  0
DICTIONARY
  5
1D1
330
18C
100
AcDbDictionary
280
     1
281
     1
  3
ADSK_XREC_LAYER_RECONCILED
360
1D2
  0
DICTIONARY
  5
1D3
330
18D
100
AcDbDictionary
280
     1
281
     1
  3
ADSK_XREC_LAYER_RECONCILED
360
1D4
  0
DICTIONARY
  5
1D5
330
18E
100
AcDbDictionary
280
     1
281
     1
  3
ADSK_XREC_LAYER_RECONCILED
360
1D6
  0
DICTIONARY
  5
1D7
330
18F
100
AcDbDictionary
280
     1
281
     1
  3
ADSK_XREC_LAYER_RECONCILED
360
1D8
  0
DICTIONARY
  5
1BF
102
{ACAD_REACTORS
330
19
102
}
330
19
100
AcDbDictionary
281
     1
  0
DICTIONARY
  5
1A
102
{ACAD_REACTORS
330
19
102
}
330
19
100
AcDbDictionary
281
     1
  0
DICTIONARY
  5
1E
102
{ACAD_REACTORS
330
19
102
}
330
19
100
AcDbDictionary
281
     1
  3
Layout1
350
21
  3
Model
350
20
  0
DICTIONARY
  5
192
102
{ACAD_REACTORS
330
19
102
}
330
19
100
AcDbDictionary
281
     1
  3
ByBlock
350
19B
  3
ByLayer
350
193
  3
Global
350
1A3
  0
DICTIONARY
  5
185
102
{ACAD_REACTORS
330
19
102
}
330
19
100
AcDbDictionary
281
     1
  3
Standard
350
1C2
  0
DICTIONARY
  5
1B
102
{ACAD_REACTORS
330
19
102
}
330
19
100
AcDbDictionary
281
     1
  3
Standard
350
1C
  0
DICTIONARY
  5
22
102
{ACAD_REACTORS
330
19
102
}
330
19
100
AcDbDictionary
281
     1
  0
ACDBDICTIONARYWDFLT
  5
1F
102
{ACAD_REACTORS
330
19
102
}
330
19
100
AcDbDictionary
281
     1
  3
Normal
350
1D
100
AcDbDictionaryWithDefault
340
1D
  0
DICTIONARY
  5
146
102
{ACAD_REACTORS
330
19
102
}
330
19
100
AcDbDictionary
281
     1
  3
A0
350
147
  3
A1
350
148
  3
A2
350
149
  3
A3
350
14A
  3
A4
350
14B
  3
A5
350
14C
  3
A6
350
14D
  3
A7
350
14E
  3
A8
350
14F
  3
A9
350
150
  3
B0
350
151
  3
B1
350
152
  3
B2
350
153
  3
B3
350
154
  3
B4
350
155
  3
B5
350
156
  3
B6
350
157
  3
B7
350
158
  3
B8
350
159
  3
B9
350
15A
  3
C0
350
15B
  3
C1
350
15C
  3
C2
350
15D
  3
C3
350
15E
  3
C4
350
15F
  3
C5
350
160
  3
C6
350
161
  3
C7
350
162
  3
C8
350
163
  3
C9
350
164
  3
D0
350
165
  3
D1
350
166
  3
D2
350
167
  0
DICTIONARY
  5
1C0
102
{ACAD_REACTORS
330
19
102
}
330
19
100
AcDbDictionary
281
     1
  3
Standard
350
1C1
  0
DICTIONARY
  5
1AB
102
{ACAD_REACTORS
330
19
102
}
330
19
100
AcDbDictionary
281
     1
  3
2dWireframe
350
1B1
  3
3D Hidden
350
1B3
  3
3dWireframe
350
1B2
  3
Basic
350
1B0
  3
Brighten
350
1B7
  3
ColorChange
350
1BB
  3
Conceptual
350
1B4
  3
Dim
350
1B6
  3
EdgeColorOff
350
1BE
  3
Facepattern
350
1BA
  3
Flat
350
1AC
  3
FlatWithEdges
350
1AD
  3
Gouraud
350
1AE
  3
GouraudWithEdges
350
1AF
  3
JitterOff
350
1BC
  3
Linepattern
350
1B9
  3
OverhangOff
350
1BD
  3
Realistic
350
1B5
  3
Thicken
350
1B8
  0
WIPEOUTVARIABLES
  5
23
330
19
100
AcDbWipeoutVariables
 70
     1
  0
XRECORD
  5
1E5
102
{ACAD_REACTORS
330
19
102
}
330
19
100
AcDbXrecord
280
     1
 90
        1
330
1C1
  0
DICTIONARY
  5
182
102
{ACAD_REACTORS
330
19
102
}
330
19
100
AcDbDictionary
281
     1
  3
CANNOSCALE
350
183
  3
CMLEADERSTYLE
350
1DE
  3
CTABLESTYLE
350
1DD
  3
DIMASSOC
350
1E1
  3
INDEXCTL
350
1E0
  3
SORTENTS
350
1DF
  3
XCLIPFRAME
350
1E2
  0
DICTIONARY
  5
1DA
102
{ACAD_REACTORS
330
19
102
}
330
19
100
AcDbDictionary
281
     1
  3
ASEBlockHierarchyIndexRecord
350
1DC
1001
DCO15
1040
1871111675.438999
  0
XRECORD
  5
1E6
102
{ACAD_REACTORS
330
19
102
}
330
19
100
AcDbXrecord
280
     1
  1
DWGPROPS COOKIE
  2

  3

  4

  6

  7

  8
tdm012
  9

300
=
301
=
302
=
303
=
304
=
305
=
306
=
307
=
308
=
309
=
 40
0.0005797685185185
 41
2457459.596404687
 42
2457459.596984248
  1

 90
        0
  0
XRECORD
  5
1C6
102
{ACAD_REACTORS
330
1C5
102
}
330
1C5
100
AcDbXrecord
280
     1
290
     1
  0
XRECORD
  5
1C8
102
{ACAD_REACTORS
330
1C7
102
}
330
1C7
100
AcDbXrecord
280
     1
290
     1
  0
XRECORD
  5
1CA
102
{ACAD_REACTORS
330
1C9
102
}
330
1C9
100
AcDbXrecord
280
     1
290
     1
  0
XRECORD
  5
1CC
102
{ACAD_REACTORS
330
1CB
102
}
330
1CB
100
AcDbXrecord
280
     1
290
     1
  0
XRECORD
  5
1CE
102
{ACAD_REACTORS
330
1CD
102
}
330
1CD
100
AcDbXrecord
280
     1
290
     1
  0
XRECORD
  5
1D0
102
{ACAD_REACTORS
330
1CF
102
}
330
1CF
100
AcDbXrecord
280
     1
290
     1
  0
XRECORD
  5
1D2
102
{ACAD_REACTORS
330
1D1
102
}
330
1D1
100
AcDbXrecord
280
     1
290
     1
  0
XRECORD
  5
1D4
102
{ACAD_REACTORS
330
1D3
102
}
330
1D3
100
AcDbXrecord
280
     1
290
     1
  0
XRECORD
  5
1D6
102
{ACAD_REACTORS
330
1D5
102
}
330
1D5
100
AcDbXrecord
280
     1
290
     1
  0
XRECORD
  5
1D8
102
{ACAD_REACTORS
330
1D7
102
}
330
1D7
100
AcDbXrecord
280
     1
290
     1
  0
LAYOUT
  5
21
102
{ACAD_XDICTIONARY
360
1E9
102
}
102
{ACAD_REACTORS
330
1E
102
}
330
1E
100
AcDbPlotSettings
  1

  2

  4

  6

 40
0.0
 41
0.0
 42
0.0
 43
0.0
 44
0.0
 45
0.0
 46
0.0
 47
0.0
 48
0.0
 49
0.0
140
0.0
141
0.0
142
1.0
143
1.0
 70
     0
 72
     0
 73
     0
 74
     0
  7

 75
     0
147
1.0
148
0.0
149
0.0
100
AcDbLayout
  1
Layout1
 70
     0
 71
     1
 10
-0.5
 20
-0.5
 11
5.0
 21
5.0
 12
0.0
 22
0.0
 32
0.0
 14
-0.5
 24
-0.5
 34
-0.5
 15
5.0
 25
5.0
 35
5.0
146
0.0
 13
0.0
 23
0.0
 33
0.0
 16
1.0
 26
0.0
 36
0.0
 17
0.0
 27
1.0
 37
0.0
 76
     0
330
B
  0
LAYOUT
  5
20
102
{ACAD_XDICTIONARY
360
1E7
102
}
102
{ACAD_REACTORS
330
1E
102
}
330
1E
100
AcDbPlotSettings
  1

  2

  4

  6

 40
0.0
 41
0.0
 42
0.0
 43
0.0
 44
0.0
 45
0.0
 46
0.0
 47
0.0
 48
0.0
 49
0.0
140
0.0
141
0.0
142
1.0
143
1.0
 70
  1024
 72
     0
 73
     0
 74
     0
  7

 75
     0
147
1.0
148
0.0
149
0.0
100
AcDbLayout
  1
Model
 70
     0
 71
     0
 10
0.0
 20
0.0
 11
0.0
 21
0.0
 12
0.0
 22
0.0
 32
0.0
 14
-58.83260433333334
 24
-50.453125
 34
-0.0000000000000011
 15
74.2125
 25
96.83260433333334
 35
0.0000000000000003
146
0.0
 13
0.0
 23
0.0
 33
0.0
 16
0.0
 26
0.0
 36
0.0
 17
0.0
 27
0.0
 37
0.0
 76
     0
330
A
331
136
  0
MATERIAL
  5
19B
102
{ACAD_XDICTIONARY
360
19C
102
}
102
{ACAD_REACTORS
330
192
102
}
330
192
100
AcDbMaterial
  1
ByBlock
 72
     0
 43
0.0208333333333333
 43
0.0
 43
0.0
 43
0.0
 43
0.0
 43
0.0208333333333333
 43
0.0
 43
0.0
 43
0.0
 43
0.0
 43
1.0
 43
0.0
 43
0.0
 43
0.0
 43
0.0
 43
1.0
 77
     0
 47
0.0208333333333333
 47
0.0
 47
0.0
 47
0.0
 47
0.0
 47
0.0208333333333333
 47
0.0
 47
0.0
 47
0.0
 47
0.0
 47
1.0
 47
0.0
 47
0.0
 47
0.0
 47
0.0
 47
1.0
171
     0
 49
0.0208333333333333
 49
0.0
 49
0.0
 49
0.0
 49
0.0
 49
0.0208333333333333
 49
0.0
 49
0.0
 49
0.0
 49
0.0
 49
1.0
 49
0.0
 49
0.0
 49
0.0
 49
0.0
 49
1.0
175
     0
142
0.0208333333333333
142
0.0
142
0.0
142
0.0
142
0.0
142
0.0208333333333333
142
0.0
142
0.0
142
0.0
142
0.0
142
1.0
142
0.0
142
0.0
142
0.0
142
0.0
142
1.0
179
     0
144
0.0208333333333333
144
0.0
144
0.0
144
0.0
144
0.0
144
0.0208333333333333
144
0.0
144
0.0
144
0.0
144
0.0
144
1.0
144
0.0
144
0.0
144
0.0
144
0.0
144
1.0
147
0.0208333333333333
147
0.0
147
0.0
147
0.0
147
0.0
147
0.0208333333333333
147
0.0
147
0.0
147
0.0
147
0.0
147
1.0
147
0.0
147
0.0
147
0.0
147
0.0
147
1.0
  0
MATERIAL
  5
193
102
{ACAD_XDICTIONARY
360
194
102
}
102
{ACAD_REACTORS
330
192
102
}
330
192
100
AcDbMaterial
  1
ByLayer
 72
     0
 43
0.0208333333333333
 43
0.0
 43
0.0
 43
0.0
 43
0.0
 43
0.0208333333333333
 43
0.0
 43
0.0
 43
0.0
 43
0.0
 43
1.0
 43
0.0
 43
0.0
 43
0.0
 43
0.0
 43
1.0
 77
     0
 47
0.0208333333333333
 47
0.0
 47
0.0
 47
0.0
 47
0.0
 47
0.0208333333333333
 47
0.0
 47
0.0
 47
0.0
 47
0.0
 47
1.0
 47
0.0
 47
0.0
 47
0.0
 47
0.0
 47
1.0
171
     0
 49
0.0208333333333333
 49
0.0
 49
0.0
 49
0.0
 49
0.0
 49
0.0208333333333333
 49
0.0
 49
0.0
 49
0.0
 49
0.0
 49
1.0
 49
0.0
 49
0.0
 49
0.0
 49
0.0
 49
1.0
175
     0
142
0.0208333333333333
142
0.0
142
0.0
142
0.0
142
0.0
142
0.0208333333333333
142
0.0
142
0.0
142
0.0
142
0.0
142
1.0
142
0.0
142
0.0
142
0.0
142
0.0
142
1.0
179
     0
144
0.0208333333333333
144
0.0
144
0.0
144
0.0
144
0.0
144
0.0208333333333333
144
0.0
144
0.0
144
0.0
144
0.0
144
1.0
144
0.0
144
0.0
144
0.0
144
0.0
144
1.0
147
0.0208333333333333
147
0.0
147
0.0
147
0.0
147
0.0
147
0.0208333333333333
147
0.0
147
0.0
147
0.0
147
0.0
147
1.0
147
0.0
147
0.0
147
0.0
147
0.0
147
1.0
  0
MATERIAL
  5
1A3
102
{ACAD_XDICTIONARY
360
1A4
102
}
102
{ACAD_REACTORS
330
192
102
}
330
192
100
AcDbMaterial
  1
Global
 72
     0
 43
0.0208333333333333
 43
0.0
 43
0.0
 43
0.0
 43
0.0
 43
0.0208333333333333
 43
0.0
 43
0.0
 43
0.0
 43
0.0
 43
1.0
 43
0.0
 43
0.0
 43
0.0
 43
0.0
 43
1.0
 77
     0
 47
0.0208333333333333
 47
0.0
 47
0.0
 47
0.0
 47
0.0
 47
0.0208333333333333
 47
0.0
 47
0.0
 47
0.0
 47
0.0
 47
1.0
 47
0.0
 47
0.0
 47
0.0
 47
0.0
 47
1.0
171
     0
 49
0.0208333333333333
 49
0.0
 49
0.0
 49
0.0
 49
0.0
 49
0.0208333333333333
 49
0.0
 49
0.0
 49
0.0
 49
0.0
 49
1.0
 49
0.0
 49
0.0
 49
0.0
 49
0.0
 49
1.0
175
     0
142
0.0208333333333333
142
0.0
142
0.0
142
0.0
142
0.0
142
0.0208333333333333
142
0.0
142
0.0
142
0.0
142
0.0
142
1.0
142
0.0
142
0.0
142
0.0
142
0.0
142
1.0
179
     0
144
0.0208333333333333
144
0.0
144
0.0
144
0.0
144
0.0
144
0.0208333333333333
144
0.0
144
0.0
144
0.0
144
0.0
144
1.0
144
0.0
144
0.0
144
0.0
144
0.0
144
1.0
147
0.0208333333333333
147
0.0
147
0.0
147
0.0
147
0.0
147
0.0208333333333333
147
0.0
147
0.0
147
0.0
147
0.0
147
1.0
147
0.0
147
0.0
147
0.0
147
0.0
147
1.0
  0
MLEADERSTYLE
  5
1C2
102
{ACAD_REACTORS
330
185
102
}
330
185
100
AcDbMLeaderStyle
170
     2
171
     1
172
     0
 90
        2
 40
0.0
 41
0.0
173
     1
 91
-1056964608
340
11
 92
       -2
290
     1
 42
2.0
291
     1
 43
0.36
  3
Standard
 44
4.0
300

342
17
174
     1
178
     6
175
     1
176
     0
 93
-1056964608
 45
4.0
292
     0
297
     0
 46
4.0
 94
-1056964608
 47
1.0
 49
1.0
140
1.0
293
     1
141
0.0
294
     1
177
     0
142
1.0
295
     0
296
     0
143
0.125
1001
ACAD_MLEADERVER
1070
     2
  0
MLINESTYLE
  5
1C
102
{ACAD_REACTORS
330
1B
102
}
330
1B
100
AcDbMlineStyle
  2
STANDARD
 70
     0
  3

 62
     0
 51
90.0
 52
90.0
 71
     2
 49
0.5
 62
   256
  6
BYLAYER
 49
-0.5
 62
   256
  6
BYLAYER
  0
ACDBPLACEHOLDER
  5
1D
102
{ACAD_REACTORS
330
1F
102
}
330
1F
  0
SCALE
  5
147
102
{ACAD_REACTORS
330
146
102
}
330
146
100
AcDbScale
 70
     0
300
1:1
140
1.0
141
1.0
290
     1
  0
SCALE
  5
148
102
{ACAD_REACTORS
330
146
102
}
330
146
100
AcDbScale
 70
     0
300
1:2
140
1.0
141
2.0
290
     0
  0
SCALE
  5
149
102
{ACAD_REACTORS
330
146
102
}
330
146
100
AcDbScale
 70
     0
300
1:4
140
1.0
141
4.0
290
     0
  0
SCALE
  5
14A
102
{ACAD_REACTORS
330
146
102
}
330
146
100
AcDbScale
 70
     0
300
1:5
140
1.0
141
5.0
290
     0
  0
SCALE
  5
14B
102
{ACAD_REACTORS
330
146
102
}
330
146
100
AcDbScale
 70
     0
300
1:8
140
1.0
141
8.0
290
     0
  0
SCALE
  5
14C
102
{ACAD_REACTORS
330
146
102
}
330
146
100
AcDbScale
 70
     0
300
1:10
140
1.0
141
10.0
290
     0
  0
SCALE
  5
14D
102
{ACAD_REACTORS
330
146
102
}
330
146
100
AcDbScale
 70
     0
300
1:16
140
1.0
141
16.0
290
     0
  0
SCALE
  5
14E
102
{ACAD_REACTORS
330
146
102
}
330
146
100
AcDbScale
 70
     0
300
1:20
140
1.0
141
20.0
290
     0
  0
SCALE
  5
14F
102
{ACAD_REACTORS
330
146
102
}
330
146
100
AcDbScale
 70
     0
300
1:30
140
1.0
141
30.0
290
     0
  0
SCALE
  5
150
102
{ACAD_REACTORS
330
146
102
}
330
146
100
AcDbScale
 70
     0
300
1:40
140
1.0
141
40.0
290
     0
  0
SCALE
  5
151
102
{ACAD_REACTORS
330
146
102
}
330
146
100
AcDbScale
 70
     0
300
1:50
140
1.0
141
50.0
290
     0
  0
SCALE
  5
152
102
{ACAD_REACTORS
330
146
102
}
330
146
100
AcDbScale
 70
     0
300
1:100
140
1.0
141
100.0
290
     0
  0
SCALE
  5
153
102
{ACAD_REACTORS
330
146
102
}
330
146
100
AcDbScale
 70
     0
300
2:1
140
2.0
141
1.0
290
     0
  0
SCALE
  5
154
102
{ACAD_REACTORS
330
146
102
}
330
146
100
AcDbScale
 70
     0
300
4:1
140
4.0
141
1.0
290
     0
  0
SCALE
  5
155
102
{ACAD_REACTORS
330
146
102
}
330
146
100
AcDbScale
 70
     0
300
8:1
140
8.0
141
1.0
290
     0
  0
SCALE
  5
156
102
{ACAD_REACTORS
330
146
102
}
330
146
100
AcDbScale
 70
     0
300
10:1
140
10.0
141
1.0
290
     0
  0
SCALE
  5
157
102
{ACAD_REACTORS
330
146
102
}
330
146
100
AcDbScale
 70
     0
300
100:1
140
100.0
141
1.0
290
     0
  0
SCALE
  5
158
102
{ACAD_REACTORS
330
146
102
}
330
146
100
AcDbScale
 70
     0
300
1/128" = 1'-0"
140
0.0078125
141
12.0
290
     0
  0
SCALE
  5
159
102
{ACAD_REACTORS
330
146
102
}
330
146
100
AcDbScale
 70
     0
300
1/64" = 1'-0"
140
0.015625
141
12.0
290
     0
  0
SCALE
  5
15A
102
{ACAD_REACTORS
330
146
102
}
330
146
100
AcDbScale
 70
     0
300
1/32" = 1'-0"
140
0.03125
141
12.0
290
     0
  0
SCALE
  5
15B
102
{ACAD_REACTORS
330
146
102
}
330
146
100
AcDbScale
 70
     0
300
1/16" = 1'-0"
140
0.0625
141
12.0
290
     0
  0
SCALE
  5
15C
102
{ACAD_REACTORS
330
146
102
}
330
146
100
AcDbScale
 70
     0
300
3/32" = 1'-0"
140
0.09375
141
12.0
290
     0
  0
SCALE
  5
15D
102
{ACAD_REACTORS
330
146
102
}
330
146
100
AcDbScale
 70
     0
300
1/8" = 1'-0"
140
0.125
141
12.0
290
     0
  0
SCALE
  5
15E
102
{ACAD_REACTORS
330
146
102
}
330
146
100
AcDbScale
 70
     0
300
3/16" = 1'-0"
140
0.1875
141
12.0
290
     0
  0
SCALE
  5
15F
102
{ACAD_REACTORS
330
146
102
}
330
146
100
AcDbScale
 70
     0
300
1/4" = 1'-0"
140
0.25
141
12.0
290
     0
  0
SCALE
  5
160
102
{ACAD_REACTORS
330
146
102
}
330
146
100
AcDbScale
 70
     0
300
3/8" = 1'-0"
140
0.375
141
12.0
290
     0
  0
SCALE
  5
161
102
{ACAD_REACTORS
330
146
102
}
330
146
100
AcDbScale
 70
     0
300
1/2" = 1'-0"
140
0.5
141
12.0
290
     0
  0
SCALE
  5
162
102
{ACAD_REACTORS
330
146
102
}
330
146
100
AcDbScale
 70
     0
300
3/4" = 1'-0"
140
0.75
141
12.0
290
     0
  0
SCALE
  5
163
102
{ACAD_REACTORS
330
146
102
}
330
146
100
AcDbScale
 70
     0
300
1" = 1'-0"
140
1.0
141
12.0
290
     0
  0
SCALE
  5
164
102
{ACAD_REACTORS
330
146
102
}
330
146
100
AcDbScale
 70
     0
300
1-1/2" = 1'-0"
140
1.5
141
12.0
290
     0
  0
SCALE
  5
165
102
{ACAD_REACTORS
330
146
102
}
330
146
100
AcDbScale
 70
     0
300
3" = 1'-0"
140
3.0
141
12.0
290
     0
  0
SCALE
  5
166
102
{ACAD_REACTORS
330
146
102
}
330
146
100
AcDbScale
 70
     0
300
6" = 1'-0"
140
6.0
141
12.0
290
     0
  0
SCALE
  5
167
102
{ACAD_REACTORS
330
146
102
}
330
146
100
AcDbScale
 70
     0
300
1'-0" = 1'-0"
140
12.0
141
12.0
290
     0
  0
TABLESTYLE
  5
1C1
102
{ACAD_XDICTIONARY
360
1E3
102
}
102
{ACAD_REACTORS
330
1C0
102
}
330
1C0
100
AcDbTableStyle
  3
Standard
 70
     0
 71
     0
 40
1.5
 41
1.5
280
     0
281
     0
  7
Standard
140
4.5
170
     2
 62
     0
 63
     7
283
     0
274
    -2
284
     1
 64
     0
275
    -2
285
     1
 65
     0
276
    -2
286
     1
 66
     0
277
    -2
287
     1
 67
     0
278
    -2
288
     1
 68
     0
279
    -2
289
     1
 69
     0
  7
Standard
140
6.0
170
     5
 62
     0
 63
     7
283
     0
274
    -2
284
     1
 64
     0
275
    -2
285
     1
 65
     0
276
    -2
286
     1
 66
     0
277
    -2
287
     1
 67
     0
278
    -2
288
     1
 68
     0
279
    -2
289
     1
 69
     0
  7
Standard
140
4.5
170
     5
 62
     0
 63
     7
283
     0
274
    -2
284
     1
 64
     0
275
    -2
285
     1
 65
     0
276
    -2
286
     1
 66
     0
277
    -2
287
     1
 67
     0
278
    -2
288
     1
 68
     0
279
    -2
289
     1
 69
     0
  0
VISUALSTYLE
  5
1B1
102
{ACAD_XDICTIONARY
360
1F8
102
}
102
{ACAD_REACTORS
330
1AB
102
}
330
1AB
100
AcDbVisualStyle
  2
2dWireframe
 70
     4
 71
     0
 72
     2
 73
     0
 90
        0
 40
-0.6
 41
-30.0
 62
     5
 63
     7
 74
     1
 91
        4
 64
     7
 65
   257
 75
     1
175
     1
 42
1.0
 92
        0
 66
   257
 43
1.0
 76
     1
 77
     6
 78
     2
 67
     7
 79
     5
170
     0
171
     0
290
     0
174
     0
 93
        1
 44
0.0
173
     0
291
     0
 45
0.0
1001
ACAD
1000
AcDbSavedByObjectVersion
1070
     0
  0
VISUALSTYLE
  5
1B3
102
{ACAD_XDICTIONARY
360
1FC
102
}
102
{ACAD_REACTORS
330
1AB
102
}
330
1AB
100
AcDbVisualStyle
  2
3D Hidden
 70
     6
 71
     1
 72
     2
 73
     2
 90
        0
 40
-0.6
 41
-30.0
 62
     5
 63
     7
 74
     2
 91
        2
 64
     7
 65
   257
 75
     2
175
     1
 42
179.0
 92
        0
 66
   257
 43
1.0
 76
     1
 77
     6
 78
     2
 67
     7
 79
     3
170
     0
171
     0
290
     0
174
     0
 93
        1
 44
0.0
173
     0
291
     0
 45
0.0
1001
ACAD
1000
AcDbSavedByObjectVersion
1070
     0
  0
VISUALSTYLE
  5
1B2
102
{ACAD_XDICTIONARY
360
1FA
102
}
102
{ACAD_REACTORS
330
1AB
102
}
330
1AB
100
AcDbVisualStyle
  2
3dWireframe
 70
     5
 71
     0
 72
     2
 73
     0
 90
        0
 40
-0.6
 41
-30.0
 62
     5
 63
     7
 74
     1
 91
        4
 64
     7
 65
   257
 75
     1
175
     1
 42
1.0
 92
        0
 66
   257
 43
1.0
 76
     1
 77
     6
 78
     2
 67
     7
 79
     5
170
     0
171
     0
290
     0
174
     0
 93
        1
 44
0.0
173
     0
291
     0
 45
0.0
1001
ACAD
1000
AcDbSavedByObjectVersion
1070
     0
  0
VISUALSTYLE
  5
1B0
102
{ACAD_XDICTIONARY
360
1F6
102
}
102
{ACAD_REACTORS
330
1AB
102
}
330
1AB
100
AcDbVisualStyle
  2
Basic
 70
     7
 71
     1
 72
     0
 73
     1
 90
        0
 40
-0.6
 41
-30.0
 62
     5
 63
     7
 74
     0
 91
        4
 64
     7
 65
   257
 75
     1
175
     1
 42
1.0
 92
        8
 66
     7
 43
1.0
 76
     1
 77
     6
 78
     2
 67
     7
 79
     5
170
     0
171
     0
290
     0
174
     0
 93
        1
 44
0.0
173
     0
291
     1
 45
0.0
1001
ACAD
1000
AcDbSavedByObjectVersion
1070
     0
  0
VISUALSTYLE
  5
1B7
102
{ACAD_XDICTIONARY
360
204
102
}
102
{ACAD_REACTORS
330
1AB
102
}
330
1AB
100
AcDbVisualStyle
  2
Brighten
 70
    12
 71
     2
 72
     2
 73
     0
 90
        0
 40
-0.6
 41
-30.0
 62
     5
 63
     7
 74
     1
 91
        4
 64
     7
 65
   257
 75
     1
175
     1
 42
1.0
 92
        8
 66
     7
 43
1.0
 76
     1
 77
     6
 78
     2
 67
     7
 79
     5
170
     0
171
     0
290
     0
174
     0
 93
        1
 44
50.0
173
     0
291
     1
 45
0.0
1001
ACAD
1000
AcDbSavedByObjectVersion
1070
     0
  0
VISUALSTYLE
  5
1BB
102
{ACAD_XDICTIONARY
360
20C
102
}
102
{ACAD_REACTORS
330
1AB
102
}
330
1AB
100
AcDbVisualStyle
  2
ColorChange
 70
    16
 71
     2
 72
     2
 73
     3
 90
        0
 40
-0.6
 41
-30.0
 62
     5
 63
     8
 74
     1
 91
        4
 64
     7
 65
   257
 75
     1
175
     1
 42
1.0
 92
        8
 66
     8
 43
1.0
 76
     1
 77
     6
 78
     2
 67
     7
 79
     5
170
     0
171
     0
290
     0
174
     0
 93
        1
 44
0.0
173
     0
291
     1
 45
0.0
1001
ACAD
1000
AcDbSavedByObjectVersion
1070
     0
  0
VISUALSTYLE
  5
1B4
102
{ACAD_XDICTIONARY
360
1FE
102
}
102
{ACAD_REACTORS
330
1AB
102
}
330
1AB
100
AcDbVisualStyle
  2
Conceptual
 70
     9
 71
     3
 72
     2
 73
     0
 90
        0
 40
-0.6
 41
-30.0
 62
     5
 63
     7
 74
     2
 91
        2
 64
     7
 65
   257
 75
     1
175
     1
 42
179.0
 92
        8
 66
     7
 43
1.0
 76
     1
 77
     6
 78
     2
 67
     7
 79
     3
170
     0
171
     0
290
     0
174
     0
 93
        1
 44
0.0
173
     0
291
     0
 45
0.0
1001
ACAD
1000
AcDbSavedByObjectVersion
1070
     0
  0
VISUALSTYLE
  5
1B6
102
{ACAD_XDICTIONARY
360
202
102
}
102
{ACAD_REACTORS
330
1AB
102
}
330
1AB
100
AcDbVisualStyle
  2
Dim
 70
    11
 71
     2
 72
     2
 73
     0
 90
        0
 40
-0.6
 41
-30.0
 62
     5
 63
     7
 74
     1
 91
        4
 64
     7
 65
   257
 75
     1
175
     1
 42
1.0
 92
        8
 66
     7
 43
1.0
 76
     1
 77
     6
 78
     2
 67
     7
 79
     5
170
     0
171
     0
290
     0
174
     0
 93
        1
 44
-50.0
173
     0
291
     1
 45
0.0
1001
ACAD
1000
AcDbSavedByObjectVersion
1070
     0
  0
VISUALSTYLE
  5
1BE
102
{ACAD_XDICTIONARY
360
212
102
}
102
{ACAD_REACTORS
330
1AB
102
}
330
1AB
100
AcDbVisualStyle
  2
EdgeColorOff
 70
    22
 71
     2
 72
     2
 73
     0
 90
        0
 40
-0.6
 41
-30.0
 62
     5
 63
     7
 74
     1
 91
        4
 64
     7
 65
   257
 75
     1
175
     1
 42
1.0
 92
        8
 66
     7
 43
1.0
 76
     1
 77
     6
 78
     2
 67
     7
 79
     5
170
     0
171
     0
290
     0
174
     0
 93
        1
 44
0.0
173
     0
291
     1
 45
0.0
1001
ACAD
1000
AcDbSavedByObjectVersion
1070
     0
  0
VISUALSTYLE
  5
1BA
102
{ACAD_XDICTIONARY
360
20A
102
}
102
{ACAD_REACTORS
330
1AB
102
}
330
1AB
100
AcDbVisualStyle
  2
Facepattern
 70
    15
 71
     2
 72
     2
 73
     0
 90
        0
 40
-0.6
 41
-30.0
 62
     5
 63
     7
 74
     1
 91
        4
 64
     7
 65
   257
 75
     1
175
     1
 42
1.0
 92
        8
 66
     7
 43
1.0
 76
     1
 77
     6
 78
     2
 67
     7
 79
     5
170
     0
171
     0
290
     0
174
     0
 93
        1
 44
0.0
173
     0
291
     1
 45
0.0
1001
ACAD
1000
AcDbSavedByObjectVersion
1070
     0
  0
VISUALSTYLE
  5
1AC
102
{ACAD_XDICTIONARY
360
1EE
102
}
102
{ACAD_REACTORS
330
1AB
102
}
330
1AB
100
AcDbVisualStyle
  2
Flat
 70
     0
 71
     2
 72
     1
 73
     1
 90
        2
 40
-0.6
 41
30.0
 62
     5
 63
     7
 74
     0
 91
        4
 64
     7
 65
   257
 75
     1
175
     1
 42
1.0
 92
        8
 66
     7
 43
1.0
 76
     1
 77
     6
 78
     2
 67
     7
 79
     5
170
     0
171
     0
290
     0
174
     0
 93
       13
 44
0.0
173
     0
291
     1
 45
0.0
1001
ACAD
1000
AcDbSavedByObjectVersion
1070
     0
  0
VISUALSTYLE
  5
1AD
102
{ACAD_XDICTIONARY
360
1F0
102
}
102
{ACAD_REACTORS
330
1AB
102
}
330
1AB
100
AcDbVisualStyle
  2
FlatWithEdges
 70
     1
 71
     2
 72
     1
 73
     1
 90
        2
 40
-0.6
 41
30.0
 62
     5
 63
     7
 74
     1
 91
        4
 64
     7
 65
   257
 75
     1
175
     1
 42
1.0
 92
        0
 66
   257
 43
1.0
 76
     1
 77
     6
 78
     2
 67
     7
 79
     5
170
     0
171
     0
290
     0
174
     0
 93
       13
 44
0.0
173
     0
291
     1
 45
0.0
1001
ACAD
1000
AcDbSavedByObjectVersion
1070
     0
  0
VISUALSTYLE
  5
1AE
102
{ACAD_XDICTIONARY
360
1F2
102
}
102
{ACAD_REACTORS
330
1AB
102
}
330
1AB
100
AcDbVisualStyle
  2
Gouraud
 70
     2
 71
     2
 72
     2
 73
     1
 90
        2
 40
-0.6
 41
30.0
 62
     5
 63
     7
 74
     0
 91
        4
 64
     7
 65
   257
 75
     1
175
     1
 42
1.0
 92
        0
 66
     7
 43
1.0
 76
     1
 77
     6
 78
     2
 67
     7
 79
     5
170
     0
171
     0
290
     0
174
     0
 93
       13
 44
0.0
173
     0
291
     1
 45
0.0
1001
ACAD
1000
AcDbSavedByObjectVersion
1070
     0
  0
VISUALSTYLE
  5
1AF
102
{ACAD_XDICTIONARY
360
1F4
102
}
102
{ACAD_REACTORS
330
1AB
102
}
330
1AB
100
AcDbVisualStyle
  2
GouraudWithEdges
 70
     3
 71
     2
 72
     2
 73
     1
 90
        2
 40
-0.6
 41
30.0
 62
     5
 63
     7
 74
     1
 91
        4
 64
     7
 65
   257
 75
     1
175
     1
 42
1.0
 92
        0
 66
   257
 43
1.0
 76
     1
 77
     6
 78
     2
 67
     7
 79
     5
170
     0
171
     0
290
     0
174
     0
 93
       13
 44
0.0
173
     0
291
     1
 45
0.0
1001
ACAD
1000
AcDbSavedByObjectVersion
1070
     0
  0
VISUALSTYLE
  5
1BC
102
{ACAD_XDICTIONARY
360
20E
102
}
102
{ACAD_REACTORS
330
1AB
102
}
330
1AB
100
AcDbVisualStyle
  2
JitterOff
 70
    20
 71
     2
 72
     2
 73
     0
 90
        0
 40
-0.6
 41
-30.0
 62
     5
 63
     7
 74
     1
 91
        4
 64
     7
 65
   257
 75
     1
175
     1
 42
1.0
 92
       10
 66
     7
 43
1.0
 76
     1
 77
     6
 78
     2
 67
     7
 79
     5
170
     0
171
     0
290
     0
174
     0
 93
        1
 44
0.0
173
     0
291
     1
 45
0.0
1001
ACAD
1000
AcDbSavedByObjectVersion
1070
     0
  0
VISUALSTYLE
  5
1B9
102
{ACAD_XDICTIONARY
360
208
102
}
102
{ACAD_REACTORS
330
1AB
102
}
330
1AB
100
AcDbVisualStyle
  2
Linepattern
 70
    14
 71
     2
 72
     2
 73
     0
 90
        0
 40
-0.6
 41
-30.0
 62
     5
 63
     7
 74
     1
 91
        4
 64
     7
 65
   257
 75
     7
175
     7
 42
1.0
 92
        8
 66
     7
 43
1.0
 76
     1
 77
     6
 78
     2
 67
     7
 79
     5
170
     0
171
     0
290
     0
174
     0
 93
        1
 44
0.0
173
     0
291
     1
 45
0.0
1001
ACAD
1000
AcDbSavedByObjectVersion
1070
     0
  0
VISUALSTYLE
  5
1BD
102
{ACAD_XDICTIONARY
360
210
102
}
102
{ACAD_REACTORS
330
1AB
102
}
330
1AB
100
AcDbVisualStyle
  2
OverhangOff
 70
    21
 71
     2
 72
     2
 73
     0
 90
        0
 40
-0.6
 41
-30.0
 62
     5
 63
     7
 74
     1
 91
        4
 64
     7
 65
   257
 75
     1
175
     1
 42
1.0
 92
        9
 66
     7
 43
1.0
 76
     1
 77
     6
 78
     2
 67
     7
 79
     5
170
     0
171
     0
290
     0
174
     0
 93
        1
 44
0.0
173
     0
291
     1
 45
0.0
1001
ACAD
1000
AcDbSavedByObjectVersion
1070
     0
  0
VISUALSTYLE
  5
1B5
102
{ACAD_XDICTIONARY
360
200
102
}
102
{ACAD_REACTORS
330
1AB
102
}
330
1AB
100
AcDbVisualStyle
  2
Realistic
 70
     8
 71
     2
 72
     2
 73
     0
 90
        0
 40
-0.6
 41
-30.0
 62
     5
 63
     7
 74
     1
 91
        0
 64
     7
 65
   257
 75
     1
175
     1
 42
1.0
 92
        8
 66
     8
 43
1.0
 76
     1
 77
     6
 78
     2
 67
     7
 79
     5
170
     0
171
     0
290
     0
174
     0
 93
       13
 44
0.0
173
     0
291
     0
 45
0.0
1001
ACAD
1000
AcDbSavedByObjectVersion
1070
     0
  0
VISUALSTYLE
  5
1B8
102
{ACAD_XDICTIONARY
360
206
102
}
102
{ACAD_REACTORS
330
1AB
102
}
330
1AB
100
AcDbVisualStyle
  2
Thicken
 70
    13
 71
     2
 72
     2
 73
     0
 90
        0
 40
-0.6
 41
-30.0
 62
     5
 63
     7
 74
     1
 91
        4
 64
     7
 65
   257
 75
     1
175
     1
 42
1.0
 92
       12
 66
     7
 43
1.0
 76
     1
 77
     6
 78
     2
 67
     7
 79
     5
170
     0
171
     0
290
     0
174
     0
 93
        1
 44
0.0
173
     0
291
     1
 45
0.0
1001
ACAD
1000
AcDbSavedByObjectVersion
1070
     0
  0
DICTIONARYVAR
  5
183
102
{ACAD_REACTORS
330
182
102
}
330
182
100
DictionaryVariables
280
     0
  1
1:1
  0
DICTIONARYVAR
  5
1DE
102
{ACAD_REACTORS
330
182
102
}
330
182
100
DictionaryVariables
280
     0
  1
STANDARD
  0
DICTIONARYVAR
  5
1DD
102
{ACAD_REACTORS
330
182
102
}
330
182
100
DictionaryVariables
280
     0
  1
STANDARD
  0
DICTIONARYVAR
  5
1E1
102
{ACAD_REACTORS
330
182
102
}
330
182
100
DictionaryVariables
280
     0
  1
1
  0
DICTIONARYVAR
  5
1E0
102
{ACAD_REACTORS
330
182
102
}
330
182
100
DictionaryVariables
280
     0
  1
0
  0
DICTIONARYVAR
  5
1DF
102
{ACAD_REACTORS
330
182
102
}
330
182
100
DictionaryVariables
280
     0
  1
127
  0
DICTIONARYVAR
  5
1E2
102
{ACAD_REACTORS
330
182
102
}
330
182
100
DictionaryVariables
280
     0
  1
2
  0
XRECORD
  5
1DC
102
{ACAD_REACTORS
330
1DA
102
}
330
1DA
100
AcDbXrecord
280
     1
  0
DICTIONARY
  5
1E9
330
21
100
AcDbDictionary
280
     1
281
     1
  3
ACAD_XREC_ROUNDTRIP
360
1EA
  0
DICTIONARY
  5
1E7
330
20
100
AcDbDictionary
280
     1
281
     1
  3
ACAD_XREC_ROUNDTRIP
360
1E8
  0
DICTIONARY
  5
19C
330
19B
100
AcDbDictionary
280
     1
281
     1
  3
ACAD_XREC_ROUNDTRIP
360
1EC
  3
BUMPTILE
360
19E
  3
DIFFUSETILE
360
19D
  3
OPACITYTILE
360
1A1
  3
REFLECTIONTILE
360
1A0
  3
REFRACTIONTILE
360
1A2
  3
SPECULARTILE
360
19F
  0
DICTIONARY
  5
194
330
193
100
AcDbDictionary
280
     1
281
     1
  3
ACAD_XREC_ROUNDTRIP
360
1EB
  3
BUMPTILE
360
196
  3
DIFFUSETILE
360
195
  3
OPACITYTILE
360
199
  3
REFLECTIONTILE
360
198
  3
REFRACTIONTILE
360
19A
  3
SPECULARTILE
360
197
  0
DICTIONARY
  5
1A4
330
1A3
100
AcDbDictionary
280
     1
281
     1
  3
ACAD_XREC_ROUNDTRIP
360
1ED
  3
BUMPTILE
360
1A6
  3
DIFFUSETILE
360
1A5
  3
OPACITYTILE
360
1A9
  3
REFLECTIONTILE
360
1A8
  3
REFRACTIONTILE
360
1AA
  3
SPECULARTILE
360
1A7
  0
DICTIONARY
  5
1E3
330
1C1
100
AcDbDictionary
280
     1
281
     1
  3
ACAD_ROUNDTRIP_2008_TABLESTYLE_CELLSTYLEMAP
360
1E4
  3
ACAD_XREC_ROUNDTRIP
360
214
  0
DICTIONARY
  5
1F8
330
1B1
100
AcDbDictionary
280
     1
281
     1
  3
ACAD_XREC_ROUNDTRIP
360
1F9
  0
DICTIONARY
  5
1FC
330
1B3
100
AcDbDictionary
280
     1
281
     1
  3
ACAD_XREC_ROUNDTRIP
360
1FD
  0
DICTIONARY
  5
1FA
330
1B2
100
AcDbDictionary
280
     1
281
     1
  3
ACAD_XREC_ROUNDTRIP
360
1FB
  0
DICTIONARY
  5
1F6
330
1B0
100
AcDbDictionary
280
     1
281
     1
  3
ACAD_XREC_ROUNDTRIP
360
1F7
  0
DICTIONARY
  5
204
330
1B7
100
AcDbDictionary
280
     1
281
     1
  3
ACAD_XREC_ROUNDTRIP
360
205
  0
DICTIONARY
  5
20C
330
1BB
100
AcDbDictionary
280
     1
281
     1
  3
ACAD_XREC_ROUNDTRIP
360
20D
  0
DICTIONARY
  5
1FE
330
1B4
100
AcDbDictionary
280
     1
281
     1
  3
ACAD_XREC_ROUNDTRIP
360
1FF
  0
DICTIONARY
  5
202
330
1B6
100
AcDbDictionary
280
     1
281
     1
  3
ACAD_XREC_ROUNDTRIP
360
203
  0
DICTIONARY
  5
212
330
1BE
100
AcDbDictionary
280
     1
281
     1
  3
ACAD_XREC_ROUNDTRIP
360
213
  0
DICTIONARY
  5
20A
330
1BA
100
AcDbDictionary
280
     1
281
     1
  3
ACAD_XREC_ROUNDTRIP
360
20B
  0
DICTIONARY
  5
1EE
330
1AC
100
AcDbDictionary
280
     1
281
     1
  3
ACAD_XREC_ROUNDTRIP
360
1EF
  0
DICTIONARY
  5
1F0
330
1AD
100
AcDbDictionary
280
     1
281
     1
  3
ACAD_XREC_ROUNDTRIP
360
1F1
  0
DICTIONARY
  5
1F2
330
1AE
100
AcDbDictionary
280
     1
281
     1
  3
ACAD_XREC_ROUNDTRIP
360
1F3
  0
DICTIONARY
  5
1F4
330
1AF
100
AcDbDictionary
280
     1
281
     1
  3
ACAD_XREC_ROUNDTRIP
360
1F5
  0
DICTIONARY
  5
20E
330
1BC
100
AcDbDictionary
280
     1
281
     1
  3
ACAD_XREC_ROUNDTRIP
360
20F
  0
DICTIONARY
  5
208
330
1B9
100
AcDbDictionary
280
     1
281
     1
  3
ACAD_XREC_ROUNDTRIP
360
209
  0
DICTIONARY
  5
210
330
1BD
100
AcDbDictionary
280
     1
281
     1
  3
ACAD_XREC_ROUNDTRIP
360
211
  0
DICTIONARY
  5
200
330
1B5
100
AcDbDictionary
280
     1
281
     1
  3
ACAD_XREC_ROUNDTRIP
360
201
  0
DICTIONARY
  5
206
330
1B8
100
AcDbDictionary
280
     1
281
     1
  3
ACAD_XREC_ROUNDTRIP
360
207
  0
XRECORD
  5
1EA
102
{ACAD_REACTORS
330
1E9
102
}
330
1E9
100
AcDbXrecord
280
     1
102
SHADEPLOT
 70
     0
102
SHADEPLOTRESLEVEL
 70
     2
102
SHADEPLOTCUSTOMDPI
 70
   300
  0
XRECORD
  5
1E8
102
{ACAD_REACTORS
330
1E7
102
}
330
1E7
100
AcDbXrecord
280
     1
102
SHADEPLOT
 70
     0
102
SHADEPLOTRESLEVEL
 70
     2
102
SHADEPLOTCUSTOMDPI
 70
   300
  0
XRECORD
  5
1EC
102
{ACAD_REACTORS
330
19C
102
}
330
19C
100
AcDbXrecord
280
     1
102
MATERIAL
148
0.0
149
0.0
149
0.0
 93
        0
 94
      127
282
     0
 72
     0
 77
     0
171
     0
175
     0
179
     0
273
     0
  0
XRECORD
  5
19E
102
{ACAD_REACTORS
330
19C
102
}
330
19C
100
AcDbXrecord
280
     1
270
     1
271
     1
  0
XRECORD
  5
19D
102
{ACAD_REACTORS
330
19C
102
}
330
19C
100
AcDbXrecord
280
     1
270
     1
271
     1
  0
XRECORD
  5
1A1
102
{ACAD_REACTORS
330
19C
102
}
330
19C
100
AcDbXrecord
280
     1
270
     1
271
     1
  0
XRECORD
  5
1A0
102
{ACAD_REACTORS
330
19C
102
}
330
19C
100
AcDbXrecord
280
     1
270
     1
271
     1
  0
XRECORD
  5
1A2
102
{ACAD_REACTORS
330
19C
102
}
330
19C
100
AcDbXrecord
280
     1
270
     1
271
     1
  0
XRECORD
  5
19F
102
{ACAD_REACTORS
330
19C
102
}
330
19C
100
AcDbXrecord
280
     1
270
     1
271
     1
  0
XRECORD
  5
1EB
102
{ACAD_REACTORS
330
194
102
}
330
194
100
AcDbXrecord
280
     1
102
MATERIAL
148
0.0
149
0.0
149
0.0
 93
        0
 94
      127
282
     0
 72
     0
 77
     0
171
     0
175
     0
179
     0
273
     0
  0
XRECORD
  5
196
102
{ACAD_REACTORS
330
194
102
}
330
194
100
AcDbXrecord
280
     1
270
     1
271
     1
  0
XRECORD
  5
195
102
{ACAD_REACTORS
330
194
102
}
330
194
100
AcDbXrecord
280
     1
270
     1
271
     1
  0
XRECORD
  5
199
102
{ACAD_REACTORS
330
194
102
}
330
194
100
AcDbXrecord
280
     1
270
     1
271
     1
  0
XRECORD
  5
198
102
{ACAD_REACTORS
330
194
102
}
330
194
100
AcDbXrecord
280
     1
270
     1
271
     1
  0
XRECORD
  5
19A
102
{ACAD_REACTORS
330
194
102
}
330
194
100
AcDbXrecord
280
     1
270
     1
271
     1
  0
XRECORD
  5
197
102
{ACAD_REACTORS
330
194
102
}
330
194
100
AcDbXrecord
280
     1
270
     1
271
     1
  0
XRECORD
  5
1ED
102
{ACAD_REACTORS
330
1A4
102
}
330
1A4
100
AcDbXrecord
280
     1
102
MATERIAL
148
0.0
149
0.0
149
0.0
 93
        0
 94
      127
282
     0
 72
     0
 77
     0
171
     0
175
     0
179
     0
273
     0
  0
XRECORD
  5
1A6
102
{ACAD_REACTORS
330
1A4
102
}
330
1A4
100
AcDbXrecord
280
     1
270
     1
271
     1
  0
XRECORD
  5
1A5
102
{ACAD_REACTORS
330
1A4
102
}
330
1A4
100
AcDbXrecord
280
     1
270
     1
271
     1
  0
XRECORD
  5
1A9
102
{ACAD_REACTORS
330
1A4
102
}
330
1A4
100
AcDbXrecord
280
     1
270
     1
271
     1
  0
XRECORD
  5
1A8
102
{ACAD_REACTORS
330
1A4
102
}
330
1A4
100
AcDbXrecord
280
     1
270
     1
271
     1
  0
XRECORD
  5
1AA
102
{ACAD_REACTORS
330
1A4
102
}
330
1A4
100
AcDbXrecord
280
     1
270
     1
271
     1
  0
XRECORD
  5
1A7
102
{ACAD_REACTORS
330
1A4
102
}
330
1A4
100
AcDbXrecord
280
     1
270
     1
271
     1
  0
CELLSTYLEMAP
  5
1E4
102
{ACAD_REACTORS
330
1E3
102
}
330
1E3
100
AcDbCellStyleMap
 90
        3
300
CELLSTYLE
  1
TABLEFORMAT_BEGIN
 90
        5
170
     1
 91
        0
 92
    32768
 62
   257
 93
        1
300
CONTENTFORMAT
  1
CONTENTFORMAT_BEGIN
 90
        0
 91
        0
 92
      512
 93
        0
300

 40
0.0
140
1.0
 94
        5
 62
     0
340
17
144
6.0
309
CONTENTFORMAT_END
171
     1
301
MARGIN
  1
CELLMARGIN_BEGIN
 40
1.5
 40
1.5
 40
1.5
 40
1.5
 40
4.5
 40
4.5
309
CELLMARGIN_END
 94
        6
 95
        1
302
GRIDFORMAT
  1
GRIDFORMAT_BEGIN
 90
        0
 91
        1
 62
     0
 92
       -2
340
0
 93
        0
 40
1.125
309
GRIDFORMAT_END
 95
        2
302
GRIDFORMAT
  1
GRIDFORMAT_BEGIN
 90
        0
 91
        1
 62
     0
 92
       -2
340
0
 93
        0
 40
1.125
309
GRIDFORMAT_END
 95
        4
302
GRIDFORMAT
  1
GRIDFORMAT_BEGIN
 90
        0
 91
        1
 62
     0
 92
       -2
340
0
 93
        0
 40
1.125
309
GRIDFORMAT_END
 95
        8
302
GRIDFORMAT
  1
GRIDFORMAT_BEGIN
 90
        0
 91
        1
 62
     0
 92
       -2
340
0
 93
        0
 40
1.125
309
GRIDFORMAT_END
 95
       16
302
GRIDFORMAT
  1
GRIDFORMAT_BEGIN
 90
        0
 91
        1
 62
     0
 92
       -2
340
0
 93
        0
 40
1.125
309
GRIDFORMAT_END
 95
       32
302
GRIDFORMAT
  1
GRIDFORMAT_BEGIN
 90
        0
 91
        1
 62
     0
 92
       -2
340
0
 93
        0
 40
1.125
309
GRIDFORMAT_END
309
TABLEFORMAT_END
  1
CELLSTYLE_BEGIN
 90
        1
 91
        1
300
_TITLE
309
CELLSTYLE_END
300
CELLSTYLE
  1
TABLEFORMAT_BEGIN
 90
        5
170
     1
 91
        0
 92
        0
 62
   257
 93
        1
300
CONTENTFORMAT
  1
CONTENTFORMAT_BEGIN
 90
        0
 91
        0
 92
      512
 93
        0
300

 40
0.0
140
1.0
 94
        5
 62
     0
340
17
144
4.5
309
CONTENTFORMAT_END
171
     1
301
MARGIN
  1
CELLMARGIN_BEGIN
 40
1.5
 40
1.5
 40
1.5
 40
1.5
 40
4.5
 40
4.5
309
CELLMARGIN_END
 94
        6
 95
        1
302
GRIDFORMAT
  1
GRIDFORMAT_BEGIN
 90
        0
 91
        1
 62
     0
 92
       -2
340
0
 93
        0
 40
1.125
309
GRIDFORMAT_END
 95
        2
302
GRIDFORMAT
  1
GRIDFORMAT_BEGIN
 90
        0
 91
        1
 62
     0
 92
       -2
340
0
 93
        0
 40
1.125
309
GRIDFORMAT_END
 95
        4
302
GRIDFORMAT
  1
GRIDFORMAT_BEGIN
 90
        0
 91
        1
 62
     0
 92
       -2
340
0
 93
        0
 40
1.125
309
GRIDFORMAT_END
 95
        8
302
GRIDFORMAT
  1
GRIDFORMAT_BEGIN
 90
        0
 91
        1
 62
     0
 92
       -2
340
0
 93
        0
 40
1.125
309
GRIDFORMAT_END
 95
       16
302
GRIDFORMAT
  1
GRIDFORMAT_BEGIN
 90
        0
 91
        1
 62
     0
 92
       -2
340
0
 93
        0
 40
1.125
309
GRIDFORMAT_END
 95
       32
302
GRIDFORMAT
  1
GRIDFORMAT_BEGIN
 90
        0
 91
        1
 62
     0
 92
       -2
340
0
 93
        0
 40
1.125
309
GRIDFORMAT_END
309
TABLEFORMAT_END
  1
CELLSTYLE_BEGIN
 90
        2
 91
        1
300
_HEADER
309
CELLSTYLE_END
300
CELLSTYLE
  1
TABLEFORMAT_BEGIN
 90
        5
170
     1
 91
        0
 92
        0
 62
   257
 93
        1
300
CONTENTFORMAT
  1
CONTENTFORMAT_BEGIN
 90
        0
 91
        0
 92
      512
 93
        0
300

 40
0.0
140
1.0
 94
        2
 62
     0
340
17
144
4.5
309
CONTENTFORMAT_END
171
     1
301
MARGIN
  1
CELLMARGIN_BEGIN
 40
1.5
 40
1.5
 40
1.5
 40
1.5
 40
4.5
 40
4.5
309
CELLMARGIN_END
 94
        6
 95
        1
302
GRIDFORMAT
  1
GRIDFORMAT_BEGIN
 90
        0
 91
        1
 62
     0
 92
       -2
340
0
 93
        0
 40
1.125
309
GRIDFORMAT_END
 95
        2
302
GRIDFORMAT
  1
GRIDFORMAT_BEGIN
 90
        0
 91
        1
 62
     0
 92
       -2
340
0
 93
        0
 40
1.125
309
GRIDFORMAT_END
 95
        4
302
GRIDFORMAT
  1
GRIDFORMAT_BEGIN
 90
        0
 91
        1
 62
     0
 92
       -2
340
0
 93
        0
 40
1.125
309
GRIDFORMAT_END
 95
        8
302
GRIDFORMAT
  1
GRIDFORMAT_BEGIN
 90
        0
 91
        1
 62
     0
 92
       -2
340
0
 93
        0
 40
1.125
309
GRIDFORMAT_END
 95
       16
302
GRIDFORMAT
  1
GRIDFORMAT_BEGIN
 90
        0
 91
        1
 62
     0
 92
       -2
340
0
 93
        0
 40
1.125
309
GRIDFORMAT_END
 95
       32
302
GRIDFORMAT
  1
GRIDFORMAT_BEGIN
 90
        0
 91
        1
 62
     0
 92
       -2
340
0
 93
        0
 40
1.125
309
GRIDFORMAT_END
309
TABLEFORMAT_END
  1
CELLSTYLE_BEGIN
 90
        3
 91
        2
300
_DATA
309
CELLSTYLE_END
  0
XRECORD
  5
214
102
{ACAD_REACTORS
330
1E3
102
}
330
1E3
100
AcDbXrecord
280
     1
102
ACAD_ROUNDTRIP_PRE2007_TABLESTYLE
 90
      512
 91
        0
  1

 92
      512
 93
        0
  2

 94
      512
 95
        0
  3

  0
XRECORD
  5
1F9
102
{ACAD_REACTORS
330
1F8
102
}
330
1F8
100
AcDbXrecord
280
     1
102
RTVSPropertyOp0
 70
     1
102
RTVSPropertyOp1
 70
     1
102
RTVSPropertyOp2
 70
     1
102
RTVSPropertyOp3
 70
     1
102
RTVSPropertyOp4
 70
     1
102
RTVSPropertyOp5
 70
     1
102
RTVSPropertyOp6
 70
     1
102
RTVSPropertyOp7
 70
     1
102
RTVSPropertyOp8
 70
     1
102
RTVSPropertyOp9
 70
     1
102
RTVSPropertyOp10
 70
     1
102
RTVSPropertyOp11
 70
     1
102
RTVSPropertyOp12
 70
     1
102
RTVSPropertyOp13
 70
     1
102
RTVSPropertyOp14
 70
     1
102
RTVSPropertyOp15
 70
     1
102
RTVSPropertyOp16
 70
     1
102
RTVSPropertyOp17
 70
     1
102
RTVSPropertyOp18
 70
     1
102
RTVSPropertyOp19
 70
     1
102
RTVSPropertyOp20
 70
     1
102
RTVSPropertyOp21
 70
     1
102
RTVSPropertyOp22
 70
     1
102
RTVSPropertyOp23
 70
     1
102
RTVSPropertyOp24
 70
     1
102
RTVSPropertyOp25
 70
     1
102
RTVSPropertyOp26
 70
     1
102
RTVSPropertyOp27
 70
     1
  0
XRECORD
  5
1FD
102
{ACAD_REACTORS
330
1FC
102
}
330
1FC
100
AcDbXrecord
280
     1
102
RTVSPropertyOp0
 70
     1
102
RTVSPropertyOp1
 70
     1
102
RTVSPropertyOp2
 70
     1
102
RTVSPropertyOp3
 70
     1
102
RTVSPropertyOp4
 70
     1
102
RTVSPropertyOp5
 70
     1
102
RTVSPropertyOp6
 70
     1
102
RTVSPropertyOp7
 70
     1
102
RTVSPropertyOp8
 70
     1
102
RTVSPropertyOp9
 70
     1
102
RTVSPropertyOp10
 70
     1
102
RTVSPropertyOp11
 70
     1
102
RTVSPropertyOp12
 70
     1
102
RTVSPropertyOp13
 70
     1
102
RTVSPropertyOp14
 70
     1
102
RTVSPropertyOp15
 70
     1
102
RTVSPropertyOp16
 70
     1
102
RTVSPropertyOp17
 70
     1
102
RTVSPropertyOp18
 70
     1
102
RTVSPropertyOp19
 70
     1
102
RTVSPropertyOp20
 70
     1
102
RTVSPropertyOp21
 70
     1
102
RTVSPropertyOp22
 70
     1
102
RTVSPropertyOp23
 70
     1
102
RTVSPropertyOp24
 70
     1
102
RTVSPropertyOp25
 70
     1
102
RTVSPropertyOp26
 70
     1
102
RTVSPropertyOp27
 70
     1
  0
XRECORD
  5
1FB
102
{ACAD_REACTORS
330
1FA
102
}
330
1FA
100
AcDbXrecord
280
     1
102
RTVSPropertyOp0
 70
     1
102
RTVSPropertyOp1
 70
     1
102
RTVSPropertyOp2
 70
     1
102
RTVSPropertyOp3
 70
     1
102
RTVSPropertyOp4
 70
     1
102
RTVSPropertyOp5
 70
     1
102
RTVSPropertyOp6
 70
     1
102
RTVSPropertyOp7
 70
     1
102
RTVSPropertyOp8
 70
     1
102
RTVSPropertyOp9
 70
     1
102
RTVSPropertyOp10
 70
     1
102
RTVSPropertyOp11
 70
     1
102
RTVSPropertyOp12
 70
     1
102
RTVSPropertyOp13
 70
     1
102
RTVSPropertyOp14
 70
     1
102
RTVSPropertyOp15
 70
     1
102
RTVSPropertyOp16
 70
     1
102
RTVSPropertyOp17
 70
     1
102
RTVSPropertyOp18
 70
     1
102
RTVSPropertyOp19
 70
     1
102
RTVSPropertyOp20
 70
     1
102
RTVSPropertyOp21
 70
     1
102
RTVSPropertyOp22
 70
     1
102
RTVSPropertyOp23
 70
     1
102
RTVSPropertyOp24
 70
     1
102
RTVSPropertyOp25
 70
     1
102
RTVSPropertyOp26
 70
     1
102
RTVSPropertyOp27
 70
     1
  0
XRECORD
  5
1F7
102
{ACAD_REACTORS
330
1F6
102
}
330
1F6
100
AcDbXrecord
280
     1
102
RTVSPropertyOp0
 70
     1
102
RTVSPropertyOp1
 70
     1
102
RTVSPropertyOp2
 70
     1
102
RTVSPropertyOp3
 70
     1
102
RTVSPropertyOp4
 70
     1
102
RTVSPropertyOp5
 70
     1
102
RTVSPropertyOp6
 70
     1
102
RTVSPropertyOp7
 70
     1
102
RTVSPropertyOp8
 70
     1
102
RTVSPropertyOp9
 70
     1
102
RTVSPropertyOp10
 70
     1
102
RTVSPropertyOp11
 70
     1
102
RTVSPropertyOp12
 70
     1
102
RTVSPropertyOp13
 70
     1
102
RTVSPropertyOp14
 70
     1
102
RTVSPropertyOp15
 70
     1
102
RTVSPropertyOp16
 70
     1
102
RTVSPropertyOp17
 70
     1
102
RTVSPropertyOp18
 70
     1
102
RTVSPropertyOp19
 70
     1
102
RTVSPropertyOp20
 70
     1
102
RTVSPropertyOp21
 70
     1
102
RTVSPropertyOp22
 70
     1
102
RTVSPropertyOp23
 70
     1
102
RTVSPropertyOp24
 70
     1
102
RTVSPropertyOp25
 70
     1
102
RTVSPropertyOp26
 70
     1
102
RTVSPropertyOp27
 70
     1
  0
XRECORD
  5
205
102
{ACAD_REACTORS
330
204
102
}
330
204
100
AcDbXrecord
280
     1
102
RTVSPropertyOp0
 70
     1
102
RTVSPropertyOp1
 70
     1
102
RTVSPropertyOp2
 70
     1
102
RTVSPropertyOp3
 70
     1
102
RTVSPropertyOp4
 70
     1
102
RTVSPropertyOp5
 70
     1
102
RTVSPropertyOp6
 70
     1
102
RTVSPropertyOp7
 70
     1
102
RTVSPropertyOp8
 70
     1
102
RTVSPropertyOp9
 70
     1
102
RTVSPropertyOp10
 70
     1
102
RTVSPropertyOp11
 70
     1
102
RTVSPropertyOp12
 70
     1
102
RTVSPropertyOp13
 70
     1
102
RTVSPropertyOp14
 70
     1
102
RTVSPropertyOp15
 70
     1
102
RTVSPropertyOp16
 70
     1
102
RTVSPropertyOp17
 70
     1
102
RTVSPropertyOp18
 70
     1
102
RTVSPropertyOp19
 70
     1
102
RTVSPropertyOp20
 70
     1
102
RTVSPropertyOp21
 70
     1
102
RTVSPropertyOp22
 70
     1
102
RTVSPropertyOp23
 70
     1
102
RTVSPropertyOp24
 70
     1
102
RTVSPropertyOp25
 70
     1
102
RTVSPropertyOp26
 70
     1
102
RTVSPropertyOp27
 70
     1
  0
XRECORD
  5
20D
102
{ACAD_REACTORS
330
20C
102
}
330
20C
100
AcDbXrecord
280
     1
102
RTVSPropertyOp0
 70
     1
102
RTVSPropertyOp1
 70
     1
102
RTVSPropertyOp2
 70
     1
102
RTVSPropertyOp3
 70
     1
102
RTVSPropertyOp4
 70
     1
102
RTVSPropertyOp5
 70
     1
102
RTVSPropertyOp6
 70
     1
102
RTVSPropertyOp7
 70
     1
102
RTVSPropertyOp8
 70
     1
102
RTVSPropertyOp9
 70
     1
102
RTVSPropertyOp10
 70
     1
102
RTVSPropertyOp11
 70
     1
102
RTVSPropertyOp12
 70
     1
102
RTVSPropertyOp13
 70
     1
102
RTVSPropertyOp14
 70
     1
102
RTVSPropertyOp15
 70
     1
102
RTVSPropertyOp16
 70
     1
102
RTVSPropertyOp17
 70
     1
102
RTVSPropertyOp18
 70
     1
102
RTVSPropertyOp19
 70
     1
102
RTVSPropertyOp20
 70
     1
102
RTVSPropertyOp21
 70
     1
102
RTVSPropertyOp22
 70
     1
102
RTVSPropertyOp23
 70
     1
102
RTVSPropertyOp24
 70
     1
102
RTVSPropertyOp25
 70
     1
102
RTVSPropertyOp26
 70
     1
102
RTVSPropertyOp27
 70
     1
  0
XRECORD
  5
1FF
102
{ACAD_REACTORS
330
1FE
102
}
330
1FE
100
AcDbXrecord
280
     1
102
RTVSPropertyOp0
 70
     1
102
RTVSPropertyOp1
 70
     1
102
RTVSPropertyOp2
 70
     1
102
RTVSPropertyOp3
 70
     1
102
RTVSPropertyOp4
 70
     1
102
RTVSPropertyOp5
 70
     1
102
RTVSPropertyOp6
 70
     1
102
RTVSPropertyOp7
 70
     1
102
RTVSPropertyOp8
 70
     1
102
RTVSPropertyOp9
 70
     1
102
RTVSPropertyOp10
 70
     1
102
RTVSPropertyOp11
 70
     1
102
RTVSPropertyOp12
 70
     1
102
RTVSPropertyOp13
 70
     1
102
RTVSPropertyOp14
 70
     1
102
RTVSPropertyOp15
 70
     1
102
RTVSPropertyOp16
 70
     1
102
RTVSPropertyOp17
 70
     1
102
RTVSPropertyOp18
 70
     1
102
RTVSPropertyOp19
 70
     1
102
RTVSPropertyOp20
 70
     1
102
RTVSPropertyOp21
 70
     1
102
RTVSPropertyOp22
 70
     1
102
RTVSPropertyOp23
 70
     1
102
RTVSPropertyOp24
 70
     1
102
RTVSPropertyOp25
 70
     1
102
RTVSPropertyOp26
 70
     1
102
RTVSPropertyOp27
 70
     1
  0
XRECORD
  5
203
102
{ACAD_REACTORS
330
202
102
}
330
202
100
AcDbXrecord
280
     1
102
RTVSPropertyOp0
 70
     1
102
RTVSPropertyOp1
 70
     1
102
RTVSPropertyOp2
 70
     1
102
RTVSPropertyOp3
 70
     1
102
RTVSPropertyOp4
 70
     1
102
RTVSPropertyOp5
 70
     1
102
RTVSPropertyOp6
 70
     1
102
RTVSPropertyOp7
 70
     1
102
RTVSPropertyOp8
 70
     1
102
RTVSPropertyOp9
 70
     1
102
RTVSPropertyOp10
 70
     1
102
RTVSPropertyOp11
 70
     1
102
RTVSPropertyOp12
 70
     1
102
RTVSPropertyOp13
 70
     1
102
RTVSPropertyOp14
 70
     1
102
RTVSPropertyOp15
 70
     1
102
RTVSPropertyOp16
 70
     1
102
RTVSPropertyOp17
 70
     1
102
RTVSPropertyOp18
 70
     1
102
RTVSPropertyOp19
 70
     1
102
RTVSPropertyOp20
 70
     1
102
RTVSPropertyOp21
 70
     1
102
RTVSPropertyOp22
 70
     1
102
RTVSPropertyOp23
 70
     1
102
RTVSPropertyOp24
 70
     1
102
RTVSPropertyOp25
 70
     1
102
RTVSPropertyOp26
 70
     1
102
RTVSPropertyOp27
 70
     1
  0
XRECORD
  5
213
102
{ACAD_REACTORS
330
212
102
}
330
212
100
AcDbXrecord
280
     1
102
RTVSPropertyOp0
 70
     0
102
RTVSPropertyOp1
 70
     0
102
RTVSPropertyOp2
 70
     0
102
RTVSPropertyOp3
 70
     0
102
RTVSPropertyOp4
 70
     0
102
RTVSPropertyOp5
 70
     0
102
RTVSPropertyOp6
 70
     0
102
RTVSPropertyOp7
 70
     0
102
RTVSPropertyOp8
 70
     0
102
RTVSPropertyOp9
 70
     0
102
RTVSPropertyOp10
 70
     0
102
RTVSPropertyOp11
 70
     0
102
RTVSPropertyOp12
 70
     0
102
RTVSPropertyOp13
 70
     0
102
RTVSPropertyOp14
 70
     2
102
RTVSPropertyOp15
 70
     0
102
RTVSPropertyOp16
 70
     0
102
RTVSPropertyOp17
 70
     0
102
RTVSPropertyOp18
 70
     0
102
RTVSPropertyOp19
 70
     0
102
RTVSPropertyOp20
 70
     0
102
RTVSPropertyOp21
 70
     0
102
RTVSPropertyOp22
 70
     0
102
RTVSPropertyOp23
 70
     0
102
RTVSPropertyOp24
 70
     0
102
RTVSPropertyOp25
 70
     0
102
RTVSPropertyOp26
 70
     0
102
RTVSPropertyOp27
 70
     0
  0
XRECORD
  5
20B
102
{ACAD_REACTORS
330
20A
102
}
330
20A
100
AcDbXrecord
280
     1
102
RTVSPropertyOp0
 70
     1
102
RTVSPropertyOp1
 70
     1
102
RTVSPropertyOp2
 70
     1
102
RTVSPropertyOp3
 70
     1
102
RTVSPropertyOp4
 70
     1
102
RTVSPropertyOp5
 70
     1
102
RTVSPropertyOp6
 70
     1
102
RTVSPropertyOp7
 70
     1
102
RTVSPropertyOp8
 70
     1
102
RTVSPropertyOp9
 70
     1
102
RTVSPropertyOp10
 70
     1
102
RTVSPropertyOp11
 70
     1
102
RTVSPropertyOp12
 70
     1
102
RTVSPropertyOp13
 70
     1
102
RTVSPropertyOp14
 70
     1
102
RTVSPropertyOp15
 70
     1
102
RTVSPropertyOp16
 70
     1
102
RTVSPropertyOp17
 70
     1
102
RTVSPropertyOp18
 70
     1
102
RTVSPropertyOp19
 70
     1
102
RTVSPropertyOp20
 70
     1
102
RTVSPropertyOp21
 70
     1
102
RTVSPropertyOp22
 70
     1
102
RTVSPropertyOp23
 70
     1
102
RTVSPropertyOp24
 70
     1
102
RTVSPropertyOp25
 70
     1
102
RTVSPropertyOp26
 70
     1
102
RTVSPropertyOp27
 70
     1
  0
XRECORD
  5
1EF
102
{ACAD_REACTORS
330
1EE
102
}
330
1EE
100
AcDbXrecord
280
     1
102
RTVSPropertyOp0
 70
     1
102
RTVSPropertyOp1
 70
     1
102
RTVSPropertyOp2
 70
     1
102
RTVSPropertyOp3
 70
     1
102
RTVSPropertyOp4
 70
     1
102
RTVSPropertyOp5
 70
     1
102
RTVSPropertyOp6
 70
     1
102
RTVSPropertyOp7
 70
     1
102
RTVSPropertyOp8
 70
     1
102
RTVSPropertyOp9
 70
     1
102
RTVSPropertyOp10
 70
     1
102
RTVSPropertyOp11
 70
     1
102
RTVSPropertyOp12
 70
     1
102
RTVSPropertyOp13
 70
     1
102
RTVSPropertyOp14
 70
     1
102
RTVSPropertyOp15
 70
     1
102
RTVSPropertyOp16
 70
     1
102
RTVSPropertyOp17
 70
     1
102
RTVSPropertyOp18
 70
     1
102
RTVSPropertyOp19
 70
     1
102
RTVSPropertyOp20
 70
     1
102
RTVSPropertyOp21
 70
     1
102
RTVSPropertyOp22
 70
     1
102
RTVSPropertyOp23
 70
     1
102
RTVSPropertyOp24
 70
     1
102
RTVSPropertyOp25
 70
     1
102
RTVSPropertyOp26
 70
     1
102
RTVSPropertyOp27
 70
     1
  0
XRECORD
  5
1F1
102
{ACAD_REACTORS
330
1F0
102
}
330
1F0
100
AcDbXrecord
280
     1
102
RTVSPropertyOp0
 70
     1
102
RTVSPropertyOp1
 70
     1
102
RTVSPropertyOp2
 70
     1
102
RTVSPropertyOp3
 70
     1
102
RTVSPropertyOp4
 70
     1
102
RTVSPropertyOp5
 70
     1
102
RTVSPropertyOp6
 70
     1
102
RTVSPropertyOp7
 70
     1
102
RTVSPropertyOp8
 70
     1
102
RTVSPropertyOp9
 70
     1
102
RTVSPropertyOp10
 70
     1
102
RTVSPropertyOp11
 70
     1
102
RTVSPropertyOp12
 70
     1
102
RTVSPropertyOp13
 70
     1
102
RTVSPropertyOp14
 70
     1
102
RTVSPropertyOp15
 70
     1
102
RTVSPropertyOp16
 70
     1
102
RTVSPropertyOp17
 70
     1
102
RTVSPropertyOp18
 70
     1
102
RTVSPropertyOp19
 70
     1
102
RTVSPropertyOp20
 70
     1
102
RTVSPropertyOp21
 70
     1
102
RTVSPropertyOp22
 70
     1
102
RTVSPropertyOp23
 70
     1
102
RTVSPropertyOp24
 70
     1
102
RTVSPropertyOp25
 70
     1
102
RTVSPropertyOp26
 70
     1
102
RTVSPropertyOp27
 70
     1
  0
XRECORD
  5
1F3
102
{ACAD_REACTORS
330
1F2
102
}
330
1F2
100
AcDbXrecord
280
     1
102
RTVSPropertyOp0
 70
     1
102
RTVSPropertyOp1
 70
     1
102
RTVSPropertyOp2
 70
     1
102
RTVSPropertyOp3
 70
     1
102
RTVSPropertyOp4
 70
     1
102
RTVSPropertyOp5
 70
     1
102
RTVSPropertyOp6
 70
     1
102
RTVSPropertyOp7
 70
     1
102
RTVSPropertyOp8
 70
     1
102
RTVSPropertyOp9
 70
     1
102
RTVSPropertyOp10
 70
     1
102
RTVSPropertyOp11
 70
     1
102
RTVSPropertyOp12
 70
     1
102
RTVSPropertyOp13
 70
     1
102
RTVSPropertyOp14
 70
     1
102
RTVSPropertyOp15
 70
     1
102
RTVSPropertyOp16
 70
     1
102
RTVSPropertyOp17
 70
     1
102
RTVSPropertyOp18
 70
     1
102
RTVSPropertyOp19
 70
     1
102
RTVSPropertyOp20
 70
     1
102
RTVSPropertyOp21
 70
     1
102
RTVSPropertyOp22
 70
     1
102
RTVSPropertyOp23
 70
     1
102
RTVSPropertyOp24
 70
     1
102
RTVSPropertyOp25
 70
     1
102
RTVSPropertyOp26
 70
     1
102
RTVSPropertyOp27
 70
     1
  0
XRECORD
  5
1F5
102
{ACAD_REACTORS
330
1F4
102
}
330
1F4
100
AcDbXrecord
280
     1
102
RTVSPropertyOp0
 70
     1
102
RTVSPropertyOp1
 70
     1
102
RTVSPropertyOp2
 70
     1
102
RTVSPropertyOp3
 70
     1
102
RTVSPropertyOp4
 70
     1
102
RTVSPropertyOp5
 70
     1
102
RTVSPropertyOp6
 70
     1
102
RTVSPropertyOp7
 70
     1
102
RTVSPropertyOp8
 70
     1
102
RTVSPropertyOp9
 70
     1
102
RTVSPropertyOp10
 70
     1
102
RTVSPropertyOp11
 70
     1
102
RTVSPropertyOp12
 70
     1
102
RTVSPropertyOp13
 70
     1
102
RTVSPropertyOp14
 70
     1
102
RTVSPropertyOp15
 70
     1
102
RTVSPropertyOp16
 70
     1
102
RTVSPropertyOp17
 70
     1
102
RTVSPropertyOp18
 70
     1
102
RTVSPropertyOp19
 70
     1
102
RTVSPropertyOp20
 70
     1
102
RTVSPropertyOp21
 70
     1
102
RTVSPropertyOp22
 70
     1
102
RTVSPropertyOp23
 70
     1
102
RTVSPropertyOp24
 70
     1
102
RTVSPropertyOp25
 70
     1
102
RTVSPropertyOp26
 70
     1
102
RTVSPropertyOp27
 70
     1
  0
XRECORD
  5
20F
102
{ACAD_REACTORS
330
20E
102
}
330
20E
100
AcDbXrecord
280
     1
102
RTVSPropertyOp0
 70
     0
102
RTVSPropertyOp1
 70
     0
102
RTVSPropertyOp2
 70
     0
102
RTVSPropertyOp3
 70
     0
102
RTVSPropertyOp4
 70
     0
102
RTVSPropertyOp5
 70
     0
102
RTVSPropertyOp6
 70
     0
102
RTVSPropertyOp7
 70
     0
102
RTVSPropertyOp8
 70
     0
102
RTVSPropertyOp9
 70
     0
102
RTVSPropertyOp10
 70
     0
102
RTVSPropertyOp11
 70
     0
102
RTVSPropertyOp12
 70
     0
102
RTVSPropertyOp13
 70
     0
102
RTVSPropertyOp14
 70
     2
102
RTVSPropertyOp15
 70
     0
102
RTVSPropertyOp16
 70
     0
102
RTVSPropertyOp17
 70
     0
102
RTVSPropertyOp18
 70
     0
102
RTVSPropertyOp19
 70
     0
102
RTVSPropertyOp20
 70
     0
102
RTVSPropertyOp21
 70
     0
102
RTVSPropertyOp22
 70
     0
102
RTVSPropertyOp23
 70
     0
102
RTVSPropertyOp24
 70
     0
102
RTVSPropertyOp25
 70
     0
102
RTVSPropertyOp26
 70
     0
102
RTVSPropertyOp27
 70
     0
  0
XRECORD
  5
209
102
{ACAD_REACTORS
330
208
102
}
330
208
100
AcDbXrecord
280
     1
102
RTVSPropertyOp0
 70
     1
102
RTVSPropertyOp1
 70
     1
102
RTVSPropertyOp2
 70
     1
102
RTVSPropertyOp3
 70
     1
102
RTVSPropertyOp4
 70
     1
102
RTVSPropertyOp5
 70
     1
102
RTVSPropertyOp6
 70
     1
102
RTVSPropertyOp7
 70
     1
102
RTVSPropertyOp8
 70
     1
102
RTVSPropertyOp9
 70
     1
102
RTVSPropertyOp10
 70
     1
102
RTVSPropertyOp11
 70
     1
102
RTVSPropertyOp12
 70
     1
102
RTVSPropertyOp13
 70
     1
102
RTVSPropertyOp14
 70
     1
102
RTVSPropertyOp15
 70
     1
102
RTVSPropertyOp16
 70
     1
102
RTVSPropertyOp17
 70
     1
102
RTVSPropertyOp18
 70
     1
102
RTVSPropertyOp19
 70
     1
102
RTVSPropertyOp20
 70
     1
102
RTVSPropertyOp21
 70
     1
102
RTVSPropertyOp22
 70
     1
102
RTVSPropertyOp23
 70
     1
102
RTVSPropertyOp24
 70
     1
102
RTVSPropertyOp25
 70
     1
102
RTVSPropertyOp26
 70
     1
102
RTVSPropertyOp27
 70
     1
  0
XRECORD
  5
211
102
{ACAD_REACTORS
330
210
102
}
330
210
100
AcDbXrecord
280
     1
102
RTVSPropertyOp0
 70
     0
102
RTVSPropertyOp1
 70
     0
102
RTVSPropertyOp2
 70
     0
102
RTVSPropertyOp3
 70
     0
102
RTVSPropertyOp4
 70
     0
102
RTVSPropertyOp5
 70
     0
102
RTVSPropertyOp6
 70
     0
102
RTVSPropertyOp7
 70
     0
102
RTVSPropertyOp8
 70
     0
102
RTVSPropertyOp9
 70
     0
102
RTVSPropertyOp10
 70
     0
102
RTVSPropertyOp11
 70
     0
102
RTVSPropertyOp12
 70
     0
102
RTVSPropertyOp13
 70
     0
102
RTVSPropertyOp14
 70
     2
102
RTVSPropertyOp15
 70
     0
102
RTVSPropertyOp16
 70
     0
102
RTVSPropertyOp17
 70
     0
102
RTVSPropertyOp18
 70
     0
102
RTVSPropertyOp19
 70
     0
102
RTVSPropertyOp20
 70
     0
102
RTVSPropertyOp21
 70
     0
102
RTVSPropertyOp22
 70
     0
102
RTVSPropertyOp23
 70
     0
102
RTVSPropertyOp24
 70
     0
102
RTVSPropertyOp25
 70
     0
102
RTVSPropertyOp26
 70
     0
102
RTVSPropertyOp27
 70
     0
  0
XRECORD
  5
201
102
{ACAD_REACTORS
330
200
102
}
330
200
100
AcDbXrecord
280
     1
102
RTVSPropertyOp0
 70
     1
102
RTVSPropertyOp1
 70
     1
102
RTVSPropertyOp2
 70
     1
102
RTVSPropertyOp3
 70
     1
102
RTVSPropertyOp4
 70
     1
102
RTVSPropertyOp5
 70
     1
102
RTVSPropertyOp6
 70
     1
102
RTVSPropertyOp7
 70
     1
102
RTVSPropertyOp8
 70
     1
102
RTVSPropertyOp9
 70
     1
102
RTVSPropertyOp10
 70
     1
102
RTVSPropertyOp11
 70
     1
102
RTVSPropertyOp12
 70
     1
102
RTVSPropertyOp13
 70
     1
102
RTVSPropertyOp14
 70
     1
102
RTVSPropertyOp15
 70
     1
102
RTVSPropertyOp16
 70
     1
102
RTVSPropertyOp17
 70
     1
102
RTVSPropertyOp18
 70
     1
102
RTVSPropertyOp19
 70
     1
102
RTVSPropertyOp20
 70
     1
102
RTVSPropertyOp21
 70
     1
102
RTVSPropertyOp22
 70
     1
102
RTVSPropertyOp23
 70
     1
102
RTVSPropertyOp24
 70
     1
102
RTVSPropertyOp25
 70
     1
102
RTVSPropertyOp26
 70
     1
102
RTVSPropertyOp27
 70
     1
  0
XRECORD
  5
207
102
{ACAD_REACTORS
330
206
102
}
330
206
100
AcDbXrecord
280
     1
102
RTVSPropertyOp0
 70
     1
102
RTVSPropertyOp1
 70
     1
102
RTVSPropertyOp2
 70
     1
102
RTVSPropertyOp3
 70
     1
102
RTVSPropertyOp4
 70
     1
102
RTVSPropertyOp5
 70
     1
102
RTVSPropertyOp6
 70
     1
102
RTVSPropertyOp7
 70
     1
102
RTVSPropertyOp8
 70
     1
102
RTVSPropertyOp9
 70
     1
102
RTVSPropertyOp10
 70
     1
102
RTVSPropertyOp11
 70
     1
102
RTVSPropertyOp12
 70
     1
102
RTVSPropertyOp13
 70
     1
102
RTVSPropertyOp14
 70
     1
102
RTVSPropertyOp15
 70
     1
102
RTVSPropertyOp16
 70
     1
102
RTVSPropertyOp17
 70
     1
102
RTVSPropertyOp18
 70
     1
102
RTVSPropertyOp19
 70
     1
102
RTVSPropertyOp20
 70
     1
102
RTVSPropertyOp21
 70
     1
102
RTVSPropertyOp22
 70
     1
102
RTVSPropertyOp23
 70
     1
102
RTVSPropertyOp24
 70
     1
102
RTVSPropertyOp25
 70
     1
102
RTVSPropertyOp26
 70
     1
102
RTVSPropertyOp27
 70
     1
  0
ENDSEC
  0
EOF
