  0
SECTION
  2
HEADER
  9
$ACADVER
  1
AC1015
  9
$ACADMAINTVER
 70
    20
  9
$DWGCODEPAGE
  3
ANSI_1252
  9
$INSBASE
 10
0.0
 20
0.0
 30
0.0
  9
$EXTMIN
 10
-58.83260433333333
 20
-14.425
 30
-0.0000000000000013
  9
$EXTMAX
 10
74.2125
 20
96.83260433333334
 30
0.0000000000000002
  9
$LIMMIN
 10
-0.5
 20
-0.5
  9
$LIMMAX
 10
5.0
 20
5.0
  9
$ORTHOMODE
 70
     0
  9
$REGENMODE
 70
     1
  9
$FILLMODE
 70
     1
  9
$QTEXTMODE
 70
     0
  9
$MIRRTEXT
 70
     1
  9
$LTSCALE
 40
1.0
  9
$ATTMODE
 70
     1
  9
$TEXTSIZE
 40
5.0
  9
$TRACEWID
 40
0.05
  9
$TEXTSTYLE
  7
Standard
  9
$CLAYER
  8
NOCUT
  9
$CELTYPE
  6
ByLayer
  9
$CECOLOR
 62
   256
  9
$CELTSCALE
 40
1.0
  9
$DISPSILH
 70
     0
  9
$DIMSCALE
 40
1.0
  9
$DIMASZ
 40
0.18
  9
$DIMEXO
 40
0.0625
  9
$DIMDLI
 40
0.38
  9
$DIMRND
 40
0.0
  9
$DIMDLE
 40
0.0
  9
$DIMEXE
 40
0.18
  9
$DIMTP
 40
0.0
  9
$DIMTM
 40
0.0
  9
$DIMTXT
 40
0.18
  9
$DIMCEN
 40
0.09
  9
$DIMTSZ
 40
0.0
  9
$DIMTOL
 70
     0
  9
$DIMLIM
 70
     0
  9
$DIMTIH
 70
     1
  9
$DIMTOH
 70
     1
  9
$DIMSE1
 70
     0
  9
$DIMSE2
 70
     0
  9
$DIMTAD
 70
     0
  9
$DIMZIN
 70
     0
  9
$DIMBLK
  1

  9
$DIMASO
 70
     1
  9
$DIMSHO
 70
     1
  9
$DIMPOST
  1

  9
$DIMAPOST
  1

  9
$DIMALT
 70
     0
  9
$DIMALTD
 70
     2
  9
$DIMALTF
 40
25.4
  9
$DIMLFAC
 40
1.0
  9
$DIMTOFL
 70
     0
  9
$DIMTVP
 40
0.0
  9
$DIMTIX
 70
     0
  9
$DIMSOXD
 70
     0
  9
$DIMSAH
 70
     0
  9
$DIMBLK1
  1

  9
$DIMBLK2
  1

  9
$DIMSTYLE
  2
Standard
  9
$DIMCLRD
 70
     0
  9
$DIMCLRE
 70
     0
  9
$DIMCLRT
 70
     0
  9
$DIMTFAC
 40
1.0
  9
$DIMGAP
 40
0.09
  9
$DIMJUST
 70
     0
  9
$DIMSD1
 70
     0
  9
$DIMSD2
 70
     0
  9
$DIMTOLJ
 70
     1
  9
$DIMTZIN
 70
     0
  9
$DIMALTZ
 70
     0
  9
$DIMALTTZ
 70
     0
  9
$DIMUPT
 70
     0
  9
$DIMDEC
 70
     4
  9
$DIMTDEC
 70
     4
  9
$DIMALTU
 70
     2
  9
$DIMALTTD
 70
     2
  9
$DIMTXSTY
  7
Standard
  9
$DIMAUNIT
 70
     0
  9
$DIMADEC
 70
     0
  9
$DIMALTRND
 40
0.0
  9
$DIMAZIN
 70
     0
  9
$DIMDSEP
 70
     0
  9
$DIMATFIT
 70
     3
  9
$DIMFRAC
 70
     0
  9
$DIMLDRBLK
  1

  9
$DIMLUNIT
 70
     2
  9
$DIMLWD
 70
     0
  9
$DIMLWE
 70
     0
  9
$DIMTMOVE
 70
     0
  9
$LUNITS
 70
     2
  9
$LUPREC
 70
     4
  9
$SKETCHINC
 40
0.1
  9
$FILLETRAD
 40
0.0
  9
$AUNITS
 70
     0
  9
$AUPREC
 70
     0
  9
$MENU
  1
acad
  9
$ELEVATION
 40
0.0
  9
$PELEVATION
 40
0.0
  9
$THICKNESS
 40
0.0
  9
$LIMCHECK
 70
     0
  9
$CHAMFERA
 40
0.0
  9
$CHAMFERB
 40
0.0
  9
$CHAMFERC
 40
0.0
  9
$CHAMFERD
 40
0.0
  9
$SKPOLY
 70
     0
  9
$TDCREATE
 40
2457459.596390972
  9
$TDUCREATE
 40
2457459.554724306
  9
$TDUPDATE
 40
2457459.597950012
  9
$TDUUPDATE
 40
2457459.556283345
  9
$TDINDWG
 40
0.0015594213
  9
$TDUSRTIMER
 40
0.0015593981
  9
$USRTIMER
 70
     1
  9
$ANGBASE
 50
0.0
  9
$ANGDIR
 70
     0
  9
$PDMODE
 70
     0
  9
$PDSIZE
 40
0.0
  9
$PLINEWID
 40
0.0
  9
$SPLFRAME
 70
     0
  9
$SPLINETYPE
 70
     6
  9
$SPLINESEGS
 70
     8
  9
$HANDSEED
  5
212
  9
$SURFTAB1
 70
     6
  9
$SURFTAB2
 70
     6
  9
$SURFTYPE
 70
     6
  9
$SURFU
 70
     6
  9
$SURFV
 70
     6
  9
$UCSBASE
  2

  9
$UCSNAME
  2

  9
$UCSORG
 10
0.0
 20
0.0
 30
0.0
  9
$UCSXDIR
 10
1.0
 20
0.0
 30
0.0
  9
$UCSYDIR
 10
0.0
 20
1.0
 30
0.0
  9
$UCSORTHOREF
  2

  9
$UCSORTHOVIEW
 70
     0
  9
$UCSORGTOP
 10
0.0
 20
0.0
 30
0.0
  9
$UCSORGBOTTOM
 10
0.0
 20
0.0
 30
0.0
  9
$UCSORGLEFT
 10
0.0
 20
0.0
 30
0.0
  9
$UCSORGRIGHT
 10
0.0
 20
0.0
 30
0.0
  9
$UCSORGFRONT
 10
0.0
 20
0.0
 30
0.0
  9
$UCSORGBACK
 10
0.0
 20
0.0
 30
0.0
  9
$PUCSBASE
  2

  9
$PUCSNAME
  2

  9
$PUCSORG
 10
0.0
 20
0.0
 30
0.0
  9
$PUCSXDIR
 10
1.0
 20
0.0
 30
0.0
  9
$PUCSYDIR
 10
0.0
 20
1.0
 30
0.0
  9
$PUCSORTHOREF
  2

  9
$PUCSORTHOVIEW
 70
     0
  9
$PUCSORGTOP
 10
0.0
 20
0.0
 30
0.0
  9
$PUCSORGBOTTOM
 10
0.0
 20
0.0
 30
0.0
  9
$PUCSORGLEFT
 10
0.0
 20
0.0
 30
0.0
  9
$PUCSORGRIGHT
 10
0.0
 20
0.0
 30
0.0
  9
$PUCSORGFRONT
 10
0.0
 20
0.0
 30
0.0
  9
$PUCSORGBACK
 10
0.0
 20
0.0
 30
0.0
  9
$USERI1
 70
     0
  9
$USERI2
 70
     0
  9
$USERI3
 70
     0
  9
$USERI4
 70
     0
  9
$USERI5
 70
     0
  9
$USERR1
 40
0.0
  9
$USERR2
 40
0.0
  9
$USERR3
 40
0.0
  9
$USERR4
 40
0.0
  9
$USERR5
 40
0.0
  9
$WORLDVIEW
 70
     1
  9
$SHADEDGE
 70
     3
  9
$SHADEDIF
 70
    70
  9
$TILEMODE
 70
     1
  9
$MAXACTVP
 70
    64
  9
$PINSBASE
 10
0.0
 20
0.0
 30
0.0
  9
$PLIMCHECK
 70
     0
  9
$PEXTMIN
 10
-0.5
 20
-0.5
 30
-0.5
  9
$PEXTMAX
 10
5.0
 20
5.0
 30
5.0
  9
$PLIMMIN
 10
-0.5
 20
-0.5
  9
$PLIMMAX
 10
5.0
 20
5.0
  9
$UNITMODE
 70
     0
  9
$VISRETAIN
 70
     0
  9
$PLINEGEN
 70
     1
  9
$PSLTSCALE
 70
     0
  9
$TREEDEPTH
 70
  3020
  9
$CMLSTYLE
  2
Standard
  9
$CMLJUST
 70
     0
  9
$CMLSCALE
 40
1.0
  9
$PROXYGRAPHICS
 70
     0
  9
$MEASUREMENT
 70
     1
  9
$CELWEIGHT
370
     0
  9
$ENDCAPS
280
     0
  9
$JOINSTYLE
280
     0
  9
$LWDISPLAY
290
     0
  9
$INSUNITS
 70
     0
  9
$HYPERLINKBASE
  1

  9
$STYLESHEET
  1

  9
$XEDIT
290
     1
  9
$CEPSNTYPE
380
     0
  9
$PSTYLEMODE
290
     1
  9
$FINGERPRINTGUID
  2

  9
$VERSIONGUID
  2
{9FC86932-977D-4723-82EE-5977ECFE80A6}
  9
$EXTNAMES
290
     1
  9
$PSVPSCALE
 40
0.0
  9
$OLESTARTUP
290
     0
  0
ENDSEC
  0
SECTION
  2
CLASSES
  0
CLASS
  1
IMAGE
  2
AcDbRasterImage
  3
ISM
 90
    34943
280
     0
281
     1
  0
CLASS
  1
DICTIONARYVAR
  2
AcDbDictionaryVar
  3
ObjectDBX Classes
 90
        0
280
     0
281
     0
  0
CLASS
  1
RASTERVARIABLES
  2
AcDbRasterVariables
  3
ISM
 90
    32768
280
     0
281
     0
  0
CLASS
  1
IMAGEDEF
  2
AcDbRasterImageDef
  3
ISM
 90
    32768
280
     0
281
     0
  0
CLASS
  1
IMAGEDEF_REACTOR
  2
AcDbRasterImageDefReactor
  3
ISM
 90
    32769
280
     0
281
     0
  0
CLASS
  1
IDBUFFER
  2
AcDbIdBuffer
  3
ObjectDBX Classes
 90
    32768
280
     0
281
     0
  0
CLASS
  1
SPATIAL_FILTER
  2
AcDbSpatialFilter
  3
ObjectDBX Classes
 90
    32768
280
     0
281
     0
  0
CLASS
  1
SORTENTSTABLE
  2
AcDbSortentsTable
  3
ObjectDBX Classes
 90
    32768
280
     0
281
     0
  0
CLASS
  1
LAYER_INDEX
  2
AcDbLayerIndex
  3
ObjectDBX Classes
 90
    32768
280
     0
281
     0
  0
CLASS
  1
SPATIAL_INDEX
  2
AcDbSpatialIndex
  3
ObjectDBX Classes
 90
    32768
280
     0
281
     0
  0
CLASS
  1
OBJECT_PTR
  2
CAseDLPNTableRecord
  3
ASE-LPNTableRecord
 90
    32769
280
     0
281
     0
  0
CLASS
  1
LAYOUT
  2
AcDbLayout
  3
ObjectDBX Classes
 90
        0
280
     0
281
     0
  0
CLASS
  1
PLOTSETTINGS
  2
AcDbPlotSettings
  3
ObjectDBX Classes
 90
    32768
280
     0
281
     0
  0
CLASS
  1
ACDBDICTIONARYWDFLT
  2
AcDbDictionaryWithDefault
  3
ObjectDBX Classes
 90
        0
280
     0
281
     0
  0
CLASS
  1
ACDBPLACEHOLDER
  2
AcDbPlaceHolder
  3
ObjectDBX Classes
 90
        0
280
     0
281
     0
  0
CLASS
  1
VBA_PROJECT
  2
AcDbVbaProject
  3
acad
 90
    32768
280
     0
281
     0
  0
CLASS
  1
WIPEOUT
  2
AcDbWipeout
  3
"WipeOut|Product Desc: Object Enabler for WipeOut entity                        |Company: Autodesk, Inc.                        |WEB Address: www.autodesk.com"
 90
    34943
280
     0
281
     1
  0
CLASS
  1
WIPEOUTVARIABLES
  2
AcDbWipeoutVariables
  3
"WipeOut|Product Desc:     WipeOut Dbx Application|Company:          Autodesk, Inc.|WEB Address:      www.autodesk.com"
 90
        0
280
     0
281
     0
  0
CLASS
  1
RTEXT
  2
RText
  3
RText|AutoCAD Express Tool|expresstools@autodesk.com
 90
    35839
280
     0
281
     1
  0
CLASS
  1
ARCALIGNEDTEXT
  2
AcDbArcAlignedText
  3
ATEXT|AutoCAD Express Tool|expresstools@autodesk.com
 90
    32768
280
     0
281
     1
  0
CLASS
  1
SCALE
  2
AcDbScale
  3
ObjectDBX Classes
 90
     1153
280
     0
281
     0
  0
CLASS
  1
MATERIAL
  2
AcDbMaterial
  3
ObjectDBX Classes
 90
     1153
280
     0
281
     0
  0
CLASS
  1
VISUALSTYLE
  2
AcDbVisualStyle
  3
ObjectDBX Classes
 90
     4095
280
     0
281
     0
  0
CLASS
  1
TABLESTYLE
  2
AcDbTableStyle
  3
ObjectDBX Classes
 90
     4095
280
     0
281
     0
  0
CLASS
  1
MLEADERSTYLE
  2
AcDbMLeaderStyle
  3
ACDB_MLEADERSTYLE_CLASS
 90
     4095
280
     0
281
     0
  0
CLASS
  1
CELLSTYLEMAP
  2
AcDbCellStyleMap
  3
ObjectDBX Classes
 90
     1152
280
     0
281
     0
  0
ENDSEC
  0
SECTION
  2
TABLES
  0
TABLE
  2
VPORT
  5
7
330
0
100
AcDbSymbolTable
 70
    16
  0
VPORT
  5
132
330
7
100
AcDbSymbolTableRecord
100
AcDbViewportTableRecord
  2
*ACTIVE
 70
     0
 10
0.0
 20
0.0
 11
1.0
 21
1.0
 12
197.3901740134228
 22
23.892498
 13
0.0
 23
0.0
 14
1.0
 24
1.0
 15
0.0
 25
0.0
 16
0.0
 26
0.0
 36
1.0
 17
0.0
 27
0.0
 37
0.0
 40
254.0689612683538
 41
2.186577181208053
 42
50.0
 43
274.598704
 44
-274.598704
 50
0.0
 51
0.0
 71
    16
 72
   100
 73
     1
 74
     1
 75
     0
 76
     0
 77
     0
 78
     0
281
     0
 65
     0
110
0.0
120
0.0
130
0.0
111
1.0
121
0.0
131
0.0
112
0.0
122
1.0
132
0.0
 79
     0
146
0.0
  0
VPORT
  5
133
330
7
100
AcDbSymbolTableRecord
100
AcDbViewportTableRecord
  2
L1
 70
     0
 10
0.0
 20
0.0
 11
1.0
 21
1.0
 12
7.1425
 22
23.892498
 13
0.0
 23
0.0
 14
1.0
 24
1.0
 15
0.0
 25
0.0
 16
0.0
 26
0.0
 36
1.0
 17
0.0
 27
0.0
 37
0.0
 40
254.0
 41
0.6885640000000001
 42
50.0
 43
274.598704
 44
-274.598704
 50
0.0
 51
0.0
 71
    16
 72
   100
 73
     1
 74
     1
 75
     0
 76
     0
 77
     0
 78
     0
281
     0
 65
     0
110
0.0
120
0.0
130
0.0
111
1.0
121
0.0
131
0.0
112
0.0
122
1.0
132
0.0
 79
     0
146
0.0
  0
VPORT
  5
134
330
7
100
AcDbSymbolTableRecord
100
AcDbViewportTableRecord
  2
L2
 70
     0
 10
0.0
 20
0.0
 11
0.5
 21
1.0
 12
0.0
 22
0.0
 13
0.0
 23
0.0
 14
1.0
 24
1.0
 15
0.0
 25
0.0
 16
0.0
 26
-1.0
 36
0.0
 17
0.0
 27
0.0
 37
0.0
 40
1583.996559
 41
0.688564
 42
50.0
 43
815.290728
 44
-815.290728
 50
0.0
 51
0.0
 71
    16
 72
   100
 73
     1
 74
     1
 75
     0
 76
     0
 77
     0
 78
     0
281
     0
 65
     0
110
0.0
120
0.0
130
0.0
111
1.0
121
0.0
131
0.0
112
0.0
122
1.0
132
0.0
 79
     0
146
0.0
  0
VPORT
  5
135
330
7
100
AcDbSymbolTableRecord
100
AcDbViewportTableRecord
  2
L2
 70
     0
 10
0.5
 20
0.0
 11
1.0
 21
1.0
 12
0.0
 22
0.0
 13
0.0
 23
0.0
 14
1.0
 24
1.0
 15
0.0
 25
0.0
 16
1.0
 26
0.0
 36
0.0
 17
0.0
 27
0.0
 37
0.0
 40
1583.996559
 41
0.688564
 42
50.0
 43
802.116123
 44
-802.116123
 50
0.0
 51
0.0
 71
    16
 72
   100
 73
     1
 74
     1
 75
     0
 76
     0
 77
     0
 78
     0
281
     0
 65
     0
110
0.0
120
0.0
130
0.0
111
1.0
121
0.0
131
0.0
112
0.0
122
1.0
132
0.0
 79
     0
146
0.0
  0
VPORT
  5
136
330
7
100
AcDbSymbolTableRecord
100
AcDbViewportTableRecord
  2
L3
 70
     0
 10
0.0
 20
0.5
 11
1.0
 21
1.0
 12
7.1425
 22
23.892498
 13
0.0
 23
0.0
 14
1.0
 24
1.0
 15
0.0
 25
0.0
 16
0.0
 26
0.0
 36
1.0
 17
0.0
 27
0.0
 37
0.0
 40
254.0
 41
0.6885640000000001
 42
50.0
 43
274.598704
 44
-274.598704
 50
0.0
 51
0.0
 71
    16
 72
   100
 73
     1
 74
     1
 75
     0
 76
     0
 77
     0
 78
     0
281
     0
 65
     0
110
0.0
120
0.0
130
0.0
111
1.0
121
0.0
131
0.0
112
0.0
122
1.0
132
0.0
 79
     0
146
0.0
  0
VPORT
  5
137
330
7
100
AcDbSymbolTableRecord
100
AcDbViewportTableRecord
  2
L3
 70
     0
 10
0.0
 20
0.0
 11
1.0
 21
0.5
 12
0.0
 22
0.0
 13
0.0
 23
0.0
 14
1.0
 24
1.0
 15
0.0
 25
0.0
 16
0.0
 26
-1.0
 36
0.0
 17
0.0
 27
0.0
 37
0.0
 40
1583.996559
 41
0.688564
 42
50.0
 43
815.290728
 44
-815.290728
 50
0.0
 51
0.0
 71
    16
 72
   100
 73
     1
 74
     1
 75
     0
 76
     0
 77
     0
 78
     0
281
     0
 65
     0
110
0.0
120
0.0
130
0.0
111
1.0
121
0.0
131
0.0
112
0.0
122
1.0
132
0.0
 79
     0
146
0.0
  0
VPORT
  5
138
330
7
100
AcDbSymbolTableRecord
100
AcDbViewportTableRecord
  2
L4
 70
     0
 10
0.0
 20
0.5
 11
0.5
 21
1.0
 12
7.1425
 22
23.892498
 13
0.0
 23
0.0
 14
1.0
 24
1.0
 15
0.0
 25
0.0
 16
0.0
 26
0.0
 36
1.0
 17
0.0
 27
0.0
 37
0.0
 40
254.0
 41
0.6885640000000001
 42
50.0
 43
274.598704
 44
-274.598704
 50
0.0
 51
0.0
 71
    16
 72
   100
 73
     1
 74
     1
 75
     0
 76
     0
 77
     0
 78
     0
281
     0
 65
     0
110
0.0
120
0.0
130
0.0
111
1.0
121
0.0
131
0.0
112
0.0
122
1.0
132
0.0
 79
     0
146
0.0
  0
VPORT
  5
139
330
7
100
AcDbSymbolTableRecord
100
AcDbViewportTableRecord
  2
L4
 70
     0
 10
0.0
 20
0.0
 11
0.5
 21
0.5
 12
0.0
 22
0.0
 13
0.0
 23
0.0
 14
1.0
 24
1.0
 15
0.0
 25
0.0
 16
0.0
 26
-1.0
 36
0.0
 17
0.0
 27
0.0
 37
0.0
 40
1583.996559
 41
0.688564
 42
50.0
 43
815.290728
 44
-815.290728
 50
0.0
 51
0.0
 71
    16
 72
   100
 73
     1
 74
     1
 75
     0
 76
     0
 77
     0
 78
     0
281
     0
 65
     0
110
0.0
120
0.0
130
0.0
111
1.0
121
0.0
131
0.0
112
0.0
122
1.0
132
0.0
 79
     0
146
0.0
  0
VPORT
  5
13A
330
7
100
AcDbSymbolTableRecord
100
AcDbViewportTableRecord
  2
L4
 70
     0
 10
0.5
 20
0.0
 11
1.0
 21
0.5
 12
0.0
 22
0.0
 13
0.0
 23
0.0
 14
1.0
 24
1.0
 15
0.0
 25
0.0
 16
1.0
 26
0.0
 36
0.0
 17
0.0
 27
0.0
 37
0.0
 40
1583.996559
 41
0.688564
 42
50.0
 43
802.116123
 44
-802.116123
 50
0.0
 51
0.0
 71
    16
 72
   100
 73
     1
 74
     1
 75
     0
 76
     0
 77
     0
 78
     0
281
     0
 65
     0
110
0.0
120
0.0
130
0.0
111
1.0
121
0.0
131
0.0
112
0.0
122
1.0
132
0.0
 79
     0
146
0.0
  0
VPORT
  5
13B
330
7
100
AcDbSymbolTableRecord
100
AcDbViewportTableRecord
  2
L4
 70
     0
 10
0.5
 20
0.5
 11
1.0
 21
1.0
 12
0.0
 22
0.0
 13
0.0
 23
0.0
 14
1.0
 24
1.0
 15
0.0
 25
0.0
 16
0.5773500000000001
 26
-0.5773500000000001
 36
0.5773500000000001
 17
0.0
 27
0.0
 37
0.0
 40
1555.005323
 41
0.6885640000000001
 42
50.0
 43
809.8560009999999
 44
-809.8560009999999
 50
0.0
 51
0.0
 71
    16
 72
   100
 73
     1
 74
     1
 75
     0
 76
     0
 77
     0
 78
     0
281
     0
 65
     0
110
0.0
120
0.0
130
0.0
111
1.0
121
0.0
131
0.0
112
0.0
122
1.0
132
0.0
 79
     0
146
0.0
  0
VPORT
  5
13C
330
7
100
AcDbSymbolTableRecord
100
AcDbViewportTableRecord
  2
L6
 70
     0
 10
0.0
 20
0.5
 11
0.333333
 21
1.0
 12
0.0
 22
0.0
 13
0.0
 23
0.0
 14
1.0
 24
1.0
 15
0.0
 25
0.0
 16
0.718873
 26
-0.5850489999999999
 36
0.375419
 17
0.0
 27
0.0
 37
0.0
 40
1641.004744
 41
0.6885640000000001
 42
50.0
 43
849.6493710000001
 44
-849.6493710000001
 50
0.0
 51
0.0
 71
    16
 72
   100
 73
     1
 74
     1
 75
     0
 76
     0
 77
     0
 78
     0
281
     0
 65
     0
110
0.0
120
0.0
130
0.0
111
1.0
121
0.0
131
0.0
112
0.0
122
1.0
132
0.0
 79
     0
146
0.0
  0
VPORT
  5
13D
330
7
100
AcDbSymbolTableRecord
100
AcDbViewportTableRecord
  2
L6
 70
     0
 10
0.0
 20
0.0
 11
0.333333
 21
0.5
 12
0.0
 22
0.0
 13
0.0
 23
0.0
 14
1.0
 24
1.0
 15
0.0
 25
0.0
 16
-1.0
 26
0.0
 36
0.0
 17
0.0
 27
0.0
 37
0.0
 40
1583.996559
 41
0.688564
 42
50.0
 43
802.116123
 44
-802.116123
 50
0.0
 51
0.0
 71
    16
 72
   100
 73
     1
 74
     1
 75
     0
 76
     0
 77
     0
 78
     0
281
     0
 65
     0
110
0.0
120
0.0
130
0.0
111
1.0
121
0.0
131
0.0
112
0.0
122
1.0
132
0.0
 79
     0
146
0.0
  0
VPORT
  5
13E
330
7
100
AcDbSymbolTableRecord
100
AcDbViewportTableRecord
  2
L6
 70
     0
 10
0.333333
 20
0.5
 11
0.666667
 21
1.0
 12
7.1425
 22
23.892498
 13
0.0
 23
0.0
 14
1.0
 24
1.0
 15
0.0
 25
0.0
 16
0.0
 26
0.0
 36
1.0
 17
0.0
 27
0.0
 37
0.0
 40
254.0
 41
0.6885640000000001
 42
50.0
 43
274.598704
 44
-274.598704
 50
0.0
 51
0.0
 71
    16
 72
   100
 73
     1
 74
     1
 75
     0
 76
     0
 77
     0
 78
     0
281
     0
 65
     0
110
0.0
120
0.0
130
0.0
111
1.0
121
0.0
131
0.0
112
0.0
122
1.0
132
0.0
 79
     0
146
0.0
  0
VPORT
  5
13F
330
7
100
AcDbSymbolTableRecord
100
AcDbViewportTableRecord
  2
L6
 70
     0
 10
0.333333
 20
0.0
 11
0.666667
 21
0.5
 12
0.0
 22
0.0
 13
0.0
 23
0.0
 14
1.0
 24
1.0
 15
0.0
 25
0.0
 16
0.0
 26
-1.0
 36
0.0
 17
0.0
 27
0.0
 37
0.0
 40
1583.996559
 41
0.688564
 42
50.0
 43
815.290728
 44
-815.290728
 50
0.0
 51
0.0
 71
    16
 72
   100
 73
     1
 74
     1
 75
     0
 76
     0
 77
     0
 78
     0
281
     0
 65
     0
110
0.0
120
0.0
130
0.0
111
1.0
121
0.0
131
0.0
112
0.0
122
1.0
132
0.0
 79
     0
146
0.0
  0
VPORT
  5
140
330
7
100
AcDbSymbolTableRecord
100
AcDbViewportTableRecord
  2
L6
 70
     0
 10
0.666667
 20
0.5
 11
1.0
 21
1.0
 12
0.0
 22
0.0
 13
0.0
 23
0.0
 14
1.0
 24
1.0
 15
0.0
 25
0.0
 16
0.5773500000000001
 26
-0.5773500000000001
 36
0.5773500000000001
 17
0.0
 27
0.0
 37
0.0
 40
1555.005323
 41
0.6885640000000001
 42
50.0
 43
809.8560009999999
 44
-809.8560009999999
 50
0.0
 51
0.0
 71
    16
 72
   100
 73
     1
 74
     1
 75
     0
 76
     0
 77
     0
 78
     0
281
     0
 65
     0
110
0.0
120
0.0
130
0.0
111
1.0
121
0.0
131
0.0
112
0.0
122
1.0
132
0.0
 79
     0
146
0.0
  0
VPORT
  5
141
330
7
100
AcDbSymbolTableRecord
100
AcDbViewportTableRecord
  2
L6
 70
     0
 10
0.666667
 20
0.0
 11
1.0
 21
0.5
 12
0.0
 22
0.0
 13
0.0
 23
0.0
 14
1.0
 24
1.0
 15
0.0
 25
0.0
 16
1.0
 26
0.0
 36
0.0
 17
0.0
 27
0.0
 37
0.0
 40
1583.996559
 41
0.688564
 42
50.0
 43
802.116123
 44
-802.116123
 50
0.0
 51
0.0
 71
    16
 72
   100
 73
     1
 74
     1
 75
     0
 76
     0
 77
     0
 78
     0
281
     0
 65
     0
110
0.0
120
0.0
130
0.0
111
1.0
121
0.0
131
0.0
112
0.0
122
1.0
132
0.0
 79
     0
146
0.0
  0
ENDTAB
  0
TABLE
  2
LTYPE
  5
4
330
0
100
AcDbSymbolTable
 70
     9
  0
LTYPE
  5
11
330
4
100
AcDbSymbolTableRecord
100
AcDbLinetypeTableRecord
  2
ByBlock
 70
     0
  3

 72
    65
 73
     0
 40
0.0
  0
LTYPE
  5
12
330
4
100
AcDbSymbolTableRecord
100
AcDbLinetypeTableRecord
  2
ByLayer
 70
     0
  3

 72
    65
 73
     0
 40
0.0
  0
LTYPE
  5
13
330
4
100
AcDbSymbolTableRecord
100
AcDbLinetypeTableRecord
  2
Continuous
 70
     0
  3
Solid line
 72
    65
 73
     0
 40
0.0
  0
LTYPE
  5
24
330
4
100
AcDbSymbolTableRecord
100
AcDbLinetypeTableRecord
  2
DASHED
 70
     0
  3
Dashed
 72
    65
 73
     2
 40
15.0
 49
12.0
 74
     4
 75
     0
340
0
 46
0.0
 50
0.0
 44
0.0
 45
0.0
 49
-3.0
 74
     4
 75
     0
340
0
 46
0.0
 50
0.0
 44
0.0
 45
0.0
  0
LTYPE
  5
25
330
4
100
AcDbSymbolTableRecord
100
AcDbLinetypeTableRecord
  2
HIDDEN
 70
     0
  3
Hidden __ __ __ __ __ __ __ __ __ __ __ __ __ _
 72
    65
 73
     2
 40
9.524999999999996
 49
6.349999999999997
 74
     4
 75
     0
340
0
 46
0.0
 50
0.0
 44
0.0
 45
0.0
 49
-3.174999999999998
 74
     4
 75
     0
340
0
 46
0.0
 50
0.0
 44
0.0
 45
0.0
  0
LTYPE
  5
26
330
4
100
AcDbSymbolTableRecord
100
AcDbLinetypeTableRecord
  2
PHANTOM
 70
     0
  3
____ _ _ ____ _ _ _____ _ _ ____
 72
    65
 73
     6
 40
50.5
 49
18.0
 74
     0
 49
-6.5
 74
     0
 49
6.5
 74
     0
 49
-6.5
 74
     0
 49
6.5
 74
     0
 49
-6.5
 74
     0
  0
LTYPE
  5
27
330
4
100
AcDbSymbolTableRecord
100
AcDbLinetypeTableRecord
  2
CENTER
 70
     0
  3
Dash dot __ . __ . __ . __ . __ . __ . __ . __
 72
    65
 73
     4
 40
25.4
 49
12.7
 74
     4
 75
     0
340
0
 46
0.0
 50
0.0
 44
0.0
 45
0.0
 49
-6.349999999999997
 74
     4
 75
     0
340
0
 46
0.0
 50
0.0
 44
0.0
 45
0.0
 49
0.0
 74
     4
 75
     0
340
0
 46
0.0
 50
0.0
 44
0.0
 45
0.0
 49
-6.349999999999997
 74
     4
 75
     0
340
0
 46
0.0
 50
0.0
 44
0.0
 45
0.0
  0
LTYPE
  5
28
330
4
100
AcDbSymbolTableRecord
100
AcDbLinetypeTableRecord
  2
DOT
 70
     0
  3
.........................
 72
    65
 73
     2
 40
10.0
 49
0.0
 74
     0
 49
-10.0
 74
     0
  0
LTYPE
  5
29
330
4
100
AcDbSymbolTableRecord
100
AcDbLinetypeTableRecord
  2
DASHDOT
 70
     0
  3
_._._._._._._._._._._._._._._._.
 72
    65
 73
     4
 40
70.0
 49
31.0
 74
     0
 49
-13.0
 74
     0
 49
13.0
 74
     0
 49
-13.0
 74
     0
  0
LTYPE
  5
167
330
4
100
AcDbSymbolTableRecord
100
AcDbLinetypeTableRecord
  2
DOT_CENTER
 70
     0
  3
Dot_Center
 72
    65
 73
     4
 40
2.0
 49
1.25
 74
     4
 75
     0
340
0
 46
0.0
 50
0.0
 44
0.0
 45
0.0
 49
-0.25
 74
     4
 75
     0
340
0
 46
0.0
 50
0.0
 44
0.0
 45
0.0
 49
0.25
 74
     4
 75
     0
340
0
 46
0.0
 50
0.0
 44
0.0
 45
0.0
 49
-0.25
 74
     4
 75
     0
340
0
 46
0.0
 50
0.0
 44
0.0
 45
0.0
  0
LTYPE
  5
168
330
4
100
AcDbSymbolTableRecord
100
AcDbLinetypeTableRecord
  2
LONG_DASHED
 70
     0
  3
Long_Dashed
 72
    65
 73
     2
 40
2.0
 49
1.5
 74
     4
 75
     0
340
0
 46
0.0
 50
0.0
 44
0.0
 45
0.0
 49
-0.5
 74
     4
 75
     0
340
0
 46
0.0
 50
0.0
 44
0.0
 45
0.0
  0
ENDTAB
  0
TABLE
  2
LAYER
  5
2
330
0
100
AcDbSymbolTable
 70
    11
  0
LAYER
  5
14
102
{ACAD_XDICTIONARY
360
1C1
102
}
330
2
100
AcDbSymbolTableRecord
100
AcDbLayerTableRecord
  2
0
 70
     0
 62
     7
  6
Continuous
370
    -3
390
1D
  0
LAYER
  5
182
330
2
100
AcDbSymbolTableRecord
100
AcDbLayerTableRecord
  2
DEFPOINTS
 70
     0
 62
     7
  6
Continuous
290
     0
370
    -3
390
1D
  0
LAYER
  5
183
102
{ACAD_XDICTIONARY
360
1C3
102
}
330
2
100
AcDbSymbolTableRecord
100
AcDbLayerTableRecord
  2
NOCUT
 70
     0
 62
     7
  6
Continuous
370
    -3
390
1D
  0
LAYER
  5
184
102
{ACAD_XDICTIONARY
360
1C5
102
}
330
2
100
AcDbSymbolTableRecord
100
AcDbLayerTableRecord
  2
CUT
 70
     0
 62
     1
  6
Continuous
370
    -3
390
1D
  0
LAYER
  5
185
102
{ACAD_XDICTIONARY
360
1C7
102
}
330
2
100
AcDbSymbolTableRecord
100
AcDbLayerTableRecord
  2
1
 70
     0
 62
     4
  6
Continuous
370
    -3
390
1D
  0
LAYER
  5
186
102
{ACAD_XDICTIONARY
360
1C9
102
}
330
2
100
AcDbSymbolTableRecord
100
AcDbLayerTableRecord
  2
SK1
 70
     0
 62
     4
  6
Continuous
370
    -3
390
1D
  0
LAYER
  5
187
102
{ACAD_XDICTIONARY
360
1CB
102
}
330
2
100
AcDbSymbolTableRecord
100
AcDbLayerTableRecord
  2
SK4
 70
     0
 62
     2
  6
CENTER
370
    -3
390
1D
  0
LAYER
  5
188
102
{ACAD_XDICTIONARY
360
1CD
102
}
330
2
100
AcDbSymbolTableRecord
100
AcDbLayerTableRecord
  2
4
 70
     0
 62
     2
  6
CENTER
370
    -3
390
1D
  0
LAYER
  5
189
102
{ACAD_XDICTIONARY
360
1CF
102
}
330
2
100
AcDbSymbolTableRecord
100
AcDbLayerTableRecord
  2
SK6
 70
     0
 62
     5
  6
Continuous
370
    -3
390
1D
  0
LAYER
  5
18A
102
{ACAD_XDICTIONARY
360
1D1
102
}
330
2
100
AcDbSymbolTableRecord
100
AcDbLayerTableRecord
  2
2
 70
     0
 62
     7
  6
Continuous
370
    -3
390
1D
  0
LAYER
  5
18B
102
{ACAD_XDICTIONARY
360
1D3
102
}
330
2
100
AcDbSymbolTableRecord
100
AcDbLayerTableRecord
  2
SK2
 70
     0
 62
     7
  6
Continuous
370
    -3
390
1D
  0
ENDTAB
  0
TABLE
  2
STYLE
  5
3
330
0
100
AcDbSymbolTable
 70
     5
  0
STYLE
  5
17
330
3
100
AcDbSymbolTableRecord
100
AcDbTextStyleTableRecord
  2
Standard
 70
     0
 40
0.0
 41
1.0
 50
0.0
 71
     0
 42
5.0
  3
txt
  4

  0
STYLE
  5
E8
330
3
100
AcDbSymbolTableRecord
100
AcDbTextStyleTableRecord
  2
blockfont
 70
     0
 40
0.0
 41
1.0
 50
0.0
 71
     0
 42
0.2
  3
simplex.shx
  4

  0
STYLE
  5
164
330
3
100
AcDbSymbolTableRecord
100
AcDbTextStyleTableRecord
  2
TXT
 70
     0
 40
8.0
 41
1.0
 50
0.0
 71
     0
 42
8.0
  3
txt
  4

  0
STYLE
  5
165
330
3
100
AcDbSymbolTableRecord
100
AcDbTextStyleTableRecord
  2
SIMPLEX
 70
     0
 40
0.0
 41
1.0
 50
0.0
 71
     0
 42
3.5
  3
simplex
  4

  0
STYLE
  5
166
330
3
100
AcDbSymbolTableRecord
100
AcDbTextStyleTableRecord
  2
S07
 70
     0
 40
0.0
 41
0.7
 50
0.0
 71
     0
 42
2.5
  3
SIMPLEX.shx
  4

  0
ENDTAB
  0
TABLE
  2
VIEW
  5
5
330
0
100
AcDbSymbolTable
 70
     8
  0
VIEW
  5
12A
330
5
100
AcDbSymbolTableRecord
100
AcDbViewTableRecord
  2
TOP
 70
     0
 40
254.0
 10
7.1425
 20
23.892498
 41
386.976471
 11
0.0
 21
0.0
 31
1.0
 12
0.0
 22
0.0
 32
0.0
 42
50.0
 43
274.598704
 44
-274.598704
 50
0.0
 71
    16
281
     0
 72
     0
  0
VIEW
  5
12B
330
5
100
AcDbSymbolTableRecord
100
AcDbViewTableRecord
  2
FRONT
 70
     0
 40
1583.996559
 10
0.0
 20
0.0
 41
386.976471
 11
0.0
 21
-1.0
 31
0.0
 12
0.0
 22
0.0
 32
0.0
 42
50.0
 43
815.290728
 44
-815.290728
 50
0.0
 71
    16
281
     0
 72
     0
  0
VIEW
  5
12C
330
5
100
AcDbSymbolTableRecord
100
AcDbViewTableRecord
  2
RIGHT
 70
     0
 40
1583.996559
 10
0.0
 20
0.0
 41
254.0
 11
1.0
 21
0.0
 31
0.0
 12
0.0
 22
0.0
 32
0.0
 42
50.0
 43
802.116123
 44
-802.116123
 50
0.0
 71
    16
281
     0
 72
     0
  0
VIEW
  5
12D
330
5
100
AcDbSymbolTableRecord
100
AcDbViewTableRecord
  2
BACK
 70
     0
 40
1583.996559
 10
0.0
 20
0.0
 41
386.976471
 11
0.0
 21
1.0
 31
0.0
 12
0.0
 22
0.0
 32
0.0
 42
50.0
 43
815.290728
 44
-815.290728
 50
0.0
 71
    16
281
     0
 72
     0
  0
VIEW
  5
12E
330
5
100
AcDbSymbolTableRecord
100
AcDbViewTableRecord
  2
BOTTOM
 70
     0
 40
254.0
 10
0.0
 20
0.0
 41
386.976471
 11
0.0
 21
0.0
 31
-1.0
 12
0.0
 22
0.0
 32
0.0
 42
50.0
 43
791.99828
 44
-791.99828
 50
180.0
 71
    16
281
     0
 72
     0
  0
VIEW
  5
12F
330
5
100
AcDbSymbolTableRecord
100
AcDbViewTableRecord
  2
LEFT
 70
     0
 40
1583.996559
 10
0.0
 20
0.0
 41
254.0
 11
-1.0
 21
0.0
 31
0.0
 12
0.0
 22
0.0
 32
0.0
 42
50.0
 43
802.116123
 44
-802.116123
 50
0.0
 71
    16
281
     0
 72
     0
  0
VIEW
  5
130
330
5
100
AcDbSymbolTableRecord
100
AcDbViewTableRecord
  2
TFR-ISO
 70
     0
 40
1555.005323
 10
0.0
 20
0.0
 41
453.238809
 11
0.5773500000000001
 21
-0.5773500000000001
 31
0.5773500000000001
 12
0.0
 22
0.0
 32
0.0
 42
50.0
 43
809.8560009999999
 44
-809.8560009999999
 50
0.0
 71
    16
281
     0
 72
     0
  0
VIEW
  5
131
330
5
100
AcDbSymbolTableRecord
100
AcDbViewTableRecord
  2
TFR-TRI
 70
     0
 40
1641.004744
 10
0.0
 20
0.0
 41
441.270493
 11
0.718873
 21
-0.5850489999999999
 31
0.375419
 12
0.0
 22
0.0
 32
0.0
 42
50.0
 43
849.6493710000001
 44
-849.6493710000001
 50
0.0
 71
    16
281
     0
 72
     0
  0
ENDTAB
  0
TABLE
  2
UCS
  5
6
330
0
100
AcDbSymbolTable
 70
     0
  0
ENDTAB
  0
TABLE
  2
APPID
  5
8
330
0
100
AcDbSymbolTable
 70
     3
  0
APPID
  5
16
330
8
100
AcDbSymbolTableRecord
100
AcDbRegAppTableRecord
  2
ACAD
 70
     0
  0
APPID
  5
1D7
330
8
100
AcDbSymbolTableRecord
100
AcDbRegAppTableRecord
  2
DCO15
 70
     0
  0
APPID
  5
211
330
8
100
AcDbSymbolTableRecord
100
AcDbRegAppTableRecord
  2
ACAD_MLEADERVER
 70
     0
  0
ENDTAB
  0
TABLE
  2
DIMSTYLE
  5
9
330
0
100
AcDbSymbolTable
 70
     1
100
AcDbDimStyleTable
 71
     0
  0
DIMSTYLE
105
18
102
{ACAD_REACTORS
330
F4
330
100
330
10B
330
115
330
11F
330
129
102
}
330
9
100
AcDbSymbolTableRecord
100
AcDbDimStyleTableRecord
  2
Standard
 70
     0
340
17
  0
ENDTAB
  0
TABLE
  2
BLOCK_RECORD
  5
1
330
0
100
AcDbSymbolTable
 70
     6
  0
BLOCK_RECORD
  5
A
330
1
100
AcDbSymbolTableRecord
100
AcDbBlockTableRecord
  2
*MODEL_SPACE
340
20
  0
BLOCK_RECORD
  5
B
330
1
100
AcDbSymbolTableRecord
100
AcDbBlockTableRecord
  2
*PAPER_SPACE
340
21
  0
BLOCK_RECORD
  5
EA
330
1
100
AcDbSymbolTableRecord
100
AcDbBlockTableRecord
  2
_D0
340
0
  0
BLOCK_RECORD
  5
F5
330
1
100
AcDbSymbolTableRecord
100
AcDbBlockTableRecord
  2
_D1
340
0
  0
BLOCK_RECORD
  5
101
330
1
100
AcDbSymbolTableRecord
100
AcDbBlockTableRecord
  2
_D2
340
0
  0
BLOCK_RECORD
  5
10C
330
1
100
AcDbSymbolTableRecord
100
AcDbBlockTableRecord
  2
_D3
340
0
  0
BLOCK_RECORD
  5
116
330
1
100
AcDbSymbolTableRecord
100
AcDbBlockTableRecord
  2
_D4
340
0
  0
BLOCK_RECORD
  5
120
330
1
100
AcDbSymbolTableRecord
100
AcDbBlockTableRecord
  2
_D5
340
0
  0
ENDTAB
  0
ENDSEC
  0
SECTION
  2
BLOCKS
  0
BLOCK
  5
D
330
A
100
AcDbEntity
  8
0
390
1D
100
AcDbBlockBegin
  2
*MODEL_SPACE
 70
     0
 10
0.0
 20
0.0
 30
0.0
  3
*MODEL_SPACE
  1

  0
ENDBLK
  5
E
330
A
100
AcDbEntity
  8
0
390
1D
100
AcDbBlockEnd
  0
BLOCK
  5
F
330
B
100
AcDbEntity
 67
     1
  8
0
390
1D
100
AcDbBlockBegin
  2
*PAPER_SPACE
 70
     0
 10
0.0
 20
0.0
 30
0.0
  3
*PAPER_SPACE
  1

  0
ENDBLK
  5
10
330
B
100
AcDbEntity
 67
     1
  8
0
390
1D
100
AcDbBlockEnd
  0
BLOCK
  5
EB
330
EA
100
AcDbEntity
  8
0
390
1D
100
AcDbBlockBegin
  2
_D0
 70
     0
 10
0.0
 20
0.0
 30
0.0
  3
_D0
  1

  0
MTEXT
  5
EC
330
EA
100
AcDbEntity
  8
2
390
1D
100
AcDbMText
 10
6.891603999999999
 20
75.739271
 30
0.0
 40
4.57
 41
0.0
 71
     7
 72
     5
  1
\W01.000;\Fsimplex.shx;21
  7
SIMPLEX
 73
     2
 44
0.9036139999999999
1001
ACAD
1000
MTEXTBEGIN
1070
    73
1070
     2
1070
    44
1040
0.9036139999999999
1070
    74
1070
     0
1000
MTEXTEND
  0
LINE
  5
EE
330
EA
100
AcDbEntity
  8
2
390
1D
100
AcDbLine
 10
0.0
 20
0.0
 30
0.0
 11
0.0
 21
78.43
 31
0.0
  0
LINE
  5
EF
330
EA
100
AcDbEntity
  8
2
390
1D
100
AcDbLine
 10
21.0
 20
0.0
 30
0.0
 11
21.0
 21
78.43
 31
0.0
  0
LINE
  5
F0
330
EA
100
AcDbEntity
  8
2
390
1D
100
AcDbLine
 10
-11.425
 20
74.93000000000001
 30
0.0
 11
32.425
 21
74.93000000000001
 31
0.0
  0
SOLID
  5
F1
330
EA
100
AcDbEntity
  8
2
390
1D
100
AcDbTrace
 10
0.0
 20
74.93000000000001
 30
0.0
 11
-4.569998
 21
74.32834799999999
 31
0.0
 12
-4.570001999999999
 22
75.53165200000001
 32
0.0
 13
0.0
 23
74.93000000000001
 33
0.0
  0
SOLID
  5
F2
330
EA
100
AcDbEntity
  8
2
390
1D
100
AcDbTrace
 10
21.0
 20
74.93000000000001
 30
0.0
 11
25.569998
 21
75.53165200000001
 31
0.0
 12
25.570002
 22
74.32834799999999
 32
0.0
 13
21.0
 23
74.93000000000001
 33
0.0
  0
ENDBLK
  5
F3
330
EA
100
AcDbEntity
  8
0
390
1D
100
AcDbBlockEnd
  0
BLOCK
  5
F6
330
F5
100
AcDbEntity
  8
0
390
1D
100
AcDbBlockBegin
  2
_D1
 70
     0
 10
0.0
 20
0.0
 30
0.0
  3
_D1
  1

  0
MTEXT
  5
F7
330
F5
100
AcDbEntity
  8
SK2
390
1D
100
AcDbMText
 10
-52.73927099999999
 20
21.6375
 30
0.0
 40
4.57
 41
0.0
 71
     7
 72
     5
  1
\W01.000;\Fsimplex.shx;6
  7
SIMPLEX
 11
0.0
 21
1.0
 31
0.0
 73
     2
 44
0.9036139999999999
1001
ACAD
1000
MTEXTBEGIN
1070
    73
1070
     2
1070
    44
1040
0.9036139999999999
1070
    74
1070
     0
1000
MTEXTEND
  0
MTEXT
  5
F9
330
F5
100
AcDbEntity
  8
SK2
390
1D
100
AcDbMText
 10
-52.73927099999999
 20
12.533203
 30
0.0
 40
4.57
 41
0.0
 71
     7
 72
     5
  1
\W01.000;\Fsimplex.shx;%%c
  7
SIMPLEX
 11
0.0
 21
1.0
 31
0.0
 73
     2
 44
0.9036139999999999
1001
ACAD
1000
MTEXTBEGIN
1070
    73
1070
     2
1070
    44
1040
0.9036139999999999
1070
    74
1070
     0
1000
MTEXTEND
  0
LINE
  5
FA
330
F5
100
AcDbEntity
  8
SK2
390
1D
100
AcDbLine
 10
-35.6
 20
3.0
 30
0.0
 11
-54.2875
 21
3.0
 31
0.0
  0
LINE
  5
FB
330
F5
100
AcDbEntity
  8
SK2
390
1D
100
AcDbLine
 10
-35.6
 20
-3.0
 30
0.0
 11
-54.2875
 21
-3.0
 31
0.0
  0
LINE
  5
FC
330
F5
100
AcDbEntity
  8
SK2
390
1D
100
AcDbLine
 10
-50.7875
 20
-14.425
 30
0.0
 11
-50.7875
 21
25.017396
 31
0.0
  0
SOLID
  5
FD
330
F5
100
AcDbEntity
  8
SK2
390
1D
100
AcDbTrace
 10
-50.7875
 20
3.0
 30
0.0
 11
-51.389152
 21
7.569998
 31
0.0
 12
-50.185848
 22
7.570002
 32
0.0
 13
-50.7875
 23
3.0
 33
0.0
  0
SOLID
  5
FE
330
F5
100
AcDbEntity
  8
SK2
390
1D
100
AcDbTrace
 10
-50.7875
 20
-3.0
 30
0.0
 11
-50.185848
 21
-7.569998
 31
0.0
 12
-51.389152
 22
-7.570002
 32
0.0
 13
-50.7875
 23
-3.0
 33
0.0
  0
ENDBLK
  5
FF
330
F5
100
AcDbEntity
  8
0
390
1D
100
AcDbBlockEnd
  0
BLOCK
  5
102
330
101
100
AcDbEntity
  8
0
390
1D
100
AcDbBlockBegin
  2
_D2
 70
     0
 10
0.0
 20
0.0
 30
0.0
  3
_D2
  1

  0
MTEXT
  5
103
330
101
100
AcDbEntity
  8
2
390
1D
100
AcDbMText
 10
70.26072899999999
 20
19.4125
 30
0.0
 40
4.57
 41
0.0
 71
     7
 72
     5
  1
\W01.000;\Fsimplex.shx;1.55
  7
SIMPLEX
 11
0.0
 21
1.0
 31
0.0
 73
     2
 44
0.9036139999999999
1001
ACAD
1000
MTEXTBEGIN
1070
    73
1070
     2
1070
    44
1040
0.9036139999999999
1070
    74
1070
     0
1000
MTEXTEND
  0
MTEXT
  5
104
330
101
100
AcDbEntity
  8
2
390
1D
100
AcDbMText
 10
70.26072899999999
 20
10.308203
 30
0.0
 40
4.57
 41
0.0
 71
     7
 72
     5
  1
\W01.000;\Fsimplex.shx;%%c
  7
SIMPLEX
 11
0.0
 21
1.0
 31
0.0
 73
     2
 44
0.9036139999999999
1001
ACAD
1000
MTEXTBEGIN
1070
    73
1070
     2
1070
    44
1040
0.9036139999999999
1070
    74
1070
     0
1000
MTEXTEND
  0
LINE
  5
105
330
101
100
AcDbEntity
  8
2
390
1D
100
AcDbLine
 10
21.0
 20
-0.775
 30
0.0
 11
74.2125
 21
-0.775
 31
0.0
  0
LINE
  5
106
330
101
100
AcDbEntity
  8
2
390
1D
100
AcDbLine
 10
21.0
 20
0.775
 30
0.0
 11
74.2125
 21
0.775
 31
0.0
  0
LINE
  5
107
330
101
100
AcDbEntity
  8
2
390
1D
100
AcDbLine
 10
72.21250000000001
 20
37.73058300000001
 30
0.0
 11
72.21250000000001
 21
-12.2
 31
0.0
  0
SOLID
  5
108
330
101
100
AcDbEntity
  8
2
390
1D
100
AcDbTrace
 10
72.21250000000001
 20
-0.775
 30
0.0
 11
72.81415200000001
 21
-5.344998
 31
0.0
 12
71.61084800000001
 22
-5.345002
 32
0.0
 13
72.21250000000001
 23
-0.775
 33
0.0
  0
SOLID
  5
109
330
101
100
AcDbEntity
  8
2
390
1D
100
AcDbTrace
 10
72.21250000000001
 20
0.775
 30
0.0
 11
71.61084800000001
 21
5.344998
 31
0.0
 12
72.81415200000001
 22
5.345002
 32
0.0
 13
72.21250000000001
 23
0.775
 33
0.0
  0
ENDBLK
  5
10A
330
101
100
AcDbEntity
  8
0
390
1D
100
AcDbBlockEnd
  0
BLOCK
  5
10D
330
10C
100
AcDbEntity
  8
0
390
1D
100
AcDbBlockBegin
  2
_D3
 70
     0
 10
0.0
 20
0.0
 30
0.0
  3
_D3
  1

  0
MTEXT
  5
10E
330
10C
100
AcDbEntity
  8
2
390
1D
100
AcDbMText
 10
28.2125
 20
60.73927099999999
 30
0.0
 40
4.57
 41
0.0
 71
     7
 72
     5
  1
\W01.000;\Fsimplex.shx;4.6
  7
SIMPLEX
 73
     2
 44
0.9036139999999999
1001
ACAD
1000
MTEXTBEGIN
1070
    73
1070
     2
1070
    44
1040
0.9036139999999999
1070
    74
1070
     0
1000
MTEXTEND
  0
LINE
  5
10F
330
10C
100
AcDbEntity
  8
2
390
1D
100
AcDbLine
 10
21.0
 20
0.0
 30
0.0
 11
21.0
 21
63.42999999999999
 31
0.0
  0
LINE
  5
110
330
10C
100
AcDbEntity
  8
2
390
1D
100
AcDbLine
 10
16.4
 20
0.0
 30
0.0
 11
16.4
 21
63.42999999999999
 31
0.0
  0
LINE
  5
111
330
10C
100
AcDbEntity
  8
2
390
1D
100
AcDbLine
 10
4.974999999999999
 20
59.93
 30
0.0
 11
41.551187
 21
59.93
 31
0.0
  0
SOLID
  5
112
330
10C
100
AcDbEntity
  8
2
390
1D
100
AcDbTrace
 10
21.0
 20
59.93
 30
0.0
 11
25.569998
 21
60.531652
 31
0.0
 12
25.570002
 22
59.328348
 32
0.0
 13
21.0
 23
59.93
 33
0.0
  0
SOLID
  5
113
330
10C
100
AcDbEntity
  8
2
390
1D
100
AcDbTrace
 10
16.4
 20
59.93
 30
0.0
 11
11.830002
 21
59.328348
 31
0.0
 12
11.829998
 22
60.531652
 32
0.0
 13
16.4
 23
59.93
 33
0.0
  0
ENDBLK
  5
114
330
10C
100
AcDbEntity
  8
0
390
1D
100
AcDbBlockEnd
  0
BLOCK
  5
117
330
116
100
AcDbEntity
  8
0
390
1D
100
AcDbBlockBegin
  2
_D4
 70
     0
 10
0.0
 20
0.0
 30
0.0
  3
_D4
  1

  0
MTEXT
  5
118
330
116
100
AcDbEntity
  8
2
390
1D
100
AcDbMText
 10
28.2125
 20
45.739278
 30
0.0
 40
4.57
 41
0.0
 71
     7
 72
     5
  1
\W01.000;\Fsimplex.shx;1.2
  7
SIMPLEX
 73
     2
 44
0.9036139999999999
1001
ACAD
1000
MTEXTBEGIN
1070
    73
1070
     2
1070
    44
1040
0.9036139999999999
1070
    74
1070
     0
1000
MTEXTEND
  0
LINE
  5
119
330
116
100
AcDbEntity
  8
2
390
1D
100
AcDbLine
 10
19.8
 20
0.0
 30
0.0
 11
19.8
 21
46.930007
 31
0.0
  0
LINE
  5
11A
330
116
100
AcDbEntity
  8
2
390
1D
100
AcDbLine
 10
21.0
 20
0.0
 30
0.0
 11
21.0
 21
46.930007
 31
0.0
  0
LINE
  5
11B
330
116
100
AcDbEntity
  8
2
390
1D
100
AcDbLine
 10
41.551187
 20
44.930007
 30
0.0
 11
8.375
 21
44.930007
 31
0.0
  0
SOLID
  5
11C
330
116
100
AcDbEntity
  8
2
390
1D
100
AcDbTrace
 10
19.8
 20
44.930007
 30
0.0
 11
15.230002
 21
44.328355
 31
0.0
 12
15.229998
 22
45.531659
 32
0.0
 13
19.8
 23
44.930007
 33
0.0
  0
SOLID
  5
11D
330
116
100
AcDbEntity
  8
2
390
1D
100
AcDbTrace
 10
21.0
 20
44.930007
 30
0.0
 11
25.569998
 21
45.531659
 31
0.0
 12
25.570002
 22
44.328355
 32
0.0
 13
21.0
 23
44.930007
 33
0.0
  0
ENDBLK
  5
11E
330
116
100
AcDbEntity
  8
0
390
1D
100
AcDbBlockEnd
  0
BLOCK
  5
121
330
120
100
AcDbEntity
  8
0
390
1D
100
AcDbBlockBegin
  2
_D5
 70
     0
 10
0.0
 20
0.0
 30
0.0
  3
_D5
  1

  0
MTEXT
  5
122
330
120
100
AcDbEntity
  8
SK2
390
1D
100
AcDbMText
 10
-11.108396
 20
90.739271
 30
0.0
 40
4.57
 41
0.0
 71
     7
 72
     5
  1
\W01.000;\Fsimplex.shx;57
  7
SIMPLEX
 73
     2
 44
0.9036139999999999
1001
ACAD
1000
MTEXTBEGIN
1070
    73
1070
     2
1070
    44
1040
0.9036139999999999
1070
    74
1070
     0
1000
MTEXTEND
  0
LINE
  5
123
330
120
100
AcDbEntity
  8
SK2
390
1D
100
AcDbLine
 10
-36.0
 20
0.0
 30
0.0
 11
-36.0
 21
91.93000000000001
 31
0.0
  0
LINE
  5
124
330
120
100
AcDbEntity
  8
SK2
390
1D
100
AcDbLine
 10
21.0
 20
0.0
 30
0.0
 11
21.0
 21
91.93000000000001
 31
0.0
  0
LINE
  5
125
330
120
100
AcDbEntity
  8
SK2
390
1D
100
AcDbLine
 10
-36.0
 20
89.93
 30
0.0
 11
21.0
 21
89.93
 31
0.0
  0
SOLID
  5
126
330
120
100
AcDbEntity
  8
SK2
390
1D
100
AcDbTrace
 10
-36.0
 20
89.93
 30
0.0
 11
-31.430002
 21
90.531652
 31
0.0
 12
-31.429998
 22
89.328348
 32
0.0
 13
-36.0
 23
89.93
 33
0.0
  0
SOLID
  5
127
330
120
100
AcDbEntity
  8
SK2
390
1D
100
AcDbTrace
 10
21.0
 20
89.93
 30
0.0
 11
16.430002
 21
89.328348
 31
0.0
 12
16.429998
 22
90.531652
 32
0.0
 13
21.0
 23
89.93
 33
0.0
  0
ENDBLK
  5
128
330
120
100
AcDbEntity
  8
0
390
1D
100
AcDbBlockEnd
  0
ENDSEC
  0
SECTION
  2
ENTITIES
  0
POINT
  5
2A
330
A
100
AcDbEntity
  8
DEFPOINTS
390
1D
100
AcDbPoint
 10
19.8
 20
0.0
 30
0.0
  0
POINT
  5
2C
330
A
100
AcDbEntity
  8
DEFPOINTS
390
1D
100
AcDbPoint
 10
21.0
 20
0.0
 30
0.0
  0
POINT
  5
2D
330
A
100
AcDbEntity
  8
DEFPOINTS
390
1D
100
AcDbPoint
 10
0.0
 20
0.0
 30
0.0
  0
POINT
  5
2E
330
A
100
AcDbEntity
  8
DEFPOINTS
390
1D
100
AcDbPoint
 10
21.0
 20
0.775
 30
0.0
  0
POINT
  5
2F
330
A
100
AcDbEntity
  8
DEFPOINTS
390
1D
100
AcDbPoint
 10
-36.0
 20
0.0
 30
0.0
  0
POINT
  5
30
330
A
100
AcDbEntity
  8
DEFPOINTS
390
1D
100
AcDbPoint
 10
21.0
 20
-0.775
 30
0.0
  0
POINT
  5
31
330
A
100
AcDbEntity
  8
DEFPOINTS
390
1D
100
AcDbPoint
 10
19.8
 20
-0.4900000000000001
 30
0.0
  0
POINT
  5
32
330
A
100
AcDbEntity
  8
DEFPOINTS
390
1D
100
AcDbPoint
 10
19.8
 20
0.4900000000000001
 30
0.0
  0
POINT
  5
33
330
A
100
AcDbEntity
  8
DEFPOINTS
390
1D
100
AcDbPoint
 10
16.4
 20
0.0
 30
0.0
  0
LINE
  5
41
330
A
100
AcDbEntity
  8
CUT
390
1D
100
AcDbLine
 10
19.8
 20
-0.775
 30
0.0
 11
19.8
 21
0.775
 31
0.0
  0
LINE
  5
43
330
A
100
AcDbEntity
  8
CUT
390
1D
100
AcDbLine
 10
21.0
 20
0.775
 30
0.0
 11
19.8
 21
0.775
 31
0.0
  0
LINE
  5
44
330
A
100
AcDbEntity
  8
CUT
390
1D
100
AcDbLine
 10
21.0
 20
0.775
 30
0.0
 11
21.0
 21
0.607341
 31
0.0
  0
LINE
  5
45
330
A
100
AcDbEntity
  8
CUT
390
1D
100
AcDbLine
 10
21.0
 20
0.607341
 30
0.0
 11
21.0
 21
-0.775
 31
0.0
  0
LINE
  5
48
330
A
100
AcDbEntity
  8
CUT
390
1D
100
AcDbLine
 10
19.8
 20
-0.775
 30
0.0
 11
21.0
 21
-0.775
 31
0.0
  0
LINE
  5
49
330
A
100
AcDbEntity
  8
1
390
1D
100
AcDbLine
 10
20.56
 20
-0.177123
 30
0.0
 11
20.56
 21
0.4768310000000001
 31
0.0
  0
LINE
  5
4B
330
A
100
AcDbEntity
  8
1
390
1D
100
AcDbLine
 10
20.370481
 20
-0.231791
 30
0.0
 11
20.370481
 21
0.478296
 31
0.0
  0
LINE
  5
4C
330
A
100
AcDbEntity
  8
1
390
1D
100
AcDbLine
 10
20.429519
 20
-0.246838
 30
0.0
 11
20.429519
 21
0.466071
 31
0.0
  0
LINE
  5
4D
330
A
100
AcDbEntity
  8
1
390
1D
100
AcDbLine
 10
0.0
 20
3.0
 30
0.0
 11
0.0
 21
-3.0
 31
0.0
  0
LINE
  5
4E
330
A
100
AcDbEntity
  8
1
390
1D
100
AcDbLine
 10
20.829519
 20
-0.345881
 30
0.0
 11
20.829519
 21
0.379288
 31
0.0
  0
LINE
  5
4F
330
A
100
AcDbEntity
  8
1
390
1D
100
AcDbLine
 10
20.96
 20
-0.245603
 30
0.0
 11
20.96
 21
0.4341540000000001
 31
0.0
  0
LINE
  5
50
330
A
100
AcDbEntity
  8
1
390
1D
100
AcDbLine
 10
0.0
 20
-3.0
 30
0.0
 11
9.503832
 21
-3.0
 31
0.0
  0
LINE
  5
51
330
A
100
AcDbEntity
  8
1
390
1D
100
AcDbLine
 10
9.503832
 20
3.0
 30
0.0
 11
9.503832
 21
0.517985
 31
0.0
  0
LINE
  5
52
330
A
100
AcDbEntity
  8
1
390
1D
100
AcDbLine
 10
20.770481
 20
-0.331626
 30
0.0
 11
20.770481
 21
0.392494
 31
0.0
  0
LINE
  5
53
330
A
100
AcDbEntity
  8
1
390
1D
100
AcDbLine
 10
20.64
 20
-0.191811
 30
0.0
 11
20.64
 21
0.4690050000000001
 31
0.0
  0
LINE
  5
54
330
A
100
AcDbEntity
  8
1
390
1D
100
AcDbLine
 10
9.503832
 20
3.0
 30
0.0
 11
0.0
 21
3.0
 31
0.0
  0
LINE
  5
55
330
A
100
AcDbEntity
  8
1
390
1D
100
AcDbLine
 10
19.970481
 20
-0.127814
 30
0.0
 11
19.970481
 21
0.556375
 31
0.0
  0
LINE
  5
56
330
A
100
AcDbEntity
  8
1
390
1D
100
AcDbLine
 10
20.24
 20
-0.120942
 30
0.0
 11
20.24
 21
0.504339
 31
0.0
  0
LINE
  5
57
330
A
100
AcDbEntity
  8
1
390
1D
100
AcDbLine
 10
20.029519
 20
-0.14334
 30
0.0
 11
20.029519
 21
0.5454130000000001
 31
0.0
  0
LINE
  5
58
330
A
100
AcDbEntity
  8
1
390
1D
100
AcDbLine
 10
9.503832
 20
-3.0
 30
0.0
 11
15.737227
 21
-0.7312300000000001
 31
0.0
  0
LINE
  5
59
330
A
100
AcDbEntity
  8
1
390
1D
100
AcDbLine
 10
9.503832
 20
-3.0
 30
0.0
 11
9.503832
 21
0.174989
 31
0.0
  0
LINE
  5
5A
330
A
100
AcDbEntity
  8
1
390
1D
100
AcDbLine
 10
15.737227
 20
0.7312300000000001
 30
0.0
 11
9.503832
 21
3.0
 31
0.0
  0
LINE
  5
5B
330
A
100
AcDbEntity
  8
1
390
1D
100
AcDbLine
 10
20.16
 20
-0.105487
 30
0.0
 11
20.16
 21
0.5102300000000001
 31
0.0
  0
LINE
  5
5C
330
A
100
AcDbEntity
  8
1
390
1D
100
AcDbLine
 10
19.84
 20
-0.047926
 30
0.0
 11
19.84
 21
0.529678
 31
0.0
  0
LINE
  5
5D
330
A
100
AcDbEntity
  8
1
390
1D
100
AcDbLine
 10
21.0
 20
-0.252241
 30
0.0
 11
21.0
 21
0.4294170000000001
 31
0.0
  0
LINE
  5
5E
330
A
100
AcDbEntity
  8
1
390
1D
100
AcDbLine
 10
19.8
 20
-0.039356
 30
0.0
 11
19.8
 21
0.5316390000000001
 31
0.0
  0
LINE
  5
5F
330
A
100
AcDbEntity
  8
1
390
1D
100
AcDbLine
 10
17.105308
 20
-0.4900000000000001
 30
0.0
 11
19.8
 21
-0.4900000000000001
 31
0.0
  0
LINE
  5
60
330
A
100
AcDbEntity
  8
1
390
1D
100
AcDbLine
 10
19.508712
 20
0.4900000000000001
 30
0.0
 11
17.105308
 21
0.4900000000000001
 31
0.0
  0
LINE
  5
61
330
A
100
AcDbEntity
  8
1
390
1D
100
AcDbLine
 10
19.84
 20
-0.549
 30
0.0
 11
19.970481
 21
-0.775
 31
0.0
  0
LINE
  5
62
330
A
100
AcDbEntity
  8
1
390
1D
100
AcDbLine
 10
19.970481
 20
-0.745418
 30
0.0
 11
19.970481
 21
-0.775
 31
0.0
  0
LINE
  5
63
330
A
100
AcDbEntity
  8
1
390
1D
100
AcDbLine
 10
19.84
 20
-0.549
 30
0.0
 11
19.84
 21
-0.389865
 31
0.0
  0
LINE
  5
64
330
A
100
AcDbEntity
  8
1
390
1D
100
AcDbLine
 10
20.16
 20
-0.4306140000000001
 30
0.0
 11
20.16
 21
-0.549
 31
0.0
  0
LINE
  5
65
330
A
100
AcDbEntity
  8
1
390
1D
100
AcDbLine
 10
20.029519
 20
-0.775
 30
0.0
 11
20.16
 21
-0.549
 31
0.0
  0
LINE
  5
66
330
A
100
AcDbEntity
  8
1
390
1D
100
AcDbLine
 10
20.029519
 20
-0.749532
 30
0.0
 11
20.029519
 21
-0.775
 31
0.0
  0
LINE
  5
67
330
A
100
AcDbEntity
  8
1
390
1D
100
AcDbLine
 10
20.24
 20
-0.549
 30
0.0
 11
20.370481
 21
-0.775
 31
0.0
  0
LINE
  5
68
330
A
100
AcDbEntity
  8
1
390
1D
100
AcDbLine
 10
20.370481
 20
-0.7672520000000001
 30
0.0
 11
20.370481
 21
-0.775
 31
0.0
  0
LINE
  5
69
330
A
100
AcDbEntity
  8
1
390
1D
100
AcDbLine
 10
20.24
 20
-0.4400060000000001
 30
0.0
 11
20.24
 21
-0.549
 31
0.0
  0
LINE
  5
6A
330
A
100
AcDbEntity
  8
1
390
1D
100
AcDbLine
 10
19.8
 20
-0.549
 30
0.0
 11
19.8
 21
-0.384441
 31
0.0
  0
LINE
  5
6B
330
A
100
AcDbEntity
  8
1
390
1D
100
AcDbLine
 10
19.8
 20
-0.549
 30
0.0
 11
19.84
 21
-0.549
 31
0.0
  0
LINE
  5
6C
330
A
100
AcDbEntity
  8
1
390
1D
100
AcDbLine
 10
20.16
 20
-0.549
 30
0.0
 11
20.24
 21
-0.549
 31
0.0
  0
LINE
  5
6D
330
A
100
AcDbEntity
  8
1
390
1D
100
AcDbLine
 10
20.56
 20
-0.474053
 30
0.0
 11
20.56
 21
-0.549
 31
0.0
  0
LINE
  5
6E
330
A
100
AcDbEntity
  8
1
390
1D
100
AcDbLine
 10
20.429519
 20
-0.775
 30
0.0
 11
20.56
 21
-0.549
 31
0.0
  0
LINE
  5
6F
330
A
100
AcDbEntity
  8
1
390
1D
100
AcDbLine
 10
20.429519
 20
-0.7692740000000001
 30
0.0
 11
20.429519
 21
-0.775
 31
0.0
  0
LINE
  5
70
330
A
100
AcDbEntity
  8
1
390
1D
100
AcDbLine
 10
20.64
 20
-0.549
 30
0.0
 11
20.770481
 21
-0.775
 31
0.0
  0
LINE
  5
71
330
A
100
AcDbEntity
  8
1
390
1D
100
AcDbLine
 10
20.64
 20
-0.4816390000000001
 30
0.0
 11
20.64
 21
-0.549
 31
0.0
  0
LINE
  5
72
330
A
100
AcDbEntity
  8
1
390
1D
100
AcDbLine
 10
20.56
 20
-0.549
 30
0.0
 11
20.64
 21
-0.549
 31
0.0
  0
LINE
  5
73
330
A
100
AcDbEntity
  8
1
390
1D
100
AcDbLine
 10
20.96
 20
-0.508081
 30
0.0
 11
20.96
 21
-0.549
 31
0.0
  0
LINE
  5
74
330
A
100
AcDbEntity
  8
1
390
1D
100
AcDbLine
 10
20.839261
 20
-0.758126
 30
0.0
 11
20.96
 21
-0.549
 31
0.0
  0
LINE
  5
75
330
A
100
AcDbEntity
  8
1
390
1D
100
AcDbLine
 10
20.829519
 20
-0.775
 30
0.0
 11
20.839261
 21
-0.758126
 31
0.0
  0
LINE
  5
76
330
A
100
AcDbEntity
  8
1
390
1D
100
AcDbLine
 10
19.970481
 20
-0.775
 30
0.0
 11
20.029519
 21
-0.775
 31
0.0
  0
LINE
  5
77
330
A
100
AcDbEntity
  8
1
390
1D
100
AcDbLine
 10
20.96
 20
-0.549
 30
0.0
 11
21.0
 21
-0.549
 31
0.0
  0
LINE
  5
78
330
A
100
AcDbEntity
  8
1
390
1D
100
AcDbLine
 10
20.370481
 20
-0.775
 30
0.0
 11
20.429519
 21
-0.775
 31
0.0
  0
LINE
  5
79
330
A
100
AcDbEntity
  8
SK1
390
1D
100
AcDbLine
 10
-35.6
 20
3.0
 30
0.0
 11
-36.0
 21
2.6
 31
0.0
  0
LINE
  5
7B
330
A
100
AcDbEntity
  8
SK1
390
1D
100
AcDbLine
 10
-35.6
 20
3.0
 30
0.0
 11
-35.6
 21
2.350995999999999
 31
0.0
  0
LINE
  5
7C
330
A
100
AcDbEntity
  8
SK1
390
1D
100
AcDbLine
 10
-35.6
 20
2.350995999999999
 30
0.0
 11
-35.6
 21
-3.0
 31
0.0
  0
LINE
  5
7D
330
A
100
AcDbEntity
  8
SK1
390
1D
100
AcDbLine
 10
-36.0
 20
-2.6
 30
0.0
 11
-35.6
 21
-3.0
 31
0.0
  0
LINE
  5
7E
330
A
100
AcDbEntity
  8
SK1
390
1D
100
AcDbLine
 10
-36.0
 20
2.6
 30
0.0
 11
-36.0
 21
2.037529999999999
 31
0.0
  0
LINE
  5
7F
330
A
100
AcDbEntity
  8
SK1
390
1D
100
AcDbLine
 10
-36.0
 20
2.037529999999999
 30
0.0
 11
-36.0
 21
-2.6
 31
0.0
  0
LINE
  5
80
330
A
100
AcDbEntity
  8
SK1
390
1D
100
AcDbLine
 10
0.0
 20
3.0
 30
0.0
 11
0.0
 21
-3.0
 31
0.0
  0
LINE
  5
81
330
A
100
AcDbEntity
  8
SK1
390
1D
100
AcDbLine
 10
-35.6
 20
-3.0
 30
0.0
 11
0.0
 21
-3.0
 31
0.0
  0
LINE
  5
82
330
A
100
AcDbEntity
  8
SK1
390
1D
100
AcDbLine
 10
0.0
 20
3.0
 30
0.0
 11
-35.6
 21
3.0
 31
0.0
  0
ARC
  5
85
330
A
100
AcDbEntity
  8
1
390
1D
100
AcDbCircle
 10
-17.105308
 20
4.49
 30
0.0
 40
4.0
210
0.0
220
0.0
230
-1.0
100
AcDbArc
 50
270.0
 51
290.0
  0
ARC
  5
86
330
A
100
AcDbEntity
  8
1
390
1D
100
AcDbCircle
 10
-17.105308
 20
-4.49
 30
0.0
 40
4.0
210
0.0
220
0.0
230
-1.0
100
AcDbArc
 50
70.0
 51
90.0
  0
ELLIPSE
  5
87
330
A
100
AcDbEntity
  8
1
390
1D
100
AcDbEllipse
 10
19.765823
 20
-21.919346
 30
0.0
 11
37.33593083358729
 21
-11.74892011171735
 31
0.0
210
0.0
220
0.0
230
1.0
 40
0.506497
 41
2.005469306035225
 42
2.015179283513473
  0
ELLIPSE
  5
88
330
A
100
AcDbEntity
  8
1
390
1D
100
AcDbEllipse
 10
19.765823
 20
-21.919346
 30
0.0
 11
37.33593083358729
 21
-11.74892011171735
 31
0.0
210
0.0
220
0.0
230
1.0
 40
0.506497
 41
1.884074153435261
 42
1.940035559221891
  0
SPLINE
  5
89
330
A
100
AcDbEntity
  8
1
390
1D
100
AcDbSpline
210
0.0000000000716838
220
0.0000000000420502
230
-1.0
 70
     8
 71
     3
 72
     8
 73
     4
 74
     0
 42
0.0000000001
 43
0.0000000001
 40
0.0
 40
0.0
 40
0.0
 40
0.0
 40
1.0
 40
1.0
 40
1.0
 40
1.0
 10
20.77048116083688
 20
0.3924940249249858
 30
-0.0000000000000003
 10
20.76699795776574
 20
0.3983182390205684
 30
-0.0000000000000001
 10
20.76359914822194
 20
0.4041078836720545
 30
-0.0000000000000002
 10
20.76029377937351
 20
0.4098641835020659
 30
-0.0000000000000002
  0
SPLINE
  5
8A
330
A
100
AcDbEntity
  8
1
390
1D
100
AcDbSpline
210
-0.0000000000000057
220
-0.0000000000000127
230
1.0
 70
     8
 71
     3
 72
    10
 73
     6
 74
     0
 42
0.0000000001
 43
0.0000000001
 40
0.0
 40
0.0
 40
0.0
 40
0.0
 40
0.7683455506265286
 40
0.7683455506265286
 40
1.0
 40
1.0
 40
1.0
 40
1.0
 10
20.76029377937351
 20
0.4098641835020659
 30
-0.0000000000000003
 10
20.73041513032661
 20
0.4455621961437828
 30
-0.0000000000000002
 10
20.69912481761526
 20
0.4666427753035123
 30
-0.0000000000000002
 10
20.65882643546286
 20
0.4715099835498792
 30
-0.0000000000000001
 10
20.64938313503057
 20
0.4710684796850729
 30
-0.0000000000000002
 10
20.64000000000004
 20
0.4690048057716468
 30
-0.0000000000000001
  0
SPLINE
  5
8B
330
A
100
AcDbEntity
  8
1
390
1D
100
AcDbSpline
210
-0.0000000000001669
220
0.0000000000003134
230
-1.0
 70
     8
 71
     3
 72
     8
 73
     4
 74
     0
 42
0.0000000001
 43
0.0000000001
 40
0.0
 40
0.0
 40
0.0
 40
0.0
 40
1.0
 40
1.0
 40
1.0
 40
1.0
 10
20.42951883916317
 20
-0.2468382868591448
 30
-0.0000000000000003
 10
20.47157666789639
 20
-0.2276279050013272
 30
-0.0000000000000002
 10
20.51369473920084
 20
-0.2052011905431641
 30
-0.0000000000000002
 10
20.55579085506849
 20
-0.179576915854625
 30
-0.0000000000000002
  0
SPLINE
  5
8C
330
A
100
AcDbEntity
  8
1
390
1D
100
AcDbSpline
210
0.0
220
0.0
230
1.0
 70
     8
 71
     3
 72
     8
 73
     4
 74
     0
 42
0.0000000001
 43
0.0000000001
 40
0.0
 40
0.0
 40
0.0
 40
0.0
 40
1.0
 40
1.0
 40
1.0
 40
1.0
 10
20.56
 20
0.4768308825118197
 30
-0.0000000000000002
 10
20.52047831235984
 20
0.4962157581481392
 30
-0.0000000000000002
 10
20.48010812241102
 20
0.4959792429536379
 30
-0.0000000000000002
 10
20.44053652213768
 20
0.4765004598814926
 30
-0.0000000000000002
  0
SPLINE
  5
8D
330
A
100
AcDbEntity
  8
1
390
1D
100
AcDbSpline
210
-0.0000000015777022
220
-0.0000000061901477
230
1.0
 70
     8
 71
     3
 72
     8
 73
     4
 74
     0
 42
0.0000000001
 43
0.0000000001
 40
0.0
 40
0.0
 40
0.0
 40
0.0
 40
1.0
 40
1.0
 40
1.0
 40
1.0
 10
20.37048116083685
 20
-0.2317912851579536
 30
-0.0000000000000002
 10
20.3901618332751
 20
-0.2368227188839001
 30
-0.0000000000000003
 10
20.40984096088795
 20
-0.2418387431123961
 30
-0.0000000000000003
 10
20.42951883916317
 20
-0.2468382868591448
 30
-0.0000000000000004
  0
SPLINE
  5
8E
330
A
100
AcDbEntity
  8
1
390
1D
100
AcDbSpline
210
-0.0000000001684118
220
-0.0000000008133234
230
1.0
 70
     8
 71
     3
 72
     8
 73
     4
 74
     0
 42
0.0000000001
 43
0.0000000001
 40
0.0
 40
0.0
 40
0.0
 40
0.0
 40
1.0
 40
1.0
 40
1.0
 40
1.0
 10
20.42951883916874
 20
0.4660711349515054
 30
-0.0000000000000003
 10
20.40983841397371
 20
0.4701735231145109
 30
-0.0000000000000002
 10
20.39015927701797
 20
0.4742487168611548
 30
-0.0000000000000002
 10
20.3704811608369
 20
0.478295739010605
 30
-0.0000000000000002
  0
SPLINE
  5
8F
330
A
100
AcDbEntity
  8
1
390
1D
100
AcDbSpline
210
-0.000000000034445
220
0.0000000000257816
230
1.0
 70
     8
 71
     3
 72
     8
 73
     4
 74
     0
 42
0.0000000001
 43
0.0000000001
 40
0.0
 40
0.0
 40
0.0
 40
0.0
 40
1.0
 40
1.0
 40
1.0
 40
1.0
 10
20.83946846148712
 20
0.3925854859899687
 30
-0.0000000000000003
 10
20.83624840418429
 20
0.388095199135023
 30
-0.0000000000000003
 10
20.83292918981431
 20
0.3836621409864733
 30
-0.0000000000000002
 10
20.82951883916314
 20
0.3792884310996101
 30
-0.0000000000000002
  0
SPLINE
  5
90
330
A
100
AcDbEntity
  8
1
390
1D
100
AcDbSpline
210
-0.0000000000005256
220
0.0000000000006853
230
-1.0
 70
     8
 71
     3
 72
     8
 73
     4
 74
     0
 42
0.0000000001
 43
0.0000000001
 40
0.0
 40
0.0
 40
0.0
 40
0.0
 40
1.0
 40
1.0
 40
1.0
 40
1.0
 10
20.82951883916314
 20
-0.3458810130937309
 30
-0.0000000000000003
 10
20.87204798823558
 20
-0.3163442429070074
 30
-0.0000000000000003
 10
20.91463289788709
 20
-0.2836912923515911
 30
-0.0000000000000002
 10
20.95717558898775
 20
-0.2479711169581265
 30
-0.0000000000000002
  0
SPLINE
  5
91
330
A
100
AcDbEntity
  8
1
390
1D
100
AcDbSpline
210
0.0
220
0.0
230
1.0
 70
     8
 71
     3
 72
     8
 73
     4
 74
     0
 42
0.0000000001
 43
0.0000000001
 40
0.0
 40
0.0
 40
0.0
 40
0.0
 40
1.0
 40
1.0
 40
1.0
 40
1.0
 10
20.95717558898775
 20
-0.2479711169581265
 30
-0.0000000000000002
 10
20.95811704458242
 20
-0.2471806413653894
 30
-0.0000000000000002
 10
20.95905851514698
 20
-0.2463911528844278
 30
-0.0000000000000002
 10
20.95999999999998
 20
-0.2456026490165186
 30
-0.0000000000000002
  0
SPLINE
  5
92
330
A
100
AcDbEntity
  8
1
390
1D
100
AcDbSpline
210
-0.0000000001101627
220
-0.0000000004924967
230
1.0
 70
     8
 71
     3
 72
     8
 73
     4
 74
     0
 42
0.0000000001
 43
0.0000000001
 40
0.0
 40
0.0
 40
0.0
 40
0.0
 40
1.0
 40
1.0
 40
1.0
 40
1.0
 10
20.82951883916314
 20
0.3792884310996101
 30
-0.0000000000000002
 10
20.80983690245796
 20
0.3837118582135872
 30
-0.0000000000000003
 10
20.7901577371332
 20
0.3881139719651969
 30
-0.0000000000000002
 10
20.77048116083688
 20
0.3924940249250426
 30
-0.0000000000000002
  0
SPLINE
  5
93
330
A
100
AcDbEntity
  8
1
390
1D
100
AcDbSpline
210
0.0000000002114507
220
0.0000000008757451
230
1.0
 70
     8
 71
     3
 72
     8
 73
     4
 74
     0
 42
0.0000000001
 43
0.0000000001
 40
0.0
 40
0.0
 40
0.0
 40
0.0
 40
1.0
 40
1.0
 40
1.0
 40
1.0
 10
20.77048116083688
 20
-0.3316263420214796
 30
-0.0000000000000003
 10
20.79015977674277
 20
-0.336400913416071
 30
-0.0000000000000001
 10
20.80983890050595
 20
-0.3411528187173758
 30
-0.0000000000000002
 10
20.82951883916314
 20
-0.3458810130937309
 30
-0.0000000000000002
  0
SPLINE
  5
94
330
A
100
AcDbEntity
  8
1
390
1D
100
AcDbSpline
210
0.000000000000001
220
-0.0000000000000029
230
1.0
 70
     8
 71
     3
 72
     8
 73
     4
 74
     0
 42
0.0000000001
 43
0.0000000001
 40
0.0
 40
0.0
 40
0.0
 40
0.0
 40
1.0
 40
1.0
 40
1.0
 40
1.0
 10
20.95999999999998
 20
0.4341544068474263
 30
-0.0000000000000001
 10
20.92001684050734
 20
0.4398339910680421
 30
-0.0000000000000002
 10
20.87926591555623
 20
0.4257875199486422
 30
-0.0000000000000002
 10
20.83946846148712
 20
0.3925854859899687
 30
-0.0000000000000002
  0
SPLINE
  5
95
330
A
100
AcDbEntity
  8
1
390
1D
100
AcDbSpline
210
0.0000000000000087
220
0.0000000000001192
230
1.0
 70
     8
 71
     3
 72
     8
 73
     4
 74
     0
 42
0.0000000001
 43
0.0000000001
 40
0.0
 40
0.0
 40
0.0
 40
0.0
 40
1.0
 40
1.0
 40
1.0
 40
1.0
 10
9.503831677168991
 20
0.1749887290661718
 30
-0.000000000000001
 10
9.364915839832804
 20
0.1813932409612562
 30
-0.0000000000000014
 10
9.226260647471008
 20
0.1913473753998574
 30
-0.0000000000000008
 10
9.087907709572846
 20
0.2054103088929651
 30
-0.0000000000000013
  0
SPLINE
  5
96
330
A
100
AcDbEntity
  8
1
390
1D
100
AcDbSpline
210
-0.0000000000009707
220
-0.000000000000899
230
1.0
 70
     8
 71
     3
 72
     8
 73
     4
 74
     0
 42
0.0000000001
 43
0.0000000001
 40
0.0
 40
0.0
 40
0.0
 40
0.0
 40
1.0
 40
1.0
 40
1.0
 40
1.0
 10
20.64391179368505
 20
-0.1949645716520649
 30
-0.0000000000000002
 10
20.68612167381616
 20
-0.2377420273778625
 30
-0.0000000000000002
 10
20.72833317618318
 20
-0.2833467374128418
 30
-0.0000000000000002
 10
20.77048116083688
 20
-0.3316263420214796
 30
-0.0000000000000003
  0
SPLINE
  5
97
330
A
100
AcDbEntity
  8
1
390
1D
100
AcDbSpline
210
-0.000000000000056
220
0.000000000000075
230
-1.0
 70
     8
 71
     3
 72
     8
 73
     4
 74
     0
 42
0.0000000001
 43
0.0000000001
 40
0.0
 40
0.0
 40
0.0
 40
0.0
 40
1.0
 40
1.0
 40
1.0
 40
1.0
 10
9.087907709572846
 20
0.2054103088929651
 30
-0.0000000000000013
 10
9.215339869071669
 20
0.3241481951906735
 30
-0.0000000000000014
 10
9.356554429880018
 20
0.4262030520437179
 30
-0.0000000000000008
 10
9.503831677169046
 20
0.5179852849063878
 30
-0.0000000000000013
  0
SPLINE
  5
98
330
A
100
AcDbEntity
  8
1
390
1D
100
AcDbSpline
210
0.0000000000000016
220
0.0000000000000045
230
1.0
 70
     8
 71
     3
 72
     8
 73
     4
 74
     0
 42
0.0000000001
 43
0.0000000001
 40
0.0
 40
0.0
 40
0.0
 40
0.0
 40
1.0
 40
1.0
 40
1.0
 40
1.0
 10
20.16000000000003
 20
0.5102296538132692
 30
-0.0000000000000001
 10
20.12077953235445
 20
0.5433050885081912
 30
-0.0000000000000001
 10
20.08066979350065
 20
0.5571099811355112
 30
-0.0000000000000002
 10
20.0412464727446
 20
0.5517480807403672
 30
-0.0000000000000001
  0
SPLINE
  5
99
330
A
100
AcDbEntity
  8
1
390
1D
100
AcDbSpline
210
0.0
220
0.0
230
1.0
 70
     8
 71
     3
 72
     8
 73
     4
 74
     0
 42
0.0000000001
 43
0.0000000001
 40
0.0
 40
0.0
 40
0.0
 40
0.0
 40
1.0
 40
1.0
 40
1.0
 40
1.0
 10
20.44053652213751
 20
0.4765004598816632
 30
-0.0000000000000002
 10
20.43698254054686
 20
0.4729544722302422
 30
-0.0000000000000002
 10
20.43330633893891
 20
0.4694770936425244
 30
-0.0000000000000002
 10
20.42951883916317
 20
0.4660711349526423
 30
-0.0000000000000002
  0
SPLINE
  5
9A
330
A
100
AcDbEntity
  8
1
390
1D
100
AcDbSpline
210
-0.0000000000006291
220
-0.000000000000731
230
1.0
 70
     8
 71
     3
 72
    10
 73
     6
 74
     0
 42
0.0000000001
 43
0.0000000001
 40
0.0
 40
0.0
 40
0.0
 40
0.0
 40
0.4996112251373139
 40
0.4996112251373139
 40
1.0
 40
1.0
 40
1.0
 40
1.0
 10
20.24517806479878
 20
-0.1239499980566166
 30
-0.0000000000000003
 10
20.26605783746481
 20
-0.1404194927676485
 30
-0.0000000000000002
 10
20.28694330020494
 20
-0.1576477782230086
 30
-0.0000000000000002
 10
20.3287153659482
 20
-0.1936025354955859
 30
-0.0000000000000002
 10
20.3496102875788
 20
-0.2123382371971161
 30
-0.0000000000000003
 10
20.37048116083685
 20
-0.2317912851579536
 30
-0.0000000000000003
  0
SPLINE
  5
9B
330
A
100
AcDbEntity
  8
1
390
1D
100
AcDbSpline
210
0.0000000000000004
220
0.000000000000004
230
1.0
 70
     8
 71
     3
 72
    10
 73
     6
 74
     0
 42
0.0000000001
 43
0.0000000001
 40
0.0
 40
0.0
 40
0.0
 40
0.0
 40
0.5
 40
0.5
 40
1.0
 40
1.0
 40
1.0
 40
1.0
 10
20.35928946387514
 20
0.4925683206157033
 30
-0.0000000000000001
 10
20.33968796473687
 20
0.5084289375948856
 30
-0.0000000000000001
 10
20.32007946806698
 20
0.5174329883222413
 30
-0.0000000000000002
 10
20.28036591646725
 20
0.5216983228888239
 30
-0.0000000000000002
 10
20.26009647840596
 20
0.5168099849470309
 30
-0.0000000000000001
 10
20.24000000000001
 20
0.5043387079684863
 30
-0.0000000000000001
  0
SPLINE
  5
9C
330
A
100
AcDbEntity
  8
1
390
1D
100
AcDbSpline
210
0.0000000001147472
220
0.0000000000899984
230
-1.0
 70
     8
 71
     3
 72
     8
 73
     4
 74
     0
 42
0.0000000001
 43
0.0000000001
 40
0.0
 40
0.0
 40
0.0
 40
0.0
 40
1.0
 40
1.0
 40
1.0
 40
1.0
 10
20.37048116083685
 20
0.4782957390104913
 30
-0.0000000000000003
 10
20.36664479666092
 20
0.4831022125053437
 30
-0.0000000000000003
 10
20.36291021081303
 20
0.4878591477381066
 30
-0.0000000000000003
 10
20.35928946387514
 20
0.4925683206157033
 30
-0.0000000000000002
  0
SPLINE
  5
9D
330
A
100
AcDbEntity
  8
1
390
1D
100
AcDbSpline
210
-0.0000000000566731
220
-0.0000000003052423
230
1.0
 70
     8
 71
     3
 72
     8
 73
     4
 74
     0
 42
0.0000000001
 43
0.0000000001
 40
0.0
 40
0.0
 40
0.0
 40
0.0
 40
1.0
 40
1.0
 40
1.0
 40
1.0
 10
20.02951883916745
 20
0.5454133443676597
 30
-0.0000000000000003
 10
20.00984043890924
 20
0.5491014923615012
 30
-0.0000000000000001
 10
19.99016132191377
 20
0.5527555595764966
 30
-0.0000000000000002
 10
19.97048116083693
 20
0.5563745158826237
 30
-0.0000000000000002
  0
SPLINE
  5
9E
330
A
100
AcDbEntity
  8
1
390
1D
100
AcDbSpline
210
-0.0000000010478642
220
-0.0000000039847122
230
1.0
 70
     8
 71
     3
 72
     8
 73
     4
 74
     0
 42
0.0000000001
 43
0.0000000001
 40
0.0
 40
0.0
 40
0.0
 40
0.0
 40
1.0
 40
1.0
 40
1.0
 40
1.0
 10
19.97048116083681
 20
-0.1278144943779012
 30
-0.0000000000000003
 10
19.99016095645982
 20
-0.1329975509880796
 30
-0.0000000000000002
 10
20.00984009522563
 20
-0.1381729108038599
 30
-0.0000000000000003
 10
20.02951883916319
 20
-0.1433395933476618
 30
-0.0000000000000003
  0
SPLINE
  5
9F
330
A
100
AcDbEntity
  8
1
390
1D
100
AcDbSpline
210
0.0000000000000218
220
0.0000000000001975
230
1.0
 70
     8
 71
     3
 72
    10
 73
     6
 74
     0
 42
0.0000000001
 43
0.0000000001
 40
0.0
 40
0.0
 40
0.0
 40
0.0
 40
0.5
 40
0.5
 40
1.0
 40
1.0
 40
1.0
 40
1.0
 10
13.92085258879592
 20
-0.3084329190340895
 30
-0.0000000000000004
 10
13.19447986259019
 20
-0.2101038375725466
 30
-0.0000000000000006
 10
12.45968153206218
 20
-0.1111846997204111
 30
-0.0000000000000005
 10
10.98493356091166
 20
0.0538282243181811
 30
-0.0000000000000009
 10
10.24488157572955
 20
0.12162956042215
 30
-0.0000000000000014
 10
9.503831677168877
 20
0.1749887290661718
 30
-0.000000000000001
  0
SPLINE
  5
A0
330
A
100
AcDbEntity
  8
1
390
1D
100
AcDbSpline
210
0.0000000000000013
220
0.0000000000000074
230
1.0
 70
     8
 71
     3
 72
    16
 73
    12
 74
     0
 42
0.0000000001
 43
0.0000000001
 40
0.0
 40
0.0
 40
0.0
 40
0.0
 40
0.4999999999999981
 40
0.4999999999999981
 40
0.749999999999997
 40
0.749999999999997
 40
0.8749999999999964
 40
0.8749999999999964
 40
0.9374999999999982
 40
0.9374999999999982
 40
1.0
 40
1.0
 40
1.0
 40
1.0
 10
9.503831677168932
 20
0.5179852849064446
 30
-0.0000000000000012
 10
10.25920263679131
 20
0.5067478202058169
 30
-0.0000000000000011
 10
11.0164404926706
 20
0.4490133324500222
 30
-0.000000000000001
 10
12.1459805277056
 20
0.2888418844218563
 30
-0.0000000000000008
 10
12.52228188223944
 20
0.2236267835083936
 30
-0.0000000000000008
 10
13.07831581787332
 20
0.0909609071235877
 30
-0.0000000000000008
 10
13.26276764247416
 20
0.0412281739654645
 30
-0.0000000000000008
 10
13.53121684565309
 20
-0.0544553211382208
 30
-0.0000000000000003
 10
13.61965173401734
 20
-0.0898348129975943
 30
-0.0000000000000004
 10
13.78705133012841
 20
-0.1771207263234942
 30
-0.0000000000000007
 10
13.87302262077776
 20
-0.2264268764326403
 30
-0.0000000000000006
 10
13.92085258879661
 20
-0.3084329190342032
 30
-0.0000000000000005
  0
SPLINE
  5
A1
330
A
100
AcDbEntity
  8
1
390
1D
100
AcDbSpline
210
0.0000000000001466
220
-0.0000000000005097
230
1.0
 70
     8
 71
     3
 72
    10
 73
     6
 74
     0
 42
0.0000000001
 43
0.0000000001
 40
0.0
 40
0.0
 40
0.0
 40
0.0
 40
0.4996112448502869
 40
0.4996112448502869
 40
1.0
 40
1.0
 40
1.0
 40
1.0
 10
20.02951883916319
 20
-0.1433395933476618
 30
-0.0000000000000003
 10
20.05032075975043
 20
-0.1389685147324826
 30
-0.0000000000000003
 10
20.07114524280405
 20
-0.1337889597024855
 30
-0.0000000000000003
 10
20.11283611150401
 20
-0.1218042783277156
 30
-0.0000000000000003
 10
20.13371094192269
 20
-0.1149943667661546
 30
-0.0000000000000002
 10
20.1545751092163
 20
-0.107373736912848
 30
-0.0000000000000002
  0
SPLINE
  5
A2
330
A
100
AcDbEntity
  8
1
390
1D
100
AcDbSpline
210
0.0
220
0.0
230
1.0
 70
    24
 71
     1
 72
     4
 73
     2
 74
     0
 42
0.0000000001
 43
0.0000000001
 40
0.0
 40
0.0
 40
1.0
 40
1.0
 10
20.04124647274466
 20
0.5517480807403104
 30
-0.0000000000000002
 10
20.02951883916313
 20
0.5454133443684555
 30
-0.0000000000000002
  0
SPLINE
  5
A3
330
A
100
AcDbEntity
  8
1
390
1D
100
AcDbSpline
210
-0.0000000000002906
220
-0.0000000000004647
230
1.0
 70
     8
 71
     3
 72
    10
 73
     6
 74
     0
 42
0.0000000001
 43
0.0000000001
 40
0.0
 40
0.0
 40
0.0
 40
0.0
 40
0.4996243640306092
 40
0.4996243640306092
 40
1.0
 40
1.0
 40
1.0
 40
1.0
 10
19.84607298163797
 20
-0.0500246416357868
 30
-0.0000000000000003
 10
19.8668080081161
 20
-0.0614335438726812
 30
-0.0000000000000002
 10
19.88754578120921
 20
-0.0736242444856998
 30
-0.0000000000000003
 10
19.92901894470549
 20
-0.0995582542697662
 30
-0.0000000000000003
 10
19.94976228281496
 20
-0.1133087224448559
 30
-0.0000000000000003
 10
19.97048116083687
 20
-0.1278144943779012
 30
-0.0000000000000003
  0
SPLINE
  5
A4
330
A
100
AcDbEntity
  8
1
390
1D
100
AcDbSpline
210
-0.0000000000000022
220
0.0000000000000071
230
1.0
 70
     8
 71
     3
 72
     8
 73
     4
 74
     0
 42
0.0000000001
 43
0.0000000001
 40
0.0
 40
0.0
 40
0.0
 40
0.0
 40
1.0
 40
1.0
 40
1.0
 40
1.0
 10
19.95864876259969
 20
0.5660871489889133
 30
-0.0000000000000002
 10
19.91963725272967
 20
0.5817841682987819
 30
-0.0000000000000002
 10
19.88001367454831
 20
0.5705174338472148
 30
-0.0000000000000001
 10
19.84000000000003
 20
0.5296781273077045
 30
0.0
  0
SPLINE
  5
A5
330
A
100
AcDbEntity
  8
1
390
1D
100
AcDbSpline
210
0.0000000003806654
220
0.0000000004638452
230
-1.0
 70
     8
 71
     3
 72
     8
 73
     4
 74
     0
 42
0.0000000001
 43
0.0000000001
 40
0.0
 40
0.0
 40
0.0
 40
0.0
 40
1.0
 40
1.0
 40
1.0
 40
1.0
 10
19.97048116083687
 20
0.5563745158824532
 30
-0.0000000000000003
 10
19.96641805912509
 20
0.5596746344413078
 30
-0.0000000000000002
 10
19.96246913494758
 20
0.5629114221530358
 30
-0.0000000000000001
 10
19.95864876259969
 20
0.5660871489889133
 30
-0.0000000000000002
  0
SPLINE
  5
A6
330
A
100
AcDbEntity
  8
1
390
1D
100
AcDbSpline
210
-0.0000000005325766
220
-0.0000000030422341
230
1.0
 70
     8
 71
     3
 72
    10
 73
     6
 74
     0
 42
0.0000000001
 43
0.0000000001
 40
0.0
 40
0.0
 40
0.0
 40
0.0
 40
0.287970249377335
 40
0.287970249377335
 40
1.0
 40
1.0
 40
1.0
 40
1.0
 10
20.56
 20
-0.1770220748285283
 30
-0.0000000000000002
 10
20.5676792899161
 20
-0.1783720938529427
 30
-0.0000000000000001
 10
20.57535855875972
 20
-0.1797204385592295
 30
-0.0000000000000002
 10
20.60202533061852
 20
-0.1843967055228291
 30
-0.0000000000000002
 10
20.62101274792241
 20
-0.1877158519901627
 30
-0.0000000000000003
 10
20.64000000000027
 20
-0.1910238419647499
 30
-0.0000000000000002
  0
SPLINE
  5
A7
330
A
100
AcDbEntity
  8
1
390
1D
100
AcDbSpline
210
0.0
220
0.0
230
1.0
 70
     8
 71
     3
 72
     8
 73
     4
 74
     0
 42
0.0000000001
 43
0.0000000001
 40
0.0
 40
0.0
 40
0.0
 40
0.0
 40
1.0
 40
1.0
 40
1.0
 40
1.0
 10
20.63999999999999
 20
0.4690048057716468
 30
-0.0000000000000001
 10
20.61333303065146
 20
0.4716745558918092
 30
-0.0000000000000001
 10
20.58666633254455
 20
0.4742837196062625
 30
-0.0000000000000001
 10
20.56
 20
0.4768308825118197
 30
-0.0000000000000001
  0
SPLINE
  5
A8
330
A
100
AcDbEntity
  8
1
390
1D
100
AcDbSpline
210
0.0000000006366664
220
0.0000000038363464
230
1.0
 70
     8
 71
     3
 72
    10
 73
     6
 74
     0
 42
0.0000000001
 43
0.0000000001
 40
0.0
 40
0.0
 40
0.0
 40
0.0
 40
0.5758962799281456
 40
0.5758962799281456
 40
1.0
 40
1.0
 40
1.0
 40
1.0
 10
20.95999999999998
 20
-0.2456026490165186
 30
-0.0000000000000002
 10
20.967678636127
 20
-0.2468813135340611
 30
-0.0000000000000002
 10
20.97535726214073
 20
-0.248157537890279
 30
-0.0000000000000002
 10
20.98869058905325
 20
-0.2503692888216165
 30
-0.0000000000000001
 10
20.99434529776397
 20
-0.2513059531706858
 30
-0.0000000000000002
 10
21.0000000001038
 20
-0.2522412520229977
 30
-0.0000000000000002
  0
SPLINE
  5
A9
330
A
100
AcDbEntity
  8
1
390
1D
100
AcDbSpline
210
0.0000000000501325
220
0.0000000004233027
230
-1.0
 70
     8
 71
     3
 72
     8
 73
     4
 74
     0
 42
0.0000000001
 43
0.0000000001
 40
0.0
 40
0.0
 40
0.0
 40
0.0
 40
1.0
 40
1.0
 40
1.0
 40
1.0
 10
21.0
 20
0.4294171538593333
 30
-0.0000000000000001
 10
20.98666653546132
 20
0.4310098228089032
 30
-0.0000000000000002
 10
20.97333319425968
 20
0.4325889667381945
 30
-0.0000000000000001
 10
20.96000000000026
 20
0.4341544068474263
 30
-0.0000000000000001
  0
SPLINE
  5
AA
330
A
100
AcDbEntity
  8
1
390
1D
100
AcDbSpline
210
0.0000000005525367
220
0.0000000030471227
230
1.0
 70
     8
 71
     3
 72
    10
 73
     6
 74
     0
 42
0.0000000001
 43
0.0000000001
 40
0.0
 40
0.0
 40
0.0
 40
0.0
 40
0.2879971959203994
 40
0.2879971959203994
 40
1.0
 40
1.0
 40
1.0
 40
1.0
 10
20.16000000000003
 20
-0.105405181058245
 30
-0.0000000000000002
 10
20.16767997576034
 20
-0.1068012132874969
 30
-0.0000000000000002
 10
20.17535994169123
 20
-0.1081962466685127
 30
-0.0000000000000003
 10
20.20202667277977
 20
-0.113036564104732
 30
-0.0000000000000002
 10
20.22101340111516
 20
-0.1164765698852079
 30
-0.0000000000000002
 10
20.24000000000001
 20
-0.1199097128173321
 30
-0.0000000000000002
  0
SPLINE
  5
AB
330
A
100
AcDbEntity
  8
1
390
1D
100
AcDbSpline
210
-0.0000000000016476
220
-0.0000000000223748
230
1.0
 70
     8
 71
     3
 72
     8
 73
     4
 74
     0
 42
0.0000000001
 43
0.0000000001
 40
0.0
 40
0.0
 40
0.0
 40
0.0
 40
1.0
 40
1.0
 40
1.0
 40
1.0
 10
20.24000000000001
 20
0.5043387079684863
 30
-0.0000000000000001
 10
20.2133336797603
 20
0.5063695433560725
 30
-0.0000000000000001
 10
20.18666700438234
 20
0.5083335159692979
 30
0.0
 10
20.1600000000002
 20
0.5102296538133828
 30
-0.0000000000000001
  0
SPLINE
  5
AC
330
A
100
AcDbEntity
  8
1
390
1D
100
AcDbSpline
210
0.0000000000050433
220
0.0000000001029026
230
1.0
 70
     8
 71
     3
 72
     8
 73
     4
 74
     0
 42
0.0000000001
 43
0.0000000001
 40
0.0
 40
0.0
 40
0.0
 40
0.0
 40
1.0
 40
1.0
 40
1.0
 40
1.0
 10
19.84000000000003
 20
0.5296781273077045
 30
-0.0000000000000001
 10
19.82666695597658
 20
0.5303491543063501
 30
0.0
 10
19.81333362204202
 20
0.5310026335979501
 30
-0.0000000000000001
 10
19.79999999999989
 20
0.5316385327651006
 30
-0.0000000000000001
  0
SPLINE
  5
AD
330
A
100
AcDbEntity
  8
1
390
1D
100
AcDbSpline
210
0.0
220
0.0
230
1.0
 70
    24
 71
     1
 72
     4
 73
     2
 74
     0
 42
0.0000000001
 43
0.0000000001
 40
0.0
 40
0.0
 40
1.0
 40
1.0
 10
20.07730791323422
 20
0.5525182625764842
 30
-0.0000000000000002
 10
19.93753729380205
 20
0.5730920292953671
 30
-0.0000000000000003
  0
SPLINE
  5
AE
330
A
100
AcDbEntity
  8
1
390
1D
100
AcDbSpline
210
0.0000000000000066
220
0.0000000000000513
230
1.0
 70
     8
 71
     2
 72
     6
 73
     3
 74
     0
 42
0.0000000001
 43
0.0000000001
 40
0.0
 40
0.0
 40
0.0
 40
1.0
 40
1.0
 40
1.0
 10
20.51667914287128
 20
0.4916134818315642
 30
-0.0000000000000002
 10
20.41121718143637
 20
0.5032977976495659
 30
-0.0000000000000001
 10
20.30564040264557
 20
0.5189084854245607
 30
-0.0000000000000002
  0
SPLINE
  5
AF
330
A
100
AcDbEntity
  8
1
390
1D
100
AcDbSpline
210
0.0
220
0.0
230
1.0
 70
    24
 71
     1
 72
     4
 73
     2
 74
     0
 42
0.0000000001
 43
0.0000000001
 40
0.0
 40
0.0
 40
1.0
 40
1.0
 10
20.95740101130917
 20
0.4349051871747065
 30
-0.0000000000000001
 10
20.66935299046759
 20
0.471968725907459
 30
-0.0000000000000001
  0
SPLINE
  5
B0
330
A
100
AcDbEntity
  8
1
390
1D
100
AcDbSpline
210
0.0
220
0.0
230
1.0
 70
     8
 71
     3
 72
     8
 73
     4
 74
     0
 42
0.0000000001
 43
0.0000000001
 40
0.0
 40
0.0
 40
0.0
 40
0.0
 40
1.0
 40
1.0
 40
1.0
 40
1.0
 10
19.5088126449017
 20
0.49000317865125
 30
0.0
 10
19.60589085171125
 20
0.4900211991378002
 30
0.0
 10
19.70295077118919
 20
0.4892274759208705
 30
0.0
 10
19.80000000000001
 20
0.4875808298689321
 30
0.0
  0
SPLINE
  5
B1
330
A
100
AcDbEntity
  8
1
390
1D
100
AcDbSpline
210
0.0000000000794527
220
0.0000000003640651
230
1.0
 70
     8
 71
     3
 72
     8
 73
     4
 74
     0
 42
0.0000000001
 43
0.0000000001
 40
0.0
 40
0.0
 40
0.0
 40
0.0
 40
1.0
 40
1.0
 40
1.0
 40
1.0
 10
20.83946846148712
 20
0.3925854859899687
 30
-0.0000000000000002
 10
20.81307690078256
 20
0.3983933766069754
 30
-0.0000000000000002
 10
20.78668534007801
 20
0.4041535792724176
 30
-0.0000000000000002
 10
20.76029377937351
 20
0.4098641835020659
 30
-0.0000000000000003
  0
SPLINE
  5
B2
330
A
100
AcDbEntity
  8
1
390
1D
100
AcDbSpline
210
-0.0000000000420008
220
-0.0000000002123743
230
1.0
 70
     8
 71
     3
 72
     8
 73
     4
 74
     0
 42
0.0000000001
 43
0.0000000001
 40
0.0
 40
0.0
 40
0.0
 40
0.0
 40
1.0
 40
1.0
 40
1.0
 40
1.0
 10
20.44053652213734
 20
0.4765004598816063
 30
-0.0000000000000002
 10
20.41345416938327
 20
0.4819174554222628
 30
-0.0000000000000002
 10
20.38637181662921
 20
0.4872740971550797
 30
-0.0000000000000002
 10
20.35928946387514
 20
0.4925683206157033
 30
-0.0000000000000001
  0
SPLINE
  5
B3
330
A
100
AcDbEntity
  8
1
390
1D
100
AcDbSpline
210
0.0
220
0.0
230
1.0
 70
     8
 71
     3
 72
     8
 73
     4
 74
     0
 42
0.0000000001
 43
0.0000000001
 40
0.0
 40
0.0
 40
0.0
 40
0.0
 40
1.0
 40
1.0
 40
1.0
 40
1.0
 10
20.04124647274466
 20
0.5517480807403672
 30
-0.0000000000000002
 10
20.01371390269844
 20
0.5566013563142747
 30
-0.0000000000000002
 10
19.98618133265222
 20
0.5613817687782899
 30
-0.0000000000000002
 10
19.958648762606
 20
0.5660871489878332
 30
-0.0000000000000002
  0
SPLINE
  5
B4
330
A
100
AcDbEntity
  8
1
390
1D
100
AcDbSpline
210
0.0000000317864152
220
0.0000001720719167
230
0.9999999999999847
 70
     8
 71
     3
 72
     8
 73
     4
 74
     0
 42
0.0000000001
 43
0.0000000001
 40
0.0
 40
0.0
 40
0.0
 40
0.0
 40
1.0
 40
1.0
 40
1.0
 40
1.0
 10
19.80000000000007
 20
-0.0393563672417372
 30
-0.0000000000000003
 10
19.81333325789899
 20
-0.041821054265256
 30
-0.0000000000000002
 10
19.82666660401975
 20
-0.0442841266470282
 30
-0.0000000000000001
 10
19.83999999999969
 20
-0.0467454550785646
 30
-0.0000000000000002
  0
SPLINE
  5
B5
330
A
100
AcDbEntity
  8
1
390
1D
100
AcDbSpline
210
-0.0000000000945839
220
-0.0000000006974711
230
1.0
 70
     8
 71
     3
 72
     8
 73
     4
 74
     0
 42
0.0000000001
 43
0.0000000001
 40
0.0
 40
0.0
 40
0.0
 40
0.0
 40
1.0
 40
1.0
 40
1.0
 40
1.0
 10
19.84000000000003
 20
-0.3898653052547161
 30
-0.0000000000000001
 10
19.82666695597658
 20
-0.3880686964124607
 30
-0.0000000000000002
 10
19.81333362204202
 20
-0.3862604755706798
 30
-0.0000000000000001
 10
19.79999999999995
 20
-0.3844409459337044
 30
-0.0000000000000001
  0
SPLINE
  5
B6
330
A
100
AcDbEntity
  8
1
390
1D
100
AcDbSpline
210
0.0
220
0.0
230
1.0
 70
    28
 71
     2
 72
     6
 73
     3
 74
     0
 42
0.0000000001
 43
0.0000000001
 40
0.0
 40
0.0
 40
0.0
 40
1.0
 40
1.0
 40
1.0
 10
19.80000000000006
 20
-0.2859057418150824
 30
-0.0000000000000001
 41
0.9810528688576923
 10
19.80000000000002
 20
-0.3350890465735909
 30
-0.0000000000000001
 41
0.9738036995651205
 10
19.80000000000006
 20
-0.3844409459334169
 30
-0.0000000000000001
 41
0.9708858607351602
  0
SPLINE
  5
B7
330
A
100
AcDbEntity
  8
1
390
1D
100
AcDbSpline
210
0.0000000000002937
220
0.0000000000020077
230
1.0
 70
     8
 71
     3
 72
     8
 73
     4
 74
     0
 42
0.0000000001
 43
0.0000000001
 40
0.0
 40
0.0
 40
0.0
 40
0.0
 40
1.0
 40
1.0
 40
1.0
 40
1.0
 10
19.09139295307011
 20
-0.1823428128578826
 30
-0.0000000000000002
 10
19.32773149747175
 20
-0.2183217154829436
 30
-0.0000000000000002
 10
19.5638973855124
 20
-0.2531249607744712
 30
-0.0000000000000002
 10
19.79999999999995
 20
-0.2859057418150997
 30
-0.0000000000000001
  0
SPLINE
  5
B8
330
A
100
AcDbEntity
  8
1
390
1D
100
AcDbSpline
210
0.0
220
0.0
230
1.0
 70
    24
 71
     3
 72
     8
 73
     4
 74
     0
 42
0.0000000001
 43
0.0000000001
 40
0.0
 40
0.0
 40
0.0
 40
0.0
 40
1.0
 40
1.0
 40
1.0
 40
1.0
 10
19.0913937996599
 20
-0.182337837696025
 30
-0.0000000000000001
 10
19.09613825934912
 20
-0.1525305576353162
 30
-0.0000000000000002
 10
19.10088271903828
 20
-0.1227232775746074
 30
-0.0000000000000001
 10
19.10562717872745
 20
-0.0929159975139555
 30
-0.0000000000000002
  0
SPLINE
  5
B9
330
A
100
AcDbEntity
  8
1
390
1D
100
AcDbSpline
210
0.0000000000357028
220
0.0000000004999942
230
1.0
 70
     8
 71
     3
 72
     8
 73
     4
 74
     0
 42
0.0000000001
 43
0.0000000001
 40
0.0
 40
0.0
 40
0.0
 40
0.0
 40
1.0
 40
1.0
 40
1.0
 40
1.0
 10
21.0
 20
-0.5109372571388917
 30
0.0
 10
20.98666653546132
 20
-0.5100020255642335
 30
-0.0000000000000001
 10
20.97333319425974
 20
-0.5090499198087173
 30
-0.0000000000000001
 10
20.96000000000026
 20
-0.5080810062537467
 30
-0.0000000000000001
  0
SPLINE
  5
BA
330
A
100
AcDbEntity
  8
1
390
1D
100
AcDbSpline
210
0.0
220
0.0
230
1.0
 70
     8
 71
     3
 72
     8
 73
     4
 74
     0
 42
0.0000000001
 43
0.0000000001
 40
0.0
 40
0.0
 40
0.0
 40
0.0
 40
1.0
 40
1.0
 40
1.0
 40
1.0
 10
20.96000000000015
 20
-0.5080810062731871
 30
0.0
 10
20.92001684051104
 20
-0.6025536360716047
 30
-0.0000000000000001
 10
20.87926591555242
 20
-0.6869909977335169
 30
-0.0000000000000001
 10
20.83946846148712
 20
-0.7575995317715752
 30
0.0
  0
SPLINE
  5
BB
330
A
100
AcDbEntity
  8
1
390
1D
100
AcDbSpline
210
0.0000000000000157
220
0.0000000000011071
230
1.0
 70
     8
 71
     3
 72
     8
 73
     4
 74
     0
 42
0.0000000001
 43
0.0000000001
 40
0.0
 40
0.0
 40
0.0
 40
0.0
 40
1.0
 40
1.0
 40
1.0
 40
1.0
 10
20.83946846148712
 20
-0.7575995317715752
 30
0.0
 10
20.81307690078256
 20
-0.7573147201636062
 30
0.0000000000000001
 10
20.78668534007801
 20
-0.7569393822383859
 30
0.0000000000000001
 10
20.76029377937346
 20
-0.7564739211404686
 30
0.0
  0
SPLINE
  5
BC
330
A
100
AcDbEntity
  8
1
390
1D
100
AcDbSpline
210
0.0000000000001347
220
0.0000000000000589
230
1.0
 70
     8
 71
     3
 72
    10
 73
     6
 74
     0
 42
0.0000000001
 43
0.0000000001
 40
0.0
 40
0.0
 40
0.0
 40
0.0
 40
0.5
 40
0.5
 40
1.0
 40
1.0
 40
1.0
 40
1.0
 10
20.76029377937351
 20
-0.7564739211404686
 30
-0.0000000000000001
 10
20.74057062212381
 20
-0.7199407475993667
 30
0.0
 10
20.72080986553101
 20
-0.6787013876355559
 30
-0.0000000000000001
 10
20.68074742704141
 20
-0.5869868865002559
 30
-0.0000000000000001
 10
20.6602826741111
 20
-0.5360509310959288
 30
-0.0000000000000001
 10
20.63999999999999
 20
-0.4816392457934171
 30
-0.0000000000000001
  0
SPLINE
  5
BD
330
A
100
AcDbEntity
  8
1
390
1D
100
AcDbSpline
210
0.0
220
0.0
230
1.0
 70
     8
 71
     3
 72
     8
 73
     4
 74
     0
 42
0.0000000001
 43
0.0000000001
 40
0.0
 40
0.0
 40
0.0
 40
0.0
 40
1.0
 40
1.0
 40
1.0
 40
1.0
 10
20.63999999999999
 20
-0.4816392457933604
 30
-0.0000000000000001
 10
20.61333303065152
 20
-0.4791742251504161
 30
-0.0000000000000001
 10
20.58666633254455
 20
-0.4766450442101586
 30
-0.0000000000000001
 10
20.56
 20
-0.474052836658757
 30
-0.0000000000000001
  0
SPLINE
  5
BE
330
A
100
AcDbEntity
  8
1
390
1D
100
AcDbSpline
210
0.0
220
0.0
230
1.0
 70
     8
 71
     3
 72
     8
 73
     4
 74
     0
 42
0.0000000001
 43
0.0000000001
 40
0.0
 40
0.0
 40
0.0
 40
0.0
 40
1.0
 40
1.0
 40
1.0
 40
1.0
 10
20.56
 20
-0.474052836658757
 30
-0.0000000000000001
 10
20.52047831235984
 20
-0.5739401151662947
 30
-0.0000000000000001
 10
20.48010812241102
 20
-0.6660309942234335
 30
-0.0000000000000001
 10
20.44053652213768
 20
-0.7464511304503392
 30
-0.0000000000000001
  0
SPLINE
  5
BF
330
A
100
AcDbEntity
  8
1
390
1D
100
AcDbSpline
210
-0.0000000000011273
220
-0.0000000000232879
230
1.0
 70
     8
 71
     3
 72
     8
 73
     4
 74
     0
 42
0.0000000001
 43
0.0000000001
 40
0.0
 40
0.0
 40
0.0
 40
0.0
 40
1.0
 40
1.0
 40
1.0
 40
1.0
 10
20.44053652213779
 20
-0.7464511304503392
 30
-0.0000000000000001
 10
20.41345416938356
 20
-0.7452332314693991
 30
-0.0000000000000001
 10
20.38637181662938
 20
-0.7439221441703694
 30
-0.0000000000000001
 10
20.35928946387514
 20
-0.7425183041902415
 30
0.0
  0
SPLINE
  5
C0
330
A
100
AcDbEntity
  8
1
390
1D
100
AcDbSpline
210
0.0
220
0.0
230
1.0
 70
     8
 71
     3
 72
    10
 73
     6
 74
     0
 42
0.0000000001
 43
0.0000000001
 40
0.0
 40
0.0
 40
0.0
 40
0.0
 40
0.5
 40
0.5
 40
1.0
 40
1.0
 40
1.0
 40
1.0
 10
20.35928946387514
 20
-0.7425183041902415
 30
-0.0000000000000001
 10
20.33968796473692
 20
-0.6998683877706072
 30
-0.0000000000000001
 10
20.32007946806698
 20
-0.6532689372236861
 30
-0.0000000000000001
 10
20.28036591646725
 20
-0.5522935165539025
 30
-0.0000000000000002
 10
20.26009647840596
 20
-0.4974293685754105
 30
-0.0000000000000001
 10
20.24000000000001
 20
-0.4400059870820884
 30
-0.0000000000000001
  0
SPLINE
  5
C1
330
A
100
AcDbEntity
  8
1
390
1D
100
AcDbSpline
210
0.0
220
0.0
230
1.0
 70
     8
 71
     3
 72
     8
 73
     4
 74
     0
 42
0.0000000001
 43
0.0000000001
 40
0.0
 40
0.0
 40
0.0
 40
0.0
 40
1.0
 40
1.0
 40
1.0
 40
1.0
 10
20.24000000000001
 20
-0.4400059870820884
 30
-0.0000000000000001
 10
20.2133336797603
 20
-0.4369318315177679
 30
-0.0000000000000001
 10
20.1866670043824
 20
-0.4338006018724628
 30
-0.0000000000000001
 10
20.1600000000002
 20
-0.4306141866699705
 30
-0.0000000000000001
  0
SPLINE
  5
C2
330
A
100
AcDbEntity
  8
1
390
1D
100
AcDbSpline
210
0.0
220
0.0
230
1.0
 70
     8
 71
     3
 72
     8
 73
     4
 74
     0
 42
0.0000000001
 43
0.0000000001
 40
0.0
 40
0.0
 40
0.0
 40
0.0
 40
1.0
 40
1.0
 40
1.0
 40
1.0
 10
20.16000000000003
 20
-0.4306141866695157
 30
-0.0000000000000001
 10
20.12077953235445
 20
-0.5344108292907777
 30
-0.0000000000000001
 10
20.08066979350065
 20
-0.6328264781608369
 30
-0.0000000000000001
 10
20.04124647274466
 20
-0.7217944975847673
 30
-0.0000000000000001
  0
SPLINE
  5
C3
330
A
100
AcDbEntity
  8
1
390
1D
100
AcDbSpline
210
0.0
220
0.0
230
1.0
 70
     8
 71
     3
 72
     8
 73
     4
 74
     0
 42
0.0000000001
 43
0.0000000001
 40
0.0
 40
0.0
 40
0.0
 40
0.0
 40
1.0
 40
1.0
 40
1.0
 40
1.0
 10
20.0412464727446
 20
-0.7217944975847673
 30
-0.0000000000000001
 10
20.01371390269844
 20
-0.719635870934269
 30
-0.0000000000000001
 10
19.98618133265222
 20
-0.7173831446040709
 30
-0.0000000000000001
 10
19.958648762606
 20
-0.7150367763202894
 30
-0.0000000000000001
  0
SPLINE
  5
C4
330
A
100
AcDbEntity
  8
1
390
1D
100
AcDbSpline
210
0.0000000000007908
220
0.0000000000002881
230
1.0
 70
     8
 71
     3
 72
    10
 73
     6
 74
     0
 42
0.0000000001
 43
0.0000000001
 40
0.0
 40
0.0
 40
0.0
 40
0.0
 40
0.5
 40
0.5
 40
1.0
 40
1.0
 40
1.0
 40
1.0
 10
19.95864876259969
 20
-0.7150367763197209
 30
-0.0000000000000001
 10
19.93914300766465
 20
-0.6669916651035237
 30
-0.0000000000000001
 10
19.91964727906264
 20
-0.6157983687186288
 30
-0.0000000000000001
 10
19.88016170205298
 20
-0.5072132785016379
 30
-0.0000000000000001
 10
19.86000683727417
 20
-0.4493162487565884
 30
-0.0000000000000001
 10
19.84000000000003
 20
-0.3898653052547161
 30
-0.0000000000000002
  0
SPLINE
  5
C5
330
A
100
AcDbEntity
  8
1
390
1D
100
AcDbSpline
210
0.0
220
0.0
230
1.0
 70
    28
 71
     2
 72
     6
 73
     3
 74
     0
 42
0.0000000001
 43
0.0000000001
 40
0.0
 40
0.0
 40
0.0
 40
1.0
 40
1.0
 40
1.0
 10
20.99999999999915
 20
-0.3232877079418017
 30
-0.0000000000000001
 41
1.0
 10
20.99999999999914
 20
-0.421772190782902
 30
-0.0000000000000001
 41
0.9763274526549997
 10
20.99999999999912
 20
-0.5109372571481611
 30
-0.0000000000000001
 41
0.970685590584318
  0
SPLINE
  5
C6
330
A
100
AcDbEntity
  8
1
390
1D
100
AcDbSpline
210
-0.0000000000001198
220
0.0000000000000305
230
1.0
 70
     8
 71
     3
 72
    13
 73
     9
 74
     0
 42
0.0000000001
 43
0.0000000001
 40
0.0
 40
0.0
 40
0.0
 40
0.0
 40
0.2465321959713633
 40
0.4646148842395907
 40
0.6476087299437028
 40
0.7954397471558689
 40
0.9114734371719736
 40
1.0
 40
1.0
 40
1.0
 40
1.0
 10
19.14195489638421
 20
0.0484766263249981
 30
-0.0000000000000002
 10
19.13867771402965
 20
0.0393857407649989
 30
-0.0000000000000001
 10
19.13250153207366
 20
0.0222530464917554
 30
-0.0000000000000002
 10
19.12439281595903
 20
-0.0088451494062838
 30
-0.0000000000000002
 10
19.11756951380073
 20
-0.0369499534195938
 30
-0.0000000000000002
 10
19.11219998369285
 20
-0.0603142876205993
 30
-0.0000000000000002
 10
19.1081231798741
 20
-0.078452248085739
 30
-0.0000000000000001
 10
19.10639530656868
 20
-0.0884648919969509
 30
-0.0000000000000002
 10
19.1056129726967
 20
-0.0929983438743121
 30
-0.0000000000000001
  0
SPLINE
  5
C7
330
A
100
AcDbEntity
  8
1
390
1D
100
AcDbSpline
210
0.0000000000009427
220
-0.000000000000431
230
-1.0
 70
     8
 71
     3
 72
     8
 73
     4
 74
     0
 42
0.0000000001
 43
0.0000000001
 40
0.0
 40
0.0
 40
0.0
 40
0.0
 40
1.0
 40
1.0
 40
1.0
 40
1.0
 10
19.1495952820726
 20
0.0651680323799155
 30
-0.0000000000000002
 10
19.14716338877986
 20
0.0605875964442362
 30
-0.0000000000000002
 10
19.14460045832413
 20
0.0549899863216297
 30
-0.0000000000000001
 10
19.14195489638421
 20
0.0484766263249981
 30
-0.0000000000000002
  0
SPLINE
  5
C8
330
A
100
AcDbEntity
  8
1
390
1D
100
AcDbSpline
210
0.0
220
0.0
230
1.0
 70
     8
 71
     3
 72
     8
 73
     4
 74
     0
 42
0.0000000001
 43
0.0000000001
 40
0.0
 40
0.0
 40
0.0
 40
0.0
 40
1.0
 40
1.0
 40
1.0
 40
1.0
 10
19.80000000000001
 20
-0.0429207029301324
 30
-0.0000000000000002
 10
19.58306812693473
 20
-0.0076632912652599
 30
-0.0000000000000002
 10
19.36625623954711
 20
0.0285339964780178
 30
-0.0000000000000002
 10
19.14959528690952
 20
0.065168065562716
 30
-0.0000000000000002
  0
SPLINE
  5
C9
330
A
100
AcDbEntity
  8
1
390
1D
100
AcDbSpline
210
0.0
220
0.0
230
1.0
 70
    28
 71
     2
 72
     6
 73
     3
 74
     0
 42
0.0000000001
 43
0.0000000001
 40
0.0
 40
0.0
 40
0.0
 40
1.0
 40
1.0
 40
1.0
 10
21.00000000000136
 20
-0.2486788802287947
 30
-0.0000000000000002
 41
1.0
 10
21.00000000000138
 20
-0.1381117935693547
 30
-0.0000000000000001
 41
0.5502471181395193
 10
21.00000000000136
 20
-0.3232877079419723
 30
-0.0000000000000001
 41
1.0
  0
SPLINE
  5
CA
330
A
100
AcDbEntity
  8
1
390
1D
100
AcDbSpline
210
0.0
220
-0.0000000000000001
230
1.0
 70
     8
 71
     3
 72
    24
 73
    20
 74
     0
 42
0.0000000001
 43
0.0000000001
 40
0.0
 40
0.0
 40
0.0
 40
0.0
 40
0.2459424983418884
 40
0.2459424983418884
 40
0.3686833886467689
 40
0.3686833886467689
 40
0.4299748196691774
 40
0.4299748196691774
 40
0.4608119745791181
 40
0.4608119745791181
 40
0.4608119745791181
 40
0.4825947653560382
 40
0.4892179392541484
 40
0.5020124220363522
 40
0.5129722290004314
 40
0.5415274786897033
 40
0.6495068695856227
 40
0.6495068695856227
 40
1.0
 40
1.0
 40
1.0
 40
1.0
 10
19.09140234847263
 20
-0.1823384259533327
 30
-0.0000000000000002
 10
19.01588886087995
 20
-0.1571750935397063
 30
-0.0000000000000001
 10
18.94117490595073
 20
-0.1285540797967428
 30
-0.0000000000000002
 10
18.83246290248422
 20
-0.077958530588603
 30
-0.0000000000000002
 10
18.79673981619857
 20
-0.0597787117923758
 30
-0.0000000000000002
 10
18.7444438610371
 20
-0.0302092032919745
 30
-0.0000000000000002
 10
18.72721760167758
 20
-0.0199641760453915
 30
-0.0000000000000002
 10
18.70174438326796
 20
-0.0039633777249151
 30
-0.0000000000000002
 10
18.69338604307666
 20
0.0018241981516667
 30
-0.0000000000000001
 10
18.6861425442882
 20
0.0087878579763014
 30
-0.0000000000000002
 10
18.67693200524064
 20
0.0195711971383616
 30
-0.0000000000000002
 10
18.67284773555804
 20
0.0303325275249335
 30
-0.0000000000000002
 10
18.67468206069765
 20
0.0407803466605969
 30
-0.0000000000000002
 10
18.68172186544479
 20
0.0494512685903601
 30
-0.0000000000000002
 10
18.70960455057491
 20
0.0634115091646095
 30
-0.0000000000000001
 10
18.74252668196294
 20
0.0743490684272956
 30
-0.0000000000000001
 10
18.77778712634483
 20
0.0775746559629056
 30
-0.0000000000000002
 10
18.92467527617868
 20
0.0872977564829966
 30
-0.0000000000000002
 10
19.0378831664911
 20
0.078320565815261
 30
-0.0000000000000001
 10
19.14959526216211
 20
0.0651678747703954
 30
-0.0000000000000001
  0
SPLINE
  5
CB
330
A
100
AcDbEntity
  8
1
390
1D
100
AcDbSpline
210
0.0
220
0.0
230
1.0
 70
     8
 71
     3
 72
     8
 73
     4
 74
     0
 42
0.0000000001
 43
0.0000000001
 40
0.0
 40
0.0
 40
0.0
 40
0.0
 40
1.0
 40
1.0
 40
1.0
 40
1.0
 10
19.97048116083687
 20
-0.7454177134527527
 30
-0.0000000000000001
 10
19.96641805912509
 20
-0.7353655765322174
 30
-0.0000000000000001
 10
19.96246913494758
 20
-0.7252379211323614
 30
-0.0000000000000001
 10
19.95864876259969
 20
-0.7150367763197209
 30
-0.0000000000000001
  0
SPLINE
  5
CC
330
A
100
AcDbEntity
  8
1
390
1D
100
AcDbSpline
210
0.0
220
0.0
230
1.0
 70
     8
 71
     3
 72
     8
 73
     4
 74
     0
 42
0.0000000001
 43
0.0000000001
 40
0.0
 40
0.0
 40
0.0
 40
0.0
 40
1.0
 40
1.0
 40
1.0
 40
1.0
 10
20.04124647274466
 20
-0.7217944975847673
 30
-0.0000000000000001
 10
20.03747236969446
 20
-0.731028154493913
 30
-0.0000000000000001
 10
20.03355874144489
 20
-0.7402736445109781
 30
-0.0000000000000001
 10
20.02951883916319
 20
-0.749531548673076
 30
-0.0000000000000001
  0
SPLINE
  5
CD
330
A
100
AcDbEntity
  8
1
390
1D
100
AcDbSpline
210
0.0000000000385763
220
0.0000000000174611
230
1.0
 70
     8
 71
     3
 72
     8
 73
     4
 74
     0
 42
0.0000000001
 43
0.0000000001
 40
0.0
 40
0.0
 40
0.0
 40
0.0
 40
1.0
 40
1.0
 40
1.0
 40
1.0
 10
20.37048116083685
 20
-0.7672516846149052
 30
0.0
 10
20.36664479666092
 20
-0.7590765772857822
 30
0.0
 10
20.36291021081303
 20
-0.7508315049341832
 30
-0.0000000000000001
 10
20.35928946387514
 20
-0.7425183041902415
 30
-0.0000000000000001
  0
SPLINE
  5
CE
330
A
100
AcDbEntity
  8
1
390
1D
100
AcDbSpline
210
0.0000000000160633
220
-0.0000000000077566
230
-1.0
 70
     8
 71
     3
 72
     8
 73
     4
 74
     0
 42
0.0000000001
 43
0.0000000001
 40
0.0
 40
0.0
 40
0.0
 40
0.0
 40
1.0
 40
1.0
 40
1.0
 40
1.0
 10
20.44053652213751
 20
-0.7464511304503958
 30
-0.0000000000000001
 10
20.43698254054686
 20
-0.7540388701109464
 30
-0.0000000000000002
 10
20.43330633893891
 20
-0.7616463156545024
 30
-0.0000000000000001
 10
20.42951883916317
 20
-0.7692743415993846
 30
-0.0000000000000001
  0
SPLINE
  5
CF
330
A
100
AcDbEntity
  8
1
390
1D
100
AcDbSpline
210
0.0000000000117098
220
0.0000000000064484
230
1.0
 70
     8
 71
     3
 72
     8
 73
     4
 74
     0
 42
0.0000000001
 43
0.0000000001
 40
0.0
 40
0.0
 40
0.0
 40
0.0
 40
1.0
 40
1.0
 40
1.0
 40
1.0
 10
20.77048116083688
 20
-0.7749784530276429
 30
-0.0000000000000001
 10
20.76699795776574
 20
-0.7688687460945971
 30
0.0
 10
20.76359914822194
 20
-0.7627000789634053
 30
-0.0000000000000001
 10
20.76029377937351
 20
-0.7564739211404686
 30
-0.0000000000000001
  0
SPLINE
  5
D0
330
A
100
AcDbEntity
  8
1
390
1D
100
AcDbSpline
210
0.0000000000017495
220
0.0000000000251067
230
1.0
 70
     8
 71
     3
 72
     8
 73
     4
 74
     0
 42
0.0000000001
 43
0.0000000001
 40
0.0
 40
0.0
 40
0.0
 40
0.0
 40
1.0
 40
1.0
 40
1.0
 40
1.0
 10
20.02951883916739
 20
-0.7495315486735308
 30
-0.0000000000000001
 10
20.00984043890918
 20
-0.7482116227969869
 30
-0.0000000000000001
 10
19.99016132191371
 20
-0.7468403047834045
 30
-0.0000000000000002
 10
19.97048116083687
 20
-0.7454177134527527
 30
-0.0000000000000001
  0
SPLINE
  5
D1
330
A
100
AcDbEntity
  8
1
390
1D
100
AcDbSpline
210
-0.0000000000499135
220
0.0000000000286419
230
-1.0
 70
     8
 71
     3
 72
     8
 73
     4
 74
     0
 42
0.0000000001
 43
0.0000000001
 40
0.0
 40
0.0
 40
0.0
 40
0.0
 40
1.0
 40
1.0
 40
1.0
 40
1.0
 10
20.83946846148712
 20
-0.7575995317715752
 30
0.0
 10
20.83624840418429
 20
-0.7633568518119205
 30
-0.0000000000000001
 10
20.83292918981431
 20
-0.7691375007104853
 30
0.0
 10
20.82951883916314
 20
-0.7749423998332077
 30
-0.0000000000000001
  0
SPLINE
  5
D2
330
A
100
AcDbEntity
  8
1
390
1D
100
AcDbSpline
210
0.0
220
0.0
230
1.0
 70
    28
 71
     2
 72
     6
 73
     3
 74
     0
 42
0.0000000001
 43
0.0000000001
 40
0.0
 40
0.0
 40
0.0
 40
1.0
 40
1.0
 40
1.0
 10
21.00000000000136
 20
0.5423413534704764
 30
0.0
 41
1.0
 10
21.00000000000144
 20
0.4961699515028009
 30
0.0
 41
0.8336053631509335
 10
21.00000000000143
 20
0.4568903534705636
 30
0.0
 41
0.790332450647912
  0
SPLINE
  5
D3
330
A
100
AcDbEntity
  8
1
390
1D
100
AcDbSpline
210
-0.0000000000014175
220
-0.0000000000413744
230
1.0
 70
     8
 71
     3
 72
     8
 73
     4
 74
     0
 42
0.0000000001
 43
0.0000000001
 40
0.0
 40
0.0
 40
0.0
 40
0.0
 40
1.0
 40
1.0
 40
1.0
 40
1.0
 10
20.42951883916874
 20
-0.7692743415994983
 30
0.0
 10
20.40983841397366
 20
-0.7686513472419279
 30
-0.0000000000000001
 10
20.39015927701797
 20
-0.7679771691841211
 30
-0.0000000000000001
 10
20.3704811608369
 20
-0.7672516846147915
 30
0.0000000000000001
  0
SPLINE
  5
D4
330
A
100
AcDbEntity
  8
1
390
1D
100
AcDbSpline
210
-0.0000000000004948
220
0.0000000000259092
230
1.0
 70
     8
 71
     3
 72
     8
 73
     4
 74
     0
 42
0.0000000001
 43
0.0000000001
 40
0.0
 40
0.0
 40
0.0
 40
0.0
 40
1.0
 40
1.0
 40
1.0
 40
1.0
 10
20.77048116083688
 20
0.7724322664553825
 30
0.0000000000000001
 10
20.79015977674277
 20
0.7728619312277374
 30
0.0000000000000001
 10
20.80983890050595
 20
0.7732378009254717
 30
0.0
 10
20.82951883916314
 20
0.773559764967672
 30
0.0
  0
SPLINE
  5
D5
330
A
100
AcDbEntity
  8
1
390
1D
100
AcDbSpline
210
0.0000000001028281
220
-0.0000000000580428
230
-1.0
 70
     8
 71
     3
 72
     8
 73
     4
 74
     0
 42
0.0000000001
 43
0.0000000001
 40
0.0
 40
0.0
 40
0.0
 40
0.0
 40
1.0
 40
1.0
 40
1.0
 40
1.0
 10
20.64391179368505
 20
0.5482109785766057
 30
0.0000000000000001
 10
20.68612167381616
 20
0.6233334650576126
 30
-0.0000000000000001
 10
20.72833317618318
 20
0.6981381197098813
 30
0.0
 10
20.77048116083688
 20
0.7724322664553825
 30
0.0
  0
SPLINE
  5
D6
330
A
100
AcDbEntity
  8
1
390
1D
100
AcDbSpline
210
-0.0000000001476819
220
-0.0000000000854425
230
-1.0
 70
     8
 71
     3
 72
     8
 73
     4
 74
     0
 42
0.0000000001
 43
0.0000000001
 40
0.0
 40
0.0
 40
0.0
 40
0.0
 40
1.0
 40
1.0
 40
1.0
 40
1.0
 10
20.82951883916314
 20
0.773559764967672
 30
0.0
 10
20.87204798823558
 20
0.7002613592716216
 30
-0.0000000000000001
 10
20.91463289788709
 20
0.6266519639947319
 30
0.0
 10
20.95717558898775
 20
0.5529144850327726
 30
0.0
  0
SPLINE
  5
D7
330
A
100
AcDbEntity
  8
1
390
1D
100
AcDbSpline
210
-0.0000000000000003
220
0.0000000000004863
230
1.0
 70
     8
 71
     3
 72
     8
 73
     4
 74
     0
 42
0.0000000001
 43
0.0000000001
 40
0.0
 40
0.0
 40
0.0
 40
0.0
 40
1.0
 40
1.0
 40
1.0
 40
1.0
 10
20.82951883916314
 20
-0.7749423998332077
 30
0.0
 10
20.80983690245796
 20
-0.7750042416130896
 30
-0.0000000000000001
 10
20.7901577371332
 20
-0.7750163311876577
 30
0.0000000000000001
 10
20.77048116083688
 20
-0.7749784530276429
 30
0.0
  0
SPLINE
  5
D8
330
A
100
AcDbEntity
  8
1
390
1D
100
AcDbSpline
210
-0.0000000000033947
220
0.0000000000608673
230
1.0
 70
     8
 71
     3
 72
     8
 73
     4
 74
     0
 42
0.0000000001
 43
0.0000000001
 40
0.0
 40
0.0
 40
0.0
 40
0.0
 40
1.0
 40
1.0
 40
1.0
 40
1.0
 10
20.37048116083685
 20
0.7563434156984386
 30
0.0000000000000002
 10
20.39016183327522
 20
0.7574933976742387
 30
0.0000000000000001
 10
20.40984096088818
 20
0.7585910188220169
 30
0.0000000000000001
 10
20.42951883916345
 20
0.7596360051247757
 30
0.0000000000000001
  0
SPLINE
  5
D9
330
A
100
AcDbEntity
  8
1
390
1D
100
AcDbSpline
210
0.0000000000410377
220
0.0000000000242279
230
1.0
 70
     8
 71
     3
 72
     8
 73
     4
 74
     0
 42
0.0000000001
 43
0.0000000001
 40
0.0
 40
0.0
 40
0.0
 40
0.0
 40
1.0
 40
1.0
 40
1.0
 40
1.0
 10
20.42951883916317
 20
0.7596360051247757
 30
0.0
 10
20.47157666789639
 20
0.6890680848131297
 30
0.0000000000000001
 10
20.51369473920084
 20
0.6177174492616473
 30
0.0000000000000001
 10
20.55579085506844
 20
0.5457581931525511
 30
0.0000000000000001
  0
SPLINE
  5
DA
330
A
100
AcDbEntity
  8
1
390
1D
100
AcDbSpline
210
0.0
220
0.0
230
1.0
 70
     8
 71
     3
 72
    10
 73
     6
 74
     0
 42
0.0000000001
 43
0.0000000001
 40
0.0
 40
0.0
 40
0.0
 40
0.0
 40
0.4996112251372782
 40
0.4996112251372782
 40
1.0
 40
1.0
 40
1.0
 40
1.0
 10
20.24517806479884
 20
0.5331162486704102
 30
0.0000000000000001
 10
20.26605783746493
 20
0.5702236218673421
 30
0.0000000000000001
 10
20.28694330020494
 20
0.6073918384254285
 30
0.0
 10
20.3287153659482
 20
0.6818174348944126
 30
0.0
 10
20.3496102875788
 20
0.7190891810491849
 30
0.0000000000000001
 10
20.37048116083685
 20
0.7563434156984386
 30
0.0000000000000001
  0
SPLINE
  5
DB
330
A
100
AcDbEntity
  8
1
390
1D
100
AcDbSpline
210
0.0
220
0.0
230
1.0
 70
     8
 71
     3
 72
    10
 73
     6
 74
     0
 42
0.0000000001
 43
0.0000000001
 40
0.0
 40
0.0
 40
0.0
 40
0.0
 40
0.2879971959204018
 40
0.2879971959204018
 40
1.0
 40
1.0
 40
1.0
 40
1.0
 10
20.16000000000003
 20
0.5193052703912713
 30
0.0000000000000001
 10
20.16767997576039
 20
0.5197667645629736
 30
0.0000000000000001
 10
20.17535994169123
 20
0.5202230497915821
 30
0.0000000000000001
 10
20.20202667277977
 20
0.5217892556775042
 30
0.0000000000000001
 10
20.22101340111516
 20
0.5228724842694988
 30
0.0000000000000001
 10
20.24000000000001
 20
0.5239236005920134
 30
0.0000000000000001
  0
SPLINE
  5
DC
330
A
100
AcDbEntity
  8
1
390
1D
100
AcDbSpline
210
0.0000000000030713
220
-0.0000000000911516
230
1.0
 70
     8
 71
     3
 72
    10
 73
     6
 74
     0
 42
0.0000000001
 43
0.0000000001
 40
0.0
 40
0.0
 40
0.0
 40
0.0
 40
0.2879702493775536
 40
0.2879702493775536
 40
1.0
 40
1.0
 40
1.0
 40
1.0
 10
20.56
 20
0.5385645217553475
 30
0.0
 10
20.5676792899161
 20
0.5388412733208839
 30
0.0
 10
20.57535855875972
 20
0.5391125971525526
 30
0.0
 10
20.60202533061852
 20
0.5400359025206285
 30
0.0000000000000001
 10
20.62101274792241
 20
0.5406600709845862
 30
0.0000000000000001
 10
20.64000000000027
 20
0.5412508230882623
 30
0.0000000000000001
  0
SPLINE
  5
DD
330
A
100
AcDbEntity
  8
1
390
1D
100
AcDbSpline
210
0.0000000000018048
220
-0.0000000001833427
230
1.0
 70
     8
 71
     3
 72
    10
 73
     6
 74
     0
 42
0.0000000001
 43
0.0000000001
 40
0.0
 40
0.0
 40
0.0
 40
0.0
 40
0.5758962814224161
 40
0.5758962814224161
 40
1.0
 40
1.0
 40
1.0
 40
1.0
 10
20.95999999999998
 20
0.5480192146505374
 30
0.0
 10
20.967678636127
 20
0.5481046366670626
 30
-0.0000000000000001
 10
20.97535726214073
 20
0.5481844876185278
 30
0.0
 10
20.98869058905325
 20
0.5483134616304142
 30
0.0
 10
20.99434529776397
 20
0.548365136422774
 30
0.0
 10
21.0000000001038
 20
0.5484137861305954
 30
0.0000000000000001
  0
SPLINE
  5
DE
330
A
100
AcDbEntity
  8
1
390
1D
100
AcDbSpline
210
0.0
220
0.0
230
1.0
 70
    24
 71
     1
 72
     4
 73
     2
 74
     0
 42
0.0000000001
 43
0.0000000001
 40
0.0
 40
0.0
 40
1.0
 40
1.0
 10
20.95717558898775
 20
0.5529144850327726
 30
0.0
 10
20.96000000000004
 20
0.5480192146505374
 30
0.0
  0
SPLINE
  5
DF
330
A
100
AcDbEntity
  8
1
390
1D
100
AcDbSpline
210
0.0
220
0.0
230
1.0
 70
    28
 71
     1
 72
     4
 73
     2
 74
     0
 42
0.0000000001
 43
0.0000000001
 40
0.0
 40
0.0
 40
1.0
 40
1.0
 10
21.00000000000001
 20
0.5484137861297662
 30
0.0
 41
0.9999967907062853
 10
21.0
 20
0.5423413534704764
 30
0.0
 41
1.0
  0
SPLINE
  5
E0
330
A
100
AcDbEntity
  8
1
390
1D
100
AcDbSpline
210
0.0000000000033753
220
-0.0000000000370831
230
1.0
 70
     8
 71
     3
 72
     8
 73
     4
 74
     0
 42
0.0000000001
 43
0.0000000001
 40
0.0
 40
0.0
 40
0.0
 40
0.0
 40
1.0
 40
1.0
 40
1.0
 40
1.0
 10
19.97048116083687
 20
0.7258863565800198
 30
0.0
 10
19.99016095645987
 20
0.727727328994547
 30
0.0000000000000002
 10
20.00984009522574
 20
0.7295186359726813
 30
0.0
 10
20.02951883916336
 20
0.7312598744753132
 30
0.0000000000000001
  0
SPLINE
  5
E1
330
A
100
AcDbEntity
  8
1
390
1D
100
AcDbSpline
210
0.0
220
0.0
230
1.0
 70
     8
 71
     3
 72
    10
 73
     6
 74
     0
 42
0.0000000001
 43
0.0000000001
 40
0.0
 40
0.0
 40
0.0
 40
0.0
 40
0.4996112448503007
 40
0.4996112448503007
 40
1.0
 40
1.0
 40
1.0
 40
1.0
 10
20.02951883916313
 20
0.7312598744753132
 30
0.0000000000000001
 10
20.05032075975043
 20
0.6980360933278007
 30
0.0000000000000001
 10
20.07114524280405
 20
0.6644966617001274
 30
0.0000000000000002
 10
20.11283611150401
 20
0.5968136093179624
 30
0.0000000000000001
 10
20.13371094192269
 20
0.5626561355348941
 30
0.0000000000000001
 10
20.1545751092163
 20
0.528247598245855
 30
0.0000000000000001
  0
SPLINE
  5
E2
330
A
100
AcDbEntity
  8
1
390
1D
100
AcDbSpline
210
0.0000000002078178
220
-0.0000000001182507
230
1.0
 70
     8
 71
     3
 72
    10
 73
     6
 74
     0
 42
0.0000000001
 43
0.0000000001
 40
0.0
 40
0.0
 40
0.0
 40
0.0
 40
0.364588389315208
 40
0.364588389315208
 40
1.0
 40
1.0
 40
1.0
 40
1.0
 10
19.87253216262837
 20
0.5537179451906696
 30
0.0000000000000001
 10
19.88444677220554
 20
0.5745133190286538
 30
0.0000000000000001
 10
19.89635954771444
 20
0.5953611913739679
 30
0.0000000000000001
 10
19.92901894470555
 20
0.6526647215616777
 30
0.0000000000000002
 10
19.94976228281496
 20
0.6892242518944727
 30
0.0000000000000001
 10
19.97048116083687
 20
0.7258863565800198
 30
0.0000000000000002
  0
LINE
  5
E3
330
A
100
AcDbEntity
  8
SK4
390
1D
100
AcDbLine
 10
-36.125
 20
0.0
 30
0.0
 11
21.125
 21
0.0
 31
0.0
  0
LINE
  5
E5
330
A
100
AcDbEntity
  8
4
390
1D
100
AcDbLine
 10
-0.125
 20
0.0
 30
0.0
 11
21.125
 21
0.0
 31
0.0
  0
MTEXT
  5
E7
330
A
100
AcDbEntity
  8
SK6
390
1D
100
AcDbMText
 10
2.9
 20
-50.453125
 30
0.0
 40
4.5
 41
0.0
 71
     7
 72
     5
  1
\W01.000;\Fsimplex.shx;
  7
SIMPLEX
 73
     2
 44
0.9036139999999999
1001
ACAD
1000
MTEXTBEGIN
1070
    73
1070
     2
1070
    44
1040
0.9036139999999999
1070
    74
1070
     0
1000
MTEXTEND
  0
DIMENSION
  5
F4
330
A
100
AcDbEntity
  8
2
390
1D
100
AcDbDimension
  2
_D0
 10
21.0
 20
78.43
 30
0.0
 11
10.5
 21
79.5
 31
0.0
 70
    33
  1
 <> 
 71
     5
 42
-1.0
  3
Standard
100
AcDbAlignedDimension
 13
0.0
 23
0.0
 33
0.0
 14
21.0
 24
0.0
 34
0.0
1001
ACAD
1000
DSTYLE
1002
{
1070
   271
1070
     3
1070
   272
1070
     3
1070
    77
1070
     1
1070
    73
1070
     0
1070
   179
1070
     3
1070
   171
1070
     3
1070
   274
1070
     3
1070
   177
1070
     7
1070
   176
1070
     7
1070
   178
1070
     7
1070
    78
1070
     8
1070
    47
1040
0.005
1070
    48
1040
-0.005
1070
    41
1040
4.57
1070
   147
1040
1.5
1070
    42
1040
0.0
1070
    44
1040
3.5
1070
   140
1040
4.57
1070
     6
1000
_CLOSEDFILLED
1070
     7
1000
_CLOSEDFILLED
1002
}
  0
DIMENSION
  5
100
330
A
100
AcDbEntity
  8
SK2
390
1D
100
AcDbDimension
  2
_D1
 10
-56.5
 20
17.043698
 30
0.0
 11
-56.5
 21
17.043698
 31
0.0
 70
    32
  1
%%c <> 
 71
     0
 72
     0
 41
0.0
 42
-1.0
 53
90.0
  3
Standard
100
AcDbAlignedDimension
 13
-35.6
 23
3.0
 33
0.0
 14
-35.6
 24
-3.0
 34
0.0
 50
90.0
100
AcDbRotatedDimension
1001
ACAD
1000
DSTYLE
1002
{
1070
   271
1070
     3
1070
   272
1070
     3
1070
    77
1070
     1
1070
    73
1070
     0
1070
   179
1070
     3
1070
   171
1070
     3
1070
   274
1070
     3
1070
   177
1070
     7
1070
   176
1070
     7
1070
   178
1070
     7
1070
    78
1070
     8
1070
    47
1040
0.005
1070
    48
1040
-0.005
1070
    41
1040
4.57
1070
   147
1040
1.5
1070
    42
1040
0.0
1070
    44
1040
3.5
1070
   140
1040
4.57
1070
     6
1000
_CLOSEDFILLED
1070
     7
1000
_CLOSEDFILLED
1002
}
  0
DIMENSION
  5
10B
330
A
100
AcDbEntity
  8
2
390
1D
100
AcDbDimension
  2
_D2
 10
66.5
 20
22.287792
 30
0.0
 11
66.5
 21
22.287792
 31
0.0
 70
    32
  1
%%c <> 
 71
     0
 72
     0
 41
0.0
 42
-1.0
 53
90.0
  3
Standard
100
AcDbAlignedDimension
 13
21.0
 23
-0.775
 33
0.0
 14
21.0
 24
0.775
 34
0.0
 50
90.0
100
AcDbRotatedDimension
1001
ACAD
1000
DSTYLE
1002
{
1070
   271
1070
     3
1070
   272
1070
     3
1070
    77
1070
     1
1070
    73
1070
     0
1070
   179
1070
     3
1070
   177
1070
     7
1070
   176
1070
     7
1070
   178
1070
     7
1070
    78
1070
     8
1070
    47
1040
0.005
1070
    48
1040
-0.005
1070
    41
1040
4.57
1070
   147
1040
1.5
1070
    42
1040
0.0
1070
    44
1040
2.0
1070
   140
1040
4.57
1070
     6
1000
_CLOSEDFILLED
1070
     7
1000
_CLOSEDFILLED
1002
}
  0
DIMENSION
  5
115
330
A
100
AcDbEntity
  8
2
390
1D
100
AcDbDimension
  2
_D3
 10
34.310594
 20
64.5
 30
0.0
 11
34.310594
 21
64.5
 31
0.0
 70
    32
  1
 <> 
 71
     5
 42
-1.0
  3
Standard
100
AcDbAlignedDimension
 13
21.0
 23
0.0
 33
0.0
 14
16.4
 24
0.0
 34
0.0
100
AcDbRotatedDimension
1001
ACAD
1000
DSTYLE
1002
{
1070
   271
1070
     3
1070
   272
1070
     3
1070
    77
1070
     1
1070
    73
1070
     0
1070
   179
1070
     3
1070
   171
1070
     3
1070
   274
1070
     3
1070
   177
1070
     7
1070
   176
1070
     7
1070
   178
1070
     7
1070
    78
1070
     8
1070
    47
1040
0.005
1070
    48
1040
-0.005
1070
    41
1040
4.57
1070
   147
1040
1.5
1070
    42
1040
0.0
1070
    44
1040
3.5
1070
   140
1040
4.57
1070
     6
1000
_CLOSEDFILLED
1070
     7
1000
_CLOSEDFILLED
1002
}
  0
DIMENSION
  5
11F
330
A
100
AcDbEntity
  8
2
390
1D
100
AcDbDimension
  2
_D4
 10
34.310594
 20
49.500007
 30
0.0
 11
34.310594
 21
49.500007
 31
0.0
 70
    32
  1
 <> 
 71
     5
 42
-1.0
  3
Standard
100
AcDbAlignedDimension
 13
19.8
 23
0.0
 33
0.0
 14
21.0
 24
0.0
 34
0.0
100
AcDbRotatedDimension
1001
ACAD
1000
DSTYLE
1002
{
1070
   271
1070
     3
1070
   272
1070
     3
1070
    77
1070
     1
1070
    73
1070
     0
1070
   179
1070
     3
1070
   177
1070
     7
1070
   176
1070
     7
1070
   178
1070
     7
1070
    78
1070
     8
1070
    47
1040
0.005
1070
    48
1040
-0.005
1070
    41
1040
4.57
1070
   147
1040
1.5
1070
    42
1040
0.0
1070
    44
1040
2.0
1070
   140
1040
4.57
1070
     6
1000
_CLOSEDFILLED
1070
     7
1000
_CLOSEDFILLED
1002
}
  0
DIMENSION
  5
129
330
A
100
AcDbEntity
  8
SK2
390
1D
100
AcDbDimension
  2
_D5
 10
-7.5
 20
94.50000000000001
 30
0.0
 11
-7.5
 21
94.50000000000001
 31
0.0
 70
    32
  1
 <> 
 71
     5
 42
-1.0
  3
Standard
100
AcDbAlignedDimension
 13
-36.0
 23
0.0
 33
0.0
 14
21.0
 24
0.0
 34
0.0
100
AcDbRotatedDimension
1001
ACAD
1000
DSTYLE
1002
{
1070
   271
1070
     3
1070
   272
1070
     3
1070
    77
1070
     1
1070
    73
1070
     0
1070
   179
1070
     3
1070
   177
1070
     7
1070
   176
1070
     7
1070
   178
1070
     7
1070
    78
1070
     8
1070
    47
1040
0.005
1070
    48
1040
-0.005
1070
    41
1040
4.57
1070
   147
1040
1.5
1070
    42
1040
0.0
1070
    44
1040
2.0
1070
   140
1040
4.57
1070
     6
1000
_CLOSEDFILLED
1070
     7
1000
_CLOSEDFILLED
1002
}
  0
ENDSEC
  0
SECTION
  2
OBJECTS
  0
DICTIONARY
  5
19
330
0
100
AcDbDictionary
281
     1
  3
ACAD_COLOR
350
1BB
  3
ACAD_GROUP
350
1A
  3
ACAD_LAYOUT
350
1E
  3
ACAD_MATERIAL
350
18E
  3
ACAD_MLEADERSTYLE
350
181
  3
ACAD_MLINESTYLE
350
1B
  3
ACAD_PLOTSETTINGS
350
22
  3
ACAD_PLOTSTYLENAME
350
1F
  3
ACAD_SCALELIST
350
142
  3
ACAD_TABLESTYLE
350
1BC
  3
ACAD_VISUALSTYLE
350
1A7
  3
ACAD_WIPEOUT_VARS
350
23
  3
ACDB_RECOMPOSE_DATA
350
1E1
  3
AcDbVariableDictionary
350
17E
  3
ASE_INDEX_DICTIONARY
350
1D6
  3
DWGPROPS
350
1E2
  0
DICTIONARY
  5
1C1
330
14
100
AcDbDictionary
280
     1
281
     1
  3
ADSK_XREC_LAYER_RECONCILED
360
1C2
  0
DICTIONARY
  5
1C3
330
183
100
AcDbDictionary
280
     1
281
     1
  3
ADSK_XREC_LAYER_RECONCILED
360
1C4
  0
DICTIONARY
  5
1C5
330
184
100
AcDbDictionary
280
     1
281
     1
  3
ADSK_XREC_LAYER_RECONCILED
360
1C6
  0
DICTIONARY
  5
1C7
330
185
100
AcDbDictionary
280
     1
281
     1
  3
ADSK_XREC_LAYER_RECONCILED
360
1C8
  0
DICTIONARY
  5
1C9
330
186
100
AcDbDictionary
280
     1
281
     1
  3
ADSK_XREC_LAYER_RECONCILED
360
1CA
  0
DICTIONARY
  5
1CB
330
187
100
AcDbDictionary
280
     1
281
     1
  3
ADSK_XREC_LAYER_RECONCILED
360
1CC
  0
DICTIONARY
  5
1CD
330
188
100
AcDbDictionary
280
     1
281
     1
  3
ADSK_XREC_LAYER_RECONCILED
360
1CE
  0
DICTIONARY
  5
1CF
330
189
100
AcDbDictionary
280
     1
281
     1
  3
ADSK_XREC_LAYER_RECONCILED
360
1D0
  0
DICTIONARY
  5
1D1
330
18A
100
AcDbDictionary
280
     1
281
     1
  3
ADSK_XREC_LAYER_RECONCILED
360
1D2
  0
DICTIONARY
  5
1D3
330
18B
100
AcDbDictionary
280
     1
281
     1
  3
ADSK_XREC_LAYER_RECONCILED
360
1D4
  0
DICTIONARY
  5
1BB
102
{ACAD_REACTORS
330
19
102
}
330
19
100
AcDbDictionary
281
     1
  0
DICTIONARY
  5
1A
102
{ACAD_REACTORS
330
19
102
}
330
19
100
AcDbDictionary
281
     1
  0
DICTIONARY
  5
1E
102
{ACAD_REACTORS
330
19
102
}
330
19
100
AcDbDictionary
281
     1
  3
Layout1
350
21
  3
Model
350
20
  0
DICTIONARY
  5
18E
102
{ACAD_REACTORS
330
19
102
}
330
19
100
AcDbDictionary
281
     1
  3
ByBlock
350
197
  3
ByLayer
350
18F
  3
Global
350
19F
  0
DICTIONARY
  5
181
102
{ACAD_REACTORS
330
19
102
}
330
19
100
AcDbDictionary
281
     1
  3
Standard
350
1BE
  0
DICTIONARY
  5
1B
102
{ACAD_REACTORS
330
19
102
}
330
19
100
AcDbDictionary
281
     1
  3
Standard
350
1C
  0
DICTIONARY
  5
22
102
{ACAD_REACTORS
330
19
102
}
330
19
100
AcDbDictionary
281
     1
  0
ACDBDICTIONARYWDFLT
  5
1F
102
{ACAD_REACTORS
330
19
102
}
330
19
100
AcDbDictionary
281
     1
  3
Normal
350
1D
100
AcDbDictionaryWithDefault
340
1D
  0
DICTIONARY
  5
142
102
{ACAD_REACTORS
330
19
102
}
330
19
100
AcDbDictionary
281
     1
  3
A0
350
143
  3
A1
350
144
  3
A2
350
145
  3
A3
350
146
  3
A4
350
147
  3
A5
350
148
  3
A6
350
149
  3
A7
350
14A
  3
A8
350
14B
  3
A9
350
14C
  3
B0
350
14D
  3
B1
350
14E
  3
B2
350
14F
  3
B3
350
150
  3
B4
350
151
  3
B5
350
152
  3
B6
350
153
  3
B7
350
154
  3
B8
350
155
  3
B9
350
156
  3
C0
350
157
  3
C1
350
158
  3
C2
350
159
  3
C3
350
15A
  3
C4
350
15B
  3
C5
350
15C
  3
C6
350
15D
  3
C7
350
15E
  3
C8
350
15F
  3
C9
350
160
  3
D0
350
161
  3
D1
350
162
  3
D2
350
163
  0
DICTIONARY
  5
1BC
102
{ACAD_REACTORS
330
19
102
}
330
19
100
AcDbDictionary
281
     1
  3
Standard
350
1BD
  0
DICTIONARY
  5
1A7
102
{ACAD_REACTORS
330
19
102
}
330
19
100
AcDbDictionary
281
     1
  3
2dWireframe
350
1AD
  3
3D Hidden
350
1AF
  3
3dWireframe
350
1AE
  3
Basic
350
1AC
  3
Brighten
350
1B3
  3
ColorChange
350
1B7
  3
Conceptual
350
1B0
  3
Dim
350
1B2
  3
EdgeColorOff
350
1BA
  3
Facepattern
350
1B6
  3
Flat
350
1A8
  3
FlatWithEdges
350
1A9
  3
Gouraud
350
1AA
  3
GouraudWithEdges
350
1AB
  3
JitterOff
350
1B8
  3
Linepattern
350
1B5
  3
OverhangOff
350
1B9
  3
Realistic
350
1B1
  3
Thicken
350
1B4
  0
WIPEOUTVARIABLES
  5
23
330
19
100
AcDbWipeoutVariables
 70
     1
  0
XRECORD
  5
1E1
102
{ACAD_REACTORS
330
19
102
}
330
19
100
AcDbXrecord
280
     1
 90
        1
330
1BD
  0
DICTIONARY
  5
17E
102
{ACAD_REACTORS
330
19
102
}
330
19
100
AcDbDictionary
281
     1
  3
CANNOSCALE
350
17F
  3
CMLEADERSTYLE
350
1DA
  3
CTABLESTYLE
350
1D9
  3
DIMASSOC
350
1DD
  3
INDEXCTL
350
1DC
  3
SORTENTS
350
1DB
  3
XCLIPFRAME
350
1DE
  0
DICTIONARY
  5
1D6
102
{ACAD_REACTORS
330
19
102
}
330
19
100
AcDbDictionary
281
     1
  3
ASEBlockHierarchyIndexRecord
350
1D8
1001
DCO15
1040
1871111758.881
  0
XRECORD
  5
1E2
102
{ACAD_REACTORS
330
19
102
}
330
19
100
AcDbXrecord
280
     1
  1
DWGPROPS COOKIE
  2

  3

  4

  6

  7

  8
tdm012
  9

300
=
301
=
302
=
303
=
304
=
305
=
306
=
307
=
308
=
309
=
 40
0.0015592476851852
 41
2457459.596390972
 42
2457459.597950012
  1

 90
        0
  0
XRECORD
  5
1C2
102
{ACAD_REACTORS
330
1C1
102
}
330
1C1
100
AcDbXrecord
280
     1
290
     1
  0
XRECORD
  5
1C4
102
{ACAD_REACTORS
330
1C3
102
}
330
1C3
100
AcDbXrecord
280
     1
290
     1
  0
XRECORD
  5
1C6
102
{ACAD_REACTORS
330
1C5
102
}
330
1C5
100
AcDbXrecord
280
     1
290
     1
  0
XRECORD
  5
1C8
102
{ACAD_REACTORS
330
1C7
102
}
330
1C7
100
AcDbXrecord
280
     1
290
     1
  0
XRECORD
  5
1CA
102
{ACAD_REACTORS
330
1C9
102
}
330
1C9
100
AcDbXrecord
280
     1
290
     1
  0
XRECORD
  5
1CC
102
{ACAD_REACTORS
330
1CB
102
}
330
1CB
100
AcDbXrecord
280
     1
290
     1
  0
XRECORD
  5
1CE
102
{ACAD_REACTORS
330
1CD
102
}
330
1CD
100
AcDbXrecord
280
     1
290
     1
  0
XRECORD
  5
1D0
102
{ACAD_REACTORS
330
1CF
102
}
330
1CF
100
AcDbXrecord
280
     1
290
     1
  0
XRECORD
  5
1D2
102
{ACAD_REACTORS
330
1D1
102
}
330
1D1
100
AcDbXrecord
280
     1
290
     1
  0
XRECORD
  5
1D4
102
{ACAD_REACTORS
330
1D3
102
}
330
1D3
100
AcDbXrecord
280
     1
290
     1
  0
LAYOUT
  5
21
102
{ACAD_XDICTIONARY
360
1E5
102
}
102
{ACAD_REACTORS
330
1E
102
}
330
1E
100
AcDbPlotSettings
  1

  2

  4

  6

 40
0.0
 41
0.0
 42
0.0
 43
0.0
 44
0.0
 45
0.0
 46
0.0
 47
0.0
 48
0.0
 49
0.0
140
0.0
141
0.0
142
1.0
143
1.0
 70
     0
 72
     0
 73
     0
 74
     0
  7

 75
     0
147
1.0
148
0.0
149
0.0
100
AcDbLayout
  1
Layout1
 70
     0
 71
     1
 10
-0.5
 20
-0.5
 11
5.0
 21
5.0
 12
0.0
 22
0.0
 32
0.0
 14
-0.5
 24
-0.5
 34
-0.5
 15
5.0
 25
5.0
 35
5.0
146
0.0
 13
0.0
 23
0.0
 33
0.0
 16
1.0
 26
0.0
 36
0.0
 17
0.0
 27
1.0
 37
0.0
 76
     0
330
B
  0
LAYOUT
  5
20
102
{ACAD_XDICTIONARY
360
1E3
102
}
102
{ACAD_REACTORS
330
1E
102
}
330
1E
100
AcDbPlotSettings
  1

  2

  4

  6

 40
0.0
 41
0.0
 42
0.0
 43
0.0
 44
0.0
 45
0.0
 46
0.0
 47
0.0
 48
0.0
 49
0.0
140
0.0
141
0.0
142
1.0
143
1.0
 70
  1024
 72
     0
 73
     0
 74
     0
  7

 75
     0
147
1.0
148
0.0
149
0.0
100
AcDbLayout
  1
Model
 70
     0
 71
     0
 10
0.0
 20
0.0
 11
0.0
 21
0.0
 12
0.0
 22
0.0
 32
0.0
 14
-58.83260433333334
 24
-50.453125
 34
-0.0000000000000013
 15
74.2125
 25
96.83260433333334
 35
0.0000000000000002
146
0.0
 13
0.0
 23
0.0
 33
0.0
 16
0.0
 26
0.0
 36
0.0
 17
0.0
 27
0.0
 37
0.0
 76
     0
330
A
331
132
  0
MATERIAL
  5
197
102
{ACAD_XDICTIONARY
360
198
102
}
102
{ACAD_REACTORS
330
18E
102
}
330
18E
100
AcDbMaterial
  1
ByBlock
 72
     0
 43
0.0208333333333333
 43
0.0
 43
0.0
 43
0.0
 43
0.0
 43
0.0208333333333333
 43
0.0
 43
0.0
 43
0.0
 43
0.0
 43
1.0
 43
0.0
 43
0.0
 43
0.0
 43
0.0
 43
1.0
 77
     0
 47
0.0208333333333333
 47
0.0
 47
0.0
 47
0.0
 47
0.0
 47
0.0208333333333333
 47
0.0
 47
0.0
 47
0.0
 47
0.0
 47
1.0
 47
0.0
 47
0.0
 47
0.0
 47
0.0
 47
1.0
171
     0
 49
0.0208333333333333
 49
0.0
 49
0.0
 49
0.0
 49
0.0
 49
0.0208333333333333
 49
0.0
 49
0.0
 49
0.0
 49
0.0
 49
1.0
 49
0.0
 49
0.0
 49
0.0
 49
0.0
 49
1.0
175
     0
142
0.0208333333333333
142
0.0
142
0.0
142
0.0
142
0.0
142
0.0208333333333333
142
0.0
142
0.0
142
0.0
142
0.0
142
1.0
142
0.0
142
0.0
142
0.0
142
0.0
142
1.0
179
     0
144
0.0208333333333333
144
0.0
144
0.0
144
0.0
144
0.0
144
0.0208333333333333
144
0.0
144
0.0
144
0.0
144
0.0
144
1.0
144
0.0
144
0.0
144
0.0
144
0.0
144
1.0
147
0.0208333333333333
147
0.0
147
0.0
147
0.0
147
0.0
147
0.0208333333333333
147
0.0
147
0.0
147
0.0
147
0.0
147
1.0
147
0.0
147
0.0
147
0.0
147
0.0
147
1.0
  0
MATERIAL
  5
18F
102
{ACAD_XDICTIONARY
360
190
102
}
102
{ACAD_REACTORS
330
18E
102
}
330
18E
100
AcDbMaterial
  1
ByLayer
 72
     0
 43
0.0208333333333333
 43
0.0
 43
0.0
 43
0.0
 43
0.0
 43
0.0208333333333333
 43
0.0
 43
0.0
 43
0.0
 43
0.0
 43
1.0
 43
0.0
 43
0.0
 43
0.0
 43
0.0
 43
1.0
 77
     0
 47
0.0208333333333333
 47
0.0
 47
0.0
 47
0.0
 47
0.0
 47
0.0208333333333333
 47
0.0
 47
0.0
 47
0.0
 47
0.0
 47
1.0
 47
0.0
 47
0.0
 47
0.0
 47
0.0
 47
1.0
171
     0
 49
0.0208333333333333
 49
0.0
 49
0.0
 49
0.0
 49
0.0
 49
0.0208333333333333
 49
0.0
 49
0.0
 49
0.0
 49
0.0
 49
1.0
 49
0.0
 49
0.0
 49
0.0
 49
0.0
 49
1.0
175
     0
142
0.0208333333333333
142
0.0
142
0.0
142
0.0
142
0.0
142
0.0208333333333333
142
0.0
142
0.0
142
0.0
142
0.0
142
1.0
142
0.0
142
0.0
142
0.0
142
0.0
142
1.0
179
     0
144
0.0208333333333333
144
0.0
144
0.0
144
0.0
144
0.0
144
0.0208333333333333
144
0.0
144
0.0
144
0.0
144
0.0
144
1.0
144
0.0
144
0.0
144
0.0
144
0.0
144
1.0
147
0.0208333333333333
147
0.0
147
0.0
147
0.0
147
0.0
147
0.0208333333333333
147
0.0
147
0.0
147
0.0
147
0.0
147
1.0
147
0.0
147
0.0
147
0.0
147
0.0
147
1.0
  0
MATERIAL
  5
19F
102
{ACAD_XDICTIONARY
360
1A0
102
}
102
{ACAD_REACTORS
330
18E
102
}
330
18E
100
AcDbMaterial
  1
Global
 72
     0
 43
0.0208333333333333
 43
0.0
 43
0.0
 43
0.0
 43
0.0
 43
0.0208333333333333
 43
0.0
 43
0.0
 43
0.0
 43
0.0
 43
1.0
 43
0.0
 43
0.0
 43
0.0
 43
0.0
 43
1.0
 77
     0
 47
0.0208333333333333
 47
0.0
 47
0.0
 47
0.0
 47
0.0
 47
0.0208333333333333
 47
0.0
 47
0.0
 47
0.0
 47
0.0
 47
1.0
 47
0.0
 47
0.0
 47
0.0
 47
0.0
 47
1.0
171
     0
 49
0.0208333333333333
 49
0.0
 49
0.0
 49
0.0
 49
0.0
 49
0.0208333333333333
 49
0.0
 49
0.0
 49
0.0
 49
0.0
 49
1.0
 49
0.0
 49
0.0
 49
0.0
 49
0.0
 49
1.0
175
     0
142
0.0208333333333333
142
0.0
142
0.0
142
0.0
142
0.0
142
0.0208333333333333
142
0.0
142
0.0
142
0.0
142
0.0
142
1.0
142
0.0
142
0.0
142
0.0
142
0.0
142
1.0
179
     0
144
0.0208333333333333
144
0.0
144
0.0
144
0.0
144
0.0
144
0.0208333333333333
144
0.0
144
0.0
144
0.0
144
0.0
144
1.0
144
0.0
144
0.0
144
0.0
144
0.0
144
1.0
147
0.0208333333333333
147
0.0
147
0.0
147
0.0
147
0.0
147
0.0208333333333333
147
0.0
147
0.0
147
0.0
147
0.0
147
1.0
147
0.0
147
0.0
147
0.0
147
0.0
147
1.0
  0
MLEADERSTYLE
  5
1BE
102
{ACAD_REACTORS
330
181
102
}
330
181
100
AcDbMLeaderStyle
170
     2
171
     1
172
     0
 90
        2
 40
0.0
 41
0.0
173
     1
 91
-1056964608
340
11
 92
       -2
290
     1
 42
2.0
291
     1
 43
0.36
  3
Standard
 44
4.0
300

342
17
174
     1
178
     6
175
     1
176
     0
 93
-1056964608
 45
4.0
292
     0
297
     0
 46
4.0
 94
-1056964608
 47
1.0
 49
1.0
140
1.0
293
     1
141
0.0
294
     1
177
     0
142
1.0
295
     0
296
     0
143
0.125
1001
ACAD_MLEADERVER
1070
     2
  0
MLINESTYLE
  5
1C
102
{ACAD_REACTORS
330
1B
102
}
330
1B
100
AcDbMlineStyle
  2
STANDARD
 70
     0
  3

 62
     0
 51
90.0
 52
90.0
 71
     2
 49
0.5
 62
   256
  6
BYLAYER
 49
-0.5
 62
   256
  6
BYLAYER
  0
ACDBPLACEHOLDER
  5
1D
102
{ACAD_REACTORS
330
1F
102
}
330
1F
  0
SCALE
  5
143
102
{ACAD_REACTORS
330
142
102
}
330
142
100
AcDbScale
 70
     0
300
1:1
140
1.0
141
1.0
290
     1
  0
SCALE
  5
144
102
{ACAD_REACTORS
330
142
102
}
330
142
100
AcDbScale
 70
     0
300
1:2
140
1.0
141
2.0
290
     0
  0
SCALE
  5
145
102
{ACAD_REACTORS
330
142
102
}
330
142
100
AcDbScale
 70
     0
300
1:4
140
1.0
141
4.0
290
     0
  0
SCALE
  5
146
102
{ACAD_REACTORS
330
142
102
}
330
142
100
AcDbScale
 70
     0
300
1:5
140
1.0
141
5.0
290
     0
  0
SCALE
  5
147
102
{ACAD_REACTORS
330
142
102
}
330
142
100
AcDbScale
 70
     0
300
1:8
140
1.0
141
8.0
290
     0
  0
SCALE
  5
148
102
{ACAD_REACTORS
330
142
102
}
330
142
100
AcDbScale
 70
     0
300
1:10
140
1.0
141
10.0
290
     0
  0
SCALE
  5
149
102
{ACAD_REACTORS
330
142
102
}
330
142
100
AcDbScale
 70
     0
300
1:16
140
1.0
141
16.0
290
     0
  0
SCALE
  5
14A
102
{ACAD_REACTORS
330
142
102
}
330
142
100
AcDbScale
 70
     0
300
1:20
140
1.0
141
20.0
290
     0
  0
SCALE
  5
14B
102
{ACAD_REACTORS
330
142
102
}
330
142
100
AcDbScale
 70
     0
300
1:30
140
1.0
141
30.0
290
     0
  0
SCALE
  5
14C
102
{ACAD_REACTORS
330
142
102
}
330
142
100
AcDbScale
 70
     0
300
1:40
140
1.0
141
40.0
290
     0
  0
SCALE
  5
14D
102
{ACAD_REACTORS
330
142
102
}
330
142
100
AcDbScale
 70
     0
300
1:50
140
1.0
141
50.0
290
     0
  0
SCALE
  5
14E
102
{ACAD_REACTORS
330
142
102
}
330
142
100
AcDbScale
 70
     0
300
1:100
140
1.0
141
100.0
290
     0
  0
SCALE
  5
14F
102
{ACAD_REACTORS
330
142
102
}
330
142
100
AcDbScale
 70
     0
300
2:1
140
2.0
141
1.0
290
     0
  0
SCALE
  5
150
102
{ACAD_REACTORS
330
142
102
}
330
142
100
AcDbScale
 70
     0
300
4:1
140
4.0
141
1.0
290
     0
  0
SCALE
  5
151
102
{ACAD_REACTORS
330
142
102
}
330
142
100
AcDbScale
 70
     0
300
8:1
140
8.0
141
1.0
290
     0
  0
SCALE
  5
152
102
{ACAD_REACTORS
330
142
102
}
330
142
100
AcDbScale
 70
     0
300
10:1
140
10.0
141
1.0
290
     0
  0
SCALE
  5
153
102
{ACAD_REACTORS
330
142
102
}
330
142
100
AcDbScale
 70
     0
300
100:1
140
100.0
141
1.0
290
     0
  0
SCALE
  5
154
102
{ACAD_REACTORS
330
142
102
}
330
142
100
AcDbScale
 70
     0
300
1/128" = 1'-0"
140
0.0078125
141
12.0
290
     0
  0
SCALE
  5
155
102
{ACAD_REACTORS
330
142
102
}
330
142
100
AcDbScale
 70
     0
300
1/64" = 1'-0"
140
0.015625
141
12.0
290
     0
  0
SCALE
  5
156
102
{ACAD_REACTORS
330
142
102
}
330
142
100
AcDbScale
 70
     0
300
1/32" = 1'-0"
140
0.03125
141
12.0
290
     0
  0
SCALE
  5
157
102
{ACAD_REACTORS
330
142
102
}
330
142
100
AcDbScale
 70
     0
300
1/16" = 1'-0"
140
0.0625
141
12.0
290
     0
  0
SCALE
  5
158
102
{ACAD_REACTORS
330
142
102
}
330
142
100
AcDbScale
 70
     0
300
3/32" = 1'-0"
140
0.09375
141
12.0
290
     0
  0
SCALE
  5
159
102
{ACAD_REACTORS
330
142
102
}
330
142
100
AcDbScale
 70
     0
300
1/8" = 1'-0"
140
0.125
141
12.0
290
     0
  0
SCALE
  5
15A
102
{ACAD_REACTORS
330
142
102
}
330
142
100
AcDbScale
 70
     0
300
3/16" = 1'-0"
140
0.1875
141
12.0
290
     0
  0
SCALE
  5
15B
102
{ACAD_REACTORS
330
142
102
}
330
142
100
AcDbScale
 70
     0
300
1/4" = 1'-0"
140
0.25
141
12.0
290
     0
  0
SCALE
  5
15C
102
{ACAD_REACTORS
330
142
102
}
330
142
100
AcDbScale
 70
     0
300
3/8" = 1'-0"
140
0.375
141
12.0
290
     0
  0
SCALE
  5
15D
102
{ACAD_REACTORS
330
142
102
}
330
142
100
AcDbScale
 70
     0
300
1/2" = 1'-0"
140
0.5
141
12.0
290
     0
  0
SCALE
  5
15E
102
{ACAD_REACTORS
330
142
102
}
330
142
100
AcDbScale
 70
     0
300
3/4" = 1'-0"
140
0.75
141
12.0
290
     0
  0
SCALE
  5
15F
102
{ACAD_REACTORS
330
142
102
}
330
142
100
AcDbScale
 70
     0
300
1" = 1'-0"
140
1.0
141
12.0
290
     0
  0
SCALE
  5
160
102
{ACAD_REACTORS
330
142
102
}
330
142
100
AcDbScale
 70
     0
300
1-1/2" = 1'-0"
140
1.5
141
12.0
290
     0
  0
SCALE
  5
161
102
{ACAD_REACTORS
330
142
102
}
330
142
100
AcDbScale
 70
     0
300
3" = 1'-0"
140
3.0
141
12.0
290
     0
  0
SCALE
  5
162
102
{ACAD_REACTORS
330
142
102
}
330
142
100
AcDbScale
 70
     0
300
6" = 1'-0"
140
6.0
141
12.0
290
     0
  0
SCALE
  5
163
102
{ACAD_REACTORS
330
142
102
}
330
142
100
AcDbScale
 70
     0
300
1'-0" = 1'-0"
140
12.0
141
12.0
290
     0
  0
TABLESTYLE
  5
1BD
102
{ACAD_XDICTIONARY
360
1DF
102
}
102
{ACAD_REACTORS
330
1BC
102
}
330
1BC
100
AcDbTableStyle
  3
Standard
 70
     0
 71
     0
 40
1.5
 41
1.5
280
     0
281
     0
  7
Standard
140
4.5
170
     2
 62
     0
 63
     7
283
     0
274
    -2
284
     1
 64
     0
275
    -2
285
     1
 65
     0
276
    -2
286
     1
 66
     0
277
    -2
287
     1
 67
     0
278
    -2
288
     1
 68
     0
279
    -2
289
     1
 69
     0
  7
Standard
140
6.0
170
     5
 62
     0
 63
     7
283
     0
274
    -2
284
     1
 64
     0
275
    -2
285
     1
 65
     0
276
    -2
286
     1
 66
     0
277
    -2
287
     1
 67
     0
278
    -2
288
     1
 68
     0
279
    -2
289
     1
 69
     0
  7
Standard
140
4.5
170
     5
 62
     0
 63
     7
283
     0
274
    -2
284
     1
 64
     0
275
    -2
285
     1
 65
     0
276
    -2
286
     1
 66
     0
277
    -2
287
     1
 67
     0
278
    -2
288
     1
 68
     0
279
    -2
289
     1
 69
     0
  0
VISUALSTYLE
  5
1AD
102
{ACAD_XDICTIONARY
360
1F4
102
}
102
{ACAD_REACTORS
330
1A7
102
}
330
1A7
100
AcDbVisualStyle
  2
2dWireframe
 70
     4
 71
     0
 72
     2
 73
     0
 90
        0
 40
-0.6
 41
-30.0
 62
     5
 63
     7
 74
     1
 91
        4
 64
     7
 65
   257
 75
     1
175
     1
 42
1.0
 92
        0
 66
   257
 43
1.0
 76
     1
 77
     6
 78
     2
 67
     7
 79
     5
170
     0
171
     0
290
     0
174
     0
 93
        1
 44
0.0
173
     0
291
     0
 45
0.0
1001
ACAD
1000
AcDbSavedByObjectVersion
1070
     0
  0
VISUALSTYLE
  5
1AF
102
{ACAD_XDICTIONARY
360
1F8
102
}
102
{ACAD_REACTORS
330
1A7
102
}
330
1A7
100
AcDbVisualStyle
  2
3D Hidden
 70
     6
 71
     1
 72
     2
 73
     2
 90
        0
 40
-0.6
 41
-30.0
 62
     5
 63
     7
 74
     2
 91
        2
 64
     7
 65
   257
 75
     2
175
     1
 42
179.0
 92
        0
 66
   257
 43
1.0
 76
     1
 77
     6
 78
     2
 67
     7
 79
     3
170
     0
171
     0
290
     0
174
     0
 93
        1
 44
0.0
173
     0
291
     0
 45
0.0
1001
ACAD
1000
AcDbSavedByObjectVersion
1070
     0
  0
VISUALSTYLE
  5
1AE
102
{ACAD_XDICTIONARY
360
1F6
102
}
102
{ACAD_REACTORS
330
1A7
102
}
330
1A7
100
AcDbVisualStyle
  2
3dWireframe
 70
     5
 71
     0
 72
     2
 73
     0
 90
        0
 40
-0.6
 41
-30.0
 62
     5
 63
     7
 74
     1
 91
        4
 64
     7
 65
   257
 75
     1
175
     1
 42
1.0
 92
        0
 66
   257
 43
1.0
 76
     1
 77
     6
 78
     2
 67
     7
 79
     5
170
     0
171
     0
290
     0
174
     0
 93
        1
 44
0.0
173
     0
291
     0
 45
0.0
1001
ACAD
1000
AcDbSavedByObjectVersion
1070
     0
  0
VISUALSTYLE
  5
1AC
102
{ACAD_XDICTIONARY
360
1F2
102
}
102
{ACAD_REACTORS
330
1A7
102
}
330
1A7
100
AcDbVisualStyle
  2
Basic
 70
     7
 71
     1
 72
     0
 73
     1
 90
        0
 40
-0.6
 41
-30.0
 62
     5
 63
     7
 74
     0
 91
        4
 64
     7
 65
   257
 75
     1
175
     1
 42
1.0
 92
        8
 66
     7
 43
1.0
 76
     1
 77
     6
 78
     2
 67
     7
 79
     5
170
     0
171
     0
290
     0
174
     0
 93
        1
 44
0.0
173
     0
291
     1
 45
0.0
1001
ACAD
1000
AcDbSavedByObjectVersion
1070
     0
  0
VISUALSTYLE
  5
1B3
102
{ACAD_XDICTIONARY
360
200
102
}
102
{ACAD_REACTORS
330
1A7
102
}
330
1A7
100
AcDbVisualStyle
  2
Brighten
 70
    12
 71
     2
 72
     2
 73
     0
 90
        0
 40
-0.6
 41
-30.0
 62
     5
 63
     7
 74
     1
 91
        4
 64
     7
 65
   257
 75
     1
175
     1
 42
1.0
 92
        8
 66
     7
 43
1.0
 76
     1
 77
     6
 78
     2
 67
     7
 79
     5
170
     0
171
     0
290
     0
174
     0
 93
        1
 44
50.0
173
     0
291
     1
 45
0.0
1001
ACAD
1000
AcDbSavedByObjectVersion
1070
     0
  0
VISUALSTYLE
  5
1B7
102
{ACAD_XDICTIONARY
360
208
102
}
102
{ACAD_REACTORS
330
1A7
102
}
330
1A7
100
AcDbVisualStyle
  2
ColorChange
 70
    16
 71
     2
 72
     2
 73
     3
 90
        0
 40
-0.6
 41
-30.0
 62
     5
 63
     8
 74
     1
 91
        4
 64
     7
 65
   257
 75
     1
175
     1
 42
1.0
 92
        8
 66
     8
 43
1.0
 76
     1
 77
     6
 78
     2
 67
     7
 79
     5
170
     0
171
     0
290
     0
174
     0
 93
        1
 44
0.0
173
     0
291
     1
 45
0.0
1001
ACAD
1000
AcDbSavedByObjectVersion
1070
     0
  0
VISUALSTYLE
  5
1B0
102
{ACAD_XDICTIONARY
360
1FA
102
}
102
{ACAD_REACTORS
330
1A7
102
}
330
1A7
100
AcDbVisualStyle
  2
Conceptual
 70
     9
 71
     3
 72
     2
 73
     0
 90
        0
 40
-0.6
 41
-30.0
 62
     5
 63
     7
 74
     2
 91
        2
 64
     7
 65
   257
 75
     1
175
     1
 42
179.0
 92
        8
 66
     7
 43
1.0
 76
     1
 77
     6
 78
     2
 67
     7
 79
     3
170
     0
171
     0
290
     0
174
     0
 93
        1
 44
0.0
173
     0
291
     0
 45
0.0
1001
ACAD
1000
AcDbSavedByObjectVersion
1070
     0
  0
VISUALSTYLE
  5
1B2
102
{ACAD_XDICTIONARY
360
1FE
102
}
102
{ACAD_REACTORS
330
1A7
102
}
330
1A7
100
AcDbVisualStyle
  2
Dim
 70
    11
 71
     2
 72
     2
 73
     0
 90
        0
 40
-0.6
 41
-30.0
 62
     5
 63
     7
 74
     1
 91
        4
 64
     7
 65
   257
 75
     1
175
     1
 42
1.0
 92
        8
 66
     7
 43
1.0
 76
     1
 77
     6
 78
     2
 67
     7
 79
     5
170
     0
171
     0
290
     0
174
     0
 93
        1
 44
-50.0
173
     0
291
     1
 45
0.0
1001
ACAD
1000
AcDbSavedByObjectVersion
1070
     0
  0
VISUALSTYLE
  5
1BA
102
{ACAD_XDICTIONARY
360
20E
102
}
102
{ACAD_REACTORS
330
1A7
102
}
330
1A7
100
AcDbVisualStyle
  2
EdgeColorOff
 70
    22
 71
     2
 72
     2
 73
     0
 90
        0
 40
-0.6
 41
-30.0
 62
     5
 63
     7
 74
     1
 91
        4
 64
     7
 65
   257
 75
     1
175
     1
 42
1.0
 92
        8
 66
     7
 43
1.0
 76
     1
 77
     6
 78
     2
 67
     7
 79
     5
170
     0
171
     0
290
     0
174
     0
 93
        1
 44
0.0
173
     0
291
     1
 45
0.0
1001
ACAD
1000
AcDbSavedByObjectVersion
1070
     0
  0
VISUALSTYLE
  5
1B6
102
{ACAD_XDICTIONARY
360
206
102
}
102
{ACAD_REACTORS
330
1A7
102
}
330
1A7
100
AcDbVisualStyle
  2
Facepattern
 70
    15
 71
     2
 72
     2
 73
     0
 90
        0
 40
-0.6
 41
-30.0
 62
     5
 63
     7
 74
     1
 91
        4
 64
     7
 65
   257
 75
     1
175
     1
 42
1.0
 92
        8
 66
     7
 43
1.0
 76
     1
 77
     6
 78
     2
 67
     7
 79
     5
170
     0
171
     0
290
     0
174
     0
 93
        1
 44
0.0
173
     0
291
     1
 45
0.0
1001
ACAD
1000
AcDbSavedByObjectVersion
1070
     0
  0
VISUALSTYLE
  5
1A8
102
{ACAD_XDICTIONARY
360
1EA
102
}
102
{ACAD_REACTORS
330
1A7
102
}
330
1A7
100
AcDbVisualStyle
  2
Flat
 70
     0
 71
     2
 72
     1
 73
     1
 90
        2
 40
-0.6
 41
30.0
 62
     5
 63
     7
 74
     0
 91
        4
 64
     7
 65
   257
 75
     1
175
     1
 42
1.0
 92
        8
 66
     7
 43
1.0
 76
     1
 77
     6
 78
     2
 67
     7
 79
     5
170
     0
171
     0
290
     0
174
     0
 93
       13
 44
0.0
173
     0
291
     1
 45
0.0
1001
ACAD
1000
AcDbSavedByObjectVersion
1070
     0
  0
VISUALSTYLE
  5
1A9
102
{ACAD_XDICTIONARY
360
1EC
102
}
102
{ACAD_REACTORS
330
1A7
102
}
330
1A7
100
AcDbVisualStyle
  2
FlatWithEdges
 70
     1
 71
     2
 72
     1
 73
     1
 90
        2
 40
-0.6
 41
30.0
 62
     5
 63
     7
 74
     1
 91
        4
 64
     7
 65
   257
 75
     1
175
     1
 42
1.0
 92
        0
 66
   257
 43
1.0
 76
     1
 77
     6
 78
     2
 67
     7
 79
     5
170
     0
171
     0
290
     0
174
     0
 93
       13
 44
0.0
173
     0
291
     1
 45
0.0
1001
ACAD
1000
AcDbSavedByObjectVersion
1070
     0
  0
VISUALSTYLE
  5
1AA
102
{ACAD_XDICTIONARY
360
1EE
102
}
102
{ACAD_REACTORS
330
1A7
102
}
330
1A7
100
AcDbVisualStyle
  2
Gouraud
 70
     2
 71
     2
 72
     2
 73
     1
 90
        2
 40
-0.6
 41
30.0
 62
     5
 63
     7
 74
     0
 91
        4
 64
     7
 65
   257
 75
     1
175
     1
 42
1.0
 92
        0
 66
     7
 43
1.0
 76
     1
 77
     6
 78
     2
 67
     7
 79
     5
170
     0
171
     0
290
     0
174
     0
 93
       13
 44
0.0
173
     0
291
     1
 45
0.0
1001
ACAD
1000
AcDbSavedByObjectVersion
1070
     0
  0
VISUALSTYLE
  5
1AB
102
{ACAD_XDICTIONARY
360
1F0
102
}
102
{ACAD_REACTORS
330
1A7
102
}
330
1A7
100
AcDbVisualStyle
  2
GouraudWithEdges
 70
     3
 71
     2
 72
     2
 73
     1
 90
        2
 40
-0.6
 41
30.0
 62
     5
 63
     7
 74
     1
 91
        4
 64
     7
 65
   257
 75
     1
175
     1
 42
1.0
 92
        0
 66
   257
 43
1.0
 76
     1
 77
     6
 78
     2
 67
     7
 79
     5
170
     0
171
     0
290
     0
174
     0
 93
       13
 44
0.0
173
     0
291
     1
 45
0.0
1001
ACAD
1000
AcDbSavedByObjectVersion
1070
     0
  0
VISUALSTYLE
  5
1B8
102
{ACAD_XDICTIONARY
360
20A
102
}
102
{ACAD_REACTORS
330
1A7
102
}
330
1A7
100
AcDbVisualStyle
  2
JitterOff
 70
    20
 71
     2
 72
     2
 73
     0
 90
        0
 40
-0.6
 41
-30.0
 62
     5
 63
     7
 74
     1
 91
        4
 64
     7
 65
   257
 75
     1
175
     1
 42
1.0
 92
       10
 66
     7
 43
1.0
 76
     1
 77
     6
 78
     2
 67
     7
 79
     5
170
     0
171
     0
290
     0
174
     0
 93
        1
 44
0.0
173
     0
291
     1
 45
0.0
1001
ACAD
1000
AcDbSavedByObjectVersion
1070
     0
  0
VISUALSTYLE
  5
1B5
102
{ACAD_XDICTIONARY
360
204
102
}
102
{ACAD_REACTORS
330
1A7
102
}
330
1A7
100
AcDbVisualStyle
  2
Linepattern
 70
    14
 71
     2
 72
     2
 73
     0
 90
        0
 40
-0.6
 41
-30.0
 62
     5
 63
     7
 74
     1
 91
        4
 64
     7
 65
   257
 75
     7
175
     7
 42
1.0
 92
        8
 66
     7
 43
1.0
 76
     1
 77
     6
 78
     2
 67
     7
 79
     5
170
     0
171
     0
290
     0
174
     0
 93
        1
 44
0.0
173
     0
291
     1
 45
0.0
1001
ACAD
1000
AcDbSavedByObjectVersion
1070
     0
  0
VISUALSTYLE
  5
1B9
102
{ACAD_XDICTIONARY
360
20C
102
}
102
{ACAD_REACTORS
330
1A7
102
}
330
1A7
100
AcDbVisualStyle
  2
OverhangOff
 70
    21
 71
     2
 72
     2
 73
     0
 90
        0
 40
-0.6
 41
-30.0
 62
     5
 63
     7
 74
     1
 91
        4
 64
     7
 65
   257
 75
     1
175
     1
 42
1.0
 92
        9
 66
     7
 43
1.0
 76
     1
 77
     6
 78
     2
 67
     7
 79
     5
170
     0
171
     0
290
     0
174
     0
 93
        1
 44
0.0
173
     0
291
     1
 45
0.0
1001
ACAD
1000
AcDbSavedByObjectVersion
1070
     0
  0
VISUALSTYLE
  5
1B1
102
{ACAD_XDICTIONARY
360
1FC
102
}
102
{ACAD_REACTORS
330
1A7
102
}
330
1A7
100
AcDbVisualStyle
  2
Realistic
 70
     8
 71
     2
 72
     2
 73
     0
 90
        0
 40
-0.6
 41
-30.0
 62
     5
 63
     7
 74
     1
 91
        0
 64
     7
 65
   257
 75
     1
175
     1
 42
1.0
 92
        8
 66
     8
 43
1.0
 76
     1
 77
     6
 78
     2
 67
     7
 79
     5
170
     0
171
     0
290
     0
174
     0
 93
       13
 44
0.0
173
     0
291
     0
 45
0.0
1001
ACAD
1000
AcDbSavedByObjectVersion
1070
     0
  0
VISUALSTYLE
  5
1B4
102
{ACAD_XDICTIONARY
360
202
102
}
102
{ACAD_REACTORS
330
1A7
102
}
330
1A7
100
AcDbVisualStyle
  2
Thicken
 70
    13
 71
     2
 72
     2
 73
     0
 90
        0
 40
-0.6
 41
-30.0
 62
     5
 63
     7
 74
     1
 91
        4
 64
     7
 65
   257
 75
     1
175
     1
 42
1.0
 92
       12
 66
     7
 43
1.0
 76
     1
 77
     6
 78
     2
 67
     7
 79
     5
170
     0
171
     0
290
     0
174
     0
 93
        1
 44
0.0
173
     0
291
     1
 45
0.0
1001
ACAD
1000
AcDbSavedByObjectVersion
1070
     0
  0
DICTIONARYVAR
  5
17F
102
{ACAD_REACTORS
330
17E
102
}
330
17E
100
DictionaryVariables
280
     0
  1
1:1
  0
DICTIONARYVAR
  5
1DA
102
{ACAD_REACTORS
330
17E
102
}
330
17E
100
DictionaryVariables
280
     0
  1
STANDARD
  0
DICTIONARYVAR
  5
1D9
102
{ACAD_REACTORS
330
17E
102
}
330
17E
100
DictionaryVariables
280
     0
  1
STANDARD
  0
DICTIONARYVAR
  5
1DD
102
{ACAD_REACTORS
330
17E
102
}
330
17E
100
DictionaryVariables
280
     0
  1
1
  0
DICTIONARYVAR
  5
1DC
102
{ACAD_REACTORS
330
17E
102
}
330
17E
100
DictionaryVariables
280
     0
  1
0
  0
DICTIONARYVAR
  5
1DB
102
{ACAD_REACTORS
330
17E
102
}
330
17E
100
DictionaryVariables
280
     0
  1
127
  0
DICTIONARYVAR
  5
1DE
102
{ACAD_REACTORS
330
17E
102
}
330
17E
100
DictionaryVariables
280
     0
  1
2
  0
XRECORD
  5
1D8
102
{ACAD_REACTORS
330
1D6
102
}
330
1D6
100
AcDbXrecord
280
     1
  0
DICTIONARY
  5
1E5
330
21
100
AcDbDictionary
280
     1
281
     1
  3
ACAD_XREC_ROUNDTRIP
360
1E6
  0
DICTIONARY
  5
1E3
330
20
100
AcDbDictionary
280
     1
281
     1
  3
ACAD_XREC_ROUNDTRIP
360
1E4
  0
DICTIONARY
  5
198
330
197
100
AcDbDictionary
280
     1
281
     1
  3
ACAD_XREC_ROUNDTRIP
360
1E8
  3
BUMPTILE
360
19A
  3
DIFFUSETILE
360
199
  3
OPACITYTILE
360
19D
  3
REFLECTIONTILE
360
19C
  3
REFRACTIONTILE
360
19E
  3
SPECULARTILE
360
19B
  0
DICTIONARY
  5
190
330
18F
100
AcDbDictionary
280
     1
281
     1
  3
ACAD_XREC_ROUNDTRIP
360
1E7
  3
BUMPTILE
360
192
  3
DIFFUSETILE
360
191
  3
OPACITYTILE
360
195
  3
REFLECTIONTILE
360
194
  3
REFRACTIONTILE
360
196
  3
SPECULARTILE
360
193
  0
DICTIONARY
  5
1A0
330
19F
100
AcDbDictionary
280
     1
281
     1
  3
ACAD_XREC_ROUNDTRIP
360
1E9
  3
BUMPTILE
360
1A2
  3
DIFFUSETILE
360
1A1
  3
OPACITYTILE
360
1A5
  3
REFLECTIONTILE
360
1A4
  3
REFRACTIONTILE
360
1A6
  3
SPECULARTILE
360
1A3
  0
DICTIONARY
  5
1DF
330
1BD
100
AcDbDictionary
280
     1
281
     1
  3
ACAD_ROUNDTRIP_2008_TABLESTYLE_CELLSTYLEMAP
360
1E0
  3
ACAD_XREC_ROUNDTRIP
360
210
  0
DICTIONARY
  5
1F4
330
1AD
100
AcDbDictionary
280
     1
281
     1
  3
ACAD_XREC_ROUNDTRIP
360
1F5
  0
DICTIONARY
  5
1F8
330
1AF
100
AcDbDictionary
280
     1
281
     1
  3
ACAD_XREC_ROUNDTRIP
360
1F9
  0
DICTIONARY
  5
1F6
330
1AE
100
AcDbDictionary
280
     1
281
     1
  3
ACAD_XREC_ROUNDTRIP
360
1F7
  0
DICTIONARY
  5
1F2
330
1AC
100
AcDbDictionary
280
     1
281
     1
  3
ACAD_XREC_ROUNDTRIP
360
1F3
  0
DICTIONARY
  5
200
330
1B3
100
AcDbDictionary
280
     1
281
     1
  3
ACAD_XREC_ROUNDTRIP
360
201
  0
DICTIONARY
  5
208
330
1B7
100
AcDbDictionary
280
     1
281
     1
  3
ACAD_XREC_ROUNDTRIP
360
209
  0
DICTIONARY
  5
1FA
330
1B0
100
AcDbDictionary
280
     1
281
     1
  3
ACAD_XREC_ROUNDTRIP
360
1FB
  0
DICTIONARY
  5
1FE
330
1B2
100
AcDbDictionary
280
     1
281
     1
  3
ACAD_XREC_ROUNDTRIP
360
1FF
  0
DICTIONARY
  5
20E
330
1BA
100
AcDbDictionary
280
     1
281
     1
  3
ACAD_XREC_ROUNDTRIP
360
20F
  0
DICTIONARY
  5
206
330
1B6
100
AcDbDictionary
280
     1
281
     1
  3
ACAD_XREC_ROUNDTRIP
360
207
  0
DICTIONARY
  5
1EA
330
1A8
100
AcDbDictionary
280
     1
281
     1
  3
ACAD_XREC_ROUNDTRIP
360
1EB
  0
DICTIONARY
  5
1EC
330
1A9
100
AcDbDictionary
280
     1
281
     1
  3
ACAD_XREC_ROUNDTRIP
360
1ED
  0
DICTIONARY
  5
1EE
330
1AA
100
AcDbDictionary
280
     1
281
     1
  3
ACAD_XREC_ROUNDTRIP
360
1EF
  0
DICTIONARY
  5
1F0
330
1AB
100
AcDbDictionary
280
     1
281
     1
  3
ACAD_XREC_ROUNDTRIP
360
1F1
  0
DICTIONARY
  5
20A
330
1B8
100
AcDbDictionary
280
     1
281
     1
  3
ACAD_XREC_ROUNDTRIP
360
20B
  0
DICTIONARY
  5
204
330
1B5
100
AcDbDictionary
280
     1
281
     1
  3
ACAD_XREC_ROUNDTRIP
360
205
  0
DICTIONARY
  5
20C
330
1B9
100
AcDbDictionary
280
     1
281
     1
  3
ACAD_XREC_ROUNDTRIP
360
20D
  0
DICTIONARY
  5
1FC
330
1B1
100
AcDbDictionary
280
     1
281
     1
  3
ACAD_XREC_ROUNDTRIP
360
1FD
  0
DICTIONARY
  5
202
330
1B4
100
AcDbDictionary
280
     1
281
     1
  3
ACAD_XREC_ROUNDTRIP
360
203
  0
XRECORD
  5
1E6
102
{ACAD_REACTORS
330
1E5
102
}
330
1E5
100
AcDbXrecord
280
     1
102
SHADEPLOT
 70
     0
102
SHADEPLOTRESLEVEL
 70
     2
102
SHADEPLOTCUSTOMDPI
 70
   300
  0
XRECORD
  5
1E4
102
{ACAD_REACTORS
330
1E3
102
}
330
1E3
100
AcDbXrecord
280
     1
102
SHADEPLOT
 70
     0
102
SHADEPLOTRESLEVEL
 70
     2
102
SHADEPLOTCUSTOMDPI
 70
   300
  0
XRECORD
  5
1E8
102
{ACAD_REACTORS
330
198
102
}
330
198
100
AcDbXrecord
280
     1
102
MATERIAL
148
0.0
149
0.0
149
0.0
 93
        0
 94
      127
282
     0
 72
     0
 77
     0
171
     0
175
     0
179
     0
273
     0
  0
XRECORD
  5
19A
102
{ACAD_REACTORS
330
198
102
}
330
198
100
AcDbXrecord
280
     1
270
     1
271
     1
  0
XRECORD
  5
199
102
{ACAD_REACTORS
330
198
102
}
330
198
100
AcDbXrecord
280
     1
270
     1
271
     1
  0
XRECORD
  5
19D
102
{ACAD_REACTORS
330
198
102
}
330
198
100
AcDbXrecord
280
     1
270
     1
271
     1
  0
XRECORD
  5
19C
102
{ACAD_REACTORS
330
198
102
}
330
198
100
AcDbXrecord
280
     1
270
     1
271
     1
  0
XRECORD
  5
19E
102
{ACAD_REACTORS
330
198
102
}
330
198
100
AcDbXrecord
280
     1
270
     1
271
     1
  0
XRECORD
  5
19B
102
{ACAD_REACTORS
330
198
102
}
330
198
100
AcDbXrecord
280
     1
270
     1
271
     1
  0
XRECORD
  5
1E7
102
{ACAD_REACTORS
330
190
102
}
330
190
100
AcDbXrecord
280
     1
102
MATERIAL
148
0.0
149
0.0
149
0.0
 93
        0
 94
      127
282
     0
 72
     0
 77
     0
171
     0
175
     0
179
     0
273
     0
  0
XRECORD
  5
192
102
{ACAD_REACTORS
330
190
102
}
330
190
100
AcDbXrecord
280
     1
270
     1
271
     1
  0
XRECORD
  5
191
102
{ACAD_REACTORS
330
190
102
}
330
190
100
AcDbXrecord
280
     1
270
     1
271
     1
  0
XRECORD
  5
195
102
{ACAD_REACTORS
330
190
102
}
330
190
100
AcDbXrecord
280
     1
270
     1
271
     1
  0
XRECORD
  5
194
102
{ACAD_REACTORS
330
190
102
}
330
190
100
AcDbXrecord
280
     1
270
     1
271
     1
  0
XRECORD
  5
196
102
{ACAD_REACTORS
330
190
102
}
330
190
100
AcDbXrecord
280
     1
270
     1
271
     1
  0
XRECORD
  5
193
102
{ACAD_REACTORS
330
190
102
}
330
190
100
AcDbXrecord
280
     1
270
     1
271
     1
  0
XRECORD
  5
1E9
102
{ACAD_REACTORS
330
1A0
102
}
330
1A0
100
AcDbXrecord
280
     1
102
MATERIAL
148
0.0
149
0.0
149
0.0
 93
        0
 94
      127
282
     0
 72
     0
 77
     0
171
     0
175
     0
179
     0
273
     0
  0
XRECORD
  5
1A2
102
{ACAD_REACTORS
330
1A0
102
}
330
1A0
100
AcDbXrecord
280
     1
270
     1
271
     1
  0
XRECORD
  5
1A1
102
{ACAD_REACTORS
330
1A0
102
}
330
1A0
100
AcDbXrecord
280
     1
270
     1
271
     1
  0
XRECORD
  5
1A5
102
{ACAD_REACTORS
330
1A0
102
}
330
1A0
100
AcDbXrecord
280
     1
270
     1
271
     1
  0
XRECORD
  5
1A4
102
{ACAD_REACTORS
330
1A0
102
}
330
1A0
100
AcDbXrecord
280
     1
270
     1
271
     1
  0
XRECORD
  5
1A6
102
{ACAD_REACTORS
330
1A0
102
}
330
1A0
100
AcDbXrecord
280
     1
270
     1
271
     1
  0
XRECORD
  5
1A3
102
{ACAD_REACTORS
330
1A0
102
}
330
1A0
100
AcDbXrecord
280
     1
270
     1
271
     1
  0
CELLSTYLEMAP
  5
1E0
102
{ACAD_REACTORS
330
1DF
102
}
330
1DF
100
AcDbCellStyleMap
 90
        3
300
CELLSTYLE
  1
TABLEFORMAT_BEGIN
 90
        5
170
     1
 91
        0
 92
    32768
 62
   257
 93
        1
300
CONTENTFORMAT
  1
CONTENTFORMAT_BEGIN
 90
        0
 91
        0
 92
      512
 93
        0
300

 40
0.0
140
1.0
 94
        5
 62
     0
340
17
144
6.0
309
CONTENTFORMAT_END
171
     1
301
MARGIN
  1
CELLMARGIN_BEGIN
 40
1.5
 40
1.5
 40
1.5
 40
1.5
 40
4.5
 40
4.5
309
CELLMARGIN_END
 94
        6
 95
        1
302
GRIDFORMAT
  1
GRIDFORMAT_BEGIN
 90
        0
 91
        1
 62
     0
 92
       -2
340
0
 93
        0
 40
1.125
309
GRIDFORMAT_END
 95
        2
302
GRIDFORMAT
  1
GRIDFORMAT_BEGIN
 90
        0
 91
        1
 62
     0
 92
       -2
340
0
 93
        0
 40
1.125
309
GRIDFORMAT_END
 95
        4
302
GRIDFORMAT
  1
GRIDFORMAT_BEGIN
 90
        0
 91
        1
 62
     0
 92
       -2
340
0
 93
        0
 40
1.125
309
GRIDFORMAT_END
 95
        8
302
GRIDFORMAT
  1
GRIDFORMAT_BEGIN
 90
        0
 91
        1
 62
     0
 92
       -2
340
0
 93
        0
 40
1.125
309
GRIDFORMAT_END
 95
       16
302
GRIDFORMAT
  1
GRIDFORMAT_BEGIN
 90
        0
 91
        1
 62
     0
 92
       -2
340
0
 93
        0
 40
1.125
309
GRIDFORMAT_END
 95
       32
302
GRIDFORMAT
  1
GRIDFORMAT_BEGIN
 90
        0
 91
        1
 62
     0
 92
       -2
340
0
 93
        0
 40
1.125
309
GRIDFORMAT_END
309
TABLEFORMAT_END
  1
CELLSTYLE_BEGIN
 90
        1
 91
        1
300
_TITLE
309
CELLSTYLE_END
300
CELLSTYLE
  1
TABLEFORMAT_BEGIN
 90
        5
170
     1
 91
        0
 92
        0
 62
   257
 93
        1
300
CONTENTFORMAT
  1
CONTENTFORMAT_BEGIN
 90
        0
 91
        0
 92
      512
 93
        0
300

 40
0.0
140
1.0
 94
        5
 62
     0
340
17
144
4.5
309
CONTENTFORMAT_END
171
     1
301
MARGIN
  1
CELLMARGIN_BEGIN
 40
1.5
 40
1.5
 40
1.5
 40
1.5
 40
4.5
 40
4.5
309
CELLMARGIN_END
 94
        6
 95
        1
302
GRIDFORMAT
  1
GRIDFORMAT_BEGIN
 90
        0
 91
        1
 62
     0
 92
       -2
340
0
 93
        0
 40
1.125
309
GRIDFORMAT_END
 95
        2
302
GRIDFORMAT
  1
GRIDFORMAT_BEGIN
 90
        0
 91
        1
 62
     0
 92
       -2
340
0
 93
        0
 40
1.125
309
GRIDFORMAT_END
 95
        4
302
GRIDFORMAT
  1
GRIDFORMAT_BEGIN
 90
        0
 91
        1
 62
     0
 92
       -2
340
0
 93
        0
 40
1.125
309
GRIDFORMAT_END
 95
        8
302
GRIDFORMAT
  1
GRIDFORMAT_BEGIN
 90
        0
 91
        1
 62
     0
 92
       -2
340
0
 93
        0
 40
1.125
309
GRIDFORMAT_END
 95
       16
302
GRIDFORMAT
  1
GRIDFORMAT_BEGIN
 90
        0
 91
        1
 62
     0
 92
       -2
340
0
 93
        0
 40
1.125
309
GRIDFORMAT_END
 95
       32
302
GRIDFORMAT
  1
GRIDFORMAT_BEGIN
 90
        0
 91
        1
 62
     0
 92
       -2
340
0
 93
        0
 40
1.125
309
GRIDFORMAT_END
309
TABLEFORMAT_END
  1
CELLSTYLE_BEGIN
 90
        2
 91
        1
300
_HEADER
309
CELLSTYLE_END
300
CELLSTYLE
  1
TABLEFORMAT_BEGIN
 90
        5
170
     1
 91
        0
 92
        0
 62
   257
 93
        1
300
CONTENTFORMAT
  1
CONTENTFORMAT_BEGIN
 90
        0
 91
        0
 92
      512
 93
        0
300

 40
0.0
140
1.0
 94
        2
 62
     0
340
17
144
4.5
309
CONTENTFORMAT_END
171
     1
301
MARGIN
  1
CELLMARGIN_BEGIN
 40
1.5
 40
1.5
 40
1.5
 40
1.5
 40
4.5
 40
4.5
309
CELLMARGIN_END
 94
        6
 95
        1
302
GRIDFORMAT
  1
GRIDFORMAT_BEGIN
 90
        0
 91
        1
 62
     0
 92
       -2
340
0
 93
        0
 40
1.125
309
GRIDFORMAT_END
 95
        2
302
GRIDFORMAT
  1
GRIDFORMAT_BEGIN
 90
        0
 91
        1
 62
     0
 92
       -2
340
0
 93
        0
 40
1.125
309
GRIDFORMAT_END
 95
        4
302
GRIDFORMAT
  1
GRIDFORMAT_BEGIN
 90
        0
 91
        1
 62
     0
 92
       -2
340
0
 93
        0
 40
1.125
309
GRIDFORMAT_END
 95
        8
302
GRIDFORMAT
  1
GRIDFORMAT_BEGIN
 90
        0
 91
        1
 62
     0
 92
       -2
340
0
 93
        0
 40
1.125
309
GRIDFORMAT_END
 95
       16
302
GRIDFORMAT
  1
GRIDFORMAT_BEGIN
 90
        0
 91
        1
 62
     0
 92
       -2
340
0
 93
        0
 40
1.125
309
GRIDFORMAT_END
 95
       32
302
GRIDFORMAT
  1
GRIDFORMAT_BEGIN
 90
        0
 91
        1
 62
     0
 92
       -2
340
0
 93
        0
 40
1.125
309
GRIDFORMAT_END
309
TABLEFORMAT_END
  1
CELLSTYLE_BEGIN
 90
        3
 91
        2
300
_DATA
309
CELLSTYLE_END
  0
XRECORD
  5
210
102
{ACAD_REACTORS
330
1DF
102
}
330
1DF
100
AcDbXrecord
280
     1
102
ACAD_ROUNDTRIP_PRE2007_TABLESTYLE
 90
      512
 91
        0
  1

 92
      512
 93
        0
  2

 94
      512
 95
        0
  3

  0
XRECORD
  5
1F5
102
{ACAD_REACTORS
330
1F4
102
}
330
1F4
100
AcDbXrecord
280
     1
102
RTVSPropertyOp0
 70
     1
102
RTVSPropertyOp1
 70
     1
102
RTVSPropertyOp2
 70
     1
102
RTVSPropertyOp3
 70
     1
102
RTVSPropertyOp4
 70
     1
102
RTVSPropertyOp5
 70
     1
102
RTVSPropertyOp6
 70
     1
102
RTVSPropertyOp7
 70
     1
102
RTVSPropertyOp8
 70
     1
102
RTVSPropertyOp9
 70
     1
102
RTVSPropertyOp10
 70
     1
102
RTVSPropertyOp11
 70
     1
102
RTVSPropertyOp12
 70
     1
102
RTVSPropertyOp13
 70
     1
102
RTVSPropertyOp14
 70
     1
102
RTVSPropertyOp15
 70
     1
102
RTVSPropertyOp16
 70
     1
102
RTVSPropertyOp17
 70
     1
102
RTVSPropertyOp18
 70
     1
102
RTVSPropertyOp19
 70
     1
102
RTVSPropertyOp20
 70
     1
102
RTVSPropertyOp21
 70
     1
102
RTVSPropertyOp22
 70
     1
102
RTVSPropertyOp23
 70
     1
102
RTVSPropertyOp24
 70
     1
102
RTVSPropertyOp25
 70
     1
102
RTVSPropertyOp26
 70
     1
102
RTVSPropertyOp27
 70
     1
  0
XRECORD
  5
1F9
102
{ACAD_REACTORS
330
1F8
102
}
330
1F8
100
AcDbXrecord
280
     1
102
RTVSPropertyOp0
 70
     1
102
RTVSPropertyOp1
 70
     1
102
RTVSPropertyOp2
 70
     1
102
RTVSPropertyOp3
 70
     1
102
RTVSPropertyOp4
 70
     1
102
RTVSPropertyOp5
 70
     1
102
RTVSPropertyOp6
 70
     1
102
RTVSPropertyOp7
 70
     1
102
RTVSPropertyOp8
 70
     1
102
RTVSPropertyOp9
 70
     1
102
RTVSPropertyOp10
 70
     1
102
RTVSPropertyOp11
 70
     1
102
RTVSPropertyOp12
 70
     1
102
RTVSPropertyOp13
 70
     1
102
RTVSPropertyOp14
 70
     1
102
RTVSPropertyOp15
 70
     1
102
RTVSPropertyOp16
 70
     1
102
RTVSPropertyOp17
 70
     1
102
RTVSPropertyOp18
 70
     1
102
RTVSPropertyOp19
 70
     1
102
RTVSPropertyOp20
 70
     1
102
RTVSPropertyOp21
 70
     1
102
RTVSPropertyOp22
 70
     1
102
RTVSPropertyOp23
 70
     1
102
RTVSPropertyOp24
 70
     1
102
RTVSPropertyOp25
 70
     1
102
RTVSPropertyOp26
 70
     1
102
RTVSPropertyOp27
 70
     1
  0
XRECORD
  5
1F7
102
{ACAD_REACTORS
330
1F6
102
}
330
1F6
100
AcDbXrecord
280
     1
102
RTVSPropertyOp0
 70
     1
102
RTVSPropertyOp1
 70
     1
102
RTVSPropertyOp2
 70
     1
102
RTVSPropertyOp3
 70
     1
102
RTVSPropertyOp4
 70
     1
102
RTVSPropertyOp5
 70
     1
102
RTVSPropertyOp6
 70
     1
102
RTVSPropertyOp7
 70
     1
102
RTVSPropertyOp8
 70
     1
102
RTVSPropertyOp9
 70
     1
102
RTVSPropertyOp10
 70
     1
102
RTVSPropertyOp11
 70
     1
102
RTVSPropertyOp12
 70
     1
102
RTVSPropertyOp13
 70
     1
102
RTVSPropertyOp14
 70
     1
102
RTVSPropertyOp15
 70
     1
102
RTVSPropertyOp16
 70
     1
102
RTVSPropertyOp17
 70
     1
102
RTVSPropertyOp18
 70
     1
102
RTVSPropertyOp19
 70
     1
102
RTVSPropertyOp20
 70
     1
102
RTVSPropertyOp21
 70
     1
102
RTVSPropertyOp22
 70
     1
102
RTVSPropertyOp23
 70
     1
102
RTVSPropertyOp24
 70
     1
102
RTVSPropertyOp25
 70
     1
102
RTVSPropertyOp26
 70
     1
102
RTVSPropertyOp27
 70
     1
  0
XRECORD
  5
1F3
102
{ACAD_REACTORS
330
1F2
102
}
330
1F2
100
AcDbXrecord
280
     1
102
RTVSPropertyOp0
 70
     1
102
RTVSPropertyOp1
 70
     1
102
RTVSPropertyOp2
 70
     1
102
RTVSPropertyOp3
 70
     1
102
RTVSPropertyOp4
 70
     1
102
RTVSPropertyOp5
 70
     1
102
RTVSPropertyOp6
 70
     1
102
RTVSPropertyOp7
 70
     1
102
RTVSPropertyOp8
 70
     1
102
RTVSPropertyOp9
 70
     1
102
RTVSPropertyOp10
 70
     1
102
RTVSPropertyOp11
 70
     1
102
RTVSPropertyOp12
 70
     1
102
RTVSPropertyOp13
 70
     1
102
RTVSPropertyOp14
 70
     1
102
RTVSPropertyOp15
 70
     1
102
RTVSPropertyOp16
 70
     1
102
RTVSPropertyOp17
 70
     1
102
RTVSPropertyOp18
 70
     1
102
RTVSPropertyOp19
 70
     1
102
RTVSPropertyOp20
 70
     1
102
RTVSPropertyOp21
 70
     1
102
RTVSPropertyOp22
 70
     1
102
RTVSPropertyOp23
 70
     1
102
RTVSPropertyOp24
 70
     1
102
RTVSPropertyOp25
 70
     1
102
RTVSPropertyOp26
 70
     1
102
RTVSPropertyOp27
 70
     1
  0
XRECORD
  5
201
102
{ACAD_REACTORS
330
200
102
}
330
200
100
AcDbXrecord
280
     1
102
RTVSPropertyOp0
 70
     1
102
RTVSPropertyOp1
 70
     1
102
RTVSPropertyOp2
 70
     1
102
RTVSPropertyOp3
 70
     1
102
RTVSPropertyOp4
 70
     1
102
RTVSPropertyOp5
 70
     1
102
RTVSPropertyOp6
 70
     1
102
RTVSPropertyOp7
 70
     1
102
RTVSPropertyOp8
 70
     1
102
RTVSPropertyOp9
 70
     1
102
RTVSPropertyOp10
 70
     1
102
RTVSPropertyOp11
 70
     1
102
RTVSPropertyOp12
 70
     1
102
RTVSPropertyOp13
 70
     1
102
RTVSPropertyOp14
 70
     1
102
RTVSPropertyOp15
 70
     1
102
RTVSPropertyOp16
 70
     1
102
RTVSPropertyOp17
 70
     1
102
RTVSPropertyOp18
 70
     1
102
RTVSPropertyOp19
 70
     1
102
RTVSPropertyOp20
 70
     1
102
RTVSPropertyOp21
 70
     1
102
RTVSPropertyOp22
 70
     1
102
RTVSPropertyOp23
 70
     1
102
RTVSPropertyOp24
 70
     1
102
RTVSPropertyOp25
 70
     1
102
RTVSPropertyOp26
 70
     1
102
RTVSPropertyOp27
 70
     1
  0
XRECORD
  5
209
102
{ACAD_REACTORS
330
208
102
}
330
208
100
AcDbXrecord
280
     1
102
RTVSPropertyOp0
 70
     1
102
RTVSPropertyOp1
 70
     1
102
RTVSPropertyOp2
 70
     1
102
RTVSPropertyOp3
 70
     1
102
RTVSPropertyOp4
 70
     1
102
RTVSPropertyOp5
 70
     1
102
RTVSPropertyOp6
 70
     1
102
RTVSPropertyOp7
 70
     1
102
RTVSPropertyOp8
 70
     1
102
RTVSPropertyOp9
 70
     1
102
RTVSPropertyOp10
 70
     1
102
RTVSPropertyOp11
 70
     1
102
RTVSPropertyOp12
 70
     1
102
RTVSPropertyOp13
 70
     1
102
RTVSPropertyOp14
 70
     1
102
RTVSPropertyOp15
 70
     1
102
RTVSPropertyOp16
 70
     1
102
RTVSPropertyOp17
 70
     1
102
RTVSPropertyOp18
 70
     1
102
RTVSPropertyOp19
 70
     1
102
RTVSPropertyOp20
 70
     1
102
RTVSPropertyOp21
 70
     1
102
RTVSPropertyOp22
 70
     1
102
RTVSPropertyOp23
 70
     1
102
RTVSPropertyOp24
 70
     1
102
RTVSPropertyOp25
 70
     1
102
RTVSPropertyOp26
 70
     1
102
RTVSPropertyOp27
 70
     1
  0
XRECORD
  5
1FB
102
{ACAD_REACTORS
330
1FA
102
}
330
1FA
100
AcDbXrecord
280
     1
102
RTVSPropertyOp0
 70
     1
102
RTVSPropertyOp1
 70
     1
102
RTVSPropertyOp2
 70
     1
102
RTVSPropertyOp3
 70
     1
102
RTVSPropertyOp4
 70
     1
102
RTVSPropertyOp5
 70
     1
102
RTVSPropertyOp6
 70
     1
102
RTVSPropertyOp7
 70
     1
102
RTVSPropertyOp8
 70
     1
102
RTVSPropertyOp9
 70
     1
102
RTVSPropertyOp10
 70
     1
102
RTVSPropertyOp11
 70
     1
102
RTVSPropertyOp12
 70
     1
102
RTVSPropertyOp13
 70
     1
102
RTVSPropertyOp14
 70
     1
102
RTVSPropertyOp15
 70
     1
102
RTVSPropertyOp16
 70
     1
102
RTVSPropertyOp17
 70
     1
102
RTVSPropertyOp18
 70
     1
102
RTVSPropertyOp19
 70
     1
102
RTVSPropertyOp20
 70
     1
102
RTVSPropertyOp21
 70
     1
102
RTVSPropertyOp22
 70
     1
102
RTVSPropertyOp23
 70
     1
102
RTVSPropertyOp24
 70
     1
102
RTVSPropertyOp25
 70
     1
102
RTVSPropertyOp26
 70
     1
102
RTVSPropertyOp27
 70
     1
  0
XRECORD
  5
1FF
102
{ACAD_REACTORS
330
1FE
102
}
330
1FE
100
AcDbXrecord
280
     1
102
RTVSPropertyOp0
 70
     1
102
RTVSPropertyOp1
 70
     1
102
RTVSPropertyOp2
 70
     1
102
RTVSPropertyOp3
 70
     1
102
RTVSPropertyOp4
 70
     1
102
RTVSPropertyOp5
 70
     1
102
RTVSPropertyOp6
 70
     1
102
RTVSPropertyOp7
 70
     1
102
RTVSPropertyOp8
 70
     1
102
RTVSPropertyOp9
 70
     1
102
RTVSPropertyOp10
 70
     1
102
RTVSPropertyOp11
 70
     1
102
RTVSPropertyOp12
 70
     1
102
RTVSPropertyOp13
 70
     1
102
RTVSPropertyOp14
 70
     1
102
RTVSPropertyOp15
 70
     1
102
RTVSPropertyOp16
 70
     1
102
RTVSPropertyOp17
 70
     1
102
RTVSPropertyOp18
 70
     1
102
RTVSPropertyOp19
 70
     1
102
RTVSPropertyOp20
 70
     1
102
RTVSPropertyOp21
 70
     1
102
RTVSPropertyOp22
 70
     1
102
RTVSPropertyOp23
 70
     1
102
RTVSPropertyOp24
 70
     1
102
RTVSPropertyOp25
 70
     1
102
RTVSPropertyOp26
 70
     1
102
RTVSPropertyOp27
 70
     1
  0
XRECORD
  5
20F
102
{ACAD_REACTORS
330
20E
102
}
330
20E
100
AcDbXrecord
280
     1
102
RTVSPropertyOp0
 70
     0
102
RTVSPropertyOp1
 70
     0
102
RTVSPropertyOp2
 70
     0
102
RTVSPropertyOp3
 70
     0
102
RTVSPropertyOp4
 70
     0
102
RTVSPropertyOp5
 70
     0
102
RTVSPropertyOp6
 70
     0
102
RTVSPropertyOp7
 70
     0
102
RTVSPropertyOp8
 70
     0
102
RTVSPropertyOp9
 70
     0
102
RTVSPropertyOp10
 70
     0
102
RTVSPropertyOp11
 70
     0
102
RTVSPropertyOp12
 70
     0
102
RTVSPropertyOp13
 70
     0
102
RTVSPropertyOp14
 70
     2
102
RTVSPropertyOp15
 70
     0
102
RTVSPropertyOp16
 70
     0
102
RTVSPropertyOp17
 70
     0
102
RTVSPropertyOp18
 70
     0
102
RTVSPropertyOp19
 70
     0
102
RTVSPropertyOp20
 70
     0
102
RTVSPropertyOp21
 70
     0
102
RTVSPropertyOp22
 70
     0
102
RTVSPropertyOp23
 70
     0
102
RTVSPropertyOp24
 70
     0
102
RTVSPropertyOp25
 70
     0
102
RTVSPropertyOp26
 70
     0
102
RTVSPropertyOp27
 70
     0
  0
XRECORD
  5
207
102
{ACAD_REACTORS
330
206
102
}
330
206
100
AcDbXrecord
280
     1
102
RTVSPropertyOp0
 70
     1
102
RTVSPropertyOp1
 70
     1
102
RTVSPropertyOp2
 70
     1
102
RTVSPropertyOp3
 70
     1
102
RTVSPropertyOp4
 70
     1
102
RTVSPropertyOp5
 70
     1
102
RTVSPropertyOp6
 70
     1
102
RTVSPropertyOp7
 70
     1
102
RTVSPropertyOp8
 70
     1
102
RTVSPropertyOp9
 70
     1
102
RTVSPropertyOp10
 70
     1
102
RTVSPropertyOp11
 70
     1
102
RTVSPropertyOp12
 70
     1
102
RTVSPropertyOp13
 70
     1
102
RTVSPropertyOp14
 70
     1
102
RTVSPropertyOp15
 70
     1
102
RTVSPropertyOp16
 70
     1
102
RTVSPropertyOp17
 70
     1
102
RTVSPropertyOp18
 70
     1
102
RTVSPropertyOp19
 70
     1
102
RTVSPropertyOp20
 70
     1
102
RTVSPropertyOp21
 70
     1
102
RTVSPropertyOp22
 70
     1
102
RTVSPropertyOp23
 70
     1
102
RTVSPropertyOp24
 70
     1
102
RTVSPropertyOp25
 70
     1
102
RTVSPropertyOp26
 70
     1
102
RTVSPropertyOp27
 70
     1
  0
XRECORD
  5
1EB
102
{ACAD_REACTORS
330
1EA
102
}
330
1EA
100
AcDbXrecord
280
     1
102
RTVSPropertyOp0
 70
     1
102
RTVSPropertyOp1
 70
     1
102
RTVSPropertyOp2
 70
     1
102
RTVSPropertyOp3
 70
     1
102
RTVSPropertyOp4
 70
     1
102
RTVSPropertyOp5
 70
     1
102
RTVSPropertyOp6
 70
     1
102
RTVSPropertyOp7
 70
     1
102
RTVSPropertyOp8
 70
     1
102
RTVSPropertyOp9
 70
     1
102
RTVSPropertyOp10
 70
     1
102
RTVSPropertyOp11
 70
     1
102
RTVSPropertyOp12
 70
     1
102
RTVSPropertyOp13
 70
     1
102
RTVSPropertyOp14
 70
     1
102
RTVSPropertyOp15
 70
     1
102
RTVSPropertyOp16
 70
     1
102
RTVSPropertyOp17
 70
     1
102
RTVSPropertyOp18
 70
     1
102
RTVSPropertyOp19
 70
     1
102
RTVSPropertyOp20
 70
     1
102
RTVSPropertyOp21
 70
     1
102
RTVSPropertyOp22
 70
     1
102
RTVSPropertyOp23
 70
     1
102
RTVSPropertyOp24
 70
     1
102
RTVSPropertyOp25
 70
     1
102
RTVSPropertyOp26
 70
     1
102
RTVSPropertyOp27
 70
     1
  0
XRECORD
  5
1ED
102
{ACAD_REACTORS
330
1EC
102
}
330
1EC
100
AcDbXrecord
280
     1
102
RTVSPropertyOp0
 70
     1
102
RTVSPropertyOp1
 70
     1
102
RTVSPropertyOp2
 70
     1
102
RTVSPropertyOp3
 70
     1
102
RTVSPropertyOp4
 70
     1
102
RTVSPropertyOp5
 70
     1
102
RTVSPropertyOp6
 70
     1
102
RTVSPropertyOp7
 70
     1
102
RTVSPropertyOp8
 70
     1
102
RTVSPropertyOp9
 70
     1
102
RTVSPropertyOp10
 70
     1
102
RTVSPropertyOp11
 70
     1
102
RTVSPropertyOp12
 70
     1
102
RTVSPropertyOp13
 70
     1
102
RTVSPropertyOp14
 70
     1
102
RTVSPropertyOp15
 70
     1
102
RTVSPropertyOp16
 70
     1
102
RTVSPropertyOp17
 70
     1
102
RTVSPropertyOp18
 70
     1
102
RTVSPropertyOp19
 70
     1
102
RTVSPropertyOp20
 70
     1
102
RTVSPropertyOp21
 70
     1
102
RTVSPropertyOp22
 70
     1
102
RTVSPropertyOp23
 70
     1
102
RTVSPropertyOp24
 70
     1
102
RTVSPropertyOp25
 70
     1
102
RTVSPropertyOp26
 70
     1
102
RTVSPropertyOp27
 70
     1
  0
XRECORD
  5
1EF
102
{ACAD_REACTORS
330
1EE
102
}
330
1EE
100
AcDbXrecord
280
     1
102
RTVSPropertyOp0
 70
     1
102
RTVSPropertyOp1
 70
     1
102
RTVSPropertyOp2
 70
     1
102
RTVSPropertyOp3
 70
     1
102
RTVSPropertyOp4
 70
     1
102
RTVSPropertyOp5
 70
     1
102
RTVSPropertyOp6
 70
     1
102
RTVSPropertyOp7
 70
     1
102
RTVSPropertyOp8
 70
     1
102
RTVSPropertyOp9
 70
     1
102
RTVSPropertyOp10
 70
     1
102
RTVSPropertyOp11
 70
     1
102
RTVSPropertyOp12
 70
     1
102
RTVSPropertyOp13
 70
     1
102
RTVSPropertyOp14
 70
     1
102
RTVSPropertyOp15
 70
     1
102
RTVSPropertyOp16
 70
     1
102
RTVSPropertyOp17
 70
     1
102
RTVSPropertyOp18
 70
     1
102
RTVSPropertyOp19
 70
     1
102
RTVSPropertyOp20
 70
     1
102
RTVSPropertyOp21
 70
     1
102
RTVSPropertyOp22
 70
     1
102
RTVSPropertyOp23
 70
     1
102
RTVSPropertyOp24
 70
     1
102
RTVSPropertyOp25
 70
     1
102
RTVSPropertyOp26
 70
     1
102
RTVSPropertyOp27
 70
     1
  0
XRECORD
  5
1F1
102
{ACAD_REACTORS
330
1F0
102
}
330
1F0
100
AcDbXrecord
280
     1
102
RTVSPropertyOp0
 70
     1
102
RTVSPropertyOp1
 70
     1
102
RTVSPropertyOp2
 70
     1
102
RTVSPropertyOp3
 70
     1
102
RTVSPropertyOp4
 70
     1
102
RTVSPropertyOp5
 70
     1
102
RTVSPropertyOp6
 70
     1
102
RTVSPropertyOp7
 70
     1
102
RTVSPropertyOp8
 70
     1
102
RTVSPropertyOp9
 70
     1
102
RTVSPropertyOp10
 70
     1
102
RTVSPropertyOp11
 70
     1
102
RTVSPropertyOp12
 70
     1
102
RTVSPropertyOp13
 70
     1
102
RTVSPropertyOp14
 70
     1
102
RTVSPropertyOp15
 70
     1
102
RTVSPropertyOp16
 70
     1
102
RTVSPropertyOp17
 70
     1
102
RTVSPropertyOp18
 70
     1
102
RTVSPropertyOp19
 70
     1
102
RTVSPropertyOp20
 70
     1
102
RTVSPropertyOp21
 70
     1
102
RTVSPropertyOp22
 70
     1
102
RTVSPropertyOp23
 70
     1
102
RTVSPropertyOp24
 70
     1
102
RTVSPropertyOp25
 70
     1
102
RTVSPropertyOp26
 70
     1
102
RTVSPropertyOp27
 70
     1
  0
XRECORD
  5
20B
102
{ACAD_REACTORS
330
20A
102
}
330
20A
100
AcDbXrecord
280
     1
102
RTVSPropertyOp0
 70
     0
102
RTVSPropertyOp1
 70
     0
102
RTVSPropertyOp2
 70
     0
102
RTVSPropertyOp3
 70
     0
102
RTVSPropertyOp4
 70
     0
102
RTVSPropertyOp5
 70
     0
102
RTVSPropertyOp6
 70
     0
102
RTVSPropertyOp7
 70
     0
102
RTVSPropertyOp8
 70
     0
102
RTVSPropertyOp9
 70
     0
102
RTVSPropertyOp10
 70
     0
102
RTVSPropertyOp11
 70
     0
102
RTVSPropertyOp12
 70
     0
102
RTVSPropertyOp13
 70
     0
102
RTVSPropertyOp14
 70
     2
102
RTVSPropertyOp15
 70
     0
102
RTVSPropertyOp16
 70
     0
102
RTVSPropertyOp17
 70
     0
102
RTVSPropertyOp18
 70
     0
102
RTVSPropertyOp19
 70
     0
102
RTVSPropertyOp20
 70
     0
102
RTVSPropertyOp21
 70
     0
102
RTVSPropertyOp22
 70
     0
102
RTVSPropertyOp23
 70
     0
102
RTVSPropertyOp24
 70
     0
102
RTVSPropertyOp25
 70
     0
102
RTVSPropertyOp26
 70
     0
102
RTVSPropertyOp27
 70
     0
  0
XRECORD
  5
205
102
{ACAD_REACTORS
330
204
102
}
330
204
100
AcDbXrecord
280
     1
102
RTVSPropertyOp0
 70
     1
102
RTVSPropertyOp1
 70
     1
102
RTVSPropertyOp2
 70
     1
102
RTVSPropertyOp3
 70
     1
102
RTVSPropertyOp4
 70
     1
102
RTVSPropertyOp5
 70
     1
102
RTVSPropertyOp6
 70
     1
102
RTVSPropertyOp7
 70
     1
102
RTVSPropertyOp8
 70
     1
102
RTVSPropertyOp9
 70
     1
102
RTVSPropertyOp10
 70
     1
102
RTVSPropertyOp11
 70
     1
102
RTVSPropertyOp12
 70
     1
102
RTVSPropertyOp13
 70
     1
102
RTVSPropertyOp14
 70
     1
102
RTVSPropertyOp15
 70
     1
102
RTVSPropertyOp16
 70
     1
102
RTVSPropertyOp17
 70
     1
102
RTVSPropertyOp18
 70
     1
102
RTVSPropertyOp19
 70
     1
102
RTVSPropertyOp20
 70
     1
102
RTVSPropertyOp21
 70
     1
102
RTVSPropertyOp22
 70
     1
102
RTVSPropertyOp23
 70
     1
102
RTVSPropertyOp24
 70
     1
102
RTVSPropertyOp25
 70
     1
102
RTVSPropertyOp26
 70
     1
102
RTVSPropertyOp27
 70
     1
  0
XRECORD
  5
20D
102
{ACAD_REACTORS
330
20C
102
}
330
20C
100
AcDbXrecord
280
     1
102
RTVSPropertyOp0
 70
     0
102
RTVSPropertyOp1
 70
     0
102
RTVSPropertyOp2
 70
     0
102
RTVSPropertyOp3
 70
     0
102
RTVSPropertyOp4
 70
     0
102
RTVSPropertyOp5
 70
     0
102
RTVSPropertyOp6
 70
     0
102
RTVSPropertyOp7
 70
     0
102
RTVSPropertyOp8
 70
     0
102
RTVSPropertyOp9
 70
     0
102
RTVSPropertyOp10
 70
     0
102
RTVSPropertyOp11
 70
     0
102
RTVSPropertyOp12
 70
     0
102
RTVSPropertyOp13
 70
     0
102
RTVSPropertyOp14
 70
     2
102
RTVSPropertyOp15
 70
     0
102
RTVSPropertyOp16
 70
     0
102
RTVSPropertyOp17
 70
     0
102
RTVSPropertyOp18
 70
     0
102
RTVSPropertyOp19
 70
     0
102
RTVSPropertyOp20
 70
     0
102
RTVSPropertyOp21
 70
     0
102
RTVSPropertyOp22
 70
     0
102
RTVSPropertyOp23
 70
     0
102
RTVSPropertyOp24
 70
     0
102
RTVSPropertyOp25
 70
     0
102
RTVSPropertyOp26
 70
     0
102
RTVSPropertyOp27
 70
     0
  0
XRECORD
  5
1FD
102
{ACAD_REACTORS
330
1FC
102
}
330
1FC
100
AcDbXrecord
280
     1
102
RTVSPropertyOp0
 70
     1
102
RTVSPropertyOp1
 70
     1
102
RTVSPropertyOp2
 70
     1
102
RTVSPropertyOp3
 70
     1
102
RTVSPropertyOp4
 70
     1
102
RTVSPropertyOp5
 70
     1
102
RTVSPropertyOp6
 70
     1
102
RTVSPropertyOp7
 70
     1
102
RTVSPropertyOp8
 70
     1
102
RTVSPropertyOp9
 70
     1
102
RTVSPropertyOp10
 70
     1
102
RTVSPropertyOp11
 70
     1
102
RTVSPropertyOp12
 70
     1
102
RTVSPropertyOp13
 70
     1
102
RTVSPropertyOp14
 70
     1
102
RTVSPropertyOp15
 70
     1
102
RTVSPropertyOp16
 70
     1
102
RTVSPropertyOp17
 70
     1
102
RTVSPropertyOp18
 70
     1
102
RTVSPropertyOp19
 70
     1
102
RTVSPropertyOp20
 70
     1
102
RTVSPropertyOp21
 70
     1
102
RTVSPropertyOp22
 70
     1
102
RTVSPropertyOp23
 70
     1
102
RTVSPropertyOp24
 70
     1
102
RTVSPropertyOp25
 70
     1
102
RTVSPropertyOp26
 70
     1
102
RTVSPropertyOp27
 70
     1
  0
XRECORD
  5
203
102
{ACAD_REACTORS
330
202
102
}
330
202
100
AcDbXrecord
280
     1
102
RTVSPropertyOp0
 70
     1
102
RTVSPropertyOp1
 70
     1
102
RTVSPropertyOp2
 70
     1
102
RTVSPropertyOp3
 70
     1
102
RTVSPropertyOp4
 70
     1
102
RTVSPropertyOp5
 70
     1
102
RTVSPropertyOp6
 70
     1
102
RTVSPropertyOp7
 70
     1
102
RTVSPropertyOp8
 70
     1
102
RTVSPropertyOp9
 70
     1
102
RTVSPropertyOp10
 70
     1
102
RTVSPropertyOp11
 70
     1
102
RTVSPropertyOp12
 70
     1
102
RTVSPropertyOp13
 70
     1
102
RTVSPropertyOp14
 70
     1
102
RTVSPropertyOp15
 70
     1
102
RTVSPropertyOp16
 70
     1
102
RTVSPropertyOp17
 70
     1
102
RTVSPropertyOp18
 70
     1
102
RTVSPropertyOp19
 70
     1
102
RTVSPropertyOp20
 70
     1
102
RTVSPropertyOp21
 70
     1
102
RTVSPropertyOp22
 70
     1
102
RTVSPropertyOp23
 70
     1
102
RTVSPropertyOp24
 70
     1
102
RTVSPropertyOp25
 70
     1
102
RTVSPropertyOp26
 70
     1
102
RTVSPropertyOp27
 70
     1
  0
ENDSEC
  0
EOF
