  0
SECTION
  2
HEADER
  9
$ACADVER
  1
AC1015
  9
$ACADMAINTVER
 70
    20
  9
$DWGCODEPAGE
  3
ANSI_1252
  9
$INSBASE
 10
0.0
 20
0.0
 30
0.0
  9
$EXTMIN
 10
-50.83260433333333
 20
-12.925
 30
-0.0000000000000008
  9
$EXTMAX
 10
63.2125
 20
96.83260433333334
 30
0.0000000000000002
  9
$LIMMIN
 10
-0.5
 20
-0.5
  9
$LIMMAX
 10
5.0
 20
5.0
  9
$ORTHOMODE
 70
     0
  9
$REGENMODE
 70
     1
  9
$FILLMODE
 70
     1
  9
$QTEXTMODE
 70
     0
  9
$MIRRTEXT
 70
     1
  9
$LTSCALE
 40
1.0
  9
$ATTMODE
 70
     1
  9
$TEXTSIZE
 40
5.0
  9
$TRACEWID
 40
0.05
  9
$TEXTSTYLE
  7
Standard
  9
$CLAYER
  8
NOCUT
  9
$CELTYPE
  6
ByLayer
  9
$CECOLOR
 62
   256
  9
$CELTSCALE
 40
1.0
  9
$DISPSILH
 70
     0
  9
$DIMSCALE
 40
1.0
  9
$DIMASZ
 40
0.18
  9
$DIMEXO
 40
0.0625
  9
$DIMDLI
 40
0.38
  9
$DIMRND
 40
0.0
  9
$DIMDLE
 40
0.0
  9
$DIMEXE
 40
0.18
  9
$DIMTP
 40
0.0
  9
$DIMTM
 40
0.0
  9
$DIMTXT
 40
0.18
  9
$DIMCEN
 40
0.09
  9
$DIMTSZ
 40
0.0
  9
$DIMTOL
 70
     0
  9
$DIMLIM
 70
     0
  9
$DIMTIH
 70
     1
  9
$DIMTOH
 70
     1
  9
$DIMSE1
 70
     0
  9
$DIMSE2
 70
     0
  9
$DIMTAD
 70
     0
  9
$DIMZIN
 70
     0
  9
$DIMBLK
  1

  9
$DIMASO
 70
     1
  9
$DIMSHO
 70
     1
  9
$DIMPOST
  1

  9
$DIMAPOST
  1

  9
$DIMALT
 70
     0
  9
$DIMALTD
 70
     2
  9
$DIMALTF
 40
25.4
  9
$DIMLFAC
 40
1.0
  9
$DIMTOFL
 70
     0
  9
$DIMTVP
 40
0.0
  9
$DIMTIX
 70
     0
  9
$DIMSOXD
 70
     0
  9
$DIMSAH
 70
     0
  9
$DIMBLK1
  1

  9
$DIMBLK2
  1

  9
$DIMSTYLE
  2
Standard
  9
$DIMCLRD
 70
     0
  9
$DIMCLRE
 70
     0
  9
$DIMCLRT
 70
     0
  9
$DIMTFAC
 40
1.0
  9
$DIMGAP
 40
0.09
  9
$DIMJUST
 70
     0
  9
$DIMSD1
 70
     0
  9
$DIMSD2
 70
     0
  9
$DIMTOLJ
 70
     1
  9
$DIMTZIN
 70
     0
  9
$DIMALTZ
 70
     0
  9
$DIMALTTZ
 70
     0
  9
$DIMUPT
 70
     0
  9
$DIMDEC
 70
     4
  9
$DIMTDEC
 70
     4
  9
$DIMALTU
 70
     2
  9
$DIMALTTD
 70
     2
  9
$DIMTXSTY
  7
Standard
  9
$DIMAUNIT
 70
     0
  9
$DIMADEC
 70
     0
  9
$DIMALTRND
 40
0.0
  9
$DIMAZIN
 70
     0
  9
$DIMDSEP
 70
     0
  9
$DIMATFIT
 70
     3
  9
$DIMFRAC
 70
     0
  9
$DIMLDRBLK
  1

  9
$DIMLUNIT
 70
     2
  9
$DIMLWD
 70
     0
  9
$DIMLWE
 70
     0
  9
$DIMTMOVE
 70
     0
  9
$LUNITS
 70
     2
  9
$LUPREC
 70
     4
  9
$SKETCHINC
 40
0.1
  9
$FILLETRAD
 40
0.0
  9
$AUNITS
 70
     0
  9
$AUPREC
 70
     0
  9
$MENU
  1
acad
  9
$ELEVATION
 40
0.0
  9
$PELEVATION
 40
0.0
  9
$THICKNESS
 40
0.0
  9
$LIMCHECK
 70
     0
  9
$CHAMFERA
 40
0.0
  9
$CHAMFERB
 40
0.0
  9
$CHAMFERC
 40
0.0
  9
$CHAMFERD
 40
0.0
  9
$SKPOLY
 70
     0
  9
$TDCREATE
 40
2457459.596387859
  9
$TDUCREATE
 40
2457459.554721192
  9
$TDUPDATE
 40
2457459.598098310
  9
$TDUUPDATE
 40
2457459.556431643
  9
$TDINDWG
 40
0.0017107060
  9
$TDUSRTIMER
 40
0.0017106829
  9
$USRTIMER
 70
     1
  9
$ANGBASE
 50
0.0
  9
$ANGDIR
 70
     0
  9
$PDMODE
 70
     0
  9
$PDSIZE
 40
0.0
  9
$PLINEWID
 40
0.0
  9
$SPLFRAME
 70
     0
  9
$SPLINETYPE
 70
     6
  9
$SPLINESEGS
 70
     8
  9
$HANDSEED
  5
1ED
  9
$SURFTAB1
 70
     6
  9
$SURFTAB2
 70
     6
  9
$SURFTYPE
 70
     6
  9
$SURFU
 70
     6
  9
$SURFV
 70
     6
  9
$UCSBASE
  2

  9
$UCSNAME
  2

  9
$UCSORG
 10
0.0
 20
0.0
 30
0.0
  9
$UCSXDIR
 10
1.0
 20
0.0
 30
0.0
  9
$UCSYDIR
 10
0.0
 20
1.0
 30
0.0
  9
$UCSORTHOREF
  2

  9
$UCSORTHOVIEW
 70
     0
  9
$UCSORGTOP
 10
0.0
 20
0.0
 30
0.0
  9
$UCSORGBOTTOM
 10
0.0
 20
0.0
 30
0.0
  9
$UCSORGLEFT
 10
0.0
 20
0.0
 30
0.0
  9
$UCSORGRIGHT
 10
0.0
 20
0.0
 30
0.0
  9
$UCSORGFRONT
 10
0.0
 20
0.0
 30
0.0
  9
$UCSORGBACK
 10
0.0
 20
0.0
 30
0.0
  9
$PUCSBASE
  2

  9
$PUCSNAME
  2

  9
$PUCSORG
 10
0.0
 20
0.0
 30
0.0
  9
$PUCSXDIR
 10
1.0
 20
0.0
 30
0.0
  9
$PUCSYDIR
 10
0.0
 20
1.0
 30
0.0
  9
$PUCSORTHOREF
  2

  9
$PUCSORTHOVIEW
 70
     0
  9
$PUCSORGTOP
 10
0.0
 20
0.0
 30
0.0
  9
$PUCSORGBOTTOM
 10
0.0
 20
0.0
 30
0.0
  9
$PUCSORGLEFT
 10
0.0
 20
0.0
 30
0.0
  9
$PUCSORGRIGHT
 10
0.0
 20
0.0
 30
0.0
  9
$PUCSORGFRONT
 10
0.0
 20
0.0
 30
0.0
  9
$PUCSORGBACK
 10
0.0
 20
0.0
 30
0.0
  9
$USERI1
 70
     0
  9
$USERI2
 70
     0
  9
$USERI3
 70
     0
  9
$USERI4
 70
     0
  9
$USERI5
 70
     0
  9
$USERR1
 40
0.0
  9
$USERR2
 40
0.0
  9
$USERR3
 40
0.0
  9
$USERR4
 40
0.0
  9
$USERR5
 40
0.0
  9
$WORLDVIEW
 70
     1
  9
$SHADEDGE
 70
     3
  9
$SHADEDIF
 70
    70
  9
$TILEMODE
 70
     1
  9
$MAXACTVP
 70
    64
  9
$PINSBASE
 10
0.0
 20
0.0
 30
0.0
  9
$PLIMCHECK
 70
     0
  9
$PEXTMIN
 10
-0.5
 20
-0.5
 30
-0.5
  9
$PEXTMAX
 10
5.0
 20
5.0
 30
5.0
  9
$PLIMMIN
 10
-0.5
 20
-0.5
  9
$PLIMMAX
 10
5.0
 20
5.0
  9
$UNITMODE
 70
     0
  9
$VISRETAIN
 70
     0
  9
$PLINEGEN
 70
     1
  9
$PSLTSCALE
 70
     0
  9
$TREEDEPTH
 70
  3020
  9
$CMLSTYLE
  2
Standard
  9
$CMLJUST
 70
     0
  9
$CMLSCALE
 40
1.0
  9
$PROXYGRAPHICS
 70
     0
  9
$MEASUREMENT
 70
     1
  9
$CELWEIGHT
370
     0
  9
$ENDCAPS
280
     0
  9
$JOINSTYLE
280
     0
  9
$LWDISPLAY
290
     0
  9
$INSUNITS
 70
     0
  9
$HYPERLINKBASE
  1

  9
$STYLESHEET
  1

  9
$XEDIT
290
     1
  9
$CEPSNTYPE
380
     0
  9
$PSTYLEMODE
290
     1
  9
$FINGERPRINTGUID
  2

  9
$VERSIONGUID
  2
{3138A7AD-E762-4851-B260-2516BA3F4B6E}
  9
$EXTNAMES
290
     1
  9
$PSVPSCALE
 40
0.0
  9
$OLESTARTUP
290
     0
  0
ENDSEC
  0
SECTION
  2
CLASSES
  0
CLASS
  1
IMAGE
  2
AcDbRasterImage
  3
ISM
 90
    34943
280
     0
281
     1
  0
CLASS
  1
DICTIONARYVAR
  2
AcDbDictionaryVar
  3
ObjectDBX Classes
 90
        0
280
     0
281
     0
  0
CLASS
  1
RASTERVARIABLES
  2
AcDbRasterVariables
  3
ISM
 90
    32768
280
     0
281
     0
  0
CLASS
  1
IMAGEDEF
  2
AcDbRasterImageDef
  3
ISM
 90
    32768
280
     0
281
     0
  0
CLASS
  1
IMAGEDEF_REACTOR
  2
AcDbRasterImageDefReactor
  3
ISM
 90
    32769
280
     0
281
     0
  0
CLASS
  1
IDBUFFER
  2
AcDbIdBuffer
  3
ObjectDBX Classes
 90
    32768
280
     0
281
     0
  0
CLASS
  1
SPATIAL_FILTER
  2
AcDbSpatialFilter
  3
ObjectDBX Classes
 90
    32768
280
     0
281
     0
  0
CLASS
  1
SORTENTSTABLE
  2
AcDbSortentsTable
  3
ObjectDBX Classes
 90
    32768
280
     0
281
     0
  0
CLASS
  1
LAYER_INDEX
  2
AcDbLayerIndex
  3
ObjectDBX Classes
 90
    32768
280
     0
281
     0
  0
CLASS
  1
SPATIAL_INDEX
  2
AcDbSpatialIndex
  3
ObjectDBX Classes
 90
    32768
280
     0
281
     0
  0
CLASS
  1
OBJECT_PTR
  2
CAseDLPNTableRecord
  3
ASE-LPNTableRecord
 90
    32769
280
     0
281
     0
  0
CLASS
  1
LAYOUT
  2
AcDbLayout
  3
ObjectDBX Classes
 90
        0
280
     0
281
     0
  0
CLASS
  1
PLOTSETTINGS
  2
AcDbPlotSettings
  3
ObjectDBX Classes
 90
    32768
280
     0
281
     0
  0
CLASS
  1
ACDBDICTIONARYWDFLT
  2
AcDbDictionaryWithDefault
  3
ObjectDBX Classes
 90
        0
280
     0
281
     0
  0
CLASS
  1
ACDBPLACEHOLDER
  2
AcDbPlaceHolder
  3
ObjectDBX Classes
 90
        0
280
     0
281
     0
  0
CLASS
  1
VBA_PROJECT
  2
AcDbVbaProject
  3
acad
 90
    32768
280
     0
281
     0
  0
CLASS
  1
WIPEOUT
  2
AcDbWipeout
  3
"WipeOut|Product Desc: Object Enabler for WipeOut entity                        |Company: Autodesk, Inc.                        |WEB Address: www.autodesk.com"
 90
    34943
280
     0
281
     1
  0
CLASS
  1
WIPEOUTVARIABLES
  2
AcDbWipeoutVariables
  3
"WipeOut|Product Desc:     WipeOut Dbx Application|Company:          Autodesk, Inc.|WEB Address:      www.autodesk.com"
 90
        0
280
     0
281
     0
  0
CLASS
  1
RTEXT
  2
RText
  3
RText|AutoCAD Express Tool|expresstools@autodesk.com
 90
    35839
280
     0
281
     1
  0
CLASS
  1
ARCALIGNEDTEXT
  2
AcDbArcAlignedText
  3
ATEXT|AutoCAD Express Tool|expresstools@autodesk.com
 90
    32768
280
     0
281
     1
  0
CLASS
  1
SCALE
  2
AcDbScale
  3
ObjectDBX Classes
 90
     1153
280
     0
281
     0
  0
CLASS
  1
MATERIAL
  2
AcDbMaterial
  3
ObjectDBX Classes
 90
     1153
280
     0
281
     0
  0
CLASS
  1
VISUALSTYLE
  2
AcDbVisualStyle
  3
ObjectDBX Classes
 90
     4095
280
     0
281
     0
  0
CLASS
  1
TABLESTYLE
  2
AcDbTableStyle
  3
ObjectDBX Classes
 90
     4095
280
     0
281
     0
  0
CLASS
  1
MLEADERSTYLE
  2
AcDbMLeaderStyle
  3
ACDB_MLEADERSTYLE_CLASS
 90
     4095
280
     0
281
     0
  0
CLASS
  1
CELLSTYLEMAP
  2
AcDbCellStyleMap
  3
ObjectDBX Classes
 90
     1152
280
     0
281
     0
  0
ENDSEC
  0
SECTION
  2
TABLES
  0
TABLE
  2
VPORT
  5
7
330
0
100
AcDbSymbolTable
 70
    16
  0
VPORT
  5
10D
330
7
100
AcDbSymbolTableRecord
100
AcDbViewportTableRecord
  2
*ACTIVE
 70
     0
 10
0.0
 20
0.0
 11
1.0
 21
1.0
 12
195.8901740134228
 22
23.892498
 13
0.0
 23
0.0
 14
1.0
 24
1.0
 15
0.0
 25
0.0
 16
0.0
 26
0.0
 36
1.0
 17
0.0
 27
0.0
 37
0.0
 40
254.0548557840557
 41
2.186577181208053
 42
50.0
 43
250.63602
 44
-250.63602
 50
0.0
 51
0.0
 71
    16
 72
   100
 73
     1
 74
     1
 75
     0
 76
     0
 77
     0
 78
     0
281
     0
 65
     0
110
0.0
120
0.0
130
0.0
111
1.0
121
0.0
131
0.0
112
0.0
122
1.0
132
0.0
 79
     0
146
0.0
  0
VPORT
  5
10E
330
7
100
AcDbSymbolTableRecord
100
AcDbViewportTableRecord
  2
L1
 70
     0
 10
0.0
 20
0.0
 11
1.0
 21
1.0
 12
5.6425
 22
23.892498
 13
0.0
 23
0.0
 14
1.0
 24
1.0
 15
0.0
 25
0.0
 16
0.0
 26
0.0
 36
1.0
 17
0.0
 27
0.0
 37
0.0
 40
254.0
 41
0.6885640000000001
 42
50.0
 43
250.63602
 44
-250.63602
 50
0.0
 51
0.0
 71
    16
 72
   100
 73
     1
 74
     1
 75
     0
 76
     0
 77
     0
 78
     0
281
     0
 65
     0
110
0.0
120
0.0
130
0.0
111
1.0
121
0.0
131
0.0
112
0.0
122
1.0
132
0.0
 79
     0
146
0.0
  0
VPORT
  5
10F
330
7
100
AcDbSymbolTableRecord
100
AcDbViewportTableRecord
  2
L2
 70
     0
 10
0.0
 20
0.0
 11
0.5
 21
1.0
 12
0.0
 22
0.0
 13
0.0
 23
0.0
 14
1.0
 24
1.0
 15
0.0
 25
0.0
 16
0.0
 26
-1.0
 36
0.0
 17
0.0
 27
0.0
 37
0.0
 40
1583.996559
 41
0.688564
 42
50.0
 43
815.290728
 44
-815.290728
 50
0.0
 51
0.0
 71
    16
 72
   100
 73
     1
 74
     1
 75
     0
 76
     0
 77
     0
 78
     0
281
     0
 65
     0
110
0.0
120
0.0
130
0.0
111
1.0
121
0.0
131
0.0
112
0.0
122
1.0
132
0.0
 79
     0
146
0.0
  0
VPORT
  5
110
330
7
100
AcDbSymbolTableRecord
100
AcDbViewportTableRecord
  2
L2
 70
     0
 10
0.5
 20
0.0
 11
1.0
 21
1.0
 12
0.0
 22
0.0
 13
0.0
 23
0.0
 14
1.0
 24
1.0
 15
0.0
 25
0.0
 16
1.0
 26
0.0
 36
0.0
 17
0.0
 27
0.0
 37
0.0
 40
1583.996559
 41
0.688564
 42
50.0
 43
802.116123
 44
-802.116123
 50
0.0
 51
0.0
 71
    16
 72
   100
 73
     1
 74
     1
 75
     0
 76
     0
 77
     0
 78
     0
281
     0
 65
     0
110
0.0
120
0.0
130
0.0
111
1.0
121
0.0
131
0.0
112
0.0
122
1.0
132
0.0
 79
     0
146
0.0
  0
VPORT
  5
111
330
7
100
AcDbSymbolTableRecord
100
AcDbViewportTableRecord
  2
L3
 70
     0
 10
0.0
 20
0.5
 11
1.0
 21
1.0
 12
5.6425
 22
23.892498
 13
0.0
 23
0.0
 14
1.0
 24
1.0
 15
0.0
 25
0.0
 16
0.0
 26
0.0
 36
1.0
 17
0.0
 27
0.0
 37
0.0
 40
254.0
 41
0.6885640000000001
 42
50.0
 43
250.63602
 44
-250.63602
 50
0.0
 51
0.0
 71
    16
 72
   100
 73
     1
 74
     1
 75
     0
 76
     0
 77
     0
 78
     0
281
     0
 65
     0
110
0.0
120
0.0
130
0.0
111
1.0
121
0.0
131
0.0
112
0.0
122
1.0
132
0.0
 79
     0
146
0.0
  0
VPORT
  5
112
330
7
100
AcDbSymbolTableRecord
100
AcDbViewportTableRecord
  2
L3
 70
     0
 10
0.0
 20
0.0
 11
1.0
 21
0.5
 12
0.0
 22
0.0
 13
0.0
 23
0.0
 14
1.0
 24
1.0
 15
0.0
 25
0.0
 16
0.0
 26
-1.0
 36
0.0
 17
0.0
 27
0.0
 37
0.0
 40
1583.996559
 41
0.688564
 42
50.0
 43
815.290728
 44
-815.290728
 50
0.0
 51
0.0
 71
    16
 72
   100
 73
     1
 74
     1
 75
     0
 76
     0
 77
     0
 78
     0
281
     0
 65
     0
110
0.0
120
0.0
130
0.0
111
1.0
121
0.0
131
0.0
112
0.0
122
1.0
132
0.0
 79
     0
146
0.0
  0
VPORT
  5
113
330
7
100
AcDbSymbolTableRecord
100
AcDbViewportTableRecord
  2
L4
 70
     0
 10
0.0
 20
0.5
 11
0.5
 21
1.0
 12
5.6425
 22
23.892498
 13
0.0
 23
0.0
 14
1.0
 24
1.0
 15
0.0
 25
0.0
 16
0.0
 26
0.0
 36
1.0
 17
0.0
 27
0.0
 37
0.0
 40
254.0
 41
0.6885640000000001
 42
50.0
 43
250.63602
 44
-250.63602
 50
0.0
 51
0.0
 71
    16
 72
   100
 73
     1
 74
     1
 75
     0
 76
     0
 77
     0
 78
     0
281
     0
 65
     0
110
0.0
120
0.0
130
0.0
111
1.0
121
0.0
131
0.0
112
0.0
122
1.0
132
0.0
 79
     0
146
0.0
  0
VPORT
  5
114
330
7
100
AcDbSymbolTableRecord
100
AcDbViewportTableRecord
  2
L4
 70
     0
 10
0.0
 20
0.0
 11
0.5
 21
0.5
 12
0.0
 22
0.0
 13
0.0
 23
0.0
 14
1.0
 24
1.0
 15
0.0
 25
0.0
 16
0.0
 26
-1.0
 36
0.0
 17
0.0
 27
0.0
 37
0.0
 40
1583.996559
 41
0.688564
 42
50.0
 43
815.290728
 44
-815.290728
 50
0.0
 51
0.0
 71
    16
 72
   100
 73
     1
 74
     1
 75
     0
 76
     0
 77
     0
 78
     0
281
     0
 65
     0
110
0.0
120
0.0
130
0.0
111
1.0
121
0.0
131
0.0
112
0.0
122
1.0
132
0.0
 79
     0
146
0.0
  0
VPORT
  5
115
330
7
100
AcDbSymbolTableRecord
100
AcDbViewportTableRecord
  2
L4
 70
     0
 10
0.5
 20
0.0
 11
1.0
 21
0.5
 12
0.0
 22
0.0
 13
0.0
 23
0.0
 14
1.0
 24
1.0
 15
0.0
 25
0.0
 16
1.0
 26
0.0
 36
0.0
 17
0.0
 27
0.0
 37
0.0
 40
1583.996559
 41
0.688564
 42
50.0
 43
802.116123
 44
-802.116123
 50
0.0
 51
0.0
 71
    16
 72
   100
 73
     1
 74
     1
 75
     0
 76
     0
 77
     0
 78
     0
281
     0
 65
     0
110
0.0
120
0.0
130
0.0
111
1.0
121
0.0
131
0.0
112
0.0
122
1.0
132
0.0
 79
     0
146
0.0
  0
VPORT
  5
116
330
7
100
AcDbSymbolTableRecord
100
AcDbViewportTableRecord
  2
L4
 70
     0
 10
0.5
 20
0.5
 11
1.0
 21
1.0
 12
0.0
 22
0.0
 13
0.0
 23
0.0
 14
1.0
 24
1.0
 15
0.0
 25
0.0
 16
0.5773500000000001
 26
-0.5773500000000001
 36
0.5773500000000001
 17
0.0
 27
0.0
 37
0.0
 40
1555.005323
 41
0.6885640000000001
 42
50.0
 43
809.8560009999999
 44
-809.8560009999999
 50
0.0
 51
0.0
 71
    16
 72
   100
 73
     1
 74
     1
 75
     0
 76
     0
 77
     0
 78
     0
281
     0
 65
     0
110
0.0
120
0.0
130
0.0
111
1.0
121
0.0
131
0.0
112
0.0
122
1.0
132
0.0
 79
     0
146
0.0
  0
VPORT
  5
117
330
7
100
AcDbSymbolTableRecord
100
AcDbViewportTableRecord
  2
L6
 70
     0
 10
0.0
 20
0.5
 11
0.333333
 21
1.0
 12
0.0
 22
0.0
 13
0.0
 23
0.0
 14
1.0
 24
1.0
 15
0.0
 25
0.0
 16
0.718873
 26
-0.5850489999999999
 36
0.375419
 17
0.0
 27
0.0
 37
0.0
 40
1641.004744
 41
0.6885640000000001
 42
50.0
 43
849.6493710000001
 44
-849.6493710000001
 50
0.0
 51
0.0
 71
    16
 72
   100
 73
     1
 74
     1
 75
     0
 76
     0
 77
     0
 78
     0
281
     0
 65
     0
110
0.0
120
0.0
130
0.0
111
1.0
121
0.0
131
0.0
112
0.0
122
1.0
132
0.0
 79
     0
146
0.0
  0
VPORT
  5
118
330
7
100
AcDbSymbolTableRecord
100
AcDbViewportTableRecord
  2
L6
 70
     0
 10
0.0
 20
0.0
 11
0.333333
 21
0.5
 12
0.0
 22
0.0
 13
0.0
 23
0.0
 14
1.0
 24
1.0
 15
0.0
 25
0.0
 16
-1.0
 26
0.0
 36
0.0
 17
0.0
 27
0.0
 37
0.0
 40
1583.996559
 41
0.688564
 42
50.0
 43
802.116123
 44
-802.116123
 50
0.0
 51
0.0
 71
    16
 72
   100
 73
     1
 74
     1
 75
     0
 76
     0
 77
     0
 78
     0
281
     0
 65
     0
110
0.0
120
0.0
130
0.0
111
1.0
121
0.0
131
0.0
112
0.0
122
1.0
132
0.0
 79
     0
146
0.0
  0
VPORT
  5
119
330
7
100
AcDbSymbolTableRecord
100
AcDbViewportTableRecord
  2
L6
 70
     0
 10
0.333333
 20
0.5
 11
0.666667
 21
1.0
 12
5.6425
 22
23.892498
 13
0.0
 23
0.0
 14
1.0
 24
1.0
 15
0.0
 25
0.0
 16
0.0
 26
0.0
 36
1.0
 17
0.0
 27
0.0
 37
0.0
 40
254.0
 41
0.6885640000000001
 42
50.0
 43
250.63602
 44
-250.63602
 50
0.0
 51
0.0
 71
    16
 72
   100
 73
     1
 74
     1
 75
     0
 76
     0
 77
     0
 78
     0
281
     0
 65
     0
110
0.0
120
0.0
130
0.0
111
1.0
121
0.0
131
0.0
112
0.0
122
1.0
132
0.0
 79
     0
146
0.0
  0
VPORT
  5
11A
330
7
100
AcDbSymbolTableRecord
100
AcDbViewportTableRecord
  2
L6
 70
     0
 10
0.333333
 20
0.0
 11
0.666667
 21
0.5
 12
0.0
 22
0.0
 13
0.0
 23
0.0
 14
1.0
 24
1.0
 15
0.0
 25
0.0
 16
0.0
 26
-1.0
 36
0.0
 17
0.0
 27
0.0
 37
0.0
 40
1583.996559
 41
0.688564
 42
50.0
 43
815.290728
 44
-815.290728
 50
0.0
 51
0.0
 71
    16
 72
   100
 73
     1
 74
     1
 75
     0
 76
     0
 77
     0
 78
     0
281
     0
 65
     0
110
0.0
120
0.0
130
0.0
111
1.0
121
0.0
131
0.0
112
0.0
122
1.0
132
0.0
 79
     0
146
0.0
  0
VPORT
  5
11B
330
7
100
AcDbSymbolTableRecord
100
AcDbViewportTableRecord
  2
L6
 70
     0
 10
0.666667
 20
0.5
 11
1.0
 21
1.0
 12
0.0
 22
0.0
 13
0.0
 23
0.0
 14
1.0
 24
1.0
 15
0.0
 25
0.0
 16
0.5773500000000001
 26
-0.5773500000000001
 36
0.5773500000000001
 17
0.0
 27
0.0
 37
0.0
 40
1555.005323
 41
0.6885640000000001
 42
50.0
 43
809.8560009999999
 44
-809.8560009999999
 50
0.0
 51
0.0
 71
    16
 72
   100
 73
     1
 74
     1
 75
     0
 76
     0
 77
     0
 78
     0
281
     0
 65
     0
110
0.0
120
0.0
130
0.0
111
1.0
121
0.0
131
0.0
112
0.0
122
1.0
132
0.0
 79
     0
146
0.0
  0
VPORT
  5
11C
330
7
100
AcDbSymbolTableRecord
100
AcDbViewportTableRecord
  2
L6
 70
     0
 10
0.666667
 20
0.0
 11
1.0
 21
0.5
 12
0.0
 22
0.0
 13
0.0
 23
0.0
 14
1.0
 24
1.0
 15
0.0
 25
0.0
 16
1.0
 26
0.0
 36
0.0
 17
0.0
 27
0.0
 37
0.0
 40
1583.996559
 41
0.688564
 42
50.0
 43
802.116123
 44
-802.116123
 50
0.0
 51
0.0
 71
    16
 72
   100
 73
     1
 74
     1
 75
     0
 76
     0
 77
     0
 78
     0
281
     0
 65
     0
110
0.0
120
0.0
130
0.0
111
1.0
121
0.0
131
0.0
112
0.0
122
1.0
132
0.0
 79
     0
146
0.0
  0
ENDTAB
  0
TABLE
  2
LTYPE
  5
4
330
0
100
AcDbSymbolTable
 70
     9
  0
LTYPE
  5
11
330
4
100
AcDbSymbolTableRecord
100
AcDbLinetypeTableRecord
  2
ByBlock
 70
     0
  3

 72
    65
 73
     0
 40
0.0
  0
LTYPE
  5
12
330
4
100
AcDbSymbolTableRecord
100
AcDbLinetypeTableRecord
  2
ByLayer
 70
     0
  3

 72
    65
 73
     0
 40
0.0
  0
LTYPE
  5
13
330
4
100
AcDbSymbolTableRecord
100
AcDbLinetypeTableRecord
  2
Continuous
 70
     0
  3
Solid line
 72
    65
 73
     0
 40
0.0
  0
LTYPE
  5
24
330
4
100
AcDbSymbolTableRecord
100
AcDbLinetypeTableRecord
  2
DASHED
 70
     0
  3
Dashed
 72
    65
 73
     2
 40
15.0
 49
12.0
 74
     4
 75
     0
340
0
 46
0.0
 50
0.0
 44
0.0
 45
0.0
 49
-3.0
 74
     4
 75
     0
340
0
 46
0.0
 50
0.0
 44
0.0
 45
0.0
  0
LTYPE
  5
25
330
4
100
AcDbSymbolTableRecord
100
AcDbLinetypeTableRecord
  2
HIDDEN
 70
     0
  3
Hidden __ __ __ __ __ __ __ __ __ __ __ __ __ _
 72
    65
 73
     2
 40
9.524999999999996
 49
6.349999999999997
 74
     4
 75
     0
340
0
 46
0.0
 50
0.0
 44
0.0
 45
0.0
 49
-3.174999999999998
 74
     4
 75
     0
340
0
 46
0.0
 50
0.0
 44
0.0
 45
0.0
  0
LTYPE
  5
26
330
4
100
AcDbSymbolTableRecord
100
AcDbLinetypeTableRecord
  2
PHANTOM
 70
     0
  3
____ _ _ ____ _ _ _____ _ _ ____
 72
    65
 73
     6
 40
50.5
 49
18.0
 74
     0
 49
-6.5
 74
     0
 49
6.5
 74
     0
 49
-6.5
 74
     0
 49
6.5
 74
     0
 49
-6.5
 74
     0
  0
LTYPE
  5
27
330
4
100
AcDbSymbolTableRecord
100
AcDbLinetypeTableRecord
  2
CENTER
 70
     0
  3
Dash dot __ . __ . __ . __ . __ . __ . __ . __
 72
    65
 73
     4
 40
25.4
 49
12.7
 74
     4
 75
     0
340
0
 46
0.0
 50
0.0
 44
0.0
 45
0.0
 49
-6.349999999999997
 74
     4
 75
     0
340
0
 46
0.0
 50
0.0
 44
0.0
 45
0.0
 49
0.0
 74
     4
 75
     0
340
0
 46
0.0
 50
0.0
 44
0.0
 45
0.0
 49
-6.349999999999997
 74
     4
 75
     0
340
0
 46
0.0
 50
0.0
 44
0.0
 45
0.0
  0
LTYPE
  5
28
330
4
100
AcDbSymbolTableRecord
100
AcDbLinetypeTableRecord
  2
DOT
 70
     0
  3
.........................
 72
    65
 73
     2
 40
10.0
 49
0.0
 74
     0
 49
-10.0
 74
     0
  0
LTYPE
  5
29
330
4
100
AcDbSymbolTableRecord
100
AcDbLinetypeTableRecord
  2
DASHDOT
 70
     0
  3
_._._._._._._._._._._._._._._._.
 72
    65
 73
     4
 40
70.0
 49
31.0
 74
     0
 49
-13.0
 74
     0
 49
13.0
 74
     0
 49
-13.0
 74
     0
  0
LTYPE
  5
142
330
4
100
AcDbSymbolTableRecord
100
AcDbLinetypeTableRecord
  2
DOT_CENTER
 70
     0
  3
Dot_Center
 72
    65
 73
     4
 40
2.0
 49
1.25
 74
     4
 75
     0
340
0
 46
0.0
 50
0.0
 44
0.0
 45
0.0
 49
-0.25
 74
     4
 75
     0
340
0
 46
0.0
 50
0.0
 44
0.0
 45
0.0
 49
0.25
 74
     4
 75
     0
340
0
 46
0.0
 50
0.0
 44
0.0
 45
0.0
 49
-0.25
 74
     4
 75
     0
340
0
 46
0.0
 50
0.0
 44
0.0
 45
0.0
  0
LTYPE
  5
143
330
4
100
AcDbSymbolTableRecord
100
AcDbLinetypeTableRecord
  2
LONG_DASHED
 70
     0
  3
Long_Dashed
 72
    65
 73
     2
 40
2.0
 49
1.5
 74
     4
 75
     0
340
0
 46
0.0
 50
0.0
 44
0.0
 45
0.0
 49
-0.5
 74
     4
 75
     0
340
0
 46
0.0
 50
0.0
 44
0.0
 45
0.0
  0
ENDTAB
  0
TABLE
  2
LAYER
  5
2
330
0
100
AcDbSymbolTable
 70
    11
  0
LAYER
  5
14
102
{ACAD_XDICTIONARY
360
19C
102
}
330
2
100
AcDbSymbolTableRecord
100
AcDbLayerTableRecord
  2
0
 70
     0
 62
     7
  6
Continuous
370
    -3
390
1D
  0
LAYER
  5
15D
330
2
100
AcDbSymbolTableRecord
100
AcDbLayerTableRecord
  2
DEFPOINTS
 70
     0
 62
     7
  6
Continuous
290
     0
370
    -3
390
1D
  0
LAYER
  5
15E
102
{ACAD_XDICTIONARY
360
19E
102
}
330
2
100
AcDbSymbolTableRecord
100
AcDbLayerTableRecord
  2
NOCUT
 70
     0
 62
     7
  6
Continuous
370
    -3
390
1D
  0
LAYER
  5
15F
102
{ACAD_XDICTIONARY
360
1A0
102
}
330
2
100
AcDbSymbolTableRecord
100
AcDbLayerTableRecord
  2
CUT
 70
     0
 62
     1
  6
Continuous
370
    -3
390
1D
  0
LAYER
  5
160
102
{ACAD_XDICTIONARY
360
1A2
102
}
330
2
100
AcDbSymbolTableRecord
100
AcDbLayerTableRecord
  2
1
 70
     0
 62
     4
  6
Continuous
370
    -3
390
1D
  0
LAYER
  5
161
102
{ACAD_XDICTIONARY
360
1A4
102
}
330
2
100
AcDbSymbolTableRecord
100
AcDbLayerTableRecord
  2
SK1
 70
     0
 62
     4
  6
Continuous
370
    -3
390
1D
  0
LAYER
  5
162
102
{ACAD_XDICTIONARY
360
1A6
102
}
330
2
100
AcDbSymbolTableRecord
100
AcDbLayerTableRecord
  2
SK4
 70
     0
 62
     2
  6
CENTER
370
    -3
390
1D
  0
LAYER
  5
163
102
{ACAD_XDICTIONARY
360
1A8
102
}
330
2
100
AcDbSymbolTableRecord
100
AcDbLayerTableRecord
  2
4
 70
     0
 62
     2
  6
CENTER
370
    -3
390
1D
  0
LAYER
  5
164
102
{ACAD_XDICTIONARY
360
1AA
102
}
330
2
100
AcDbSymbolTableRecord
100
AcDbLayerTableRecord
  2
SK6
 70
     0
 62
     5
  6
Continuous
370
    -3
390
1D
  0
LAYER
  5
165
102
{ACAD_XDICTIONARY
360
1AC
102
}
330
2
100
AcDbSymbolTableRecord
100
AcDbLayerTableRecord
  2
2
 70
     0
 62
     7
  6
Continuous
370
    -3
390
1D
  0
LAYER
  5
166
102
{ACAD_XDICTIONARY
360
1AE
102
}
330
2
100
AcDbSymbolTableRecord
100
AcDbLayerTableRecord
  2
SK2
 70
     0
 62
     7
  6
Continuous
370
    -3
390
1D
  0
ENDTAB
  0
TABLE
  2
STYLE
  5
3
330
0
100
AcDbSymbolTable
 70
     5
  0
STYLE
  5
17
330
3
100
AcDbSymbolTableRecord
100
AcDbTextStyleTableRecord
  2
Standard
 70
     0
 40
0.0
 41
1.0
 50
0.0
 71
     0
 42
5.0
  3
txt
  4

  0
STYLE
  5
C3
330
3
100
AcDbSymbolTableRecord
100
AcDbTextStyleTableRecord
  2
blockfont
 70
     0
 40
0.0
 41
1.0
 50
0.0
 71
     0
 42
0.2
  3
simplex.shx
  4

  0
STYLE
  5
13F
330
3
100
AcDbSymbolTableRecord
100
AcDbTextStyleTableRecord
  2
TXT
 70
     0
 40
8.0
 41
1.0
 50
0.0
 71
     0
 42
8.0
  3
txt
  4

  0
STYLE
  5
140
330
3
100
AcDbSymbolTableRecord
100
AcDbTextStyleTableRecord
  2
SIMPLEX
 70
     0
 40
0.0
 41
1.0
 50
0.0
 71
     0
 42
3.5
  3
simplex
  4

  0
STYLE
  5
141
330
3
100
AcDbSymbolTableRecord
100
AcDbTextStyleTableRecord
  2
S07
 70
     0
 40
0.0
 41
0.7
 50
0.0
 71
     0
 42
2.5
  3
SIMPLEX.shx
  4

  0
ENDTAB
  0
TABLE
  2
VIEW
  5
5
330
0
100
AcDbSymbolTable
 70
     8
  0
VIEW
  5
105
330
5
100
AcDbSymbolTableRecord
100
AcDbViewTableRecord
  2
TOP
 70
     0
 40
254.0
 10
5.6425
 20
23.892498
 41
386.976471
 11
0.0
 21
0.0
 31
1.0
 12
0.0
 22
0.0
 32
0.0
 42
50.0
 43
250.63602
 44
-250.63602
 50
0.0
 71
    16
281
     0
 72
     0
  0
VIEW
  5
106
330
5
100
AcDbSymbolTableRecord
100
AcDbViewTableRecord
  2
FRONT
 70
     0
 40
1583.996559
 10
0.0
 20
0.0
 41
386.976471
 11
0.0
 21
-1.0
 31
0.0
 12
0.0
 22
0.0
 32
0.0
 42
50.0
 43
815.290728
 44
-815.290728
 50
0.0
 71
    16
281
     0
 72
     0
  0
VIEW
  5
107
330
5
100
AcDbSymbolTableRecord
100
AcDbViewTableRecord
  2
RIGHT
 70
     0
 40
1583.996559
 10
0.0
 20
0.0
 41
254.0
 11
1.0
 21
0.0
 31
0.0
 12
0.0
 22
0.0
 32
0.0
 42
50.0
 43
802.116123
 44
-802.116123
 50
0.0
 71
    16
281
     0
 72
     0
  0
VIEW
  5
108
330
5
100
AcDbSymbolTableRecord
100
AcDbViewTableRecord
  2
BACK
 70
     0
 40
1583.996559
 10
0.0
 20
0.0
 41
386.976471
 11
0.0
 21
1.0
 31
0.0
 12
0.0
 22
0.0
 32
0.0
 42
50.0
 43
815.290728
 44
-815.290728
 50
0.0
 71
    16
281
     0
 72
     0
  0
VIEW
  5
109
330
5
100
AcDbSymbolTableRecord
100
AcDbViewTableRecord
  2
BOTTOM
 70
     0
 40
254.0
 10
0.0
 20
0.0
 41
386.976471
 11
0.0
 21
0.0
 31
-1.0
 12
0.0
 22
0.0
 32
0.0
 42
50.0
 43
791.99828
 44
-791.99828
 50
180.0
 71
    16
281
     0
 72
     0
  0
VIEW
  5
10A
330
5
100
AcDbSymbolTableRecord
100
AcDbViewTableRecord
  2
LEFT
 70
     0
 40
1583.996559
 10
0.0
 20
0.0
 41
254.0
 11
-1.0
 21
0.0
 31
0.0
 12
0.0
 22
0.0
 32
0.0
 42
50.0
 43
802.116123
 44
-802.116123
 50
0.0
 71
    16
281
     0
 72
     0
  0
VIEW
  5
10B
330
5
100
AcDbSymbolTableRecord
100
AcDbViewTableRecord
  2
TFR-ISO
 70
     0
 40
1555.005323
 10
0.0
 20
0.0
 41
453.238809
 11
0.5773500000000001
 21
-0.5773500000000001
 31
0.5773500000000001
 12
0.0
 22
0.0
 32
0.0
 42
50.0
 43
809.8560009999999
 44
-809.8560009999999
 50
0.0
 71
    16
281
     0
 72
     0
  0
VIEW
  5
10C
330
5
100
AcDbSymbolTableRecord
100
AcDbViewTableRecord
  2
TFR-TRI
 70
     0
 40
1641.004744
 10
0.0
 20
0.0
 41
441.270493
 11
0.718873
 21
-0.5850489999999999
 31
0.375419
 12
0.0
 22
0.0
 32
0.0
 42
50.0
 43
849.6493710000001
 44
-849.6493710000001
 50
0.0
 71
    16
281
     0
 72
     0
  0
ENDTAB
  0
TABLE
  2
UCS
  5
6
330
0
100
AcDbSymbolTable
 70
     0
  0
ENDTAB
  0
TABLE
  2
APPID
  5
8
330
0
100
AcDbSymbolTable
 70
     3
  0
APPID
  5
16
330
8
100
AcDbSymbolTableRecord
100
AcDbRegAppTableRecord
  2
ACAD
 70
     0
  0
APPID
  5
1B2
330
8
100
AcDbSymbolTableRecord
100
AcDbRegAppTableRecord
  2
DCO15
 70
     0
  0
APPID
  5
1EC
330
8
100
AcDbSymbolTableRecord
100
AcDbRegAppTableRecord
  2
ACAD_MLEADERVER
 70
     0
  0
ENDTAB
  0
TABLE
  2
DIMSTYLE
  5
9
330
0
100
AcDbSymbolTable
 70
     1
100
AcDbDimStyleTable
 71
     0
  0
DIMSTYLE
105
18
102
{ACAD_REACTORS
330
CF
330
DA
330
E6
330
F0
330
FA
330
104
102
}
330
9
100
AcDbSymbolTableRecord
100
AcDbDimStyleTableRecord
  2
Standard
 70
     0
340
17
  0
ENDTAB
  0
TABLE
  2
BLOCK_RECORD
  5
1
330
0
100
AcDbSymbolTable
 70
     6
  0
BLOCK_RECORD
  5
A
330
1
100
AcDbSymbolTableRecord
100
AcDbBlockTableRecord
  2
*MODEL_SPACE
340
20
  0
BLOCK_RECORD
  5
B
330
1
100
AcDbSymbolTableRecord
100
AcDbBlockTableRecord
  2
*PAPER_SPACE
340
21
  0
BLOCK_RECORD
  5
C5
330
1
100
AcDbSymbolTableRecord
100
AcDbBlockTableRecord
  2
_D0
340
0
  0
BLOCK_RECORD
  5
D0
330
1
100
AcDbSymbolTableRecord
100
AcDbBlockTableRecord
  2
_D1
340
0
  0
BLOCK_RECORD
  5
DB
330
1
100
AcDbSymbolTableRecord
100
AcDbBlockTableRecord
  2
_D2
340
0
  0
BLOCK_RECORD
  5
E7
330
1
100
AcDbSymbolTableRecord
100
AcDbBlockTableRecord
  2
_D3
340
0
  0
BLOCK_RECORD
  5
F1
330
1
100
AcDbSymbolTableRecord
100
AcDbBlockTableRecord
  2
_D4
340
0
  0
BLOCK_RECORD
  5
FB
330
1
100
AcDbSymbolTableRecord
100
AcDbBlockTableRecord
  2
_D5
340
0
  0
ENDTAB
  0
ENDSEC
  0
SECTION
  2
BLOCKS
  0
BLOCK
  5
D
330
A
100
AcDbEntity
  8
0
390
1D
100
AcDbBlockBegin
  2
*MODEL_SPACE
 70
     0
 10
0.0
 20
0.0
 30
0.0
  3
*MODEL_SPACE
  1

  0
ENDBLK
  5
E
330
A
100
AcDbEntity
  8
0
390
1D
100
AcDbBlockEnd
  0
BLOCK
  5
F
330
B
100
AcDbEntity
 67
     1
  8
0
390
1D
100
AcDbBlockBegin
  2
*PAPER_SPACE
 70
     0
 10
0.0
 20
0.0
 30
0.0
  3
*PAPER_SPACE
  1

  0
ENDBLK
  5
10
330
B
100
AcDbEntity
 67
     1
  8
0
390
1D
100
AcDbBlockEnd
  0
BLOCK
  5
C6
330
C5
100
AcDbEntity
  8
0
390
1D
100
AcDbBlockBegin
  2
_D0
 70
     0
 10
0.0
 20
0.0
 30
0.0
  3
_D0
  1

  0
MTEXT
  5
C7
330
C5
100
AcDbEntity
  8
2
390
1D
100
AcDbMText
 10
17.2125
 20
75.739271
 30
0.0
 40
4.57
 41
0.0
 71
     7
 72
     5
  1
\W01.000;\Fsimplex.shx;10
  7
SIMPLEX
 73
     2
 44
0.9036139999999999
1001
ACAD
1000
MTEXTBEGIN
1070
    73
1070
     2
1070
    44
1040
0.9036139999999999
1070
    74
1070
     0
1000
MTEXTEND
  0
LINE
  5
C9
330
C5
100
AcDbEntity
  8
2
390
1D
100
AcDbLine
 10
0.0
 20
0.0
 30
0.0
 11
0.0
 21
78.43
 31
0.0
  0
LINE
  5
CA
330
C5
100
AcDbEntity
  8
2
390
1D
100
AcDbLine
 10
10.0
 20
0.0
 30
0.0
 11
10.0
 21
78.43
 31
0.0
  0
LINE
  5
CB
330
C5
100
AcDbEntity
  8
2
390
1D
100
AcDbLine
 10
25.571792
 20
74.93000000000001
 30
0.0
 11
-11.425
 21
74.93000000000001
 31
0.0
  0
SOLID
  5
CC
330
C5
100
AcDbEntity
  8
2
390
1D
100
AcDbTrace
 10
0.0
 20
74.93000000000001
 30
0.0
 11
-4.569998
 21
74.32834799999999
 31
0.0
 12
-4.570001999999999
 22
75.53165200000001
 32
0.0
 13
0.0
 23
74.93000000000001
 33
0.0
  0
SOLID
  5
CD
330
C5
100
AcDbEntity
  8
2
390
1D
100
AcDbTrace
 10
10.0
 20
74.93000000000001
 30
0.0
 11
14.569998
 21
75.53165200000001
 31
0.0
 12
14.570002
 22
74.32834799999999
 32
0.0
 13
10.0
 23
74.93000000000001
 33
0.0
  0
ENDBLK
  5
CE
330
C5
100
AcDbEntity
  8
0
390
1D
100
AcDbBlockEnd
  0
BLOCK
  5
D1
330
D0
100
AcDbEntity
  8
0
390
1D
100
AcDbBlockBegin
  2
_D1
 70
     0
 10
0.0
 20
0.0
 30
0.0
  3
_D1
  1

  0
MTEXT
  5
D2
330
D0
100
AcDbEntity
  8
2
390
1D
100
AcDbMText
 10
59.26072900000001
 20
19.2375
 30
0.0
 40
4.57
 41
0.0
 71
     7
 72
     5
  1
\W01.000;\Fsimplex.shx;1.2
  7
SIMPLEX
 11
0.0
 21
1.0
 31
0.0
 73
     2
 44
0.9036139999999999
1001
ACAD
1000
MTEXTBEGIN
1070
    73
1070
     2
1070
    44
1040
0.9036139999999999
1070
    74
1070
     0
1000
MTEXTEND
  0
MTEXT
  5
D3
330
D0
100
AcDbEntity
  8
2
390
1D
100
AcDbMText
 10
59.26072900000001
 20
10.133203
 30
0.0
 40
4.57
 41
0.0
 71
     7
 72
     5
  1
\W01.000;\Fsimplex.shx;%%c
  7
SIMPLEX
 11
0.0
 21
1.0
 31
0.0
 73
     2
 44
0.9036139999999999
1001
ACAD
1000
MTEXTBEGIN
1070
    73
1070
     2
1070
    44
1040
0.9036139999999999
1070
    74
1070
     0
1000
MTEXTEND
  0
LINE
  5
D4
330
D0
100
AcDbEntity
  8
2
390
1D
100
AcDbLine
 10
10.0
 20
-0.6
 30
0.0
 11
63.2125
 21
-0.6
 31
0.0
  0
LINE
  5
D5
330
D0
100
AcDbEntity
  8
2
390
1D
100
AcDbLine
 10
10.0
 20
0.6
 30
0.0
 11
63.2125
 21
0.6
 31
0.0
  0
LINE
  5
D6
330
D0
100
AcDbEntity
  8
2
390
1D
100
AcDbLine
 10
61.21249999999999
 20
32.576188
 30
0.0
 11
61.21249999999999
 21
-12.025
 31
0.0
  0
SOLID
  5
D7
330
D0
100
AcDbEntity
  8
2
390
1D
100
AcDbTrace
 10
61.21249999999999
 20
-0.6
 30
0.0
 11
61.81415199999999
 21
-5.169998
 31
0.0
 12
60.61084799999999
 22
-5.170001999999999
 32
0.0
 13
61.21249999999999
 23
-0.6
 33
0.0
  0
SOLID
  5
D8
330
D0
100
AcDbEntity
  8
2
390
1D
100
AcDbTrace
 10
61.21249999999999
 20
0.6
 30
0.0
 11
60.61084799999999
 21
5.169998
 31
0.0
 12
61.81415199999999
 22
5.170001999999999
 32
0.0
 13
61.21249999999999
 23
0.6
 33
0.0
  0
ENDBLK
  5
D9
330
D0
100
AcDbEntity
  8
0
390
1D
100
AcDbBlockEnd
  0
BLOCK
  5
DC
330
DB
100
AcDbEntity
  8
0
390
1D
100
AcDbBlockBegin
  2
_D2
 70
     0
 10
0.0
 20
0.0
 30
0.0
  3
_D2
  1

  0
MTEXT
  5
DD
330
DB
100
AcDbEntity
  8
SK2
390
1D
100
AcDbMText
 10
-44.739271
 20
20.1375
 30
0.0
 40
4.57
 41
0.0
 71
     7
 72
     5
  1
\W01.000;\Fsimplex.shx;3
  7
SIMPLEX
 11
0.0
 21
1.0
 31
0.0
 73
     2
 44
0.9036139999999999
1001
ACAD
1000
MTEXTBEGIN
1070
    73
1070
     2
1070
    44
1040
0.9036139999999999
1070
    74
1070
     0
1000
MTEXTEND
  0
MTEXT
  5
DF
330
DB
100
AcDbEntity
  8
SK2
390
1D
100
AcDbMText
 10
-44.739271
 20
11.033203
 30
0.0
 40
4.57
 41
0.0
 71
     7
 72
     5
  1
\W01.000;\Fsimplex.shx;%%c
  7
SIMPLEX
 11
0.0
 21
1.0
 31
0.0
 73
     2
 44
0.9036139999999999
1001
ACAD
1000
MTEXTBEGIN
1070
    73
1070
     2
1070
    44
1040
0.9036139999999999
1070
    74
1070
     0
1000
MTEXTEND
  0
LINE
  5
E0
330
DB
100
AcDbEntity
  8
SK2
390
1D
100
AcDbLine
 10
-27.8
 20
1.5
 30
0.0
 11
-46.2875
 21
1.5
 31
0.0
  0
LINE
  5
E1
330
DB
100
AcDbEntity
  8
SK2
390
1D
100
AcDbLine
 10
-27.8
 20
-1.5
 30
0.0
 11
-46.2875
 21
-1.5
 31
0.0
  0
LINE
  5
E2
330
DB
100
AcDbEntity
  8
SK2
390
1D
100
AcDbLine
 10
-42.7875
 20
-12.925
 30
0.0
 11
-42.7875
 21
23.517396
 31
0.0
  0
SOLID
  5
E3
330
DB
100
AcDbEntity
  8
SK2
390
1D
100
AcDbTrace
 10
-42.7875
 20
1.5
 30
0.0
 11
-43.389152
 21
6.069998
 31
0.0
 12
-42.185848
 22
6.070001999999999
 32
0.0
 13
-42.7875
 23
1.5
 33
0.0
  0
SOLID
  5
E4
330
DB
100
AcDbEntity
  8
SK2
390
1D
100
AcDbTrace
 10
-42.7875
 20
-1.5
 30
0.0
 11
-42.185848
 21
-6.069998
 31
0.0
 12
-43.389152
 22
-6.070001999999999
 32
0.0
 13
-42.7875
 23
-1.5
 33
0.0
  0
ENDBLK
  5
E5
330
DB
100
AcDbEntity
  8
0
390
1D
100
AcDbBlockEnd
  0
BLOCK
  5
E8
330
E7
100
AcDbEntity
  8
0
390
1D
100
AcDbBlockBegin
  2
_D3
 70
     0
 10
0.0
 20
0.0
 30
0.0
  3
_D3
  1

  0
MTEXT
  5
E9
330
E7
100
AcDbEntity
  8
2
390
1D
100
AcDbMText
 10
17.2125
 20
60.73927099999999
 30
0.0
 40
4.57
 41
0.0
 71
     7
 72
     5
  1
\W01.000;\Fsimplex.shx;5.325
  7
SIMPLEX
 73
     2
 44
0.9036139999999999
1001
ACAD
1000
MTEXTBEGIN
1070
    73
1070
     2
1070
    44
1040
0.9036139999999999
1070
    74
1070
     0
1000
MTEXTEND
  0
LINE
  5
EA
330
E7
100
AcDbEntity
  8
2
390
1D
100
AcDbLine
 10
10.0
 20
0.0
 30
0.0
 11
10.0
 21
63.42999999999999
 31
0.0
  0
LINE
  5
EB
330
E7
100
AcDbEntity
  8
2
390
1D
100
AcDbLine
 10
4.674999999999999
 20
0.0
 30
0.0
 11
4.674999999999999
 21
63.42999999999999
 31
0.0
  0
LINE
  5
EC
330
E7
100
AcDbEntity
  8
2
390
1D
100
AcDbLine
 10
-6.75
 20
59.93
 30
0.0
 11
40.509979
 21
59.93
 31
0.0
  0
SOLID
  5
ED
330
E7
100
AcDbEntity
  8
2
390
1D
100
AcDbTrace
 10
10.0
 20
59.93
 30
0.0
 11
14.569998
 21
60.531652
 31
0.0
 12
14.570002
 22
59.328348
 32
0.0
 13
10.0
 23
59.93
 33
0.0
  0
SOLID
  5
EE
330
E7
100
AcDbEntity
  8
2
390
1D
100
AcDbTrace
 10
4.674999999999999
 20
59.93
 30
0.0
 11
0.105002
 21
59.328348
 31
0.0
 12
0.104998
 22
60.531652
 32
0.0
 13
4.674999999999999
 23
59.93
 33
0.0
  0
ENDBLK
  5
EF
330
E7
100
AcDbEntity
  8
0
390
1D
100
AcDbBlockEnd
  0
BLOCK
  5
F2
330
F1
100
AcDbEntity
  8
0
390
1D
100
AcDbBlockBegin
  2
_D4
 70
     0
 10
0.0
 20
0.0
 30
0.0
  3
_D4
  1

  0
MTEXT
  5
F3
330
F1
100
AcDbEntity
  8
2
390
1D
100
AcDbMText
 10
17.2125
 20
45.739278
 30
0.0
 40
4.57
 41
0.0
 71
     7
 72
     5
  1
\W01.000;\Fsimplex.shx;0.678
  7
SIMPLEX
 73
     2
 44
0.9036139999999999
1001
ACAD
1000
MTEXTBEGIN
1070
    73
1070
     2
1070
    44
1040
0.9036139999999999
1070
    74
1070
     0
1000
MTEXTEND
  0
LINE
  5
F4
330
F1
100
AcDbEntity
  8
2
390
1D
100
AcDbLine
 10
9.322
 20
0.0
 30
0.0
 11
9.322
 21
46.930007
 31
0.0
  0
LINE
  5
F5
330
F1
100
AcDbEntity
  8
2
390
1D
100
AcDbLine
 10
10.0
 20
0.0
 30
0.0
 11
10.0
 21
46.930007
 31
0.0
  0
LINE
  5
F6
330
F1
100
AcDbEntity
  8
2
390
1D
100
AcDbLine
 10
40.509979
 20
44.930007
 30
0.0
 11
-2.103
 21
44.930007
 31
0.0
  0
SOLID
  5
F7
330
F1
100
AcDbEntity
  8
2
390
1D
100
AcDbTrace
 10
9.322
 20
44.930007
 30
0.0
 11
4.752002
 21
44.328355
 31
0.0
 12
4.751998
 22
45.531659
 32
0.0
 13
9.322
 23
44.930007
 33
0.0
  0
SOLID
  5
F8
330
F1
100
AcDbEntity
  8
2
390
1D
100
AcDbTrace
 10
10.0
 20
44.930007
 30
0.0
 11
14.569998
 21
45.531659
 31
0.0
 12
14.570002
 22
44.328355
 32
0.0
 13
10.0
 23
44.930007
 33
0.0
  0
ENDBLK
  5
F9
330
F1
100
AcDbEntity
  8
0
390
1D
100
AcDbBlockEnd
  0
BLOCK
  5
FC
330
FB
100
AcDbEntity
  8
0
390
1D
100
AcDbBlockBegin
  2
_D5
 70
     0
 10
0.0
 20
0.0
 30
0.0
  3
_D5
  1

  0
MTEXT
  5
FD
330
FB
100
AcDbEntity
  8
SK2
390
1D
100
AcDbMText
 10
-12.608396
 20
90.739271
 30
0.0
 40
4.57
 41
0.0
 71
     7
 72
     5
  1
\W01.000;\Fsimplex.shx;38
  7
SIMPLEX
 73
     2
 44
0.9036139999999999
1001
ACAD
1000
MTEXTBEGIN
1070
    73
1070
     2
1070
    44
1040
0.9036139999999999
1070
    74
1070
     0
1000
MTEXTEND
  0
LINE
  5
FE
330
FB
100
AcDbEntity
  8
SK2
390
1D
100
AcDbLine
 10
-28.0
 20
0.0
 30
0.0
 11
-28.0
 21
91.93000000000001
 31
0.0
  0
LINE
  5
FF
330
FB
100
AcDbEntity
  8
SK2
390
1D
100
AcDbLine
 10
10.0
 20
0.0
 30
0.0
 11
10.0
 21
91.93000000000001
 31
0.0
  0
LINE
  5
100
330
FB
100
AcDbEntity
  8
SK2
390
1D
100
AcDbLine
 10
-28.0
 20
89.93
 30
0.0
 11
10.0
 21
89.93
 31
0.0
  0
SOLID
  5
101
330
FB
100
AcDbEntity
  8
SK2
390
1D
100
AcDbTrace
 10
-28.0
 20
89.93
 30
0.0
 11
-23.430002
 21
90.531652
 31
0.0
 12
-23.429998
 22
89.328348
 32
0.0
 13
-28.0
 23
89.93
 33
0.0
  0
SOLID
  5
102
330
FB
100
AcDbEntity
  8
SK2
390
1D
100
AcDbTrace
 10
10.0
 20
89.93
 30
0.0
 11
5.430001999999999
 21
89.328348
 31
0.0
 12
5.429998
 22
90.531652
 32
0.0
 13
10.0
 23
89.93
 33
0.0
  0
ENDBLK
  5
103
330
FB
100
AcDbEntity
  8
0
390
1D
100
AcDbBlockEnd
  0
ENDSEC
  0
SECTION
  2
ENTITIES
  0
POINT
  5
2A
330
A
100
AcDbEntity
  8
DEFPOINTS
390
1D
100
AcDbPoint
 10
0.0
 20
0.0
 30
0.0
  0
POINT
  5
2C
330
A
100
AcDbEntity
  8
DEFPOINTS
390
1D
100
AcDbPoint
 10
10.0
 20
0.6
 30
0.0
  0
POINT
  5
2D
330
A
100
AcDbEntity
  8
DEFPOINTS
390
1D
100
AcDbPoint
 10
10.0
 20
0.0
 30
0.0
  0
POINT
  5
2E
330
A
100
AcDbEntity
  8
DEFPOINTS
390
1D
100
AcDbPoint
 10
9.322
 20
0.0
 30
0.0
  0
POINT
  5
2F
330
A
100
AcDbEntity
  8
DEFPOINTS
390
1D
100
AcDbPoint
 10
-28.0
 20
0.0
 30
0.0
  0
POINT
  5
30
330
A
100
AcDbEntity
  8
DEFPOINTS
390
1D
100
AcDbPoint
 10
10.0
 20
-0.6
 30
0.0
  0
POINT
  5
31
330
A
100
AcDbEntity
  8
DEFPOINTS
390
1D
100
AcDbPoint
 10
9.322
 20
-0.325
 30
0.0
  0
POINT
  5
32
330
A
100
AcDbEntity
  8
DEFPOINTS
390
1D
100
AcDbPoint
 10
9.322
 20
0.325
 30
0.0
  0
POINT
  5
33
330
A
100
AcDbEntity
  8
DEFPOINTS
390
1D
100
AcDbPoint
 10
4.674999999999999
 20
0.0
 30
0.0
  0
LINE
  5
43
330
A
100
AcDbEntity
  8
CUT
390
1D
100
AcDbLine
 10
9.322
 20
-0.6
 30
0.0
 11
10.0
 21
-0.6
 31
0.0
  0
LINE
  5
45
330
A
100
AcDbEntity
  8
CUT
390
1D
100
AcDbLine
 10
9.322
 20
-0.6
 30
0.0
 11
9.322
 21
0.6
 31
0.0
  0
LINE
  5
46
330
A
100
AcDbEntity
  8
CUT
390
1D
100
AcDbLine
 10
10.0
 20
0.6
 30
0.0
 11
9.322
 21
0.6
 31
0.0
  0
LINE
  5
47
330
A
100
AcDbEntity
  8
CUT
390
1D
100
AcDbLine
 10
10.0
 20
0.6
 30
0.0
 11
10.0
 21
0.529215
 31
0.0
  0
LINE
  5
48
330
A
100
AcDbEntity
  8
CUT
390
1D
100
AcDbLine
 10
10.0
 20
0.529215
 30
0.0
 11
10.0
 21
-0.6
 31
0.0
  0
LINE
  5
49
330
A
100
AcDbEntity
  8
1
390
1D
100
AcDbLine
 10
10.0
 20
-0.186542
 30
0.0
 11
10.0
 21
0.325473
 31
0.0
  0
LINE
  5
4B
330
A
100
AcDbEntity
  8
1
390
1D
100
AcDbLine
 10
9.322
 20
-0.077293
 30
0.0
 11
9.322
 21
0.382058
 31
0.0
  0
LINE
  5
4C
330
A
100
AcDbEntity
  8
1
390
1D
100
AcDbLine
 10
9.500685
 20
-0.6
 30
0.0
 11
9.615
 21
-0.4020000000000001
 31
0.0
  0
LINE
  5
4D
330
A
100
AcDbEntity
  8
1
390
1D
100
AcDbLine
 10
9.615
 20
-0.332587
 30
0.0
 11
9.615
 21
-0.4020000000000001
 31
0.0
  0
LINE
  5
4E
330
A
100
AcDbEntity
  8
1
390
1D
100
AcDbLine
 10
9.449314999999998
 20
-0.592329
 30
0.0
 11
9.449314999999998
 21
-0.6
 31
0.0
  0
LINE
  5
4F
330
A
100
AcDbEntity
  8
1
390
1D
100
AcDbLine
 10
9.335
 20
-0.4020000000000001
 30
0.0
 11
9.335
 21
-0.300117
 31
0.0
  0
LINE
  5
50
330
A
100
AcDbEntity
  8
1
390
1D
100
AcDbLine
 10
9.322
 20
-0.4020000000000001
 30
0.0
 11
9.322
 21
-0.29932
 31
0.0
  0
LINE
  5
51
330
A
100
AcDbEntity
  8
1
390
1D
100
AcDbLine
 10
9.322
 20
-0.4020000000000001
 30
0.0
 11
9.335
 21
-0.4020000000000001
 31
0.0
  0
LINE
  5
52
330
A
100
AcDbEntity
  8
1
390
1D
100
AcDbLine
 10
9.335001
 20
-0.402002
 30
0.0
 11
9.449314999999998
 21
-0.6
 31
0.0
  0
LINE
  5
53
330
A
100
AcDbEntity
  8
1
390
1D
100
AcDbLine
 10
5.380308
 20
-0.325
 30
0.0
 11
9.322
 21
-0.325
 31
0.0
  0
LINE
  5
54
330
A
100
AcDbEntity
  8
1
390
1D
100
AcDbLine
 10
9.262414999999998
 20
0.325
 30
0.0
 11
5.380308
 21
0.325
 31
0.0
  0
LINE
  5
55
330
A
100
AcDbEntity
  8
SK1
390
1D
100
AcDbLine
 10
-27.8
 20
1.5
 30
0.0
 11
-28.0
 21
1.3
 31
0.0
  0
LINE
  5
57
330
A
100
AcDbEntity
  8
SK1
390
1D
100
AcDbLine
 10
-27.8
 20
1.5
 30
0.0
 11
-27.8
 21
1.323037999999999
 31
0.0
  0
LINE
  5
58
330
A
100
AcDbEntity
  8
SK1
390
1D
100
AcDbLine
 10
-27.8
 20
1.323037999999999
 30
0.0
 11
-27.8
 21
-1.5
 31
0.0
  0
LINE
  5
59
330
A
100
AcDbEntity
  8
SK1
390
1D
100
AcDbLine
 10
-28.0
 20
-1.3
 30
0.0
 11
-27.8
 21
-1.5
 31
0.0
  0
LINE
  5
5A
330
A
100
AcDbEntity
  8
SK1
390
1D
100
AcDbLine
 10
-28.0
 20
1.3
 30
0.0
 11
-28.0
 21
1.146633
 31
0.0
  0
LINE
  5
5B
330
A
100
AcDbEntity
  8
SK1
390
1D
100
AcDbLine
 10
-28.0
 20
1.146633
 30
0.0
 11
-28.0
 21
-1.3
 31
0.0
  0
LINE
  5
5C
330
A
100
AcDbEntity
  8
SK1
390
1D
100
AcDbLine
 10
0.0
 20
1.5
 30
0.0
 11
0.0
 21
-1.5
 31
0.0
  0
LINE
  5
5D
330
A
100
AcDbEntity
  8
SK1
390
1D
100
AcDbLine
 10
-27.8
 20
-1.5
 30
0.0
 11
0.0
 21
-1.5
 31
0.0
  0
LINE
  5
5E
330
A
100
AcDbEntity
  8
SK1
390
1D
100
AcDbLine
 10
0.0
 20
1.5
 30
0.0
 11
-27.8
 21
1.5
 31
0.0
  0
LINE
  5
5F
330
A
100
AcDbEntity
  8
1
390
1D
100
AcDbLine
 10
0.0
 20
-1.5
 30
0.0
 11
1.446713999999999
 21
-1.5
 31
0.0
  0
LINE
  5
60
330
A
100
AcDbEntity
  8
1
390
1D
100
AcDbLine
 10
1.446713999999999
 20
1.5
 30
0.0
 11
1.446713999999999
 21
1.323037999999999
 31
0.0
  0
LINE
  5
61
330
A
100
AcDbEntity
  8
1
390
1D
100
AcDbLine
 10
1.446713999999999
 20
1.323037999999999
 30
0.0
 11
1.446713999999999
 21
-1.5
 31
0.0
  0
LINE
  5
62
330
A
100
AcDbEntity
  8
1
390
1D
100
AcDbLine
 10
1.446713999999999
 20
1.5
 30
0.0
 11
0.0
 21
1.5
 31
0.0
  0
LINE
  5
63
330
A
100
AcDbEntity
  8
1
390
1D
100
AcDbLine
 10
0.0
 20
1.5
 30
0.0
 11
0.0
 21
-1.5
 31
0.0
  0
LINE
  5
64
330
A
100
AcDbEntity
  8
1
390
1D
100
AcDbLine
 10
1.446713999999999
 20
-1.5
 30
0.0
 11
4.012226999999999
 21
-0.56623
 31
0.0
  0
LINE
  5
65
330
A
100
AcDbEntity
  8
1
390
1D
100
AcDbLine
 10
4.012226999999999
 20
0.56623
 30
0.0
 11
1.446713999999999
 21
1.5
 31
0.0
  0
LINE
  5
66
330
A
100
AcDbEntity
  8
1
390
1D
100
AcDbLine
 10
9.799314999999999
 20
-0.250554
 30
0.0
 11
9.799314999999999
 21
0.304577
 31
0.0
  0
LINE
  5
67
330
A
100
AcDbEntity
  8
1
390
1D
100
AcDbLine
 10
9.685
 20
-0.136761
 30
0.0
 11
9.685
 21
0.356033
 31
0.0
  0
LINE
  5
68
330
A
100
AcDbEntity
  8
1
390
1D
100
AcDbLine
 10
9.500685
 20
-0.175719
 30
0.0
 11
9.500685
 21
0.368497
 31
0.0
  0
LINE
  5
69
330
A
100
AcDbEntity
  8
1
390
1D
100
AcDbLine
 10
9.449314999999998
 20
-0.162524
 30
0.0
 11
9.449314999999998
 21
0.378991
 31
0.0
  0
LINE
  5
6A
330
A
100
AcDbEntity
  8
1
390
1D
100
AcDbLine
 10
9.335
 20
-0.07839
 30
0.0
 11
9.335
 21
0.381684
 31
0.0
  0
LINE
  5
6B
330
A
100
AcDbEntity
  8
1
390
1D
100
AcDbLine
 10
9.615
 20
-0.124812
 30
0.0
 11
9.615
 21
0.36185
 31
0.0
  0
LINE
  5
6C
330
A
100
AcDbEntity
  8
1
390
1D
100
AcDbLine
 10
9.850685
 20
-0.263034
 30
0.0
 11
9.850685
 21
0.293143
 31
0.0
  0
LINE
  5
6D
330
A
100
AcDbEntity
  8
1
390
1D
100
AcDbLine
 10
9.964999999999999
 20
-0.181123
 30
0.0
 11
9.964999999999999
 21
0.329206
 31
0.0
  0
LINE
  5
6E
330
A
100
AcDbEntity
  8
1
390
1D
100
AcDbLine
 10
9.500685
 20
-0.594319
 30
0.0
 11
9.500685
 21
-0.6
 31
0.0
  0
LINE
  5
6F
330
A
100
AcDbEntity
  8
1
390
1D
100
AcDbLine
 10
9.685
 20
-0.4020000000000001
 30
0.0
 11
9.799314999999999
 21
-0.6
 31
0.0
  0
LINE
  5
70
330
A
100
AcDbEntity
  8
1
390
1D
100
AcDbLine
 10
9.685
 20
-0.339675
 30
0.0
 11
9.685
 21
-0.4020000000000001
 31
0.0
  0
LINE
  5
71
330
A
100
AcDbEntity
  8
1
390
1D
100
AcDbLine
 10
9.964999999999999
 20
-0.364404
 30
0.0
 11
9.964999999999999
 21
-0.4020000000000001
 31
0.0
  0
LINE
  5
72
330
A
100
AcDbEntity
  8
1
390
1D
100
AcDbLine
 10
9.615
 20
-0.4020000000000001
 30
0.0
 11
9.685
 21
-0.4020000000000001
 31
0.0
  0
LINE
  5
73
330
A
100
AcDbEntity
  8
1
390
1D
100
AcDbLine
 10
9.860767999999998
 20
-0.582536
 30
0.0
 11
9.964999999999999
 21
-0.4020000000000001
 31
0.0
  0
LINE
  5
74
330
A
100
AcDbEntity
  8
1
390
1D
100
AcDbLine
 10
9.850685
 20
-0.6
 30
0.0
 11
9.860767999999998
 21
-0.582536
 31
0.0
  0
LINE
  5
75
330
A
100
AcDbEntity
  8
1
390
1D
100
AcDbLine
 10
9.964999999999999
 20
-0.4020000000000001
 30
0.0
 11
10.0
 21
-0.4020000000000001
 31
0.0
  0
LINE
  5
76
330
A
100
AcDbEntity
  8
1
390
1D
100
AcDbLine
 10
9.449314999999998
 20
-0.6
 30
0.0
 11
9.500685
 21
-0.6
 31
0.0
  0
ARC
  5
79
330
A
100
AcDbEntity
  8
1
390
1D
100
AcDbCircle
 10
-5.380308
 20
-4.325
 30
0.0
 40
4.0
210
0.0
220
0.0
230
-1.0
100
AcDbArc
 50
70.0
 51
90.0
  0
ARC
  5
7A
330
A
100
AcDbEntity
  8
1
390
1D
100
AcDbCircle
 10
-5.380308
 20
4.325
 30
0.0
 40
4.0
210
0.0
220
0.0
230
-1.0
100
AcDbArc
 50
270.0
 51
290.0
  0
SPLINE
  5
7B
330
A
100
AcDbEntity
  8
1
390
1D
100
AcDbSpline
210
-0.0000000009882622
220
-0.0000000063821688
230
1.0
 70
     8
 71
     3
 72
     8
 73
     4
 74
     0
 42
0.0000000001
 43
0.0000000001
 40
0.0
 40
0.0
 40
0.0
 40
0.0
 40
1.0
 40
1.0
 40
1.0
 40
1.0
 10
9.965000000000033
 20
-0.1811227755773643
 30
-0.0000000000000004
 10
9.976666763659693
 20
-0.1829358121819951
 30
-0.0000000000000005
 10
9.988333434671233
 20
-0.1847424422313679
 30
-0.0000000000000005
 10
10.00000000000011
 20
-0.1865424086273606
 30
-0.0000000000000005
  0
SPLINE
  5
7C
330
A
100
AcDbEntity
  8
1
390
1D
100
AcDbSpline
210
0.0
220
0.0
230
1.0
 70
     8
 71
     3
 72
     8
 73
     4
 74
     0
 42
0.0000000001
 43
0.0000000001
 40
0.0
 40
0.0
 40
0.0
 40
0.0
 40
1.0
 40
1.0
 40
1.0
 40
1.0
 10
9.512583696588192
 20
0.3791468338888535
 30
-0.0000000000000006
 10
9.487472727289004
 20
0.3839927815164401
 30
-0.0000000000000006
 10
9.462361757989812
 20
0.3887698659133889
 30
-0.0000000000000006
 10
9.437250788690676
 20
0.3934753075273534
 30
-0.0000000000000006
  0
SPLINE
  5
7D
330
A
100
AcDbEntity
  8
1
390
1D
100
AcDbSpline
210
-0.0000000000191291
220
-0.0000000000894677
230
1.0
 70
     8
 71
     3
 72
     8
 73
     4
 74
     0
 42
0.0000000001
 43
0.0000000001
 40
0.0
 40
0.0
 40
0.0
 40
0.0
 40
1.0
 40
1.0
 40
1.0
 40
1.0
 10
9.861532290820546
 20
0.3076498942855892
 30
-0.0000000000000007
 10
9.837091136370188
 20
0.3129294761424148
 30
-0.0000000000000007
 10
9.812649981919946
 20
0.3181560169359159
 30
-0.0000000000000006
 10
9.788208827469702
 20
0.323326953660569
 30
-0.0000000000000007
  0
SPLINE
  5
7E
330
A
100
AcDbEntity
  8
1
390
1D
100
AcDbSpline
210
0.0
220
0.0
230
1.0
 70
    24
 71
     1
 72
     4
 73
     2
 74
     0
 42
0.0000000001
 43
0.0000000001
 40
0.0
 40
0.0
 40
1.0
 40
1.0
 10
9.948084769310241
 20
0.3335288456988224
 30
-0.0000000000000004
 10
9.72194569839155
 20
0.3641294979781833
 30
-0.0000000000000004
  0
SPLINE
  5
7F
330
A
100
AcDbEntity
  8
1
390
1D
100
AcDbSpline
210
0.0
220
0.0
230
1.0
 70
    24
 71
     1
 72
     4
 73
     2
 74
     0
 42
0.0000000001
 43
0.0000000001
 40
0.0
 40
0.0
 40
1.0
 40
1.0
 10
9.565726888161519
 20
0.3852686910947227
 30
-0.0000000000000004
 10
9.401355435210632
 20
0.407511082274425
 30
-0.0000000000000004
  0
SPLINE
  5
80
330
A
100
AcDbEntity
  8
1
390
1D
100
AcDbSpline
210
0.0
220
0.0
230
1.0
 70
     8
 71
     3
 72
     8
 73
     4
 74
     0
 42
0.0000000001
 43
0.0000000001
 40
0.0
 40
0.0
 40
0.0
 40
0.0
 40
1.0
 40
1.0
 40
1.0
 40
1.0
 10
9.999999999997099
 20
0.3254734459030146
 30
-0.0000000000000003
 10
9.98833317802291
 20
0.3267311113895062
 30
-0.0000000000000003
 10
9.976666505386559
 20
0.3279754230716208
 30
-0.0000000000000003
 10
9.965000000000882
 20
0.3292061644272621
 30
-0.0000000000000003
  0
SPLINE
  5
81
330
A
100
AcDbEntity
  8
1
390
1D
100
AcDbSpline
210
0.0000000000021906
220
0.0000000000263573
230
1.0
 70
     8
 71
     3
 72
     8
 73
     4
 74
     0
 42
0.0000000001
 43
0.0000000001
 40
0.0
 40
0.0
 40
0.0
 40
0.0
 40
1.0
 40
1.0
 40
1.0
 40
1.0
 10
9.685000000000002
 20
0.3560326212032123
 30
-0.0000000000000002
 10
9.661666571390695
 20
0.3580332685041299
 30
-0.0000000000000002
 10
9.638333226831832
 20
0.3599730260268643
 30
-0.0000000000000003
 10
9.615000000005977
 20
0.3618504245823146
 30
-0.0000000000000002
  0
SPLINE
  5
82
330
A
100
AcDbEntity
  8
1
390
1D
100
AcDbSpline
210
0.0
220
0.0
230
1.0
 70
     8
 71
     3
 72
     8
 73
     4
 74
     0
 42
0.0000000001
 43
0.0000000001
 40
0.0
 40
0.0
 40
0.0
 40
0.0
 40
1.0
 40
1.0
 40
1.0
 40
1.0
 10
9.615000000000009
 20
-0.1250619806363602
 30
-0.0000000000000005
 10
9.638333801902717
 20
-0.1288949843951173
 30
-0.0000000000000005
 10
9.661667192865706
 20
-0.1327118018623992
 30
-0.0000000000000005
 10
9.685000000000002
 20
-0.1365106910992608
 30
-0.0000000000000005
  0
SPLINE
  5
83
330
A
100
AcDbEntity
  8
1
390
1D
100
AcDbSpline
210
0.0
220
0.0
230
1.0
 70
    28
 71
     2
 72
     6
 73
     3
 74
     0
 42
0.0000000001
 43
0.0000000001
 40
0.0
 40
0.0
 40
0.0
 40
1.0
 40
1.0
 40
1.0
 10
9.321999999999862
 20
-0.1703499681377281
 30
-0.0000000000000004
 41
0.9393218376668095
 10
9.321999999999876
 20
-0.1764732559534666
 30
-0.0000000000000003
 41
0.9671301538869883
 10
9.321999999999887
 20
-0.182535463971135
 30
-0.0000000000000004
 41
1.0
  0
SPLINE
  5
84
330
A
100
AcDbEntity
  8
1
390
1D
100
AcDbSpline
210
0.000000000000408
220
0.000000000003079
230
1.0
 70
     8
 71
     3
 72
    10
 73
     6
 74
     0
 42
0.0000000001
 43
0.0000000001
 40
0.0
 40
0.0
 40
0.0
 40
0.0
 40
0.5
 40
0.5
 40
1.0
 40
1.0
 40
1.0
 40
1.0
 10
8.125974171522843
 20
-0.0120456713757449
 30
-0.0000000000000005
 10
8.325568557365215
 20
-0.0381222989666412
 30
-0.0000000000000005
 10
8.525292706105231
 20
-0.0631962711681808
 30
-0.0000000000000004
 10
8.924069495258265
 20
-0.1160596947103727
 30
-0.0000000000000005
 10
9.123083557413453
 20
-0.1440648495102437
 30
-0.0000000000000004
 10
9.322000000001594
 20
-0.1703499681223661
 30
-0.0000000000000004
  0
SPLINE
  5
85
330
A
100
AcDbEntity
  8
1
390
1D
100
AcDbSpline
210
0.0000000000002497
220
-0.000000000000059
230
1.0
 70
     8
 71
     3
 72
     8
 73
     4
 74
     0
 42
0.0000000001
 43
0.0000000001
 40
0.0
 40
0.0
 40
0.0
 40
0.0
 40
1.0
 40
1.0
 40
1.0
 40
1.0
 10
8.142664747602054
 20
0.0593205315556133
 30
-0.0000000000000004
 10
8.136178860561811
 20
0.0361500875019374
 30
-0.0000000000000004
 10
8.130010930143727
 20
0.0101728767012901
 30
-0.0000000000000005
 10
8.12597465290861
 20
-0.0120418409876493
 30
-0.0000000000000004
  0
SPLINE
  5
86
330
A
100
AcDbEntity
  8
1
390
1D
100
AcDbSpline
210
0.0000000000000215
220
0.0000000000001511
230
1.0
 70
     8
 71
     3
 72
    10
 73
     6
 74
     0
 42
0.0000000001
 43
0.0000000001
 40
0.0
 40
0.0
 40
0.0
 40
0.0
 40
0.5
 40
0.5
 40
1.0
 40
1.0
 40
1.0
 40
1.0
 10
9.322000000000514
 20
-0.1081388874251275
 30
-0.0000000000000004
 10
9.124867968130274
 20
-0.0853096768215096
 30
-0.0000000000000004
 10
8.927802186546159
 20
-0.0610264998950356
 30
-0.0000000000000004
 10
8.534660486496308
 20
-0.0046243541226545
 30
-0.0000000000000005
 10
8.338627622615549
 20
0.0275351611928158
 30
-0.0000000000000004
 10
8.142665265717539
 20
0.0593238648295369
 30
-0.0000000000000005
  0
SPLINE
  5
87
330
A
100
AcDbEntity
  8
1
390
1D
100
AcDbSpline
210
0.0
220
0.0
230
1.0
 70
    28
 71
     2
 72
     6
 73
     3
 74
     0
 42
0.0000000001
 43
0.0000000001
 40
0.0
 40
0.0
 40
0.0
 40
1.0
 40
1.0
 40
1.0
 10
10.00000000000018
 20
-0.1861908483074964
 30
-0.0000000000000005
 41
0.9834117481011723
 10
10.00000000000034
 20
-0.1232229969381115
 30
-0.0000000000000003
 41
0.5815447657416657
 10
10.00000000000028
 20
-0.2511756840874568
 30
-0.0000000000000003
 41
1.0
  0
SPLINE
  5
88
330
A
100
AcDbEntity
  8
1
390
1D
100
AcDbSpline
210
-0.0000000000000565
220
-0.0000000000009952
230
1.0
 70
     8
 71
     3
 72
     8
 73
     4
 74
     0
 42
0.0000000001
 43
0.0000000001
 40
0.0
 40
0.0
 40
0.0
 40
0.0
 40
1.0
 40
1.0
 40
1.0
 40
1.0
 10
9.512583696588192
 20
-0.568988160090953
 30
-0.0000000000000001
 10
9.487472727289004
 20
-0.5676626515501085
 30
-0.0000000000000002
 10
9.462361757989812
 20
-0.5662363979326983
 30
-0.0000000000000002
 10
9.437250788690676
 20
-0.5647099185561615
 30
-0.0000000000000001
  0
SPLINE
  5
89
330
A
100
AcDbEntity
  8
1
390
1D
100
AcDbSpline
210
0.0000000000018298
220
0.0000000000007081
230
1.0
 70
     8
 71
     3
 72
    10
 73
     6
 74
     0
 42
0.0000000001
 43
0.0000000001
 40
0.0
 40
0.0
 40
0.0
 40
0.0
 40
0.5
 40
0.5
 40
1.0
 40
1.0
 40
1.0
 40
1.0
 10
9.437250788690676
 20
-0.5647099185561615
 30
-0.0000000000000002
 10
9.420418100877666
 20
-0.5271015491451294
 30
-0.0000000000000002
 10
9.403618293005251
 20
-0.4862450078729239
 30
-0.0000000000000002
 10
9.369551559248693
 20
-0.3980321928293621
 30
-0.0000000000000003
 10
9.352172215101859
 20
-0.3503197943433065
 30
-0.0000000000000004
 10
9.335000000001457
 20
-0.3009111301523149
 30
-0.0000000000000004
  0
SPLINE
  5
8A
330
A
100
AcDbEntity
  8
1
390
1D
100
AcDbSpline
210
0.0
220
0.0
230
1.0
 70
    28
 71
     2
 72
     6
 73
     3
 74
     0
 42
0.0000000001
 43
0.0000000001
 40
0.0
 40
0.0
 40
0.0
 40
1.0
 40
1.0
 40
1.0
 10
9.999999999998523
 20
-0.2511756840872863
 30
-0.0000000000000003
 41
1.0
 10
9.999999999998605
 20
-0.3110160964801603
 30
-0.0000000000000003
 41
0.9815109899007159
 10
9.999999999998538
 20
-0.3670729091964368
 30
-0.0000000000000002
 41
0.9745303461054
  0
SPLINE
  5
8B
330
A
100
AcDbEntity
  8
1
390
1D
100
AcDbSpline
210
0.0000000000044577
220
0.0000000000019485
230
1.0
 70
     8
 71
     3
 72
     8
 73
     4
 74
     0
 42
0.0000000001
 43
0.0000000001
 40
0.0
 40
0.0
 40
0.0
 40
0.0
 40
1.0
 40
1.0
 40
1.0
 40
1.0
 10
9.449315353299539
 20
-0.5923285035642607
 30
-0.0000000000000001
 10
9.445132387886816
 20
-0.5832268038714688
 30
-0.0000000000000001
 10
9.44110220747774
 20
-0.5740192916533715
 30
-0.0000000000000002
 10
9.437250788690676
 20
-0.5647099185561615
 30
-0.0000000000000001
  0
SPLINE
  5
8C
330
A
100
AcDbEntity
  8
1
390
1D
100
AcDbSpline
210
0.0000000000000945
220
0.0000000000049288
230
1.0
 70
     8
 71
     3
 72
     8
 73
     4
 74
     0
 42
0.0000000001
 43
0.0000000001
 40
0.0
 40
0.0
 40
0.0
 40
0.0
 40
1.0
 40
1.0
 40
1.0
 40
1.0
 10
9.861532290820546
 20
-0.5808713308505844
 30
0.0
 10
9.837091136370188
 20
-0.5805004489446901
 30
-0.0000000000000001
 10
9.812649981919946
 20
-0.5800318459642995
 30
0.0
 10
9.788208827469702
 20
-0.5794660007682069
 30
-0.0000000000000001
  0
SPLINE
  5
8D
330
A
100
AcDbEntity
  8
1
390
1D
100
AcDbSpline
210
-0.0000000000011218
220
-0.0000000000004822
230
-1.0
 70
     8
 71
     3
 72
    10
 73
     6
 74
     0
 42
0.0000000001
 43
0.0000000001
 40
0.0
 40
0.0
 40
0.0
 40
0.0
 40
0.5
 40
0.5
 40
1.0
 40
1.0
 40
1.0
 40
1.0
 10
9.788208827469702
 20
-0.5794660007682069
 30
0.0
 10
9.771250697300217
 20
-0.5474054723853215
 30
-0.0000000000000001
 10
9.754294996026148
 20
-0.5113331166717217
 30
-0.0000000000000001
 10
9.719889411473161
 20
-0.4311950355260025
 30
-0.0000000000000002
 10
9.702328191106461
 20
-0.3867869018482679
 30
-0.0000000000000003
 10
9.685000000000002
 20
-0.3396751472895971
 30
-0.0000000000000003
  0
SPLINE
  5
8E
330
A
100
AcDbEntity
  8
1
390
1D
100
AcDbSpline
210
0.0
220
0.0
230
1.0
 70
     8
 71
     3
 72
     8
 73
     4
 74
     0
 42
0.0000000001
 43
0.0000000001
 40
0.0
 40
0.0
 40
0.0
 40
0.0
 40
1.0
 40
1.0
 40
1.0
 40
1.0
 10
9.685000000000002
 20
-0.3396751472895971
 30
-0.0000000000000003
 10
9.661666571390695
 20
-0.3373708462876834
 30
-0.0000000000000003
 10
9.638333226831662
 20
-0.3350074630444624
 30
-0.0000000000000003
 10
9.615000000005807
 20
-0.3325866862131761
 30
-0.0000000000000003
  0
SPLINE
  5
8F
330
A
100
AcDbEntity
  8
1
390
1D
100
AcDbSpline
210
-0.0000000000009475
220
0.0000000000004105
230
1.0
 70
     8
 71
     3
 72
     8
 73
     4
 74
     0
 42
0.0000000001
 43
0.0000000001
 40
0.0
 40
0.0
 40
0.0
 40
0.0
 40
1.0
 40
1.0
 40
1.0
 40
1.0
 10
9.615000000000122
 20
-0.3325866862382441
 30
-0.0000000000000003
 10
9.581260833787098
 20
-0.418587560976448
 30
-0.0000000000000003
 10
9.546648645010066
 20
-0.4985301195953867
 30
-0.0000000000000002
 10
9.51258369658791
 20
-0.568988160090953
 30
-0.0000000000000001
  0
SPLINE
  5
90
330
A
100
AcDbEntity
  8
1
390
1D
100
AcDbSpline
210
0.0
220
-0.0000000000000002
230
-1.0
 70
     8
 71
     3
 72
    18
 73
    14
 74
     0
 42
0.0000000001
 43
0.0000000001
 40
0.0
 40
0.0
 40
0.0
 40
0.0
 40
0.2617364320508537
 40
0.2617364320508537
 40
0.3933417774193073
 40
0.3933417774193073
 40
0.3933417774193073
 40
0.4636532165433124
 40
0.4855144485575793
 40
0.5369870029979702
 40
0.5910171924239347
 40
0.772299771678234
 40
1.0
 40
1.0
 40
1.0
 40
1.0
 10
8.12597515964194
 20
-0.0120407959071258
 30
-0.0000000000000004
 10
8.11296801322976
 20
-0.0062037611020287
 30
-0.0000000000000004
 10
8.100056471058735
 20
0.0000616431108256
 30
-0.0000000000000005
 10
8.082053168852098
 20
0.0116570599819283
 30
-0.0000000000000004
 10
8.076104799415816
 20
0.015909650390654
 30
-0.0000000000000005
 10
8.071369985150683
 20
0.0212659653454352
 30
-0.0000000000000004
 10
8.066615014931924
 20
0.0284882087308347
 30
-0.0000000000000005
 10
8.065681256246021
 20
0.0336965257330917
 30
-0.0000000000000005
 10
8.067880730785363
 20
0.0396524408500909
 30
-0.0000000000000005
 10
8.074877550209349
 20
0.045548194041487
 30
-0.0000000000000005
 10
8.10577459317767
 20
0.055078960934452
 30
-0.0000000000000004
 10
8.117955829205811
 20
0.0572582197769975
 30
-0.0000000000000005
 10
8.130313648760932
 20
0.0584851445066192
 30
-0.0000000000000004
 10
8.142664811422491
 20
0.0593199383772003
 30
-0.0000000000000004
  0
SPLINE
  5
91
330
A
100
AcDbEntity
  8
1
390
1D
100
AcDbSpline
210
0.0
220
0.0
230
1.0
 70
    28
 71
     2
 72
     6
 73
     3
 74
     0
 42
0.0000000001
 43
0.0000000001
 40
0.0
 40
0.0
 40
0.0
 40
1.0
 40
1.0
 40
1.0
 10
9.321999999999434
 20
-0.182535463971135
 30
-0.0000000000000004
 41
1.0
 10
9.321999999999446
 20
-0.2411605473145474
 30
-0.0000000000000004
 41
0.9819342798052328
 10
9.321999999999457
 20
-0.3002445645424194
 30
-0.0000000000000004
 41
0.9748560097285455
  0
SPLINE
  5
92
330
A
100
AcDbEntity
  8
1
390
1D
100
AcDbSpline
210
0.0
220
0.0
230
1.0
 70
     8
 71
     3
 72
     8
 73
     4
 74
     0
 42
0.0000000001
 43
0.0000000001
 40
0.0
 40
0.0
 40
0.0
 40
0.0
 40
1.0
 40
1.0
 40
1.0
 40
1.0
 10
9.999999999997157
 20
-0.3670729091961675
 30
-0.0000000000000002
 10
9.98833317802291
 20
-0.3661993035049704
 30
-0.0000000000000002
 10
9.976666505386559
 20
-0.3653096938187446
 30
-0.0000000000000002
 10
9.965000000000882
 20
-0.3644041732479195
 30
-0.0000000000000002
  0
SPLINE
  5
93
330
A
100
AcDbEntity
  8
1
390
1D
100
AcDbSpline
210
0.0000000000002961
220
-0.0000000000001415
230
-1.0
 70
     8
 71
     3
 72
     8
 73
     4
 74
     0
 42
0.0000000001
 43
0.0000000001
 40
0.0
 40
0.0
 40
0.0
 40
0.0
 40
1.0
 40
1.0
 40
1.0
 40
1.0
 10
9.964999999999976
 20
-0.3644041732450774
 30
-0.0000000000000002
 10
9.930819342603287
 20
-0.4460227302609496
 30
-0.0000000000000002
 10
9.895821598405008
 20
-0.5192593785541249
 30
-0.0000000000000001
 10
9.861532290821003
 20
-0.5808713308505844
 30
-0.0000000000000001
  0
SPLINE
  5
94
330
A
100
AcDbEntity
  8
1
390
1D
100
AcDbSpline
210
0.0
220
0.0
230
1.0
 70
    28
 71
     2
 72
     6
 73
     3
 74
     0
 42
0.0000000001
 43
0.0000000001
 40
0.0
 40
0.0
 40
0.0
 40
1.0
 40
1.0
 40
1.0
 10
9.322000000001548
 20
-0.0891548873867125
 30
-0.0000000000000004
 41
0.7947787443623428
 10
9.3220000000015
 20
-0.0968835923189975
 30
-0.0000000000000004
 41
0.7821311616443492
 10
9.322000000001557
 20
-0.1081388873867244
 30
-0.0000000000000004
 41
0.7889027627682893
  0
SPLINE
  5
95
330
A
100
AcDbEntity
  8
1
390
1D
100
AcDbSpline
210
0.0
220
0.0
230
1.0
 70
     8
 71
     3
 72
     8
 73
     4
 74
     0
 42
0.0000000001
 43
0.0000000001
 40
0.0
 40
0.0
 40
0.0
 40
0.0
 40
1.0
 40
1.0
 40
1.0
 40
1.0
 10
9.262415180133928
 20
0.3249955231701165
 30
0.0
 10
9.282277943512269
 20
0.3249989285279185
 30
0.0
 10
9.302139458328495
 20
0.3249581443918146
 30
0.0
 10
9.321999999999375
 20
0.3248714927385663
 30
0.0
  0
SPLINE
  5
96
330
A
100
AcDbEntity
  8
1
390
1D
100
AcDbSpline
210
0.0000000000156621
220
0.0000000000092813
230
1.0
 70
     8
 71
     3
 72
     8
 73
     4
 74
     0
 42
0.0000000001
 43
0.0000000001
 40
0.0
 40
0.0
 40
0.0
 40
0.0
 40
1.0
 40
1.0
 40
1.0
 40
1.0
 10
9.799315353299562
 20
0.3045769867661647
 30
-0.0000000000000007
 10
9.795477293056306
 20
0.3108798749520929
 30
-0.0000000000000006
 10
9.791768433055949
 20
0.3171289563528035
 30
-0.0000000000000007
 10
9.788208827469759
 20
0.323326953660569
 30
-0.0000000000000007
  0
SPLINE
  5
97
330
A
100
AcDbEntity
  8
1
390
1D
100
AcDbSpline
210
0.0000000000241119
220
0.0000000000223716
230
-1.0
 70
     8
 71
     3
 72
    10
 73
     6
 74
     0
 42
0.0000000001
 43
0.0000000001
 40
0.0
 40
0.0
 40
0.0
 40
0.0
 40
0.4998652014539763
 40
0.4998652014539763
 40
1.0
 40
1.0
 40
1.0
 40
1.0
 10
9.742741977273906
 20
-0.1895813058441149
 30
-0.0000000000000006
 10
9.752175733369313
 20
-0.1993788907231533
 30
-0.0000000000000006
 10
9.761607264116831
 20
-0.2093603530598784
 30
-0.0000000000000007
 10
9.780465506613666
 20
-0.2296864699242178
 30
-0.0000000000000007
 10
9.78989349144348
 20
-0.2400326843777521
 30
-0.0000000000000008
 10
9.799315353299562
 20
-0.250554050070491
 30
-0.0000000000000007
  0
SPLINE
  5
98
330
A
100
AcDbEntity
  8
1
390
1D
100
AcDbSpline
210
0.0000000000023346
220
0.0000000000025107
230
-1.0
 70
     8
 71
     3
 72
    12
 73
     8
 74
     0
 42
0.0000000001
 43
0.0000000001
 40
0.0
 40
0.0
 40
0.0
 40
0.0
 40
0.4991484835234344
 40
0.4991484835234344
 40
0.7494610447327382
 40
0.7494610447327382
 40
1.0
 40
1.0
 40
1.0
 40
1.0
 10
9.687788338328404
 20
-0.1386543204944246
 30
-0.0000000000000005
 10
9.696989379779438
 20
-0.146146210858717
 30
-0.0000000000000005
 10
9.706169006772995
 20
-0.154143700034183
 30
-0.0000000000000006
 10
9.719898706731157
 20
-0.1668722067454951
 30
-0.0000000000000006
 10
9.724477724755045
 20
-0.1712462208968759
 30
-0.0000000000000006
 10
9.733621156934193
 20
-0.1802346183833379
 30
-0.0000000000000006
 10
9.738186588000816
 20
-0.1848502302673865
 30
-0.0000000000000006
 10
9.742741977273906
 20
-0.1895813058441149
 30
-0.0000000000000007
  0
SPLINE
  5
99
330
A
100
AcDbEntity
  8
1
390
1D
100
AcDbSpline
210
-0.0000000000000069
220
-0.0000000000000244
230
1.0
 70
     8
 71
     3
 72
    10
 73
     6
 74
     0
 42
0.0000000001
 43
0.0000000001
 40
0.0
 40
0.0
 40
0.0
 40
0.0
 40
0.7188582543873967
 40
0.7188582543873967
 40
1.0
 40
1.0
 40
1.0
 40
1.0
 10
9.788208827469759
 20
0.323326953660569
 30
-0.0000000000000007
 10
9.764173848446944
 20
0.3486910280860798
 30
-0.0000000000000006
 10
9.739080032546269
 20
0.3624672892444778
 30
-0.0000000000000005
 10
9.704538703452612
 20
0.3624701767424199
 30
-0.0000000000000003
 10
9.694717496816167
 20
0.360348541415874
 30
-0.0000000000000003
 10
9.685000000000002
 20
0.3560326212034397
 30
-0.0000000000000002
  0
SPLINE
  5
9A
330
A
100
AcDbEntity
  8
1
390
1D
100
AcDbSpline
210
0.0000000000967757
220
0.0000000004737371
230
1.0
 70
     8
 71
     3
 72
     8
 73
     4
 74
     0
 42
0.0000000001
 43
0.0000000001
 40
0.0
 40
0.0
 40
0.0
 40
0.0
 40
1.0
 40
1.0
 40
1.0
 40
1.0
 10
9.500684646704712
 20
0.3684969574389356
 30
-0.0000000000000006
 10
9.48356122893108
 20
0.3720218681492611
 30
-0.0000000000000007
 10
9.466438243557831
 20
0.3755201618258752
 30
-0.0000000000000006
 10
9.449315353300221
 20
0.3789906237884679
 30
-0.0000000000000007
  0
SPLINE
  5
9B
330
A
100
AcDbEntity
  8
1
390
1D
100
AcDbSpline
210
0.0000000003334765
220
0.0000000012981881
230
1.0
 70
     8
 71
     3
 72
     8
 73
     4
 74
     0
 42
0.0000000001
 43
0.0000000001
 40
0.0
 40
0.0
 40
0.0
 40
0.0
 40
1.0
 40
1.0
 40
1.0
 40
1.0
 10
9.449315353299539
 20
-0.1625238193651626
 30
-0.0000000000000008
 10
9.466438753585975
 20
-0.1669352248707128
 30
-0.0000000000000008
 10
9.483561742230847
 20
-0.171334138001555
 30
-0.0000000000000007
 10
9.500684646700449
 20
-0.1757193511402875
 30
-0.0000000000000008
  0
SPLINE
  5
9C
330
A
100
AcDbEntity
  8
1
390
1D
100
AcDbSpline
210
-0.0000000000756628
220
-0.0000000000630496
230
1.0
 70
     8
 71
     3
 72
     8
 73
     4
 74
     0
 42
0.0000000001
 43
0.0000000001
 40
0.0
 40
0.0
 40
0.0
 40
0.0
 40
1.0
 40
1.0
 40
1.0
 40
1.0
 10
9.449315353299539
 20
0.37899062378699
 30
-0.0000000000000007
 10
9.445132387886758
 20
0.383894470804762
 30
-0.0000000000000006
 10
9.441102207477797
 20
0.3887214073117775
 30
-0.0000000000000005
 10
9.437250788690676
 20
0.3934753075273534
 30
-0.0000000000000006
  0
SPLINE
  5
9D
330
A
100
AcDbEntity
  8
1
390
1D
100
AcDbSpline
210
0.0000000000105755
220
0.0000000000128121
230
-1.0
 70
     8
 71
     3
 72
    10
 73
     6
 74
     0
 42
0.0000000001
 43
0.0000000001
 40
0.0
 40
0.0
 40
0.0
 40
0.0
 40
0.4998700405968188
 40
0.4998700405968188
 40
1.0
 40
1.0
 40
1.0
 40
1.0
 10
9.393752855810136
 20
-0.1166615936587618
 30
-0.0000000000000007
 10
9.40301950311715
 20
-0.1239176876442798
 30
-0.0000000000000007
 10
9.412283112811337
 20
-0.1313687213229855
 30
-0.0000000000000007
 10
9.430804274209206
 20
-0.1466574277050654
 30
-0.0000000000000008
 10
9.440063028998396
 20
-0.1544962914021539
 30
-0.0000000000000008
 10
9.449315353299539
 20
-0.1625238193651626
 30
-0.0000000000000008
  0
SPLINE
  5
9E
330
A
100
AcDbEntity
  8
1
390
1D
100
AcDbSpline
210
0.0000000000003038
220
0.0000000000004591
230
-1.0
 70
     8
 71
     3
 72
    12
 73
     8
 74
     0
 42
0.0000000001
 43
0.0000000001
 40
0.0
 40
0.0
 40
0.0
 40
0.0
 40
0.2499222720896699
 40
0.2499222720896699
 40
0.4998444475386902
 40
0.4998444475386902
 40
1.0
 40
1.0
 40
1.0
 40
1.0
 10
9.339187457619516
 20
-0.0803826310576596
 30
-0.0000000000000006
 10
9.343761631781603
 20
-0.0828843629994935
 30
-0.0000000000000006
 10
9.348330538291408
 20
-0.0855186345187349
 30
-0.0000000000000006
 10
9.357453764141096
 20
-0.0910481760143398
 30
-0.0000000000000006
 10
9.36200911437362
 20
-0.0939440695505596
 30
-0.0000000000000006
 10
9.375653234197386
 20
-0.1030199899901731
 30
-0.0000000000000006
 10
9.384723511737547
 20
-0.1095913160224313
 30
-0.0000000000000007
 10
9.393752855810136
 20
-0.1166615936587618
 30
-0.0000000000000006
  0
SPLINE
  5
9F
330
A
100
AcDbEntity
  8
1
390
1D
100
AcDbSpline
210
-0.000000000000001
220
0.0000000000000085
230
1.0
 70
     8
 71
     3
 72
    10
 73
     6
 74
     0
 42
0.0000000001
 43
0.0000000001
 40
0.0
 40
0.0
 40
0.0
 40
0.0
 40
0.5000000000000001
 40
0.5000000000000001
 40
1.0
 40
1.0
 40
1.0
 40
1.0
 10
9.437250788690676
 20
0.3934753075273534
 30
-0.0000000000000006
 10
9.420418100877666
 20
0.4040582746756058
 30
-0.0000000000000006
 10
9.403618293005251
 20
0.4085111609561524
 30
-0.0000000000000004
 10
9.369551559248748
 20
0.4048525723287071
 30
-0.0000000000000003
 10
9.352172215101859
 20
0.3965543333516166
 30
-0.0000000000000002
 10
9.335000000001457
 20
0.3813069649297063
 30
-0.0000000000000002
  0
SPLINE
  5
A0
330
A
100
AcDbEntity
  8
1
390
1D
100
AcDbSpline
210
-0.0000000000114258
220
0.0000000000252487
230
-1.0
 70
     8
 71
     3
 72
    12
 73
     8
 74
     0
 42
0.0000000001
 43
0.0000000001
 40
0.0
 40
0.0
 40
0.0
 40
0.0
 40
0.2499223827386757
 40
0.2499223827386757
 40
0.6249361710222523
 40
0.6249361710222523
 40
1.0
 40
1.0
 40
1.0
 40
1.0
 10
9.556722467694273
 20
-0.1511774025634622
 30
-0.0000000000000007
 10
9.561320574756736
 20
-0.1489600017163184
 30
-0.0000000000000007
 10
9.565918297816553
 20
-0.1467787079128584
 30
-0.0000000000000006
 10
9.577413250392622
 20
-0.1414124847950689
 30
-0.0000000000000005
 10
9.584309848736097
 20
-0.1382715576923488
 30
-0.0000000000000006
 10
9.598099189770946
 20
-0.1321421487256771
 30
-0.0000000000000005
 10
9.604992167481498
 20
-0.1291535857674262
 30
-0.0000000000000005
 10
9.611881698046943
 20
-0.126238695363611
 30
-0.0000000000000005
  0
SPLINE
  5
A1
330
A
100
AcDbEntity
  8
1
390
1D
100
AcDbSpline
210
-0.0000000000040733
220
0.0000000000093008
230
-1.0
 70
     8
 71
     3
 72
    10
 73
     6
 74
     0
 42
0.0000000001
 43
0.0000000001
 40
0.0
 40
0.0
 40
0.0
 40
0.0
 40
0.4998664393007071
 40
0.4998664393007071
 40
1.0
 40
1.0
 40
1.0
 40
1.0
 10
9.500684646700449
 20
-0.1757193511402875
 30
-0.0000000000000008
 10
9.510013288336438
 20
-0.1720474324665702
 30
-0.0000000000000008
 10
9.519347624891908
 20
-0.1681663930668265
 30
-0.0000000000000008
 10
9.538027485842576
 20
-0.1599858082848868
 30
-0.0000000000000007
 10
9.547374271753026
 20
-0.1556854962893226
 30
-0.0000000000000007
 10
9.556722467694273
 20
-0.1511774025634622
 30
-0.0000000000000006
  0
SPLINE
  5
A2
330
A
100
AcDbEntity
  8
1
390
1D
100
AcDbSpline
210
0.0
220
0.0
230
1.0
 70
     8
 71
     3
 72
     8
 73
     4
 74
     0
 42
0.0000000001
 43
0.0000000001
 40
0.0
 40
0.0
 40
0.0
 40
0.0
 40
1.0
 40
1.0
 40
1.0
 40
1.0
 10
9.512583696587739
 20
0.3791468338890809
 30
-0.0000000000000006
 10
9.508800846968767
 20
0.3754923905913756
 30
-0.0000000000000006
 10
9.504826647995516
 20
0.3719404086656368
 30
-0.0000000000000006
 10
9.500684646700449
 20
0.3684969574397883
 30
-0.0000000000000006
  0
SPLINE
  5
A3
330
A
100
AcDbEntity
  8
1
390
1D
100
AcDbSpline
210
0.0000000000000022
220
0.0000000000000131
230
1.0
 70
     8
 71
     3
 72
     8
 73
     4
 74
     0
 42
0.0000000001
 43
0.0000000001
 40
0.0
 40
0.0
 40
0.0
 40
0.0
 40
1.0
 40
1.0
 40
1.0
 40
1.0
 10
9.615000000000122
 20
0.3618504245778809
 30
-0.0000000000000002
 10
9.581260833786984
 20
0.385250357188454
 30
-0.0000000000000003
 10
9.546648645010462
 20
0.3907031365151283
 30
-0.0000000000000005
 10
9.512583696588192
 20
0.3791468338888535
 30
-0.0000000000000006
  0
SPLINE
  5
A4
330
A
100
AcDbEntity
  8
1
390
1D
100
AcDbSpline
210
-0.0000000001157457
220
-0.0000000005200268
230
1.0
 70
     8
 71
     3
 72
     8
 73
     4
 74
     0
 42
0.0000000001
 43
0.0000000001
 40
0.0
 40
0.0
 40
0.0
 40
0.0
 40
1.0
 40
1.0
 40
1.0
 40
1.0
 10
9.850684646700585
 20
0.2931434980166046
 30
-0.0000000000000007
 10
9.833559292311063
 20
0.2969740855693885
 30
-0.0000000000000008
 10
9.8164362716725
 20
0.3007855721517672
 30
-0.0000000000000007
 10
9.799315353299846
 20
0.3045769867670174
 30
-0.0000000000000007
  0
SPLINE
  5
A5
330
A
100
AcDbEntity
  8
1
390
1D
100
AcDbSpline
210
0.000000000418056
220
0.0000000017207759
230
1.0
 70
     8
 71
     3
 72
     8
 73
     4
 74
     0
 42
0.0000000001
 43
0.0000000001
 40
0.0
 40
0.0
 40
0.0
 40
0.0
 40
1.0
 40
1.0
 40
1.0
 40
1.0
 10
9.799315353299562
 20
-0.250554050070491
 30
-0.0000000000000008
 10
9.816438416635547
 20
-0.2547357610681615
 30
-0.0000000000000008
 10
9.833561396650566
 20
-0.2588961143399615
 30
-0.0000000000000007
 10
9.850684646700472
 20
-0.26303389687547
 30
-0.0000000000000007
  0
SPLINE
  5
A6
330
A
100
AcDbEntity
  8
1
390
1D
100
AcDbSpline
210
-0.0000000002982668
220
0.0000000004408491
230
-1.0
 70
     8
 71
     3
 72
     8
 73
     4
 74
     0
 42
0.0000000001
 43
0.0000000001
 40
0.0
 40
0.0
 40
0.0
 40
0.0
 40
1.0
 40
1.0
 40
1.0
 40
1.0
 10
9.963455961611883
 20
-0.182167441967124
 30
-0.0000000000000005
 10
9.963970961030897
 20
-0.1818081504580391
 30
-0.0000000000000005
 10
9.964485712284217
 20
-0.1814599312883161
 30
-0.0000000000000005
 10
9.965000000000033
 20
-0.1811227755773643
 30
-0.0000000000000004
  0
SPLINE
  5
A7
330
A
100
AcDbEntity
  8
1
390
1D
100
AcDbSpline
210
-0.0000000000213958
220
0.0000000000295192
230
-1.0
 70
     8
 71
     3
 72
    12
 73
     8
 74
     0
 42
0.0000000001
 43
0.0000000001
 40
0.0
 40
0.0
 40
0.0
 40
0.0
 40
0.2499616064155039
 40
0.2499616064155039
 40
0.6249566535905614
 40
0.6249566535905614
 40
1.0
 40
1.0
 40
1.0
 40
1.0
 10
9.907695984089796
 20
-0.2225618131667488
 30
-0.0000000000000006
 10
9.912343708982177
 20
-0.2190656767698442
 30
-0.0000000000000006
 10
9.916991286470135
 20
-0.2156031486180154
 30
-0.0000000000000006
 10
9.928610143299918
 20
-0.2070283485966797
 30
-0.0000000000000006
 10
9.935581126540851
 20
-0.2019570433447484
 30
-0.0000000000000005
 10
9.949520737938316
 20
-0.1919567182453648
 30
-0.0000000000000005
 10
9.956489594503976
 20
-0.1870275572576929
 30
-0.0000000000000005
 10
9.963455961611883
 20
-0.182167441967124
 30
-0.0000000000000005
  0
SPLINE
  5
A8
330
A
100
AcDbEntity
  8
1
390
1D
100
AcDbSpline
210
0.0000000000038641
220
-0.0000000000054431
230
1.0
 70
     8
 71
     3
 72
    10
 73
     6
 74
     0
 42
0.0000000001
 43
0.0000000001
 40
0.0
 40
0.0
 40
0.0
 40
0.0
 40
0.4998615151376801
 40
0.4998615151376801
 40
1.0
 40
1.0
 40
1.0
 40
1.0
 10
9.850684646700472
 20
-0.26303389687547
 30
-0.0000000000000007
 10
9.860176496181168
 20
-0.2566982364128876
 30
-0.0000000000000007
 10
9.869673699659301
 20
-0.2501573729603024
 30
-0.0000000000000007
 10
9.888678241999116
 20
-0.2366662207274999
 30
-0.0000000000000007
 10
9.898186913306687
 20
-0.2297147770867696
 30
-0.0000000000000007
 10
9.907695984089796
 20
-0.2225618131667488
 30
-0.0000000000000006
  0
SPLINE
  5
A9
330
A
100
AcDbEntity
  8
1
390
1D
100
AcDbSpline
210
0.0
220
0.0
230
1.0
 70
     8
 71
     3
 72
     8
 73
     4
 74
     0
 42
0.0000000001
 43
0.0000000001
 40
0.0
 40
0.0
 40
0.0
 40
0.0
 40
1.0
 40
1.0
 40
1.0
 40
1.0
 10
9.861532290821003
 20
0.3076498942855324
 30
-0.0000000000000007
 10
9.85806809354608
 20
0.302725405281933
 30
-0.0000000000000007
 10
9.854446303027259
 20
0.2978883639959236
 30
-0.0000000000000007
 10
9.850684646700301
 20
0.2931434980164909
 30
-0.0000000000000007
  0
SPLINE
  5
AA
330
A
100
AcDbEntity
  8
1
390
1D
100
AcDbSpline
210
0.0000000000000025
220
-0.0000000000000118
230
1.0
 70
     8
 71
     3
 72
     8
 73
     4
 74
     0
 42
0.0000000001
 43
0.0000000001
 40
0.0
 40
0.0
 40
0.0
 40
0.0
 40
1.0
 40
1.0
 40
1.0
 40
1.0
 10
9.965000000000033
 20
0.3292061644270916
 30
-0.0000000000000003
 10
9.930819342603287
 20
0.3396964706138306
 30
-0.0000000000000004
 10
9.895821598405008
 20
0.3321759469222911
 30
-0.0000000000000005
 10
9.861532290821003
 20
0.3076498942855324
 30
-0.0000000000000006
  0
SPLINE
  5
AB
330
A
100
AcDbEntity
  8
1
390
1D
100
AcDbSpline
210
0.0000000000071305
220
-0.0000000000033515
230
1.0
 70
     8
 71
     3
 72
     8
 73
     4
 74
     0
 42
0.0000000001
 43
0.0000000001
 40
0.0
 40
0.0
 40
0.0
 40
0.0
 40
1.0
 40
1.0
 40
1.0
 40
1.0
 10
9.512583696587739
 20
-0.5689881600911236
 30
-0.0000000000000001
 10
9.508800846968767
 20
-0.5774039239738613
 30
-0.0000000000000001
 10
9.504826647995516
 20
-0.5858468210333286
 30
-0.0000000000000002
 10
9.500684646700449
 20
-0.5943185876869848
 30
-0.0000000000000001
  0
SPLINE
  5
AC
330
A
100
AcDbEntity
  8
1
390
1D
100
AcDbSpline
210
0.0000000000156711
220
0.0000000000084906
230
1.0
 70
     8
 71
     3
 72
     8
 73
     4
 74
     0
 42
0.0000000001
 43
0.0000000001
 40
0.0
 40
0.0
 40
0.0
 40
0.0
 40
1.0
 40
1.0
 40
1.0
 40
1.0
 10
9.799315353299562
 20
-0.5999766039574866
 30
0.0
 10
9.795477293056306
 20
-0.593229956457833
 30
-0.0000000000000001
 10
9.791768433055949
 20
-0.5863919996053824
 30
-0.0000000000000001
 10
9.788208827469759
 20
-0.5794660007682069
 30
-0.0000000000000001
  0
SPLINE
  5
AD
330
A
100
AcDbEntity
  8
1
390
1D
100
AcDbSpline
210
0.0000000000330336
220
-0.0000000000187926
230
-1.0
 70
     8
 71
     3
 72
     8
 73
     4
 74
     0
 42
0.0000000001
 43
0.0000000001
 40
0.0
 40
0.0
 40
0.0
 40
0.0
 40
1.0
 40
1.0
 40
1.0
 40
1.0
 10
9.86153229082072
 20
-0.5808713308506981
 30
0.0
 10
9.858068093545739
 20
-0.5871945186588619
 30
0.0
 10
9.854446303027259
 20
-0.5935527848996572
 30
0.0
 10
9.850684646700301
 20
-0.5999481568397869
 30
0.0000000000000001
  0
SPLINE
  5
AE
330
A
100
AcDbEntity
  8
1
390
1D
100
AcDbSpline
210
0.0
220
0.0
230
1.0
 70
     8
 71
     3
 72
     8
 73
     4
 74
     0
 42
0.0000000001
 43
0.0000000001
 40
0.0
 40
0.0
 40
0.0
 40
0.0
 40
1.0
 40
1.0
 40
1.0
 40
1.0
 10
9.615000000000009
 20
0.3933974675404102
 30
0.0000000000000001
 10
9.638333801902717
 20
0.3942273610561529
 30
0.0000000000000001
 10
9.661667192865706
 20
0.3949984388166286
 30
0.0000000000000001
 10
9.685000000000002
 20
0.3957101109932069
 30
0.0000000000000001
  0
SPLINE
  5
AF
330
A
100
AcDbEntity
  8
1
390
1D
100
AcDbSpline
210
0.000000339048697
220
0.0000001968059948
230
-0.9999999999999232
 70
     8
 71
     3
 72
     8
 73
     4
 74
     0
 42
0.0000000001
 43
0.0000000001
 40
0.0
 40
0.0
 40
0.0
 40
0.0
 40
1.0
 40
1.0
 40
1.0
 40
1.0
 10
9.963455961611883
 20
0.4040250353846774
 30
0.0000000000000001
 10
9.963970961030897
 20
0.4031371408739234
 30
0.0
 10
9.964485712284217
 20
0.4022503578748342
 30
0.0000000000000001
 10
9.965000000000033
 20
0.4013650317913858
 30
0.0
  0
SPLINE
  5
B0
330
A
100
AcDbEntity
  8
1
390
1D
100
AcDbSpline
210
0.0
220
0.0
230
1.0
 70
     8
 71
     3
 72
     8
 73
     4
 74
     0
 42
0.0000000001
 43
0.0000000001
 40
0.0
 40
0.0
 40
0.0
 40
0.0
 40
1.0
 40
1.0
 40
1.0
 40
1.0
 10
9.964999999999976
 20
0.4013650317913858
 30
0.0
 10
9.976666763659636
 20
0.401479131242411
 30
0.0
 10
9.988333434671233
 20
0.401577898361495
 30
0.0
 10
10.00000000000006
 20
0.4016612938715413
 30
0.0
  0
SPLINE
  5
B1
330
A
100
AcDbEntity
  8
1
390
1D
100
AcDbSpline
210
0.0
220
0.0
230
1.0
 70
    28
 71
     2
 72
     6
 73
     3
 74
     0
 42
0.0000000001
 43
0.0000000001
 40
0.0
 40
0.0
 40
0.0
 40
1.0
 40
1.0
 40
1.0
 10
10.00000000000027
 20
0.4016612938718004
 30
0.0
 41
0.9872051735361612
 10
10.00000000000026
 20
0.3551273011166433
 30
0.0
 41
0.7917292191121384
 10
10.00000000000025
 20
0.3246812938718136
 30
0.0
 41
0.7866755786891338
  0
SPLINE
  5
B2
330
A
100
AcDbEntity
  8
1
390
1D
100
AcDbSpline
210
0.0
220
0.0
230
1.0
 70
     8
 71
     3
 72
     8
 73
     4
 74
     0
 42
0.0000000001
 43
0.0000000001
 40
0.0
 40
0.0
 40
0.0
 40
0.0
 40
1.0
 40
1.0
 40
1.0
 40
1.0
 10
9.5006846467046
 20
-0.5943185876870985
 30
-0.0000000000000001
 10
9.483561228931023
 20
-0.5937053781676127
 30
-0.0000000000000001
 10
9.466438243557716
 20
-0.5930420638644592
 30
-0.0000000000000001
 10
9.449315353300052
 20
-0.5923285035632944
 30
-0.0000000000000001
  0
SPLINE
  5
B3
330
A
100
AcDbEntity
  8
1
390
1D
100
AcDbSpline
210
-0.0000000000000005
220
0.0000000000008297
230
1.0
 70
     8
 71
     3
 72
     8
 73
     4
 74
     0
 42
0.0000000001
 43
0.0000000001
 40
0.0
 40
0.0
 40
0.0
 40
0.0
 40
1.0
 40
1.0
 40
1.0
 40
1.0
 10
9.850684646700585
 20
-0.5999481568395027
 30
0.0
 10
9.833559292311123
 20
-0.6000058685682462
 30
0.0000000000000001
 10
9.8164362716725
 20
-0.6000154649546517
 30
0.0
 10
9.799315353299903
 20
-0.5999766039570887
 30
0.0
  0
SPLINE
  5
B4
330
A
100
AcDbEntity
  8
1
390
1D
100
AcDbSpline
210
0.0
220
0.0
230
1.0
 70
     8
 71
     3
 72
    12
 73
     8
 74
     0
 42
0.0000000001
 43
0.0000000001
 40
0.0
 40
0.0
 40
0.0
 40
0.0
 40
0.4991484835234182
 40
0.4991484835234182
 40
0.7494610447327448
 40
0.7494610447327448
 40
1.0
 40
1.0
 40
1.0
 40
1.0
 10
9.687788338328404
 20
0.4005581110174036
 30
0.0000000000000001
 10
9.696989379779438
 20
0.4166324460786086
 30
0.0000000000000001
 10
9.706169006772995
 20
0.4327505562206397
 30
0.0000000000000001
 10
9.719898706731157
 20
0.4569456983739997
 30
0.0000000000000001
 10
9.724477724755045
 20
0.4650297734144715
 30
0.0000000000000001
 10
9.733621156934193
 20
0.4811953841085029
 30
0.0000000000000001
 10
9.738186588000816
 20
0.4892787359239037
 30
0.0000000000000001
 10
9.742741977273906
 20
0.4973527740357895
 30
0.0000000000000001
  0
SPLINE
  5
B5
330
A
100
AcDbEntity
  8
1
390
1D
100
AcDbSpline
210
-0.0000000048046677
220
-0.0000000027844024
230
1.0
 70
     8
 71
     3
 72
    12
 73
     8
 74
     0
 42
0.0000000001
 43
0.0000000001
 40
0.0
 40
0.0
 40
0.0
 40
0.0
 40
0.2499616064154523
 40
0.2499616064154523
 40
0.624956653590557
 40
0.624956653590557
 40
1.0
 40
1.0
 40
1.0
 40
1.0
 10
9.907695984089796
 20
0.5002422904639161
 30
0.0000000000000001
 10
9.912343708982177
 20
0.4922139743368348
 30
0.0
 10
9.916991286470135
 20
0.4841882694042853
 30
0.0
 10
9.928610143299918
 20
0.4641296604376636
 30
0.0
 10
9.935581126540851
 20
0.4521000417773279
 30
0.0
 10
9.949520737938316
 20
0.4280531684050858
 30
0.0000000000000001
 10
9.956489594503919
 20
0.4160355326545188
 30
0.0
 10
9.963455961611883
 20
0.4040250353846774
 30
0.0
  0
SPLINE
  5
B6
330
A
100
AcDbEntity
  8
1
390
1D
100
AcDbSpline
210
0.0000000000004609
220
-0.0000000000211133
230
1.0
 70
     8
 71
     3
 72
     8
 73
     4
 74
     0
 42
0.0000000001
 43
0.0000000001
 40
0.0
 40
0.0
 40
0.0
 40
0.0
 40
1.0
 40
1.0
 40
1.0
 40
1.0
 10
9.799315353299562
 20
0.5974178948982285
 30
0.0
 10
9.816438416635547
 20
0.5978443986745106
 30
0.0000000000000001
 10
9.833561396650566
 20
0.5982182539412407
 30
0.0000000000000001
 10
9.850684646700472
 20
0.5985392999594979
 30
0.0000000000000001
  0
SPLINE
  5
B7
330
A
100
AcDbEntity
  8
1
390
1D
100
AcDbSpline
210
0.0
220
0.0
230
1.0
 70
     8
 71
     3
 72
    10
 73
     6
 74
     0
 42
0.0000000001
 43
0.0000000001
 40
0.0
 40
0.0
 40
0.0
 40
0.0
 40
0.4998652014540811
 40
0.4998652014540811
 40
1.0
 40
1.0
 40
1.0
 40
1.0
 10
9.742741977273906
 20
0.4973527740357895
 30
0.0000000000000001
 10
9.752175733369313
 20
0.5140733003587457
 30
0.0000000000000001
 10
9.761607264116831
 20
0.5307743877145868
 30
0.0000000000000001
 10
9.780465506613666
 20
0.5641320955688798
 30
0.0000000000000001
 10
9.78989349144348
 20
0.5807909296579511
 30
0.0000000000000001
 10
9.799315353299562
 20
0.5974178948982285
 30
0.0000000000000001
  0
SPLINE
  5
B8
330
A
100
AcDbEntity
  8
1
390
1D
100
AcDbSpline
210
0.0
220
0.0
230
1.0
 70
     8
 71
     3
 72
    10
 73
     6
 74
     0
 42
0.0000000001
 43
0.0000000001
 40
0.0
 40
0.0
 40
0.0
 40
0.0
 40
0.4998615151376847
 40
0.4998615151376847
 40
1.0
 40
1.0
 40
1.0
 40
1.0
 10
9.850684646700472
 20
0.5985392999594979
 30
0.0000000000000001
 10
9.860176496181225
 20
0.5822065871788027
 30
0.0
 10
9.869673699659301
 20
0.5658468094764544
 30
0.0000000000000001
 10
9.888678241999116
 20
0.5330786201927254
 30
0.0000000000000001
 10
9.898186913306687
 20
0.5166679240994654
 30
0.0
 10
9.907695984089855
 20
0.5002422904639161
 30
0.0000000000000001
  0
SPLINE
  5
B9
330
A
100
AcDbEntity
  8
1
390
1D
100
AcDbSpline
210
0.0
220
0.0
230
1.0
 70
     8
 71
     3
 72
    12
 73
     8
 74
     0
 42
0.0000000001
 43
0.0000000001
 40
0.0
 40
0.0
 40
0.0
 40
0.0
 40
0.2499222720897713
 40
0.2499222720897713
 40
0.499844447538848
 40
0.499844447538848
 40
1.0
 40
1.0
 40
1.0
 40
1.0
 10
9.339187457619516
 20
0.3877109841091055
 30
0.0000000000000002
 10
9.34376163178166
 20
0.395525420113529
 30
0.0000000000000002
 10
9.348330538291408
 20
0.4033720815276638
 30
0.0000000000000002
 10
9.357453764141157
 20
0.4191179976606918
 30
0.0000000000000002
 10
9.36200911437362
 20
0.4270190269447768
 30
0.0000000000000002
 10
9.375653234197386
 20
0.4507928180691465
 30
0.0000000000000002
 10
9.384723511737547
 20
0.466742565477773
 30
0.0000000000000002
 10
9.393752855810136
 20
0.4827425929398146
 30
0.0000000000000002
  0
SPLINE
  5
BA
330
A
100
AcDbEntity
  8
1
390
1D
100
AcDbSpline
210
-0.0000000021393895
220
-0.0000000012766619
230
1.0
 70
     8
 71
     3
 72
    12
 73
     8
 74
     0
 42
0.0000000001
 43
0.0000000001
 40
0.0
 40
0.0
 40
0.0
 40
0.0
 40
0.2499223827387707
 40
0.2499223827387707
 40
0.6249361710222971
 40
0.6249361710222971
 40
1.0
 40
1.0
 40
1.0
 40
1.0
 10
9.556722467694273
 20
0.4910044701549056
 30
0.0000000000000002
 10
9.561320574756736
 20
0.4832693931522273
 30
0.0000000000000002
 10
9.565918297816553
 20
0.4755430317492256
 30
0.0000000000000002
 10
9.577413250392622
 20
0.4562452499577603
 30
0.0000000000000002
 10
9.584309848736097
 20
0.4446845271459666
 30
0.0000000000000002
 10
9.598099189770946
 20
0.4216008994021649
 30
0.0000000000000001
 10
9.604992167481498
 20
0.4100776195256232
 30
0.0000000000000001
 10
9.611881698046943
 20
0.3985736069072345
 30
0.0000000000000001
  0
SPLINE
  5
BB
330
A
100
AcDbEntity
  8
1
390
1D
100
AcDbSpline
210
0.0000000000001246
220
-0.0000000000019758
230
1.0
 70
     8
 71
     3
 72
     8
 73
     4
 74
     0
 42
0.0000000001
 43
0.0000000001
 40
0.0
 40
0.0
 40
0.0
 40
0.0
 40
1.0
 40
1.0
 40
1.0
 40
1.0
 10
9.449315353299539
 20
0.5814513798878807
 30
0.0000000000000001
 10
9.466438753585975
 20
0.5825820523057815
 30
0.0000000000000002
 10
9.483561742230788
 20
0.5836622853621521
 30
0.0000000000000002
 10
9.500684646700392
 20
0.5846916715467501
 30
0.0000000000000001
  0
SPLINE
  5
BC
330
A
100
AcDbEntity
  8
1
390
1D
100
AcDbSpline
210
0.0000000007799209
220
-0.0000000004390024
230
1.0
 70
     8
 71
     3
 72
    10
 73
     6
 74
     0
 42
0.0000000001
 43
0.0000000001
 40
0.0
 40
0.0
 40
0.0
 40
0.0
 40
0.4998700405968436
 40
0.4998700405968436
 40
1.0
 40
1.0
 40
1.0
 40
1.0
 10
9.393752855810136
 20
0.4827425929398146
 30
0.0000000000000002
 10
9.40301950311715
 20
0.4991631225155402
 30
0.0000000000000002
 10
9.412283112811337
 20
0.5156012000641113
 30
0.0000000000000002
 10
9.430804274209206
 20
0.5485067605974337
 30
0.0000000000000003
 10
9.440063028998396
 20
0.5649763885259631
 30
0.0000000000000002
 10
9.449315353299539
 20
0.5814513798878807
 30
0.0000000000000002
  0
SPLINE
  5
BD
330
A
100
AcDbEntity
  8
1
390
1D
100
AcDbSpline
210
-0.0000000003474808
220
-0.0000000002078381
230
1.0
 70
     8
 71
     3
 72
    10
 73
     6
 74
     0
 42
0.0000000001
 43
0.0000000001
 40
0.0
 40
0.0
 40
0.0
 40
0.0
 40
0.4998664393006991
 40
0.4998664393006991
 40
1.0
 40
1.0
 40
1.0
 40
1.0
 10
9.500684646700449
 20
0.5846916715467501
 30
0.0000000000000002
 10
9.510013288336438
 20
0.5691950859711028
 30
0.0000000000000002
 10
9.519347624891908
 20
0.5536377343469212
 30
0.0000000000000002
 10
9.538027485842576
 20
0.5224064071896351
 30
0.0000000000000001
 10
9.547374271753026
 20
0.5067302926419189
 30
0.0000000000000001
 10
9.556722467694273
 20
0.4910044701549056
 30
0.0000000000000002
  0
LINE
  5
BE
330
A
100
AcDbEntity
  8
SK4
390
1D
100
AcDbLine
 10
-28.125
 20
0.0
 30
0.0
 11
10.125
 21
0.0
 31
0.0
  0
LINE
  5
C0
330
A
100
AcDbEntity
  8
4
390
1D
100
AcDbLine
 10
-0.125
 20
0.0
 30
0.0
 11
10.125
 21
0.0
 31
0.0
  0
MTEXT
  5
C2
330
A
100
AcDbEntity
  8
SK6
390
1D
100
AcDbMText
 10
2.9
 20
-50.453125
 30
0.0
 40
4.5
 41
0.0
 71
     7
 72
     5
  1
\W01.000;\Fsimplex.shx;
  7
SIMPLEX
 73
     2
 44
0.9036139999999999
1001
ACAD
1000
MTEXTBEGIN
1070
    73
1070
     2
1070
    44
1040
0.9036139999999999
1070
    74
1070
     0
1000
MTEXTEND
  0
DIMENSION
  5
CF
330
A
100
AcDbEntity
  8
2
390
1D
100
AcDbDimension
  2
_D0
 10
10.0
 20
78.43
 30
0.0
 11
20.820896
 21
79.5
 31
0.0
 70
    33
  1
 <> 
 71
     5
 42
-1.0
  3
Standard
100
AcDbAlignedDimension
 13
0.0
 23
0.0
 33
0.0
 14
10.0
 24
0.0
 34
0.0
1001
ACAD
1000
DSTYLE
1002
{
1070
   271
1070
     3
1070
   272
1070
     3
1070
    77
1070
     1
1070
    73
1070
     0
1070
   179
1070
     3
1070
   171
1070
     3
1070
   274
1070
     3
1070
   177
1070
     7
1070
   176
1070
     7
1070
   178
1070
     7
1070
    78
1070
     8
1070
    47
1040
0.005
1070
    48
1040
-0.005
1070
    41
1040
4.57
1070
   147
1040
1.5
1070
    42
1040
0.0
1070
    44
1040
3.5
1070
   140
1040
4.57
1070
     6
1000
_CLOSEDFILLED
1070
     7
1000
_CLOSEDFILLED
1002
}
  0
DIMENSION
  5
DA
330
A
100
AcDbEntity
  8
2
390
1D
100
AcDbDimension
  2
_D1
 10
55.5
 20
19.623094
 30
0.0
 11
55.5
 21
19.623094
 31
0.0
 70
    32
  1
%%c <> 
 71
     0
 72
     0
 41
0.0
 42
-1.0
 53
90.0
  3
Standard
100
AcDbAlignedDimension
 13
10.0
 23
-0.6
 33
0.0
 14
10.0
 24
0.6
 34
0.0
 50
90.0
100
AcDbRotatedDimension
1001
ACAD
1000
DSTYLE
1002
{
1070
   271
1070
     3
1070
   272
1070
     3
1070
    77
1070
     1
1070
    73
1070
     0
1070
   179
1070
     3
1070
   177
1070
     7
1070
   176
1070
     7
1070
   178
1070
     7
1070
    78
1070
     8
1070
    47
1040
0.005
1070
    48
1040
-0.005
1070
    41
1040
4.57
1070
   147
1040
1.5
1070
    42
1040
0.0
1070
    44
1040
2.0
1070
   140
1040
4.57
1070
     6
1000
_CLOSEDFILLED
1070
     7
1000
_CLOSEDFILLED
1002
}
  0
DIMENSION
  5
E6
330
A
100
AcDbEntity
  8
SK2
390
1D
100
AcDbDimension
  2
_D2
 10
-48.5
 20
15.543698
 30
0.0
 11
-48.5
 21
15.543698
 31
0.0
 70
    32
  1
%%c <> 
 71
     0
 72
     0
 41
0.0
 42
-1.0
 53
90.0
  3
Standard
100
AcDbAlignedDimension
 13
-27.8
 23
1.5
 33
0.0
 14
-27.8
 24
-1.5
 34
0.0
 50
90.0
100
AcDbRotatedDimension
1001
ACAD
1000
DSTYLE
1002
{
1070
   271
1070
     3
1070
   272
1070
     3
1070
    77
1070
     1
1070
    73
1070
     0
1070
   179
1070
     3
1070
   171
1070
     3
1070
   274
1070
     3
1070
   177
1070
     7
1070
   176
1070
     7
1070
   178
1070
     7
1070
    78
1070
     8
1070
    47
1040
0.005
1070
    48
1040
-0.005
1070
    41
1040
4.57
1070
   147
1040
1.5
1070
    42
1040
0.0
1070
    44
1040
3.5
1070
   140
1040
4.57
1070
     6
1000
_CLOSEDFILLED
1070
     7
1000
_CLOSEDFILLED
1002
}
  0
DIMENSION
  5
F0
330
A
100
AcDbEntity
  8
2
390
1D
100
AcDbDimension
  2
_D3
 10
28.28999000000001
 20
64.5
 30
0.0
 11
28.28999000000001
 21
64.5
 31
0.0
 70
    32
  1
 <> 
 71
     5
 42
-1.0
  3
Standard
100
AcDbAlignedDimension
 13
10.0
 23
0.0
 33
0.0
 14
4.674999999999999
 24
0.0
 34
0.0
100
AcDbRotatedDimension
1001
ACAD
1000
DSTYLE
1002
{
1070
   271
1070
     3
1070
   272
1070
     3
1070
    77
1070
     1
1070
    73
1070
     0
1070
   179
1070
     3
1070
   171
1070
     3
1070
   274
1070
     3
1070
   177
1070
     7
1070
   176
1070
     7
1070
   178
1070
     7
1070
    78
1070
     8
1070
    47
1040
0.005
1070
    48
1040
-0.005
1070
    41
1040
4.57
1070
   147
1040
1.5
1070
    42
1040
0.0
1070
    44
1040
3.5
1070
   140
1040
4.57
1070
     6
1000
_CLOSEDFILLED
1070
     7
1000
_CLOSEDFILLED
1002
}
  0
DIMENSION
  5
FA
330
A
100
AcDbEntity
  8
2
390
1D
100
AcDbDimension
  2
_D4
 10
28.28999000000001
 20
49.500007
 30
0.0
 11
28.28999000000001
 21
49.500007
 31
0.0
 70
    32
  1
 <> 
 71
     5
 42
-1.0
  3
Standard
100
AcDbAlignedDimension
 13
9.322
 23
0.0
 33
0.0
 14
10.0
 24
0.0
 34
0.0
100
AcDbRotatedDimension
1001
ACAD
1000
DSTYLE
1002
{
1070
   271
1070
     3
1070
   272
1070
     3
1070
    77
1070
     1
1070
    73
1070
     0
1070
   179
1070
     3
1070
   177
1070
     7
1070
   176
1070
     7
1070
   178
1070
     7
1070
    78
1070
     8
1070
    47
1040
0.005
1070
    48
1040
-0.005
1070
    41
1040
4.57
1070
   147
1040
1.5
1070
    42
1040
0.0
1070
    44
1040
2.0
1070
   140
1040
4.57
1070
     6
1000
_CLOSEDFILLED
1070
     7
1000
_CLOSEDFILLED
1002
}
  0
DIMENSION
  5
104
330
A
100
AcDbEntity
  8
SK2
390
1D
100
AcDbDimension
  2
_D5
 10
-9.0
 20
94.50000000000001
 30
0.0
 11
-9.0
 21
94.50000000000001
 31
0.0
 70
    32
  1
 <> 
 71
     5
 42
-1.0
  3
Standard
100
AcDbAlignedDimension
 13
-28.0
 23
0.0
 33
0.0
 14
10.0
 24
0.0
 34
0.0
100
AcDbRotatedDimension
1001
ACAD
1000
DSTYLE
1002
{
1070
   271
1070
     3
1070
   272
1070
     3
1070
    77
1070
     1
1070
    73
1070
     0
1070
   179
1070
     3
1070
   177
1070
     7
1070
   176
1070
     7
1070
   178
1070
     7
1070
    78
1070
     8
1070
    47
1040
0.005
1070
    48
1040
-0.005
1070
    41
1040
4.57
1070
   147
1040
1.5
1070
    42
1040
0.0
1070
    44
1040
2.0
1070
   140
1040
4.57
1070
     6
1000
_CLOSEDFILLED
1070
     7
1000
_CLOSEDFILLED
1002
}
  0
ENDSEC
  0
SECTION
  2
OBJECTS
  0
DICTIONARY
  5
19
330
0
100
AcDbDictionary
281
     1
  3
ACAD_COLOR
350
196
  3
ACAD_GROUP
350
1A
  3
ACAD_LAYOUT
350
1E
  3
ACAD_MATERIAL
350
169
  3
ACAD_MLEADERSTYLE
350
15C
  3
ACAD_MLINESTYLE
350
1B
  3
ACAD_PLOTSETTINGS
350
22
  3
ACAD_PLOTSTYLENAME
350
1F
  3
ACAD_SCALELIST
350
11D
  3
ACAD_TABLESTYLE
350
197
  3
ACAD_VISUALSTYLE
350
182
  3
ACAD_WIPEOUT_VARS
350
23
  3
ACDB_RECOMPOSE_DATA
350
1BC
  3
AcDbVariableDictionary
350
159
  3
ASE_INDEX_DICTIONARY
350
1B1
  3
DWGPROPS
350
1BD
  0
DICTIONARY
  5
19C
330
14
100
AcDbDictionary
280
     1
281
     1
  3
ADSK_XREC_LAYER_RECONCILED
360
19D
  0
DICTIONARY
  5
19E
330
15E
100
AcDbDictionary
280
     1
281
     1
  3
ADSK_XREC_LAYER_RECONCILED
360
19F
  0
DICTIONARY
  5
1A0
330
15F
100
AcDbDictionary
280
     1
281
     1
  3
ADSK_XREC_LAYER_RECONCILED
360
1A1
  0
DICTIONARY
  5
1A2
330
160
100
AcDbDictionary
280
     1
281
     1
  3
ADSK_XREC_LAYER_RECONCILED
360
1A3
  0
DICTIONARY
  5
1A4
330
161
100
AcDbDictionary
280
     1
281
     1
  3
ADSK_XREC_LAYER_RECONCILED
360
1A5
  0
DICTIONARY
  5
1A6
330
162
100
AcDbDictionary
280
     1
281
     1
  3
ADSK_XREC_LAYER_RECONCILED
360
1A7
  0
DICTIONARY
  5
1A8
330
163
100
AcDbDictionary
280
     1
281
     1
  3
ADSK_XREC_LAYER_RECONCILED
360
1A9
  0
DICTIONARY
  5
1AA
330
164
100
AcDbDictionary
280
     1
281
     1
  3
ADSK_XREC_LAYER_RECONCILED
360
1AB
  0
DICTIONARY
  5
1AC
330
165
100
AcDbDictionary
280
     1
281
     1
  3
ADSK_XREC_LAYER_RECONCILED
360
1AD
  0
DICTIONARY
  5
1AE
330
166
100
AcDbDictionary
280
     1
281
     1
  3
ADSK_XREC_LAYER_RECONCILED
360
1AF
  0
DICTIONARY
  5
196
102
{ACAD_REACTORS
330
19
102
}
330
19
100
AcDbDictionary
281
     1
  0
DICTIONARY
  5
1A
102
{ACAD_REACTORS
330
19
102
}
330
19
100
AcDbDictionary
281
     1
  0
DICTIONARY
  5
1E
102
{ACAD_REACTORS
330
19
102
}
330
19
100
AcDbDictionary
281
     1
  3
Layout1
350
21
  3
Model
350
20
  0
DICTIONARY
  5
169
102
{ACAD_REACTORS
330
19
102
}
330
19
100
AcDbDictionary
281
     1
  3
ByBlock
350
172
  3
ByLayer
350
16A
  3
Global
350
17A
  0
DICTIONARY
  5
15C
102
{ACAD_REACTORS
330
19
102
}
330
19
100
AcDbDictionary
281
     1
  3
Standard
350
199
  0
DICTIONARY
  5
1B
102
{ACAD_REACTORS
330
19
102
}
330
19
100
AcDbDictionary
281
     1
  3
Standard
350
1C
  0
DICTIONARY
  5
22
102
{ACAD_REACTORS
330
19
102
}
330
19
100
AcDbDictionary
281
     1
  0
ACDBDICTIONARYWDFLT
  5
1F
102
{ACAD_REACTORS
330
19
102
}
330
19
100
AcDbDictionary
281
     1
  3
Normal
350
1D
100
AcDbDictionaryWithDefault
340
1D
  0
DICTIONARY
  5
11D
102
{ACAD_REACTORS
330
19
102
}
330
19
100
AcDbDictionary
281
     1
  3
A0
350
11E
  3
A1
350
11F
  3
A2
350
120
  3
A3
350
121
  3
A4
350
122
  3
A5
350
123
  3
A6
350
124
  3
A7
350
125
  3
A8
350
126
  3
A9
350
127
  3
B0
350
128
  3
B1
350
129
  3
B2
350
12A
  3
B3
350
12B
  3
B4
350
12C
  3
B5
350
12D
  3
B6
350
12E
  3
B7
350
12F
  3
B8
350
130
  3
B9
350
131
  3
C0
350
132
  3
C1
350
133
  3
C2
350
134
  3
C3
350
135
  3
C4
350
136
  3
C5
350
137
  3
C6
350
138
  3
C7
350
139
  3
C8
350
13A
  3
C9
350
13B
  3
D0
350
13C
  3
D1
350
13D
  3
D2
350
13E
  0
DICTIONARY
  5
197
102
{ACAD_REACTORS
330
19
102
}
330
19
100
AcDbDictionary
281
     1
  3
Standard
350
198
  0
DICTIONARY
  5
182
102
{ACAD_REACTORS
330
19
102
}
330
19
100
AcDbDictionary
281
     1
  3
2dWireframe
350
188
  3
3D Hidden
350
18A
  3
3dWireframe
350
189
  3
Basic
350
187
  3
Brighten
350
18E
  3
ColorChange
350
192
  3
Conceptual
350
18B
  3
Dim
350
18D
  3
EdgeColorOff
350
195
  3
Facepattern
350
191
  3
Flat
350
183
  3
FlatWithEdges
350
184
  3
Gouraud
350
185
  3
GouraudWithEdges
350
186
  3
JitterOff
350
193
  3
Linepattern
350
190
  3
OverhangOff
350
194
  3
Realistic
350
18C
  3
Thicken
350
18F
  0
WIPEOUTVARIABLES
  5
23
330
19
100
AcDbWipeoutVariables
 70
     1
  0
XRECORD
  5
1BC
102
{ACAD_REACTORS
330
19
102
}
330
19
100
AcDbXrecord
280
     1
 90
        1
330
198
  0
DICTIONARY
  5
159
102
{ACAD_REACTORS
330
19
102
}
330
19
100
AcDbDictionary
281
     1
  3
CANNOSCALE
350
15A
  3
CMLEADERSTYLE
350
1B5
  3
CTABLESTYLE
350
1B4
  3
DIMASSOC
350
1B8
  3
INDEXCTL
350
1B7
  3
SORTENTS
350
1B6
  3
XCLIPFRAME
350
1B9
  0
DICTIONARY
  5
1B1
102
{ACAD_REACTORS
330
19
102
}
330
19
100
AcDbDictionary
281
     1
  3
ASEBlockHierarchyIndexRecord
350
1B3
1001
DCO15
1040
1871111771.694
  0
XRECORD
  5
1BD
102
{ACAD_REACTORS
330
19
102
}
330
19
100
AcDbXrecord
280
     1
  1
DWGPROPS COOKIE
  2

  3

  4

  6

  7

  8
tdm012
  9

300
=
301
=
302
=
303
=
304
=
305
=
306
=
307
=
308
=
309
=
 40
0.001710625
 41
2457459.596387859
 42
2457459.59809831
  1

 90
        0
  0
XRECORD
  5
19D
102
{ACAD_REACTORS
330
19C
102
}
330
19C
100
AcDbXrecord
280
     1
290
     1
  0
XRECORD
  5
19F
102
{ACAD_REACTORS
330
19E
102
}
330
19E
100
AcDbXrecord
280
     1
290
     1
  0
XRECORD
  5
1A1
102
{ACAD_REACTORS
330
1A0
102
}
330
1A0
100
AcDbXrecord
280
     1
290
     1
  0
XRECORD
  5
1A3
102
{ACAD_REACTORS
330
1A2
102
}
330
1A2
100
AcDbXrecord
280
     1
290
     1
  0
XRECORD
  5
1A5
102
{ACAD_REACTORS
330
1A4
102
}
330
1A4
100
AcDbXrecord
280
     1
290
     1
  0
XRECORD
  5
1A7
102
{ACAD_REACTORS
330
1A6
102
}
330
1A6
100
AcDbXrecord
280
     1
290
     1
  0
XRECORD
  5
1A9
102
{ACAD_REACTORS
330
1A8
102
}
330
1A8
100
AcDbXrecord
280
     1
290
     1
  0
XRECORD
  5
1AB
102
{ACAD_REACTORS
330
1AA
102
}
330
1AA
100
AcDbXrecord
280
     1
290
     1
  0
XRECORD
  5
1AD
102
{ACAD_REACTORS
330
1AC
102
}
330
1AC
100
AcDbXrecord
280
     1
290
     1
  0
XRECORD
  5
1AF
102
{ACAD_REACTORS
330
1AE
102
}
330
1AE
100
AcDbXrecord
280
     1
290
     1
  0
LAYOUT
  5
21
102
{ACAD_XDICTIONARY
360
1C0
102
}
102
{ACAD_REACTORS
330
1E
102
}
330
1E
100
AcDbPlotSettings
  1

  2

  4

  6

 40
0.0
 41
0.0
 42
0.0
 43
0.0
 44
0.0
 45
0.0
 46
0.0
 47
0.0
 48
0.0
 49
0.0
140
0.0
141
0.0
142
1.0
143
1.0
 70
     0
 72
     0
 73
     0
 74
     0
  7

 75
     0
147
1.0
148
0.0
149
0.0
100
AcDbLayout
  1
Layout1
 70
     0
 71
     1
 10
-0.5
 20
-0.5
 11
5.0
 21
5.0
 12
0.0
 22
0.0
 32
0.0
 14
-0.5
 24
-0.5
 34
-0.5
 15
5.0
 25
5.0
 35
5.0
146
0.0
 13
0.0
 23
0.0
 33
0.0
 16
1.0
 26
0.0
 36
0.0
 17
0.0
 27
1.0
 37
0.0
 76
     0
330
B
  0
LAYOUT
  5
20
102
{ACAD_XDICTIONARY
360
1BE
102
}
102
{ACAD_REACTORS
330
1E
102
}
330
1E
100
AcDbPlotSettings
  1

  2

  4

  6

 40
0.0
 41
0.0
 42
0.0
 43
0.0
 44
0.0
 45
0.0
 46
0.0
 47
0.0
 48
0.0
 49
0.0
140
0.0
141
0.0
142
1.0
143
1.0
 70
  1024
 72
     0
 73
     0
 74
     0
  7

 75
     0
147
1.0
148
0.0
149
0.0
100
AcDbLayout
  1
Model
 70
     0
 71
     0
 10
0.0
 20
0.0
 11
0.0
 21
0.0
 12
0.0
 22
0.0
 32
0.0
 14
-50.83260433333334
 24
-50.453125
 34
-0.0000000000000008
 15
63.2125
 25
96.83260433333334
 35
0.0000000000000002
146
0.0
 13
0.0
 23
0.0
 33
0.0
 16
0.0
 26
0.0
 36
0.0
 17
0.0
 27
0.0
 37
0.0
 76
     0
330
A
331
10D
  0
MATERIAL
  5
172
102
{ACAD_XDICTIONARY
360
173
102
}
102
{ACAD_REACTORS
330
169
102
}
330
169
100
AcDbMaterial
  1
ByBlock
 72
     0
 43
0.0208333333333333
 43
0.0
 43
0.0
 43
0.0
 43
0.0
 43
0.0208333333333333
 43
0.0
 43
0.0
 43
0.0
 43
0.0
 43
1.0
 43
0.0
 43
0.0
 43
0.0
 43
0.0
 43
1.0
 77
     0
 47
0.0208333333333333
 47
0.0
 47
0.0
 47
0.0
 47
0.0
 47
0.0208333333333333
 47
0.0
 47
0.0
 47
0.0
 47
0.0
 47
1.0
 47
0.0
 47
0.0
 47
0.0
 47
0.0
 47
1.0
171
     0
 49
0.0208333333333333
 49
0.0
 49
0.0
 49
0.0
 49
0.0
 49
0.0208333333333333
 49
0.0
 49
0.0
 49
0.0
 49
0.0
 49
1.0
 49
0.0
 49
0.0
 49
0.0
 49
0.0
 49
1.0
175
     0
142
0.0208333333333333
142
0.0
142
0.0
142
0.0
142
0.0
142
0.0208333333333333
142
0.0
142
0.0
142
0.0
142
0.0
142
1.0
142
0.0
142
0.0
142
0.0
142
0.0
142
1.0
179
     0
144
0.0208333333333333
144
0.0
144
0.0
144
0.0
144
0.0
144
0.0208333333333333
144
0.0
144
0.0
144
0.0
144
0.0
144
1.0
144
0.0
144
0.0
144
0.0
144
0.0
144
1.0
147
0.0208333333333333
147
0.0
147
0.0
147
0.0
147
0.0
147
0.0208333333333333
147
0.0
147
0.0
147
0.0
147
0.0
147
1.0
147
0.0
147
0.0
147
0.0
147
0.0
147
1.0
  0
MATERIAL
  5
16A
102
{ACAD_XDICTIONARY
360
16B
102
}
102
{ACAD_REACTORS
330
169
102
}
330
169
100
AcDbMaterial
  1
ByLayer
 72
     0
 43
0.0208333333333333
 43
0.0
 43
0.0
 43
0.0
 43
0.0
 43
0.0208333333333333
 43
0.0
 43
0.0
 43
0.0
 43
0.0
 43
1.0
 43
0.0
 43
0.0
 43
0.0
 43
0.0
 43
1.0
 77
     0
 47
0.0208333333333333
 47
0.0
 47
0.0
 47
0.0
 47
0.0
 47
0.0208333333333333
 47
0.0
 47
0.0
 47
0.0
 47
0.0
 47
1.0
 47
0.0
 47
0.0
 47
0.0
 47
0.0
 47
1.0
171
     0
 49
0.0208333333333333
 49
0.0
 49
0.0
 49
0.0
 49
0.0
 49
0.0208333333333333
 49
0.0
 49
0.0
 49
0.0
 49
0.0
 49
1.0
 49
0.0
 49
0.0
 49
0.0
 49
0.0
 49
1.0
175
     0
142
0.0208333333333333
142
0.0
142
0.0
142
0.0
142
0.0
142
0.0208333333333333
142
0.0
142
0.0
142
0.0
142
0.0
142
1.0
142
0.0
142
0.0
142
0.0
142
0.0
142
1.0
179
     0
144
0.0208333333333333
144
0.0
144
0.0
144
0.0
144
0.0
144
0.0208333333333333
144
0.0
144
0.0
144
0.0
144
0.0
144
1.0
144
0.0
144
0.0
144
0.0
144
0.0
144
1.0
147
0.0208333333333333
147
0.0
147
0.0
147
0.0
147
0.0
147
0.0208333333333333
147
0.0
147
0.0
147
0.0
147
0.0
147
1.0
147
0.0
147
0.0
147
0.0
147
0.0
147
1.0
  0
MATERIAL
  5
17A
102
{ACAD_XDICTIONARY
360
17B
102
}
102
{ACAD_REACTORS
330
169
102
}
330
169
100
AcDbMaterial
  1
Global
 72
     0
 43
0.0208333333333333
 43
0.0
 43
0.0
 43
0.0
 43
0.0
 43
0.0208333333333333
 43
0.0
 43
0.0
 43
0.0
 43
0.0
 43
1.0
 43
0.0
 43
0.0
 43
0.0
 43
0.0
 43
1.0
 77
     0
 47
0.0208333333333333
 47
0.0
 47
0.0
 47
0.0
 47
0.0
 47
0.0208333333333333
 47
0.0
 47
0.0
 47
0.0
 47
0.0
 47
1.0
 47
0.0
 47
0.0
 47
0.0
 47
0.0
 47
1.0
171
     0
 49
0.0208333333333333
 49
0.0
 49
0.0
 49
0.0
 49
0.0
 49
0.0208333333333333
 49
0.0
 49
0.0
 49
0.0
 49
0.0
 49
1.0
 49
0.0
 49
0.0
 49
0.0
 49
0.0
 49
1.0
175
     0
142
0.0208333333333333
142
0.0
142
0.0
142
0.0
142
0.0
142
0.0208333333333333
142
0.0
142
0.0
142
0.0
142
0.0
142
1.0
142
0.0
142
0.0
142
0.0
142
0.0
142
1.0
179
     0
144
0.0208333333333333
144
0.0
144
0.0
144
0.0
144
0.0
144
0.0208333333333333
144
0.0
144
0.0
144
0.0
144
0.0
144
1.0
144
0.0
144
0.0
144
0.0
144
0.0
144
1.0
147
0.0208333333333333
147
0.0
147
0.0
147
0.0
147
0.0
147
0.0208333333333333
147
0.0
147
0.0
147
0.0
147
0.0
147
1.0
147
0.0
147
0.0
147
0.0
147
0.0
147
1.0
  0
MLEADERSTYLE
  5
199
102
{ACAD_REACTORS
330
15C
102
}
330
15C
100
AcDbMLeaderStyle
170
     2
171
     1
172
     0
 90
        2
 40
0.0
 41
0.0
173
     1
 91
-1056964608
340
11
 92
       -2
290
     1
 42
2.0
291
     1
 43
0.36
  3
Standard
 44
4.0
300

342
17
174
     1
178
     6
175
     1
176
     0
 93
-1056964608
 45
4.0
292
     0
297
     0
 46
4.0
 94
-1056964608
 47
1.0
 49
1.0
140
1.0
293
     1
141
0.0
294
     1
177
     0
142
1.0
295
     0
296
     0
143
0.125
1001
ACAD_MLEADERVER
1070
     2
  0
MLINESTYLE
  5
1C
102
{ACAD_REACTORS
330
1B
102
}
330
1B
100
AcDbMlineStyle
  2
STANDARD
 70
     0
  3

 62
     0
 51
90.0
 52
90.0
 71
     2
 49
0.5
 62
   256
  6
BYLAYER
 49
-0.5
 62
   256
  6
BYLAYER
  0
ACDBPLACEHOLDER
  5
1D
102
{ACAD_REACTORS
330
1F
102
}
330
1F
  0
SCALE
  5
11E
102
{ACAD_REACTORS
330
11D
102
}
330
11D
100
AcDbScale
 70
     0
300
1:1
140
1.0
141
1.0
290
     1
  0
SCALE
  5
11F
102
{ACAD_REACTORS
330
11D
102
}
330
11D
100
AcDbScale
 70
     0
300
1:2
140
1.0
141
2.0
290
     0
  0
SCALE
  5
120
102
{ACAD_REACTORS
330
11D
102
}
330
11D
100
AcDbScale
 70
     0
300
1:4
140
1.0
141
4.0
290
     0
  0
SCALE
  5
121
102
{ACAD_REACTORS
330
11D
102
}
330
11D
100
AcDbScale
 70
     0
300
1:5
140
1.0
141
5.0
290
     0
  0
SCALE
  5
122
102
{ACAD_REACTORS
330
11D
102
}
330
11D
100
AcDbScale
 70
     0
300
1:8
140
1.0
141
8.0
290
     0
  0
SCALE
  5
123
102
{ACAD_REACTORS
330
11D
102
}
330
11D
100
AcDbScale
 70
     0
300
1:10
140
1.0
141
10.0
290
     0
  0
SCALE
  5
124
102
{ACAD_REACTORS
330
11D
102
}
330
11D
100
AcDbScale
 70
     0
300
1:16
140
1.0
141
16.0
290
     0
  0
SCALE
  5
125
102
{ACAD_REACTORS
330
11D
102
}
330
11D
100
AcDbScale
 70
     0
300
1:20
140
1.0
141
20.0
290
     0
  0
SCALE
  5
126
102
{ACAD_REACTORS
330
11D
102
}
330
11D
100
AcDbScale
 70
     0
300
1:30
140
1.0
141
30.0
290
     0
  0
SCALE
  5
127
102
{ACAD_REACTORS
330
11D
102
}
330
11D
100
AcDbScale
 70
     0
300
1:40
140
1.0
141
40.0
290
     0
  0
SCALE
  5
128
102
{ACAD_REACTORS
330
11D
102
}
330
11D
100
AcDbScale
 70
     0
300
1:50
140
1.0
141
50.0
290
     0
  0
SCALE
  5
129
102
{ACAD_REACTORS
330
11D
102
}
330
11D
100
AcDbScale
 70
     0
300
1:100
140
1.0
141
100.0
290
     0
  0
SCALE
  5
12A
102
{ACAD_REACTORS
330
11D
102
}
330
11D
100
AcDbScale
 70
     0
300
2:1
140
2.0
141
1.0
290
     0
  0
SCALE
  5
12B
102
{ACAD_REACTORS
330
11D
102
}
330
11D
100
AcDbScale
 70
     0
300
4:1
140
4.0
141
1.0
290
     0
  0
SCALE
  5
12C
102
{ACAD_REACTORS
330
11D
102
}
330
11D
100
AcDbScale
 70
     0
300
8:1
140
8.0
141
1.0
290
     0
  0
SCALE
  5
12D
102
{ACAD_REACTORS
330
11D
102
}
330
11D
100
AcDbScale
 70
     0
300
10:1
140
10.0
141
1.0
290
     0
  0
SCALE
  5
12E
102
{ACAD_REACTORS
330
11D
102
}
330
11D
100
AcDbScale
 70
     0
300
100:1
140
100.0
141
1.0
290
     0
  0
SCALE
  5
12F
102
{ACAD_REACTORS
330
11D
102
}
330
11D
100
AcDbScale
 70
     0
300
1/128" = 1'-0"
140
0.0078125
141
12.0
290
     0
  0
SCALE
  5
130
102
{ACAD_REACTORS
330
11D
102
}
330
11D
100
AcDbScale
 70
     0
300
1/64" = 1'-0"
140
0.015625
141
12.0
290
     0
  0
SCALE
  5
131
102
{ACAD_REACTORS
330
11D
102
}
330
11D
100
AcDbScale
 70
     0
300
1/32" = 1'-0"
140
0.03125
141
12.0
290
     0
  0
SCALE
  5
132
102
{ACAD_REACTORS
330
11D
102
}
330
11D
100
AcDbScale
 70
     0
300
1/16" = 1'-0"
140
0.0625
141
12.0
290
     0
  0
SCALE
  5
133
102
{ACAD_REACTORS
330
11D
102
}
330
11D
100
AcDbScale
 70
     0
300
3/32" = 1'-0"
140
0.09375
141
12.0
290
     0
  0
SCALE
  5
134
102
{ACAD_REACTORS
330
11D
102
}
330
11D
100
AcDbScale
 70
     0
300
1/8" = 1'-0"
140
0.125
141
12.0
290
     0
  0
SCALE
  5
135
102
{ACAD_REACTORS
330
11D
102
}
330
11D
100
AcDbScale
 70
     0
300
3/16" = 1'-0"
140
0.1875
141
12.0
290
     0
  0
SCALE
  5
136
102
{ACAD_REACTORS
330
11D
102
}
330
11D
100
AcDbScale
 70
     0
300
1/4" = 1'-0"
140
0.25
141
12.0
290
     0
  0
SCALE
  5
137
102
{ACAD_REACTORS
330
11D
102
}
330
11D
100
AcDbScale
 70
     0
300
3/8" = 1'-0"
140
0.375
141
12.0
290
     0
  0
SCALE
  5
138
102
{ACAD_REACTORS
330
11D
102
}
330
11D
100
AcDbScale
 70
     0
300
1/2" = 1'-0"
140
0.5
141
12.0
290
     0
  0
SCALE
  5
139
102
{ACAD_REACTORS
330
11D
102
}
330
11D
100
AcDbScale
 70
     0
300
3/4" = 1'-0"
140
0.75
141
12.0
290
     0
  0
SCALE
  5
13A
102
{ACAD_REACTORS
330
11D
102
}
330
11D
100
AcDbScale
 70
     0
300
1" = 1'-0"
140
1.0
141
12.0
290
     0
  0
SCALE
  5
13B
102
{ACAD_REACTORS
330
11D
102
}
330
11D
100
AcDbScale
 70
     0
300
1-1/2" = 1'-0"
140
1.5
141
12.0
290
     0
  0
SCALE
  5
13C
102
{ACAD_REACTORS
330
11D
102
}
330
11D
100
AcDbScale
 70
     0
300
3" = 1'-0"
140
3.0
141
12.0
290
     0
  0
SCALE
  5
13D
102
{ACAD_REACTORS
330
11D
102
}
330
11D
100
AcDbScale
 70
     0
300
6" = 1'-0"
140
6.0
141
12.0
290
     0
  0
SCALE
  5
13E
102
{ACAD_REACTORS
330
11D
102
}
330
11D
100
AcDbScale
 70
     0
300
1'-0" = 1'-0"
140
12.0
141
12.0
290
     0
  0
TABLESTYLE
  5
198
102
{ACAD_XDICTIONARY
360
1BA
102
}
102
{ACAD_REACTORS
330
197
102
}
330
197
100
AcDbTableStyle
  3
Standard
 70
     0
 71
     0
 40
1.5
 41
1.5
280
     0
281
     0
  7
Standard
140
4.5
170
     2
 62
     0
 63
     7
283
     0
274
    -2
284
     1
 64
     0
275
    -2
285
     1
 65
     0
276
    -2
286
     1
 66
     0
277
    -2
287
     1
 67
     0
278
    -2
288
     1
 68
     0
279
    -2
289
     1
 69
     0
  7
Standard
140
6.0
170
     5
 62
     0
 63
     7
283
     0
274
    -2
284
     1
 64
     0
275
    -2
285
     1
 65
     0
276
    -2
286
     1
 66
     0
277
    -2
287
     1
 67
     0
278
    -2
288
     1
 68
     0
279
    -2
289
     1
 69
     0
  7
Standard
140
4.5
170
     5
 62
     0
 63
     7
283
     0
274
    -2
284
     1
 64
     0
275
    -2
285
     1
 65
     0
276
    -2
286
     1
 66
     0
277
    -2
287
     1
 67
     0
278
    -2
288
     1
 68
     0
279
    -2
289
     1
 69
     0
  0
VISUALSTYLE
  5
188
102
{ACAD_XDICTIONARY
360
1CF
102
}
102
{ACAD_REACTORS
330
182
102
}
330
182
100
AcDbVisualStyle
  2
2dWireframe
 70
     4
 71
     0
 72
     2
 73
     0
 90
        0
 40
-0.6
 41
-30.0
 62
     5
 63
     7
 74
     1
 91
        4
 64
     7
 65
   257
 75
     1
175
     1
 42
1.0
 92
        0
 66
   257
 43
1.0
 76
     1
 77
     6
 78
     2
 67
     7
 79
     5
170
     0
171
     0
290
     0
174
     0
 93
        1
 44
0.0
173
     0
291
     0
 45
0.0
1001
ACAD
1000
AcDbSavedByObjectVersion
1070
     0
  0
VISUALSTYLE
  5
18A
102
{ACAD_XDICTIONARY
360
1D3
102
}
102
{ACAD_REACTORS
330
182
102
}
330
182
100
AcDbVisualStyle
  2
3D Hidden
 70
     6
 71
     1
 72
     2
 73
     2
 90
        0
 40
-0.6
 41
-30.0
 62
     5
 63
     7
 74
     2
 91
        2
 64
     7
 65
   257
 75
     2
175
     1
 42
179.0
 92
        0
 66
   257
 43
1.0
 76
     1
 77
     6
 78
     2
 67
     7
 79
     3
170
     0
171
     0
290
     0
174
     0
 93
        1
 44
0.0
173
     0
291
     0
 45
0.0
1001
ACAD
1000
AcDbSavedByObjectVersion
1070
     0
  0
VISUALSTYLE
  5
189
102
{ACAD_XDICTIONARY
360
1D1
102
}
102
{ACAD_REACTORS
330
182
102
}
330
182
100
AcDbVisualStyle
  2
3dWireframe
 70
     5
 71
     0
 72
     2
 73
     0
 90
        0
 40
-0.6
 41
-30.0
 62
     5
 63
     7
 74
     1
 91
        4
 64
     7
 65
   257
 75
     1
175
     1
 42
1.0
 92
        0
 66
   257
 43
1.0
 76
     1
 77
     6
 78
     2
 67
     7
 79
     5
170
     0
171
     0
290
     0
174
     0
 93
        1
 44
0.0
173
     0
291
     0
 45
0.0
1001
ACAD
1000
AcDbSavedByObjectVersion
1070
     0
  0
VISUALSTYLE
  5
187
102
{ACAD_XDICTIONARY
360
1CD
102
}
102
{ACAD_REACTORS
330
182
102
}
330
182
100
AcDbVisualStyle
  2
Basic
 70
     7
 71
     1
 72
     0
 73
     1
 90
        0
 40
-0.6
 41
-30.0
 62
     5
 63
     7
 74
     0
 91
        4
 64
     7
 65
   257
 75
     1
175
     1
 42
1.0
 92
        8
 66
     7
 43
1.0
 76
     1
 77
     6
 78
     2
 67
     7
 79
     5
170
     0
171
     0
290
     0
174
     0
 93
        1
 44
0.0
173
     0
291
     1
 45
0.0
1001
ACAD
1000
AcDbSavedByObjectVersion
1070
     0
  0
VISUALSTYLE
  5
18E
102
{ACAD_XDICTIONARY
360
1DB
102
}
102
{ACAD_REACTORS
330
182
102
}
330
182
100
AcDbVisualStyle
  2
Brighten
 70
    12
 71
     2
 72
     2
 73
     0
 90
        0
 40
-0.6
 41
-30.0
 62
     5
 63
     7
 74
     1
 91
        4
 64
     7
 65
   257
 75
     1
175
     1
 42
1.0
 92
        8
 66
     7
 43
1.0
 76
     1
 77
     6
 78
     2
 67
     7
 79
     5
170
     0
171
     0
290
     0
174
     0
 93
        1
 44
50.0
173
     0
291
     1
 45
0.0
1001
ACAD
1000
AcDbSavedByObjectVersion
1070
     0
  0
VISUALSTYLE
  5
192
102
{ACAD_XDICTIONARY
360
1E3
102
}
102
{ACAD_REACTORS
330
182
102
}
330
182
100
AcDbVisualStyle
  2
ColorChange
 70
    16
 71
     2
 72
     2
 73
     3
 90
        0
 40
-0.6
 41
-30.0
 62
     5
 63
     8
 74
     1
 91
        4
 64
     7
 65
   257
 75
     1
175
     1
 42
1.0
 92
        8
 66
     8
 43
1.0
 76
     1
 77
     6
 78
     2
 67
     7
 79
     5
170
     0
171
     0
290
     0
174
     0
 93
        1
 44
0.0
173
     0
291
     1
 45
0.0
1001
ACAD
1000
AcDbSavedByObjectVersion
1070
     0
  0
VISUALSTYLE
  5
18B
102
{ACAD_XDICTIONARY
360
1D5
102
}
102
{ACAD_REACTORS
330
182
102
}
330
182
100
AcDbVisualStyle
  2
Conceptual
 70
     9
 71
     3
 72
     2
 73
     0
 90
        0
 40
-0.6
 41
-30.0
 62
     5
 63
     7
 74
     2
 91
        2
 64
     7
 65
   257
 75
     1
175
     1
 42
179.0
 92
        8
 66
     7
 43
1.0
 76
     1
 77
     6
 78
     2
 67
     7
 79
     3
170
     0
171
     0
290
     0
174
     0
 93
        1
 44
0.0
173
     0
291
     0
 45
0.0
1001
ACAD
1000
AcDbSavedByObjectVersion
1070
     0
  0
VISUALSTYLE
  5
18D
102
{ACAD_XDICTIONARY
360
1D9
102
}
102
{ACAD_REACTORS
330
182
102
}
330
182
100
AcDbVisualStyle
  2
Dim
 70
    11
 71
     2
 72
     2
 73
     0
 90
        0
 40
-0.6
 41
-30.0
 62
     5
 63
     7
 74
     1
 91
        4
 64
     7
 65
   257
 75
     1
175
     1
 42
1.0
 92
        8
 66
     7
 43
1.0
 76
     1
 77
     6
 78
     2
 67
     7
 79
     5
170
     0
171
     0
290
     0
174
     0
 93
        1
 44
-50.0
173
     0
291
     1
 45
0.0
1001
ACAD
1000
AcDbSavedByObjectVersion
1070
     0
  0
VISUALSTYLE
  5
195
102
{ACAD_XDICTIONARY
360
1E9
102
}
102
{ACAD_REACTORS
330
182
102
}
330
182
100
AcDbVisualStyle
  2
EdgeColorOff
 70
    22
 71
     2
 72
     2
 73
     0
 90
        0
 40
-0.6
 41
-30.0
 62
     5
 63
     7
 74
     1
 91
        4
 64
     7
 65
   257
 75
     1
175
     1
 42
1.0
 92
        8
 66
     7
 43
1.0
 76
     1
 77
     6
 78
     2
 67
     7
 79
     5
170
     0
171
     0
290
     0
174
     0
 93
        1
 44
0.0
173
     0
291
     1
 45
0.0
1001
ACAD
1000
AcDbSavedByObjectVersion
1070
     0
  0
VISUALSTYLE
  5
191
102
{ACAD_XDICTIONARY
360
1E1
102
}
102
{ACAD_REACTORS
330
182
102
}
330
182
100
AcDbVisualStyle
  2
Facepattern
 70
    15
 71
     2
 72
     2
 73
     0
 90
        0
 40
-0.6
 41
-30.0
 62
     5
 63
     7
 74
     1
 91
        4
 64
     7
 65
   257
 75
     1
175
     1
 42
1.0
 92
        8
 66
     7
 43
1.0
 76
     1
 77
     6
 78
     2
 67
     7
 79
     5
170
     0
171
     0
290
     0
174
     0
 93
        1
 44
0.0
173
     0
291
     1
 45
0.0
1001
ACAD
1000
AcDbSavedByObjectVersion
1070
     0
  0
VISUALSTYLE
  5
183
102
{ACAD_XDICTIONARY
360
1C5
102
}
102
{ACAD_REACTORS
330
182
102
}
330
182
100
AcDbVisualStyle
  2
Flat
 70
     0
 71
     2
 72
     1
 73
     1
 90
        2
 40
-0.6
 41
30.0
 62
     5
 63
     7
 74
     0
 91
        4
 64
     7
 65
   257
 75
     1
175
     1
 42
1.0
 92
        8
 66
     7
 43
1.0
 76
     1
 77
     6
 78
     2
 67
     7
 79
     5
170
     0
171
     0
290
     0
174
     0
 93
       13
 44
0.0
173
     0
291
     1
 45
0.0
1001
ACAD
1000
AcDbSavedByObjectVersion
1070
     0
  0
VISUALSTYLE
  5
184
102
{ACAD_XDICTIONARY
360
1C7
102
}
102
{ACAD_REACTORS
330
182
102
}
330
182
100
AcDbVisualStyle
  2
FlatWithEdges
 70
     1
 71
     2
 72
     1
 73
     1
 90
        2
 40
-0.6
 41
30.0
 62
     5
 63
     7
 74
     1
 91
        4
 64
     7
 65
   257
 75
     1
175
     1
 42
1.0
 92
        0
 66
   257
 43
1.0
 76
     1
 77
     6
 78
     2
 67
     7
 79
     5
170
     0
171
     0
290
     0
174
     0
 93
       13
 44
0.0
173
     0
291
     1
 45
0.0
1001
ACAD
1000
AcDbSavedByObjectVersion
1070
     0
  0
VISUALSTYLE
  5
185
102
{ACAD_XDICTIONARY
360
1C9
102
}
102
{ACAD_REACTORS
330
182
102
}
330
182
100
AcDbVisualStyle
  2
Gouraud
 70
     2
 71
     2
 72
     2
 73
     1
 90
        2
 40
-0.6
 41
30.0
 62
     5
 63
     7
 74
     0
 91
        4
 64
     7
 65
   257
 75
     1
175
     1
 42
1.0
 92
        0
 66
     7
 43
1.0
 76
     1
 77
     6
 78
     2
 67
     7
 79
     5
170
     0
171
     0
290
     0
174
     0
 93
       13
 44
0.0
173
     0
291
     1
 45
0.0
1001
ACAD
1000
AcDbSavedByObjectVersion
1070
     0
  0
VISUALSTYLE
  5
186
102
{ACAD_XDICTIONARY
360
1CB
102
}
102
{ACAD_REACTORS
330
182
102
}
330
182
100
AcDbVisualStyle
  2
GouraudWithEdges
 70
     3
 71
     2
 72
     2
 73
     1
 90
        2
 40
-0.6
 41
30.0
 62
     5
 63
     7
 74
     1
 91
        4
 64
     7
 65
   257
 75
     1
175
     1
 42
1.0
 92
        0
 66
   257
 43
1.0
 76
     1
 77
     6
 78
     2
 67
     7
 79
     5
170
     0
171
     0
290
     0
174
     0
 93
       13
 44
0.0
173
     0
291
     1
 45
0.0
1001
ACAD
1000
AcDbSavedByObjectVersion
1070
     0
  0
VISUALSTYLE
  5
193
102
{ACAD_XDICTIONARY
360
1E5
102
}
102
{ACAD_REACTORS
330
182
102
}
330
182
100
AcDbVisualStyle
  2
JitterOff
 70
    20
 71
     2
 72
     2
 73
     0
 90
        0
 40
-0.6
 41
-30.0
 62
     5
 63
     7
 74
     1
 91
        4
 64
     7
 65
   257
 75
     1
175
     1
 42
1.0
 92
       10
 66
     7
 43
1.0
 76
     1
 77
     6
 78
     2
 67
     7
 79
     5
170
     0
171
     0
290
     0
174
     0
 93
        1
 44
0.0
173
     0
291
     1
 45
0.0
1001
ACAD
1000
AcDbSavedByObjectVersion
1070
     0
  0
VISUALSTYLE
  5
190
102
{ACAD_XDICTIONARY
360
1DF
102
}
102
{ACAD_REACTORS
330
182
102
}
330
182
100
AcDbVisualStyle
  2
Linepattern
 70
    14
 71
     2
 72
     2
 73
     0
 90
        0
 40
-0.6
 41
-30.0
 62
     5
 63
     7
 74
     1
 91
        4
 64
     7
 65
   257
 75
     7
175
     7
 42
1.0
 92
        8
 66
     7
 43
1.0
 76
     1
 77
     6
 78
     2
 67
     7
 79
     5
170
     0
171
     0
290
     0
174
     0
 93
        1
 44
0.0
173
     0
291
     1
 45
0.0
1001
ACAD
1000
AcDbSavedByObjectVersion
1070
     0
  0
VISUALSTYLE
  5
194
102
{ACAD_XDICTIONARY
360
1E7
102
}
102
{ACAD_REACTORS
330
182
102
}
330
182
100
AcDbVisualStyle
  2
OverhangOff
 70
    21
 71
     2
 72
     2
 73
     0
 90
        0
 40
-0.6
 41
-30.0
 62
     5
 63
     7
 74
     1
 91
        4
 64
     7
 65
   257
 75
     1
175
     1
 42
1.0
 92
        9
 66
     7
 43
1.0
 76
     1
 77
     6
 78
     2
 67
     7
 79
     5
170
     0
171
     0
290
     0
174
     0
 93
        1
 44
0.0
173
     0
291
     1
 45
0.0
1001
ACAD
1000
AcDbSavedByObjectVersion
1070
     0
  0
VISUALSTYLE
  5
18C
102
{ACAD_XDICTIONARY
360
1D7
102
}
102
{ACAD_REACTORS
330
182
102
}
330
182
100
AcDbVisualStyle
  2
Realistic
 70
     8
 71
     2
 72
     2
 73
     0
 90
        0
 40
-0.6
 41
-30.0
 62
     5
 63
     7
 74
     1
 91
        0
 64
     7
 65
   257
 75
     1
175
     1
 42
1.0
 92
        8
 66
     8
 43
1.0
 76
     1
 77
     6
 78
     2
 67
     7
 79
     5
170
     0
171
     0
290
     0
174
     0
 93
       13
 44
0.0
173
     0
291
     0
 45
0.0
1001
ACAD
1000
AcDbSavedByObjectVersion
1070
     0
  0
VISUALSTYLE
  5
18F
102
{ACAD_XDICTIONARY
360
1DD
102
}
102
{ACAD_REACTORS
330
182
102
}
330
182
100
AcDbVisualStyle
  2
Thicken
 70
    13
 71
     2
 72
     2
 73
     0
 90
        0
 40
-0.6
 41
-30.0
 62
     5
 63
     7
 74
     1
 91
        4
 64
     7
 65
   257
 75
     1
175
     1
 42
1.0
 92
       12
 66
     7
 43
1.0
 76
     1
 77
     6
 78
     2
 67
     7
 79
     5
170
     0
171
     0
290
     0
174
     0
 93
        1
 44
0.0
173
     0
291
     1
 45
0.0
1001
ACAD
1000
AcDbSavedByObjectVersion
1070
     0
  0
DICTIONARYVAR
  5
15A
102
{ACAD_REACTORS
330
159
102
}
330
159
100
DictionaryVariables
280
     0
  1
1:1
  0
DICTIONARYVAR
  5
1B5
102
{ACAD_REACTORS
330
159
102
}
330
159
100
DictionaryVariables
280
     0
  1
STANDARD
  0
DICTIONARYVAR
  5
1B4
102
{ACAD_REACTORS
330
159
102
}
330
159
100
DictionaryVariables
280
     0
  1
STANDARD
  0
DICTIONARYVAR
  5
1B8
102
{ACAD_REACTORS
330
159
102
}
330
159
100
DictionaryVariables
280
     0
  1
1
  0
DICTIONARYVAR
  5
1B7
102
{ACAD_REACTORS
330
159
102
}
330
159
100
DictionaryVariables
280
     0
  1
0
  0
DICTIONARYVAR
  5
1B6
102
{ACAD_REACTORS
330
159
102
}
330
159
100
DictionaryVariables
280
     0
  1
127
  0
DICTIONARYVAR
  5
1B9
102
{ACAD_REACTORS
330
159
102
}
330
159
100
DictionaryVariables
280
     0
  1
2
  0
XRECORD
  5
1B3
102
{ACAD_REACTORS
330
1B1
102
}
330
1B1
100
AcDbXrecord
280
     1
  0
DICTIONARY
  5
1C0
330
21
100
AcDbDictionary
280
     1
281
     1
  3
ACAD_XREC_ROUNDTRIP
360
1C1
  0
DICTIONARY
  5
1BE
330
20
100
AcDbDictionary
280
     1
281
     1
  3
ACAD_XREC_ROUNDTRIP
360
1BF
  0
DICTIONARY
  5
173
330
172
100
AcDbDictionary
280
     1
281
     1
  3
ACAD_XREC_ROUNDTRIP
360
1C3
  3
BUMPTILE
360
175
  3
DIFFUSETILE
360
174
  3
OPACITYTILE
360
178
  3
REFLECTIONTILE
360
177
  3
REFRACTIONTILE
360
179
  3
SPECULARTILE
360
176
  0
DICTIONARY
  5
16B
330
16A
100
AcDbDictionary
280
     1
281
     1
  3
ACAD_XREC_ROUNDTRIP
360
1C2
  3
BUMPTILE
360
16D
  3
DIFFUSETILE
360
16C
  3
OPACITYTILE
360
170
  3
REFLECTIONTILE
360
16F
  3
REFRACTIONTILE
360
171
  3
SPECULARTILE
360
16E
  0
DICTIONARY
  5
17B
330
17A
100
AcDbDictionary
280
     1
281
     1
  3
ACAD_XREC_ROUNDTRIP
360
1C4
  3
BUMPTILE
360
17D
  3
DIFFUSETILE
360
17C
  3
OPACITYTILE
360
180
  3
REFLECTIONTILE
360
17F
  3
REFRACTIONTILE
360
181
  3
SPECULARTILE
360
17E
  0
DICTIONARY
  5
1BA
330
198
100
AcDbDictionary
280
     1
281
     1
  3
ACAD_ROUNDTRIP_2008_TABLESTYLE_CELLSTYLEMAP
360
1BB
  3
ACAD_XREC_ROUNDTRIP
360
1EB
  0
DICTIONARY
  5
1CF
330
188
100
AcDbDictionary
280
     1
281
     1
  3
ACAD_XREC_ROUNDTRIP
360
1D0
  0
DICTIONARY
  5
1D3
330
18A
100
AcDbDictionary
280
     1
281
     1
  3
ACAD_XREC_ROUNDTRIP
360
1D4
  0
DICTIONARY
  5
1D1
330
189
100
AcDbDictionary
280
     1
281
     1
  3
ACAD_XREC_ROUNDTRIP
360
1D2
  0
DICTIONARY
  5
1CD
330
187
100
AcDbDictionary
280
     1
281
     1
  3
ACAD_XREC_ROUNDTRIP
360
1CE
  0
DICTIONARY
  5
1DB
330
18E
100
AcDbDictionary
280
     1
281
     1
  3
ACAD_XREC_ROUNDTRIP
360
1DC
  0
DICTIONARY
  5
1E3
330
192
100
AcDbDictionary
280
     1
281
     1
  3
ACAD_XREC_ROUNDTRIP
360
1E4
  0
DICTIONARY
  5
1D5
330
18B
100
AcDbDictionary
280
     1
281
     1
  3
ACAD_XREC_ROUNDTRIP
360
1D6
  0
DICTIONARY
  5
1D9
330
18D
100
AcDbDictionary
280
     1
281
     1
  3
ACAD_XREC_ROUNDTRIP
360
1DA
  0
DICTIONARY
  5
1E9
330
195
100
AcDbDictionary
280
     1
281
     1
  3
ACAD_XREC_ROUNDTRIP
360
1EA
  0
DICTIONARY
  5
1E1
330
191
100
AcDbDictionary
280
     1
281
     1
  3
ACAD_XREC_ROUNDTRIP
360
1E2
  0
DICTIONARY
  5
1C5
330
183
100
AcDbDictionary
280
     1
281
     1
  3
ACAD_XREC_ROUNDTRIP
360
1C6
  0
DICTIONARY
  5
1C7
330
184
100
AcDbDictionary
280
     1
281
     1
  3
ACAD_XREC_ROUNDTRIP
360
1C8
  0
DICTIONARY
  5
1C9
330
185
100
AcDbDictionary
280
     1
281
     1
  3
ACAD_XREC_ROUNDTRIP
360
1CA
  0
DICTIONARY
  5
1CB
330
186
100
AcDbDictionary
280
     1
281
     1
  3
ACAD_XREC_ROUNDTRIP
360
1CC
  0
DICTIONARY
  5
1E5
330
193
100
AcDbDictionary
280
     1
281
     1
  3
ACAD_XREC_ROUNDTRIP
360
1E6
  0
DICTIONARY
  5
1DF
330
190
100
AcDbDictionary
280
     1
281
     1
  3
ACAD_XREC_ROUNDTRIP
360
1E0
  0
DICTIONARY
  5
1E7
330
194
100
AcDbDictionary
280
     1
281
     1
  3
ACAD_XREC_ROUNDTRIP
360
1E8
  0
DICTIONARY
  5
1D7
330
18C
100
AcDbDictionary
280
     1
281
     1
  3
ACAD_XREC_ROUNDTRIP
360
1D8
  0
DICTIONARY
  5
1DD
330
18F
100
AcDbDictionary
280
     1
281
     1
  3
ACAD_XREC_ROUNDTRIP
360
1DE
  0
XRECORD
  5
1C1
102
{ACAD_REACTORS
330
1C0
102
}
330
1C0
100
AcDbXrecord
280
     1
102
SHADEPLOT
 70
     0
102
SHADEPLOTRESLEVEL
 70
     2
102
SHADEPLOTCUSTOMDPI
 70
   300
  0
XRECORD
  5
1BF
102
{ACAD_REACTORS
330
1BE
102
}
330
1BE
100
AcDbXrecord
280
     1
102
SHADEPLOT
 70
     0
102
SHADEPLOTRESLEVEL
 70
     2
102
SHADEPLOTCUSTOMDPI
 70
   300
  0
XRECORD
  5
1C3
102
{ACAD_REACTORS
330
173
102
}
330
173
100
AcDbXrecord
280
     1
102
MATERIAL
148
0.0
149
0.0
149
0.0
 93
        0
 94
      127
282
     0
 72
     0
 77
     0
171
     0
175
     0
179
     0
273
     0
  0
XRECORD
  5
175
102
{ACAD_REACTORS
330
173
102
}
330
173
100
AcDbXrecord
280
     1
270
     1
271
     1
  0
XRECORD
  5
174
102
{ACAD_REACTORS
330
173
102
}
330
173
100
AcDbXrecord
280
     1
270
     1
271
     1
  0
XRECORD
  5
178
102
{ACAD_REACTORS
330
173
102
}
330
173
100
AcDbXrecord
280
     1
270
     1
271
     1
  0
XRECORD
  5
177
102
{ACAD_REACTORS
330
173
102
}
330
173
100
AcDbXrecord
280
     1
270
     1
271
     1
  0
XRECORD
  5
179
102
{ACAD_REACTORS
330
173
102
}
330
173
100
AcDbXrecord
280
     1
270
     1
271
     1
  0
XRECORD
  5
176
102
{ACAD_REACTORS
330
173
102
}
330
173
100
AcDbXrecord
280
     1
270
     1
271
     1
  0
XRECORD
  5
1C2
102
{ACAD_REACTORS
330
16B
102
}
330
16B
100
AcDbXrecord
280
     1
102
MATERIAL
148
0.0
149
0.0
149
0.0
 93
        0
 94
      127
282
     0
 72
     0
 77
     0
171
     0
175
     0
179
     0
273
     0
  0
XRECORD
  5
16D
102
{ACAD_REACTORS
330
16B
102
}
330
16B
100
AcDbXrecord
280
     1
270
     1
271
     1
  0
XRECORD
  5
16C
102
{ACAD_REACTORS
330
16B
102
}
330
16B
100
AcDbXrecord
280
     1
270
     1
271
     1
  0
XRECORD
  5
170
102
{ACAD_REACTORS
330
16B
102
}
330
16B
100
AcDbXrecord
280
     1
270
     1
271
     1
  0
XRECORD
  5
16F
102
{ACAD_REACTORS
330
16B
102
}
330
16B
100
AcDbXrecord
280
     1
270
     1
271
     1
  0
XRECORD
  5
171
102
{ACAD_REACTORS
330
16B
102
}
330
16B
100
AcDbXrecord
280
     1
270
     1
271
     1
  0
XRECORD
  5
16E
102
{ACAD_REACTORS
330
16B
102
}
330
16B
100
AcDbXrecord
280
     1
270
     1
271
     1
  0
XRECORD
  5
1C4
102
{ACAD_REACTORS
330
17B
102
}
330
17B
100
AcDbXrecord
280
     1
102
MATERIAL
148
0.0
149
0.0
149
0.0
 93
        0
 94
      127
282
     0
 72
     0
 77
     0
171
     0
175
     0
179
     0
273
     0
  0
XRECORD
  5
17D
102
{ACAD_REACTORS
330
17B
102
}
330
17B
100
AcDbXrecord
280
     1
270
     1
271
     1
  0
XRECORD
  5
17C
102
{ACAD_REACTORS
330
17B
102
}
330
17B
100
AcDbXrecord
280
     1
270
     1
271
     1
  0
XRECORD
  5
180
102
{ACAD_REACTORS
330
17B
102
}
330
17B
100
AcDbXrecord
280
     1
270
     1
271
     1
  0
XRECORD
  5
17F
102
{ACAD_REACTORS
330
17B
102
}
330
17B
100
AcDbXrecord
280
     1
270
     1
271
     1
  0
XRECORD
  5
181
102
{ACAD_REACTORS
330
17B
102
}
330
17B
100
AcDbXrecord
280
     1
270
     1
271
     1
  0
XRECORD
  5
17E
102
{ACAD_REACTORS
330
17B
102
}
330
17B
100
AcDbXrecord
280
     1
270
     1
271
     1
  0
CELLSTYLEMAP
  5
1BB
102
{ACAD_REACTORS
330
1BA
102
}
330
1BA
100
AcDbCellStyleMap
 90
        3
300
CELLSTYLE
  1
TABLEFORMAT_BEGIN
 90
        5
170
     1
 91
        0
 92
    32768
 62
   257
 93
        1
300
CONTENTFORMAT
  1
CONTENTFORMAT_BEGIN
 90
        0
 91
        0
 92
      512
 93
        0
300

 40
0.0
140
1.0
 94
        5
 62
     0
340
17
144
6.0
309
CONTENTFORMAT_END
171
     1
301
MARGIN
  1
CELLMARGIN_BEGIN
 40
1.5
 40
1.5
 40
1.5
 40
1.5
 40
4.5
 40
4.5
309
CELLMARGIN_END
 94
        6
 95
        1
302
GRIDFORMAT
  1
GRIDFORMAT_BEGIN
 90
        0
 91
        1
 62
     0
 92
       -2
340
0
 93
        0
 40
1.125
309
GRIDFORMAT_END
 95
        2
302
GRIDFORMAT
  1
GRIDFORMAT_BEGIN
 90
        0
 91
        1
 62
     0
 92
       -2
340
0
 93
        0
 40
1.125
309
GRIDFORMAT_END
 95
        4
302
GRIDFORMAT
  1
GRIDFORMAT_BEGIN
 90
        0
 91
        1
 62
     0
 92
       -2
340
0
 93
        0
 40
1.125
309
GRIDFORMAT_END
 95
        8
302
GRIDFORMAT
  1
GRIDFORMAT_BEGIN
 90
        0
 91
        1
 62
     0
 92
       -2
340
0
 93
        0
 40
1.125
309
GRIDFORMAT_END
 95
       16
302
GRIDFORMAT
  1
GRIDFORMAT_BEGIN
 90
        0
 91
        1
 62
     0
 92
       -2
340
0
 93
        0
 40
1.125
309
GRIDFORMAT_END
 95
       32
302
GRIDFORMAT
  1
GRIDFORMAT_BEGIN
 90
        0
 91
        1
 62
     0
 92
       -2
340
0
 93
        0
 40
1.125
309
GRIDFORMAT_END
309
TABLEFORMAT_END
  1
CELLSTYLE_BEGIN
 90
        1
 91
        1
300
_TITLE
309
CELLSTYLE_END
300
CELLSTYLE
  1
TABLEFORMAT_BEGIN
 90
        5
170
     1
 91
        0
 92
        0
 62
   257
 93
        1
300
CONTENTFORMAT
  1
CONTENTFORMAT_BEGIN
 90
        0
 91
        0
 92
      512
 93
        0
300

 40
0.0
140
1.0
 94
        5
 62
     0
340
17
144
4.5
309
CONTENTFORMAT_END
171
     1
301
MARGIN
  1
CELLMARGIN_BEGIN
 40
1.5
 40
1.5
 40
1.5
 40
1.5
 40
4.5
 40
4.5
309
CELLMARGIN_END
 94
        6
 95
        1
302
GRIDFORMAT
  1
GRIDFORMAT_BEGIN
 90
        0
 91
        1
 62
     0
 92
       -2
340
0
 93
        0
 40
1.125
309
GRIDFORMAT_END
 95
        2
302
GRIDFORMAT
  1
GRIDFORMAT_BEGIN
 90
        0
 91
        1
 62
     0
 92
       -2
340
0
 93
        0
 40
1.125
309
GRIDFORMAT_END
 95
        4
302
GRIDFORMAT
  1
GRIDFORMAT_BEGIN
 90
        0
 91
        1
 62
     0
 92
       -2
340
0
 93
        0
 40
1.125
309
GRIDFORMAT_END
 95
        8
302
GRIDFORMAT
  1
GRIDFORMAT_BEGIN
 90
        0
 91
        1
 62
     0
 92
       -2
340
0
 93
        0
 40
1.125
309
GRIDFORMAT_END
 95
       16
302
GRIDFORMAT
  1
GRIDFORMAT_BEGIN
 90
        0
 91
        1
 62
     0
 92
       -2
340
0
 93
        0
 40
1.125
309
GRIDFORMAT_END
 95
       32
302
GRIDFORMAT
  1
GRIDFORMAT_BEGIN
 90
        0
 91
        1
 62
     0
 92
       -2
340
0
 93
        0
 40
1.125
309
GRIDFORMAT_END
309
TABLEFORMAT_END
  1
CELLSTYLE_BEGIN
 90
        2
 91
        1
300
_HEADER
309
CELLSTYLE_END
300
CELLSTYLE
  1
TABLEFORMAT_BEGIN
 90
        5
170
     1
 91
        0
 92
        0
 62
   257
 93
        1
300
CONTENTFORMAT
  1
CONTENTFORMAT_BEGIN
 90
        0
 91
        0
 92
      512
 93
        0
300

 40
0.0
140
1.0
 94
        2
 62
     0
340
17
144
4.5
309
CONTENTFORMAT_END
171
     1
301
MARGIN
  1
CELLMARGIN_BEGIN
 40
1.5
 40
1.5
 40
1.5
 40
1.5
 40
4.5
 40
4.5
309
CELLMARGIN_END
 94
        6
 95
        1
302
GRIDFORMAT
  1
GRIDFORMAT_BEGIN
 90
        0
 91
        1
 62
     0
 92
       -2
340
0
 93
        0
 40
1.125
309
GRIDFORMAT_END
 95
        2
302
GRIDFORMAT
  1
GRIDFORMAT_BEGIN
 90
        0
 91
        1
 62
     0
 92
       -2
340
0
 93
        0
 40
1.125
309
GRIDFORMAT_END
 95
        4
302
GRIDFORMAT
  1
GRIDFORMAT_BEGIN
 90
        0
 91
        1
 62
     0
 92
       -2
340
0
 93
        0
 40
1.125
309
GRIDFORMAT_END
 95
        8
302
GRIDFORMAT
  1
GRIDFORMAT_BEGIN
 90
        0
 91
        1
 62
     0
 92
       -2
340
0
 93
        0
 40
1.125
309
GRIDFORMAT_END
 95
       16
302
GRIDFORMAT
  1
GRIDFORMAT_BEGIN
 90
        0
 91
        1
 62
     0
 92
       -2
340
0
 93
        0
 40
1.125
309
GRIDFORMAT_END
 95
       32
302
GRIDFORMAT
  1
GRIDFORMAT_BEGIN
 90
        0
 91
        1
 62
     0
 92
       -2
340
0
 93
        0
 40
1.125
309
GRIDFORMAT_END
309
TABLEFORMAT_END
  1
CELLSTYLE_BEGIN
 90
        3
 91
        2
300
_DATA
309
CELLSTYLE_END
  0
XRECORD
  5
1EB
102
{ACAD_REACTORS
330
1BA
102
}
330
1BA
100
AcDbXrecord
280
     1
102
ACAD_ROUNDTRIP_PRE2007_TABLESTYLE
 90
      512
 91
        0
  1

 92
      512
 93
        0
  2

 94
      512
 95
        0
  3

  0
XRECORD
  5
1D0
102
{ACAD_REACTORS
330
1CF
102
}
330
1CF
100
AcDbXrecord
280
     1
102
RTVSPropertyOp0
 70
     1
102
RTVSPropertyOp1
 70
     1
102
RTVSPropertyOp2
 70
     1
102
RTVSPropertyOp3
 70
     1
102
RTVSPropertyOp4
 70
     1
102
RTVSPropertyOp5
 70
     1
102
RTVSPropertyOp6
 70
     1
102
RTVSPropertyOp7
 70
     1
102
RTVSPropertyOp8
 70
     1
102
RTVSPropertyOp9
 70
     1
102
RTVSPropertyOp10
 70
     1
102
RTVSPropertyOp11
 70
     1
102
RTVSPropertyOp12
 70
     1
102
RTVSPropertyOp13
 70
     1
102
RTVSPropertyOp14
 70
     1
102
RTVSPropertyOp15
 70
     1
102
RTVSPropertyOp16
 70
     1
102
RTVSPropertyOp17
 70
     1
102
RTVSPropertyOp18
 70
     1
102
RTVSPropertyOp19
 70
     1
102
RTVSPropertyOp20
 70
     1
102
RTVSPropertyOp21
 70
     1
102
RTVSPropertyOp22
 70
     1
102
RTVSPropertyOp23
 70
     1
102
RTVSPropertyOp24
 70
     1
102
RTVSPropertyOp25
 70
     1
102
RTVSPropertyOp26
 70
     1
102
RTVSPropertyOp27
 70
     1
  0
XRECORD
  5
1D4
102
{ACAD_REACTORS
330
1D3
102
}
330
1D3
100
AcDbXrecord
280
     1
102
RTVSPropertyOp0
 70
     1
102
RTVSPropertyOp1
 70
     1
102
RTVSPropertyOp2
 70
     1
102
RTVSPropertyOp3
 70
     1
102
RTVSPropertyOp4
 70
     1
102
RTVSPropertyOp5
 70
     1
102
RTVSPropertyOp6
 70
     1
102
RTVSPropertyOp7
 70
     1
102
RTVSPropertyOp8
 70
     1
102
RTVSPropertyOp9
 70
     1
102
RTVSPropertyOp10
 70
     1
102
RTVSPropertyOp11
 70
     1
102
RTVSPropertyOp12
 70
     1
102
RTVSPropertyOp13
 70
     1
102
RTVSPropertyOp14
 70
     1
102
RTVSPropertyOp15
 70
     1
102
RTVSPropertyOp16
 70
     1
102
RTVSPropertyOp17
 70
     1
102
RTVSPropertyOp18
 70
     1
102
RTVSPropertyOp19
 70
     1
102
RTVSPropertyOp20
 70
     1
102
RTVSPropertyOp21
 70
     1
102
RTVSPropertyOp22
 70
     1
102
RTVSPropertyOp23
 70
     1
102
RTVSPropertyOp24
 70
     1
102
RTVSPropertyOp25
 70
     1
102
RTVSPropertyOp26
 70
     1
102
RTVSPropertyOp27
 70
     1
  0
XRECORD
  5
1D2
102
{ACAD_REACTORS
330
1D1
102
}
330
1D1
100
AcDbXrecord
280
     1
102
RTVSPropertyOp0
 70
     1
102
RTVSPropertyOp1
 70
     1
102
RTVSPropertyOp2
 70
     1
102
RTVSPropertyOp3
 70
     1
102
RTVSPropertyOp4
 70
     1
102
RTVSPropertyOp5
 70
     1
102
RTVSPropertyOp6
 70
     1
102
RTVSPropertyOp7
 70
     1
102
RTVSPropertyOp8
 70
     1
102
RTVSPropertyOp9
 70
     1
102
RTVSPropertyOp10
 70
     1
102
RTVSPropertyOp11
 70
     1
102
RTVSPropertyOp12
 70
     1
102
RTVSPropertyOp13
 70
     1
102
RTVSPropertyOp14
 70
     1
102
RTVSPropertyOp15
 70
     1
102
RTVSPropertyOp16
 70
     1
102
RTVSPropertyOp17
 70
     1
102
RTVSPropertyOp18
 70
     1
102
RTVSPropertyOp19
 70
     1
102
RTVSPropertyOp20
 70
     1
102
RTVSPropertyOp21
 70
     1
102
RTVSPropertyOp22
 70
     1
102
RTVSPropertyOp23
 70
     1
102
RTVSPropertyOp24
 70
     1
102
RTVSPropertyOp25
 70
     1
102
RTVSPropertyOp26
 70
     1
102
RTVSPropertyOp27
 70
     1
  0
XRECORD
  5
1CE
102
{ACAD_REACTORS
330
1CD
102
}
330
1CD
100
AcDbXrecord
280
     1
102
RTVSPropertyOp0
 70
     1
102
RTVSPropertyOp1
 70
     1
102
RTVSPropertyOp2
 70
     1
102
RTVSPropertyOp3
 70
     1
102
RTVSPropertyOp4
 70
     1
102
RTVSPropertyOp5
 70
     1
102
RTVSPropertyOp6
 70
     1
102
RTVSPropertyOp7
 70
     1
102
RTVSPropertyOp8
 70
     1
102
RTVSPropertyOp9
 70
     1
102
RTVSPropertyOp10
 70
     1
102
RTVSPropertyOp11
 70
     1
102
RTVSPropertyOp12
 70
     1
102
RTVSPropertyOp13
 70
     1
102
RTVSPropertyOp14
 70
     1
102
RTVSPropertyOp15
 70
     1
102
RTVSPropertyOp16
 70
     1
102
RTVSPropertyOp17
 70
     1
102
RTVSPropertyOp18
 70
     1
102
RTVSPropertyOp19
 70
     1
102
RTVSPropertyOp20
 70
     1
102
RTVSPropertyOp21
 70
     1
102
RTVSPropertyOp22
 70
     1
102
RTVSPropertyOp23
 70
     1
102
RTVSPropertyOp24
 70
     1
102
RTVSPropertyOp25
 70
     1
102
RTVSPropertyOp26
 70
     1
102
RTVSPropertyOp27
 70
     1
  0
XRECORD
  5
1DC
102
{ACAD_REACTORS
330
1DB
102
}
330
1DB
100
AcDbXrecord
280
     1
102
RTVSPropertyOp0
 70
     1
102
RTVSPropertyOp1
 70
     1
102
RTVSPropertyOp2
 70
     1
102
RTVSPropertyOp3
 70
     1
102
RTVSPropertyOp4
 70
     1
102
RTVSPropertyOp5
 70
     1
102
RTVSPropertyOp6
 70
     1
102
RTVSPropertyOp7
 70
     1
102
RTVSPropertyOp8
 70
     1
102
RTVSPropertyOp9
 70
     1
102
RTVSPropertyOp10
 70
     1
102
RTVSPropertyOp11
 70
     1
102
RTVSPropertyOp12
 70
     1
102
RTVSPropertyOp13
 70
     1
102
RTVSPropertyOp14
 70
     1
102
RTVSPropertyOp15
 70
     1
102
RTVSPropertyOp16
 70
     1
102
RTVSPropertyOp17
 70
     1
102
RTVSPropertyOp18
 70
     1
102
RTVSPropertyOp19
 70
     1
102
RTVSPropertyOp20
 70
     1
102
RTVSPropertyOp21
 70
     1
102
RTVSPropertyOp22
 70
     1
102
RTVSPropertyOp23
 70
     1
102
RTVSPropertyOp24
 70
     1
102
RTVSPropertyOp25
 70
     1
102
RTVSPropertyOp26
 70
     1
102
RTVSPropertyOp27
 70
     1
  0
XRECORD
  5
1E4
102
{ACAD_REACTORS
330
1E3
102
}
330
1E3
100
AcDbXrecord
280
     1
102
RTVSPropertyOp0
 70
     1
102
RTVSPropertyOp1
 70
     1
102
RTVSPropertyOp2
 70
     1
102
RTVSPropertyOp3
 70
     1
102
RTVSPropertyOp4
 70
     1
102
RTVSPropertyOp5
 70
     1
102
RTVSPropertyOp6
 70
     1
102
RTVSPropertyOp7
 70
     1
102
RTVSPropertyOp8
 70
     1
102
RTVSPropertyOp9
 70
     1
102
RTVSPropertyOp10
 70
     1
102
RTVSPropertyOp11
 70
     1
102
RTVSPropertyOp12
 70
     1
102
RTVSPropertyOp13
 70
     1
102
RTVSPropertyOp14
 70
     1
102
RTVSPropertyOp15
 70
     1
102
RTVSPropertyOp16
 70
     1
102
RTVSPropertyOp17
 70
     1
102
RTVSPropertyOp18
 70
     1
102
RTVSPropertyOp19
 70
     1
102
RTVSPropertyOp20
 70
     1
102
RTVSPropertyOp21
 70
     1
102
RTVSPropertyOp22
 70
     1
102
RTVSPropertyOp23
 70
     1
102
RTVSPropertyOp24
 70
     1
102
RTVSPropertyOp25
 70
     1
102
RTVSPropertyOp26
 70
     1
102
RTVSPropertyOp27
 70
     1
  0
XRECORD
  5
1D6
102
{ACAD_REACTORS
330
1D5
102
}
330
1D5
100
AcDbXrecord
280
     1
102
RTVSPropertyOp0
 70
     1
102
RTVSPropertyOp1
 70
     1
102
RTVSPropertyOp2
 70
     1
102
RTVSPropertyOp3
 70
     1
102
RTVSPropertyOp4
 70
     1
102
RTVSPropertyOp5
 70
     1
102
RTVSPropertyOp6
 70
     1
102
RTVSPropertyOp7
 70
     1
102
RTVSPropertyOp8
 70
     1
102
RTVSPropertyOp9
 70
     1
102
RTVSPropertyOp10
 70
     1
102
RTVSPropertyOp11
 70
     1
102
RTVSPropertyOp12
 70
     1
102
RTVSPropertyOp13
 70
     1
102
RTVSPropertyOp14
 70
     1
102
RTVSPropertyOp15
 70
     1
102
RTVSPropertyOp16
 70
     1
102
RTVSPropertyOp17
 70
     1
102
RTVSPropertyOp18
 70
     1
102
RTVSPropertyOp19
 70
     1
102
RTVSPropertyOp20
 70
     1
102
RTVSPropertyOp21
 70
     1
102
RTVSPropertyOp22
 70
     1
102
RTVSPropertyOp23
 70
     1
102
RTVSPropertyOp24
 70
     1
102
RTVSPropertyOp25
 70
     1
102
RTVSPropertyOp26
 70
     1
102
RTVSPropertyOp27
 70
     1
  0
XRECORD
  5
1DA
102
{ACAD_REACTORS
330
1D9
102
}
330
1D9
100
AcDbXrecord
280
     1
102
RTVSPropertyOp0
 70
     1
102
RTVSPropertyOp1
 70
     1
102
RTVSPropertyOp2
 70
     1
102
RTVSPropertyOp3
 70
     1
102
RTVSPropertyOp4
 70
     1
102
RTVSPropertyOp5
 70
     1
102
RTVSPropertyOp6
 70
     1
102
RTVSPropertyOp7
 70
     1
102
RTVSPropertyOp8
 70
     1
102
RTVSPropertyOp9
 70
     1
102
RTVSPropertyOp10
 70
     1
102
RTVSPropertyOp11
 70
     1
102
RTVSPropertyOp12
 70
     1
102
RTVSPropertyOp13
 70
     1
102
RTVSPropertyOp14
 70
     1
102
RTVSPropertyOp15
 70
     1
102
RTVSPropertyOp16
 70
     1
102
RTVSPropertyOp17
 70
     1
102
RTVSPropertyOp18
 70
     1
102
RTVSPropertyOp19
 70
     1
102
RTVSPropertyOp20
 70
     1
102
RTVSPropertyOp21
 70
     1
102
RTVSPropertyOp22
 70
     1
102
RTVSPropertyOp23
 70
     1
102
RTVSPropertyOp24
 70
     1
102
RTVSPropertyOp25
 70
     1
102
RTVSPropertyOp26
 70
     1
102
RTVSPropertyOp27
 70
     1
  0
XRECORD
  5
1EA
102
{ACAD_REACTORS
330
1E9
102
}
330
1E9
100
AcDbXrecord
280
     1
102
RTVSPropertyOp0
 70
     0
102
RTVSPropertyOp1
 70
     0
102
RTVSPropertyOp2
 70
     0
102
RTVSPropertyOp3
 70
     0
102
RTVSPropertyOp4
 70
     0
102
RTVSPropertyOp5
 70
     0
102
RTVSPropertyOp6
 70
     0
102
RTVSPropertyOp7
 70
     0
102
RTVSPropertyOp8
 70
     0
102
RTVSPropertyOp9
 70
     0
102
RTVSPropertyOp10
 70
     0
102
RTVSPropertyOp11
 70
     0
102
RTVSPropertyOp12
 70
     0
102
RTVSPropertyOp13
 70
     0
102
RTVSPropertyOp14
 70
     2
102
RTVSPropertyOp15
 70
     0
102
RTVSPropertyOp16
 70
     0
102
RTVSPropertyOp17
 70
     0
102
RTVSPropertyOp18
 70
     0
102
RTVSPropertyOp19
 70
     0
102
RTVSPropertyOp20
 70
     0
102
RTVSPropertyOp21
 70
     0
102
RTVSPropertyOp22
 70
     0
102
RTVSPropertyOp23
 70
     0
102
RTVSPropertyOp24
 70
     0
102
RTVSPropertyOp25
 70
     0
102
RTVSPropertyOp26
 70
     0
102
RTVSPropertyOp27
 70
     0
  0
XRECORD
  5
1E2
102
{ACAD_REACTORS
330
1E1
102
}
330
1E1
100
AcDbXrecord
280
     1
102
RTVSPropertyOp0
 70
     1
102
RTVSPropertyOp1
 70
     1
102
RTVSPropertyOp2
 70
     1
102
RTVSPropertyOp3
 70
     1
102
RTVSPropertyOp4
 70
     1
102
RTVSPropertyOp5
 70
     1
102
RTVSPropertyOp6
 70
     1
102
RTVSPropertyOp7
 70
     1
102
RTVSPropertyOp8
 70
     1
102
RTVSPropertyOp9
 70
     1
102
RTVSPropertyOp10
 70
     1
102
RTVSPropertyOp11
 70
     1
102
RTVSPropertyOp12
 70
     1
102
RTVSPropertyOp13
 70
     1
102
RTVSPropertyOp14
 70
     1
102
RTVSPropertyOp15
 70
     1
102
RTVSPropertyOp16
 70
     1
102
RTVSPropertyOp17
 70
     1
102
RTVSPropertyOp18
 70
     1
102
RTVSPropertyOp19
 70
     1
102
RTVSPropertyOp20
 70
     1
102
RTVSPropertyOp21
 70
     1
102
RTVSPropertyOp22
 70
     1
102
RTVSPropertyOp23
 70
     1
102
RTVSPropertyOp24
 70
     1
102
RTVSPropertyOp25
 70
     1
102
RTVSPropertyOp26
 70
     1
102
RTVSPropertyOp27
 70
     1
  0
XRECORD
  5
1C6
102
{ACAD_REACTORS
330
1C5
102
}
330
1C5
100
AcDbXrecord
280
     1
102
RTVSPropertyOp0
 70
     1
102
RTVSPropertyOp1
 70
     1
102
RTVSPropertyOp2
 70
     1
102
RTVSPropertyOp3
 70
     1
102
RTVSPropertyOp4
 70
     1
102
RTVSPropertyOp5
 70
     1
102
RTVSPropertyOp6
 70
     1
102
RTVSPropertyOp7
 70
     1
102
RTVSPropertyOp8
 70
     1
102
RTVSPropertyOp9
 70
     1
102
RTVSPropertyOp10
 70
     1
102
RTVSPropertyOp11
 70
     1
102
RTVSPropertyOp12
 70
     1
102
RTVSPropertyOp13
 70
     1
102
RTVSPropertyOp14
 70
     1
102
RTVSPropertyOp15
 70
     1
102
RTVSPropertyOp16
 70
     1
102
RTVSPropertyOp17
 70
     1
102
RTVSPropertyOp18
 70
     1
102
RTVSPropertyOp19
 70
     1
102
RTVSPropertyOp20
 70
     1
102
RTVSPropertyOp21
 70
     1
102
RTVSPropertyOp22
 70
     1
102
RTVSPropertyOp23
 70
     1
102
RTVSPropertyOp24
 70
     1
102
RTVSPropertyOp25
 70
     1
102
RTVSPropertyOp26
 70
     1
102
RTVSPropertyOp27
 70
     1
  0
XRECORD
  5
1C8
102
{ACAD_REACTORS
330
1C7
102
}
330
1C7
100
AcDbXrecord
280
     1
102
RTVSPropertyOp0
 70
     1
102
RTVSPropertyOp1
 70
     1
102
RTVSPropertyOp2
 70
     1
102
RTVSPropertyOp3
 70
     1
102
RTVSPropertyOp4
 70
     1
102
RTVSPropertyOp5
 70
     1
102
RTVSPropertyOp6
 70
     1
102
RTVSPropertyOp7
 70
     1
102
RTVSPropertyOp8
 70
     1
102
RTVSPropertyOp9
 70
     1
102
RTVSPropertyOp10
 70
     1
102
RTVSPropertyOp11
 70
     1
102
RTVSPropertyOp12
 70
     1
102
RTVSPropertyOp13
 70
     1
102
RTVSPropertyOp14
 70
     1
102
RTVSPropertyOp15
 70
     1
102
RTVSPropertyOp16
 70
     1
102
RTVSPropertyOp17
 70
     1
102
RTVSPropertyOp18
 70
     1
102
RTVSPropertyOp19
 70
     1
102
RTVSPropertyOp20
 70
     1
102
RTVSPropertyOp21
 70
     1
102
RTVSPropertyOp22
 70
     1
102
RTVSPropertyOp23
 70
     1
102
RTVSPropertyOp24
 70
     1
102
RTVSPropertyOp25
 70
     1
102
RTVSPropertyOp26
 70
     1
102
RTVSPropertyOp27
 70
     1
  0
XRECORD
  5
1CA
102
{ACAD_REACTORS
330
1C9
102
}
330
1C9
100
AcDbXrecord
280
     1
102
RTVSPropertyOp0
 70
     1
102
RTVSPropertyOp1
 70
     1
102
RTVSPropertyOp2
 70
     1
102
RTVSPropertyOp3
 70
     1
102
RTVSPropertyOp4
 70
     1
102
RTVSPropertyOp5
 70
     1
102
RTVSPropertyOp6
 70
     1
102
RTVSPropertyOp7
 70
     1
102
RTVSPropertyOp8
 70
     1
102
RTVSPropertyOp9
 70
     1
102
RTVSPropertyOp10
 70
     1
102
RTVSPropertyOp11
 70
     1
102
RTVSPropertyOp12
 70
     1
102
RTVSPropertyOp13
 70
     1
102
RTVSPropertyOp14
 70
     1
102
RTVSPropertyOp15
 70
     1
102
RTVSPropertyOp16
 70
     1
102
RTVSPropertyOp17
 70
     1
102
RTVSPropertyOp18
 70
     1
102
RTVSPropertyOp19
 70
     1
102
RTVSPropertyOp20
 70
     1
102
RTVSPropertyOp21
 70
     1
102
RTVSPropertyOp22
 70
     1
102
RTVSPropertyOp23
 70
     1
102
RTVSPropertyOp24
 70
     1
102
RTVSPropertyOp25
 70
     1
102
RTVSPropertyOp26
 70
     1
102
RTVSPropertyOp27
 70
     1
  0
XRECORD
  5
1CC
102
{ACAD_REACTORS
330
1CB
102
}
330
1CB
100
AcDbXrecord
280
     1
102
RTVSPropertyOp0
 70
     1
102
RTVSPropertyOp1
 70
     1
102
RTVSPropertyOp2
 70
     1
102
RTVSPropertyOp3
 70
     1
102
RTVSPropertyOp4
 70
     1
102
RTVSPropertyOp5
 70
     1
102
RTVSPropertyOp6
 70
     1
102
RTVSPropertyOp7
 70
     1
102
RTVSPropertyOp8
 70
     1
102
RTVSPropertyOp9
 70
     1
102
RTVSPropertyOp10
 70
     1
102
RTVSPropertyOp11
 70
     1
102
RTVSPropertyOp12
 70
     1
102
RTVSPropertyOp13
 70
     1
102
RTVSPropertyOp14
 70
     1
102
RTVSPropertyOp15
 70
     1
102
RTVSPropertyOp16
 70
     1
102
RTVSPropertyOp17
 70
     1
102
RTVSPropertyOp18
 70
     1
102
RTVSPropertyOp19
 70
     1
102
RTVSPropertyOp20
 70
     1
102
RTVSPropertyOp21
 70
     1
102
RTVSPropertyOp22
 70
     1
102
RTVSPropertyOp23
 70
     1
102
RTVSPropertyOp24
 70
     1
102
RTVSPropertyOp25
 70
     1
102
RTVSPropertyOp26
 70
     1
102
RTVSPropertyOp27
 70
     1
  0
XRECORD
  5
1E6
102
{ACAD_REACTORS
330
1E5
102
}
330
1E5
100
AcDbXrecord
280
     1
102
RTVSPropertyOp0
 70
     0
102
RTVSPropertyOp1
 70
     0
102
RTVSPropertyOp2
 70
     0
102
RTVSPropertyOp3
 70
     0
102
RTVSPropertyOp4
 70
     0
102
RTVSPropertyOp5
 70
     0
102
RTVSPropertyOp6
 70
     0
102
RTVSPropertyOp7
 70
     0
102
RTVSPropertyOp8
 70
     0
102
RTVSPropertyOp9
 70
     0
102
RTVSPropertyOp10
 70
     0
102
RTVSPropertyOp11
 70
     0
102
RTVSPropertyOp12
 70
     0
102
RTVSPropertyOp13
 70
     0
102
RTVSPropertyOp14
 70
     2
102
RTVSPropertyOp15
 70
     0
102
RTVSPropertyOp16
 70
     0
102
RTVSPropertyOp17
 70
     0
102
RTVSPropertyOp18
 70
     0
102
RTVSPropertyOp19
 70
     0
102
RTVSPropertyOp20
 70
     0
102
RTVSPropertyOp21
 70
     0
102
RTVSPropertyOp22
 70
     0
102
RTVSPropertyOp23
 70
     0
102
RTVSPropertyOp24
 70
     0
102
RTVSPropertyOp25
 70
     0
102
RTVSPropertyOp26
 70
     0
102
RTVSPropertyOp27
 70
     0
  0
XRECORD
  5
1E0
102
{ACAD_REACTORS
330
1DF
102
}
330
1DF
100
AcDbXrecord
280
     1
102
RTVSPropertyOp0
 70
     1
102
RTVSPropertyOp1
 70
     1
102
RTVSPropertyOp2
 70
     1
102
RTVSPropertyOp3
 70
     1
102
RTVSPropertyOp4
 70
     1
102
RTVSPropertyOp5
 70
     1
102
RTVSPropertyOp6
 70
     1
102
RTVSPropertyOp7
 70
     1
102
RTVSPropertyOp8
 70
     1
102
RTVSPropertyOp9
 70
     1
102
RTVSPropertyOp10
 70
     1
102
RTVSPropertyOp11
 70
     1
102
RTVSPropertyOp12
 70
     1
102
RTVSPropertyOp13
 70
     1
102
RTVSPropertyOp14
 70
     1
102
RTVSPropertyOp15
 70
     1
102
RTVSPropertyOp16
 70
     1
102
RTVSPropertyOp17
 70
     1
102
RTVSPropertyOp18
 70
     1
102
RTVSPropertyOp19
 70
     1
102
RTVSPropertyOp20
 70
     1
102
RTVSPropertyOp21
 70
     1
102
RTVSPropertyOp22
 70
     1
102
RTVSPropertyOp23
 70
     1
102
RTVSPropertyOp24
 70
     1
102
RTVSPropertyOp25
 70
     1
102
RTVSPropertyOp26
 70
     1
102
RTVSPropertyOp27
 70
     1
  0
XRECORD
  5
1E8
102
{ACAD_REACTORS
330
1E7
102
}
330
1E7
100
AcDbXrecord
280
     1
102
RTVSPropertyOp0
 70
     0
102
RTVSPropertyOp1
 70
     0
102
RTVSPropertyOp2
 70
     0
102
RTVSPropertyOp3
 70
     0
102
RTVSPropertyOp4
 70
     0
102
RTVSPropertyOp5
 70
     0
102
RTVSPropertyOp6
 70
     0
102
RTVSPropertyOp7
 70
     0
102
RTVSPropertyOp8
 70
     0
102
RTVSPropertyOp9
 70
     0
102
RTVSPropertyOp10
 70
     0
102
RTVSPropertyOp11
 70
     0
102
RTVSPropertyOp12
 70
     0
102
RTVSPropertyOp13
 70
     0
102
RTVSPropertyOp14
 70
     2
102
RTVSPropertyOp15
 70
     0
102
RTVSPropertyOp16
 70
     0
102
RTVSPropertyOp17
 70
     0
102
RTVSPropertyOp18
 70
     0
102
RTVSPropertyOp19
 70
     0
102
RTVSPropertyOp20
 70
     0
102
RTVSPropertyOp21
 70
     0
102
RTVSPropertyOp22
 70
     0
102
RTVSPropertyOp23
 70
     0
102
RTVSPropertyOp24
 70
     0
102
RTVSPropertyOp25
 70
     0
102
RTVSPropertyOp26
 70
     0
102
RTVSPropertyOp27
 70
     0
  0
XRECORD
  5
1D8
102
{ACAD_REACTORS
330
1D7
102
}
330
1D7
100
AcDbXrecord
280
     1
102
RTVSPropertyOp0
 70
     1
102
RTVSPropertyOp1
 70
     1
102
RTVSPropertyOp2
 70
     1
102
RTVSPropertyOp3
 70
     1
102
RTVSPropertyOp4
 70
     1
102
RTVSPropertyOp5
 70
     1
102
RTVSPropertyOp6
 70
     1
102
RTVSPropertyOp7
 70
     1
102
RTVSPropertyOp8
 70
     1
102
RTVSPropertyOp9
 70
     1
102
RTVSPropertyOp10
 70
     1
102
RTVSPropertyOp11
 70
     1
102
RTVSPropertyOp12
 70
     1
102
RTVSPropertyOp13
 70
     1
102
RTVSPropertyOp14
 70
     1
102
RTVSPropertyOp15
 70
     1
102
RTVSPropertyOp16
 70
     1
102
RTVSPropertyOp17
 70
     1
102
RTVSPropertyOp18
 70
     1
102
RTVSPropertyOp19
 70
     1
102
RTVSPropertyOp20
 70
     1
102
RTVSPropertyOp21
 70
     1
102
RTVSPropertyOp22
 70
     1
102
RTVSPropertyOp23
 70
     1
102
RTVSPropertyOp24
 70
     1
102
RTVSPropertyOp25
 70
     1
102
RTVSPropertyOp26
 70
     1
102
RTVSPropertyOp27
 70
     1
  0
XRECORD
  5
1DE
102
{ACAD_REACTORS
330
1DD
102
}
330
1DD
100
AcDbXrecord
280
     1
102
RTVSPropertyOp0
 70
     1
102
RTVSPropertyOp1
 70
     1
102
RTVSPropertyOp2
 70
     1
102
RTVSPropertyOp3
 70
     1
102
RTVSPropertyOp4
 70
     1
102
RTVSPropertyOp5
 70
     1
102
RTVSPropertyOp6
 70
     1
102
RTVSPropertyOp7
 70
     1
102
RTVSPropertyOp8
 70
     1
102
RTVSPropertyOp9
 70
     1
102
RTVSPropertyOp10
 70
     1
102
RTVSPropertyOp11
 70
     1
102
RTVSPropertyOp12
 70
     1
102
RTVSPropertyOp13
 70
     1
102
RTVSPropertyOp14
 70
     1
102
RTVSPropertyOp15
 70
     1
102
RTVSPropertyOp16
 70
     1
102
RTVSPropertyOp17
 70
     1
102
RTVSPropertyOp18
 70
     1
102
RTVSPropertyOp19
 70
     1
102
RTVSPropertyOp20
 70
     1
102
RTVSPropertyOp21
 70
     1
102
RTVSPropertyOp22
 70
     1
102
RTVSPropertyOp23
 70
     1
102
RTVSPropertyOp24
 70
     1
102
RTVSPropertyOp25
 70
     1
102
RTVSPropertyOp26
 70
     1
102
RTVSPropertyOp27
 70
     1
  0
ENDSEC
  0
EOF
