  0
SECTION
  2
HEADER
  9
$ACADVER
  1
AC1015
  9
$ACADMAINTVER
 70
    20
  9
$DWGCODEPAGE
  3
ANSI_1252
  9
$INSBASE
 10
0.0
 20
0.0
 30
0.0
  9
$EXTMIN
 10
-57.156488
 20
-45.04714899999999
 30
0.0
  9
$EXTMAX
 10
78.51502602901999
 20
28.2375
 30
0.0
  9
$LIMMIN
 10
0.0
 20
0.0
  9
$LIMMAX
 10
12.0
 20
9.0
  9
$ORTHOMODE
 70
     0
  9
$REGENMODE
 70
     1
  9
$FILLMODE
 70
     1
  9
$QTEXTMODE
 70
     0
  9
$MIRRTEXT
 70
     0
  9
$LTSCALE
 40
1.0
  9
$ATTMODE
 70
     1
  9
$TEXTSIZE
 40
0.0
  9
$TRACEWID
 40
0.05
  9
$TEXTSTYLE
  7
Standard
  9
$CLAYER
  8
0
  9
$CELTYPE
  6
ByLayer
  9
$CECOLOR
 62
   256
  9
$CELTSCALE
 40
1.0
  9
$DISPSILH
 70
     0
  9
$DIMSCALE
 40
1.0
  9
$DIMASZ
 40
0.18
  9
$DIMEXO
 40
0.0625
  9
$DIMDLI
 40
0.38
  9
$DIMRND
 40
0.0
  9
$DIMDLE
 40
0.0
  9
$DIMEXE
 40
0.18
  9
$DIMTP
 40
0.0
  9
$DIMTM
 40
0.0
  9
$DIMTXT
 40
0.18
  9
$DIMCEN
 40
0.09
  9
$DIMTSZ
 40
0.0
  9
$DIMTOL
 70
     0
  9
$DIMLIM
 70
     0
  9
$DIMTIH
 70
     1
  9
$DIMTOH
 70
     1
  9
$DIMSE1
 70
     0
  9
$DIMSE2
 70
     0
  9
$DIMTAD
 70
     0
  9
$DIMZIN
 70
     0
  9
$DIMBLK
  1

  9
$DIMASO
 70
     1
  9
$DIMSHO
 70
     1
  9
$DIMPOST
  1

  9
$DIMAPOST
  1

  9
$DIMALT
 70
     0
  9
$DIMALTD
 70
     2
  9
$DIMALTF
 40
25.4
  9
$DIMLFAC
 40
1.0
  9
$DIMTOFL
 70
     0
  9
$DIMTVP
 40
0.0
  9
$DIMTIX
 70
     0
  9
$DIMSOXD
 70
     0
  9
$DIMSAH
 70
     0
  9
$DIMBLK1
  1

  9
$DIMBLK2
  1

  9
$DIMSTYLE
  2
Standard
  9
$DIMCLRD
 70
     0
  9
$DIMCLRE
 70
     0
  9
$DIMCLRT
 70
     0
  9
$DIMTFAC
 40
1.0
  9
$DIMGAP
 40
0.09
  9
$DIMJUST
 70
     0
  9
$DIMSD1
 70
     0
  9
$DIMSD2
 70
     0
  9
$DIMTOLJ
 70
     1
  9
$DIMTZIN
 70
     0
  9
$DIMALTZ
 70
     0
  9
$DIMALTTZ
 70
     0
  9
$DIMUPT
 70
     0
  9
$DIMDEC
 70
     4
  9
$DIMTDEC
 70
     4
  9
$DIMALTU
 70
     2
  9
$DIMALTTD
 70
     2
  9
$DIMTXSTY
  7
Standard
  9
$DIMAUNIT
 70
     0
  9
$DIMADEC
 70
     0
  9
$DIMALTRND
 40
0.0
  9
$DIMAZIN
 70
     0
  9
$DIMDSEP
 70
    46
  9
$DIMATFIT
 70
     3
  9
$DIMFRAC
 70
     0
  9
$DIMLDRBLK
  1

  9
$DIMLUNIT
 70
     2
  9
$DIMLWD
 70
    -2
  9
$DIMLWE
 70
    -2
  9
$DIMTMOVE
 70
     0
  9
$LUNITS
 70
     2
  9
$LUPREC
 70
     4
  9
$SKETCHINC
 40
0.1
  9
$FILLETRAD
 40
0.0
  9
$AUNITS
 70
     0
  9
$AUPREC
 70
     0
  9
$MENU
  1
.
  9
$ELEVATION
 40
0.0
  9
$PELEVATION
 40
0.0
  9
$THICKNESS
 40
0.0
  9
$LIMCHECK
 70
     0
  9
$CHAMFERA
 40
0.0
  9
$CHAMFERB
 40
0.0
  9
$CHAMFERC
 40
0.0
  9
$CHAMFERD
 40
0.0
  9
$SKPOLY
 70
     0
  9
$TDCREATE
 40
2456818.489451193
  9
$TDUCREATE
 40
2456818.406117859
  9
$TDUPDATE
 40
2456818.489456690
  9
$TDUUPDATE
 40
2456818.406123357
  9
$TDINDWG
 40
0.0000064120
  9
$TDUSRTIMER
 40
0.0000064120
  9
$USRTIMER
 70
     1
  9
$ANGBASE
 50
0.0
  9
$ANGDIR
 70
     0
  9
$PDMODE
 70
     0
  9
$PDSIZE
 40
0.0
  9
$PLINEWID
 40
0.0
  9
$SPLFRAME
 70
     0
  9
$SPLINETYPE
 70
     6
  9
$SPLINESEGS
 70
     8
  9
$HANDSEED
  5
220
  9
$SURFTAB1
 70
     6
  9
$SURFTAB2
 70
     6
  9
$SURFTYPE
 70
     6
  9
$SURFU
 70
     6
  9
$SURFV
 70
     6
  9
$UCSBASE
  2

  9
$UCSNAME
  2

  9
$UCSORG
 10
0.0
 20
0.0
 30
0.0
  9
$UCSXDIR
 10
1.0
 20
0.0
 30
0.0
  9
$UCSYDIR
 10
0.0
 20
1.0
 30
0.0
  9
$UCSORTHOREF
  2

  9
$UCSORTHOVIEW
 70
     0
  9
$UCSORGTOP
 10
0.0
 20
0.0
 30
0.0
  9
$UCSORGBOTTOM
 10
0.0
 20
0.0
 30
0.0
  9
$UCSORGLEFT
 10
0.0
 20
0.0
 30
0.0
  9
$UCSORGRIGHT
 10
0.0
 20
0.0
 30
0.0
  9
$UCSORGFRONT
 10
0.0
 20
0.0
 30
0.0
  9
$UCSORGBACK
 10
0.0
 20
0.0
 30
0.0
  9
$PUCSBASE
  2

  9
$PUCSNAME
  2

  9
$PUCSORG
 10
0.0
 20
0.0
 30
0.0
  9
$PUCSXDIR
 10
1.0
 20
0.0
 30
0.0
  9
$PUCSYDIR
 10
0.0
 20
1.0
 30
0.0
  9
$PUCSORTHOREF
  2

  9
$PUCSORTHOVIEW
 70
     0
  9
$PUCSORGTOP
 10
0.0
 20
0.0
 30
0.0
  9
$PUCSORGBOTTOM
 10
0.0
 20
0.0
 30
0.0
  9
$PUCSORGLEFT
 10
0.0
 20
0.0
 30
0.0
  9
$PUCSORGRIGHT
 10
0.0
 20
0.0
 30
0.0
  9
$PUCSORGFRONT
 10
0.0
 20
0.0
 30
0.0
  9
$PUCSORGBACK
 10
0.0
 20
0.0
 30
0.0
  9
$USERI1
 70
     0
  9
$USERI2
 70
     0
  9
$USERI3
 70
     0
  9
$USERI4
 70
     0
  9
$USERI5
 70
     0
  9
$USERR1
 40
0.0
  9
$USERR2
 40
0.0
  9
$USERR3
 40
0.0
  9
$USERR4
 40
0.0
  9
$USERR5
 40
0.0
  9
$WORLDVIEW
 70
     1
  9
$SHADEDGE
 70
     3
  9
$SHADEDIF
 70
    70
  9
$TILEMODE
 70
     1
  9
$MAXACTVP
 70
    64
  9
$PINSBASE
 10
0.0
 20
0.0
 30
0.0
  9
$PLIMCHECK
 70
     0
  9
$PEXTMIN
 10
1.000000000000000E+20
 20
1.000000000000000E+20
 30
1.000000000000000E+20
  9
$PEXTMAX
 10
-1.000000000000000E+20
 20
-1.000000000000000E+20
 30
-1.000000000000000E+20
  9
$PLIMMIN
 10
0.0
 20
0.0
  9
$PLIMMAX
 10
12.0
 20
9.0
  9
$UNITMODE
 70
     0
  9
$VISRETAIN
 70
     1
  9
$PLINEGEN
 70
     0
  9
$PSLTSCALE
 70
     1
  9
$TREEDEPTH
 70
  3020
  9
$CMLSTYLE
  2
Standard
  9
$CMLJUST
 70
     0
  9
$CMLSCALE
 40
1.0
  9
$PROXYGRAPHICS
 70
     1
  9
$MEASUREMENT
 70
     0
  9
$CELWEIGHT
370
    -1
  9
$ENDCAPS
280
     0
  9
$JOINSTYLE
280
     0
  9
$LWDISPLAY
290
     0
  9
$INSUNITS
 70
     4
  9
$HYPERLINKBASE
  1

  9
$STYLESHEET
  1

  9
$XEDIT
290
     1
  9
$CEPSNTYPE
380
     0
  9
$PSTYLEMODE
290
     1
  9
$FINGERPRINTGUID
  2
{F22788AD-FB8A-4647-904E-931C45D43734}
  9
$VERSIONGUID
  2
{EAA1C46A-CF53-4010-9B3C-5E614D8EC631}
  9
$EXTNAMES
290
     1
  9
$PSVPSCALE
 40
0.0
  9
$OLESTARTUP
290
     0
  0
ENDSEC
  0
SECTION
  2
CLASSES
  0
CLASS
  1
RASTERVARIABLES
  2
AcDbRasterVariables
  3
ISM
 90
        0
280
     0
281
     0
  0
CLASS
  1
ACDBDICTIONARYWDFLT
  2
AcDbDictionaryWithDefault
  3
ObjectDBX Classes
 90
        0
280
     0
281
     0
  0
CLASS
  1
MATERIAL
  2
AcDbMaterial
  3
ObjectDBX Classes
 90
     1153
280
     0
281
     0
  0
CLASS
  1
VISUALSTYLE
  2
AcDbVisualStyle
  3
ObjectDBX Classes
 90
     4095
280
     0
281
     0
  0
CLASS
  1
TABLESTYLE
  2
AcDbTableStyle
  3
ObjectDBX Classes
 90
     4095
280
     0
281
     0
  0
CLASS
  1
SCALE
  2
AcDbScale
  3
ObjectDBX Classes
 90
     1153
280
     0
281
     0
  0
CLASS
  1
MLEADERSTYLE
  2
AcDbMLeaderStyle
  3
ACDB_MLEADERSTYLE_CLASS
 90
     4095
280
     0
281
     0
  0
CLASS
  1
ACDBSECTIONVIEWSTYLE
  2
AcDbSectionViewStyle
  3
ObjectDBX Classes
 90
     1025
280
     0
281
     0
  0
CLASS
  1
ACDBDETAILVIEWSTYLE
  2
AcDbDetailViewStyle
  3
ObjectDBX Classes
 90
     1025
280
     0
281
     0
  0
CLASS
  1
EXACXREFPANELOBJECT
  2
ExAcXREFPanelObject
  3
EXAC_ESW
 90
     1025
280
     0
281
     0
  0
CLASS
  1
NPOCOLLECTION
  2
AcDbImpNonPersistentObjectsCollection
  3
ObjectDBX Classes
 90
     1153
280
     0
281
     0
  0
CLASS
  1
DICTIONARYVAR
  2
AcDbDictionaryVar
  3
ObjectDBX Classes
 90
        0
280
     0
281
     0
  0
CLASS
  1
CELLSTYLEMAP
  2
AcDbCellStyleMap
  3
ObjectDBX Classes
 90
     1152
280
     0
281
     0
  0
CLASS
  1
ACDBPLACEHOLDER
  2
AcDbPlaceHolder
  3
ObjectDBX Classes
 90
        0
280
     0
281
     0
  0
CLASS
  1
LAYOUT
  2
AcDbLayout
  3
ObjectDBX Classes
 90
        0
280
     0
281
     0
  0
ENDSEC
  0
SECTION
  2
TABLES
  0
TABLE
  2
VPORT
  5
159
330
0
100
AcDbSymbolTable
 70
     1
  0
VPORT
  5
1
330
159
100
AcDbSymbolTableRecord
100
AcDbViewportTableRecord
  2
*Active
 70
     0
 10
0.0
 20
0.0
 11
1.0
 21
1.0
 12
10.67926901451
 22
-8.404824499999996
 13
0.0
 23
0.0
 14
0.5
 24
0.5
 15
10.0
 25
10.0
 16
0.0
 26
0.0
 36
1.0
 17
0.0
 27
0.0
 37
0.0
 40
82.01179486709197
 41
2.2
 42
50.0
 43
0.0
 44
0.0
 50
0.0
 51
0.0
 71
     0
 72
   100
 73
     1
 74
     1
 75
     0
 76
     0
 77
     0
 78
     0
281
     0
 65
     1
110
0.0
120
0.0
130
0.0
111
1.0
121
0.0
131
0.0
112
0.0
122
1.0
132
0.0
 79
     0
146
0.0
1001
ACAD_NAV_VCDISPLAY
1070
     3
  0
ENDTAB
  0
TABLE
  2
LTYPE
  5
15A
330
0
100
AcDbSymbolTable
 70
     8
  0
LTYPE
  5
14
330
15A
100
AcDbSymbolTableRecord
100
AcDbLinetypeTableRecord
  2
ByBlock
 70
     0
  3

 72
    65
 73
     0
 40
0.0
  0
LTYPE
  5
15
330
15A
100
AcDbSymbolTableRecord
100
AcDbLinetypeTableRecord
  2
ByLayer
 70
     0
  3

 72
    65
 73
     0
 40
0.0
  0
LTYPE
  5
16
330
15A
100
AcDbSymbolTableRecord
100
AcDbLinetypeTableRecord
  2
CONTINUOUS
 70
     0
  3
Solid line
 72
    65
 73
     0
 40
0.0
  0
LTYPE
  5
3C
330
15A
100
AcDbSymbolTableRecord
100
AcDbLinetypeTableRecord
  2
DASHED
 70
     0
  3
__ __ __ __ __ __ __ __ __
 72
    65
 73
     2
 40
25.72
 49
12.86
 74
     0
 49
-12.86
 74
     0
  0
LTYPE
  5
3D
330
15A
100
AcDbSymbolTableRecord
100
AcDbLinetypeTableRecord
  2
HIDDEN
 70
     0
  3
_ _ _ _ _ _ _ _ _ _ _ _ _ _ _
 72
    65
 73
     2
 40
0.5
 49
0.25
 74
     0
 49
-0.25
 74
     0
  0
LTYPE
  5
3E
330
15A
100
AcDbSymbolTableRecord
100
AcDbLinetypeTableRecord
  2
PHANTOM
 70
     0
  3
____ _ _ ____ _ _ _____ _ _ ____
 72
    65
 73
     6
 40
50.5
 49
18.0
 74
     0
 49
-6.5
 74
     0
 49
6.5
 74
     0
 49
-6.5
 74
     0
 49
6.5
 74
     0
 49
-6.5
 74
     0
  0
LTYPE
  5
3F
330
15A
100
AcDbSymbolTableRecord
100
AcDbLinetypeTableRecord
  2
CENTER
 70
     0
  3
____ _ ____ _ ____ _ ____
 72
    65
 73
     4
 40
47.5
 49
22.0
 74
     0
 49
-8.5
 74
     0
 49
8.5
 74
     0
 49
-8.5
 74
     0
  0
LTYPE
  5
40
330
15A
100
AcDbSymbolTableRecord
100
AcDbLinetypeTableRecord
  2
DOT
 70
     0
  3
.........................
 72
    65
 73
     2
 40
10.0
 49
0.0
 74
     0
 49
-10.0
 74
     0
  0
LTYPE
  5
41
330
15A
100
AcDbSymbolTableRecord
100
AcDbLinetypeTableRecord
  2
DASHDOT
 70
     0
  3
_._._._._._._._._._._._._._._._.
 72
    65
 73
     4
 40
70.0
 49
31.0
 74
     0
 49
-13.0
 74
     0
 49
13.0
 74
     0
 49
-13.0
 74
     0
  0
LTYPE
  5
1B1
330
15A
100
AcDbSymbolTableRecord
100
AcDbLinetypeTableRecord
  2
PHANTOM2
 70
     0
  3
Phantom (.5x) ___ _ _ ___ _ _ ___ _ _ ___ _ _
 72
    65
 73
     6
 40
1.25
 49
0.625
 74
     0
 49
-0.125
 74
     0
 49
0.125
 74
     0
 49
-0.125
 74
     0
 49
0.125
 74
     0
 49
-0.125
 74
     0
  0
ENDTAB
  0
TABLE
  2
LAYER
  5
15B
330
0
100
AcDbSymbolTable
 70
    10
  0
LAYER
  5
10
102
{ACAD_XDICTIONARY
360
1BF
102
}
330
15B
100
AcDbSymbolTableRecord
100
AcDbLayerTableRecord
  2
0
 70
     0
 62
     7
  6
CONTINUOUS
370
    -3
390
166
  0
LAYER
  5
43
102
{ACAD_XDICTIONARY
360
1C1
102
}
330
15B
100
AcDbSymbolTableRecord
100
AcDbLayerTableRecord
  2
81
 70
     0
 62
    -3
  6
CONTINUOUS
370
    -3
390
166
  0
LAYER
  5
45
102
{ACAD_XDICTIONARY
360
1C3
102
}
330
15B
100
AcDbSymbolTableRecord
100
AcDbLayerTableRecord
  2
80
 70
     0
 62
    -6
  6
CONTINUOUS
370
    -3
390
166
  0
LAYER
  5
4A
102
{ACAD_XDICTIONARY
360
1C5
102
}
330
15B
100
AcDbSymbolTableRecord
100
AcDbLayerTableRecord
  2
1
 70
     0
 62
     4
  6
CONTINUOUS
370
    -3
390
166
  0
LAYER
  5
66
102
{ACAD_XDICTIONARY
360
1C7
102
}
330
15B
100
AcDbSymbolTableRecord
100
AcDbLayerTableRecord
  2
4
 70
     0
 62
    -2
  6
CENTER
370
    -3
390
166
  0
LAYER
  5
B7
102
{ACAD_XDICTIONARY
360
1C9
102
}
330
15B
100
AcDbSymbolTableRecord
100
AcDbLayerTableRecord
  2
2
 70
     0
 62
     7
  6
CONTINUOUS
370
    -3
390
166
  0
LAYER
  5
145
102
{ACAD_XDICTIONARY
360
1CB
102
}
330
15B
100
AcDbSymbolTableRecord
100
AcDbLayerTableRecord
  2
SK1
 70
     0
 62
     4
  6
CONTINUOUS
370
    -3
390
166
  0
LAYER
  5
146
102
{ACAD_XDICTIONARY
360
1CD
102
}
330
15B
100
AcDbSymbolTableRecord
100
AcDbLayerTableRecord
  2
SK4
 70
     0
 62
     2
  6
CENTER
370
    -3
390
166
  0
LAYER
  5
147
102
{ACAD_XDICTIONARY
360
1CF
102
}
330
15B
100
AcDbSymbolTableRecord
100
AcDbLayerTableRecord
  2
SK6
 70
     0
 62
     5
  6
CONTINUOUS
370
    -3
390
166
  0
LAYER
  5
148
102
{ACAD_XDICTIONARY
360
1D1
102
}
330
15B
100
AcDbSymbolTableRecord
100
AcDbLayerTableRecord
  2
SK2
 70
     0
 62
     7
  6
CONTINUOUS
370
    -3
390
166
  0
ENDTAB
  0
TABLE
  2
STYLE
  5
15C
330
0
100
AcDbSymbolTable
 70
     4
  0
STYLE
  5
11
330
15C
100
AcDbSymbolTableRecord
100
AcDbTextStyleTableRecord
  2
Standard
 70
     0
 40
0.0
 41
1.0
 50
0.0
 71
     0
 42
0.0
  3
txt
  4

  0
STYLE
  5
8E
330
15C
100
AcDbSymbolTableRecord
100
AcDbTextStyleTableRecord
  2
DEFAULT
 70
     0
 40
0.0
 41
1.0
 50
0.0
 71
     0
 42
0.0
  3
simplex.shx
  4

  0
STYLE
  5
8F
330
15C
100
AcDbSymbolTableRecord
100
AcDbTextStyleTableRecord
  2
DWGDirectTextStyle
 70
     0
 40
0.0
 41
1.0
 50
0.0
 71
     0
 42
0.0
  3
SIMPLEX
  4

  0
STYLE
  5
DF
330
15C
100
AcDbSymbolTableRecord
100
AcDbTextStyleTableRecord
  2
blockfont
 70
     0
 40
0.0
 41
1.0
 50
0.0
 71
     0
 42
0.0
  3
simplex.shx
  4

  0
ENDTAB
  0
TABLE
  2
VIEW
  5
15E
330
0
100
AcDbSymbolTable
 70
     0
  0
ENDTAB
  0
TABLE
  2
UCS
  5
15F
330
0
100
AcDbSymbolTable
 70
     0
  0
ENDTAB
  0
TABLE
  2
APPID
  5
160
330
0
100
AcDbSymbolTable
 70
     4
  0
APPID
  5
12
330
160
100
AcDbSymbolTableRecord
100
AcDbRegAppTableRecord
  2
ACAD
 70
     0
  0
APPID
  5
1D5
330
160
100
AcDbSymbolTableRecord
100
AcDbRegAppTableRecord
  2
DCO15
 70
     0
  0
APPID
  5
1E1
330
160
100
AcDbSymbolTableRecord
100
AcDbRegAppTableRecord
  2
ACAD_NAV_VCDISPLAY
 70
     0
  0
APPID
  5
21B
330
160
100
AcDbSymbolTableRecord
100
AcDbRegAppTableRecord
  2
ACAD_MLEADERVER
 70
     0
  0
ENDTAB
  0
TABLE
  2
DIMSTYLE
  5
15D
330
0
100
AcDbSymbolTable
 70
     1
100
AcDbDimStyleTable
 71
     0
  0
DIMSTYLE
105
27
102
{ACAD_REACTORS
330
9F
330
B4
330
C3
330
D1
330
DB
330
EB
330
F8
330
107
102
}
330
15D
100
AcDbSymbolTableRecord
100
AcDbDimStyleTableRecord
  2
Standard
 70
     0
  3
<>
 73
     0
 74
     0
 77
     1
271
     2
278
    52
340
11
  0
ENDTAB
  0
TABLE
  2
BLOCK_RECORD
  5
161
330
0
100
AcDbSymbolTable
 70
    10
  0
BLOCK_RECORD
  5
1F
330
161
100
AcDbSymbolTableRecord
100
AcDbBlockTableRecord
  2
*Model_Space
340
1B7
  0
BLOCK_RECORD
  5
1B
330
161
100
AcDbSymbolTableRecord
100
AcDbBlockTableRecord
  2
*Paper_Space
340
1B8
  0
BLOCK_RECORD
  5
23
330
161
100
AcDbSymbolTableRecord
100
AcDbBlockTableRecord
  2
*Paper_Space0
340
0
  0
BLOCK_RECORD
  5
91
330
161
100
AcDbSymbolTableRecord
100
AcDbBlockTableRecord
  2
DimnDraft3D1
340
0
  0
BLOCK_RECORD
  5
A0
330
161
100
AcDbSymbolTableRecord
100
AcDbBlockTableRecord
  2
_CLOSED
340
0
  0
BLOCK_RECORD
  5
A7
330
161
100
AcDbSymbolTableRecord
100
AcDbBlockTableRecord
  2
DimnDraft3D2
340
0
  0
BLOCK_RECORD
  5
B5
330
161
100
AcDbSymbolTableRecord
100
AcDbBlockTableRecord
  2
DimnDraft3D3
340
0
  0
BLOCK_RECORD
  5
C4
330
161
100
AcDbSymbolTableRecord
100
AcDbBlockTableRecord
  2
DimnDraft3D4
340
0
  0
BLOCK_RECORD
  5
D2
330
161
100
AcDbSymbolTableRecord
100
AcDbBlockTableRecord
  2
DimnDraft3D5
340
0
  0
BLOCK_RECORD
  5
DC
330
161
100
AcDbSymbolTableRecord
100
AcDbBlockTableRecord
  2
DimnDraft3D6
340
0
  0
BLOCK_RECORD
  5
EC
330
161
100
AcDbSymbolTableRecord
100
AcDbBlockTableRecord
  2
DimnDraft3D7
340
0
  0
BLOCK_RECORD
  5
F9
330
161
100
AcDbSymbolTableRecord
100
AcDbBlockTableRecord
  2
DimnDraft3D8
340
0
  0
ENDTAB
  0
ENDSEC
  0
SECTION
  2
BLOCKS
  0
BLOCK
  5
20
330
1F
100
AcDbEntity
  8
0
100
AcDbBlockBegin
  2
*Model_Space
 70
     0
 10
0.0
 20
0.0
 30
0.0
  3
*Model_Space
  1

  0
ENDBLK
  5
21
330
1F
100
AcDbEntity
  8
0
100
AcDbBlockEnd
  0
BLOCK
  5
1C
330
1B
100
AcDbEntity
 67
     1
  8
0
100
AcDbBlockBegin
  2
*Paper_Space
 70
     0
 10
0.0
 20
0.0
 30
0.0
  3
*Paper_Space
  1

  0
ENDBLK
  5
1D
330
1B
100
AcDbEntity
 67
     1
  8
0
100
AcDbBlockEnd
  0
BLOCK
  5
24
330
23
100
AcDbEntity
  8
0
100
AcDbBlockBegin
  2
*Paper_Space0
 70
     0
 10
0.0
 20
0.0
 30
0.0
  3
*Paper_Space0
  1

  0
ENDBLK
  5
25
330
23
100
AcDbEntity
  8
0
100
AcDbBlockEnd
  0
BLOCK
  5
9D
330
91
100
AcDbEntity
  8
0
100
AcDbBlockBegin
  2
DimnDraft3D1
 70
     0
 10
0.0
 20
0.0
 30
0.0
  3
DimnDraft3D1
  1

  0
MTEXT
  5
92
330
91
100
AcDbEntity
  8
SK2
100
AcDbMText
 10
47.030263
 20
-18.711214
 30
0.0
 40
3.5
 41
0.0
 71
     7
 72
     5
  1
\W01.000;\fsimplex.shx,bigfont.shx;36 
  7
DEFAULT
 73
     1
 44
1.084337
1001
ACAD
1000
MTEXTBEGIN
1070
    73
1070
     1
1070
    44
1040
1.084337
1070
    74
1070
     0
1000
MTEXTEND
  0
LINE
  5
94
330
91
100
AcDbEntity
  8
SK2
100
AcDbLine
 10
66.2
 20
-6.0
 30
0.0
 11
66.2
 21
-21.586214
 31
0.0
  0
LINE
  5
95
330
91
100
AcDbEntity
  8
SK2
100
AcDbLine
 10
30.2
 20
0.375076
 30
0.0
 11
30.2
 21
-21.586214
 31
0.0
  0
LINE
  5
96
330
91
100
AcDbEntity
  8
SK2
100
AcDbLine
 10
66.2
 20
-19.586214
 30
0.0
 11
30.2
 21
-19.586214
 31
0.0
  0
LINE
  5
97
330
91
100
AcDbEntity
  8
SK2
100
AcDbLine
 10
66.2
 20
-19.586214
 30
0.0
 11
62.70000200000001
 21
-20.046998
 31
0.0
  0
LINE
  5
98
330
91
100
AcDbEntity
  8
SK2
100
AcDbLine
 10
66.2
 20
-19.586214
 30
0.0
 11
62.699998
 21
-19.125431
 31
0.0
  0
LINE
  5
99
330
91
100
AcDbEntity
  8
SK2
100
AcDbLine
 10
62.70000200000001
 20
-20.046998
 30
0.0
 11
62.699998
 21
-19.125431
 31
0.0
  0
LINE
  5
9A
330
91
100
AcDbEntity
  8
SK2
100
AcDbLine
 10
30.2
 20
-19.586214
 30
0.0
 11
33.699998
 21
-19.125431
 31
0.0
  0
LINE
  5
9B
330
91
100
AcDbEntity
  8
SK2
100
AcDbLine
 10
30.2
 20
-19.586214
 30
0.0
 11
33.70000200000001
 21
-20.046998
 31
0.0
  0
LINE
  5
9C
330
91
100
AcDbEntity
  8
SK2
100
AcDbLine
 10
33.699998
 20
-19.125431
 30
0.0
 11
33.70000200000001
 21
-20.046998
 31
0.0
  0
ENDBLK
  5
9E
330
91
100
AcDbEntity
  8
0
100
AcDbBlockEnd
  0
BLOCK
  5
A1
330
A0
100
AcDbEntity
  8
0
100
AcDbBlockBegin
  2
_CLOSED
 70
     0
 10
0.0
 20
0.0
 30
0.0
  3
_CLOSED
  1

  0
LINE
  5
A3
330
A0
100
AcDbEntity
  8
0
370
    -2
100
AcDbLine
 10
-1.0
 20
0.166667
 30
0.0
 11
0.0
 21
0.0
 31
0.0
  0
LINE
  5
A4
330
A0
100
AcDbEntity
  8
0
370
    -2
100
AcDbLine
 10
0.0
 20
0.0
 30
0.0
 11
-1.0
 21
-0.166667
 31
0.0
  0
LINE
  5
A5
330
A0
100
AcDbEntity
  8
0
370
    -2
100
AcDbLine
 10
-1.0
 20
0.166667
 30
0.0
 11
-1.0
 21
-0.166667
 31
0.0
  0
LINE
  5
A6
330
A0
100
AcDbEntity
  8
0
370
    -2
100
AcDbLine
 10
0.0
 20
0.0
 30
0.0
 11
-1.0
 21
0.0
 31
0.0
  0
ENDBLK
  5
A2
330
A0
100
AcDbEntity
  8
0
100
AcDbBlockEnd
  0
BLOCK
  5
B2
330
A7
100
AcDbEntity
  8
0
100
AcDbBlockBegin
  2
DimnDraft3D2
 70
     0
 10
0.0
 20
0.0
 30
0.0
  3
DimnDraft3D2
  1

  0
MTEXT
  5
A8
330
A7
100
AcDbEntity
  8
SK2
100
AcDbMText
 10
7.120394999999999
 20
-42.172149
 30
0.0
 40
3.5
 41
0.0
 71
     7
 72
     5
  1
\W01.000;\fsimplex.shx,bigfont.shx;115 
  7
DEFAULT
 73
     1
 44
1.084337
1001
ACAD
1000
MTEXTBEGIN
1070
    73
1070
     1
1070
    44
1040
1.084337
1070
    74
1070
     0
1000
MTEXTEND
  0
LINE
  5
A9
330
A7
100
AcDbEntity
  8
SK2
100
AcDbLine
 10
66.2
 20
-6.0
 30
0.0
 11
66.2
 21
-45.04714899999999
 31
0.0
  0
LINE
  5
AA
330
A7
100
AcDbEntity
  8
SK2
100
AcDbLine
 10
-48.79999999999999
 20
-9.4
 30
0.0
 11
-48.79999999999999
 21
-45.04714899999999
 31
0.0
  0
LINE
  5
AB
330
A7
100
AcDbEntity
  8
SK2
100
AcDbLine
 10
66.2
 20
-43.04714899999999
 30
0.0
 11
-48.79999999999999
 21
-43.04714899999999
 31
0.0
  0
LINE
  5
AC
330
A7
100
AcDbEntity
  8
SK2
100
AcDbLine
 10
66.2
 20
-43.04714899999999
 30
0.0
 11
62.70000200000001
 21
-43.507933
 31
0.0
  0
LINE
  5
AD
330
A7
100
AcDbEntity
  8
SK2
100
AcDbLine
 10
66.2
 20
-43.04714899999999
 30
0.0
 11
62.699998
 21
-42.58636599999999
 31
0.0
  0
LINE
  5
AE
330
A7
100
AcDbEntity
  8
SK2
100
AcDbLine
 10
62.70000200000001
 20
-43.507933
 30
0.0
 11
62.699998
 21
-42.58636599999999
 31
0.0
  0
LINE
  5
AF
330
A7
100
AcDbEntity
  8
SK2
100
AcDbLine
 10
-48.79999999999999
 20
-43.04714899999999
 30
0.0
 11
-45.30000199999999
 21
-42.58636599999999
 31
0.0
  0
LINE
  5
B0
330
A7
100
AcDbEntity
  8
SK2
100
AcDbLine
 10
-48.79999999999999
 20
-43.04714899999999
 30
0.0
 11
-45.29999799999999
 21
-43.507933
 31
0.0
  0
LINE
  5
B1
330
A7
100
AcDbEntity
  8
SK2
100
AcDbLine
 10
-45.30000199999999
 20
-42.58636599999999
 30
0.0
 11
-45.29999799999999
 21
-43.507933
 31
0.0
  0
ENDBLK
  5
B3
330
A7
100
AcDbEntity
  8
0
100
AcDbBlockEnd
  0
BLOCK
  5
C1
330
B5
100
AcDbEntity
  8
0
100
AcDbBlockBegin
  2
DimnDraft3D3
 70
     0
 10
0.0
 20
0.0
 30
0.0
  3
DimnDraft3D3
  1

  0
MTEXT
  5
B6
330
B5
100
AcDbEntity
  8
2
100
AcDbMText
 10
32.530263
 20
-29.869464
 30
0.0
 40
3.5
 41
0.0
 71
     7
 72
     5
  1
\W01.000;\fsimplex.shx,bigfont.shx;65 
  7
DEFAULT
 73
     1
 44
1.084337
1001
ACAD
1000
MTEXTBEGIN
1070
    73
1070
     1
1070
    44
1040
1.084337
1070
    74
1070
     0
1000
MTEXTEND
  0
LINE
  5
B8
330
B5
100
AcDbEntity
  8
2
100
AcDbLine
 10
66.2
 20
-6.0
 30
0.0
 11
66.2
 21
-32.744464
 31
0.0
  0
LINE
  5
B9
330
B5
100
AcDbEntity
  8
2
100
AcDbLine
 10
1.199999999999999
 20
-9.599999999999999
 30
0.0
 11
1.199999999999999
 21
-32.744464
 31
0.0
  0
LINE
  5
BA
330
B5
100
AcDbEntity
  8
2
100
AcDbLine
 10
66.2
 20
-30.744464
 30
0.0
 11
1.199999999999999
 21
-30.744464
 31
0.0
  0
LINE
  5
BB
330
B5
100
AcDbEntity
  8
2
100
AcDbLine
 10
66.2
 20
-30.744464
 30
0.0
 11
62.70000200000001
 21
-31.205248
 31
0.0
  0
LINE
  5
BC
330
B5
100
AcDbEntity
  8
2
100
AcDbLine
 10
66.2
 20
-30.744464
 30
0.0
 11
62.699998
 21
-30.28368
 31
0.0
  0
LINE
  5
BD
330
B5
100
AcDbEntity
  8
2
100
AcDbLine
 10
62.70000200000001
 20
-31.205248
 30
0.0
 11
62.699998
 21
-30.28368
 31
0.0
  0
LINE
  5
BE
330
B5
100
AcDbEntity
  8
2
100
AcDbLine
 10
1.199999999999999
 20
-30.744464
 30
0.0
 11
4.699997999999999
 21
-30.28368
 31
0.0
  0
LINE
  5
BF
330
B5
100
AcDbEntity
  8
2
100
AcDbLine
 10
1.199999999999999
 20
-30.744464
 30
0.0
 11
4.700001999999999
 21
-31.205248
 31
0.0
  0
LINE
  5
C0
330
B5
100
AcDbEntity
  8
2
100
AcDbLine
 10
4.699997999999999
 20
-30.28368
 30
0.0
 11
4.700001999999999
 21
-31.205248
 31
0.0
  0
ENDBLK
  5
C2
330
B5
100
AcDbEntity
  8
0
100
AcDbBlockEnd
  0
BLOCK
  5
CF
330
C4
100
AcDbEntity
  8
0
100
AcDbBlockBegin
  2
DimnDraft3D4
 70
     0
 10
0.0
 20
0.0
 30
0.0
  3
DimnDraft3D4
  1

  0
MTEXT
  5
C5
330
C4
100
AcDbEntity
  8
SK2
100
AcDbMText
 10
-31.225
 20
-28.052105
 30
0.0
 40
3.5
 41
0.0
 71
     7
 72
     5
  1
\W01.000;\fsimplex.shx,bigfont.shx;(48.8) 
  7
DEFAULT
 73
     1
 44
1.084337
1001
ACAD
1000
MTEXTBEGIN
1070
    73
1070
     1
1070
    44
1040
1.084337
1070
    74
1070
     0
1000
MTEXTEND
  0
LINE
  5
C6
330
C4
100
AcDbEntity
  8
SK2
100
AcDbLine
 10
0.0
 20
-10.0
 30
0.0
 11
0.0
 21
-32.458355
 31
0.0
  0
LINE
  5
C7
330
C4
100
AcDbEntity
  8
SK2
100
AcDbLine
 10
-48.79999999999999
 20
-9.4
 30
0.0
 11
-48.79999999999999
 21
-32.458355
 31
0.0
  0
LINE
  5
C8
330
C4
100
AcDbEntity
  8
SK2
100
AcDbLine
 10
0.0
 20
-30.458355
 30
0.0
 11
-48.79999999999999
 21
-30.458355
 31
0.0
  0
LINE
  5
C9
330
C4
100
AcDbEntity
  8
SK2
100
AcDbLine
 10
0.0
 20
-30.458355
 30
0.0
 11
-3.499998
 21
-30.919139
 31
0.0
  0
LINE
  5
CA
330
C4
100
AcDbEntity
  8
SK2
100
AcDbLine
 10
0.0
 20
-30.458355
 30
0.0
 11
-3.500001999999999
 21
-29.997571
 31
0.0
  0
LINE
  5
CB
330
C4
100
AcDbEntity
  8
SK2
100
AcDbLine
 10
-3.499998
 20
-30.919139
 30
0.0
 11
-3.500001999999999
 21
-29.997571
 31
0.0
  0
LINE
  5
CC
330
C4
100
AcDbEntity
  8
SK2
100
AcDbLine
 10
-48.79999999999999
 20
-30.458355
 30
0.0
 11
-45.30000199999999
 21
-29.997571
 31
0.0
  0
LINE
  5
CD
330
C4
100
AcDbEntity
  8
SK2
100
AcDbLine
 10
-48.79999999999999
 20
-30.458355
 30
0.0
 11
-45.29999799999999
 21
-30.919139
 31
0.0
  0
LINE
  5
CE
330
C4
100
AcDbEntity
  8
SK2
100
AcDbLine
 10
-45.30000199999999
 20
-29.997571
 30
0.0
 11
-45.29999799999999
 21
-30.919139
 31
0.0
  0
ENDBLK
  5
D0
330
C4
100
AcDbEntity
  8
0
100
AcDbBlockEnd
  0
BLOCK
  5
D9
330
D2
100
AcDbEntity
  8
0
100
AcDbBlockBegin
  2
DimnDraft3D5
 70
     0
 10
0.0
 20
0.0
 30
0.0
  3
DimnDraft3D5
  1

  0
MTEXT
  5
D3
330
D2
100
AcDbEntity
  8
SK2
100
AcDbMText
 10
76.029941
 20
-17.572011
 30
0.0
 40
3.0
 41
0.0
 71
     7
 72
     5
  1
\W01.000;\fsimplex.shx,bigfont.shx;4 
  7
DEFAULT
 11
0.6860859255347352
 21
-0.7275205170874194
 31
0.0
 73
     1
 44
1.084337
1001
ACAD
1000
MTEXTBEGIN
1070
    73
1070
     1
1070
    44
1040
1.084337
1070
    74
1070
     0
1000
MTEXTEND
  0
MTEXT
  5
D4
330
D2
100
AcDbEntity
  8
SK2
100
AcDbMText
 10
72.861307
 20
-14.212015
 30
0.0
 40
3.0
 41
0.0
 71
     7
 72
     5
  1
\W01.000;\fsimplex.shx,bigfont.shx;R 
  7
DEFAULT
 11
0.6860859255347352
 21
-0.7275205170874194
 31
0.0
 73
     1
 44
1.084337
1001
ACAD
1000
MTEXTBEGIN
1070
    73
1070
     1
1070
    44
1040
1.084337
1070
    74
1070
     0
1000
MTEXTEND
  0
LINE
  5
D5
330
D2
100
AcDbEntity
  8
SK2
100
AcDbLine
 10
64.944344
 20
-6.910082
 30
0.0
 11
76.08011199999999
 21
-18.71837
 31
0.0
  0
LINE
  5
D6
330
D2
100
AcDbEntity
  8
SK2
100
AcDbLine
 10
64.944344
 20
-6.910082
 30
0.0
 11
67.426767
 21
-8.933177
 31
0.0
  0
LINE
  5
D7
330
D2
100
AcDbEntity
  8
SK2
100
AcDbLine
 10
64.944344
 20
-6.910082
 30
0.0
 11
66.818566
 21
-9.506741999999999
 31
0.0
  0
LINE
  5
D8
330
D2
100
AcDbEntity
  8
SK2
100
AcDbLine
 10
67.426767
 20
-8.933177
 30
0.0
 11
66.818566
 21
-9.506741999999999
 31
0.0
  0
ENDBLK
  5
DA
330
D2
100
AcDbEntity
  8
0
100
AcDbBlockEnd
  0
BLOCK
  5
E9
330
DC
100
AcDbEntity
  8
0
100
AcDbBlockBegin
  2
DimnDraft3D6
 70
     0
 10
0.0
 20
0.0
 30
0.0
  3
DimnDraft3D6
  1

  0
MTEXT
  5
DD
330
DC
100
AcDbEntity
  8
SK2
100
AcDbMText
 10
-53.831488
 20
12.375
 30
0.0
 40
3.5
 41
0.0
 71
     7
 72
     5
  1
\W01.000;\fsimplex.shx,bigfont.shx;%%c 
  7
DEFAULT
 11
0.0000000000000001
 21
1.0
 31
0.0
 73
     1
 44
1.084337
1001
ACAD
1000
MTEXTBEGIN
1070
    73
1070
     1
1070
    44
1040
1.084337
1070
    74
1070
     0
1000
MTEXTEND
  0
MTEXT
  5
DE
330
DC
100
AcDbEntity
  8
SK2
100
AcDbMText
 10
-53.737738
 20
22.75
 30
0.0
 40
3.0
 41
0.0
 71
     7
 72
     5
  1
\W01.000;\fsimplex.shx,bigfont.shx;16 
  7
blockfont
 11
0.0000000000000001
 21
1.0
 31
0.0
 73
     1
 44
0.9036139999999999
1001
ACAD
1000
MTEXTBEGIN
1070
    73
1070
     1
1070
    44
1040
0.9036139999999999
1070
    74
1070
     0
1000
MTEXTEND
  0
LINE
  5
E0
330
DC
100
AcDbEntity
  8
SK2
100
AcDbLine
 10
-48.2
 20
-8.0
 30
0.0
 11
-52.331488
 21
-8.0
 31
0.0
  0
LINE
  5
E1
330
DC
100
AcDbEntity
  8
SK2
100
AcDbLine
 10
-48.2
 20
8.0
 30
0.0
 11
-52.331488
 21
8.0
 31
0.0
  0
LINE
  5
E2
330
DC
100
AcDbEntity
  8
SK2
100
AcDbLine
 10
-52.331488
 20
-8.0
 30
0.0
 11
-52.331488
 21
28.2375
 31
0.0
  0
LINE
  5
E3
330
DC
100
AcDbEntity
  8
SK2
100
AcDbLine
 10
-52.331488
 20
-8.0
 30
0.0
 11
-52.792272
 21
-4.500001999999999
 31
0.0
  0
LINE
  5
E4
330
DC
100
AcDbEntity
  8
SK2
100
AcDbLine
 10
-52.331488
 20
-8.0
 30
0.0
 11
-51.87070399999999
 21
-4.499998
 31
0.0
  0
LINE
  5
E5
330
DC
100
AcDbEntity
  8
SK2
100
AcDbLine
 10
-52.792272
 20
-4.500001999999999
 30
0.0
 11
-51.87070399999999
 21
-4.499998
 31
0.0
  0
LINE
  5
E6
330
DC
100
AcDbEntity
  8
SK2
100
AcDbLine
 10
-52.331488
 20
8.0
 30
0.0
 11
-51.87070399999999
 21
4.500001999999999
 31
0.0
  0
LINE
  5
E7
330
DC
100
AcDbEntity
  8
SK2
100
AcDbLine
 10
-52.331488
 20
8.0
 30
0.0
 11
-52.792272
 21
4.499998
 31
0.0
  0
LINE
  5
E8
330
DC
100
AcDbEntity
  8
SK2
100
AcDbLine
 10
-51.87070399999999
 20
4.500001999999999
 30
0.0
 11
-52.792272
 21
4.499998
 31
0.0
  0
ENDBLK
  5
EA
330
DC
100
AcDbEntity
  8
0
100
AcDbBlockEnd
  0
BLOCK
  5
F6
330
EC
100
AcDbEntity
  8
0
100
AcDbBlockBegin
  2
DimnDraft3D7
 70
     0
 10
0.0
 20
0.0
 30
0.0
  3
DimnDraft3D7
  1

  0
MTEXT
  5
ED
330
EC
100
AcDbEntity
  8
SK2
100
AcDbMText
 10
9.330384
 20
11.975
 30
0.0
 40
3.5
 41
0.0
 71
     7
 72
     5
  1
\W01.000;\fsimplex.shx,bigfont.shx;%%c 
  7
DEFAULT
 11
0.0000000000000001
 21
1.0
 31
0.0
 73
     1
 44
1.084337
1001
ACAD
1000
MTEXTBEGIN
1070
    73
1070
     1
1070
    44
1040
1.084337
1070
    74
1070
     0
1000
MTEXTEND
  0
MTEXT
  5
EE
330
EC
100
AcDbEntity
  8
SK2
100
AcDbMText
 10
9.424134
 20
22.35
 30
0.0
 40
3.0
 41
0.0
 71
     7
 72
     5
  1
\W01.000;\fsimplex.shx,bigfont.shx;15 
  7
blockfont
 11
0.0000000000000001
 21
1.0
 31
0.0
 73
     1
 44
0.9036139999999999
1001
ACAD
1000
MTEXTBEGIN
1070
    73
1070
     1
1070
    44
1040
0.9036139999999999
1070
    74
1070
     0
1000
MTEXTEND
  0
LINE
  5
EF
330
EC
100
AcDbEntity
  8
SK2
100
AcDbLine
 10
10.830384
 20
-7.599999999999999
 30
0.0
 11
10.830384
 21
27.8375
 31
0.0
  0
LINE
  5
F0
330
EC
100
AcDbEntity
  8
SK2
100
AcDbLine
 10
10.830384
 20
-7.599999999999999
 30
0.0
 11
10.369601
 21
-4.100001999999999
 31
0.0
  0
LINE
  5
F1
330
EC
100
AcDbEntity
  8
SK2
100
AcDbLine
 10
10.830384
 20
-7.599999999999999
 30
0.0
 11
11.291168
 21
-4.099998
 31
0.0
  0
LINE
  5
F2
330
EC
100
AcDbEntity
  8
SK2
100
AcDbLine
 10
10.369601
 20
-4.100001999999999
 30
0.0
 11
11.291168
 21
-4.099998
 31
0.0
  0
LINE
  5
F3
330
EC
100
AcDbEntity
  8
SK2
100
AcDbLine
 10
10.830384
 20
7.599999999999999
 30
0.0
 11
11.291168
 21
4.100001999999999
 31
0.0
  0
LINE
  5
F4
330
EC
100
AcDbEntity
  8
SK2
100
AcDbLine
 10
10.830384
 20
7.599999999999999
 30
0.0
 11
10.369601
 21
4.099998
 31
0.0
  0
LINE
  5
F5
330
EC
100
AcDbEntity
  8
SK2
100
AcDbLine
 10
11.291168
 20
4.100001999999999
 30
0.0
 11
10.369601
 21
4.099998
 31
0.0
  0
ENDBLK
  5
F7
330
EC
100
AcDbEntity
  8
0
100
AcDbBlockEnd
  0
BLOCK
  5
105
330
F9
100
AcDbEntity
  8
0
100
AcDbBlockBegin
  2
DimnDraft3D8
 70
     0
 10
0.0
 20
0.0
 30
0.0
  3
DimnDraft3D8
  1

  0
MTEXT
  5
FA
330
F9
100
AcDbEntity
  8
2
100
AcDbMText
 10
74.709604
 20
12.375
 30
0.0
 40
3.5
 41
0.0
 71
     7
 72
     5
  1
\W01.000;\fsimplex.shx,bigfont.shx;%%c 
  7
DEFAULT
 11
0.0000000000000001
 21
1.0
 31
0.0
 73
     1
 44
1.084337
1001
ACAD
1000
MTEXTBEGIN
1070
    73
1070
     1
1070
    44
1040
1.084337
1070
    74
1070
     0
1000
MTEXTEND
  0
MTEXT
  5
FB
330
F9
100
AcDbEntity
  8
2
100
AcDbMText
 10
74.803354
 20
22.75
 30
0.0
 40
3.0
 41
0.0
 71
     7
 72
     5
  1
\W01.000;\fsimplex.shx,bigfont.shx;16 
  7
blockfont
 11
0.0000000000000001
 21
1.0
 31
0.0
 73
     1
 44
0.9036139999999999
1001
ACAD
1000
MTEXTBEGIN
1070
    73
1070
     1
1070
    44
1040
0.9036139999999999
1070
    74
1070
     0
1000
MTEXTEND
  0
LINE
  5
FC
330
F9
100
AcDbEntity
  8
2
100
AcDbLine
 10
62.87312199999999
 20
-7.856432999999999
 30
0.0
 11
76.209604
 21
-7.856432999999999
 31
0.0
  0
LINE
  5
FD
330
F9
100
AcDbEntity
  8
2
100
AcDbLine
 10
53.7833
 20
8.0
 30
0.0
 11
76.209604
 21
8.0
 31
0.0
  0
LINE
  5
FE
330
F9
100
AcDbEntity
  8
2
100
AcDbLine
 10
76.209604
 20
-7.856432999999999
 30
0.0
 11
76.209604
 21
28.2375
 31
0.0
  0
LINE
  5
FF
330
F9
100
AcDbEntity
  8
2
100
AcDbLine
 10
76.209604
 20
-7.856432999999999
 30
0.0
 11
75.74881999999999
 21
-4.356435
 31
0.0
  0
LINE
  5
100
330
F9
100
AcDbEntity
  8
2
100
AcDbLine
 10
76.209604
 20
-7.856432999999999
 30
0.0
 11
76.670388
 21
-4.356430999999999
 31
0.0
  0
LINE
  5
101
330
F9
100
AcDbEntity
  8
2
100
AcDbLine
 10
75.74881999999999
 20
-4.356435
 30
0.0
 11
76.670388
 21
-4.356430999999999
 31
0.0
  0
LINE
  5
102
330
F9
100
AcDbEntity
  8
2
100
AcDbLine
 10
76.209604
 20
8.0
 30
0.0
 11
76.670388
 21
4.500001999999999
 31
0.0
  0
LINE
  5
103
330
F9
100
AcDbEntity
  8
2
100
AcDbLine
 10
76.209604
 20
8.0
 30
0.0
 11
75.74881999999999
 21
4.499998
 31
0.0
  0
LINE
  5
104
330
F9
100
AcDbEntity
  8
2
100
AcDbLine
 10
76.670388
 20
4.500001999999999
 30
0.0
 11
75.74881999999999
 21
4.499998
 31
0.0
  0
ENDBLK
  5
106
330
F9
100
AcDbEntity
  8
0
100
AcDbBlockEnd
  0
ENDSEC
  0
SECTION
  2
ENTITIES
  0
ARC
  5
67
330
1F
100
AcDbEntity
  8
1
100
AcDbCircle
 10
-62.2
 20
-4.0
 30
0.0
 40
4.00000000000003
210
0.0
220
0.0
230
-1.0
100
AcDbArc
 50
180.0
 51
244.808348
  0
ARC
  5
68
330
1F
100
AcDbEntity
  8
1
100
AcDbCircle
 10
-1.199999999999999
 20
-9.599999999999999
 30
0.0
 40
1.99999999999687
210
0.0
220
0.0
230
-1.0
100
AcDbArc
 50
53.130102
 51
90.0
  0
ARC
  5
69
330
1F
100
AcDbEntity
  8
1
100
AcDbCircle
 10
-1.199999999999999
 20
9.599999999999999
 30
0.0
 40
1.9999999999989
210
0.0
220
0.0
230
-1.0
100
AcDbArc
 50
270.0
 51
306.869898
  0
ARC
  5
6A
330
1F
100
AcDbEntity
  8
1
100
AcDbCircle
 10
-62.2
 20
4.0
 30
0.0
 40
4.000000000000039
210
0.0
220
0.0
230
-1.0
100
AcDbArc
 50
124.6004499999999
 51
180.0
  0
ARC
  5
6B
330
1F
100
AcDbEntity
  8
1
100
AcDbCircle
 10
62.2
 20
4.0
 30
0.0
 40
4.0
100
AcDbArc
 50
63.566297
 51
64.831524
  0
POINT
  5
42
330
1F
100
AcDbEntity
  8
81
100
AcDbPoint
 10
66.2
 20
0.0
 30
0.0
 50
360.0
  0
POINT
  5
44
330
1F
100
AcDbEntity
  8
80
100
AcDbPoint
 10
0.0
 20
0.0
 30
0.0
 50
360.0
  0
SPLINE
  5
6C
330
1F
100
AcDbEntity
  8
1
100
AcDbSpline
210
0.0
220
0.0
230
1.0
 70
    12
 71
     3
 72
    23
 73
    19
 74
     0
 42
0.000000001
 43
0.0000000001
 40
0.0
 40
0.0
 40
0.0
 40
0.0
 40
0.0016341145455753
 40
0.0038289658470319
 40
0.00582705001479
 40
0.0079074288047917
 40
0.0103203522137531
 40
0.0256239569290422
 40
0.087941618794111
 40
0.187958892450889
 40
0.3166358015384
 40
0.427997516405555
 40
0.503023998971213
 40
0.5774565068663771
 40
0.6651318954137771
 40
0.7682501701191821
 40
0.8926619206583101
 40
1.0
 40
1.0
 40
1.0
 40
1.0
 10
44.7169876371235
 20
-7.814243709413429
 30
0.0
 41
1.0
 10
44.7169672416325
 20
-7.814268123565369
 30
0.0
 41
1.0
 10
44.7173249315466
 20
-7.814235353916838
 30
0.0
 41
1.0
 10
44.7196829733777
 20
-7.813784477807019
 30
0.0
 41
1.0
 10
44.72562557332249
 20
-7.81254881027007
 30
0.0
 41
1.0
 10
44.73448833863201
 20
-7.810666566863429
 30
0.0
 41
1.0
 10
44.7649642068385
 20
-7.804138170139848
 30
0.0
 41
1.0
 10
44.88857511624179
 20
-7.777375080862209
 30
0.0
 41
1.0
 10
45.1549849763282
 20
-7.718070859430179
 30
0.0
 41
1.0
 10
45.59619255156589
 20
-7.61424571000029
 30
0.0
 41
1.0
 10
46.1062384409284
 20
-7.4856445646183
 30
0.0
 41
1.0
 10
46.58234232219379
 20
-7.358307546716619
 30
0.0
 41
1.0
 10
46.9805706142547
 20
-7.247474113571089
 30
0.0
 41
1.0
 10
47.34185180074229
 20
-7.143946768244889
 30
0.0
 41
1.0
 10
47.7445199768909
 20
-7.02545052496276
 30
0.0
 41
1.0
 10
48.222310024385
 20
-6.88067256714723
 30
0.0
 41
1.0
 10
48.7301591149911
 20
-6.722888262306099
 30
0.0
 41
1.0
 10
49.0814996015845
 20
-6.61141791888181
 30
0.0
 41
1.0
 10
49.2442085154982
 20
-6.55946858768732
 30
0.0
 41
1.0
  0
SPLINE
  5
6D
330
1F
100
AcDbEntity
  8
1
100
AcDbSpline
210
0.0
220
0.0
230
1.0
 70
    12
 71
     3
 72
    25
 73
    21
 74
     0
 42
0.000000001
 43
0.0000000001
 40
0.0
 40
0.0
 40
0.0
 40
0.0
 40
0.0152903557984265
 40
0.0325262897354202
 40
0.0501788263794681
 40
0.0697329438323423
 40
0.160917237017379
 40
0.271496973957613
 40
0.341699999130517
 40
0.3890358550845139
 40
0.43530076995185
 40
0.4906841875269501
 40
0.5551932529881761
 40
0.6552921977725301
 40
0.7250612166096509
 40
0.7929682445172411
 40
0.8339492035260949
 40
0.880155524696898
 40
0.943979302140762
 40
1.0
 40
1.0
 40
1.0
 40
1.0
 10
31.1735679699166
 20
5.567975029540009
 30
0.0
 41
1.0
 10
31.1743707905592
 20
5.57052321008524
 30
0.0
 41
1.0
 10
31.1697241891239
 20
5.577235847040499
 30
0.0
 41
1.0
 10
31.1340562500252
 20
5.594215107446809
 30
0.0
 41
1.0
 10
31.0641677798328
 20
5.619800361388369
 30
0.0
 41
1.0
 10
30.8494333898732
 20
5.69166923357812
 30
0.0
 41
1.0
 10
30.41819747733061
 20
5.828899973308919
 30
0.0
 41
1.0
 10
29.8742485145814
 20
6.004231768251659
 30
0.0
 41
1.0
 10
29.4198941281109
 20
6.151479511103049
 30
0.0
 41
1.0
 10
29.0932511220266
 20
6.25739131578845
 30
0.0
 41
1.0
 10
28.7963059527708
 20
6.353528868940509
 30
0.0
 41
1.0
 10
28.4651357029559
 20
6.46031266171403
 30
0.0
 41
1.0
 10
28.0267954076076
 20
6.60080585666327
 30
0.0
 41
1.0
 10
27.55982887521981
 20
6.748374429330739
 30
0.0
 41
1.0
 10
27.0852500996115
 20
6.89520420211815
 30
0.0
 41
1.0
 10
26.7283194391982
 20
7.003412217052559
 30
0.0
 41
1.0
 10
26.4186768691775
 20
7.09528448002683
 30
0.0
 41
1.0
 10
26.11742280523901
 20
7.18300662306223
 30
0.0
 41
1.0
 10
25.785703059881
 20
7.27764053781686
 30
0.0
 41
1.0
 10
25.5463667914179
 20
7.342889269298098
 30
0.0
 41
1.0
 10
25.4344736284953
 20
7.372845434224019
 30
0.0
 41
1.0
  0
SPLINE
  5
6E
330
1F
100
AcDbEntity
  8
1
100
AcDbSpline
210
0.0
220
0.0
230
1.0
 70
    12
 71
     3
 72
    34
 73
    30
 74
     0
 42
0.000000001
 43
0.0000000001
 40
0.0
 40
0.0
 40
0.0
 40
0.0
 40
0.0056079122044517
 40
0.0189706663774921
 40
0.0323687974914368
 40
0.0470113586306667
 40
0.0802076362842565
 40
0.156262314190442
 40
0.234536422269637
 40
0.281412653005974
 40
0.326141723464376
 40
0.387685957664142
 40
0.4603405144528131
 40
0.524648635020562
 40
0.5849831818748679
 40
0.6349082899821129
 40
0.6786111516291871
 40
0.716302724742077
 40
0.762980002361406
 40
0.8287625917865659
 40
0.897546627261884
 40
0.9502895420622778
 40
0.9839347844253749
 40
0.993779293233714
 40
0.9952971540837831
 40
0.9965817978602121
 40
0.997800427846011
 40
0.9991454449106978
 40
1.0
 40
1.0
 40
1.0
 40
1.0
 10
62.82165948615521
 20
5.56240750439437
 30
0.0
 41
1.0
 10
62.8220992054316
 20
5.563639710073029
 30
0.0
 41
1.0
 10
62.8209925440462
 20
5.5683943804832
 30
0.0
 41
1.0
 10
62.8019981698168
 20
5.580360933690459
 30
0.0
 41
1.0
 10
62.7447293215785
 20
5.60316041954118
 30
0.0
 41
1.0
 10
62.622993004099
 20
5.64527001768604
 30
0.0
 41
1.0
 10
62.33008755854939
 20
5.74051130179578
 30
0.0
 41
1.0
 10
61.8421528972046
 20
5.896038702932369
 30
0.0
 41
1.0
 10
61.31713823502409
 20
6.06591944062049
 30
0.0
 41
1.0
 10
60.87395361767949
 20
6.20960757990682
 30
0.0
 41
1.0
 10
60.4744431856882
 20
6.339083494949929
 30
0.0
 41
1.0
 10
60.00763612661121
 20
6.48963924794054
 30
0.0
 41
1.0
 10
59.4897054347822
 20
6.65507466122753
 30
0.0
 41
1.0
 10
58.9747418278641
 20
6.81636630953665
 30
0.0
 41
1.0
 10
58.5191596377734
 20
6.956097238345759
 30
0.0
 41
1.0
 10
58.1172809658065
 20
7.076266786513939
 30
0.0
 41
1.0
 10
57.7739895795644
 20
7.176334437752299
 30
0.0
 41
1.0
 10
57.4379226207417
 20
7.27197420262138
 30
0.0
 41
1.0
 10
57.0449421870575
 20
7.380659970080979
 30
0.0
 41
1.0
 10
56.5735256230475
 20
7.50554719819004
 30
0.0
 41
1.0
 10
56.08827750014921
 20
7.626748920473519
 30
0.0
 41
1.0
 10
55.68367375659789
 20
7.721557320577349
 30
0.0
 41
1.0
 10
55.4340969508562
 20
7.777117269558199
 30
0.0
 41
1.0
 10
55.3155773541474
 20
7.802807017727049
 30
0.0
 41
1.0
 10
55.2817795808993
 20
7.81005615298057
 30
0.0
 41
1.0
 10
55.2720741620635
 20
7.81212117895333
 30
0.0
 41
1.0
 10
55.2656234358029
 20
7.813465737186449
 30
0.0
 41
1.0
 10
55.2633021476656
 20
7.81390864906211
 30
0.0
 41
1.0
 10
55.2629743920399
 20
7.81393614395125
 30
0.0
 41
1.0
 10
55.2629884920664
 20
7.813915444648129
 30
0.0
 41
1.0
  0
SPLINE
  5
6F
330
1F
100
AcDbEntity
  8
1
100
AcDbSpline
210
0.0
220
0.0
230
1.0
 70
    12
 71
     3
 72
    19
 73
    15
 74
     0
 42
0.000000001
 43
0.0000000001
 40
0.0
 40
0.0
 40
0.0
 40
0.0
 40
0.0043469434581306
 40
0.0073046565388353
 40
0.0101322306317328
 40
0.0129798485807733
 40
0.015994338419574
 40
0.0229715782947024
 40
0.0699598136842092
 40
0.256028907123961
 40
0.4211166288937651
 40
0.6358657209507351
 40
0.8407681708241309
 40
1.0
 40
1.0
 40
1.0
 40
1.0
 10
34.2739548592035
 20
-7.791542782159179
 30
0.0
 41
1.0
 10
34.273939723662
 20
-7.791669048017499
 30
0.0
 41
1.0
 10
34.2749227855005
 20
-7.791647233098099
 30
0.0
 41
1.0
 10
34.2798701710593
 20
-7.790789467494509
 30
0.0
 41
1.0
 10
34.286831581835
 20
-7.78942088798601
 30
0.0
 41
1.0
 10
34.2963350950964
 20
-7.78745576829061
 30
0.0
 41
1.0
 10
34.3130532751204
 20
-7.783908724495689
 30
0.0
 41
1.0
 10
34.3987623299676
 20
-7.76529210787695
 30
0.0
 41
1.0
 10
34.7645719104839
 20
-7.68317737128819
 30
0.0
 41
1.0
 10
35.34992110895061
 20
-7.54170091853783
 30
0.0
 41
1.0
 10
36.1940395820729
 20
-7.317886336545709
 30
0.0
 41
1.0
 10
37.0570423205621
 20
-7.070032937338741
 30
0.0
 41
1.0
 10
37.919947474908
 20
-6.80658763992832
 30
0.0
 41
1.0
 10
38.46348043543351
 20
-6.63486214751538
 30
0.0
 41
1.0
 10
38.7008580959851
 20
-6.559119389994349
 30
0.0
 41
1.0
  0
SPLINE
  5
70
330
1F
100
AcDbEntity
  8
1
100
AcDbSpline
210
0.0
220
0.0
230
1.0
 70
    12
 71
     3
 72
    29
 73
    25
 74
     0
 42
0.000000001
 43
0.0000000001
 40
0.0
 40
0.0
 40
0.0
 40
0.0
 40
0.0470118862509013
 40
0.0886161039582981
 40
0.10399306979641
 40
0.116547099892659
 40
0.122198070536724
 40
0.127725166098689
 40
0.147720172886046
 40
0.170417854054564
 40
0.211171334342502
 40
0.2954103316635439
 40
0.4259134347997321
 40
0.5480921737027009
 40
0.7032190241649661
 40
0.830802316601196
 40
0.9601922851700109
 40
0.986933422749704
 40
0.9909041896848879
 40
0.992619744373073
 40
0.9942403317971049
 40
0.995849512205949
 40
0.997532755080612
 40
1.0
 40
1.0
 40
1.0
 40
1.0
 10
41.3200441896966
 20
5.644338645263499
 30
0.0
 41
1.0
 10
41.32642569870739
 20
5.66203867347082
 30
0.0
 41
1.0
 10
41.32730605438989
 20
5.691083463747499
 30
0.0
 41
1.0
 10
41.2961316000367
 20
5.718135947235059
 30
0.0
 41
1.0
 10
41.2282001994321
 20
5.74405480115198
 30
0.0
 41
1.0
 10
41.17350019454289
 20
5.76207184973717
 30
0.0
 41
1.0
 10
41.12210588749479
 20
5.77849908871235
 30
0.0
 41
1.0
 10
41.0454615917878
 20
5.802887968544009
 30
0.0
 41
1.0
 10
40.9157614012424
 20
5.844360904677559
 30
0.0
 41
1.0
 10
40.6988952711331
 20
5.91395819898833
 30
0.0
 41
1.0
 10
40.3115335700982
 20
6.03888630677028
 30
0.0
 41
1.0
 10
39.6438421335405
 20
6.25544433707378
 30
0.0
 41
1.0
 10
38.7630302548958
 20
6.54068806273094
 30
0.0
 41
1.0
 10
37.6917827714624
 20
6.87839935582266
 30
0.0
 41
1.0
 10
36.6376048062374
 20
7.194332985193599
 30
0.0
 41
1.0
 10
35.56076740289571
 20
7.489468749704999
 30
0.0
 41
1.0
 10
34.827226660735
 20
7.66911959723845
 30
0.0
 41
1.0
 10
34.39876566020851
 20
7.765291278537549
 30
0.0
 41
1.0
 10
34.3130531822054
 20
7.783908747685529
 30
0.0
 41
1.0
 10
34.2963351030512
 20
7.78745576622848
 30
0.0
 41
1.0
 10
34.2868316061182
 20
7.78942088223261
 30
0.0
 41
1.0
 10
34.2798700646208
 20
7.790789492886769
 30
0.0
 41
1.0
 10
34.2749289646217
 20
7.791646128784379
 30
0.0
 41
1.0
 10
34.2739412377739
 20
7.79166936376237
 30
0.0
 41
1.0
 10
34.273953135672
 20
7.79154417720301
 30
0.0
 41
1.0
  0
SPLINE
  5
71
330
1F
100
AcDbEntity
  8
1
100
AcDbSpline
210
0.0
220
0.0
230
1.0
 70
    12
 71
     3
 72
    22
 73
    18
 74
     0
 42
0.000000001
 43
0.0000000001
 40
0.0
 40
0.0
 40
0.0
 40
0.0
 40
0.0014814174741185
 40
0.0038044947004932
 40
0.0059092795703024
 40
0.0081280816802376
 40
0.0107496900346435
 40
0.0277528603422447
 40
0.10787212060585
 40
0.238365860741611
 40
0.3912637453060479
 40
0.494398418891911
 40
0.5826004544390911
 40
0.688812005395705
 40
0.821001054031228
 40
0.9625002175044999
 40
1.0
 40
1.0
 40
1.0
 40
1.0
 10
55.2629630558822
 20
-7.813920601784759
 30
0.0
 41
1.0
 10
55.26295860914199
 20
-7.813939346750459
 30
0.0
 41
1.0
 10
55.2633110322031
 20
-7.813906736881679
 30
0.0
 41
1.0
 10
55.2656203086141
 20
-7.81346639547607
 30
0.0
 41
1.0
 10
55.272075018381
 20
-7.81212099841684
 30
0.0
 41
1.0
 10
55.28177925853889
 20
-7.8100562221187
 30
0.0
 41
1.0
 10
55.315578779775
 20
-7.802806698258169
 30
0.0
 41
1.0
 10
55.4675826161482
 20
-7.76986017523495
 30
0.0
 41
1.0
 10
55.8095296530419
 20
-7.69312322933092
 30
0.0
 41
1.0
 10
56.3570332842956
 20
-7.5613384712785
 30
0.0
 41
1.0
 10
56.9371570002051
 20
-7.41030340106667
 30
0.0
 41
1.0
 10
57.45896766349689
 20
-7.266384635771401
 30
0.0
 41
1.0
 10
57.910737187124
 20
-7.137046207708009
 30
0.0
 41
1.0
 10
58.4044308499557
 20
-6.991124505609231
 30
0.0
 41
1.0
 10
58.9784310067537
 20
-6.81556059052178
 30
0.0
 41
1.0
 10
59.4486950426318
 20
-6.667780134209519
 30
0.0
 41
1.0
 10
59.71912862761721
 20
-6.581680968984239
 30
0.0
 41
1.0
 10
59.7757812049581
 20
-6.56360194235725
 30
0.0
 41
1.0
  0
SPLINE
  5
72
330
1F
100
AcDbEntity
  8
1
100
AcDbSpline
210
0.0
220
0.0
230
1.0
 70
    12
 71
     3
 72
    35
 73
    31
 74
     0
 42
0.000000001
 43
0.0000000001
 40
0.0
 40
0.0
 40
0.0
 40
0.0
 40
0.0029852510607962
 40
0.053100074182983
 40
0.090081950699254
 40
0.103615566336981
 40
0.11495555315294
 40
0.120345328514478
 40
0.140464319090065
 40
0.163651094110219
 40
0.205853683540005
 40
0.293129744650463
 40
0.36088698427169
 40
0.4213671764610471
 40
0.4989217667470571
 40
0.5919406286404201
 40
0.699146388168889
 40
0.7846185126090509
 40
0.8557141643621569
 40
0.9401611488014449
 40
0.977403626552237
 40
0.9906379115644909
 40
0.997955268762621
 40
0.9988971456132869
 40
0.99924879210248
 40
0.999532349457214
 40
0.9997666453012699
 40
0.9998755097035928
 40
0.9999850076010579
 40
1.0
 40
1.0
 40
1.0
 40
1.0
 10
51.9007814795944
 20
5.639374333905719
 30
0.0
 41
1.0
 10
51.9011509164142
 20
5.640542668545809
 30
0.0
 41
1.0
 10
51.9073318618655
 20
5.661086688251459
 30
0.0
 41
1.0
 10
51.9068468468761
 20
5.686508683929699
 30
0.0
 41
1.0
 10
51.8628080759644
 20
5.713807305985679
 30
0.0
 41
1.0
 10
51.7843432539793
 20
5.740933889005329
 30
0.0
 41
1.0
 10
51.7228532118742
 20
5.76058769376084
 30
0.0
 41
1.0
 10
51.6307817840769
 20
5.789809585717139
 30
0.0
 41
1.0
 10
51.4968463157849
 20
5.83262236802582
 30
0.0
 41
1.0
 10
51.2703613515
 20
5.90525203811808
 30
0.0
 41
1.0
 10
50.8618211479283
 20
6.036969903398469
 30
0.0
 41
1.0
 10
50.336362165683
 20
6.207441927678869
 30
0.0
 41
1.0
 10
49.76128974498689
 20
6.393662554056869
 30
0.0
 41
1.0
 10
49.2122177223047
 20
6.570128096445219
 30
0.0
 41
1.0
 10
48.5943693914251
 20
6.765692968436979
 30
0.0
 41
1.0
 10
47.85196294318289
 20
6.994371399103099
 30
0.0
 41
1.0
 10
47.0935802294235
 20
7.21722383997187
 30
0.0
 41
1.0
 10
46.39277329273539
 20
7.410650804825928
 30
0.0
 41
1.0
 10
45.7498897383956
 20
7.57690316105075
 30
0.0
 41
1.0
 10
45.2352348826927
 20
7.700180637634559
 30
0.0
 41
1.0
 10
44.8758409878006
 20
7.780242135197849
 30
0.0
 41
1.0
 10
44.7211091574794
 20
7.813583534982679
 30
0.0
 41
1.0
 10
44.6623614844726
 20
7.82606644699933
 30
0.0
 41
1.0
 10
44.63870826777649
 20
7.83104015459355
 30
0.0
 41
1.0
 10
44.6345697007323
 20
7.831906008220779
 30
0.0
 41
1.0
 10
44.63245997246179
 20
7.832345198965209
 30
0.0
 41
1.0
 10
44.6312560914195
 20
7.83259310237915
 30
0.0
 41
1.0
 10
44.6307378582402
 20
7.832697278913739
 30
0.0
 41
1.0
 10
44.6306212191512
 20
7.83271910782608
 30
0.0
 41
1.0
 10
44.6305831510866
 20
7.83272574344463
 30
0.0
 41
1.0
 10
44.63057329566479
 20
7.832727443581259
 30
0.0
 41
1.0
  0
SPLINE
  5
73
330
1F
100
AcDbEntity
  8
1
100
AcDbSpline
210
0.0
220
0.0
230
1.0
 70
    12
 71
     3
 72
    14
 73
    10
 74
     0
 42
0.000000001
 43
0.0000000001
 40
0.0
 40
0.0
 40
0.0
 40
0.0
 40
0.0649914340351372
 40
0.208825224210757
 40
0.374993766987977
 40
0.585898579070129
 40
0.7455379164082629
 40
0.885715220003197
 40
1.0
 40
1.0
 40
1.0
 40
1.0
 10
25.315166327873
 20
-7.404354166412299
 30
0.0
 41
1.0
 10
25.386455441643
 20
-7.38528646364347
 30
0.0
 41
1.0
 10
25.6147403971373
 20
-7.323622549980768
 30
0.0
 41
1.0
 10
26.02098522646139
 20
-7.209061498915359
 30
0.0
 41
1.0
 10
26.5737385619852
 20
-7.049803423798719
 30
0.0
 41
1.0
 10
27.1397522903932
 20
-6.878929867555259
 30
0.0
 41
1.0
 10
27.687906631306
 20
-6.7081438624457
 30
0.0
 41
1.0
 10
28.1346127450742
 20
-6.56631719446099
 30
0.0
 41
1.0
 10
28.408947547215
 20
-6.47831189067841
 30
0.0
 41
1.0
 10
28.5321344380648
 20
-6.43866425838667
 30
0.0
 41
1.0
  0
SPLINE
  5
74
330
1F
100
AcDbEntity
  8
1
100
AcDbSpline
210
0.0
220
0.0
230
1.0
 70
    12
 71
     3
 72
    82
 73
    78
 74
     0
 42
0.000000001
 43
0.0000000001
 40
0.0
 40
0.0
 40
0.0
 40
0.0
 40
0.0237914506167969
 40
0.0237914506167969
 40
0.0671669304522074
 40
0.0671669304522074
 40
0.0888546703699127
 40
0.0888546703699127
 40
0.0996985403287654
 40
0.0996985403287654
 40
0.110542410287618
 40
0.110542410287618
 40
0.153917890123029
 40
0.153917890123029
 40
0.197293369958439
 40
0.197293369958439
 40
0.218981109876144
 40
0.218981109876144
 40
0.240668849793849
 40
0.240668849793849
 40
0.284044329629259
 40
0.284044329629259
 40
0.327419809464669
 40
0.327419809464669
 40
0.349107549382374
 40
0.349107549382374
 40
0.370795289300079
 40
0.370795289300079
 40
0.41417076913549
 40
0.41417076913549
 40
0.4358585090531951
 40
0.4358585090531951
 40
0.4575462489709001
 40
0.4575462489709001
 40
0.4792339888886051
 40
0.4792339888886051
 40
0.490077858847458
 40
0.490077858847458
 40
0.50092172880631
 40
0.50092172880631
 40
0.54429720864172
 40
0.54429720864172
 40
0.5659849485594251
 40
0.5659849485594251
 40
0.5876726884771301
 40
0.5876726884771301
 40
0.609360428394835
 40
0.609360428394835
 40
0.6310481683125401
 40
0.6310481683125401
 40
0.6744236481479512
 40
0.6744236481479512
 40
0.717799127983361
 40
0.717799127983361
 40
0.739486867901066
 40
0.739486867901066
 40
0.761174607818771
 40
0.761174607818771
 40
0.804550087654181
 40
0.804550087654181
 40
0.847925567489591
 40
0.847925567489591
 40
0.858769437448443
 40
0.858769437448443
 40
0.8696133074072957
 40
0.8696133074072957
 40
0.8913010473250022
 40
0.8913010473250022
 40
0.934676527160412
 40
0.934676527160412
 40
0.9780520069958228
 40
0.9780520069958228
 40
0.9888958769546759
 40
0.9888958769546759
 40
0.9997397469135279
 40
0.9997397469135279
 40
1.0
 40
1.0
 40
1.0
 40
1.0
 10
55.7429658796061
 20
-7.661564076270678
 30
0.0
 41
1.0
 10
55.5605268569551
 20
-7.72413805170029
 30
0.0
 41
1.0
 10
55.37863936949061
 20
-7.778023059589999
 30
0.0
 41
1.0
 10
54.86567276142579
 20
-7.90580008542525
 30
0.0
 41
1.0
 10
54.535097284897
 20
-7.959654681496549
 30
0.0
 41
1.0
 10
54.0369493599571
 20
-7.996737132115529
 30
0.0
 41
1.0
 10
53.8705271009217
 20
-8.00180315212461
 30
0.0
 41
1.0
 10
53.619934922128
 20
-7.998248230171441
 30
0.0
 41
1.0
 10
53.5362437567811
 20
-7.995203294054079
 30
0.0
 41
1.0
 10
53.3684664630453
 20
-7.9853466671911
 30
0.0
 41
1.0
 10
53.28455874835809
 20
-7.978540549525599
 30
0.0
 41
1.0
 10
52.86638110966329
 20
-7.935348739751849
 30
0.0
 41
1.0
 10
52.53455905825621
 20
-7.871470890414599
 30
0.0
 41
1.0
 10
51.872136064037
 20
-7.68735731178137
 30
0.0
 41
1.0
 10
51.54149826579621
 20
-7.567122757239669
 30
0.0
 41
1.0
 10
51.0432167512265
 20
-7.34496279966274
 30
0.0
 41
1.0
 10
50.876743769218
 20
-7.26392584397348
 30
0.0
 41
1.0
 10
50.5424718236433
 20
-7.08780868008671
 30
0.0
 41
1.0
 10
50.3742296578754
 20
-6.992435760774808
 30
0.0
 41
1.0
 10
49.8726332689345
 20
-6.688832368844799
 30
0.0
 41
1.0
 10
49.5409476528728
 20
-6.462479875597839
 30
0.0
 41
1.0
 10
48.8785941450828
 20
-5.965293713483219
 30
0.0
 41
1.0
 10
48.5478961420272
 20
-5.6944771494677
 30
0.0
 41
1.0
 10
48.0494937604743
 20
-5.256374051374759
 30
0.0
 41
1.0
 10
47.88296201315449
 20
-5.1050188065777
 30
0.0
 41
1.0
 10
47.54850510671629
 20
-4.79183721878496
 30
0.0
 41
1.0
 10
47.38033628737779
 20
-4.62974444918646
 30
0.0
 41
1.0
 10
46.8776556644299
 20
-4.13262571220491
 30
0.0
 41
1.0
 10
46.5435708555366
 20
-3.78552887506612
 30
0.0
 41
1.0
 10
46.0405781571025
 20
-3.243816983971899
 30
0.0
 41
1.0
 10
45.872569538357
 20
-3.059658058347769
 30
0.0
 41
1.0
 10
45.53754712846649
 20
-2.687026325346749
 30
0.0
 41
1.0
 10
45.3702673535694
 20
-2.498270419875009
 30
0.0
 41
1.0
 10
45.03559050126799
 20
-2.116353937620909
 30
0.0
 41
1.0
 10
44.8681866470572
 20
-1.923199049611439
 30
0.0
 41
1.0
 10
44.6165983050955
 20
-1.63046233598033
 30
0.0
 41
1.0
 10
44.5325998563837
 20
-1.532317582528269
 30
0.0
 41
1.0
 10
44.3648631591887
 20
-1.335652884822679
 30
0.0
 41
1.0
 10
44.2810803218474
 20
-1.237081592540139
 30
0.0
 41
1.0
 10
43.8624155798875
 20
-0.7431825194416892
 30
0.0
 41
1.0
 10
43.52824117764689
 20
-0.3447673768985169
 30
0.0
 41
1.0
 10
43.0248747157958
 20
0.255102283375749
 30
0.0
 41
1.0
 10
42.8569943153767
 20
0.455133281215893
 30
0.0
 41
1.0
 10
42.52146391439359
 20
0.8536882404699499
 30
0.0
 41
1.0
 10
42.35352764152239
 20
1.05253339430948
 30
0.0
 41
1.0
 10
42.01791836138549
 20
1.447555860341229
 30
0.0
 41
1.0
 10
41.8502081132173
 20
1.643792613220909
 30
0.0
 41
1.0
 10
41.5144301119931
 20
2.033262142638649
 30
0.0
 41
1.0
 10
41.3471849408876
 20
2.22553628762802
 30
0.0
 41
1.0
 10
40.84732070776989
 20
2.793465824335839
 30
0.0
 41
1.0
 10
40.51621416153739
 20
3.160695513539279
 30
0.0
 41
1.0
 10
39.8540866234121
 20
3.86958206625164
 30
0.0
 41
1.0
 10
39.5230091533845
 20
4.21119592271177
 30
0.0
 41
1.0
 10
39.0232296812158
 20
4.701702919977919
 30
0.0
 41
1.0
 10
38.856037861994
 20
4.861615011603619
 30
0.0
 41
1.0
 10
38.5202998106641
 20
5.17327303704744
 30
0.0
 41
1.0
 10
38.35322655347111
 20
5.323637992260249
 30
0.0
 41
1.0
 10
37.8535729519481
 20
5.758233253339339
 30
0.0
 41
1.0
 10
37.5225909716159
 20
6.0260231370932
 30
0.0
 41
1.0
 10
36.86042785740521
 20
6.51600317870728
 30
0.0
 41
1.0
 10
36.52927557443911
 20
6.738212617746089
 30
0.0
 41
1.0
 10
36.1126107856608
 20
6.985652576214619
 30
0.0
 41
1.0
 10
36.0291391410979
 20
7.033619867162999
 30
0.0
 41
1.0
 10
35.8618419598801
 20
7.126448419294689
 30
0.0
 41
1.0
 10
35.7779040072012
 20
7.171366056672549
 30
0.0
 41
1.0
 10
35.526256238005
 20
7.30094840303923
 30
0.0
 41
1.0
 10
35.3592792327483
 20
7.380176290151839
 30
0.0
 41
1.0
 10
34.8598817873447
 20
7.59660299366567
 30
0.0
 41
1.0
 10
34.5289672421615
 20
7.71258658108988
 30
0.0
 41
1.0
 10
33.8668057541522
 20
7.88783383624781
 30
0.0
 41
1.0
 10
33.5356420421895
 20
7.947112142413599
 30
0.0
 41
1.0
 10
33.1187850066889
 20
7.984642959990769
 30
0.0
 41
1.0
 10
33.0352675468394
 20
7.99031664693854
 30
0.0
 41
1.0
 10
32.8678752927587
 20
7.99795348227445
 30
0.0
 41
1.0
 10
32.78387336422071
 20
7.999915062447509
 30
0.0
 41
1.0
 10
32.6980121270691
 20
7.99999926479711
 30
0.0
 41
1.0
 10
32.6959998496593
 20
8.000000160516579
 30
0.0
 41
1.0
 10
32.6939876686521
 20
7.99999997871575
 30
0.0
 41
1.0
  0
SPLINE
  5
75
330
1F
100
AcDbEntity
  8
1
100
AcDbSpline
210
0.0
220
0.0
230
1.0
 70
    12
 71
     3
 72
    82
 73
    78
 74
     0
 42
0.000000001
 43
0.0000000001
 40
0.0
 40
0.0
 40
0.0
 40
0.0
 40
0.0105961957453939
 40
0.0105961957453939
 40
0.0212349463287769
 40
0.0212349463287769
 40
0.0637899486623083
 40
0.0637899486623083
 40
0.10634495099584
 40
0.10634495099584
 40
0.127622452162606
 40
0.127622452162606
 40
0.138261202745988
 40
0.138261202745988
 40
0.148899953329371
 40
0.148899953329371
 40
0.191454955662902
 40
0.191454955662902
 40
0.234009957996434
 40
0.234009957996434
 40
0.2552874591632
 40
0.2552874591632
 40
0.265926209746583
 40
0.265926209746583
 40
0.276564960329966
 40
0.276564960329966
 40
0.319119962663497
 40
0.319119962663497
 40
0.361674964997029
 40
0.361674964997029
 40
0.382952466163795
 40
0.382952466163795
 40
0.393591216747178
 40
0.393591216747178
 40
0.40422996733056
 40
0.40422996733056
 40
0.4467849696640922
 40
0.4467849696640922
 40
0.489339971997624
 40
0.489339971997624
 40
0.510617473164389
 40
0.510617473164389
 40
0.5318949743311551
 40
0.5318949743311551
 40
0.574449976664687
 40
0.574449976664687
 40
0.6170049789982181
 40
0.6170049789982181
 40
0.6382824801649841
 40
0.6382824801649841
 40
0.6489212307483671
 40
0.6489212307483671
 40
0.65955998133175
 40
0.65955998133175
 40
0.7021149836652809
 40
0.7021149836652809
 40
0.7446699859988121
 40
0.7446699859988121
 40
0.765947487165578
 40
0.765947487165578
 40
0.776586237748961
 40
0.776586237748961
 40
0.7872249883323441
 40
0.7872249883323441
 40
0.8297799906658749
 40
0.8297799906658749
 40
0.8723349929994059
 40
0.8723349929994059
 40
0.8936124941661709
 40
0.8936124941661709
 40
0.9042512447495541
 40
0.9042512447495541
 40
0.9148899953329369
 40
0.9148899953329369
 40
0.9574449976664689
 40
0.9574449976664689
 40
1.0
 40
1.0
 40
1.0
 40
1.0
 10
38.69661936413571
 20
6.573225760442169
 30
0.0
 41
1.0
 10
38.7798536593826
 20
6.62976583698023
 30
0.0
 41
1.0
 10
38.86323599140551
 20
6.68489132574496
 30
0.0
 41
1.0
 10
39.0307042860515
 20
6.79246202636335
 30
0.0
 41
1.0
 10
39.114906317799
 20
6.844961360885779
 30
0.0
 41
1.0
 10
39.53453706354671
 20
7.098501191012759
 30
0.0
 41
1.0
 10
39.867260407702
 20
7.273712803626489
 30
0.0
 41
1.0
 10
40.53116263203221
 20
7.56913808363279
 30
0.0
 41
1.0
 10
40.86233833716149
 20
7.689348470130309
 30
0.0
 41
1.0
 10
41.36113786110921
 20
7.82737203751196
 30
0.0
 41
1.0
 10
41.5277420035212
 20
7.86631880576925
 30
0.0
 41
1.0
 10
41.778575496124
 20
7.91389423049299
 30
0.0
 41
1.0
 10
41.8623414208948
 20
7.92794436658815
 30
0.0
 41
1.0
 10
42.03025567760129
 20
7.95237463768811
 30
0.0
 41
1.0
 10
42.1144446482615
 20
7.962752006410029
 30
0.0
 41
1.0
 10
42.533811355559
 20
8.00510463630562
 30
0.0
 41
1.0
 10
42.86639601001589
 20
8.008904892346579
 30
0.0
 41
1.0
 10
43.53019385297811
 20
7.958214445264619
 30
0.0
 41
1.0
 10
43.8613956757547
 20
7.903720248804519
 30
0.0
 41
1.0
 10
44.3603425917878
 20
7.778337208399991
 30
0.0
 41
1.0
 10
44.5270177568832
 20
7.72925616401292
 30
0.0
 41
1.0
 10
44.77799057799169
 20
7.64459363860621
 30
0.0
 41
1.0
 10
44.86180835088109
 20
7.61453177127862
 30
0.0
 41
1.0
 10
45.02983638097229
 20
7.55069647825201
 30
0.0
 41
1.0
 10
45.113961458683
 20
7.516949058142219
 30
0.0
 41
1.0
 10
45.5330644975709
 20
7.34007354896457
 30
0.0
 41
1.0
 10
45.8655217291616
 20
7.171845734855049
 30
0.0
 41
1.0
 10
46.52923039678629
 20
6.785098920188429
 30
0.0
 41
1.0
 10
46.86045235979539
 20
6.566565013837419
 30
0.0
 41
1.0
 10
47.3595633179399
 20
6.202230058749419
 30
0.0
 41
1.0
 10
47.5263148093953
 20
6.07468558693924
 30
0.0
 41
1.0
 10
47.77742981178279
 20
5.87426961986557
 30
0.0
 41
1.0
 10
47.8612993062466
 20
5.805946875522919
 30
0.0
 41
1.0
 10
48.02944066272489
 20
5.66626714018108
 30
0.0
 41
1.0
 10
48.1134500658878
 20
5.5951261601256
 30
0.0
 41
1.0
 10
48.53229657296299
 20
5.23399626514004
 30
0.0
 41
1.0
 10
48.8646440927917
 20
4.926882604084109
 30
0.0
 41
1.0
 10
49.5282617733185
 20
4.280071032736169
 30
0.0
 41
1.0
 10
49.85951759278639
 20
3.94036109423314
 30
0.0
 41
1.0
 10
50.35880308856651
 20
3.40846194947474
 30
0.0
 41
1.0
 10
50.525629776075
 20
3.22743103656808
 30
0.0
 41
1.0
 10
50.8606398071417
 20
2.85818439930756
 30
0.0
 41
1.0
 10
51.0291935231306
 20
2.669537642060189
 30
0.0
 41
1.0
 10
51.53151846664091
 20
2.100377577977639
 30
0.0
 41
1.0
 10
51.86375143893799
 20
1.71473148946598
 30
0.0
 41
1.0
 10
52.5272916350649
 20
0.9348637298312208
 30
0.0
 41
1.0
 10
52.85859680141211
 20
0.5406400339730621
 30
0.0
 41
1.0
 10
53.3580551720772
 20
-0.054497673622194
 30
0.0
 41
1.0
 10
53.52495875318379
 20
-0.253511836827073
 30
0.0
 41
1.0
 10
53.7763673318412
 20
-0.5526502656790341
 30
0.0
 41
1.0
 10
53.8604585030649
 20
-0.652599345139578
 30
0.0
 41
1.0
 10
54.0285246279266
 20
-0.8520037400045058
 30
0.0
 41
1.0
 10
54.11236005045771
 20
-0.9512937276506079
 30
0.0
 41
1.0
 10
54.53072939162151
 20
-1.445565226304439
 30
0.0
 41
1.0
 10
54.8628454772472
 20
-1.834028534011419
 30
0.0
 41
1.0
 10
55.5263292645831
 20
-2.5938534085474
 30
0.0
 41
1.0
 10
55.85767730464439
 20
-2.965230605996339
 30
0.0
 41
1.0
 10
56.3573207505251
 20
-3.5067787247674
 30
0.0
 41
1.0
 10
56.5243082964659
 20
-3.684702186449529
 30
0.0
 41
1.0
 10
56.77587464799739
 20
-3.94730177863104
 30
0.0
 41
1.0
 10
56.8600479759564
 20
-4.03425904308997
 30
0.0
 41
1.0
 10
57.02800110201179
 20
-4.205830654735589
 30
0.0
 41
1.0
 10
57.11178447360111
 20
-4.290452957884379
 30
0.0
 41
1.0
 10
57.52991787237029
 20
-4.707694599780519
 30
0.0
 41
1.0
 10
57.8619353143841
 20
-5.022740556197249
 30
0.0
 41
1.0
 10
58.5253719345568
 20
-5.61339628859713
 30
0.0
 41
1.0
 10
58.8567623912599
 20
-5.8890227768251
 30
0.0
 41
1.0
 10
59.3566064756524
 20
-6.270584556187629
 30
0.0
 41
1.0
 10
59.5236818560554
 20
-6.392449285548679
 30
0.0
 41
1.0
 10
59.7754062100775
 20
-6.566876086855439
 30
0.0
 41
1.0
 10
59.8595986021328
 20
-6.62368400540413
 30
0.0
 41
1.0
 10
60.0275175882065
 20
-6.73384702347704
 30
0.0
 41
1.0
 10
60.11132988317701
 20
-6.787265108177169
 30
0.0
 41
1.0
 10
60.5298345706748
 20
-7.046036494106889
 30
0.0
 41
1.0
 10
60.8628682154183
 20
-7.226492517417741
 30
0.0
 41
1.0
 10
61.5297320157774
 20
-7.53328790565473
 30
0.0
 41
1.0
 10
61.86355567095429
 20
-7.65963073423683
 30
0.0
 41
1.0
 10
62.2
 20
-7.757586074270049
 30
0.0
 41
1.0
  0
SPLINE
  5
76
330
1F
100
AcDbEntity
  8
1
100
AcDbSpline
210
0.0
220
0.0
230
1.0
 70
    12
 71
     3
 72
    16
 73
    12
 74
     0
 42
0.000000001
 43
0.0000000001
 40
0.0
 40
0.0
 40
0.0
 40
0.0
 40
0.292723897074973
 40
0.292723897074973
 40
0.381133409940602
 40
0.381133409940602
 40
0.46954292280623
 40
0.46954292280623
 40
0.6463619485374871
 40
0.6463619485374871
 40
1.0
 40
1.0
 40
1.0
 40
1.0
 10
63.9020661053121
 20
-7.619805995120089
 30
0.0
 41
1.0
 10
63.7401183882832
 20
-7.696307062152099
 30
0.0
 41
1.0
 10
63.5760500254191
 20
-7.75403283538839
 30
0.0
 41
1.0
 10
63.3597806057897
 20
-7.8053980502109
 30
0.0
 41
1.0
 10
63.30941934247889
 20
-7.815635814408719
 30
0.0
 41
1.0
 10
63.2082862080048
 20
-7.83273995635673
 30
0.0
 41
1.0
 10
63.15740949952211
 20
-7.839615785783619
 30
0.0
 41
1.0
 10
63.0049039259809
 20
-7.855059726452569
 30
0.0
 41
1.0
 10
62.9037518474074
 20
-7.85845321902315
 30
0.0
 41
1.0
 10
62.6012893653321
 20
-7.84881476421396
 30
0.0
 41
1.0
 10
62.40103236947099
 20
-7.816116393878441
 30
0.0
 41
1.0
 10
62.2000000000001
 20
-7.757586074270848
 30
0.0
 41
1.0
  0
SPLINE
  5
77
330
1F
100
AcDbEntity
  8
1
100
AcDbSpline
210
0.0
220
0.0
230
1.0
 70
    12
 71
     3
 72
    68
 73
    64
 74
     0
 42
0.000000001
 43
0.0000000001
 40
0.0
 40
0.0
 40
0.0
 40
0.0
 40
0.0263692218443579
 40
0.0263692218443579
 40
0.0527384436887158
 40
0.0527384436887158
 40
0.105476887377431
 40
0.105476887377431
 40
0.131846109221789
 40
0.131846109221789
 40
0.145030720143968
 40
0.145030720143968
 40
0.158215331066147
 40
0.158215331066147
 40
0.210953774754863
 40
0.210953774754863
 40
0.263692218443579
 40
0.263692218443579
 40
0.290061440287937
 40
0.290061440287937
 40
0.303246051210116
 40
0.303246051210116
 40
0.316430662132294
 40
0.316430662132294
 40
0.36916910582101
 40
0.36916910582101
 40
0.4219075495097261
 40
0.4219075495097261
 40
0.448276771354084
 40
0.448276771354084
 40
0.4614613822762629
 40
0.4614613822762629
 40
0.4746459931984411
 40
0.4746459931984411
 40
0.5273844368871571
 40
0.5273844368871571
 40
0.580122880575873
 40
0.580122880575873
 40
0.606492102420231
 40
0.606492102420231
 40
0.632861324264588
 40
0.632861324264588
 40
0.6855997679533039
 40
0.6855997679533039
 40
0.738338211642019
 40
0.738338211642019
 40
0.764707433486376
 40
0.764707433486376
 40
0.791076655330734
 40
0.791076655330734
 40
0.843815099019449
 40
0.843815099019449
 40
0.870184320863807
 40
0.870184320863807
 40
0.896553542708164
 40
0.896553542708164
 40
0.922922764552522
 40
0.922922764552522
 40
0.9361073754747009
 40
0.9361073754747009
 40
0.9492919863968799
 40
0.9492919863968799
 40
1.0
 40
1.0
 40
1.0
 40
1.0
 10
62.2
 20
-7.601442383040709
 30
0.0
 41
1.0
 10
62.0320844403952
 20
-7.539068917654869
 30
0.0
 41
1.0
 10
61.86419943807321
 20
-7.46957495565184
 30
0.0
 41
1.0
 10
61.5285188321399
 20
-7.316742828736779
 30
0.0
 41
1.0
 10
61.3605533422155
 20
-7.233306032564599
 30
0.0
 41
1.0
 10
60.8586410322345
 20
-6.964015206160549
 30
0.0
 41
1.0
 10
60.5256910959149
 20
-6.758861790019349
 30
0.0
 41
1.0
 10
60.0255973415555
 20
-6.41447399008516
 30
0.0
 41
1.0
 10
59.85878867739529
 20
-6.293555651248339
 30
0.0
 41
1.0
 10
59.6079752471869
 20
-6.103131953426129
 30
0.0
 41
1.0
 10
59.5242690911231
 20
-6.03814990835741
 30
0.0
 41
1.0
 10
59.3565872376584
 20
-5.905181778123819
 30
0.0
 41
1.0
 10
59.2725592434408
 20
-5.837147836749809
 30
0.0
 41
1.0
 10
58.8538900766051
 20
-5.491425932280349
 30
0.0
 41
1.0
 10
58.5219067335493
 20
-5.195757621375039
 30
0.0
 41
1.0
 10
57.85926109744529
 20
-4.570250743376389
 30
0.0
 41
1.0
 10
57.5286612495141
 20
-4.24037049916743
 30
0.0
 41
1.0
 10
57.0306745760712
 20
-3.72194106489872
 30
0.0
 41
1.0
 10
56.86431699204259
 20
-3.54519937779435
 30
0.0
 41
1.0
 10
56.61383070306579
 20
-3.27438694108082
 30
0.0
 41
1.0
 10
56.5301780794314
 20
-3.18316473917633
 30
0.0
 41
1.0
 10
56.3624887689396
 20
-2.99884510157091
 30
0.0
 41
1.0
 10
56.27849607611521
 20
-2.90579344744845
 30
0.0
 41
1.0
 10
55.8600968599148
 20
-2.43897552447746
 30
0.0
 41
1.0
 10
55.52820632115679
 20
-2.058245160971809
 30
0.0
 41
1.0
 10
54.8656727614259
 20
-1.286144902135019
 30
0.0
 41
1.0
 10
54.535097284897
 20
-0.8947179556731159
 30
0.0
 41
1.0
 10
54.03694935995689
 20
-0.302243241465533
 30
0.0
 41
1.0
 10
53.8705271009214
 20
-0.103853974106386
 30
0.0
 41
1.0
 10
53.6199349221276
 20
0.194769304287576
 30
0.0
 41
1.0
 10
53.53624375678061
 20
0.29448323871614
 30
0.0
 41
1.0
 10
53.36846646304461
 20
0.4942010683099911
 30
0.0
 41
1.0
 10
53.28455874835761
 20
0.5939920557307801
 30
0.0
 41
1.0
 10
52.8663811096631
 20
1.09051097272459
 30
0.0
 41
1.0
 10
52.5345590582561
 20
1.481811712126609
 30
0.0
 41
1.0
 10
51.872136064037
 20
2.24952383624642
 30
0.0
 41
1.0
 10
51.5414982657961
 20
2.62590314953513
 30
0.0
 41
1.0
 10
51.0432167512262
 20
3.17658622030785
 30
0.0
 41
1.0
 10
50.87674376921761
 20
3.357835824546499
 30
0.0
 41
1.0
 10
50.5424718236427
 20
3.71519154362775
 30
0.0
 41
1.0
 10
50.37422965787479
 20
3.891727277501159
 30
0.0
 41
1.0
 10
49.8726332689342
 20
4.40662204249116
 30
0.0
 41
1.0
 10
49.5409476528726
 20
4.732033670303939
 30
0.0
 41
1.0
 10
48.8785941450828
 20
5.345190334429079
 30
0.0
 41
1.0
 10
48.5478961420271
 20
5.632916491565959
 30
0.0
 41
1.0
 10
48.049493760474
 20
6.034048094736649
 30
0.0
 41
1.0
 10
47.8829620131541
 20
6.16266983999267
 30
0.0
 41
1.0
 10
47.5485051067156
 20
6.40921310621957
 30
0.0
 41
1.0
 10
47.3803362873772
 20
6.52727665118948
 30
0.0
 41
1.0
 10
46.8776556644294
 20
6.86155239771207
 30
0.0
 41
1.0
 10
46.543570855536
 20
7.05899792409357
 30
0.0
 41
1.0
 10
46.04057815710179
 20
7.31557048449255
 30
0.0
 41
1.0
 10
45.8725695383564
 20
7.394480882121769
 30
0.0
 41
1.0
 10
45.537547128466
 20
7.537887268788889
 30
0.0
 41
1.0
 10
45.3702673535689
 20
7.60252710784073
 30
0.0
 41
1.0
 10
45.03559050126749
 20
7.717565647728009
 30
0.0
 41
1.0
 10
44.86818664705659
 20
7.76796344030563
 30
0.0
 41
1.0
 10
44.61659830509479
 20
7.832724954927218
 30
0.0
 41
1.0
 10
44.53259985638299
 20
7.85251507877595
 30
0.0
 41
1.0
 10
44.364863159188
 20
7.888347203780629
 30
0.0
 41
1.0
 10
44.28108032184669
 20
7.90440309035878
 30
0.0
 41
1.0
 10
43.875310453962
 20
7.973214503357009
 30
0.0
 41
1.0
 10
43.5539737293075
 20
8.000431022633529
 30
0.0
 41
1.0
 10
43.2314166374899
 20
7.999995296988599
 30
0.0
 41
1.0
  0
SPLINE
  5
78
330
1F
100
AcDbEntity
  8
1
100
AcDbSpline
210
0.0
220
0.0
230
1.0
 70
    12
 71
     3
 72
    12
 73
     8
 74
     0
 42
0.000000001
 43
0.0000000001
 40
0.0
 40
0.0
 40
0.0
 40
0.0
 40
0.494193230049213
 40
0.494193230049213
 40
0.9883864600984269
 40
0.9883864600984269
 40
1.0
 40
1.0
 40
1.0
 40
1.0
 10
30.1999999999999
 20
-7.63930721188837
 30
0.0
 41
1.0
 10
30.5364431757808
 20
-7.75834449850376
 30
0.0
 41
1.0
 10
30.8696277175732
 20
-7.847514268207389
 30
0.0
 41
1.0
 10
31.5339717369458
 20
-7.967545853028579
 30
0.0
 41
1.0
 10
31.8651263375781
 20
-7.99840332009734
 30
0.0
 41
1.0
 10
32.2051930222891
 20
-7.999975882863049
 30
0.0
 41
1.0
 10
32.2130017103192
 20
-7.99999576721029
 30
0.0
 41
1.0
 10
32.220811038577
 20
-7.99999941851269
 30
0.0
 41
1.0
  0
SPLINE
  5
79
330
1F
100
AcDbEntity
  8
1
100
AcDbSpline
210
0.0
220
0.0
230
1.0
 70
    12
 71
     3
 72
    46
 73
    42
 74
     0
 42
0.000000001
 43
0.0000000001
 40
0.0
 40
0.0
 40
0.0
 40
0.0
 40
0.0737524603458677
 40
0.0737524603458677
 40
0.112346107831457
 40
0.112346107831457
 40
0.150939755317046
 40
0.150939755317046
 40
0.228127050288225
 40
0.228127050288225
 40
0.305314345259403
 40
0.305314345259403
 40
0.343907992744992
 40
0.343907992744992
 40
0.3632048164877871
 40
0.3632048164877871
 40
0.382501640230581
 40
0.382501640230581
 40
0.459688935201759
 40
0.459688935201759
 40
0.536876230172937
 40
0.536876230172937
 40
0.575469877658526
 40
0.575469877658526
 40
0.59476670140132
 40
0.59476670140132
 40
0.6140635251441151
 40
0.6140635251441151
 40
0.6912508201152919
 40
0.6912508201152919
 40
0.7684381150864691
 40
0.7684381150864691
 40
0.8070317625720569
 40
0.8070317625720569
 40
0.8263285863148521
 40
0.8263285863148521
 40
0.845625410057646
 40
0.845625410057646
 40
0.9228127050288231
 40
0.9228127050288231
 40
1.0
 40
1.0
 40
1.0
 40
1.0
 10
49.2407463176907
 20
6.5730155042119
 30
0.0
 41
1.0
 10
49.55774671197549
 20
6.788368912628129
 30
0.0
 41
1.0
 10
49.8743297291573
 20
6.9814984835107
 30
0.0
 41
1.0
 10
50.3588030885664
 20
7.240284900978849
 30
0.0
 41
1.0
 10
50.5256297760749
 20
7.322809554675299
 30
0.0
 41
1.0
 10
50.8606398071416
 20
7.474666066748508
 30
0.0
 41
1.0
 10
51.0291935231306
 20
7.54409627356313
 30
0.0
 41
1.0
 10
51.53151846664091
 20
7.72966320473219
 30
0.0
 41
1.0
 10
51.86375143893799
 20
7.82406745774836
 30
0.0
 41
1.0
 10
52.5272916350649
 20
7.95502139978322
 30
0.0
 41
1.0
 10
52.85859680141211
 20
7.99156909338632
 30
0.0
 41
1.0
 10
53.3580551720772
 20
8.00227449283923
 30
0.0
 41
1.0
 10
53.52495875318379
 20
7.99847674379066
 30
0.0
 41
1.0
 10
53.7763673318412
 20
7.98151315866471
 30
0.0
 41
1.0
 10
53.86045850306479
 20
7.9739665983841
 30
0.0
 41
1.0
 10
54.0285246279266
 20
7.95513160447018
 30
0.0
 41
1.0
 10
54.11236005045771
 20
7.943864535423808
 30
0.0
 41
1.0
 10
54.53072939162151
 20
7.87841591891424
 30
0.0
 41
1.0
 10
54.8628454772472
 20
7.796963741654679
 30
0.0
 41
1.0
 10
55.5263292645831
 20
7.5781415101074
 30
0.0
 41
1.0
 10
55.85767730464439
 20
7.44076572275964
 30
0.0
 41
1.0
 10
56.3573207505251
 20
7.19318425646472
 30
0.0
 41
1.0
 10
56.5243082964659
 20
7.10372556111983
 30
0.0
 41
1.0
 10
56.77587464799739
 20
6.959080070745669
 30
0.0
 41
1.0
 10
56.8600479759564
 20
6.909035362556469
 30
0.0
 41
1.0
 10
57.0280011020117
 20
6.80595358281965
 30
0.0
 41
1.0
 10
57.11178447360111
 20
6.752921305208469
 30
0.0
 41
1.0
 10
57.52991787237029
 20
6.48047339055665
 30
0.0
 41
1.0
 10
57.8619353143841
 20
6.239259254304019
 30
0.0
 41
1.0
 10
58.5253719345568
 20
5.71367314819906
 30
0.0
 41
1.0
 10
58.8567623912599
 20
5.42928347056676
 30
0.0
 41
1.0
 10
59.3566064756524
 20
4.97184034248232
 30
0.0
 41
1.0
 10
59.5236818560554
 20
4.81420712240833
 30
0.0
 41
1.0
 10
59.7754062100775
 20
4.57013544452741
 30
0.0
 41
1.0
 10
59.8595986021328
 20
4.48740707178291
 30
0.0
 41
1.0
 10
60.0275175882065
 20
4.32033752104428
 30
0.0
 41
1.0
 10
60.11132988317701
 20
4.2359158149832
 30
0.0
 41
1.0
 10
60.5298345706748
 20
3.80953760561292
 30
0.0
 41
1.0
 10
60.8628682154183
 20
3.454809816936029
 30
0.0
 41
1.0
 10
61.5297320157774
 20
2.72166829463265
 30
0.0
 41
1.0
 10
61.8635556709542
 20
2.343250108494169
 30
0.0
 41
1.0
 10
62.2
 20
1.95444577829409
 30
0.0
 41
1.0
  0
SPLINE
  5
7A
330
1F
100
AcDbEntity
  8
1
100
AcDbSpline
210
0.0
220
0.0
230
1.0
 70
    12
 71
     3
 72
    93
 73
    89
 74
     0
 42
0.000000001
 43
0.0000000001
 40
0.0
 40
0.0
 40
0.0
 40
0.0
 40
0.0039062500000002
 40
0.0039062500000002
 40
0.0058593750000003
 40
0.0058593750000003
 40
0.0078125000000004
 40
0.0078125000000004
 40
0.0156250000000005
 40
0.0156250000000005
 40
0.0234375000000005
 40
0.0234375000000005
 40
0.0312500000000006
 40
0.0312500000000006
 40
0.0468750000000007
 40
0.0468750000000007
 40
0.0625000000000008
 40
0.0625000000000008
 40
0.0703125000000008
 40
0.0703125000000008
 40
0.0781250000000009
 40
0.0859375000000009
 40
0.0859375000000009
 40
0.0937500000000009
 40
0.0937500000000009
 40
0.109375000000001
 40
0.109375000000001
 40
0.125000000000001
 40
0.125000000000001
 40
0.140625000000001
 40
0.140625000000001
 40
0.156250000000001
 40
0.156250000000001
 40
0.171875000000001
 40
0.171875000000001
 40
0.187500000000001
 40
0.187500000000001
 40
0.250000000000001
 40
0.250000000000001
 40
0.2812500000000011
 40
0.2812500000000011
 40
0.2968750000000011
 40
0.2968750000000011
 40
0.3125000000000011
 40
0.3125000000000011
 40
0.3750000000000011
 40
0.3750000000000011
 40
0.4375000000000011
 40
0.4375000000000011
 40
0.4531250000000011
 40
0.4531250000000011
 40
0.4609375000000011
 40
0.4609375000000011
 40
0.4687500000000011
 40
0.4687500000000011
 40
0.4843750000000011
 40
0.4843750000000011
 40
0.500000000000001
 40
0.500000000000001
 40
0.531250000000001
 40
0.531250000000001
 40
0.546875000000001
 40
0.546875000000001
 40
0.562500000000001
 40
0.562500000000001
 40
0.593750000000001
 40
0.593750000000001
 40
0.625000000000001
 40
0.625000000000001
 40
0.656250000000001
 40
0.656250000000001
 40
0.687500000000001
 40
0.687500000000001
 40
0.750000000000001
 40
0.750000000000001
 40
0.78125
 40
0.78125
 40
0.8125
 40
0.8125
 40
0.875
 40
0.875
 40
0.890625
 40
0.890625
 40
0.90625
 40
0.90625
 40
0.9375
 40
0.9375
 40
1.0
 40
1.0
 40
1.0
 40
1.0
 10
62.2
 20
-7.601442383040709
 30
0.0
 41
1.0
 10
62.2125559606633
 20
-7.60610638666051
 30
0.0
 41
1.0
 10
62.2251360806883
 20
-7.610667998205599
 30
0.0
 41
1.0
 10
62.2441145909057
 20
-7.617336095813899
 30
0.0
 41
1.0
 10
62.2504424151437
 20
-7.619535245147459
 30
0.0
 41
1.0
 10
62.26332375116161
 20
-7.62381294630367
 30
0.0
 41
1.0
 10
62.27003287784839
 20
-7.62584313179934
 30
0.0
 41
1.0
 10
62.30368208361749
 20
-7.63583389849225
 30
0.0
 41
1.0
 10
62.33117803122129
 20
-7.64323974537032
 30
0.0
 41
1.0
 10
62.3871569384167
 20
-7.656898152691609
 30
0.0
 41
1.0
 10
62.4157500895728
 20
-7.6631297966899
 30
0.0
 41
1.0
 10
62.4748918623769
 20
-7.673688558039599
 30
0.0
 41
1.0
 10
62.50536366673389
 20
-7.678089053379779
 30
0.0
 41
1.0
 10
62.59939661247189
 20
-7.688616071591209
 30
0.0
 41
1.0
 10
62.6656959833817
 20
-7.69203711223096
 30
0.0
 41
1.0
 10
62.8084260776657
 20
-7.68940587752576
 30
0.0
 41
1.0
 10
62.88175170959829
 20
-7.683364420128669
 30
0.0
 41
1.0
 10
62.9948332935136
 20
-7.66665255015104
 30
0.0
 41
1.0
 10
63.0333055833399
 20
-7.65973746062082
 30
0.0
 41
1.0
 10
63.1092571084892
 20
-7.64368613907337
 30
0.0
 41
1.0
 10
63.18453513276651
 20
-7.62540154814215
 30
0.0
 41
1.0
 10
63.2585577077355
 20
-7.60292947272623
 30
0.0
 41
1.0
 10
63.3319879903442
 20
-7.57846674582211
 30
0.0
 41
1.0
 10
63.3680206435706
 20
-7.565364257141079
 30
0.0
 41
1.0
 10
63.47342583301401
 20
-7.524068797972459
 30
0.0
 41
1.0
 10
63.54059288384739
 20
-7.493754361257029
 30
0.0
 41
1.0
 10
63.6702636569822
 20
-7.428375937215089
 30
0.0
 41
1.0
 10
63.7329822941658
 20
-7.39312163999267
 30
0.0
 41
1.0
 10
63.8522744503404
 20
-7.31975131725477
 30
0.0
 41
1.0
 10
63.9091536531392
 20
-7.281503740013589
 30
0.0
 41
1.0
 10
64.01866179939649
 20
-7.202128077070139
 30
0.0
 41
1.0
 10
64.07129699492799
 20
-7.160996464800089
 30
0.0
 41
1.0
 10
64.1730754104214
 20
-7.07598131569907
 30
0.0
 41
1.0
 10
64.222200675934
 20
-7.03209771330748
 30
0.0
 41
1.0
 10
64.3174233874905
 20
-6.941658004565969
 30
0.0
 41
1.0
 10
64.3635312129968
 20
-6.89507403494619
 30
0.0
 41
1.0
 10
64.58552317238861
 20
-6.657866899855289
 30
0.0
 41
1.0
 10
64.73849697173879
 20
-6.45269835947335
 30
0.0
 41
1.0
 10
64.9447783602903
 20
-6.122948634596129
 30
0.0
 41
1.0
 10
65.00950371774528
 20
-6.009350901493749
 30
0.0
 41
1.0
 10
65.10136335067669
 20
-5.83343995415783
 30
0.0
 41
1.0
 10
65.1311148730991
 20
-5.773880776770449
 30
0.0
 41
1.0
 10
65.18902203343571
 20
-5.65289266546287
 30
0.0
 41
1.0
 10
65.2171656885112
 20
-5.59146662238646
 30
0.0
 41
1.0
 10
65.35318116440381
 20
-5.281692579943519
 30
0.0
 41
1.0
 10
65.4479115974126
 20
-5.02387183186903
 30
0.0
 41
1.0
 10
65.6159082038609
 20
-4.48859381181683
 30
0.0
 41
1.0
 10
65.68906245825509
 20
-4.211102490791629
 30
0.0
 41
1.0
 10
65.7694376375308
 20
-3.851792743408509
 30
0.0
 41
1.0
 10
65.7849617028021
 20
-3.779420094111939
 30
0.0
 41
1.0
 10
65.8075578359111
 20
-3.67001528717387
 30
0.0
 41
1.0
 10
65.8150943522635
 20
-3.63331882660731
 30
0.0
 41
1.0
 10
65.8287440610563
 20
-3.56049690737319
 30
0.0
 41
1.0
 10
65.83476846306471
 20
-3.5244391458921
 30
0.0
 41
1.0
 10
65.8500912988218
 20
-3.41769757506154
 30
0.0
 41
1.0
 10
65.85694881507951
 20
-3.34823998295064
 30
0.0
 41
1.0
 10
65.86532012014309
 20
-3.21204964918169
 30
0.0
 41
1.0
 10
65.86676768612599
 20
-3.1448815358502
 30
0.0
 41
1.0
 10
65.8639031796952
 20
-2.952549076963859
 30
0.0
 41
1.0
 10
65.8527429019899
 20
-2.834866078636959
 30
0.0
 41
1.0
 10
65.82482379983621
 20
-2.66803042131556
 30
0.0
 41
1.0
 10
65.8136066805264
 20
-2.6140766737426
 30
0.0
 41
1.0
 10
65.78741407440479
 20
-2.50883484049587
 30
0.0
 41
1.0
 10
65.77247447224339
 20
-2.45773099410968
 30
0.0
 41
1.0
 10
65.722795282263
 20
-2.30892719897852
 30
0.0
 41
1.0
 10
65.68306555872659
 20
-2.21513015789122
 30
0.0
 41
1.0
 10
65.5912536594602
 20
-2.03288576100161
 30
0.0
 41
1.0
 10
65.53919913229029
 20
-1.94438318959169
 30
0.0
 41
1.0
 10
65.42373552672599
 20
-1.76819588086423
 30
0.0
 41
1.0
 10
65.36029424781689
 20
-1.68057991756228
 30
0.0
 41
1.0
 10
65.22292450740529
 20
-1.50282473885432
 30
0.0
 41
1.0
 10
65.14971208149571
 20
-1.413555006258009
 30
0.0
 41
1.0
 10
64.91893960190239
 20
-1.141562830484699
 30
0.0
 41
1.0
 10
64.75022066865
 20
-0.9542819376942478
 30
0.0
 41
1.0
 10
64.4803521583535
 20
-0.6557589315643212
 30
0.0
 41
1.0
 10
64.38749270249811
 20
-0.5533473414811851
 30
0.0
 41
1.0
 10
64.1966523081939
 20
-0.342129140367263
 30
0.0
 41
1.0
 10
64.1001796555939
 20
-0.234986508896469
 30
0.0
 41
1.0
 10
63.8083136616515
 20
0.0913840603644758
 30
0.0
 41
1.0
 10
63.6106150057473
 20
0.315641115320602
 30
0.0
 41
1.0
 10
63.3597806057911
 20
0.6040993836427621
 30
0.0
 41
1.0
 10
63.3094193424804
 20
0.662193552145709
 30
0.0
 41
1.0
 10
63.2082862080066
 20
0.7791734967401
 30
0.0
 41
1.0
 10
63.1574094995242
 20
0.838181197309524
 30
0.0
 41
1.0
 10
63.0049039259825
 20
1.015446841543
 30
0.0
 41
1.0
 10
62.9037518474087
 20
1.133543688655919
 30
0.0
 41
1.0
 10
62.60128936533249
 20
1.48717974830808
 30
0.0
 41
1.0
 10
62.4010323694712
 20
1.72212723696973
 30
0.0
 41
1.0
 10
62.2000000000001
 20
1.954445778294059
 30
0.0
 41
1.0
  0
SPLINE
  5
7B
330
1F
100
AcDbEntity
  8
1
100
AcDbSpline
210
0.0
220
0.0
230
1.0
 70
    12
 71
     3
 72
    12
 73
     8
 74
     0
 42
0.000000001
 43
0.0000000001
 40
0.0
 40
0.0
 40
0.0
 40
0.0
 40
0.5
 40
0.5
 40
0.75
 40
0.75
 40
1.0
 40
1.0
 40
1.0
 40
1.0
 10
29.0
 20
-6.722604220270709
 30
0.0
 41
1.0
 10
29.2129638197431
 20
-6.835067404339499
 30
0.0
 41
1.0
 10
29.4239074547926
 20
-6.96621853860267
 30
0.0
 41
1.0
 10
29.7278960990719
 20
-7.194141179215619
 30
0.0
 41
1.0
 10
29.8271008286935
 20
-7.275357348545039
 30
0.0
 41
1.0
 10
30.0190137886414
 20
-7.448893508208049
 30
0.0
 41
1.0
 10
30.1116098327181
 20
-7.54117023391782
 30
0.0
 41
1.0
 10
30.2
 20
-7.63930721188839
 30
0.0
 41
1.0
  0
SPLINE
  5
7C
330
1F
100
AcDbEntity
  8
1
100
AcDbSpline
210
0.0
220
0.0
230
1.0
 70
    12
 71
     3
 72
    18
 73
    14
 74
     0
 42
0.000000001
 43
0.0000000001
 40
0.0
 40
0.0
 40
0.0
 40
0.0
 40
0.249999999999999
 40
0.249999999999999
 40
0.499999999999997
 40
0.499999999999997
 40
0.5624999999999972
 40
0.5624999999999972
 40
0.624999999999996
 40
0.624999999999996
 40
0.7499999999999979
 40
0.7499999999999979
 40
1.0
 40
1.0
 40
1.0
 40
1.0
 10
23.8
 20
-2.32492500761782
 30
0.0
 41
1.0
 10
24.2366365314989
 20
-2.79556915371526
 30
0.0
 41
1.0
 10
24.6679188638909
 20
-3.24569763294667
 30
0.0
 41
1.0
 10
25.5290861034682
 20
-4.09929060018391
 30
0.0
 41
1.0
 10
25.9589137259716
 20
-4.50279593146115
 30
0.0
 41
1.0
 10
26.5009092601412
 20
-4.973268534894629
 30
0.0
 41
1.0
 10
26.6095457258804
 20
-5.065660767049419
 30
0.0
 41
1.0
 10
26.8274428569132
 20
-5.24689187638845
 30
0.0
 41
1.0
 10
26.936693302574
 20
-5.335712480416219
 30
0.0
 41
1.0
 10
27.2632884445253
 20
-5.594813271628989
 30
0.0
 41
1.0
 10
27.4802510062093
 20
-5.758390327862709
 30
0.0
 41
1.0
 10
28.1305823179387
 20
-6.22099451342334
 30
0.0
 41
1.0
 10
28.5633640993339
 20
-6.492022970709599
 30
0.0
 41
1.0
 10
29.0
 20
-6.722604220270709
 30
0.0
 41
1.0
  0
SPLINE
  5
7D
330
1F
100
AcDbEntity
  8
1
100
AcDbSpline
210
0.0
220
0.0
230
1.0
 70
    12
 71
     3
 72
    12
 73
     8
 74
     0
 42
0.000000001
 43
0.0000000001
 40
0.0
 40
0.0
 40
0.0
 40
0.0
 40
0.139044334264759
 40
0.139044334264759
 40
0.5695221671323791
 40
0.5695221671323791
 40
1.0
 40
1.0
 40
1.0
 40
1.0
 10
25.3155677899866
 20
-7.405104183537499
 30
0.0
 41
1.0
 10
25.2457456629433
 20
-7.422886165437209
 30
0.0
 41
1.0
 10
25.1758310533523
 20
-7.439489432164239
 30
0.0
 41
1.0
 10
24.888999406073
 20
-7.502626401722579
 30
0.0
 41
1.0
 10
24.6707265006043
 20
-7.538935282357779
 30
0.0
 41
1.0
 10
24.2354631496764
 20
-7.58740173645032
 30
0.0
 41
1.0
 10
24.0179805983172
 20
-7.59970041018519
 30
0.0
 41
1.0
 10
23.8
 20
-7.599994597574039
 30
0.0
 41
1.0
  0
SPLINE
  5
7E
330
1F
100
AcDbEntity
  8
1
100
AcDbSpline
210
0.0
220
0.0
230
1.0
 70
    12
 71
     3
 72
    20
 73
    16
 74
     0
 42
0.000000001
 43
0.0000000001
 40
0.0
 40
0.0
 40
0.0
 40
0.0
 40
0.125000000000002
 40
0.125000000000002
 40
0.187500000000003
 40
0.187500000000003
 40
0.250000000000004
 40
0.250000000000004
 40
0.500000000000004
 40
0.500000000000004
 40
0.7500000000000031
 40
0.7500000000000031
 40
0.875000000000001
 40
0.875000000000001
 40
1.0
 40
1.0
 40
1.0
 40
1.0
 10
29.0
 20
-5.322373349466089
 30
0.0
 41
1.0
 10
28.7820188910355
 20
-5.14624921546778
 30
0.0
 41
1.0
 10
28.5641369486689
 20
-4.961746742875389
 30
0.0
 41
1.0
 10
28.2377080997243
 20
-4.673960838257299
 30
0.0
 41
1.0
 10
28.1289168723023
 20
-4.576160185751179
 30
0.0
 41
1.0
 10
27.9111870802216
 20
-4.376940135817279
 30
0.0
 41
1.0
 10
27.8020964662454
 20
-4.27538486880087
 30
0.0
 41
1.0
 10
27.2582920853634
 20
-3.76092160865585
 30
0.0
 41
1.0
 10
26.8283342232204
 20
-3.32771234253681
 30
0.0
 41
1.0
 10
25.9686841423078
 20
-2.427125021111069
 30
0.0
 41
1.0
 10
25.5394113112339
 20
-1.95939997189006
 30
0.0
 41
1.0
 10
24.888999406073
 20
-1.237261942060429
 30
0.0
 41
1.0
 10
24.6707265006042
 20
-0.992567379807099
 30
0.0
 41
1.0
 10
24.2354631496764
 20
-0.502065817146502
 30
0.0
 41
1.0
 10
24.0179805983172
 20
-0.25579140723417
 30
0.0
 41
1.0
 10
23.8
 20
-0.009061834548362
 30
0.0
 41
1.0
  0
SPLINE
  5
7F
330
1F
100
AcDbEntity
  8
1
100
AcDbSpline
210
0.0
220
0.0
230
1.0
 70
    12
 71
     3
 72
    18
 73
    14
 74
     0
 42
0.000000001
 43
0.0000000001
 40
0.0
 40
0.0
 40
0.0
 40
0.0
 40
0.25
 40
0.25
 40
0.500000000000001
 40
0.500000000000001
 40
0.5625
 40
0.5625
 40
0.625
 40
0.625
 40
0.7499999999999991
 40
0.7499999999999991
 40
1.0
 40
1.0
 40
1.0
 40
1.0
 10
23.8
 20
7.235656411753749
 30
0.0
 41
1.0
 10
24.2366365314988
 20
7.084431383548519
 30
0.0
 41
1.0
 10
24.6679188638909
 20
6.889346390263058
 30
0.0
 41
1.0
 10
25.5290861034682
 20
6.418213410661111
 30
0.0
 41
1.0
 10
25.9589137259716
 20
6.14213426793773
 30
0.0
 41
1.0
 10
26.5009092601412
 20
5.748187680929249
 30
0.0
 41
1.0
 10
26.6095457258804
 20
5.666947631471169
 30
0.0
 41
1.0
 10
26.8274428569131
 20
5.49957635660689
 30
0.0
 41
1.0
 10
26.936693302574
 20
5.413442878186909
 30
0.0
 41
1.0
 10
27.2632884445254
 20
5.149643709214419
 30
0.0
 41
1.0
 10
27.4802510062094
 20
4.966001941562409
 30
0.0
 41
1.0
 10
28.1305823179387
 20
4.393195314398719
 30
0.0
 41
1.0
 10
28.5633640993339
 20
3.98221210239979
 30
0.0
 41
1.0
 10
29.0
 20
3.544938997725979
 30
0.0
 41
1.0
  0
SPLINE
  5
80
330
1F
100
AcDbEntity
  8
1
100
AcDbSpline
210
0.0
220
0.0
230
1.0
 70
    12
 71
     3
 72
    34
 73
    30
 74
     0
 42
0.000000001
 43
0.0000000001
 40
0.0
 40
0.0
 40
0.0
 40
0.0
 40
0.0019531249999997
 40
0.0019531249999997
 40
0.0039062499999994
 40
0.0078124999999994
 40
0.0078124999999994
 40
0.015625
 40
0.015625
 40
0.0312500000000002
 40
0.0312500000000002
 40
0.0625000000000007
 40
0.125000000000001
 40
0.125000000000001
 40
0.250000000000001
 40
0.250000000000001
 40
0.5000000000000031
 40
0.5000000000000031
 40
0.6250000000000029
 40
0.6250000000000029
 40
0.750000000000004
 40
0.750000000000004
 40
0.812500000000003
 40
0.812500000000003
 40
0.8750000000000021
 40
0.8750000000000021
 40
0.937500000000001
 40
0.937500000000001
 40
1.0
 40
1.0
 40
1.0
 40
1.0
 10
30.2
 20
-7.45396738380424
 30
0.0
 41
1.0
 10
30.1990291476073
 20
-7.4525706654309
 30
0.0
 41
1.0
 10
30.198973977518
 20
-7.451646541525379
 30
0.0
 41
1.0
 10
30.1982720252335
 20
-7.449490560336441
 30
0.0
 41
1.0
 10
30.1971529599135
 20
-7.446213928593579
 30
0.0
 41
1.0
 10
30.1958927572741
 20
-7.44284811751291
 30
0.0
 41
1.0
 10
30.1933132189849
 20
-7.43607448047865
 30
0.0
 41
1.0
 10
30.1915663036637
 20
-7.43153308669721
 30
0.0
 41
1.0
 10
30.1865076225434
 20
-7.41798520485565
 30
0.0
 41
1.0
 10
30.1831789774608
 20
-7.408938430802209
 30
0.0
 41
1.0
 10
30.1730185652085
 20
-7.381577875108799
 30
0.0
 41
1.0
 10
30.1523422139111
 20
-7.326168887032219
 30
0.0
 41
1.0
 10
30.1305898851516
 20
-7.26880983588353
 30
0.0
 41
1.0
 10
30.085535072863
 20
-7.151570255790259
 30
0.0
 41
1.0
 10
30.05336908297611
 20
-7.06986680355513
 30
0.0
 41
1.0
 10
29.9502929015465
 20
-6.816980948466639
 30
0.0
 41
1.0
 10
29.8730611762398
 20
-6.63801668930472
 30
0.0
 41
1.0
 10
29.7382708362153
 20
-6.35889284532843
 30
0.0
 41
1.0
 10
29.69015418645231
 20
-6.264087018422401
 30
0.0
 41
1.0
 10
29.5856672024228
 20
-6.07224268421365
 30
0.0
 41
1.0
 10
29.5293378949857
 20
-5.975178687300569
 30
0.0
 41
1.0
 10
29.4361700576603
 20
-5.829492702805
 30
0.0
 41
1.0
 10
29.4036547527272
 20
-5.78092377257258
 30
0.0
 41
1.0
 10
29.3349730042983
 20
-5.684223676489099
 30
0.0
 41
1.0
 10
29.29869859615
 20
-5.63594934477388
 30
0.0
 41
1.0
 10
29.2220614964444
 20
-5.54138078465726
 30
0.0
 41
1.0
 10
29.181723949089
 20
-5.495070924626819
 30
0.0
 41
1.0
 10
29.095586236573
 20
-5.405714330420639
 30
0.0
 41
1.0
 10
29.0498276348311
 20
-5.362633026441019
 30
0.0
 41
1.0
 10
29.0000000000007
 20
-5.322373349465348
 30
0.0
 41
1.0
  0
SPLINE
  5
81
330
1F
100
AcDbEntity
  8
1
100
AcDbSpline
210
0.0
220
0.0
230
1.0
 70
    12
 71
     3
 72
    48
 73
    44
 74
     0
 42
0.000000001
 43
0.0000000001
 40
0.0
 40
0.0
 40
0.0
 40
0.0
 40
0.0795639893372661
 40
0.0795639893372661
 40
0.159127978674532
 40
0.159127978674532
 40
0.198909973343166
 40
0.198909973343166
 40
0.218800970677482
 40
0.218800970677482
 40
0.238691968011799
 40
0.238691968011799
 40
0.318255957349066
 40
0.318255957349066
 40
0.397819946686334
 40
0.397819946686334
 40
0.437601941354968
 40
0.437601941354968
 40
0.457492938689285
 40
0.457492938689285
 40
0.4773839360236021
 40
0.4773839360236021
 40
0.556947925360869
 40
0.556947925360869
 40
0.6365119146981372
 40
0.6365119146981372
 40
0.6762939093667711
 40
0.6762939093667711
 40
0.696184906701088
 40
0.696184906701088
 40
0.7160759040354052
 40
0.7160759040354052
 40
0.795639893372673
 40
0.795639893372673
 40
0.8752038827099399
 40
0.8752038827099399
 40
0.9149858773785741
 40
0.9149858773785741
 40
0.9348768747128909
 40
0.9348768747128909
 40
0.9547678720472079
 40
0.9547678720472079
 40
1.0
 40
1.0
 40
1.0
 40
1.0
 10
30.1999999999999
 20
2.37507585613392
 30
0.0
 41
1.0
 10
30.5364431757808
 20
1.99219865253809
 30
0.0
 41
1.0
 10
30.8696277175732
 20
1.60413022829349
 30
0.0
 41
1.0
 10
31.5339717369458
 20
0.8215394445374499
 30
0.0
 41
1.0
 10
31.8651263375781
 20
0.427012592767028
 30
0.0
 41
1.0
 10
32.3635142497224
 20
-0.166943967441455
 30
0.0
 41
1.0
 10
32.5299203375053
 20
-0.3652909680903351
 30
0.0
 41
1.0
 10
32.7803609211572
 20
-0.663012917428034
 30
0.0
 41
1.0
 10
32.8639798337737
 20
-0.7622870915449482
 30
0.0
 41
1.0
 10
33.0315663452219
 20
-0.9608449979926378
 30
0.0
 41
1.0
 10
33.1156343017381
 20
-1.06024700741733
 30
0.0
 41
1.0
 10
33.5358634009865
 20
-1.555763937761409
 30
0.0
 41
1.0
 10
33.8688747761214
 20
-1.944079763827519
 30
0.0
 41
1.0
 10
34.53306718843839
 20
-2.70152719329164
 30
0.0
 41
1.0
 10
34.8642228046
 20
-3.07067789794172
 30
0.0
 41
1.0
 10
35.36275117109671
 20
-3.60747812580343
 30
0.0
 41
1.0
 10
35.5292281349334
 20
-3.783584579081779
 30
0.0
 41
1.0
 10
35.7798080130917
 20
-4.04312976896918
 30
0.0
 41
1.0
 10
35.8634787341715
 20
-4.128875417235919
 30
0.0
 41
1.0
 10
36.0311787966324
 20
-4.2987603467991
 30
0.0
 41
1.0
 10
36.1153449097808
 20
-4.383033619684059
 30
0.0
 41
1.0
 10
36.5352510142337
 20
-4.798223834316299
 30
0.0
 41
1.0
 10
36.8681061779355
 20
-5.11058347250798
 30
0.0
 41
1.0
 10
37.5321349745137
 20
-5.694238681510999
 30
0.0
 41
1.0
 10
37.863284396313
 20
-5.96554554031766
 30
0.0
 41
1.0
 10
38.3619416177246
 20
-6.339730469987299
 30
0.0
 41
1.0
 10
38.5284818023696
 20
-6.458987386026589
 30
0.0
 41
1.0
 10
38.7791839273407
 20
-6.62932304033382
 30
0.0
 41
1.0
 10
38.8629003848993
 20
-6.684675754032809
 30
0.0
 41
1.0
 10
39.0307042860515
 20
-6.792462026363319
 30
0.0
 41
1.0
 10
39.114906317799
 20
-6.844961360885779
 30
0.0
 41
1.0
 10
39.53453706354671
 20
-7.098501191012759
 30
0.0
 41
1.0
 10
39.867260407702
 20
-7.273712803626469
 30
0.0
 41
1.0
 10
40.53116263203221
 20
-7.569138083632769
 30
0.0
 41
1.0
 10
40.86233833716149
 20
-7.689348470130309
 30
0.0
 41
1.0
 10
41.36113786110921
 20
-7.82737203751196
 30
0.0
 41
1.0
 10
41.5277420035211
 20
-7.86631880576925
 30
0.0
 41
1.0
 10
41.77857549612389
 20
-7.913894230492959
 30
0.0
 41
1.0
 10
41.8623414208948
 20
-7.92794436658815
 30
0.0
 41
1.0
 10
42.0302556776012
 20
-7.95237463768811
 30
0.0
 41
1.0
 10
42.11444464826139
 20
-7.962752006410029
 30
0.0
 41
1.0
 10
42.38904596826119
 20
-7.99048450847187
 30
0.0
 41
1.0
 10
42.578833873825
 20
-8.00002426444928
 30
0.0
 41
1.0
 10
42.7680901448924
 20
-8.000013843757191
 30
0.0
 41
1.0
  0
SPLINE
  5
82
330
1F
100
AcDbEntity
  8
1
100
AcDbSpline
210
0.0
220
0.0
230
1.0
 70
    12
 71
     3
 72
    14
 73
    10
 74
     0
 42
0.000000001
 43
0.0000000001
 40
0.0
 40
0.0
 40
0.0
 40
0.0
 40
0.0719736027815046
 40
0.0719736027815046
 40
0.175087646916892
 40
0.175087646916892
 40
0.5875438234584461
 40
0.5875438234584461
 40
1.0
 40
1.0
 40
1.0
 40
1.0
 10
59.7675823830245
 20
6.5610348212397
 30
0.0
 41
1.0
 10
59.82623717359761
 20
6.601030614232969
 30
0.0
 41
1.0
 10
59.8849543690502
 20
6.64031862114649
 30
0.0
 41
1.0
 10
60.0275175882065
 20
6.73384702347704
 30
0.0
 41
1.0
 10
60.11132988317701
 20
6.787265108177169
 30
0.0
 41
1.0
 10
60.5298345706748
 20
7.04603649410691
 30
0.0
 41
1.0
 10
60.8628682154183
 20
7.226492517417741
 30
0.0
 41
1.0
 10
61.5297320157774
 20
7.53328790565473
 30
0.0
 41
1.0
 10
61.86355567095429
 20
7.65963073423683
 30
0.0
 41
1.0
 10
62.2
 20
7.757586074270049
 30
0.0
 41
1.0
  0
SPLINE
  5
83
330
1F
100
AcDbEntity
  8
1
100
AcDbSpline
210
0.0
220
0.0
230
1.0
 70
    12
 71
     3
 72
    93
 73
    89
 74
     0
 42
0.000000001
 43
0.0000000001
 40
0.0
 40
0.0
 40
0.0
 40
0.0
 40
0.0039062499999999
 40
0.0039062499999999
 40
0.0058593749999999
 40
0.0058593749999999
 40
0.0078124999999999
 40
0.0078124999999999
 40
0.0156249999999999
 40
0.0156249999999999
 40
0.0234375
 40
0.0234375
 40
0.0312500000000001
 40
0.0312500000000001
 40
0.0468750000000002
 40
0.0468750000000002
 40
0.0625000000000003
 40
0.0625000000000003
 40
0.0703125000000003
 40
0.0703125000000003
 40
0.0781250000000004
 40
0.0859375000000004
 40
0.0859375000000004
 40
0.0937500000000005
 40
0.0937500000000005
 40
0.109375000000001
 40
0.109375000000001
 40
0.125000000000001
 40
0.125000000000001
 40
0.140625000000001
 40
0.140625000000001
 40
0.156250000000001
 40
0.156250000000001
 40
0.171875000000001
 40
0.171875000000001
 40
0.187500000000001
 40
0.187500000000001
 40
0.250000000000001
 40
0.250000000000001
 40
0.281250000000002
 40
0.281250000000002
 40
0.296875000000002
 40
0.296875000000002
 40
0.312500000000002
 40
0.312500000000002
 40
0.375000000000002
 40
0.375000000000002
 40
0.437500000000002
 40
0.437500000000002
 40
0.453125000000002
 40
0.453125000000002
 40
0.460937500000002
 40
0.460937500000002
 40
0.468750000000002
 40
0.468750000000002
 40
0.484375000000002
 40
0.484375000000002
 40
0.500000000000002
 40
0.500000000000002
 40
0.531250000000002
 40
0.531250000000002
 40
0.546875000000002
 40
0.546875000000002
 40
0.5625000000000022
 40
0.5625000000000022
 40
0.5937500000000022
 40
0.5937500000000022
 40
0.6250000000000022
 40
0.6250000000000022
 40
0.656250000000001
 40
0.656250000000001
 40
0.687500000000001
 40
0.687500000000001
 40
0.750000000000001
 40
0.750000000000001
 40
0.781250000000001
 40
0.781250000000001
 40
0.812500000000001
 40
0.812500000000001
 40
0.875000000000001
 40
0.875000000000001
 40
0.890625000000001
 40
0.890625000000001
 40
0.906250000000001
 40
0.906250000000001
 40
0.9375
 40
0.9375
 40
1.0
 40
1.0
 40
1.0
 40
1.0
 10
62.2
 20
2.493606564258359
 30
0.0
 41
1.0
 10
62.2125559606633
 20
2.47938894256191
 30
0.0
 41
1.0
 10
62.2251360806883
 20
2.46515934742416
 30
0.0
 41
1.0
 10
62.2441145909057
 20
2.443856370848179
 30
0.0
 41
1.0
 10
62.25044241514379
 20
2.43674585757418
 30
0.0
 41
1.0
 10
62.2633237511617
 20
2.42272425537615
 30
0.0
 41
1.0
 10
62.2700328778485
 20
2.415956782940559
 30
0.0
 41
1.0
 10
62.3036820836177
 20
2.382180252311399
 30
0.0
 41
1.0
 10
62.33117803122151
 20
2.35558287312961
 30
0.0
 41
1.0
 10
62.38715693841699
 20
2.303072066699259
 30
0.0
 41
1.0
 10
62.41575008957309
 20
2.27721082163504
 30
0.0
 41
1.0
 10
62.47489186237729
 20
2.228376477189069
 30
0.0
 41
1.0
 10
62.5053636667344
 20
2.205173658314009
 30
0.0
 41
1.0
 10
62.59939661247241
 20
2.13907606117553
 30
0.0
 41
1.0
 10
62.6656959833823
 20
2.09986725784387
 30
0.0
 41
1.0
 10
62.8084260776662
 20
2.035164554713529
 30
0.0
 41
1.0
 10
62.88175170959929
 20
2.01120008015809
 30
0.0
 41
1.0
 10
62.9948332935146
 20
1.98886076023615
 30
0.0
 41
1.0
 10
63.0333055833409
 20
1.98367986217298
 30
0.0
 41
1.0
 10
63.10925710849049
 20
1.97804684484373
 30
0.0
 41
1.0
 10
63.184535132768
 20
1.97700959797334
 30
0.0
 41
1.0
 10
63.2585577077369
 20
1.984206438070429
 30
0.0
 41
1.0
 10
63.3319879903456
 20
1.995083188801259
 30
0.0
 41
1.0
 10
63.36802064357221
 20
2.00230983758459
 30
0.0
 41
1.0
 10
63.47342583301579
 20
2.02819377023326
 30
0.0
 41
1.0
 10
63.5405928838493
 20
2.05105426217421
 30
0.0
 41
1.0
 10
63.670263656984
 20
2.10442757350344
 30
0.0
 41
1.0
 10
63.73298229416761
 20
2.13517397755965
 30
0.0
 41
1.0
 10
63.8522744503424
 20
2.200966733260259
 30
0.0
 41
1.0
 10
63.90915365314129
 20
2.236116992986669
 30
0.0
 41
1.0
 10
64.0186617993987
 20
2.30935190828143
 30
0.0
 41
1.0
 10
64.07129699493019
 20
2.347423717736089
 30
0.0
 41
1.0
 10
64.17307541042361
 20
2.425554873557589
 30
0.0
 41
1.0
 10
64.2222006759362
 20
2.46563991230712
 30
0.0
 41
1.0
 10
64.31742338749259
 20
2.547218724022939
 30
0.0
 41
1.0
 10
64.36353121299901
 20
2.588733269459909
 30
0.0
 41
1.0
 10
64.5855231723911
 20
2.796453590253629
 30
0.0
 41
1.0
 10
64.7384969717414
 20
2.96425100412574
 30
0.0
 41
1.0
 10
64.9447783602928
 20
3.207525009350209
 30
0.0
 41
1.0
 10
65.0095037177477
 20
3.28734679347056
 30
0.0
 41
1.0
 10
65.10136335067899
 20
3.404446221032119
 30
0.0
 41
1.0
 10
65.1311148731014
 20
3.443033595733819
 30
0.0
 41
1.0
 10
65.18902203343789
 20
3.519156926679779
 30
0.0
 41
1.0
 10
65.2171656885135
 20
3.556696881680319
 30
0.0
 41
1.0
 10
65.3531811644062
 20
3.740485983891149
 30
0.0
 41
1.0
 10
65.447911597415
 20
3.87592416554156
 30
0.0
 41
1.0
 10
65.6159082038631
 20
4.119686271909529
 30
0.0
 41
1.0
 10
65.689062458257
 20
4.22818493267371
 30
0.0
 41
1.0
 10
65.7694376375326
 20
4.344410301993949
 30
0.0
 41
1.0
 10
65.7849617028038
 20
4.36656664939394
 30
0.0
 41
1.0
 10
65.80755783591289
 20
4.39791339074063
 30
0.0
 41
1.0
 10
65.81509435226521
 20
4.407780554024469
 30
0.0
 41
1.0
 10
65.82874406105779
 20
4.429507394865029
 30
0.0
 41
1.0
 10
65.83476846306609
 20
4.441572907531909
 30
0.0
 41
1.0
 10
65.8500912988227
 20
4.48245430187453
 30
0.0
 41
1.0
 10
65.8569488150802
 20
4.515315044770289
 30
0.0
 41
1.0
 10
65.8653201201433
 20
4.58999430212188
 30
0.0
 41
1.0
 10
65.86676768612609
 20
4.63224587388629
 30
0.0
 41
1.0
 10
65.8639031796947
 20
4.766789998338059
 30
0.0
 41
1.0
 10
65.8527429019891
 20
4.86738575128553
 30
0.0
 41
1.0
 10
65.8248237998349
 20
5.0279472727907
 30
0.0
 41
1.0
 10
65.813606680525
 20
5.08312264414394
 30
0.0
 41
1.0
 10
65.78741407440301
 20
5.196043181476739
 30
0.0
 41
1.0
 10
65.7724744722415
 20
5.253593425699309
 30
0.0
 41
1.0
 10
65.72279528226101
 20
5.426947055280269
 30
0.0
 41
1.0
 10
65.68306555872439
 20
5.54401716225175
 30
0.0
 41
1.0
 10
65.59125365945771
 20
5.777143174223679
 30
0.0
 41
1.0
 10
65.53919913228759
 20
5.893166592580429
 30
0.0
 41
1.0
 10
65.42373552672279
 20
6.120985907564571
 30
0.0
 41
1.0
 10
65.36029424781339
 20
6.23282323055653
 30
0.0
 41
1.0
 10
65.222924507401
 20
6.449957996357599
 30
0.0
 41
1.0
 10
65.1497120814923
 20
6.554136422341679
 30
0.0
 41
1.0
 10
64.91893960189949
 20
6.851068797316659
 30
0.0
 41
1.0
 10
64.7502206686469
 20
7.02844459317834
 30
0.0
 41
1.0
 10
64.4803521583487
 20
7.25945926047439
 30
0.0
 41
1.0
 10
64.38749270249051
 20
7.3306912273832
 30
0.0
 41
1.0
 10
64.19665230818849
 20
7.46079997266921
 30
0.0
 41
1.0
 10
64.1001796555894
 20
7.518660724041069
 30
0.0
 41
1.0
 10
63.80831366164899
 20
7.67149087450909
 30
0.0
 41
1.0
 10
63.6106150057452
 20
7.745823456351839
 30
0.0
 41
1.0
 10
63.3597806057882
 20
7.80539805021121
 30
0.0
 41
1.0
 10
63.30941934247721
 20
7.815635814409059
 30
0.0
 41
1.0
 10
63.2082862080028
 20
7.832739956357018
 30
0.0
 41
1.0
 10
63.1574094995198
 20
7.839615785783911
 30
0.0
 41
1.0
 10
63.00490392597921
 20
7.855059726452619
 30
0.0
 41
1.0
 10
62.9037518474061
 20
7.85845321902315
 30
0.0
 41
1.0
 10
62.6012893653316
 20
7.848814764213839
 30
0.0
 41
1.0
 10
62.4010323694709
 20
7.816116393878389
 30
0.0
 41
1.0
 10
62.2000000000001
 20
7.757586074270848
 30
0.0
 41
1.0
  0
SPLINE
  5
84
330
1F
100
AcDbEntity
  8
1
100
AcDbSpline
210
0.0
220
0.0
230
1.0
 70
    12
 71
     3
 72
    34
 73
    30
 74
     0
 42
0.000000001
 43
0.0000000001
 40
0.0
 40
0.0
 40
0.0
 40
0.0
 40
0.0594035879872387
 40
0.0594035879872387
 40
0.118807175974478
 40
0.118807175974478
 40
0.237614351948955
 40
0.237614351948955
 40
0.297017939936194
 40
0.297017939936194
 40
0.3267197339298129
 40
0.3267197339298129
 40
0.356421527923432
 40
0.356421527923432
 40
0.47522870389791
 40
0.47522870389791
 40
0.594035879872388
 40
0.594035879872388
 40
0.6534394678596271
 40
0.6534394678596271
 40
0.6831412618532471
 40
0.6831412618532471
 40
0.7128430558468672
 40
0.7128430558468672
 40
0.8316502318213448
 40
0.8316502318213448
 40
0.950457407795824
 40
0.950457407795824
 40
1.0
 40
1.0
 40
1.0
 40
1.0
 10
62.2
 20
2.493606564258359
 30
0.0
 41
1.0
 10
62.0320844403952
 20
2.68374413854806
 30
0.0
 41
1.0
 10
61.86419943807321
 20
2.871490545906649
 30
0.0
 41
1.0
 10
61.5285188321399
 20
3.24118533124241
 30
0.0
 41
1.0
 10
61.3605533422155
 20
3.423308913784349
 30
0.0
 41
1.0
 10
60.8586410322344
 20
3.95746541716522
 30
0.0
 41
1.0
 10
60.5256910959149
 20
4.298332622850689
 30
0.0
 41
1.0
 10
60.0255973415557
 20
4.7847667068344
 30
0.0
 41
1.0
 10
59.8587886773956
 20
4.94275924100555
 30
0.0
 41
1.0
 10
59.6079752471873
 20
5.173171973903659
 30
0.0
 41
1.0
 10
59.5242690911235
 20
5.24887872888274
 30
0.0
 41
1.0
 10
59.356587237659
 20
5.3980376428502
 30
0.0
 41
1.0
 10
59.2725592434412
 20
5.4715319746409
 30
0.0
 41
1.0
 10
58.8538900766053
 20
5.83125659800737
 30
0.0
 41
1.0
 10
58.5219067335494
 20
6.095900035290099
 30
0.0
 41
1.0
 10
57.8592610974452
 20
6.577895000909879
 30
0.0
 41
1.0
 10
57.5286612495141
 20
6.795279127323769
 30
0.0
 41
1.0
 10
57.03067457607129
 20
7.08422859643395
 30
0.0
 41
1.0
 10
56.8643169920428
 20
7.174340491739768
 30
0.0
 41
1.0
 10
56.6138307030662
 20
7.299882888788719
 30
0.0
 41
1.0
 10
56.53017807943189
 20
7.340125757188019
 30
0.0
 41
1.0
 10
56.3624887689402
 20
7.41733860254837
 30
0.0
 41
1.0
 10
56.2784960761157
 20
7.454281348596479
 30
0.0
 41
1.0
 10
55.86009685991499
 20
7.62958282760732
 30
0.0
 41
1.0
 10
55.5282063211569
 20
7.74076679388637
 30
0.0
 41
1.0
 10
54.86567276142579
 20
7.90580008542525
 30
0.0
 41
1.0
 10
54.535097284897
 20
7.959654681496549
 30
0.0
 41
1.0
 10
54.0645135456324
 20
7.99468523647775
 30
0.0
 41
1.0
 10
53.92576901488379
 20
7.999920218021769
 30
0.0
 41
1.0
 10
53.7866106302707
 20
7.999999367401099
 30
0.0
 41
1.0
  0
SPLINE
  5
85
330
1F
100
AcDbEntity
  8
1
100
AcDbSpline
210
0.0
220
0.0
230
1.0
 70
    12
 71
     3
 72
    20
 73
    16
 74
     0
 42
0.000000001
 43
0.0000000001
 40
0.0
 40
0.0
 40
0.0
 40
0.0
 40
0.13203862423762
 40
0.13203862423762
 40
0.349028968178215
 40
0.349028968178215
 40
0.4032765541633651
 40
0.4032765541633651
 40
0.4575241401485141
 40
0.4575241401485141
 40
0.5660193121188101
 40
0.5660193121188101
 40
0.7830096560594051
 40
0.7830096560594051
 40
1.0
 40
1.0
 40
1.0
 40
1.0
 10
34.80258169681941
 20
-7.60876386914487
 30
0.0
 41
1.0
 10
34.6007502246457
 20
-7.683071347811989
 30
0.0
 41
1.0
 10
34.39934913080711
 20
-7.74689123130733
 30
0.0
 41
1.0
 10
33.8668057541522
 20
-7.887833836247839
 30
0.0
 41
1.0
 10
33.5356420421895
 20
-7.947112142413599
 30
0.0
 41
1.0
 10
33.11878500668881
 20
-7.984642959990769
 30
0.0
 41
1.0
 10
33.0352675468394
 20
-7.99031664693854
 30
0.0
 41
1.0
 10
32.8678752927587
 20
-7.99795348227445
 30
0.0
 41
1.0
 10
32.78387336422071
 20
-7.999915062447509
 30
0.0
 41
1.0
 10
32.532326775703
 20
-8.000161749014008
 30
0.0
 41
1.0
 10
32.3653019823858
 20
-7.992841672449739
 30
0.0
 41
1.0
 10
31.8653788662378
 20
-7.948869487246329
 30
0.0
 41
1.0
 10
31.5335856647515
 20
-7.890265223228849
 30
0.0
 41
1.0
 10
30.8688205556563
 20
-7.71547360185048
 30
0.0
 41
1.0
 10
30.5358344200852
 20
-7.599288081699309
 30
0.0
 41
1.0
 10
30.1999999999999
 20
-7.453967383804329
 30
0.0
 41
1.0
  0
SPLINE
  5
86
330
1F
100
AcDbEntity
  8
1
100
AcDbSpline
210
0.0
220
0.0
230
1.0
 70
    12
 71
     3
 72
    12
 73
     8
 74
     0
 42
0.000000001
 43
0.0000000001
 40
0.0
 40
0.0
 40
0.0
 40
0.0
 40
0.5
 40
0.5
 40
0.75
 40
0.75
 40
1.0
 40
1.0
 40
1.0
 40
1.0
 10
29.0
 20
3.544938997726009
 30
0.0
 41
1.0
 10
29.212963819743
 20
3.331664389522299
 30
0.0
 41
1.0
 10
29.4239074547926
 20
3.13096140418222
 30
0.0
 41
1.0
 10
29.7278960990719
 20
2.84160508159474
 30
0.0
 41
1.0
 10
29.8271008286935
 20
2.74708100676466
 30
0.0
 41
1.0
 10
30.0190137886414
 20
2.560069938788589
 30
0.0
 41
1.0
 10
30.1116098327181
 20
2.46743396726762
 30
0.0
 41
1.0
 10
30.2
 20
2.375075856133829
 30
0.0
 41
1.0
  0
SPLINE
  5
87
330
1F
100
AcDbEntity
  8
1
100
AcDbSpline
210
0.0
220
0.0
230
1.0
 70
    12
 71
     3
 72
    20
 73
    16
 74
     0
 42
0.000000001
 43
0.0000000001
 40
0.0
 40
0.0
 40
0.0
 40
0.0
 40
0.125000000000002
 40
0.125000000000002
 40
0.187500000000003
 40
0.187500000000003
 40
0.250000000000004
 40
0.250000000000004
 40
0.500000000000002
 40
0.500000000000002
 40
0.75
 40
0.75
 40
0.875
 40
0.875
 40
1.0
 40
1.0
 40
1.0
 40
1.0
 10
29.0
 20
5.425158239986469
 30
0.0
 41
1.0
 10
28.7820188910356
 20
5.59794553125496
 30
0.0
 41
1.0
 10
28.564136948669
 20
5.76210038326033
 30
0.0
 41
1.0
 10
28.2377080997244
 20
5.99410318348276
 30
0.0
 41
1.0
 10
28.1289168723023
 20
6.069098070168049
 30
0.0
 41
1.0
 10
27.9111870802216
 20
6.214305148481509
 30
0.0
 41
1.0
 10
27.8020964662454
 20
6.28460332741929
 30
0.0
 41
1.0
 10
27.2582920853635
 20
6.62253311080042
 30
0.0
 41
1.0
 10
26.8283342232204
 20
6.850038204113559
 30
0.0
 41
1.0
 10
25.9686841423078
 20
7.218431752422669
 30
0.0
 41
1.0
 10
25.5394113112339
 20
7.35945866885194
 30
0.0
 41
1.0
 10
24.888999406073
 20
7.502626401722579
 30
0.0
 41
1.0
 10
24.6707265006043
 20
7.538935282357779
 30
0.0
 41
1.0
 10
24.2354631496764
 20
7.58740173645032
 30
0.0
 41
1.0
 10
24.0179805983172
 20
7.59970041018519
 30
0.0
 41
1.0
 10
23.8
 20
7.599994597574039
 30
0.0
 41
1.0
  0
SPLINE
  5
88
330
1F
100
AcDbEntity
  8
1
100
AcDbSpline
210
0.0
220
0.0
230
1.0
 70
    12
 71
     3
 72
    80
 73
    76
 74
     0
 42
0.000000001
 43
0.0000000001
 40
0.0
 40
0.0
 40
0.0
 40
0.0
 40
0.0432666306186832
 40
0.0432666306186832
 40
0.0865332612373663
 40
0.0865332612373663
 40
0.108166576546708
 40
0.108166576546708
 40
0.118983234201379
 40
0.118983234201379
 40
0.12979989185605
 40
0.12979989185605
 40
0.173066522474734
 40
0.173066522474734
 40
0.216333153093418
 40
0.216333153093418
 40
0.23796646840276
 40
0.23796646840276
 40
0.248783126057431
 40
0.248783126057431
 40
0.259599783712102
 40
0.259599783712102
 40
0.302866414330786
 40
0.302866414330786
 40
0.3461330449494699
 40
0.3461330449494699
 40
0.367766360258812
 40
0.367766360258812
 40
0.3785830179134829
 40
0.3785830179134829
 40
0.389399675568154
 40
0.389399675568154
 40
0.4326663061868371
 40
0.4326663061868371
 40
0.4759329368055211
 40
0.4759329368055211
 40
0.497566252114863
 40
0.497566252114863
 40
0.5083829097695329
 40
0.5083829097695329
 40
0.519199567424204
 40
0.519199567424204
 40
0.562466198042888
 40
0.562466198042888
 40
0.6057328286615721
 40
0.6057328286615721
 40
0.6273661439709139
 40
0.6273661439709139
 40
0.638182801625584
 40
0.638182801625584
 40
0.6489994592802551
 40
0.6489994592802551
 40
0.692266089898939
 40
0.692266089898939
 40
0.735532720517623
 40
0.735532720517623
 40
0.757166035826965
 40
0.757166035826965
 40
0.7679826934816361
 40
0.7679826934816361
 40
0.778799351136307
 40
0.778799351136307
 40
0.8220659817549909
 40
0.8220659817549909
 40
0.865332612373675
 40
0.865332612373675
 40
0.886965927683016
 40
0.886965927683016
 40
0.9085992429923589
 40
0.9085992429923589
 40
0.9518658736110429
 40
0.9518658736110429
 40
0.995132504229727
 40
0.995132504229727
 40
1.0
 40
1.0
 40
1.0
 40
1.0
 10
30.1999999999999
 20
7.63930721188837
 30
0.0
 41
1.0
 10
30.5364431757808
 20
7.75834449850376
 30
0.0
 41
1.0
 10
30.8696277175732
 20
7.847514268207389
 30
0.0
 41
1.0
 10
31.5339717369458
 20
7.967545853028579
 30
0.0
 41
1.0
 10
31.8651263375781
 20
7.99840332009734
 30
0.0
 41
1.0
 10
32.3635142497224
 20
8.00070800417478
 30
0.0
 41
1.0
 10
32.5299203375053
 20
7.994132470469509
 30
0.0
 41
1.0
 10
32.7803609211572
 20
7.973099255184219
 30
0.0
 41
1.0
 10
32.8639798337737
 20
7.96422565974012
 30
0.0
 41
1.0
 10
33.0315663452219
 20
7.94271671778819
 30
0.0
 41
1.0
 10
33.1156343017381
 20
7.93006358452578
 30
0.0
 41
1.0
 10
33.5358634009865
 20
7.857487722657309
 30
0.0
 41
1.0
 10
33.8688747761214
 20
7.77027609047789
 30
0.0
 41
1.0
 10
34.53306718843839
 20
7.540450084330619
 30
0.0
 41
1.0
 10
34.8642228046
 20
7.397825410576219
 30
0.0
 41
1.0
 10
35.36275117109671
 20
7.14320113544471
 30
0.0
 41
1.0
 10
35.5292281349334
 20
7.05153330346582
 30
0.0
 41
1.0
 10
35.7798080130917
 20
6.903840251665259
 30
0.0
 41
1.0
 10
35.8634787341715
 20
6.852909852640099
 30
0.0
 41
1.0
 10
36.0311787966324
 20
6.7476399681855
 30
0.0
 41
1.0
 10
36.1153449097808
 20
6.693208012592069
 30
0.0
 41
1.0
 10
36.5352510142337
 20
6.413838430574629
 30
0.0
 41
1.0
 10
36.8681061779355
 20
6.16753565417599
 30
0.0
 41
1.0
 10
37.5321349745137
 20
5.63313459034916
 30
0.0
 41
1.0
 10
37.863284396313
 20
5.34501871975334
 30
0.0
 41
1.0
 10
38.3619416177246
 20
4.88334488285889
 30
0.0
 41
1.0
 10
38.5284818023696
 20
4.724527105366689
 30
0.0
 41
1.0
 10
38.7791839273407
 20
4.47906180270468
 30
0.0
 41
1.0
 10
38.8629003848993
 20
4.396033258122489
 30
0.0
 41
1.0
 10
39.0307042860515
 20
4.227582993092509
 30
0.0
 41
1.0
 10
39.114906317799
 20
4.142041520409859
 30
0.0
 41
1.0
 10
39.53453706354671
 20
3.71097624113685
 30
0.0
 41
1.0
 10
39.867260407702
 20
3.354043561668109
 30
0.0
 41
1.0
 10
40.53116263203221
 20
2.62004863201179
 30
0.0
 41
1.0
 10
40.86233833716149
 20
2.24298242562659
 30
0.0
 41
1.0
 10
41.36113786110921
 20
1.664785121439819
 30
0.0
 41
1.0
 10
41.5277420035211
 20
1.469947273901939
 30
0.0
 41
1.0
 10
41.77857549612389
 20
1.17482221807506
 30
0.0
 41
1.0
 10
41.8623414208948
 20
1.075969041943689
 30
0.0
 41
1.0
 10
42.0302556776012
 20
0.8773533386229811
 30
0.0
 41
1.0
 10
42.11444464826139
 20
0.777541965613295
 30
0.0
 41
1.0
 10
42.5338113555589
 20
0.279564203402572
 30
0.0
 41
1.0
 10
42.86639601001589
 20
-0.117885370873808
 30
0.0
 41
1.0
 10
43.53019385297811
 20
-0.907346338781679
 30
0.0
 41
1.0
 10
43.86139567575461
 20
-1.29936701292786
 30
0.0
 41
1.0
 10
44.3603425917878
 20
-1.880626856617819
 30
0.0
 41
1.0
 10
44.5270177568831
 20
-2.073248287088149
 30
0.0
 41
1.0
 10
44.77799057799169
 20
-2.360111846458269
 30
0.0
 41
1.0
 10
44.86180835088109
 20
-2.455388039640689
 30
0.0
 41
1.0
 10
45.0298363809722
 20
-2.645185667270769
 30
0.0
 41
1.0
 10
45.113961458683
 20
-2.73960864822206
 30
0.0
 41
1.0
 10
45.5330644975709
 20
-3.206708484674829
 30
0.0
 41
1.0
 10
45.8655217291616
 20
-3.56665608410421
 30
0.0
 41
1.0
 10
46.5292303967862
 20
-4.256623017145609
 30
0.0
 41
1.0
 10
46.8604523597953
 20
-4.586662447000259
 30
0.0
 41
1.0
 10
47.3595633179399
 20
-5.05684233680111
 30
0.0
 41
1.0
 10
47.5263148093953
 20
-5.2094144478242
 30
0.0
 41
1.0
 10
47.77742981178279
 20
-5.431657886913139
 30
0.0
 41
1.0
 10
47.8612993062466
 20
-5.504636167972849
 30
0.0
 41
1.0
 10
48.02944066272489
 20
-5.64831436441469
 30
0.0
 41
1.0
 10
48.1134500658878
 20
-5.718787458960089
 30
0.0
 41
1.0
 10
48.53229657296299
 20
-6.06339435235731
 30
0.0
 41
1.0
 10
48.8646440927917
 20
-6.315235291128569
 30
0.0
 41
1.0
 10
49.5282617733185
 20
-6.770329455165009
 30
0.0
 41
1.0
 10
49.85951759278639
 20
-6.97358642883933
 30
0.0
 41
1.0
 10
50.3588030885664
 20
-7.240284900978849
 30
0.0
 41
1.0
 10
50.525629776075
 20
-7.322809554675299
 30
0.0
 41
1.0
 10
50.8606398071416
 20
-7.474666066748508
 30
0.0
 41
1.0
 10
51.0291935231306
 20
-7.54409627356313
 30
0.0
 41
1.0
 10
51.53151846664091
 20
-7.72966320473219
 30
0.0
 41
1.0
 10
51.86375143893799
 20
-7.82406745774836
 30
0.0
 41
1.0
 10
52.5272916350649
 20
-7.95502139978322
 30
0.0
 41
1.0
 10
52.85859680141211
 20
-7.99156909338632
 30
0.0
 41
1.0
 10
53.2290284249804
 20
-7.999508931285129
 30
0.0
 41
1.0
 10
53.26650893522571
 20
-7.99993892158071
 30
0.0
 41
1.0
 10
53.304013821946
 20
-7.99999434455134
 30
0.0
 41
1.0
  0
SPLINE
  5
89
330
1F
100
AcDbEntity
  8
1
100
AcDbSpline
210
0.0
220
0.0
230
1.0
 70
    12
 71
     3
 72
    56
 73
    52
 74
     0
 42
0.000000001
 43
0.0000000001
 40
0.0
 40
0.0
 40
0.0
 40
0.0
 40
0.0089197223641476
 40
0.0089197223641476
 40
0.0419557316186763
 40
0.0419557316186763
 40
0.0584737362459408
 40
0.0584737362459408
 40
0.0749917408732051
 40
0.0749917408732051
 40
0.141063759382262
 40
0.141063759382262
 40
0.17409976863679
 40
0.17409976863679
 40
0.207135777891319
 40
0.207135777891319
 40
0.2401717871458469
 40
0.2401717871458469
 40
0.273207796400376
 40
0.273207796400376
 40
0.339279814909433
 40
0.339279814909433
 40
0.4053518334184901
 40
0.4053518334184901
 40
0.4383878426730181
 40
0.4383878426730181
 40
0.4714238519275471
 40
0.4714238519275471
 40
0.5374958704366041
 40
0.5374958704366041
 40
0.6035678889456611
 40
0.6035678889456611
 40
0.620085893572925
 40
0.620085893572925
 40
0.6366038982001899
 40
0.6366038982001899
 40
0.6696399074547181
 40
0.6696399074547181
 40
0.7357119259637752
 40
0.7357119259637752
 40
0.801783944472832
 40
0.801783944472832
 40
0.8183019491000958
 40
0.8183019491000958
 40
0.8348199537273599
 40
0.8348199537273599
 40
0.8678559629818879
 40
0.8678559629818879
 40
0.933927981490944
 40
0.933927981490944
 40
1.0
 40
1.0
 40
1.0
 40
1.0
 10
45.33846593319779
 20
-7.611899627574839
 30
0.0
 41
1.0
 10
45.2932874005013
 20
-7.62846688301059
 30
0.0
 41
1.0
 10
45.2481103017986
 20
-7.644516175133388
 30
0.0
 41
1.0
 10
45.0355905012689
 20
-7.71756564772755
 30
0.0
 41
1.0
 10
44.8681866470581
 20
-7.767963440305178
 30
0.0
 41
1.0
 10
44.6165983050965
 20
-7.832724954926789
 30
0.0
 41
1.0
 10
44.53259985638479
 20
-7.85251507877558
 30
0.0
 41
1.0
 10
44.3648631591896
 20
-7.88834720378031
 30
0.0
 41
1.0
 10
44.28108032184829
 20
-7.9044030903585
 30
0.0
 41
1.0
 10
43.8624155798883
 20
-7.975401246572119
 30
0.0
 41
1.0
 10
43.52824117764771
 20
-8.002566685041928
 30
0.0
 41
1.0
 10
43.0248747157969
 20
-7.998431555511159
 30
0.0
 41
1.0
 10
42.8569943153777
 20
-7.989545214128019
 30
0.0
 41
1.0
 10
42.5214639143946
 20
-7.956833253270469
 30
0.0
 41
1.0
 10
42.3535276415234
 20
-7.932979292542599
 30
0.0
 41
1.0
 10
42.01791836138649
 20
-7.87048721701771
 30
0.0
 41
1.0
 10
41.8502081132184
 20
-7.831856867756981
 30
0.0
 41
1.0
 10
41.51443011199429
 20
-7.73988896636286
 30
0.0
 41
1.0
 10
41.34718494088829
 20
-7.68676910577906
 30
0.0
 41
1.0
 10
40.84732070777029
 20
-7.50694830811346
 30
0.0
 41
1.0
 10
40.5162141615376
 20
-7.359734501505069
 30
0.0
 41
1.0
 10
39.8540866234123
 20
-7.01298956897097
 30
0.0
 41
1.0
 10
39.5230091533848
 20
-6.813479251734089
 30
0.0
 41
1.0
 10
39.0232296812165
 20
-6.475600922355138
 30
0.0
 41
1.0
 10
38.8560378619953
 20
-6.356471295570941
 30
0.0
 41
1.0
 10
38.520299810665
 20
-6.10551176697101
 30
0.0
 41
1.0
 10
38.3532265534719
 20
-5.974802990567719
 30
0.0
 41
1.0
 10
37.8535729519485
 20
-5.56779298969718
 30
0.0
 41
1.0
 10
37.5225909716162
 20
-5.276620531694249
 30
0.0
 41
1.0
 10
36.8604278574055
 20
-4.65804483226134
 30
0.0
 41
1.0
 10
36.5292755744396
 20
-4.33062575830004
 30
0.0
 41
1.0
 10
36.1126107856616
 20
-3.90006697170387
 30
0.0
 41
1.0
 10
36.0291391410988
 20
-3.81288995325039
 30
0.0
 41
1.0
 10
35.8618419598811
 20
-3.63643660174094
 30
0.0
 41
1.0
 10
35.77790400720239
 20
-3.54704115882049
 30
0.0
 41
1.0
 10
35.5262562380059
 20
-3.276602023556649
 30
0.0
 41
1.0
 10
35.3592792327491
 20
-3.09392248248963
 30
0.0
 41
1.0
 10
34.8598817873452
 20
-2.539499273888
 30
0.0
 41
1.0
 10
34.5289672421618
 20
-2.161404999363529
 30
0.0
 41
1.0
 10
33.8668057541526
 20
-1.39202755498053
 30
0.0
 41
1.0
 10
33.53564204219001
 20
-1.00067549336484
 30
0.0
 41
1.0
 10
33.1187850066897
 20
-0.505319927785592
 30
0.0
 41
1.0
 10
33.03526754684031
 20
-0.405940371766207
 30
0.0
 41
1.0
 10
32.8678752927599
 20
-0.206610259054656
 30
0.0
 41
1.0
 10
32.7838733642219
 20
-0.106508192492924
 30
0.0
 41
1.0
 10
32.532326775704
 20
0.193266643223581
 30
0.0
 41
1.0
 10
32.36530198238661
 20
0.392335848669916
 30
0.0
 41
1.0
 10
31.8653788662382
 20
0.986537144875683
 30
0.0
 41
1.0
 10
31.5335856647518
 20
1.378634175386929
 30
0.0
 41
1.0
 10
30.8688205556564
 20
2.1513680720854
 30
0.0
 41
1.0
 10
30.5358344200852
 20
2.53199306290989
 30
0.0
 41
1.0
 10
30.1999999999999
 20
2.90488730266483
 30
0.0
 41
1.0
  0
SPLINE
  5
8A
330
1F
100
AcDbEntity
  8
1
100
AcDbSpline
210
0.0
220
0.0
230
1.0
 70
    12
 71
     3
 72
    34
 73
    30
 74
     0
 42
0.000000001
 43
0.0000000001
 40
0.0
 40
0.0
 40
0.0
 40
0.0
 40
0.0019531249999997
 40
0.0019531249999997
 40
0.0039062499999994
 40
0.0078124999999997
 40
0.0078124999999997
 40
0.0156249999999997
 40
0.0156249999999997
 40
0.0312499999999996
 40
0.0312499999999996
 40
0.0624999999999995
 40
0.125
 40
0.125
 40
0.249999999999999
 40
0.249999999999999
 40
0.499999999999999
 40
0.499999999999999
 40
0.6249999999999979
 40
0.6249999999999979
 40
0.749999999999997
 40
0.749999999999997
 40
0.8124999999999978
 40
0.8124999999999978
 40
0.8749999999999978
 40
0.8749999999999978
 40
0.9374999999999989
 40
0.9374999999999989
 40
1.0
 40
1.0
 40
1.0
 40
1.0
 10
30.2
 20
2.90488730266469
 30
0.0
 41
1.0
 10
30.1990291476073
 20
2.9064660141137
 30
0.0
 41
1.0
 10
30.198973977518
 20
2.90872216701044
 30
0.0
 41
1.0
 10
30.1982720252335
 20
2.912796587739279
 30
0.0
 41
1.0
 10
30.1971529599135
 20
2.918874698970459
 30
0.0
 41
1.0
 10
30.1958927572741
 20
2.9248727853051
 30
0.0
 41
1.0
 10
30.1933132189848
 20
2.936832907595089
 30
0.0
 41
1.0
 10
30.19156630366361
 20
2.944786124534969
 30
0.0
 41
1.0
 10
30.1865076225433
 20
2.96872761374027
 30
0.0
 41
1.0
 10
30.1831789774608
 20
2.984689439419669
 30
0.0
 41
1.0
 10
30.1730185652085
 20
3.03241109578397
 30
0.0
 41
1.0
 10
30.1523422139111
 20
3.127400545745589
 30
0.0
 41
1.0
 10
30.1305898851516
 20
3.22088301656552
 30
0.0
 41
1.0
 10
30.085535072863
 20
3.405860397020259
 30
0.0
 41
1.0
 10
30.05336908297611
 20
3.52677955008758
 30
0.0
 41
1.0
 10
29.9502929015466
 20
3.87955925357031
 30
0.0
 41
1.0
 10
29.8730611762399
 20
4.101491607756
 30
0.0
 41
1.0
 10
29.7382708362154
 20
4.415967090356279
 30
0.0
 41
1.0
 10
29.69015418645231
 20
4.51772133946696
 30
0.0
 41
1.0
 10
29.5856672024228
 20
4.71536138881226
 30
0.0
 41
1.0
 10
29.5293378949856
 20
4.81124371659524
 30
0.0
 41
1.0
 10
29.43617005766011
 20
4.950913083681509
 30
0.0
 41
1.0
 10
29.4036547527269
 20
4.99677793815641
 30
0.0
 41
1.0
 10
29.3349730042979
 20
5.087183392317769
 30
0.0
 41
1.0
 10
29.2986985961496
 20
5.13185045307105
 30
0.0
 41
1.0
 10
29.222061496444
 20
5.21915821035674
 30
0.0
 41
1.0
 10
29.1817239490887
 20
5.26180716435849
 30
0.0
 41
1.0
 10
29.0955862365728
 20
5.34505613222871
 30
0.0
 41
1.0
 10
29.0498276348311
 20
5.385661321681968
 30
0.0
 41
1.0
 10
29.0000000000007
 20
5.42515823998636
 30
0.0
 41
1.0
  0
SPLINE
  5
8B
330
1F
100
AcDbEntity
  8
1
100
AcDbSpline
210
0.0
220
0.0
230
1.0
 70
    12
 71
     3
 72
     8
 73
     4
 74
     0
 42
0.000000001
 43
0.0000000001
 40
0.0
 40
0.0
 40
0.0
 40
0.0
 40
1.0
 40
1.0
 40
1.0
 40
1.0
 10
28.5300416985489
 20
6.458188435789709
 30
0.0
 41
1.0
 10
28.6863392698277
 20
6.55146633105974
 30
0.0
 41
1.0
 10
28.8429202347354
 20
6.639652615741109
 30
0.0
 41
1.0
 10
29.0
 20
6.722604220270709
 30
0.0
 41
1.0
  0
SPLINE
  5
8C
330
1F
100
AcDbEntity
  8
1
100
AcDbSpline
210
0.0
220
0.0
230
1.0
 70
    12
 71
     3
 72
    12
 73
     8
 74
     0
 42
0.000000001
 43
0.0000000001
 40
0.0
 40
0.0
 40
0.0
 40
0.0
 40
0.5
 40
0.5
 40
0.75
 40
0.75
 40
1.0
 40
1.0
 40
1.0
 40
1.0
 10
29.0
 20
6.722604220270709
 30
0.0
 41
1.0
 10
29.212963819743
 20
6.835067404339499
 30
0.0
 41
1.0
 10
29.4239074547926
 20
6.96621853860267
 30
0.0
 41
1.0
 10
29.7278960990719
 20
7.194141179215619
 30
0.0
 41
1.0
 10
29.8271008286935
 20
7.275357348545039
 30
0.0
 41
1.0
 10
30.0190137886414
 20
7.448893508208049
 30
0.0
 41
1.0
 10
30.1116098327181
 20
7.541170233917848
 30
0.0
 41
1.0
 10
30.2
 20
7.639307211888419
 30
0.0
 41
1.0
  0
LINE
  5
46
330
1F
100
AcDbEntity
  8
SK1
100
AcDbLine
 10
0.0
 20
8.0
 30
0.0
 11
-48.2
 21
8.0
 31
0.0
  0
LINE
  5
48
330
1F
100
AcDbEntity
  8
SK1
100
AcDbLine
 10
-48.2
 20
-8.0
 30
0.0
 11
0.0
 21
-8.0
 31
0.0
  0
LINE
  5
49
330
1F
100
AcDbEntity
  8
1
100
AcDbLine
 10
66.2
 20
-4.0
 30
0.0
 11
66.2
 21
4.0
 31
0.0
  0
LINE
  5
4B
330
1F
100
AcDbEntity
  8
1
100
AcDbLine
 10
30.2
 20
2.375075999999999
 30
0.0
 11
30.2
 21
2.904887
 31
0.0
  0
LINE
  5
4C
330
1F
100
AcDbEntity
  8
SK1
100
AcDbLine
 10
-48.79999999999999
 20
-7.4
 30
0.0
 11
-48.79999999999999
 21
7.4
 31
0.0
  0
LINE
  5
4D
330
1F
100
AcDbEntity
  8
1
100
AcDbLine
 10
1.199999999999999
 20
-7.599999999999999
 30
0.0
 11
23.8
 21
-7.599999999999999
 31
0.0
  0
LINE
  5
4E
330
1F
100
AcDbEntity
  8
1
100
AcDbLine
 10
23.8
 20
7.599999999999999
 30
0.0
 11
1.199999999999999
 21
7.599999999999999
 31
0.0
  0
LINE
  5
4F
330
1F
100
AcDbEntity
  8
1
100
AcDbLine
 10
1.199999999999999
 20
-7.599999999999999
 30
0.0
 11
1.199999999999999
 21
7.599999999999999
 31
0.0
  0
LINE
  5
50
330
1F
100
AcDbEntity
  8
1
100
AcDbLine
 10
0.0
 20
-8.0
 30
0.0
 11
0.0
 21
8.0
 31
0.0
  0
LINE
  5
51
330
1F
100
AcDbEntity
  8
SK1
100
AcDbLine
 10
-48.2
 20
8.0
 30
0.0
 11
-48.79999999999999
 21
7.4
 31
0.0
  0
LINE
  5
52
330
1F
100
AcDbEntity
  8
SK1
100
AcDbLine
 10
-48.79999999999999
 20
-7.4
 30
0.0
 11
-48.2
 21
-8.0
 31
0.0
  0
LINE
  5
53
330
1F
100
AcDbEntity
  8
1
100
AcDbLine
 10
43.238869
 20
8.0
 30
0.0
 11
42.768109
 21
8.0
 31
0.0
  0
LINE
  5
54
330
1F
100
AcDbEntity
  8
1
100
AcDbLine
 10
42.768109
 20
-8.0
 30
0.0
 11
43.238869
 21
-8.0
 31
0.0
  0
LINE
  5
55
330
1F
100
AcDbEntity
  8
1
100
AcDbLine
 10
53.31216099999999
 20
-8.0
 30
0.0
 11
53.7833
 21
-8.0
 31
0.0
  0
LINE
  5
56
330
1F
100
AcDbEntity
  8
1
100
AcDbLine
 10
32.694714
 20
8.0
 30
0.0
 11
32.223227
 21
8.0
 31
0.0
  0
LINE
  5
57
330
1F
100
AcDbEntity
  8
1
100
AcDbLine
 10
32.223227
 20
-8.0
 30
0.0
 11
32.694714
 21
-8.0
 31
0.0
  0
LINE
  5
58
330
1F
100
AcDbEntity
  8
1
100
AcDbLine
 10
53.7833
 20
8.0
 30
0.0
 11
53.31216099999999
 21
8.0
 31
0.0
  0
LINE
  5
59
330
1F
100
AcDbEntity
  8
1
100
AcDbLine
 10
29.0
 20
3.544938999999999
 30
0.0
 11
29.0
 21
5.425158
 31
0.0
  0
LINE
  5
5A
330
1F
100
AcDbEntity
  8
1
100
AcDbLine
 10
62.2
 20
1.954445999999999
 30
0.0
 11
62.2
 21
2.493606999999999
 31
0.0
  0
LINE
  5
5B
330
1F
100
AcDbEntity
  8
SK1
100
AcDbLine
 10
-48.2
 20
-8.0
 30
0.0
 11
-48.2
 21
8.0
 31
0.0
  0
LINE
  5
5C
330
1F
100
AcDbEntity
  8
1
100
AcDbLine
 10
62.2
 20
-7.757585999999999
 30
0.0
 11
62.2
 21
-7.601441999999999
 31
0.0
  0
LINE
  5
5D
330
1F
100
AcDbEntity
  8
1
100
AcDbLine
 10
29.0
 20
-6.722603999999999
 30
0.0
 11
29.0
 21
-5.322373
 31
0.0
  0
LINE
  5
5E
330
1F
100
AcDbEntity
  8
1
100
AcDbLine
 10
30.2
 20
-7.639307
 30
0.0
 11
30.2
 21
-7.453966999999999
 31
0.0
  0
LINE
  5
5F
330
1F
100
AcDbEntity
  8
1
100
AcDbLine
 10
23.8
 20
-7.599999999999999
 30
0.0
 11
23.8
 21
-2.324924999999999
 31
0.0
  0
LINE
  5
60
330
1F
100
AcDbEntity
  8
1
100
AcDbLine
 10
23.8
 20
-0.009062
 30
0.0
 11
23.8
 21
7.235655999999999
 31
0.0
  0
LINE
  5
61
330
1F
100
AcDbEntity
  8
81
100
AcDbLine
 10
66.2
 20
0.0
 30
0.0
 11
71.115932
 21
0.0
 31
0.0
  0
LINE
  5
62
330
1F
100
AcDbEntity
  8
80
100
AcDbLine
 10
0.0
 20
0.0
 30
0.0
 11
-4.0
 21
0.0
 31
0.0
  0
LINE
  5
63
330
1F
100
AcDbEntity
  8
SK4
 48
0.05
 60
     1
100
AcDbLine
 10
-48.79999999999999
 20
0.0
 30
0.0
 11
68.657966
 21
0.0
 31
0.0
  0
LINE
  5
65
330
1F
100
AcDbEntity
  8
4
 48
0.05
100
AcDbLine
 10
0.0
 20
0.0
 30
0.0
 11
68.657966
 21
0.0
 31
0.0
  0
MTEXT
  5
8D
330
1F
100
AcDbEntity
  8
SK6
100
AcDbMText
 10
-46.65144999999999
 20
22.182337
 30
0.0
 40
3.5
 41
0.0
 71
     7
 72
     5
  1
\W00.735;\fsimplex.shx,bigfont.shx;R216.24-16050ICK36P 
  7
DEFAULT
 73
     1
 44
1.084337
1001
ACAD
1000
MTEXTBEGIN
1070
    73
1070
     1
1070
    44
1040
1.084337
1070
    74
1070
     0
1000
MTEXTEND
  0
DIMENSION
  5
9F
330
1F
100
AcDbEntity
  8
SK2
370
    -3
100
AcDbDimension
  2
DimnDraft3D1
 10
30.2
 20
-19.586214
 30
0.0
 11
46.15526299999999
 21
-19.586214
 31
0.0
 70
    32
 71
     5
 42
-1.0
  3
Standard
100
AcDbAlignedDimension
 13
66.2
 23
-6.0
 33
0.0
 14
30.2
 24
0.375076
 34
0.0
100
AcDbRotatedDimension
1001
ACAD
1000
DSTYLE
1002
{
1070
   279
1070
     0
1070
   172
1070
     1
1070
   173
1070
     1
1070
   340
1005
8E
1070
   271
1070
     1
1070
    77
1070
     1
1070
    73
1070
     0
1070
   171
1070
     3
1070
   274
1070
     4
1070
   177
1070
   254
1070
   176
1070
   254
1070
   178
1070
   254
1070
    78
1070
     8
1070
    41
1041
3.5
1070
   147
1041
1.75
1070
    42
1041
2.0
1070
    44
1041
2.0
1070
   140
1041
3.5
1070
   343
1005
A0
1070
   344
1005
A0
1002
}
  0
DIMENSION
  5
B4
330
1F
100
AcDbEntity
  8
SK2
370
    -3
100
AcDbDimension
  2
DimnDraft3D2
 10
-48.79999999999999
 20
-43.04714899999999
 30
0.0
 11
6.245394999999999
 21
-43.04714899999999
 31
0.0
 70
    32
 71
     5
 42
-1.0
  3
Standard
100
AcDbAlignedDimension
 13
66.2
 23
-6.0
 33
0.0
 14
-48.79999999999999
 24
-9.4
 34
0.0
100
AcDbRotatedDimension
1001
ACAD
1000
DSTYLE
1002
{
1070
   279
1070
     0
1070
   172
1070
     1
1070
   173
1070
     1
1070
   340
1005
8E
1070
   271
1070
     1
1070
    77
1070
     1
1070
    73
1070
     0
1070
   171
1070
     3
1070
   274
1070
     4
1070
   177
1070
   254
1070
   176
1070
   254
1070
   178
1070
   254
1070
    78
1070
     8
1070
    41
1041
3.5
1070
   147
1041
1.75
1070
    42
1041
2.0
1070
    44
1041
2.0
1070
   140
1041
3.5
1070
   343
1005
A0
1070
   344
1005
A0
1002
}
  0
DIMENSION
  5
C3
330
1F
100
AcDbEntity
  8
2
370
    -3
100
AcDbDimension
  2
DimnDraft3D3
 10
1.199999999999999
 20
-30.744464
 30
0.0
 11
31.655263
 21
-30.744464
 31
0.0
 70
    32
 71
     5
 42
-1.0
  3
Standard
100
AcDbAlignedDimension
 13
66.2
 23
-6.0
 33
0.0
 14
1.199999999999999
 24
-9.599999999999999
 34
0.0
100
AcDbRotatedDimension
1001
ACAD
1000
DSTYLE
1002
{
1070
   279
1070
     0
1070
   172
1070
     1
1070
   173
1070
     1
1070
   340
1005
8E
1070
   271
1070
     1
1070
    77
1070
     1
1070
    73
1070
     0
1070
   171
1070
     3
1070
   274
1070
     4
1070
   177
1070
   254
1070
   176
1070
   254
1070
   178
1070
   254
1070
    78
1070
     8
1070
    41
1041
3.5
1070
   147
1041
1.75
1070
    42
1041
2.0
1070
    44
1041
2.0
1070
   140
1041
3.5
1070
   343
1005
A0
1070
   344
1005
A0
1002
}
  0
DIMENSION
  5
D1
330
1F
100
AcDbEntity
  8
SK2
370
    -3
100
AcDbDimension
  2
DimnDraft3D4
 10
-48.79999999999999
 20
-30.458355
 30
0.0
 11
-32.1
 21
-30.458355
 31
0.0
 70
    32
 71
     5
 42
-1.0
  3
Standard
100
AcDbAlignedDimension
 13
0.0
 23
-10.0
 33
0.0
 14
-48.79999999999999
 24
-9.4
 34
0.0
100
AcDbRotatedDimension
1001
ACAD
1000
DSTYLE
1002
{
1070
   279
1070
     0
1070
   172
1070
     1
1070
   173
1070
     1
1070
   340
1005
8E
1070
   271
1070
     1
1070
    77
1070
     1
1070
    73
1070
     0
1070
   171
1070
     3
1070
   274
1070
     4
1070
   177
1070
   254
1070
   176
1070
   254
1070
   178
1070
   254
1070
    78
1070
     8
1070
    41
1041
3.5
1070
   147
1041
1.75
1070
    42
1041
2.0
1070
    44
1041
2.0
1070
   140
1041
3.5
1070
   343
1005
A0
1070
   344
1005
A0
1002
}
  0
DIMENSION
  5
DB
330
1F
100
AcDbEntity
  8
SK2
370
    -3
100
AcDbDimension
  2
DimnDraft3D5
 10
62.2
 20
-4.0
 30
0.0
 11
76.061017
 21
-16.511806
 31
0.0
 70
    36
 71
     5
 42
-1.0
  3
Standard
100
AcDbRadialDimension
 15
0.0
 25
0.0
 35
0.0
 40
0.0
1001
ACAD
1000
DSTYLE
1002
{
1070
   279
1070
     0
1070
   173
1070
     1
1070
   340
1005
8E
1070
    75
1070
     1
1070
    76
1070
     1
1070
   271
1070
     1
1070
    77
1070
     1
1070
    73
1070
     0
1070
   171
1070
     3
1070
   274
1070
     4
1070
   177
1070
   254
1070
   176
1070
   254
1070
   178
1070
   254
1070
    78
1070
     8
1070
    41
1041
3.174999999999999
1070
   147
1041
1.5
1070
    42
1041
2.0
1070
    44
1041
2.0
1070
   140
1041
3.0
1070
   343
1005
A0
1070
   344
1005
A0
1002
}
  0
DIMENSION
  5
EB
330
1F
100
AcDbEntity
  8
SK2
370
    -3
100
AcDbDimension
  2
DimnDraft3D6
 10
-52.331488
 20
8.0
 30
0.0
 11
-52.331488
 21
11.5
 31
0.0
 70
    32
 71
     5
 42
-1.0
  3
Standard
100
AcDbAlignedDimension
 13
-48.2
 23
-8.0
 33
0.0
 14
-48.2
 24
8.0
 34
0.0
 50
90.0
100
AcDbRotatedDimension
1001
ACAD
1000
DSTYLE
1002
{
1070
    74
1070
     0
1070
   279
1070
     0
1070
   172
1070
     1
1070
   173
1070
     1
1070
   340
1005
DF
1070
   271
1070
     1
1070
    77
1070
     1
1070
    73
1070
     0
1070
   171
1070
     3
1070
   274
1070
     4
1070
   177
1070
   254
1070
   176
1070
   254
1070
   178
1070
   254
1070
    78
1070
     8
1070
    41
1041
3.5
1070
   147
1041
1.5
1070
    42
1041
0.0
1070
    44
1041
0.0
1070
   140
1041
3.0
1070
   343
1005
A0
1070
   344
1005
A0
1002
}
  0
DIMENSION
  5
F8
330
1F
100
AcDbEntity
  8
SK2
370
    -3
100
AcDbDimension
  2
DimnDraft3D7
 10
10.830384
 20
7.599999999999999
 30
0.0
 11
10.830384
 21
11.1
 31
0.0
 70
    32
 71
     5
 42
-1.0
  3
Standard
100
AcDbAlignedDimension
 13
10.830384
 23
-7.599999999999999
 33
0.0
 14
10.830384
 24
7.599999999999999
 34
0.0
 50
90.0
100
AcDbRotatedDimension
1001
ACAD
1000
DSTYLE
1002
{
1070
    74
1070
     0
1070
   279
1070
     0
1070
   172
1070
     1
1070
   173
1070
     1
1070
   340
1005
DF
1070
   271
1070
     0
1070
    77
1070
     1
1070
    73
1070
     0
1070
   171
1070
     3
1070
   274
1070
     4
1070
   177
1070
   254
1070
   176
1070
   254
1070
   178
1070
   254
1070
    78
1070
     8
1070
    41
1041
3.5
1070
   147
1041
1.5
1070
    42
1041
0.0
1070
    44
1041
0.0
1070
   140
1041
3.0
1070
   343
1005
A0
1070
   344
1005
A0
1002
}
  0
DIMENSION
  5
107
330
1F
100
AcDbEntity
  8
2
370
    -3
100
AcDbDimension
  2
DimnDraft3D8
 10
76.209604
 20
8.0
 30
0.0
 11
76.209604
 21
11.5
 31
0.0
 70
    32
 71
     5
 42
-1.0
  3
Standard
100
AcDbAlignedDimension
 13
62.87312199999999
 23
-7.856432999999999
 33
0.0
 14
53.7833
 24
8.0
 34
0.0
 50
90.0
100
AcDbRotatedDimension
1001
ACAD
1000
DSTYLE
1002
{
1070
    74
1070
     0
1070
   279
1070
     0
1070
   172
1070
     1
1070
   173
1070
     1
1070
   340
1005
DF
1070
   271
1070
     0
1070
    77
1070
     1
1070
    73
1070
     0
1070
   171
1070
     3
1070
   274
1070
     4
1070
   177
1070
   254
1070
   176
1070
   254
1070
   178
1070
   254
1070
    78
1070
     8
1070
    41
1041
3.5
1070
   147
1041
1.5
1070
    42
1041
0.0
1070
    44
1041
0.0
1070
   140
1041
3.0
1070
   343
1005
A0
1070
   344
1005
A0
1002
}
  0
ENDSEC
  0
SECTION
  2
OBJECTS
  0
DICTIONARY
  5
156
330
0
100
AcDbDictionary
281
     1
  3
ACAD_CIP_PREVIOUS_PRODUCT_INFO
350
1BC
  3
ACAD_COLOR
350
199
  3
ACAD_DETAILVIEWSTYLE
350
1B3
  3
ACAD_GROUP
350
157
  3
ACAD_LAYOUT
350
1B5
  3
ACAD_MATERIAL
350
167
  3
ACAD_MLEADERSTYLE
350
1AE
  3
ACAD_MLINESTYLE
350
158
  3
ACAD_PLOTSETTINGS
350
1B6
  3
ACAD_PLOTSTYLENAME
350
165
  3
ACAD_SCALELIST
350
19C
  3
ACAD_SECTIONVIEWSTYLE
350
1B0
  3
ACAD_TABLESTYLE
350
19A
  3
ACAD_VISUALSTYLE
350
180
  3
ACDB_RECOMPOSE_DATA
350
1E4
  3
AcDbVariableDictionary
350
1D7
  3
ASE_INDEX_DICTIONARY
350
1D4
  3
DWGPROPS
350
1E5
  0
DICTIONARY
  5
1BF
330
10
100
AcDbDictionary
280
     1
281
     1
  3
ADSK_XREC_LAYER_RECONCILED
360
1C0
  0
DICTIONARY
  5
1C1
330
43
100
AcDbDictionary
280
     1
281
     1
  3
ADSK_XREC_LAYER_RECONCILED
360
1C2
  0
DICTIONARY
  5
1C3
330
45
100
AcDbDictionary
280
     1
281
     1
  3
ADSK_XREC_LAYER_RECONCILED
360
1C4
  0
DICTIONARY
  5
1C5
330
4A
100
AcDbDictionary
280
     1
281
     1
  3
ADSK_XREC_LAYER_RECONCILED
360
1C6
  0
DICTIONARY
  5
1C7
330
66
100
AcDbDictionary
280
     1
281
     1
  3
ADSK_XREC_LAYER_RECONCILED
360
1C8
  0
DICTIONARY
  5
1C9
330
B7
100
AcDbDictionary
280
     1
281
     1
  3
ADSK_XREC_LAYER_RECONCILED
360
1CA
  0
DICTIONARY
  5
1CB
330
145
100
AcDbDictionary
280
     1
281
     1
  3
ADSK_XREC_LAYER_RECONCILED
360
1CC
  0
DICTIONARY
  5
1CD
330
146
100
AcDbDictionary
280
     1
281
     1
  3
ADSK_XREC_LAYER_RECONCILED
360
1CE
  0
DICTIONARY
  5
1CF
330
147
100
AcDbDictionary
280
     1
281
     1
  3
ADSK_XREC_LAYER_RECONCILED
360
1D0
  0
DICTIONARY
  5
1D1
330
148
100
AcDbDictionary
280
     1
281
     1
  3
ADSK_XREC_LAYER_RECONCILED
360
1D2
  0
XRECORD
  5
1BC
102
{ACAD_REACTORS
330
156
102
}
330
156
100
AcDbXrecord
280
     1
300
AMECH_PP
300
2013
300
PDSU_F_S
  0
DICTIONARY
  5
199
102
{ACAD_REACTORS
330
156
102
}
330
156
100
AcDbDictionary
281
     1
  0
DICTIONARY
  5
1B3
102
{ACAD_REACTORS
330
156
102
}
330
156
100
AcDbDictionary
281
     1
  3
Imperial24
350
1B4
  0
DICTIONARY
  5
157
330
156
100
AcDbDictionary
281
     1
  0
DICTIONARY
  5
1B5
102
{ACAD_REACTORS
330
156
102
}
330
156
100
AcDbDictionary
281
     1
  3
Layout1
350
1B8
  3
Model
350
1B7
  0
DICTIONARY
  5
167
102
{ACAD_REACTORS
330
156
102
}
330
156
100
AcDbDictionary
281
     1
  3
ByBlock
350
170
  3
ByLayer
350
168
  3
Global
350
178
  0
DICTIONARY
  5
1AE
102
{ACAD_REACTORS
330
156
102
}
330
156
100
AcDbDictionary
281
     1
  3
Standard
350
1AF
  0
DICTIONARY
  5
158
330
156
100
AcDbDictionary
281
     1
  3
Standard
350
18
  0
DICTIONARY
  5
1B6
102
{ACAD_REACTORS
330
156
102
}
330
156
100
AcDbDictionary
281
     1
  0
ACDBDICTIONARYWDFLT
  5
165
102
{ACAD_REACTORS
330
156
102
}
330
156
100
AcDbDictionary
281
     1
  3
Normal
350
166
100
AcDbDictionaryWithDefault
340
166
  0
DICTIONARY
  5
19C
102
{ACAD_REACTORS
330
156
102
}
330
156
100
AcDbDictionary
281
     1
  3
A0
350
19D
  3
A1
350
19E
  3
A2
350
19F
  3
A3
350
1A0
  3
A4
350
1A1
  3
A5
350
1A2
  3
A6
350
1A3
  3
A7
350
1A4
  3
A8
350
1A5
  3
A9
350
1A6
  3
B0
350
1A7
  3
B1
350
1A8
  3
B2
350
1A9
  3
B3
350
1AA
  3
B4
350
1AB
  3
B5
350
1AC
  3
B6
350
1AD
  0
DICTIONARY
  5
1B0
102
{ACAD_REACTORS
330
156
102
}
330
156
100
AcDbDictionary
281
     1
  3
Imperial24
350
1B2
  0
DICTIONARY
  5
19A
102
{ACAD_REACTORS
330
156
102
}
330
156
100
AcDbDictionary
281
     1
  3
Standard
350
19B
  0
DICTIONARY
  5
180
102
{ACAD_REACTORS
330
156
102
}
330
156
100
AcDbDictionary
281
     1
  3
2dWireframe
350
186
  3
Basic
350
185
  3
Brighten
350
18C
  3
ColorChange
350
190
  3
Conceptual
350
189
  3
Dim
350
18B
  3
EdgeColorOff
350
198
  3
Facepattern
350
18F
  3
Flat
350
181
  3
FlatWithEdges
350
182
  3
Gouraud
350
183
  3
GouraudWithEdges
350
184
  3
Hidden
350
188
  3
JitterOff
350
196
  3
Linepattern
350
18E
  3
OverhangOff
350
197
  3
Realistic
350
18A
  3
Shaded
350
195
  3
Shaded with edges
350
194
  3
Shades of Gray
350
191
  3
Sketchy
350
192
  3
Thicken
350
18D
  3
Wireframe
350
187
  3
X-Ray
350
193
  0
XRECORD
  5
1E4
102
{ACAD_REACTORS
330
156
102
}
330
156
100
AcDbXrecord
280
     1
 90
        1
330
19B
  0
DICTIONARY
  5
1D7
102
{ACAD_REACTORS
330
156
102
}
330
156
100
AcDbDictionary
281
     1
  3
CANNOSCALE
350
1DC
  3
CMLEADERSTYLE
350
1D9
  3
CTABLESTYLE
350
1D8
  3
CVIEWDETAILSTYLE
350
1DA
  3
CVIEWSECTIONSTYLE
350
1DB
  3
DIMASSOC
350
1DF
  3
INDEXCTL
350
1DE
  3
SORTENTS
350
1DD
  3
XCLIPFRAME
350
1E0
  0
DICTIONARY
  5
1D4
102
{ACAD_REACTORS
330
156
102
}
330
156
100
AcDbDictionary
281
     1
  3
ASEBlockHierarchyIndexRecord
350
1D6
1001
DCO15
1040
1815719985.058
  0
XRECORD
  5
1E5
102
{ACAD_REACTORS
330
156
102
}
330
156
100
AcDbXrecord
280
     1
  1
DWGPROPS COOKIE
  2

  3

  4

  6

  7

  8
Micke
  9

300
=
301
=
302
=
303
=
304
=
305
=
306
=
307
=
308
=
309
=
 40
0.0000055092592593
 41
2456818.489451193
 42
2456818.48945669
  1

 90
        0
  0
XRECORD
  5
1C0
102
{ACAD_REACTORS
330
1BF
102
}
330
1BF
100
AcDbXrecord
280
     1
290
     1
  0
XRECORD
  5
1C2
102
{ACAD_REACTORS
330
1C1
102
}
330
1C1
100
AcDbXrecord
280
     1
290
     1
  0
XRECORD
  5
1C4
102
{ACAD_REACTORS
330
1C3
102
}
330
1C3
100
AcDbXrecord
280
     1
290
     1
  0
XRECORD
  5
1C6
102
{ACAD_REACTORS
330
1C5
102
}
330
1C5
100
AcDbXrecord
280
     1
290
     1
  0
XRECORD
  5
1C8
102
{ACAD_REACTORS
330
1C7
102
}
330
1C7
100
AcDbXrecord
280
     1
290
     1
  0
XRECORD
  5
1CA
102
{ACAD_REACTORS
330
1C9
102
}
330
1C9
100
AcDbXrecord
280
     1
290
     1
  0
XRECORD
  5
1CC
102
{ACAD_REACTORS
330
1CB
102
}
330
1CB
100
AcDbXrecord
280
     1
290
     1
  0
XRECORD
  5
1CE
102
{ACAD_REACTORS
330
1CD
102
}
330
1CD
100
AcDbXrecord
280
     1
290
     1
  0
XRECORD
  5
1D0
102
{ACAD_REACTORS
330
1CF
102
}
330
1CF
100
AcDbXrecord
280
     1
290
     1
  0
XRECORD
  5
1D2
102
{ACAD_REACTORS
330
1D1
102
}
330
1D1
100
AcDbXrecord
280
     1
290
     1
  0
ACDBDETAILVIEWSTYLE
  5
1B4
102
{ACAD_REACTORS
330
1B3
102
}
330
1B3
100
AcDbModelDocViewStyle
 70
     0
  3
Imperial24
290
     0
100
AcDbDetailViewStyle
 70
     0
 71
     0
 90
        3
 71
     1
340
11
 40
0.24
340
0
 40
0.24
300

 40
0.36
280
     3
 71
     2
340
16
 90
       25
 71
     3
340
11
 40
0.24
 90
        1
 40
0.75
 90
        1
300
%<\AcVar ViewType \f "%tc1">% %<\AcVar ViewDetailId>%\PSCALE %<\AcVar ViewScale \f "%sn">%
 71
     4
340
16
 90
       25
340
16
 90
       25
280
     0
  0
LAYOUT
  5
1B8
102
{ACAD_XDICTIONARY
360
21E
102
}
102
{ACAD_REACTORS
330
1B5
102
}
330
1B5
100
AcDbPlotSettings
  1

  2
Brother DCP-9020CDW Printer
  4

  6

 40
0.0
 41
0.0
 42
0.0
 43
0.0
 44
0.0
 45
0.0
 46
0.0
 47
0.0
 48
0.0
 49
0.0
140
0.0
141
0.0
142
1.0
143
1.0
 70
   688
 72
     0
 73
     0
 74
     5
  7

 75
    16
147
1.0
148
0.0
149
0.0
100
AcDbLayout
  1
Layout1
 70
     1
 71
     1
 10
0.0
 20
0.0
 11
12.0
 21
9.0
 12
0.0
 22
0.0
 32
0.0
 14
1.000000000000000E+20
 24
1.000000000000000E+20
 34
1.000000000000000E+20
 15
-1.000000000000000E+20
 25
-1.000000000000000E+20
 35
-1.000000000000000E+20
146
0.0
 13
0.0
 23
0.0
 33
0.0
 16
1.0
 26
0.0
 36
0.0
 17
0.0
 27
1.0
 37
0.0
 76
     0
330
1B
  0
LAYOUT
  5
1B7
102
{ACAD_XDICTIONARY
360
21C
102
}
102
{ACAD_REACTORS
330
1B5
102
}
330
1B5
100
AcDbPlotSettings
  1

  2
Brother DCP-9020CDW Printer
  4

  6

 40
0.0
 41
0.0
 42
0.0
 43
0.0
 44
0.0
 45
0.0
 46
0.0
 47
0.0
 48
0.0
 49
0.0
140
0.0
141
0.0
142
1.0
143
1.0
 70
  1712
 72
     0
 73
     0
 74
     0
  7

 75
     0
147
1.0
148
0.0
149
0.0
100
AcDbLayout
  1
Model
 70
     1
 71
     0
 10
0.0
 20
0.0
 11
12.0
 21
9.0
 12
0.0
 22
0.0
 32
0.0
 14
0.0
 24
0.0
 34
0.0
 15
0.0
 25
0.0
 35
0.0
146
0.0
 13
0.0
 23
0.0
 33
0.0
 16
1.0
 26
0.0
 36
0.0
 17
0.0
 27
1.0
 37
0.0
 76
     0
330
1F
331
1
  0
MATERIAL
  5
170
102
{ACAD_XDICTIONARY
360
171
102
}
102
{ACAD_REACTORS
330
167
102
}
330
167
100
AcDbMaterial
  1
ByBlock
 72
     0
 43
0.0008202099737533
 43
0.0
 43
0.0
 43
0.0
 43
0.0
 43
0.0008202099737533
 43
0.0
 43
0.0
 43
0.0
 43
0.0
 43
1.0
 43
0.0
 43
0.0
 43
0.0
 43
0.0
 43
1.0
 77
     0
 47
0.0008202099737533
 47
0.0
 47
0.0
 47
0.0
 47
0.0
 47
0.0008202099737533
 47
0.0
 47
0.0
 47
0.0
 47
0.0
 47
1.0
 47
0.0
 47
0.0
 47
0.0
 47
0.0
 47
1.0
171
     0
 49
0.0008202099737533
 49
0.0
 49
0.0
 49
0.0
 49
0.0
 49
0.0008202099737533
 49
0.0
 49
0.0
 49
0.0
 49
0.0
 49
1.0
 49
0.0
 49
0.0
 49
0.0
 49
0.0
 49
1.0
175
     0
142
0.0008202099737533
142
0.0
142
0.0
142
0.0
142
0.0
142
0.0008202099737533
142
0.0
142
0.0
142
0.0
142
0.0
142
1.0
142
0.0
142
0.0
142
0.0
142
0.0
142
1.0
179
     0
144
0.0008202099737533
144
0.0
144
0.0
144
0.0
144
0.0
144
0.0008202099737533
144
0.0
144
0.0
144
0.0
144
0.0
144
1.0
144
0.0
144
0.0
144
0.0
144
0.0
144
1.0
147
0.0008202099737533
147
0.0
147
0.0
147
0.0
147
0.0
147
0.0008202099737533
147
0.0
147
0.0
147
0.0
147
0.0
147
1.0
147
0.0
147
0.0
147
0.0
147
0.0
147
1.0
  0
MATERIAL
  5
168
102
{ACAD_XDICTIONARY
360
169
102
}
102
{ACAD_REACTORS
330
167
102
}
330
167
100
AcDbMaterial
  1
ByLayer
 72
     0
 43
0.0008202099737533
 43
0.0
 43
0.0
 43
0.0
 43
0.0
 43
0.0008202099737533
 43
0.0
 43
0.0
 43
0.0
 43
0.0
 43
1.0
 43
0.0
 43
0.0
 43
0.0
 43
0.0
 43
1.0
 77
     0
 47
0.0008202099737533
 47
0.0
 47
0.0
 47
0.0
 47
0.0
 47
0.0008202099737533
 47
0.0
 47
0.0
 47
0.0
 47
0.0
 47
1.0
 47
0.0
 47
0.0
 47
0.0
 47
0.0
 47
1.0
171
     0
 49
0.0008202099737533
 49
0.0
 49
0.0
 49
0.0
 49
0.0
 49
0.0008202099737533
 49
0.0
 49
0.0
 49
0.0
 49
0.0
 49
1.0
 49
0.0
 49
0.0
 49
0.0
 49
0.0
 49
1.0
175
     0
142
0.0008202099737533
142
0.0
142
0.0
142
0.0
142
0.0
142
0.0008202099737533
142
0.0
142
0.0
142
0.0
142
0.0
142
1.0
142
0.0
142
0.0
142
0.0
142
0.0
142
1.0
179
     0
144
0.0008202099737533
144
0.0
144
0.0
144
0.0
144
0.0
144
0.0008202099737533
144
0.0
144
0.0
144
0.0
144
0.0
144
1.0
144
0.0
144
0.0
144
0.0
144
0.0
144
1.0
147
0.0008202099737533
147
0.0
147
0.0
147
0.0
147
0.0
147
0.0008202099737533
147
0.0
147
0.0
147
0.0
147
0.0
147
1.0
147
0.0
147
0.0
147
0.0
147
0.0
147
1.0
  0
MATERIAL
  5
178
102
{ACAD_XDICTIONARY
360
179
102
}
102
{ACAD_REACTORS
330
167
102
}
330
167
100
AcDbMaterial
  1
Global
 72
     0
 43
0.0008202099737533
 43
0.0
 43
0.0
 43
0.0
 43
0.0
 43
0.0008202099737533
 43
0.0
 43
0.0
 43
0.0
 43
0.0
 43
1.0
 43
0.0
 43
0.0
 43
0.0
 43
0.0
 43
1.0
 77
     0
 47
0.0008202099737533
 47
0.0
 47
0.0
 47
0.0
 47
0.0
 47
0.0008202099737533
 47
0.0
 47
0.0
 47
0.0
 47
0.0
 47
1.0
 47
0.0
 47
0.0
 47
0.0
 47
0.0
 47
1.0
171
     0
 49
0.0008202099737533
 49
0.0
 49
0.0
 49
0.0
 49
0.0
 49
0.0008202099737533
 49
0.0
 49
0.0
 49
0.0
 49
0.0
 49
1.0
 49
0.0
 49
0.0
 49
0.0
 49
0.0
 49
1.0
175
     0
142
0.0008202099737533
142
0.0
142
0.0
142
0.0
142
0.0
142
0.0008202099737533
142
0.0
142
0.0
142
0.0
142
0.0
142
1.0
142
0.0
142
0.0
142
0.0
142
0.0
142
1.0
179
     0
144
0.0008202099737533
144
0.0
144
0.0
144
0.0
144
0.0
144
0.0008202099737533
144
0.0
144
0.0
144
0.0
144
0.0
144
1.0
144
0.0
144
0.0
144
0.0
144
0.0
144
1.0
147
0.0008202099737533
147
0.0
147
0.0
147
0.0
147
0.0
147
0.0008202099737533
147
0.0
147
0.0
147
0.0
147
0.0
147
1.0
147
0.0
147
0.0
147
0.0
147
0.0
147
1.0
  0
MLEADERSTYLE
  5
1AF
102
{ACAD_REACTORS
330
1AE
102
}
330
1AE
100
AcDbMLeaderStyle
170
     2
171
     1
172
     0
 90
        2
 40
0.0
 41
0.0
173
     1
 91
-1056964608
340
14
 92
       -2
290
     1
 42
0.09
291
     1
 43
0.36
  3
Standard
 44
0.18
300

342
11
174
     1
178
     6
175
     1
176
     0
 93
-1056964608
 45
0.18
292
     0
297
     0
 46
0.18
 94
-1056964608
 47
1.0
 49
1.0
140
1.0
293
     1
141
0.0
294
     1
177
     0
142
1.0
295
     0
296
     0
143
0.125
1001
ACAD_MLEADERVER
1070
     2
  0
MLINESTYLE
  5
18
330
158
100
AcDbMlineStyle
  2
STANDARD
 70
     0
  3

 62
   256
 51
90.0
 52
90.0
 71
     2
 49
0.5
 62
   256
  6
BYLAYER
 49
-0.5
 62
   256
  6
BYLAYER
  0
ACDBPLACEHOLDER
  5
166
102
{ACAD_REACTORS
330
165
102
}
330
165
  0
SCALE
  5
19D
102
{ACAD_REACTORS
330
19C
102
}
330
19C
100
AcDbScale
 70
     0
300
1:1
140
1.0
141
1.0
290
     1
  0
SCALE
  5
19E
102
{ACAD_REACTORS
330
19C
102
}
330
19C
100
AcDbScale
 70
     0
300
1/128" = 1'-0"
140
0.0078125
141
12.0
290
     0
  0
SCALE
  5
19F
102
{ACAD_REACTORS
330
19C
102
}
330
19C
100
AcDbScale
 70
     0
300
1/64" = 1'-0"
140
0.015625
141
12.0
290
     0
  0
SCALE
  5
1A0
102
{ACAD_REACTORS
330
19C
102
}
330
19C
100
AcDbScale
 70
     0
300
1/32" = 1'-0"
140
0.03125
141
12.0
290
     0
  0
SCALE
  5
1A1
102
{ACAD_REACTORS
330
19C
102
}
330
19C
100
AcDbScale
 70
     0
300
1/16" = 1'-0"
140
0.0625
141
12.0
290
     0
  0
SCALE
  5
1A2
102
{ACAD_REACTORS
330
19C
102
}
330
19C
100
AcDbScale
 70
     0
300
3/32" = 1'-0"
140
0.09375
141
12.0
290
     0
  0
SCALE
  5
1A3
102
{ACAD_REACTORS
330
19C
102
}
330
19C
100
AcDbScale
 70
     0
300
1/8" = 1'-0"
140
0.125
141
12.0
290
     0
  0
SCALE
  5
1A4
102
{ACAD_REACTORS
330
19C
102
}
330
19C
100
AcDbScale
 70
     0
300
3/16" = 1'-0"
140
0.1875
141
12.0
290
     0
  0
SCALE
  5
1A5
102
{ACAD_REACTORS
330
19C
102
}
330
19C
100
AcDbScale
 70
     0
300
1/4" = 1'-0"
140
0.25
141
12.0
290
     0
  0
SCALE
  5
1A6
102
{ACAD_REACTORS
330
19C
102
}
330
19C
100
AcDbScale
 70
     0
300
3/8" = 1'-0"
140
0.375
141
12.0
290
     0
  0
SCALE
  5
1A7
102
{ACAD_REACTORS
330
19C
102
}
330
19C
100
AcDbScale
 70
     0
300
1/2" = 1'-0"
140
0.5
141
12.0
290
     0
  0
SCALE
  5
1A8
102
{ACAD_REACTORS
330
19C
102
}
330
19C
100
AcDbScale
 70
     0
300
3/4" = 1'-0"
140
0.75
141
12.0
290
     0
  0
SCALE
  5
1A9
102
{ACAD_REACTORS
330
19C
102
}
330
19C
100
AcDbScale
 70
     0
300
1" = 1'-0"
140
1.0
141
12.0
290
     0
  0
SCALE
  5
1AA
102
{ACAD_REACTORS
330
19C
102
}
330
19C
100
AcDbScale
 70
     0
300
1-1/2" = 1'-0"
140
1.5
141
12.0
290
     0
  0
SCALE
  5
1AB
102
{ACAD_REACTORS
330
19C
102
}
330
19C
100
AcDbScale
 70
     0
300
3" = 1'-0"
140
3.0
141
12.0
290
     0
  0
SCALE
  5
1AC
102
{ACAD_REACTORS
330
19C
102
}
330
19C
100
AcDbScale
 70
     0
300
6" = 1'-0"
140
6.0
141
12.0
290
     0
  0
SCALE
  5
1AD
102
{ACAD_REACTORS
330
19C
102
}
330
19C
100
AcDbScale
 70
     0
300
1'-0" = 1'-0"
140
12.0
141
12.0
290
     0
  0
ACDBSECTIONVIEWSTYLE
  5
1B2
102
{ACAD_REACTORS
330
1B0
102
}
330
1B0
100
AcDbModelDocViewStyle
 70
     0
  3
Imperial24
290
     0
100
AcDbSectionViewStyle
 70
     0
 71
     0
 90
       78
 71
     1
340
11
 40
0.24
340
0
340
0
 40
0.24
300
I, O, Q, S, X, Z
 40
0.48
 90
        3
 40
0.18
 90
        1
 71
     2
340
1B1
 90
       25
340
16
 90
       50
 40
0.24
 40
0.0
 40
0.24
 71
     3
340
11
 40
0.24
 90
        1
 40
0.75
 90
        1
300
%<\AcVar ViewType \f "%tc1">% %<\AcVar ViewSectionStartId>%-%<\AcVar ViewSectionEndId>%\PSCALE %<\AcVar ViewScale \f "%sn">%
 71
     4
300
ANSI31
 40
1.0
 90
        0
290
     0
290
     0
 90
        6
 40
0.0
 40
1.570796326794896
 40
0.2617993877991494
 40
1.308996938995747
 40
-0.2617993877991494
 40
1.832595714594046
  0
TABLESTYLE
  5
19B
102
{ACAD_XDICTIONARY
360
1E2
102
}
102
{ACAD_REACTORS
330
19A
102
}
330
19A
100
AcDbTableStyle
  3
Standard
 70
     0
 71
     0
 40
0.06
 41
0.06
280
     0
281
     0
  7
Standard
140
0.18
170
     2
 62
     0
 63
     7
283
     0
274
    -2
284
     1
 64
     0
275
    -2
285
     1
 65
     0
276
    -2
286
     1
 66
     0
277
    -2
287
     1
 67
     0
278
    -2
288
     1
 68
     0
279
    -2
289
     1
 69
     0
  7
Standard
140
0.25
170
     5
 62
     0
 63
     7
283
     0
274
    -2
284
     1
 64
     0
275
    -2
285
     1
 65
     0
276
    -2
286
     1
 66
     0
277
    -2
287
     1
 67
     0
278
    -2
288
     1
 68
     0
279
    -2
289
     1
 69
     0
  7
Standard
140
0.18
170
     5
 62
     0
 63
     7
283
     0
274
    -2
284
     1
 64
     0
275
    -2
285
     1
 65
     0
276
    -2
286
     1
 66
     0
277
    -2
287
     1
 67
     0
278
    -2
288
     1
 68
     0
279
    -2
289
     1
 69
     0
  0
VISUALSTYLE
  5
186
102
{ACAD_XDICTIONARY
360
1F4
102
}
102
{ACAD_REACTORS
330
180
102
}
330
180
100
AcDbVisualStyle
  2
2dWireframe
 70
     4
 71
     0
 72
     2
 73
     0
 90
        0
 40
-0.6
 41
-30.0
 62
     5
 63
     7
 74
     1
 91
        4
 64
     7
 65
   257
 75
     1
175
     1
 42
1.0
 92
        0
 66
   257
 43
1.0
 76
     1
 77
     6
 78
     2
 67
     7
 79
     5
170
     0
171
     0
290
     0
174
     0
 93
        1
 44
0.0
173
     0
291
     0
 45
0.0
1001
ACAD
1000
AcDbSavedByObjectVersion
1070
     0
  0
VISUALSTYLE
  5
185
102
{ACAD_XDICTIONARY
360
1F2
102
}
102
{ACAD_REACTORS
330
180
102
}
330
180
100
AcDbVisualStyle
  2
Basic
 70
     7
 71
     1
 72
     0
 73
     1
 90
        0
 40
-0.6
 41
-30.0
 62
     5
 63
     7
 74
     0
 91
        4
 64
     7
 65
   257
 75
     1
175
     1
 42
1.0
 92
        8
 66
     7
 43
1.0
 76
     1
 77
     6
 78
     2
 67
     7
 79
     5
170
     0
171
     0
290
     0
174
     0
 93
        1
 44
0.0
173
     0
291
     1
 45
0.0
1001
ACAD
1000
AcDbSavedByObjectVersion
1070
     0
  0
VISUALSTYLE
  5
18C
102
{ACAD_XDICTIONARY
360
200
102
}
102
{ACAD_REACTORS
330
180
102
}
330
180
100
AcDbVisualStyle
  2
Brighten
 70
    12
 71
     2
 72
     2
 73
     0
 90
        0
 40
-0.6
 41
-30.0
 62
     5
 63
     7
 74
     1
 91
        4
 64
     7
 65
   257
 75
     1
175
     1
 42
1.0
 92
        8
 66
     7
 43
1.0
 76
     1
 77
     6
 78
     2
 67
     7
 79
     5
170
     0
171
     0
290
     0
174
     0
 93
        1
 44
50.0
173
     0
291
     1
 45
0.0
1001
ACAD
1000
AcDbSavedByObjectVersion
1070
     0
  0
VISUALSTYLE
  5
190
102
{ACAD_XDICTIONARY
360
208
102
}
102
{ACAD_REACTORS
330
180
102
}
330
180
100
AcDbVisualStyle
  2
ColorChange
 70
    16
 71
     2
 72
     2
 73
     3
 90
        0
 40
-0.6
 41
-30.0
 62
     5
 63
     8
 74
     1
 91
        4
 64
     7
 65
   257
 75
     1
175
     1
 42
1.0
 92
        8
 66
     8
 43
1.0
 76
     1
 77
     6
 78
     2
 67
     7
 79
     5
170
     0
171
     0
290
     0
174
     0
 93
        1
 44
0.0
173
     0
291
     1
 45
0.0
1001
ACAD
1000
AcDbSavedByObjectVersion
1070
     0
  0
VISUALSTYLE
  5
189
102
{ACAD_XDICTIONARY
360
1FA
102
}
102
{ACAD_REACTORS
330
180
102
}
330
180
100
AcDbVisualStyle
  2
Conceptual
 70
     9
 71
     3
 72
     2
 73
     0
 90
        0
 40
-0.6
 41
-30.0
 62
     5
 63
     7
 74
     2
 91
        2
 64
     7
 65
   257
 75
     1
175
     1
 42
179.0
 92
        8
 66
     7
 43
1.0
 76
     1
 77
     6
 78
     2
 67
     7
 79
     3
170
     0
171
     0
290
     0
174
     0
 93
        1
 44
0.0
173
     0
291
     0
 45
0.0
1001
ACAD
1000
AcDbSavedByObjectVersion
1070
     0
  0
VISUALSTYLE
  5
18B
102
{ACAD_XDICTIONARY
360
1FE
102
}
102
{ACAD_REACTORS
330
180
102
}
330
180
100
AcDbVisualStyle
  2
Dim
 70
    11
 71
     2
 72
     2
 73
     0
 90
        0
 40
-0.6
 41
-30.0
 62
     5
 63
     7
 74
     1
 91
        4
 64
     7
 65
   257
 75
     1
175
     1
 42
1.0
 92
        8
 66
     7
 43
1.0
 76
     1
 77
     6
 78
     2
 67
     7
 79
     5
170
     0
171
     0
290
     0
174
     0
 93
        1
 44
-50.0
173
     0
291
     1
 45
0.0
1001
ACAD
1000
AcDbSavedByObjectVersion
1070
     0
  0
VISUALSTYLE
  5
198
102
{ACAD_XDICTIONARY
360
218
102
}
102
{ACAD_REACTORS
330
180
102
}
330
180
100
AcDbVisualStyle
  2
EdgeColorOff
 70
    22
 71
     2
 72
     2
 73
     0
 90
        0
 40
-0.6
 41
-30.0
 62
     5
 63
     7
 74
     1
 91
        4
 64
     7
 65
   257
 75
     1
175
     1
 42
1.0
 92
        8
 66
     7
 43
1.0
 76
     1
 77
     6
 78
     2
 67
     7
 79
     5
170
     0
171
     0
290
     0
174
     0
 93
        1
 44
0.0
173
     0
291
     1
 45
0.0
1001
ACAD
1000
AcDbSavedByObjectVersion
1070
     0
  0
VISUALSTYLE
  5
18F
102
{ACAD_XDICTIONARY
360
206
102
}
102
{ACAD_REACTORS
330
180
102
}
330
180
100
AcDbVisualStyle
  2
Facepattern
 70
    15
 71
     2
 72
     2
 73
     0
 90
        0
 40
-0.6
 41
-30.0
 62
     5
 63
     7
 74
     1
 91
        4
 64
     7
 65
   257
 75
     1
175
     1
 42
1.0
 92
        8
 66
     7
 43
1.0
 76
     1
 77
     6
 78
     2
 67
     7
 79
     5
170
     0
171
     0
290
     0
174
     0
 93
        1
 44
0.0
173
     0
291
     1
 45
0.0
1001
ACAD
1000
AcDbSavedByObjectVersion
1070
     0
  0
VISUALSTYLE
  5
181
102
{ACAD_XDICTIONARY
360
1EA
102
}
102
{ACAD_REACTORS
330
180
102
}
330
180
100
AcDbVisualStyle
  2
Flat
 70
     0
 71
     2
 72
     1
 73
     1
 90
        2
 40
-0.6
 41
30.0
 62
     5
 63
     7
 74
     0
 91
        0
 64
     7
 65
   257
 75
     1
175
     1
 42
1.0
 92
        8
 66
     7
 43
1.0
 76
     1
 77
     6
 78
     2
 67
     7
 79
     5
170
     0
171
     0
290
     0
174
     0
 93
       13
 44
0.0
173
     0
291
     1
 45
0.0
1001
ACAD
1000
AcDbSavedByObjectVersion
1070
     0
  0
VISUALSTYLE
  5
182
102
{ACAD_XDICTIONARY
360
1EC
102
}
102
{ACAD_REACTORS
330
180
102
}
330
180
100
AcDbVisualStyle
  2
FlatWithEdges
 70
     1
 71
     2
 72
     1
 73
     1
 90
        2
 40
-0.6
 41
30.0
 62
     5
 63
     7
 74
     1
 91
        0
 64
     7
 65
   257
 75
     1
175
     1
 42
1.0
 92
        0
 66
   257
 43
1.0
 76
     1
 77
     6
 78
     2
 67
     7
 79
     5
170
     0
171
     0
290
     0
174
     0
 93
       13
 44
0.0
173
     0
291
     1
 45
0.0
1001
ACAD
1000
AcDbSavedByObjectVersion
1070
     0
  0
VISUALSTYLE
  5
183
102
{ACAD_XDICTIONARY
360
1EE
102
}
102
{ACAD_REACTORS
330
180
102
}
330
180
100
AcDbVisualStyle
  2
Gouraud
 70
     2
 71
     2
 72
     2
 73
     1
 90
        2
 40
-0.6
 41
30.0
 62
     5
 63
     7
 74
     0
 91
        0
 64
     7
 65
   257
 75
     1
175
     1
 42
1.0
 92
        0
 66
     7
 43
1.0
 76
     1
 77
     6
 78
     2
 67
     7
 79
     5
170
     0
171
     0
290
     0
174
     0
 93
       13
 44
0.0
173
     0
291
     1
 45
0.0
1001
ACAD
1000
AcDbSavedByObjectVersion
1070
     0
  0
VISUALSTYLE
  5
184
102
{ACAD_XDICTIONARY
360
1F0
102
}
102
{ACAD_REACTORS
330
180
102
}
330
180
100
AcDbVisualStyle
  2
GouraudWithEdges
 70
     3
 71
     2
 72
     2
 73
     1
 90
        2
 40
-0.6
 41
30.0
 62
     5
 63
     7
 74
     1
 91
        0
 64
     7
 65
   257
 75
     1
175
     1
 42
1.0
 92
        0
 66
   257
 43
1.0
 76
     1
 77
     6
 78
     2
 67
     7
 79
     5
170
     0
171
     0
290
     0
174
     0
 93
       13
 44
0.0
173
     0
291
     1
 45
0.0
1001
ACAD
1000
AcDbSavedByObjectVersion
1070
     0
  0
VISUALSTYLE
  5
188
102
{ACAD_XDICTIONARY
360
1F8
102
}
102
{ACAD_REACTORS
330
180
102
}
330
180
100
AcDbVisualStyle
  2
Hidden
 70
     6
 71
     1
 72
     2
 73
     2
 90
        0
 40
-0.6
 41
-30.0
 62
     5
 63
     7
 74
     2
 91
        2
 64
     7
 65
   257
 75
     2
175
     1
 42
40.0
 92
        0
 66
   257
 43
1.0
 76
     1
 77
     6
 78
     2
 67
     7
 79
     3
170
     0
171
     0
290
     0
174
     0
 93
        1
 44
0.0
173
     0
291
     0
 45
0.0
1001
ACAD
1000
AcDbSavedByObjectVersion
1070
     0
  0
VISUALSTYLE
  5
196
102
{ACAD_XDICTIONARY
360
214
102
}
102
{ACAD_REACTORS
330
180
102
}
330
180
100
AcDbVisualStyle
  2
JitterOff
 70
    20
 71
     2
 72
     2
 73
     0
 90
        0
 40
-0.6
 41
-30.0
 62
     5
 63
     7
 74
     1
 91
        4
 64
     7
 65
   257
 75
     1
175
     1
 42
1.0
 92
       10
 66
     7
 43
1.0
 76
     1
 77
     6
 78
     2
 67
     7
 79
     5
170
     0
171
     0
290
     0
174
     0
 93
        1
 44
0.0
173
     0
291
     1
 45
0.0
1001
ACAD
1000
AcDbSavedByObjectVersion
1070
     0
  0
VISUALSTYLE
  5
18E
102
{ACAD_XDICTIONARY
360
204
102
}
102
{ACAD_REACTORS
330
180
102
}
330
180
100
AcDbVisualStyle
  2
Linepattern
 70
    14
 71
     2
 72
     2
 73
     0
 90
        0
 40
-0.6
 41
-30.0
 62
     5
 63
     7
 74
     1
 91
        4
 64
     7
 65
   257
 75
     7
175
     7
 42
1.0
 92
        8
 66
     7
 43
1.0
 76
     1
 77
     6
 78
     2
 67
     7
 79
     5
170
     0
171
     0
290
     0
174
     0
 93
        1
 44
0.0
173
     0
291
     1
 45
0.0
1001
ACAD
1000
AcDbSavedByObjectVersion
1070
     0
  0
VISUALSTYLE
  5
197
102
{ACAD_XDICTIONARY
360
216
102
}
102
{ACAD_REACTORS
330
180
102
}
330
180
100
AcDbVisualStyle
  2
OverhangOff
 70
    21
 71
     2
 72
     2
 73
     0
 90
        0
 40
-0.6
 41
-30.0
 62
     5
 63
     7
 74
     1
 91
        4
 64
     7
 65
   257
 75
     1
175
     1
 42
1.0
 92
        9
 66
     7
 43
1.0
 76
     1
 77
     6
 78
     2
 67
     7
 79
     5
170
     0
171
     0
290
     0
174
     0
 93
        1
 44
0.0
173
     0
291
     1
 45
0.0
1001
ACAD
1000
AcDbSavedByObjectVersion
1070
     0
  0
VISUALSTYLE
  5
18A
102
{ACAD_XDICTIONARY
360
1FC
102
}
102
{ACAD_REACTORS
330
180
102
}
330
180
100
AcDbVisualStyle
  2
Realistic
 70
     8
 71
     2
 72
     3
 73
     0
 90
        2
 40
-0.6
 41
30.0
 62
     5
 63
     7
 74
     0
 91
        0
 64
     7
 65
   257
 75
     1
175
     1
 42
1.0
 92
        8
 66
   257
 43
1.0
 76
     1
 77
     6
 78
     2
 67
     7
 79
     3
170
     0
171
     0
290
     0
174
     0
 93
       13
 44
0.0
173
     0
291
     0
 45
0.0
1001
ACAD
1000
AcDbSavedByObjectVersion
1070
     0
  0
VISUALSTYLE
  5
195
102
{ACAD_XDICTIONARY
360
212
102
}
102
{ACAD_REACTORS
330
180
102
}
330
180
100
AcDbVisualStyle
  2
Shaded
 70
    27
 71
     2
 72
     2
 73
     1
 90
        2
 40
-0.6
 41
30.0
 62
     5
 63
     7
 74
     0
 91
        4
 64
     7
 65
   257
 75
     1
175
     1
 42
1.0
 92
        8
 66
   257
 43
1.0
 76
     1
 77
     6
 78
     2
 67
     8
 79
     3
170
     0
171
     0
290
     0
174
     0
 93
        5
 44
0.0
173
     0
291
     0
 45
0.0
1001
ACAD
1000
AcDbSavedByObjectVersion
1070
     0
  0
VISUALSTYLE
  5
194
102
{ACAD_XDICTIONARY
360
210
102
}
102
{ACAD_REACTORS
330
180
102
}
330
180
100
AcDbVisualStyle
  2
Shaded with edges
 70
    26
 71
     2
 72
     2
 73
     1
 90
        2
 40
-0.6
 41
30.0
 62
     5
 63
     7
 74
     1
 91
       10
 64
     7
 65
   257
 75
     2
175
     1
 42
1.0
 92
        8
 66
   257
 43
1.0
 76
     1
 77
     6
 78
     2
 67
     7
 79
     3
170
     0
171
     0
290
     0
174
     0
 93
        5
 44
0.0
173
     0
291
     0
 45
0.0
1001
ACAD
1000
AcDbSavedByObjectVersion
1070
     0
  0
VISUALSTYLE
  5
191
102
{ACAD_XDICTIONARY
360
20A
102
}
102
{ACAD_REACTORS
330
180
102
}
330
180
100
AcDbVisualStyle
  2
Shades of Gray
 70
    23
 71
     2
 72
     2
 73
     3
 90
        0
 40
-0.6
 41
-30.0
 62
     5
 63
     7
 74
     2
 91
        2
 64
     7
 65
     7
 75
     1
175
     1
 42
40.0
 92
        8
 66
     7
 43
1.0
 76
     1
 77
     6
 78
     2
 67
     7
 79
     3
170
     0
171
     0
290
     0
174
     0
 93
        1
 44
0.0
173
     0
291
     0
 45
0.0
1001
ACAD
1000
AcDbSavedByObjectVersion
1070
     0
  0
VISUALSTYLE
  5
192
102
{ACAD_XDICTIONARY
360
20C
102
}
102
{ACAD_REACTORS
330
180
102
}
330
180
100
AcDbVisualStyle
  2
Sketchy
 70
    24
 71
     1
 72
     2
 73
     2
 90
        0
 40
-0.6
 41
-30.0
 62
     5
 63
     7
 74
     2
 91
        2
 64
     7
 65
     7
 75
     1
175
     1
 42
40.0
 92
       11
 66
     7
 43
1.0
 76
     1
 77
     6
 78
     2
 67
     7
 79
     6
170
     0
171
     0
290
     0
174
     0
 93
        1
 44
0.0
173
     0
291
     0
 45
0.0
1001
ACAD
1000
AcDbSavedByObjectVersion
1070
     0
  0
VISUALSTYLE
  5
18D
102
{ACAD_XDICTIONARY
360
202
102
}
102
{ACAD_REACTORS
330
180
102
}
330
180
100
AcDbVisualStyle
  2
Thicken
 70
    13
 71
     2
 72
     2
 73
     0
 90
        0
 40
-0.6
 41
-30.0
 62
     5
 63
     7
 74
     1
 91
        4
 64
     7
 65
   257
 75
     1
175
     1
 42
1.0
 92
       12
 66
     7
 43
1.0
 76
     1
 77
     6
 78
     2
 67
     7
 79
     5
170
     0
171
     0
290
     0
174
     0
 93
        1
 44
0.0
173
     0
291
     1
 45
0.0
1001
ACAD
1000
AcDbSavedByObjectVersion
1070
     0
  0
VISUALSTYLE
  5
187
102
{ACAD_XDICTIONARY
360
1F6
102
}
102
{ACAD_REACTORS
330
180
102
}
330
180
100
AcDbVisualStyle
  2
Wireframe
 70
     5
 71
     0
 72
     2
 73
     0
 90
        0
 40
-0.6
 41
-30.0
 62
     5
 63
     7
 74
     1
 91
        4
 64
     7
 65
   257
 75
     1
175
     1
 42
1.0
 92
        0
 66
   257
 43
1.0
 76
     1
 77
     6
 78
     2
 67
     7
 79
     3
170
     0
171
     0
290
     0
174
     0
 93
        1
 44
0.0
173
     0
291
     0
 45
0.0
1001
ACAD
1000
AcDbSavedByObjectVersion
1070
     0
  0
VISUALSTYLE
  5
193
102
{ACAD_XDICTIONARY
360
20E
102
}
102
{ACAD_REACTORS
330
180
102
}
330
180
100
AcDbVisualStyle
  2
X-Ray
 70
    25
 71
     2
 72
     2
 73
     1
 90
        1
 40
0.5
 41
-30.0
 62
     5
 63
     7
 74
     1
 91
        0
 64
     7
 65
   257
 75
     1
175
     1
 42
1.0
 92
        8
 66
     7
 43
1.0
 76
     1
 77
     6
 78
     2
 67
     7
 79
     3
170
     0
171
     0
290
     0
174
     0
 93
       13
 44
0.0
173
     0
291
     0
 45
0.0
1001
ACAD
1000
AcDbSavedByObjectVersion
1070
     0
  0
DICTIONARYVAR
  5
1DC
102
{ACAD_REACTORS
330
1D7
102
}
330
1D7
100
DictionaryVariables
280
     0
  1
1:1
  0
DICTIONARYVAR
  5
1D9
102
{ACAD_REACTORS
330
1D7
102
}
330
1D7
100
DictionaryVariables
280
     0
  1
STANDARD
  0
DICTIONARYVAR
  5
1D8
102
{ACAD_REACTORS
330
1D7
102
}
330
1D7
100
DictionaryVariables
280
     0
  1
STANDARD
  0
DICTIONARYVAR
  5
1DA
102
{ACAD_REACTORS
330
1D7
102
}
330
1D7
100
DictionaryVariables
280
     0
  1
Imperial24
  0
DICTIONARYVAR
  5
1DB
102
{ACAD_REACTORS
330
1D7
102
}
330
1D7
100
DictionaryVariables
280
     0
  1
Imperial24
  0
DICTIONARYVAR
  5
1DF
102
{ACAD_REACTORS
330
1D7
102
}
330
1D7
100
DictionaryVariables
280
     0
  1
1
  0
DICTIONARYVAR
  5
1DE
102
{ACAD_REACTORS
330
1D7
102
}
330
1D7
100
DictionaryVariables
280
     0
  1
0
  0
DICTIONARYVAR
  5
1DD
102
{ACAD_REACTORS
330
1D7
102
}
330
1D7
100
DictionaryVariables
280
     0
  1
127
  0
DICTIONARYVAR
  5
1E0
102
{ACAD_REACTORS
330
1D7
102
}
330
1D7
100
DictionaryVariables
280
     0
  1
2
  0
XRECORD
  5
1D6
102
{ACAD_REACTORS
330
1D4
102
}
330
1D4
100
AcDbXrecord
280
     1
  0
DICTIONARY
  5
21E
330
1B8
100
AcDbDictionary
280
     1
281
     1
  3
ACAD_XREC_ROUNDTRIP
360
21F
  0
DICTIONARY
  5
21C
330
1B7
100
AcDbDictionary
280
     1
281
     1
  3
ACAD_XREC_ROUNDTRIP
360
21D
  0
DICTIONARY
  5
171
330
170
100
AcDbDictionary
280
     1
281
     1
  3
ACAD_XREC_ROUNDTRIP
360
1E8
  3
BUMPTILE
360
173
  3
DIFFUSETILE
360
172
  3
OPACITYTILE
360
176
  3
REFLECTIONTILE
360
175
  3
REFRACTIONTILE
360
177
  3
SPECULARTILE
360
174
  0
DICTIONARY
  5
169
330
168
100
AcDbDictionary
280
     1
281
     1
  3
ACAD_XREC_ROUNDTRIP
360
1E7
  3
BUMPTILE
360
16B
  3
DIFFUSETILE
360
16A
  3
OPACITYTILE
360
16E
  3
REFLECTIONTILE
360
16D
  3
REFRACTIONTILE
360
16F
  3
SPECULARTILE
360
16C
  0
DICTIONARY
  5
179
330
178
100
AcDbDictionary
280
     1
281
     1
  3
ACAD_XREC_ROUNDTRIP
360
1E9
  3
BUMPTILE
360
17B
  3
DIFFUSETILE
360
17A
  3
OPACITYTILE
360
17E
  3
REFLECTIONTILE
360
17D
  3
REFRACTIONTILE
360
17F
  3
SPECULARTILE
360
17C
  0
DICTIONARY
  5
1E2
330
19B
100
AcDbDictionary
280
     1
281
     1
  3
ACAD_ROUNDTRIP_2008_TABLESTYLE_CELLSTYLEMAP
360
1E3
  3
ACAD_XREC_ROUNDTRIP
360
21A
  0
DICTIONARY
  5
1F4
330
186
100
AcDbDictionary
280
     1
281
     1
  3
ACAD_XREC_ROUNDTRIP
360
1F5
  0
DICTIONARY
  5
1F2
330
185
100
AcDbDictionary
280
     1
281
     1
  3
ACAD_XREC_ROUNDTRIP
360
1F3
  0
DICTIONARY
  5
200
330
18C
100
AcDbDictionary
280
     1
281
     1
  3
ACAD_XREC_ROUNDTRIP
360
201
  0
DICTIONARY
  5
208
330
190
100
AcDbDictionary
280
     1
281
     1
  3
ACAD_XREC_ROUNDTRIP
360
209
  0
DICTIONARY
  5
1FA
330
189
100
AcDbDictionary
280
     1
281
     1
  3
ACAD_XREC_ROUNDTRIP
360
1FB
  0
DICTIONARY
  5
1FE
330
18B
100
AcDbDictionary
280
     1
281
     1
  3
ACAD_XREC_ROUNDTRIP
360
1FF
  0
DICTIONARY
  5
218
330
198
100
AcDbDictionary
280
     1
281
     1
  3
ACAD_XREC_ROUNDTRIP
360
219
  0
DICTIONARY
  5
206
330
18F
100
AcDbDictionary
280
     1
281
     1
  3
ACAD_XREC_ROUNDTRIP
360
207
  0
DICTIONARY
  5
1EA
330
181
100
AcDbDictionary
280
     1
281
     1
  3
ACAD_XREC_ROUNDTRIP
360
1EB
  0
DICTIONARY
  5
1EC
330
182
100
AcDbDictionary
280
     1
281
     1
  3
ACAD_XREC_ROUNDTRIP
360
1ED
  0
DICTIONARY
  5
1EE
330
183
100
AcDbDictionary
280
     1
281
     1
  3
ACAD_XREC_ROUNDTRIP
360
1EF
  0
DICTIONARY
  5
1F0
330
184
100
AcDbDictionary
280
     1
281
     1
  3
ACAD_XREC_ROUNDTRIP
360
1F1
  0
DICTIONARY
  5
1F8
330
188
100
AcDbDictionary
280
     1
281
     1
  3
ACAD_XREC_ROUNDTRIP
360
1F9
  0
DICTIONARY
  5
214
330
196
100
AcDbDictionary
280
     1
281
     1
  3
ACAD_XREC_ROUNDTRIP
360
215
  0
DICTIONARY
  5
204
330
18E
100
AcDbDictionary
280
     1
281
     1
  3
ACAD_XREC_ROUNDTRIP
360
205
  0
DICTIONARY
  5
216
330
197
100
AcDbDictionary
280
     1
281
     1
  3
ACAD_XREC_ROUNDTRIP
360
217
  0
DICTIONARY
  5
1FC
330
18A
100
AcDbDictionary
280
     1
281
     1
  3
ACAD_XREC_ROUNDTRIP
360
1FD
  0
DICTIONARY
  5
212
330
195
100
AcDbDictionary
280
     1
281
     1
  3
ACAD_XREC_ROUNDTRIP
360
213
  0
DICTIONARY
  5
210
330
194
100
AcDbDictionary
280
     1
281
     1
  3
ACAD_XREC_ROUNDTRIP
360
211
  0
DICTIONARY
  5
20A
330
191
100
AcDbDictionary
280
     1
281
     1
  3
ACAD_XREC_ROUNDTRIP
360
20B
  0
DICTIONARY
  5
20C
330
192
100
AcDbDictionary
280
     1
281
     1
  3
ACAD_XREC_ROUNDTRIP
360
20D
  0
DICTIONARY
  5
202
330
18D
100
AcDbDictionary
280
     1
281
     1
  3
ACAD_XREC_ROUNDTRIP
360
203
  0
DICTIONARY
  5
1F6
330
187
100
AcDbDictionary
280
     1
281
     1
  3
ACAD_XREC_ROUNDTRIP
360
1F7
  0
DICTIONARY
  5
20E
330
193
100
AcDbDictionary
280
     1
281
     1
  3
ACAD_XREC_ROUNDTRIP
360
20F
  0
XRECORD
  5
21F
102
{ACAD_REACTORS
330
21E
102
}
330
21E
100
AcDbXrecord
280
     1
102
SHADEPLOT
 70
     0
102
SHADEPLOTRESLEVEL
 70
     2
102
SHADEPLOTCUSTOMDPI
 70
   300
  0
XRECORD
  5
21D
102
{ACAD_REACTORS
330
21C
102
}
330
21C
100
AcDbXrecord
280
     1
102
SHADEPLOT
 70
     0
102
SHADEPLOTRESLEVEL
 70
     2
102
SHADEPLOTCUSTOMDPI
 70
   300
  0
XRECORD
  5
1E8
102
{ACAD_REACTORS
330
171
102
}
330
171
100
AcDbXrecord
280
     1
102
MATERIAL
148
0.0
149
0.0
149
0.0
 93
        0
 94
      127
282
     0
 72
     0
 77
     0
171
     0
175
     0
179
     0
273
     0
  0
XRECORD
  5
173
102
{ACAD_REACTORS
330
171
102
}
330
171
100
AcDbXrecord
280
     1
270
     1
271
     1
  0
XRECORD
  5
172
102
{ACAD_REACTORS
330
171
102
}
330
171
100
AcDbXrecord
280
     1
270
     1
271
     1
  0
XRECORD
  5
176
102
{ACAD_REACTORS
330
171
102
}
330
171
100
AcDbXrecord
280
     1
270
     1
271
     1
  0
XRECORD
  5
175
102
{ACAD_REACTORS
330
171
102
}
330
171
100
AcDbXrecord
280
     1
270
     1
271
     1
  0
XRECORD
  5
177
102
{ACAD_REACTORS
330
171
102
}
330
171
100
AcDbXrecord
280
     1
270
     1
271
     1
  0
XRECORD
  5
174
102
{ACAD_REACTORS
330
171
102
}
330
171
100
AcDbXrecord
280
     1
270
     1
271
     1
  0
XRECORD
  5
1E7
102
{ACAD_REACTORS
330
169
102
}
330
169
100
AcDbXrecord
280
     1
102
MATERIAL
148
0.0
149
0.0
149
0.0
 93
        0
 94
      127
282
     0
 72
     0
 77
     0
171
     0
175
     0
179
     0
273
     0
  0
XRECORD
  5
16B
102
{ACAD_REACTORS
330
169
102
}
330
169
100
AcDbXrecord
280
     1
270
     1
271
     1
  0
XRECORD
  5
16A
102
{ACAD_REACTORS
330
169
102
}
330
169
100
AcDbXrecord
280
     1
270
     1
271
     1
  0
XRECORD
  5
16E
102
{ACAD_REACTORS
330
169
102
}
330
169
100
AcDbXrecord
280
     1
270
     1
271
     1
  0
XRECORD
  5
16D
102
{ACAD_REACTORS
330
169
102
}
330
169
100
AcDbXrecord
280
     1
270
     1
271
     1
  0
XRECORD
  5
16F
102
{ACAD_REACTORS
330
169
102
}
330
169
100
AcDbXrecord
280
     1
270
     1
271
     1
  0
XRECORD
  5
16C
102
{ACAD_REACTORS
330
169
102
}
330
169
100
AcDbXrecord
280
     1
270
     1
271
     1
  0
XRECORD
  5
1E9
102
{ACAD_REACTORS
330
179
102
}
330
179
100
AcDbXrecord
280
     1
102
MATERIAL
148
0.0
149
0.0
149
0.0
 93
        0
 94
      127
282
     0
 72
     0
 77
     0
171
     0
175
     0
179
     0
273
     0
  0
XRECORD
  5
17B
102
{ACAD_REACTORS
330
179
102
}
330
179
100
AcDbXrecord
280
     1
270
     1
271
     1
  0
XRECORD
  5
17A
102
{ACAD_REACTORS
330
179
102
}
330
179
100
AcDbXrecord
280
     1
270
     1
271
     1
  0
XRECORD
  5
17E
102
{ACAD_REACTORS
330
179
102
}
330
179
100
AcDbXrecord
280
     1
270
     1
271
     1
  0
XRECORD
  5
17D
102
{ACAD_REACTORS
330
179
102
}
330
179
100
AcDbXrecord
280
     1
270
     1
271
     1
  0
XRECORD
  5
17F
102
{ACAD_REACTORS
330
179
102
}
330
179
100
AcDbXrecord
280
     1
270
     1
271
     1
  0
XRECORD
  5
17C
102
{ACAD_REACTORS
330
179
102
}
330
179
100
AcDbXrecord
280
     1
270
     1
271
     1
  0
CELLSTYLEMAP
  5
1E3
102
{ACAD_REACTORS
330
1E2
102
}
330
1E2
100
AcDbCellStyleMap
 90
        3
300
CELLSTYLE
  1
TABLEFORMAT_BEGIN
 90
        5
170
     1
 91
        0
 92
    32768
 62
   257
 93
        1
300
CONTENTFORMAT
  1
CONTENTFORMAT_BEGIN
 90
        0
 91
        0
 92
      512
 93
        0
300

 40
0.0
140
1.0
 94
        5
 62
     0
340
11
144
0.25
309
CONTENTFORMAT_END
171
     0
 94
        0
309
TABLEFORMAT_END
  1
CELLSTYLE_BEGIN
 90
        1
 91
        1
300
_TITLE
309
CELLSTYLE_END
300
CELLSTYLE
  1
TABLEFORMAT_BEGIN
 90
        5
170
     1
 91
        0
 92
        0
 62
   257
 93
        1
300
CONTENTFORMAT
  1
CONTENTFORMAT_BEGIN
 90
        0
 91
        0
 92
      512
 93
        0
300

 40
0.0
140
1.0
 94
        5
 62
     0
340
11
144
0.18
309
CONTENTFORMAT_END
171
     0
 94
        0
309
TABLEFORMAT_END
  1
CELLSTYLE_BEGIN
 90
        2
 91
        1
300
_HEADER
309
CELLSTYLE_END
300
CELLSTYLE
  1
TABLEFORMAT_BEGIN
 90
        5
170
     1
 91
        0
 92
        0
 62
   257
 93
        1
300
CONTENTFORMAT
  1
CONTENTFORMAT_BEGIN
 90
        0
 91
        0
 92
      512
 93
        0
300

 40
0.0
140
1.0
 94
        2
 62
     0
340
11
144
0.18
309
CONTENTFORMAT_END
171
     0
 94
        0
309
TABLEFORMAT_END
  1
CELLSTYLE_BEGIN
 90
        3
 91
        2
300
_DATA
309
CELLSTYLE_END
  0
XRECORD
  5
21A
102
{ACAD_REACTORS
330
1E2
102
}
330
1E2
100
AcDbXrecord
280
     1
102
ACAD_ROUNDTRIP_PRE2007_TABLESTYLE
 90
      512
 91
        0
  1

 92
      512
 93
        0
  2

 94
      512
 95
        0
  3

  0
XRECORD
  5
1F5
102
{ACAD_REACTORS
330
1F4
102
}
330
1F4
100
AcDbXrecord
280
     1
102
RTVSPost2010Prop28
280
     1
102
RTVSPost2010PropOp28
 70
     1
102
RTVSPost2010Prop29
280
     1
102
RTVSPost2010PropOp29
 70
     1
102
RTVSPost2010Prop30
280
     0
102
RTVSPost2010PropOp30
 70
     1
102
RTVSPost2010Prop31
280
     0
102
RTVSPost2010PropOp31
 70
     1
102
RTVSPost2010Prop32
280
     0
102
RTVSPost2010PropOp32
 70
     1
102
RTVSPost2010Prop33
280
     0
102
RTVSPost2010PropOp33
 70
     1
102
RTVSPost2010Prop34
280
     0
102
RTVSPost2010PropOp34
 70
     1
102
RTVSPost2010Prop35
280
     0
102
RTVSPost2010PropOp35
 70
     1
102
RTVSPost2010Prop36
280
     0
102
RTVSPost2010PropOp36
 70
     1
102
RTVSPost2010Prop37
 90
       50
102
RTVSPost2010PropOp37
 70
     1
102
RTVSPost2010Prop38
140
0.0
102
RTVSPost2010PropOp38
 70
     1
102
RTVSPost2010Prop39
140
1.0
102
RTVSPost2010PropOp39
 70
     1
102
RTVSPost2010Prop40
 90
        0
102
RTVSPost2010PropOp40
 70
     1
102
RTVSPost2010Prop41ColorIndex
 90
       18
102
RTVSPost2010Prop41ColorRGB
 90
        0
102
RTVSPost2010PropOp41
 70
     1
102
RTVSPost2010Prop42
 90
       50
102
RTVSPost2010PropOp42
 70
     1
102
RTVSPost2010Prop43
 90
        3
102
RTVSPost2010PropOp43
 70
     1
102
RTVSPost2010Prop44ColorIndex
 90
        5
102
RTVSPost2010Prop44ColorRGB
 90
      255
102
RTVSPost2010PropOp44
 70
     1
102
RTVSPost2010Prop45
280
     0
102
RTVSPost2010PropOp45
 70
     1
102
RTVSPost2010Prop46
 90
       50
102
RTVSPost2010PropOp46
 70
     1
102
RTVSPost2010Prop47
 90
       50
102
RTVSPost2010PropOp47
 70
     1
102
RTVSPost2010Prop48
 90
       50
102
RTVSPost2010PropOp48
 70
     1
102
RTVSPost2010Prop49
280
     0
102
RTVSPost2010PropOp49
 70
     1
102
RTVSPost2010Prop50
 90
       50
102
RTVSPost2010PropOp50
 70
     1
102
RTVSPost2010Prop51ColorIndex
 90
      256
102
RTVSPost2010Prop51ColorRGB
 90
-16777216
102
RTVSPost2010PropOp51
 70
     0
102
RTVSPost2010Prop52
140
1.0
102
RTVSPost2010PropOp52
 70
     0
102
RTVSPost2010Prop53
 90
        2
102
RTVSPost2010PropOp53
 70
     1
102
RTVSPost2010Prop54
  1
strokes_ogs.tif
102
RTVSPost2010PropOp54
 70
     1
102
RTVSPost2010Prop55
280
     0
102
RTVSPost2010PropOp55
 70
     1
102
RTVSPost2010Prop56
140
1.0
102
RTVSPost2010PropOp56
 70
     1
102
RTVSPost2010Prop57
140
1.0
102
RTVSPost2010PropOp57
 70
     1
102
RTVSPropertyOp0
 70
     1
102
RTVSPropertyOp1
 70
     1
102
RTVSPropertyOp2
 70
     1
102
RTVSPropertyOp3
 70
     1
102
RTVSPropertyOp4
 70
     1
102
RTVSPropertyOp5
 70
     1
102
RTVSPropertyOp6
 70
     1
102
RTVSPropertyOp7
 70
     1
102
RTVSPropertyOp8
 70
     1
102
RTVSPropertyOp9
 70
     1
102
RTVSPropertyOp10
 70
     1
102
RTVSPropertyOp11
 70
     1
102
RTVSPropertyOp12
 70
     1
102
RTVSPropertyOp13
 70
     1
102
RTVSPropertyOp14
 70
     1
102
RTVSPropertyOp15
 70
     1
102
RTVSPropertyOp16
 70
     1
102
RTVSPropertyOp17
 70
     1
102
RTVSPropertyOp18
 70
     1
102
RTVSPropertyOp19
 70
     1
102
RTVSPropertyOp20
 70
     1
102
RTVSPropertyOp21
 70
     1
102
RTVSPropertyOp22
 70
     1
102
RTVSPropertyOp23
 70
     1
102
RTVSPropertyOp24
 70
     1
102
RTVSPropertyOp25
 70
     1
102
RTVSPropertyOp26
 70
     1
102
RTVSPropertyOp27
 70
     1
102
RTVSPropertyOp28
 70
     1
102
RTVSPropertyOp29
 70
     1
102
RTVSPropertyOp30
 70
     1
102
RTVSPropertyOp31
 70
     1
102
RTVSPropertyOp32
 70
     1
102
RTVSPropertyOp33
 70
     1
102
RTVSPropertyOp34
 70
     1
102
RTVSPropertyOp35
 70
     1
102
RTVSPropertyOp36
 70
     1
102
RTVSPropertyOp37
 70
     1
102
RTVSPropertyOp38
 70
     1
102
RTVSPropertyOp39
 70
     1
102
RTVSPropertyOp40
 70
     1
102
RTVSPropertyOp41
 70
     1
102
RTVSPropertyOp42
 70
     1
102
RTVSPropertyOp43
 70
     1
102
RTVSPropertyOp44
 70
     1
102
RTVSPropertyOp45
 70
     1
102
RTVSPropertyOp46
 70
     1
102
RTVSPropertyOp47
 70
     1
102
RTVSPropertyOp48
 70
     1
102
RTVSPropertyOp49
 70
     1
102
RTVSPropertyOp50
 70
     1
102
RTVSPropertyOp51
 70
     0
102
RTVSPropertyOp52
 70
     0
102
RTVSPropertyOp53
 70
     1
102
RTVSPropertyOp54
 70
     1
102
RTVSPropertyOp55
 70
     1
102
RTVSPropertyOp56
 70
     1
102
RTVSPropertyOp57
 70
     1
102
RTVSPropertyOp58
 70
     1
102
RTVSPropertyOp59
 70
     1
102
RTVSPropertyOp60
 70
     1
102
RTVSPropertyOp61
 70
     1
102
RTVSPropertyOp62
 70
     1
  0
XRECORD
  5
1F3
102
{ACAD_REACTORS
330
1F2
102
}
330
1F2
100
AcDbXrecord
280
     1
102
RTVSPost2010Prop28
280
     0
102
RTVSPost2010PropOp28
 70
     1
102
RTVSPost2010Prop29
280
     1
102
RTVSPost2010PropOp29
 70
     1
102
RTVSPost2010Prop30
280
     1
102
RTVSPost2010PropOp30
 70
     1
102
RTVSPost2010Prop31
280
     0
102
RTVSPost2010PropOp31
 70
     1
102
RTVSPost2010Prop32
280
     0
102
RTVSPost2010PropOp32
 70
     1
102
RTVSPost2010Prop33
280
     0
102
RTVSPost2010PropOp33
 70
     1
102
RTVSPost2010Prop34
280
     0
102
RTVSPost2010PropOp34
 70
     1
102
RTVSPost2010Prop35
280
     0
102
RTVSPost2010PropOp35
 70
     1
102
RTVSPost2010Prop36
280
     0
102
RTVSPost2010PropOp36
 70
     1
102
RTVSPost2010Prop37
 90
       50
102
RTVSPost2010PropOp37
 70
     1
102
RTVSPost2010Prop38
140
0.0
102
RTVSPost2010PropOp38
 70
     1
102
RTVSPost2010Prop39
140
1.0
102
RTVSPost2010PropOp39
 70
     1
102
RTVSPost2010Prop40
 90
        0
102
RTVSPost2010PropOp40
 70
     1
102
RTVSPost2010Prop41ColorIndex
 90
       18
102
RTVSPost2010Prop41ColorRGB
 90
        0
102
RTVSPost2010PropOp41
 70
     1
102
RTVSPost2010Prop42
 90
       50
102
RTVSPost2010PropOp42
 70
     1
102
RTVSPost2010Prop43
 90
        3
102
RTVSPost2010PropOp43
 70
     1
102
RTVSPost2010Prop44ColorIndex
 90
        5
102
RTVSPost2010Prop44ColorRGB
 90
      255
102
RTVSPost2010PropOp44
 70
     1
102
RTVSPost2010Prop45
280
     0
102
RTVSPost2010PropOp45
 70
     1
102
RTVSPost2010Prop46
 90
       50
102
RTVSPost2010PropOp46
 70
     1
102
RTVSPost2010Prop47
 90
       50
102
RTVSPost2010PropOp47
 70
     1
102
RTVSPost2010Prop48
 90
       50
102
RTVSPost2010PropOp48
 70
     1
102
RTVSPost2010Prop49
280
     0
102
RTVSPost2010PropOp49
 70
     1
102
RTVSPost2010Prop50
 90
       50
102
RTVSPost2010PropOp50
 70
     1
102
RTVSPost2010Prop51ColorIndex
 90
      256
102
RTVSPost2010Prop51ColorRGB
 90
-16777216
102
RTVSPost2010PropOp51
 70
     0
102
RTVSPost2010Prop52
140
1.0
102
RTVSPost2010PropOp52
 70
     0
102
RTVSPost2010Prop53
 90
        2
102
RTVSPost2010PropOp53
 70
     1
102
RTVSPost2010Prop54
  1
strokes_ogs.tif
102
RTVSPost2010PropOp54
 70
     1
102
RTVSPost2010Prop55
280
     0
102
RTVSPost2010PropOp55
 70
     1
102
RTVSPost2010Prop56
140
1.0
102
RTVSPost2010PropOp56
 70
     1
102
RTVSPost2010Prop57
140
1.0
102
RTVSPost2010PropOp57
 70
     1
102
RTVSPropertyOp0
 70
     1
102
RTVSPropertyOp1
 70
     1
102
RTVSPropertyOp2
 70
     1
102
RTVSPropertyOp3
 70
     1
102
RTVSPropertyOp4
 70
     1
102
RTVSPropertyOp5
 70
     1
102
RTVSPropertyOp6
 70
     1
102
RTVSPropertyOp7
 70
     1
102
RTVSPropertyOp8
 70
     1
102
RTVSPropertyOp9
 70
     1
102
RTVSPropertyOp10
 70
     1
102
RTVSPropertyOp11
 70
     1
102
RTVSPropertyOp12
 70
     1
102
RTVSPropertyOp13
 70
     1
102
RTVSPropertyOp14
 70
     1
102
RTVSPropertyOp15
 70
     1
102
RTVSPropertyOp16
 70
     1
102
RTVSPropertyOp17
 70
     1
102
RTVSPropertyOp18
 70
     1
102
RTVSPropertyOp19
 70
     1
102
RTVSPropertyOp20
 70
     1
102
RTVSPropertyOp21
 70
     1
102
RTVSPropertyOp22
 70
     1
102
RTVSPropertyOp23
 70
     1
102
RTVSPropertyOp24
 70
     1
102
RTVSPropertyOp25
 70
     1
102
RTVSPropertyOp26
 70
     1
102
RTVSPropertyOp27
 70
     1
102
RTVSPropertyOp28
 70
     1
102
RTVSPropertyOp29
 70
     1
102
RTVSPropertyOp30
 70
     1
102
RTVSPropertyOp31
 70
     1
102
RTVSPropertyOp32
 70
     1
102
RTVSPropertyOp33
 70
     1
102
RTVSPropertyOp34
 70
     1
102
RTVSPropertyOp35
 70
     1
102
RTVSPropertyOp36
 70
     1
102
RTVSPropertyOp37
 70
     1
102
RTVSPropertyOp38
 70
     1
102
RTVSPropertyOp39
 70
     1
102
RTVSPropertyOp40
 70
     1
102
RTVSPropertyOp41
 70
     1
102
RTVSPropertyOp42
 70
     1
102
RTVSPropertyOp43
 70
     1
102
RTVSPropertyOp44
 70
     1
102
RTVSPropertyOp45
 70
     1
102
RTVSPropertyOp46
 70
     1
102
RTVSPropertyOp47
 70
     1
102
RTVSPropertyOp48
 70
     1
102
RTVSPropertyOp49
 70
     1
102
RTVSPropertyOp50
 70
     1
102
RTVSPropertyOp51
 70
     0
102
RTVSPropertyOp52
 70
     0
102
RTVSPropertyOp53
 70
     1
102
RTVSPropertyOp54
 70
     1
102
RTVSPropertyOp55
 70
     1
102
RTVSPropertyOp56
 70
     1
102
RTVSPropertyOp57
 70
     1
102
RTVSPropertyOp58
 70
     1
102
RTVSPropertyOp59
 70
     1
102
RTVSPropertyOp60
 70
     1
102
RTVSPropertyOp61
 70
     1
102
RTVSPropertyOp62
 70
     1
  0
XRECORD
  5
201
102
{ACAD_REACTORS
330
200
102
}
330
200
100
AcDbXrecord
280
     1
102
RTVSPost2010Prop28
280
     0
102
RTVSPost2010PropOp28
 70
     1
102
RTVSPost2010Prop29
280
     1
102
RTVSPost2010PropOp29
 70
     1
102
RTVSPost2010Prop30
280
     1
102
RTVSPost2010PropOp30
 70
     1
102
RTVSPost2010Prop31
280
     0
102
RTVSPost2010PropOp31
 70
     1
102
RTVSPost2010Prop32
280
     0
102
RTVSPost2010PropOp32
 70
     1
102
RTVSPost2010Prop33
280
     0
102
RTVSPost2010PropOp33
 70
     1
102
RTVSPost2010Prop34
280
     0
102
RTVSPost2010PropOp34
 70
     1
102
RTVSPost2010Prop35
280
     0
102
RTVSPost2010PropOp35
 70
     1
102
RTVSPost2010Prop36
280
     0
102
RTVSPost2010PropOp36
 70
     1
102
RTVSPost2010Prop37
 90
       50
102
RTVSPost2010PropOp37
 70
     1
102
RTVSPost2010Prop38
140
0.0
102
RTVSPost2010PropOp38
 70
     1
102
RTVSPost2010Prop39
140
1.0
102
RTVSPost2010PropOp39
 70
     1
102
RTVSPost2010Prop40
 90
        0
102
RTVSPost2010PropOp40
 70
     1
102
RTVSPost2010Prop41ColorIndex
 90
       18
102
RTVSPost2010Prop41ColorRGB
 90
        0
102
RTVSPost2010PropOp41
 70
     1
102
RTVSPost2010Prop42
 90
       50
102
RTVSPost2010PropOp42
 70
     1
102
RTVSPost2010Prop43
 90
        3
102
RTVSPost2010PropOp43
 70
     1
102
RTVSPost2010Prop44ColorIndex
 90
        5
102
RTVSPost2010Prop44ColorRGB
 90
      255
102
RTVSPost2010PropOp44
 70
     1
102
RTVSPost2010Prop45
280
     0
102
RTVSPost2010PropOp45
 70
     1
102
RTVSPost2010Prop46
 90
       50
102
RTVSPost2010PropOp46
 70
     1
102
RTVSPost2010Prop47
 90
       50
102
RTVSPost2010PropOp47
 70
     1
102
RTVSPost2010Prop48
 90
       50
102
RTVSPost2010PropOp48
 70
     1
102
RTVSPost2010Prop49
280
     0
102
RTVSPost2010PropOp49
 70
     1
102
RTVSPost2010Prop50
 90
       50
102
RTVSPost2010PropOp50
 70
     1
102
RTVSPost2010Prop51ColorIndex
 90
      256
102
RTVSPost2010Prop51ColorRGB
 90
-16777216
102
RTVSPost2010PropOp51
 70
     0
102
RTVSPost2010Prop52
140
1.0
102
RTVSPost2010PropOp52
 70
     0
102
RTVSPost2010Prop53
 90
        2
102
RTVSPost2010PropOp53
 70
     1
102
RTVSPost2010Prop54
  1
strokes_ogs.tif
102
RTVSPost2010PropOp54
 70
     1
102
RTVSPost2010Prop55
280
     0
102
RTVSPost2010PropOp55
 70
     1
102
RTVSPost2010Prop56
140
1.0
102
RTVSPost2010PropOp56
 70
     1
102
RTVSPost2010Prop57
140
1.0
102
RTVSPost2010PropOp57
 70
     1
102
RTVSPropertyOp0
 70
     1
102
RTVSPropertyOp1
 70
     1
102
RTVSPropertyOp2
 70
     1
102
RTVSPropertyOp3
 70
     1
102
RTVSPropertyOp4
 70
     1
102
RTVSPropertyOp5
 70
     1
102
RTVSPropertyOp6
 70
     1
102
RTVSPropertyOp7
 70
     1
102
RTVSPropertyOp8
 70
     1
102
RTVSPropertyOp9
 70
     1
102
RTVSPropertyOp10
 70
     1
102
RTVSPropertyOp11
 70
     1
102
RTVSPropertyOp12
 70
     1
102
RTVSPropertyOp13
 70
     1
102
RTVSPropertyOp14
 70
     1
102
RTVSPropertyOp15
 70
     1
102
RTVSPropertyOp16
 70
     1
102
RTVSPropertyOp17
 70
     1
102
RTVSPropertyOp18
 70
     1
102
RTVSPropertyOp19
 70
     1
102
RTVSPropertyOp20
 70
     1
102
RTVSPropertyOp21
 70
     1
102
RTVSPropertyOp22
 70
     1
102
RTVSPropertyOp23
 70
     1
102
RTVSPropertyOp24
 70
     1
102
RTVSPropertyOp25
 70
     1
102
RTVSPropertyOp26
 70
     1
102
RTVSPropertyOp27
 70
     1
102
RTVSPropertyOp28
 70
     1
102
RTVSPropertyOp29
 70
     1
102
RTVSPropertyOp30
 70
     1
102
RTVSPropertyOp31
 70
     1
102
RTVSPropertyOp32
 70
     1
102
RTVSPropertyOp33
 70
     1
102
RTVSPropertyOp34
 70
     1
102
RTVSPropertyOp35
 70
     1
102
RTVSPropertyOp36
 70
     1
102
RTVSPropertyOp37
 70
     1
102
RTVSPropertyOp38
 70
     1
102
RTVSPropertyOp39
 70
     1
102
RTVSPropertyOp40
 70
     1
102
RTVSPropertyOp41
 70
     1
102
RTVSPropertyOp42
 70
     1
102
RTVSPropertyOp43
 70
     1
102
RTVSPropertyOp44
 70
     1
102
RTVSPropertyOp45
 70
     1
102
RTVSPropertyOp46
 70
     1
102
RTVSPropertyOp47
 70
     1
102
RTVSPropertyOp48
 70
     1
102
RTVSPropertyOp49
 70
     1
102
RTVSPropertyOp50
 70
     1
102
RTVSPropertyOp51
 70
     0
102
RTVSPropertyOp52
 70
     0
102
RTVSPropertyOp53
 70
     1
102
RTVSPropertyOp54
 70
     1
102
RTVSPropertyOp55
 70
     1
102
RTVSPropertyOp56
 70
     1
102
RTVSPropertyOp57
 70
     1
102
RTVSPropertyOp58
 70
     1
102
RTVSPropertyOp59
 70
     1
102
RTVSPropertyOp60
 70
     1
102
RTVSPropertyOp61
 70
     1
102
RTVSPropertyOp62
 70
     1
  0
XRECORD
  5
209
102
{ACAD_REACTORS
330
208
102
}
330
208
100
AcDbXrecord
280
     1
102
RTVSPost2010Prop28
280
     0
102
RTVSPost2010PropOp28
 70
     1
102
RTVSPost2010Prop29
280
     1
102
RTVSPost2010PropOp29
 70
     1
102
RTVSPost2010Prop30
280
     1
102
RTVSPost2010PropOp30
 70
     1
102
RTVSPost2010Prop31
280
     0
102
RTVSPost2010PropOp31
 70
     1
102
RTVSPost2010Prop32
280
     0
102
RTVSPost2010PropOp32
 70
     1
102
RTVSPost2010Prop33
280
     0
102
RTVSPost2010PropOp33
 70
     1
102
RTVSPost2010Prop34
280
     0
102
RTVSPost2010PropOp34
 70
     1
102
RTVSPost2010Prop35
280
     0
102
RTVSPost2010PropOp35
 70
     1
102
RTVSPost2010Prop36
280
     0
102
RTVSPost2010PropOp36
 70
     1
102
RTVSPost2010Prop37
 90
       50
102
RTVSPost2010PropOp37
 70
     1
102
RTVSPost2010Prop38
140
0.0
102
RTVSPost2010PropOp38
 70
     1
102
RTVSPost2010Prop39
140
1.0
102
RTVSPost2010PropOp39
 70
     1
102
RTVSPost2010Prop40
 90
        0
102
RTVSPost2010PropOp40
 70
     1
102
RTVSPost2010Prop41ColorIndex
 90
       18
102
RTVSPost2010Prop41ColorRGB
 90
        0
102
RTVSPost2010PropOp41
 70
     1
102
RTVSPost2010Prop42
 90
       50
102
RTVSPost2010PropOp42
 70
     1
102
RTVSPost2010Prop43
 90
        3
102
RTVSPost2010PropOp43
 70
     1
102
RTVSPost2010Prop44ColorIndex
 90
        5
102
RTVSPost2010Prop44ColorRGB
 90
      255
102
RTVSPost2010PropOp44
 70
     1
102
RTVSPost2010Prop45
280
     0
102
RTVSPost2010PropOp45
 70
     1
102
RTVSPost2010Prop46
 90
       50
102
RTVSPost2010PropOp46
 70
     1
102
RTVSPost2010Prop47
 90
       50
102
RTVSPost2010PropOp47
 70
     1
102
RTVSPost2010Prop48
 90
       50
102
RTVSPost2010PropOp48
 70
     1
102
RTVSPost2010Prop49
280
     0
102
RTVSPost2010PropOp49
 70
     1
102
RTVSPost2010Prop50
 90
       50
102
RTVSPost2010PropOp50
 70
     1
102
RTVSPost2010Prop51ColorIndex
 90
      256
102
RTVSPost2010Prop51ColorRGB
 90
-16777216
102
RTVSPost2010PropOp51
 70
     0
102
RTVSPost2010Prop52
140
1.0
102
RTVSPost2010PropOp52
 70
     0
102
RTVSPost2010Prop53
 90
        2
102
RTVSPost2010PropOp53
 70
     1
102
RTVSPost2010Prop54
  1
strokes_ogs.tif
102
RTVSPost2010PropOp54
 70
     1
102
RTVSPost2010Prop55
280
     0
102
RTVSPost2010PropOp55
 70
     1
102
RTVSPost2010Prop56
140
1.0
102
RTVSPost2010PropOp56
 70
     1
102
RTVSPost2010Prop57
140
1.0
102
RTVSPost2010PropOp57
 70
     1
102
RTVSPropertyOp0
 70
     1
102
RTVSPropertyOp1
 70
     1
102
RTVSPropertyOp2
 70
     1
102
RTVSPropertyOp3
 70
     1
102
RTVSPropertyOp4
 70
     1
102
RTVSPropertyOp5
 70
     1
102
RTVSPropertyOp6
 70
     1
102
RTVSPropertyOp7
 70
     1
102
RTVSPropertyOp8
 70
     1
102
RTVSPropertyOp9
 70
     1
102
RTVSPropertyOp10
 70
     1
102
RTVSPropertyOp11
 70
     1
102
RTVSPropertyOp12
 70
     1
102
RTVSPropertyOp13
 70
     1
102
RTVSPropertyOp14
 70
     1
102
RTVSPropertyOp15
 70
     1
102
RTVSPropertyOp16
 70
     1
102
RTVSPropertyOp17
 70
     1
102
RTVSPropertyOp18
 70
     1
102
RTVSPropertyOp19
 70
     1
102
RTVSPropertyOp20
 70
     1
102
RTVSPropertyOp21
 70
     1
102
RTVSPropertyOp22
 70
     1
102
RTVSPropertyOp23
 70
     1
102
RTVSPropertyOp24
 70
     1
102
RTVSPropertyOp25
 70
     1
102
RTVSPropertyOp26
 70
     1
102
RTVSPropertyOp27
 70
     1
102
RTVSPropertyOp28
 70
     1
102
RTVSPropertyOp29
 70
     1
102
RTVSPropertyOp30
 70
     1
102
RTVSPropertyOp31
 70
     1
102
RTVSPropertyOp32
 70
     1
102
RTVSPropertyOp33
 70
     1
102
RTVSPropertyOp34
 70
     1
102
RTVSPropertyOp35
 70
     1
102
RTVSPropertyOp36
 70
     1
102
RTVSPropertyOp37
 70
     1
102
RTVSPropertyOp38
 70
     1
102
RTVSPropertyOp39
 70
     1
102
RTVSPropertyOp40
 70
     1
102
RTVSPropertyOp41
 70
     1
102
RTVSPropertyOp42
 70
     1
102
RTVSPropertyOp43
 70
     1
102
RTVSPropertyOp44
 70
     1
102
RTVSPropertyOp45
 70
     1
102
RTVSPropertyOp46
 70
     1
102
RTVSPropertyOp47
 70
     1
102
RTVSPropertyOp48
 70
     1
102
RTVSPropertyOp49
 70
     1
102
RTVSPropertyOp50
 70
     1
102
RTVSPropertyOp51
 70
     0
102
RTVSPropertyOp52
 70
     0
102
RTVSPropertyOp53
 70
     1
102
RTVSPropertyOp54
 70
     1
102
RTVSPropertyOp55
 70
     1
102
RTVSPropertyOp56
 70
     1
102
RTVSPropertyOp57
 70
     1
102
RTVSPropertyOp58
 70
     1
102
RTVSPropertyOp59
 70
     1
102
RTVSPropertyOp60
 70
     1
102
RTVSPropertyOp61
 70
     1
102
RTVSPropertyOp62
 70
     1
  0
XRECORD
  5
1FB
102
{ACAD_REACTORS
330
1FA
102
}
330
1FA
100
AcDbXrecord
280
     1
102
RTVSPost2010Prop28
280
     0
102
RTVSPost2010PropOp28
 70
     1
102
RTVSPost2010Prop29
280
     1
102
RTVSPost2010PropOp29
 70
     1
102
RTVSPost2010Prop30
280
     1
102
RTVSPost2010PropOp30
 70
     1
102
RTVSPost2010Prop31
280
     0
102
RTVSPost2010PropOp31
 70
     1
102
RTVSPost2010Prop32
280
     0
102
RTVSPost2010PropOp32
 70
     1
102
RTVSPost2010Prop33
280
     0
102
RTVSPost2010PropOp33
 70
     1
102
RTVSPost2010Prop34
280
     0
102
RTVSPost2010PropOp34
 70
     1
102
RTVSPost2010Prop35
280
     0
102
RTVSPost2010PropOp35
 70
     1
102
RTVSPost2010Prop36
280
     0
102
RTVSPost2010PropOp36
 70
     1
102
RTVSPost2010Prop37
 90
       50
102
RTVSPost2010PropOp37
 70
     1
102
RTVSPost2010Prop38
140
0.0
102
RTVSPost2010PropOp38
 70
     1
102
RTVSPost2010Prop39
140
1.0
102
RTVSPost2010PropOp39
 70
     1
102
RTVSPost2010Prop40
 90
        0
102
RTVSPost2010PropOp40
 70
     1
102
RTVSPost2010Prop41ColorIndex
 90
       18
102
RTVSPost2010Prop41ColorRGB
 90
        0
102
RTVSPost2010PropOp41
 70
     1
102
RTVSPost2010Prop42
 90
       50
102
RTVSPost2010PropOp42
 70
     1
102
RTVSPost2010Prop43
 90
        3
102
RTVSPost2010PropOp43
 70
     1
102
RTVSPost2010Prop44ColorIndex
 90
        5
102
RTVSPost2010Prop44ColorRGB
 90
      255
102
RTVSPost2010PropOp44
 70
     1
102
RTVSPost2010Prop45
280
     0
102
RTVSPost2010PropOp45
 70
     1
102
RTVSPost2010Prop46
 90
       50
102
RTVSPost2010PropOp46
 70
     1
102
RTVSPost2010Prop47
 90
       50
102
RTVSPost2010PropOp47
 70
     1
102
RTVSPost2010Prop48
 90
       50
102
RTVSPost2010PropOp48
 70
     1
102
RTVSPost2010Prop49
280
     0
102
RTVSPost2010PropOp49
 70
     1
102
RTVSPost2010Prop50
 90
       50
102
RTVSPost2010PropOp50
 70
     1
102
RTVSPost2010Prop51ColorIndex
 90
      256
102
RTVSPost2010Prop51ColorRGB
 90
-16777216
102
RTVSPost2010PropOp51
 70
     0
102
RTVSPost2010Prop52
140
1.0
102
RTVSPost2010PropOp52
 70
     0
102
RTVSPost2010Prop53
 90
        2
102
RTVSPost2010PropOp53
 70
     1
102
RTVSPost2010Prop54
  1
strokes_ogs.tif
102
RTVSPost2010PropOp54
 70
     1
102
RTVSPost2010Prop55
280
     0
102
RTVSPost2010PropOp55
 70
     1
102
RTVSPost2010Prop56
140
1.0
102
RTVSPost2010PropOp56
 70
     1
102
RTVSPost2010Prop57
140
1.0
102
RTVSPost2010PropOp57
 70
     1
102
RTVSPropertyOp0
 70
     1
102
RTVSPropertyOp1
 70
     1
102
RTVSPropertyOp2
 70
     1
102
RTVSPropertyOp3
 70
     1
102
RTVSPropertyOp4
 70
     1
102
RTVSPropertyOp5
 70
     1
102
RTVSPropertyOp6
 70
     1
102
RTVSPropertyOp7
 70
     1
102
RTVSPropertyOp8
 70
     1
102
RTVSPropertyOp9
 70
     1
102
RTVSPropertyOp10
 70
     1
102
RTVSPropertyOp11
 70
     1
102
RTVSPropertyOp12
 70
     1
102
RTVSPropertyOp13
 70
     1
102
RTVSPropertyOp14
 70
     1
102
RTVSPropertyOp15
 70
     1
102
RTVSPropertyOp16
 70
     1
102
RTVSPropertyOp17
 70
     1
102
RTVSPropertyOp18
 70
     1
102
RTVSPropertyOp19
 70
     1
102
RTVSPropertyOp20
 70
     1
102
RTVSPropertyOp21
 70
     1
102
RTVSPropertyOp22
 70
     1
102
RTVSPropertyOp23
 70
     1
102
RTVSPropertyOp24
 70
     1
102
RTVSPropertyOp25
 70
     1
102
RTVSPropertyOp26
 70
     1
102
RTVSPropertyOp27
 70
     1
102
RTVSPropertyOp28
 70
     1
102
RTVSPropertyOp29
 70
     1
102
RTVSPropertyOp30
 70
     1
102
RTVSPropertyOp31
 70
     1
102
RTVSPropertyOp32
 70
     1
102
RTVSPropertyOp33
 70
     1
102
RTVSPropertyOp34
 70
     1
102
RTVSPropertyOp35
 70
     1
102
RTVSPropertyOp36
 70
     1
102
RTVSPropertyOp37
 70
     1
102
RTVSPropertyOp38
 70
     1
102
RTVSPropertyOp39
 70
     1
102
RTVSPropertyOp40
 70
     1
102
RTVSPropertyOp41
 70
     1
102
RTVSPropertyOp42
 70
     1
102
RTVSPropertyOp43
 70
     1
102
RTVSPropertyOp44
 70
     1
102
RTVSPropertyOp45
 70
     1
102
RTVSPropertyOp46
 70
     1
102
RTVSPropertyOp47
 70
     1
102
RTVSPropertyOp48
 70
     1
102
RTVSPropertyOp49
 70
     1
102
RTVSPropertyOp50
 70
     1
102
RTVSPropertyOp51
 70
     0
102
RTVSPropertyOp52
 70
     0
102
RTVSPropertyOp53
 70
     1
102
RTVSPropertyOp54
 70
     1
102
RTVSPropertyOp55
 70
     1
102
RTVSPropertyOp56
 70
     1
102
RTVSPropertyOp57
 70
     1
102
RTVSPropertyOp58
 70
     1
102
RTVSPropertyOp59
 70
     1
102
RTVSPropertyOp60
 70
     1
102
RTVSPropertyOp61
 70
     1
102
RTVSPropertyOp62
 70
     1
  0
XRECORD
  5
1FF
102
{ACAD_REACTORS
330
1FE
102
}
330
1FE
100
AcDbXrecord
280
     1
102
RTVSPost2010Prop28
280
     0
102
RTVSPost2010PropOp28
 70
     1
102
RTVSPost2010Prop29
280
     1
102
RTVSPost2010PropOp29
 70
     1
102
RTVSPost2010Prop30
280
     1
102
RTVSPost2010PropOp30
 70
     1
102
RTVSPost2010Prop31
280
     0
102
RTVSPost2010PropOp31
 70
     1
102
RTVSPost2010Prop32
280
     0
102
RTVSPost2010PropOp32
 70
     1
102
RTVSPost2010Prop33
280
     0
102
RTVSPost2010PropOp33
 70
     1
102
RTVSPost2010Prop34
280
     0
102
RTVSPost2010PropOp34
 70
     1
102
RTVSPost2010Prop35
280
     0
102
RTVSPost2010PropOp35
 70
     1
102
RTVSPost2010Prop36
280
     0
102
RTVSPost2010PropOp36
 70
     1
102
RTVSPost2010Prop37
 90
       50
102
RTVSPost2010PropOp37
 70
     1
102
RTVSPost2010Prop38
140
0.0
102
RTVSPost2010PropOp38
 70
     1
102
RTVSPost2010Prop39
140
1.0
102
RTVSPost2010PropOp39
 70
     1
102
RTVSPost2010Prop40
 90
        0
102
RTVSPost2010PropOp40
 70
     1
102
RTVSPost2010Prop41ColorIndex
 90
       18
102
RTVSPost2010Prop41ColorRGB
 90
        0
102
RTVSPost2010PropOp41
 70
     1
102
RTVSPost2010Prop42
 90
       50
102
RTVSPost2010PropOp42
 70
     1
102
RTVSPost2010Prop43
 90
        3
102
RTVSPost2010PropOp43
 70
     1
102
RTVSPost2010Prop44ColorIndex
 90
        5
102
RTVSPost2010Prop44ColorRGB
 90
      255
102
RTVSPost2010PropOp44
 70
     1
102
RTVSPost2010Prop45
280
     0
102
RTVSPost2010PropOp45
 70
     1
102
RTVSPost2010Prop46
 90
       50
102
RTVSPost2010PropOp46
 70
     1
102
RTVSPost2010Prop47
 90
       50
102
RTVSPost2010PropOp47
 70
     1
102
RTVSPost2010Prop48
 90
       50
102
RTVSPost2010PropOp48
 70
     1
102
RTVSPost2010Prop49
280
     0
102
RTVSPost2010PropOp49
 70
     1
102
RTVSPost2010Prop50
 90
       50
102
RTVSPost2010PropOp50
 70
     1
102
RTVSPost2010Prop51ColorIndex
 90
      256
102
RTVSPost2010Prop51ColorRGB
 90
-16777216
102
RTVSPost2010PropOp51
 70
     0
102
RTVSPost2010Prop52
140
1.0
102
RTVSPost2010PropOp52
 70
     0
102
RTVSPost2010Prop53
 90
        2
102
RTVSPost2010PropOp53
 70
     1
102
RTVSPost2010Prop54
  1
strokes_ogs.tif
102
RTVSPost2010PropOp54
 70
     1
102
RTVSPost2010Prop55
280
     0
102
RTVSPost2010PropOp55
 70
     1
102
RTVSPost2010Prop56
140
1.0
102
RTVSPost2010PropOp56
 70
     1
102
RTVSPost2010Prop57
140
1.0
102
RTVSPost2010PropOp57
 70
     1
102
RTVSPropertyOp0
 70
     1
102
RTVSPropertyOp1
 70
     1
102
RTVSPropertyOp2
 70
     1
102
RTVSPropertyOp3
 70
     1
102
RTVSPropertyOp4
 70
     1
102
RTVSPropertyOp5
 70
     1
102
RTVSPropertyOp6
 70
     1
102
RTVSPropertyOp7
 70
     1
102
RTVSPropertyOp8
 70
     1
102
RTVSPropertyOp9
 70
     1
102
RTVSPropertyOp10
 70
     1
102
RTVSPropertyOp11
 70
     1
102
RTVSPropertyOp12
 70
     1
102
RTVSPropertyOp13
 70
     1
102
RTVSPropertyOp14
 70
     1
102
RTVSPropertyOp15
 70
     1
102
RTVSPropertyOp16
 70
     1
102
RTVSPropertyOp17
 70
     1
102
RTVSPropertyOp18
 70
     1
102
RTVSPropertyOp19
 70
     1
102
RTVSPropertyOp20
 70
     1
102
RTVSPropertyOp21
 70
     1
102
RTVSPropertyOp22
 70
     1
102
RTVSPropertyOp23
 70
     1
102
RTVSPropertyOp24
 70
     1
102
RTVSPropertyOp25
 70
     1
102
RTVSPropertyOp26
 70
     1
102
RTVSPropertyOp27
 70
     1
102
RTVSPropertyOp28
 70
     1
102
RTVSPropertyOp29
 70
     1
102
RTVSPropertyOp30
 70
     1
102
RTVSPropertyOp31
 70
     1
102
RTVSPropertyOp32
 70
     1
102
RTVSPropertyOp33
 70
     1
102
RTVSPropertyOp34
 70
     1
102
RTVSPropertyOp35
 70
     1
102
RTVSPropertyOp36
 70
     1
102
RTVSPropertyOp37
 70
     1
102
RTVSPropertyOp38
 70
     1
102
RTVSPropertyOp39
 70
     1
102
RTVSPropertyOp40
 70
     1
102
RTVSPropertyOp41
 70
     1
102
RTVSPropertyOp42
 70
     1
102
RTVSPropertyOp43
 70
     1
102
RTVSPropertyOp44
 70
     1
102
RTVSPropertyOp45
 70
     1
102
RTVSPropertyOp46
 70
     1
102
RTVSPropertyOp47
 70
     1
102
RTVSPropertyOp48
 70
     1
102
RTVSPropertyOp49
 70
     1
102
RTVSPropertyOp50
 70
     1
102
RTVSPropertyOp51
 70
     0
102
RTVSPropertyOp52
 70
     0
102
RTVSPropertyOp53
 70
     1
102
RTVSPropertyOp54
 70
     1
102
RTVSPropertyOp55
 70
     1
102
RTVSPropertyOp56
 70
     1
102
RTVSPropertyOp57
 70
     1
102
RTVSPropertyOp58
 70
     1
102
RTVSPropertyOp59
 70
     1
102
RTVSPropertyOp60
 70
     1
102
RTVSPropertyOp61
 70
     1
102
RTVSPropertyOp62
 70
     1
  0
XRECORD
  5
219
102
{ACAD_REACTORS
330
218
102
}
330
218
100
AcDbXrecord
280
     1
102
RTVSPost2010Prop28
280
     0
102
RTVSPost2010PropOp28
 70
     1
102
RTVSPost2010Prop29
280
     1
102
RTVSPost2010PropOp29
 70
     1
102
RTVSPost2010Prop30
280
     1
102
RTVSPost2010PropOp30
 70
     1
102
RTVSPost2010Prop31
280
     0
102
RTVSPost2010PropOp31
 70
     1
102
RTVSPost2010Prop32
280
     0
102
RTVSPost2010PropOp32
 70
     1
102
RTVSPost2010Prop33
280
     0
102
RTVSPost2010PropOp33
 70
     1
102
RTVSPost2010Prop34
280
     0
102
RTVSPost2010PropOp34
 70
     1
102
RTVSPost2010Prop35
280
     0
102
RTVSPost2010PropOp35
 70
     1
102
RTVSPost2010Prop36
280
     0
102
RTVSPost2010PropOp36
 70
     1
102
RTVSPost2010Prop37
 90
       50
102
RTVSPost2010PropOp37
 70
     0
102
RTVSPost2010Prop38
140
0.0
102
RTVSPost2010PropOp38
 70
     0
102
RTVSPost2010Prop39
140
1.0
102
RTVSPost2010PropOp39
 70
     0
102
RTVSPost2010Prop40
 90
        0
102
RTVSPost2010PropOp40
 70
     0
102
RTVSPost2010Prop41ColorIndex
 90
       18
102
RTVSPost2010Prop41ColorRGB
 90
        0
102
RTVSPost2010PropOp41
 70
     0
102
RTVSPost2010Prop42
 90
       50
102
RTVSPost2010PropOp42
 70
     0
102
RTVSPost2010Prop43
 90
        3
102
RTVSPost2010PropOp43
 70
     0
102
RTVSPost2010Prop44ColorIndex
 90
        5
102
RTVSPost2010Prop44ColorRGB
 90
      255
102
RTVSPost2010PropOp44
 70
     0
102
RTVSPost2010Prop45
280
     0
102
RTVSPost2010PropOp45
 70
     1
102
RTVSPost2010Prop46
 90
       50
102
RTVSPost2010PropOp46
 70
     0
102
RTVSPost2010Prop47
 90
       50
102
RTVSPost2010PropOp47
 70
     0
102
RTVSPost2010Prop48
 90
       50
102
RTVSPost2010PropOp48
 70
     0
102
RTVSPost2010Prop49
280
     0
102
RTVSPost2010PropOp49
 70
     1
102
RTVSPost2010Prop50
 90
       50
102
RTVSPost2010PropOp50
 70
     0
102
RTVSPost2010Prop51ColorIndex
 90
      256
102
RTVSPost2010Prop51ColorRGB
 90
-16777216
102
RTVSPost2010PropOp51
 70
     0
102
RTVSPost2010Prop52
140
1.0
102
RTVSPost2010PropOp52
 70
     0
102
RTVSPost2010Prop53
 90
        2
102
RTVSPost2010PropOp53
 70
     0
102
RTVSPost2010Prop54
  1
strokes_ogs.tif
102
RTVSPost2010PropOp54
 70
     0
102
RTVSPost2010Prop55
280
     0
102
RTVSPost2010PropOp55
 70
     1
102
RTVSPost2010Prop56
140
1.0
102
RTVSPost2010PropOp56
 70
     0
102
RTVSPost2010Prop57
140
1.0
102
RTVSPost2010PropOp57
 70
     0
102
RTVSPropertyOp0
 70
     0
102
RTVSPropertyOp1
 70
     0
102
RTVSPropertyOp2
 70
     0
102
RTVSPropertyOp3
 70
     0
102
RTVSPropertyOp4
 70
     0
102
RTVSPropertyOp5
 70
     0
102
RTVSPropertyOp6
 70
     0
102
RTVSPropertyOp7
 70
     0
102
RTVSPropertyOp8
 70
     0
102
RTVSPropertyOp9
 70
     0
102
RTVSPropertyOp10
 70
     0
102
RTVSPropertyOp11
 70
     0
102
RTVSPropertyOp12
 70
     0
102
RTVSPropertyOp13
 70
     0
102
RTVSPropertyOp14
 70
     2
102
RTVSPropertyOp15
 70
     0
102
RTVSPropertyOp16
 70
     0
102
RTVSPropertyOp17
 70
     0
102
RTVSPropertyOp18
 70
     0
102
RTVSPropertyOp19
 70
     0
102
RTVSPropertyOp20
 70
     0
102
RTVSPropertyOp21
 70
     0
102
RTVSPropertyOp22
 70
     0
102
RTVSPropertyOp23
 70
     0
102
RTVSPropertyOp24
 70
     0
102
RTVSPropertyOp25
 70
     0
102
RTVSPropertyOp26
 70
     0
102
RTVSPropertyOp27
 70
     0
102
RTVSPropertyOp28
 70
     1
102
RTVSPropertyOp29
 70
     1
102
RTVSPropertyOp30
 70
     1
102
RTVSPropertyOp31
 70
     1
102
RTVSPropertyOp32
 70
     1
102
RTVSPropertyOp33
 70
     1
102
RTVSPropertyOp34
 70
     1
102
RTVSPropertyOp35
 70
     1
102
RTVSPropertyOp36
 70
     1
102
RTVSPropertyOp37
 70
     0
102
RTVSPropertyOp38
 70
     0
102
RTVSPropertyOp39
 70
     0
102
RTVSPropertyOp40
 70
     0
102
RTVSPropertyOp41
 70
     0
102
RTVSPropertyOp42
 70
     0
102
RTVSPropertyOp43
 70
     0
102
RTVSPropertyOp44
 70
     0
102
RTVSPropertyOp45
 70
     1
102
RTVSPropertyOp46
 70
     0
102
RTVSPropertyOp47
 70
     0
102
RTVSPropertyOp48
 70
     0
102
RTVSPropertyOp49
 70
     1
102
RTVSPropertyOp50
 70
     0
102
RTVSPropertyOp51
 70
     0
102
RTVSPropertyOp52
 70
     0
102
RTVSPropertyOp53
 70
     0
102
RTVSPropertyOp54
 70
     0
102
RTVSPropertyOp55
 70
     1
102
RTVSPropertyOp56
 70
     0
102
RTVSPropertyOp57
 70
     0
102
RTVSPropertyOp58
 70
     0
102
RTVSPropertyOp59
 70
     0
102
RTVSPropertyOp60
 70
     0
102
RTVSPropertyOp61
 70
     0
102
RTVSPropertyOp62
 70
     0
  0
XRECORD
  5
207
102
{ACAD_REACTORS
330
206
102
}
330
206
100
AcDbXrecord
280
     1
102
RTVSPost2010Prop28
280
     0
102
RTVSPost2010PropOp28
 70
     1
102
RTVSPost2010Prop29
280
     1
102
RTVSPost2010PropOp29
 70
     1
102
RTVSPost2010Prop30
280
     1
102
RTVSPost2010PropOp30
 70
     1
102
RTVSPost2010Prop31
280
     0
102
RTVSPost2010PropOp31
 70
     1
102
RTVSPost2010Prop32
280
     0
102
RTVSPost2010PropOp32
 70
     1
102
RTVSPost2010Prop33
280
     0
102
RTVSPost2010PropOp33
 70
     1
102
RTVSPost2010Prop34
280
     0
102
RTVSPost2010PropOp34
 70
     1
102
RTVSPost2010Prop35
280
     0
102
RTVSPost2010PropOp35
 70
     1
102
RTVSPost2010Prop36
280
     0
102
RTVSPost2010PropOp36
 70
     1
102
RTVSPost2010Prop37
 90
       50
102
RTVSPost2010PropOp37
 70
     1
102
RTVSPost2010Prop38
140
0.0
102
RTVSPost2010PropOp38
 70
     1
102
RTVSPost2010Prop39
140
1.0
102
RTVSPost2010PropOp39
 70
     1
102
RTVSPost2010Prop40
 90
        0
102
RTVSPost2010PropOp40
 70
     1
102
RTVSPost2010Prop41ColorIndex
 90
       18
102
RTVSPost2010Prop41ColorRGB
 90
        0
102
RTVSPost2010PropOp41
 70
     1
102
RTVSPost2010Prop42
 90
       50
102
RTVSPost2010PropOp42
 70
     1
102
RTVSPost2010Prop43
 90
        3
102
RTVSPost2010PropOp43
 70
     1
102
RTVSPost2010Prop44ColorIndex
 90
        5
102
RTVSPost2010Prop44ColorRGB
 90
      255
102
RTVSPost2010PropOp44
 70
     1
102
RTVSPost2010Prop45
280
     0
102
RTVSPost2010PropOp45
 70
     1
102
RTVSPost2010Prop46
 90
       50
102
RTVSPost2010PropOp46
 70
     1
102
RTVSPost2010Prop47
 90
       50
102
RTVSPost2010PropOp47
 70
     1
102
RTVSPost2010Prop48
 90
       50
102
RTVSPost2010PropOp48
 70
     1
102
RTVSPost2010Prop49
280
     0
102
RTVSPost2010PropOp49
 70
     1
102
RTVSPost2010Prop50
 90
       50
102
RTVSPost2010PropOp50
 70
     1
102
RTVSPost2010Prop51ColorIndex
 90
      256
102
RTVSPost2010Prop51ColorRGB
 90
-16777216
102
RTVSPost2010PropOp51
 70
     0
102
RTVSPost2010Prop52
140
1.0
102
RTVSPost2010PropOp52
 70
     0
102
RTVSPost2010Prop53
 90
        2
102
RTVSPost2010PropOp53
 70
     1
102
RTVSPost2010Prop54
  1
strokes_ogs.tif
102
RTVSPost2010PropOp54
 70
     1
102
RTVSPost2010Prop55
280
     0
102
RTVSPost2010PropOp55
 70
     1
102
RTVSPost2010Prop56
140
1.0
102
RTVSPost2010PropOp56
 70
     1
102
RTVSPost2010Prop57
140
1.0
102
RTVSPost2010PropOp57
 70
     1
102
RTVSPropertyOp0
 70
     1
102
RTVSPropertyOp1
 70
     1
102
RTVSPropertyOp2
 70
     1
102
RTVSPropertyOp3
 70
     1
102
RTVSPropertyOp4
 70
     1
102
RTVSPropertyOp5
 70
     1
102
RTVSPropertyOp6
 70
     1
102
RTVSPropertyOp7
 70
     1
102
RTVSPropertyOp8
 70
     1
102
RTVSPropertyOp9
 70
     1
102
RTVSPropertyOp10
 70
     1
102
RTVSPropertyOp11
 70
     1
102
RTVSPropertyOp12
 70
     1
102
RTVSPropertyOp13
 70
     1
102
RTVSPropertyOp14
 70
     1
102
RTVSPropertyOp15
 70
     1
102
RTVSPropertyOp16
 70
     1
102
RTVSPropertyOp17
 70
     1
102
RTVSPropertyOp18
 70
     1
102
RTVSPropertyOp19
 70
     1
102
RTVSPropertyOp20
 70
     1
102
RTVSPropertyOp21
 70
     1
102
RTVSPropertyOp22
 70
     1
102
RTVSPropertyOp23
 70
     1
102
RTVSPropertyOp24
 70
     1
102
RTVSPropertyOp25
 70
     1
102
RTVSPropertyOp26
 70
     1
102
RTVSPropertyOp27
 70
     1
102
RTVSPropertyOp28
 70
     1
102
RTVSPropertyOp29
 70
     1
102
RTVSPropertyOp30
 70
     1
102
RTVSPropertyOp31
 70
     1
102
RTVSPropertyOp32
 70
     1
102
RTVSPropertyOp33
 70
     1
102
RTVSPropertyOp34
 70
     1
102
RTVSPropertyOp35
 70
     1
102
RTVSPropertyOp36
 70
     1
102
RTVSPropertyOp37
 70
     1
102
RTVSPropertyOp38
 70
     1
102
RTVSPropertyOp39
 70
     1
102
RTVSPropertyOp40
 70
     1
102
RTVSPropertyOp41
 70
     1
102
RTVSPropertyOp42
 70
     1
102
RTVSPropertyOp43
 70
     1
102
RTVSPropertyOp44
 70
     1
102
RTVSPropertyOp45
 70
     1
102
RTVSPropertyOp46
 70
     1
102
RTVSPropertyOp47
 70
     1
102
RTVSPropertyOp48
 70
     1
102
RTVSPropertyOp49
 70
     1
102
RTVSPropertyOp50
 70
     1
102
RTVSPropertyOp51
 70
     0
102
RTVSPropertyOp52
 70
     0
102
RTVSPropertyOp53
 70
     1
102
RTVSPropertyOp54
 70
     1
102
RTVSPropertyOp55
 70
     1
102
RTVSPropertyOp56
 70
     1
102
RTVSPropertyOp57
 70
     1
102
RTVSPropertyOp58
 70
     1
102
RTVSPropertyOp59
 70
     1
102
RTVSPropertyOp60
 70
     1
102
RTVSPropertyOp61
 70
     1
102
RTVSPropertyOp62
 70
     1
  0
XRECORD
  5
1EB
102
{ACAD_REACTORS
330
1EA
102
}
330
1EA
100
AcDbXrecord
280
     1
102
RTVSPost2010Prop28
280
     0
102
RTVSPost2010PropOp28
 70
     1
102
RTVSPost2010Prop29
280
     1
102
RTVSPost2010PropOp29
 70
     1
102
RTVSPost2010Prop30
280
     1
102
RTVSPost2010PropOp30
 70
     1
102
RTVSPost2010Prop31
280
     0
102
RTVSPost2010PropOp31
 70
     1
102
RTVSPost2010Prop32
280
     0
102
RTVSPost2010PropOp32
 70
     1
102
RTVSPost2010Prop33
280
     0
102
RTVSPost2010PropOp33
 70
     1
102
RTVSPost2010Prop34
280
     0
102
RTVSPost2010PropOp34
 70
     1
102
RTVSPost2010Prop35
280
     0
102
RTVSPost2010PropOp35
 70
     1
102
RTVSPost2010Prop36
280
     0
102
RTVSPost2010PropOp36
 70
     1
102
RTVSPost2010Prop37
 90
       50
102
RTVSPost2010PropOp37
 70
     1
102
RTVSPost2010Prop38
140
0.0
102
RTVSPost2010PropOp38
 70
     1
102
RTVSPost2010Prop39
140
1.0
102
RTVSPost2010PropOp39
 70
     1
102
RTVSPost2010Prop40
 90
        0
102
RTVSPost2010PropOp40
 70
     1
102
RTVSPost2010Prop41ColorIndex
 90
       18
102
RTVSPost2010Prop41ColorRGB
 90
        0
102
RTVSPost2010PropOp41
 70
     1
102
RTVSPost2010Prop42
 90
       50
102
RTVSPost2010PropOp42
 70
     1
102
RTVSPost2010Prop43
 90
        3
102
RTVSPost2010PropOp43
 70
     1
102
RTVSPost2010Prop44ColorIndex
 90
        5
102
RTVSPost2010Prop44ColorRGB
 90
      255
102
RTVSPost2010PropOp44
 70
     1
102
RTVSPost2010Prop45
280
     0
102
RTVSPost2010PropOp45
 70
     1
102
RTVSPost2010Prop46
 90
       50
102
RTVSPost2010PropOp46
 70
     1
102
RTVSPost2010Prop47
 90
       50
102
RTVSPost2010PropOp47
 70
     1
102
RTVSPost2010Prop48
 90
       50
102
RTVSPost2010PropOp48
 70
     1
102
RTVSPost2010Prop49
280
     0
102
RTVSPost2010PropOp49
 70
     1
102
RTVSPost2010Prop50
 90
       50
102
RTVSPost2010PropOp50
 70
     1
102
RTVSPost2010Prop51ColorIndex
 90
      256
102
RTVSPost2010Prop51ColorRGB
 90
-16777216
102
RTVSPost2010PropOp51
 70
     0
102
RTVSPost2010Prop52
140
1.0
102
RTVSPost2010PropOp52
 70
     0
102
RTVSPost2010Prop53
 90
        2
102
RTVSPost2010PropOp53
 70
     1
102
RTVSPost2010Prop54
  1
strokes_ogs.tif
102
RTVSPost2010PropOp54
 70
     1
102
RTVSPost2010Prop55
280
     0
102
RTVSPost2010PropOp55
 70
     1
102
RTVSPost2010Prop56
140
1.0
102
RTVSPost2010PropOp56
 70
     1
102
RTVSPost2010Prop57
140
1.0
102
RTVSPost2010PropOp57
 70
     1
102
RTVSPropertyOp0
 70
     1
102
RTVSPropertyOp1
 70
     1
102
RTVSPropertyOp2
 70
     1
102
RTVSPropertyOp3
 70
     1
102
RTVSPropertyOp4
 70
     1
102
RTVSPropertyOp5
 70
     1
102
RTVSPropertyOp6
 70
     1
102
RTVSPropertyOp7
 70
     1
102
RTVSPropertyOp8
 70
     1
102
RTVSPropertyOp9
 70
     1
102
RTVSPropertyOp10
 70
     1
102
RTVSPropertyOp11
 70
     1
102
RTVSPropertyOp12
 70
     1
102
RTVSPropertyOp13
 70
     1
102
RTVSPropertyOp14
 70
     1
102
RTVSPropertyOp15
 70
     1
102
RTVSPropertyOp16
 70
     1
102
RTVSPropertyOp17
 70
     1
102
RTVSPropertyOp18
 70
     1
102
RTVSPropertyOp19
 70
     1
102
RTVSPropertyOp20
 70
     1
102
RTVSPropertyOp21
 70
     1
102
RTVSPropertyOp22
 70
     1
102
RTVSPropertyOp23
 70
     1
102
RTVSPropertyOp24
 70
     1
102
RTVSPropertyOp25
 70
     1
102
RTVSPropertyOp26
 70
     1
102
RTVSPropertyOp27
 70
     1
102
RTVSPropertyOp28
 70
     1
102
RTVSPropertyOp29
 70
     1
102
RTVSPropertyOp30
 70
     1
102
RTVSPropertyOp31
 70
     1
102
RTVSPropertyOp32
 70
     1
102
RTVSPropertyOp33
 70
     1
102
RTVSPropertyOp34
 70
     1
102
RTVSPropertyOp35
 70
     1
102
RTVSPropertyOp36
 70
     1
102
RTVSPropertyOp37
 70
     1
102
RTVSPropertyOp38
 70
     1
102
RTVSPropertyOp39
 70
     1
102
RTVSPropertyOp40
 70
     1
102
RTVSPropertyOp41
 70
     1
102
RTVSPropertyOp42
 70
     1
102
RTVSPropertyOp43
 70
     1
102
RTVSPropertyOp44
 70
     1
102
RTVSPropertyOp45
 70
     1
102
RTVSPropertyOp46
 70
     1
102
RTVSPropertyOp47
 70
     1
102
RTVSPropertyOp48
 70
     1
102
RTVSPropertyOp49
 70
     1
102
RTVSPropertyOp50
 70
     1
102
RTVSPropertyOp51
 70
     0
102
RTVSPropertyOp52
 70
     0
102
RTVSPropertyOp53
 70
     1
102
RTVSPropertyOp54
 70
     1
102
RTVSPropertyOp55
 70
     1
102
RTVSPropertyOp56
 70
     1
102
RTVSPropertyOp57
 70
     1
102
RTVSPropertyOp58
 70
     1
102
RTVSPropertyOp59
 70
     1
102
RTVSPropertyOp60
 70
     1
102
RTVSPropertyOp61
 70
     1
102
RTVSPropertyOp62
 70
     1
  0
XRECORD
  5
1ED
102
{ACAD_REACTORS
330
1EC
102
}
330
1EC
100
AcDbXrecord
280
     1
102
RTVSPost2010Prop28
280
     0
102
RTVSPost2010PropOp28
 70
     1
102
RTVSPost2010Prop29
280
     1
102
RTVSPost2010PropOp29
 70
     1
102
RTVSPost2010Prop30
280
     1
102
RTVSPost2010PropOp30
 70
     1
102
RTVSPost2010Prop31
280
     0
102
RTVSPost2010PropOp31
 70
     1
102
RTVSPost2010Prop32
280
     0
102
RTVSPost2010PropOp32
 70
     1
102
RTVSPost2010Prop33
280
     0
102
RTVSPost2010PropOp33
 70
     1
102
RTVSPost2010Prop34
280
     0
102
RTVSPost2010PropOp34
 70
     1
102
RTVSPost2010Prop35
280
     0
102
RTVSPost2010PropOp35
 70
     1
102
RTVSPost2010Prop36
280
     0
102
RTVSPost2010PropOp36
 70
     1
102
RTVSPost2010Prop37
 90
       50
102
RTVSPost2010PropOp37
 70
     1
102
RTVSPost2010Prop38
140
0.0
102
RTVSPost2010PropOp38
 70
     1
102
RTVSPost2010Prop39
140
1.0
102
RTVSPost2010PropOp39
 70
     1
102
RTVSPost2010Prop40
 90
        0
102
RTVSPost2010PropOp40
 70
     1
102
RTVSPost2010Prop41ColorIndex
 90
       18
102
RTVSPost2010Prop41ColorRGB
 90
        0
102
RTVSPost2010PropOp41
 70
     1
102
RTVSPost2010Prop42
 90
       50
102
RTVSPost2010PropOp42
 70
     1
102
RTVSPost2010Prop43
 90
        3
102
RTVSPost2010PropOp43
 70
     1
102
RTVSPost2010Prop44ColorIndex
 90
        5
102
RTVSPost2010Prop44ColorRGB
 90
      255
102
RTVSPost2010PropOp44
 70
     1
102
RTVSPost2010Prop45
280
     0
102
RTVSPost2010PropOp45
 70
     1
102
RTVSPost2010Prop46
 90
       50
102
RTVSPost2010PropOp46
 70
     1
102
RTVSPost2010Prop47
 90
       50
102
RTVSPost2010PropOp47
 70
     1
102
RTVSPost2010Prop48
 90
       50
102
RTVSPost2010PropOp48
 70
     1
102
RTVSPost2010Prop49
280
     0
102
RTVSPost2010PropOp49
 70
     1
102
RTVSPost2010Prop50
 90
       50
102
RTVSPost2010PropOp50
 70
     1
102
RTVSPost2010Prop51ColorIndex
 90
      256
102
RTVSPost2010Prop51ColorRGB
 90
-16777216
102
RTVSPost2010PropOp51
 70
     0
102
RTVSPost2010Prop52
140
1.0
102
RTVSPost2010PropOp52
 70
     0
102
RTVSPost2010Prop53
 90
        2
102
RTVSPost2010PropOp53
 70
     1
102
RTVSPost2010Prop54
  1
strokes_ogs.tif
102
RTVSPost2010PropOp54
 70
     1
102
RTVSPost2010Prop55
280
     0
102
RTVSPost2010PropOp55
 70
     1
102
RTVSPost2010Prop56
140
1.0
102
RTVSPost2010PropOp56
 70
     1
102
RTVSPost2010Prop57
140
1.0
102
RTVSPost2010PropOp57
 70
     1
102
RTVSPropertyOp0
 70
     1
102
RTVSPropertyOp1
 70
     1
102
RTVSPropertyOp2
 70
     1
102
RTVSPropertyOp3
 70
     1
102
RTVSPropertyOp4
 70
     1
102
RTVSPropertyOp5
 70
     1
102
RTVSPropertyOp6
 70
     1
102
RTVSPropertyOp7
 70
     1
102
RTVSPropertyOp8
 70
     1
102
RTVSPropertyOp9
 70
     1
102
RTVSPropertyOp10
 70
     1
102
RTVSPropertyOp11
 70
     1
102
RTVSPropertyOp12
 70
     1
102
RTVSPropertyOp13
 70
     1
102
RTVSPropertyOp14
 70
     1
102
RTVSPropertyOp15
 70
     1
102
RTVSPropertyOp16
 70
     1
102
RTVSPropertyOp17
 70
     1
102
RTVSPropertyOp18
 70
     1
102
RTVSPropertyOp19
 70
     1
102
RTVSPropertyOp20
 70
     1
102
RTVSPropertyOp21
 70
     1
102
RTVSPropertyOp22
 70
     1
102
RTVSPropertyOp23
 70
     1
102
RTVSPropertyOp24
 70
     1
102
RTVSPropertyOp25
 70
     1
102
RTVSPropertyOp26
 70
     1
102
RTVSPropertyOp27
 70
     1
102
RTVSPropertyOp28
 70
     1
102
RTVSPropertyOp29
 70
     1
102
RTVSPropertyOp30
 70
     1
102
RTVSPropertyOp31
 70
     1
102
RTVSPropertyOp32
 70
     1
102
RTVSPropertyOp33
 70
     1
102
RTVSPropertyOp34
 70
     1
102
RTVSPropertyOp35
 70
     1
102
RTVSPropertyOp36
 70
     1
102
RTVSPropertyOp37
 70
     1
102
RTVSPropertyOp38
 70
     1
102
RTVSPropertyOp39
 70
     1
102
RTVSPropertyOp40
 70
     1
102
RTVSPropertyOp41
 70
     1
102
RTVSPropertyOp42
 70
     1
102
RTVSPropertyOp43
 70
     1
102
RTVSPropertyOp44
 70
     1
102
RTVSPropertyOp45
 70
     1
102
RTVSPropertyOp46
 70
     1
102
RTVSPropertyOp47
 70
     1
102
RTVSPropertyOp48
 70
     1
102
RTVSPropertyOp49
 70
     1
102
RTVSPropertyOp50
 70
     1
102
RTVSPropertyOp51
 70
     0
102
RTVSPropertyOp52
 70
     0
102
RTVSPropertyOp53
 70
     1
102
RTVSPropertyOp54
 70
     1
102
RTVSPropertyOp55
 70
     1
102
RTVSPropertyOp56
 70
     1
102
RTVSPropertyOp57
 70
     1
102
RTVSPropertyOp58
 70
     1
102
RTVSPropertyOp59
 70
     1
102
RTVSPropertyOp60
 70
     1
102
RTVSPropertyOp61
 70
     1
102
RTVSPropertyOp62
 70
     1
  0
XRECORD
  5
1EF
102
{ACAD_REACTORS
330
1EE
102
}
330
1EE
100
AcDbXrecord
280
     1
102
RTVSPost2010Prop28
280
     0
102
RTVSPost2010PropOp28
 70
     1
102
RTVSPost2010Prop29
280
     1
102
RTVSPost2010PropOp29
 70
     1
102
RTVSPost2010Prop30
280
     1
102
RTVSPost2010PropOp30
 70
     1
102
RTVSPost2010Prop31
280
     0
102
RTVSPost2010PropOp31
 70
     1
102
RTVSPost2010Prop32
280
     0
102
RTVSPost2010PropOp32
 70
     1
102
RTVSPost2010Prop33
280
     0
102
RTVSPost2010PropOp33
 70
     1
102
RTVSPost2010Prop34
280
     0
102
RTVSPost2010PropOp34
 70
     1
102
RTVSPost2010Prop35
280
     0
102
RTVSPost2010PropOp35
 70
     1
102
RTVSPost2010Prop36
280
     0
102
RTVSPost2010PropOp36
 70
     1
102
RTVSPost2010Prop37
 90
       50
102
RTVSPost2010PropOp37
 70
     1
102
RTVSPost2010Prop38
140
0.0
102
RTVSPost2010PropOp38
 70
     1
102
RTVSPost2010Prop39
140
1.0
102
RTVSPost2010PropOp39
 70
     1
102
RTVSPost2010Prop40
 90
        0
102
RTVSPost2010PropOp40
 70
     1
102
RTVSPost2010Prop41ColorIndex
 90
       18
102
RTVSPost2010Prop41ColorRGB
 90
        0
102
RTVSPost2010PropOp41
 70
     1
102
RTVSPost2010Prop42
 90
       50
102
RTVSPost2010PropOp42
 70
     1
102
RTVSPost2010Prop43
 90
        3
102
RTVSPost2010PropOp43
 70
     1
102
RTVSPost2010Prop44ColorIndex
 90
        5
102
RTVSPost2010Prop44ColorRGB
 90
      255
102
RTVSPost2010PropOp44
 70
     1
102
RTVSPost2010Prop45
280
     0
102
RTVSPost2010PropOp45
 70
     1
102
RTVSPost2010Prop46
 90
       50
102
RTVSPost2010PropOp46
 70
     1
102
RTVSPost2010Prop47
 90
       50
102
RTVSPost2010PropOp47
 70
     1
102
RTVSPost2010Prop48
 90
       50
102
RTVSPost2010PropOp48
 70
     1
102
RTVSPost2010Prop49
280
     0
102
RTVSPost2010PropOp49
 70
     1
102
RTVSPost2010Prop50
 90
       50
102
RTVSPost2010PropOp50
 70
     1
102
RTVSPost2010Prop51ColorIndex
 90
      256
102
RTVSPost2010Prop51ColorRGB
 90
-16777216
102
RTVSPost2010PropOp51
 70
     0
102
RTVSPost2010Prop52
140
1.0
102
RTVSPost2010PropOp52
 70
     0
102
RTVSPost2010Prop53
 90
        2
102
RTVSPost2010PropOp53
 70
     1
102
RTVSPost2010Prop54
  1
strokes_ogs.tif
102
RTVSPost2010PropOp54
 70
     1
102
RTVSPost2010Prop55
280
     0
102
RTVSPost2010PropOp55
 70
     1
102
RTVSPost2010Prop56
140
1.0
102
RTVSPost2010PropOp56
 70
     1
102
RTVSPost2010Prop57
140
1.0
102
RTVSPost2010PropOp57
 70
     1
102
RTVSPropertyOp0
 70
     1
102
RTVSPropertyOp1
 70
     1
102
RTVSPropertyOp2
 70
     1
102
RTVSPropertyOp3
 70
     1
102
RTVSPropertyOp4
 70
     1
102
RTVSPropertyOp5
 70
     1
102
RTVSPropertyOp6
 70
     1
102
RTVSPropertyOp7
 70
     1
102
RTVSPropertyOp8
 70
     1
102
RTVSPropertyOp9
 70
     1
102
RTVSPropertyOp10
 70
     1
102
RTVSPropertyOp11
 70
     1
102
RTVSPropertyOp12
 70
     1
102
RTVSPropertyOp13
 70
     1
102
RTVSPropertyOp14
 70
     1
102
RTVSPropertyOp15
 70
     1
102
RTVSPropertyOp16
 70
     1
102
RTVSPropertyOp17
 70
     1
102
RTVSPropertyOp18
 70
     1
102
RTVSPropertyOp19
 70
     1
102
RTVSPropertyOp20
 70
     1
102
RTVSPropertyOp21
 70
     1
102
RTVSPropertyOp22
 70
     1
102
RTVSPropertyOp23
 70
     1
102
RTVSPropertyOp24
 70
     1
102
RTVSPropertyOp25
 70
     1
102
RTVSPropertyOp26
 70
     1
102
RTVSPropertyOp27
 70
     1
102
RTVSPropertyOp28
 70
     1
102
RTVSPropertyOp29
 70
     1
102
RTVSPropertyOp30
 70
     1
102
RTVSPropertyOp31
 70
     1
102
RTVSPropertyOp32
 70
     1
102
RTVSPropertyOp33
 70
     1
102
RTVSPropertyOp34
 70
     1
102
RTVSPropertyOp35
 70
     1
102
RTVSPropertyOp36
 70
     1
102
RTVSPropertyOp37
 70
     1
102
RTVSPropertyOp38
 70
     1
102
RTVSPropertyOp39
 70
     1
102
RTVSPropertyOp40
 70
     1
102
RTVSPropertyOp41
 70
     1
102
RTVSPropertyOp42
 70
     1
102
RTVSPropertyOp43
 70
     1
102
RTVSPropertyOp44
 70
     1
102
RTVSPropertyOp45
 70
     1
102
RTVSPropertyOp46
 70
     1
102
RTVSPropertyOp47
 70
     1
102
RTVSPropertyOp48
 70
     1
102
RTVSPropertyOp49
 70
     1
102
RTVSPropertyOp50
 70
     1
102
RTVSPropertyOp51
 70
     0
102
RTVSPropertyOp52
 70
     0
102
RTVSPropertyOp53
 70
     1
102
RTVSPropertyOp54
 70
     1
102
RTVSPropertyOp55
 70
     1
102
RTVSPropertyOp56
 70
     1
102
RTVSPropertyOp57
 70
     1
102
RTVSPropertyOp58
 70
     1
102
RTVSPropertyOp59
 70
     1
102
RTVSPropertyOp60
 70
     1
102
RTVSPropertyOp61
 70
     1
102
RTVSPropertyOp62
 70
     1
  0
XRECORD
  5
1F1
102
{ACAD_REACTORS
330
1F0
102
}
330
1F0
100
AcDbXrecord
280
     1
102
RTVSPost2010Prop28
280
     0
102
RTVSPost2010PropOp28
 70
     1
102
RTVSPost2010Prop29
280
     1
102
RTVSPost2010PropOp29
 70
     1
102
RTVSPost2010Prop30
280
     1
102
RTVSPost2010PropOp30
 70
     1
102
RTVSPost2010Prop31
280
     0
102
RTVSPost2010PropOp31
 70
     1
102
RTVSPost2010Prop32
280
     0
102
RTVSPost2010PropOp32
 70
     1
102
RTVSPost2010Prop33
280
     0
102
RTVSPost2010PropOp33
 70
     1
102
RTVSPost2010Prop34
280
     0
102
RTVSPost2010PropOp34
 70
     1
102
RTVSPost2010Prop35
280
     0
102
RTVSPost2010PropOp35
 70
     1
102
RTVSPost2010Prop36
280
     0
102
RTVSPost2010PropOp36
 70
     1
102
RTVSPost2010Prop37
 90
       50
102
RTVSPost2010PropOp37
 70
     1
102
RTVSPost2010Prop38
140
0.0
102
RTVSPost2010PropOp38
 70
     1
102
RTVSPost2010Prop39
140
1.0
102
RTVSPost2010PropOp39
 70
     1
102
RTVSPost2010Prop40
 90
        0
102
RTVSPost2010PropOp40
 70
     1
102
RTVSPost2010Prop41ColorIndex
 90
       18
102
RTVSPost2010Prop41ColorRGB
 90
        0
102
RTVSPost2010PropOp41
 70
     1
102
RTVSPost2010Prop42
 90
       50
102
RTVSPost2010PropOp42
 70
     1
102
RTVSPost2010Prop43
 90
        3
102
RTVSPost2010PropOp43
 70
     1
102
RTVSPost2010Prop44ColorIndex
 90
        5
102
RTVSPost2010Prop44ColorRGB
 90
      255
102
RTVSPost2010PropOp44
 70
     1
102
RTVSPost2010Prop45
280
     0
102
RTVSPost2010PropOp45
 70
     1
102
RTVSPost2010Prop46
 90
       50
102
RTVSPost2010PropOp46
 70
     1
102
RTVSPost2010Prop47
 90
       50
102
RTVSPost2010PropOp47
 70
     1
102
RTVSPost2010Prop48
 90
       50
102
RTVSPost2010PropOp48
 70
     1
102
RTVSPost2010Prop49
280
     0
102
RTVSPost2010PropOp49
 70
     1
102
RTVSPost2010Prop50
 90
       50
102
RTVSPost2010PropOp50
 70
     1
102
RTVSPost2010Prop51ColorIndex
 90
      256
102
RTVSPost2010Prop51ColorRGB
 90
-16777216
102
RTVSPost2010PropOp51
 70
     0
102
RTVSPost2010Prop52
140
1.0
102
RTVSPost2010PropOp52
 70
     0
102
RTVSPost2010Prop53
 90
        2
102
RTVSPost2010PropOp53
 70
     1
102
RTVSPost2010Prop54
  1
strokes_ogs.tif
102
RTVSPost2010PropOp54
 70
     1
102
RTVSPost2010Prop55
280
     0
102
RTVSPost2010PropOp55
 70
     1
102
RTVSPost2010Prop56
140
1.0
102
RTVSPost2010PropOp56
 70
     1
102
RTVSPost2010Prop57
140
1.0
102
RTVSPost2010PropOp57
 70
     1
102
RTVSPropertyOp0
 70
     1
102
RTVSPropertyOp1
 70
     1
102
RTVSPropertyOp2
 70
     1
102
RTVSPropertyOp3
 70
     1
102
RTVSPropertyOp4
 70
     1
102
RTVSPropertyOp5
 70
     1
102
RTVSPropertyOp6
 70
     1
102
RTVSPropertyOp7
 70
     1
102
RTVSPropertyOp8
 70
     1
102
RTVSPropertyOp9
 70
     1
102
RTVSPropertyOp10
 70
     1
102
RTVSPropertyOp11
 70
     1
102
RTVSPropertyOp12
 70
     1
102
RTVSPropertyOp13
 70
     1
102
RTVSPropertyOp14
 70
     1
102
RTVSPropertyOp15
 70
     1
102
RTVSPropertyOp16
 70
     1
102
RTVSPropertyOp17
 70
     1
102
RTVSPropertyOp18
 70
     1
102
RTVSPropertyOp19
 70
     1
102
RTVSPropertyOp20
 70
     1
102
RTVSPropertyOp21
 70
     1
102
RTVSPropertyOp22
 70
     1
102
RTVSPropertyOp23
 70
     1
102
RTVSPropertyOp24
 70
     1
102
RTVSPropertyOp25
 70
     1
102
RTVSPropertyOp26
 70
     1
102
RTVSPropertyOp27
 70
     1
102
RTVSPropertyOp28
 70
     1
102
RTVSPropertyOp29
 70
     1
102
RTVSPropertyOp30
 70
     1
102
RTVSPropertyOp31
 70
     1
102
RTVSPropertyOp32
 70
     1
102
RTVSPropertyOp33
 70
     1
102
RTVSPropertyOp34
 70
     1
102
RTVSPropertyOp35
 70
     1
102
RTVSPropertyOp36
 70
     1
102
RTVSPropertyOp37
 70
     1
102
RTVSPropertyOp38
 70
     1
102
RTVSPropertyOp39
 70
     1
102
RTVSPropertyOp40
 70
     1
102
RTVSPropertyOp41
 70
     1
102
RTVSPropertyOp42
 70
     1
102
RTVSPropertyOp43
 70
     1
102
RTVSPropertyOp44
 70
     1
102
RTVSPropertyOp45
 70
     1
102
RTVSPropertyOp46
 70
     1
102
RTVSPropertyOp47
 70
     1
102
RTVSPropertyOp48
 70
     1
102
RTVSPropertyOp49
 70
     1
102
RTVSPropertyOp50
 70
     1
102
RTVSPropertyOp51
 70
     0
102
RTVSPropertyOp52
 70
     0
102
RTVSPropertyOp53
 70
     1
102
RTVSPropertyOp54
 70
     1
102
RTVSPropertyOp55
 70
     1
102
RTVSPropertyOp56
 70
     1
102
RTVSPropertyOp57
 70
     1
102
RTVSPropertyOp58
 70
     1
102
RTVSPropertyOp59
 70
     1
102
RTVSPropertyOp60
 70
     1
102
RTVSPropertyOp61
 70
     1
102
RTVSPropertyOp62
 70
     1
  0
XRECORD
  5
1F9
102
{ACAD_REACTORS
330
1F8
102
}
330
1F8
100
AcDbXrecord
280
     1
102
RTVSPost2010Prop28
280
     0
102
RTVSPost2010PropOp28
 70
     1
102
RTVSPost2010Prop29
280
     1
102
RTVSPost2010PropOp29
 70
     1
102
RTVSPost2010Prop30
280
     1
102
RTVSPost2010PropOp30
 70
     1
102
RTVSPost2010Prop31
280
     0
102
RTVSPost2010PropOp31
 70
     1
102
RTVSPost2010Prop32
280
     0
102
RTVSPost2010PropOp32
 70
     1
102
RTVSPost2010Prop33
280
     0
102
RTVSPost2010PropOp33
 70
     1
102
RTVSPost2010Prop34
280
     0
102
RTVSPost2010PropOp34
 70
     1
102
RTVSPost2010Prop35
280
     0
102
RTVSPost2010PropOp35
 70
     1
102
RTVSPost2010Prop36
280
     0
102
RTVSPost2010PropOp36
 70
     1
102
RTVSPost2010Prop37
 90
       50
102
RTVSPost2010PropOp37
 70
     1
102
RTVSPost2010Prop38
140
0.0
102
RTVSPost2010PropOp38
 70
     1
102
RTVSPost2010Prop39
140
1.0
102
RTVSPost2010PropOp39
 70
     1
102
RTVSPost2010Prop40
 90
        0
102
RTVSPost2010PropOp40
 70
     1
102
RTVSPost2010Prop41ColorIndex
 90
       18
102
RTVSPost2010Prop41ColorRGB
 90
        0
102
RTVSPost2010PropOp41
 70
     1
102
RTVSPost2010Prop42
 90
       50
102
RTVSPost2010PropOp42
 70
     1
102
RTVSPost2010Prop43
 90
        3
102
RTVSPost2010PropOp43
 70
     1
102
RTVSPost2010Prop44ColorIndex
 90
        5
102
RTVSPost2010Prop44ColorRGB
 90
      255
102
RTVSPost2010PropOp44
 70
     1
102
RTVSPost2010Prop45
280
     0
102
RTVSPost2010PropOp45
 70
     1
102
RTVSPost2010Prop46
 90
       50
102
RTVSPost2010PropOp46
 70
     1
102
RTVSPost2010Prop47
 90
       50
102
RTVSPost2010PropOp47
 70
     1
102
RTVSPost2010Prop48
 90
       50
102
RTVSPost2010PropOp48
 70
     1
102
RTVSPost2010Prop49
280
     0
102
RTVSPost2010PropOp49
 70
     1
102
RTVSPost2010Prop50
 90
       50
102
RTVSPost2010PropOp50
 70
     1
102
RTVSPost2010Prop51ColorIndex
 90
      256
102
RTVSPost2010Prop51ColorRGB
 90
-16777216
102
RTVSPost2010PropOp51
 70
     0
102
RTVSPost2010Prop52
140
1.0
102
RTVSPost2010PropOp52
 70
     0
102
RTVSPost2010Prop53
 90
        2
102
RTVSPost2010PropOp53
 70
     1
102
RTVSPost2010Prop54
  1
strokes_ogs.tif
102
RTVSPost2010PropOp54
 70
     1
102
RTVSPost2010Prop55
280
     0
102
RTVSPost2010PropOp55
 70
     1
102
RTVSPost2010Prop56
140
1.0
102
RTVSPost2010PropOp56
 70
     1
102
RTVSPost2010Prop57
140
1.0
102
RTVSPost2010PropOp57
 70
     1
102
RTVSPropertyOp0
 70
     1
102
RTVSPropertyOp1
 70
     1
102
RTVSPropertyOp2
 70
     1
102
RTVSPropertyOp3
 70
     1
102
RTVSPropertyOp4
 70
     1
102
RTVSPropertyOp5
 70
     1
102
RTVSPropertyOp6
 70
     1
102
RTVSPropertyOp7
 70
     1
102
RTVSPropertyOp8
 70
     1
102
RTVSPropertyOp9
 70
     1
102
RTVSPropertyOp10
 70
     1
102
RTVSPropertyOp11
 70
     1
102
RTVSPropertyOp12
 70
     1
102
RTVSPropertyOp13
 70
     1
102
RTVSPropertyOp14
 70
     1
102
RTVSPropertyOp15
 70
     1
102
RTVSPropertyOp16
 70
     1
102
RTVSPropertyOp17
 70
     1
102
RTVSPropertyOp18
 70
     1
102
RTVSPropertyOp19
 70
     1
102
RTVSPropertyOp20
 70
     1
102
RTVSPropertyOp21
 70
     1
102
RTVSPropertyOp22
 70
     1
102
RTVSPropertyOp23
 70
     1
102
RTVSPropertyOp24
 70
     1
102
RTVSPropertyOp25
 70
     1
102
RTVSPropertyOp26
 70
     1
102
RTVSPropertyOp27
 70
     1
102
RTVSPropertyOp28
 70
     1
102
RTVSPropertyOp29
 70
     1
102
RTVSPropertyOp30
 70
     1
102
RTVSPropertyOp31
 70
     1
102
RTVSPropertyOp32
 70
     1
102
RTVSPropertyOp33
 70
     1
102
RTVSPropertyOp34
 70
     1
102
RTVSPropertyOp35
 70
     1
102
RTVSPropertyOp36
 70
     1
102
RTVSPropertyOp37
 70
     1
102
RTVSPropertyOp38
 70
     1
102
RTVSPropertyOp39
 70
     1
102
RTVSPropertyOp40
 70
     1
102
RTVSPropertyOp41
 70
     1
102
RTVSPropertyOp42
 70
     1
102
RTVSPropertyOp43
 70
     1
102
RTVSPropertyOp44
 70
     1
102
RTVSPropertyOp45
 70
     1
102
RTVSPropertyOp46
 70
     1
102
RTVSPropertyOp47
 70
     1
102
RTVSPropertyOp48
 70
     1
102
RTVSPropertyOp49
 70
     1
102
RTVSPropertyOp50
 70
     1
102
RTVSPropertyOp51
 70
     0
102
RTVSPropertyOp52
 70
     0
102
RTVSPropertyOp53
 70
     1
102
RTVSPropertyOp54
 70
     1
102
RTVSPropertyOp55
 70
     1
102
RTVSPropertyOp56
 70
     1
102
RTVSPropertyOp57
 70
     1
102
RTVSPropertyOp58
 70
     1
102
RTVSPropertyOp59
 70
     1
102
RTVSPropertyOp60
 70
     1
102
RTVSPropertyOp61
 70
     1
102
RTVSPropertyOp62
 70
     1
  0
XRECORD
  5
215
102
{ACAD_REACTORS
330
214
102
}
330
214
100
AcDbXrecord
280
     1
102
RTVSPost2010Prop28
280
     0
102
RTVSPost2010PropOp28
 70
     1
102
RTVSPost2010Prop29
280
     1
102
RTVSPost2010PropOp29
 70
     1
102
RTVSPost2010Prop30
280
     1
102
RTVSPost2010PropOp30
 70
     1
102
RTVSPost2010Prop31
280
     0
102
RTVSPost2010PropOp31
 70
     1
102
RTVSPost2010Prop32
280
     0
102
RTVSPost2010PropOp32
 70
     1
102
RTVSPost2010Prop33
280
     0
102
RTVSPost2010PropOp33
 70
     1
102
RTVSPost2010Prop34
280
     0
102
RTVSPost2010PropOp34
 70
     1
102
RTVSPost2010Prop35
280
     0
102
RTVSPost2010PropOp35
 70
     1
102
RTVSPost2010Prop36
280
     0
102
RTVSPost2010PropOp36
 70
     1
102
RTVSPost2010Prop37
 90
       50
102
RTVSPost2010PropOp37
 70
     0
102
RTVSPost2010Prop38
140
0.0
102
RTVSPost2010PropOp38
 70
     0
102
RTVSPost2010Prop39
140
1.0
102
RTVSPost2010PropOp39
 70
     0
102
RTVSPost2010Prop40
 90
        0
102
RTVSPost2010PropOp40
 70
     0
102
RTVSPost2010Prop41ColorIndex
 90
       18
102
RTVSPost2010Prop41ColorRGB
 90
        0
102
RTVSPost2010PropOp41
 70
     0
102
RTVSPost2010Prop42
 90
       50
102
RTVSPost2010PropOp42
 70
     0
102
RTVSPost2010Prop43
 90
        3
102
RTVSPost2010PropOp43
 70
     0
102
RTVSPost2010Prop44ColorIndex
 90
        5
102
RTVSPost2010Prop44ColorRGB
 90
      255
102
RTVSPost2010PropOp44
 70
     0
102
RTVSPost2010Prop45
280
     0
102
RTVSPost2010PropOp45
 70
     1
102
RTVSPost2010Prop46
 90
       50
102
RTVSPost2010PropOp46
 70
     0
102
RTVSPost2010Prop47
 90
       50
102
RTVSPost2010PropOp47
 70
     0
102
RTVSPost2010Prop48
 90
       50
102
RTVSPost2010PropOp48
 70
     0
102
RTVSPost2010Prop49
280
     0
102
RTVSPost2010PropOp49
 70
     1
102
RTVSPost2010Prop50
 90
       50
102
RTVSPost2010PropOp50
 70
     0
102
RTVSPost2010Prop51ColorIndex
 90
      256
102
RTVSPost2010Prop51ColorRGB
 90
-16777216
102
RTVSPost2010PropOp51
 70
     0
102
RTVSPost2010Prop52
140
1.0
102
RTVSPost2010PropOp52
 70
     0
102
RTVSPost2010Prop53
 90
        2
102
RTVSPost2010PropOp53
 70
     0
102
RTVSPost2010Prop54
  1
strokes_ogs.tif
102
RTVSPost2010PropOp54
 70
     0
102
RTVSPost2010Prop55
280
     0
102
RTVSPost2010PropOp55
 70
     1
102
RTVSPost2010Prop56
140
1.0
102
RTVSPost2010PropOp56
 70
     0
102
RTVSPost2010Prop57
140
1.0
102
RTVSPost2010PropOp57
 70
     0
102
RTVSPropertyOp0
 70
     0
102
RTVSPropertyOp1
 70
     0
102
RTVSPropertyOp2
 70
     0
102
RTVSPropertyOp3
 70
     0
102
RTVSPropertyOp4
 70
     0
102
RTVSPropertyOp5
 70
     0
102
RTVSPropertyOp6
 70
     0
102
RTVSPropertyOp7
 70
     0
102
RTVSPropertyOp8
 70
     0
102
RTVSPropertyOp9
 70
     0
102
RTVSPropertyOp10
 70
     0
102
RTVSPropertyOp11
 70
     0
102
RTVSPropertyOp12
 70
     0
102
RTVSPropertyOp13
 70
     0
102
RTVSPropertyOp14
 70
     2
102
RTVSPropertyOp15
 70
     0
102
RTVSPropertyOp16
 70
     0
102
RTVSPropertyOp17
 70
     0
102
RTVSPropertyOp18
 70
     0
102
RTVSPropertyOp19
 70
     0
102
RTVSPropertyOp20
 70
     0
102
RTVSPropertyOp21
 70
     0
102
RTVSPropertyOp22
 70
     0
102
RTVSPropertyOp23
 70
     0
102
RTVSPropertyOp24
 70
     0
102
RTVSPropertyOp25
 70
     0
102
RTVSPropertyOp26
 70
     0
102
RTVSPropertyOp27
 70
     0
102
RTVSPropertyOp28
 70
     1
102
RTVSPropertyOp29
 70
     1
102
RTVSPropertyOp30
 70
     1
102
RTVSPropertyOp31
 70
     1
102
RTVSPropertyOp32
 70
     1
102
RTVSPropertyOp33
 70
     1
102
RTVSPropertyOp34
 70
     1
102
RTVSPropertyOp35
 70
     1
102
RTVSPropertyOp36
 70
     1
102
RTVSPropertyOp37
 70
     0
102
RTVSPropertyOp38
 70
     0
102
RTVSPropertyOp39
 70
     0
102
RTVSPropertyOp40
 70
     0
102
RTVSPropertyOp41
 70
     0
102
RTVSPropertyOp42
 70
     0
102
RTVSPropertyOp43
 70
     0
102
RTVSPropertyOp44
 70
     0
102
RTVSPropertyOp45
 70
     1
102
RTVSPropertyOp46
 70
     0
102
RTVSPropertyOp47
 70
     0
102
RTVSPropertyOp48
 70
     0
102
RTVSPropertyOp49
 70
     1
102
RTVSPropertyOp50
 70
     0
102
RTVSPropertyOp51
 70
     0
102
RTVSPropertyOp52
 70
     0
102
RTVSPropertyOp53
 70
     0
102
RTVSPropertyOp54
 70
     0
102
RTVSPropertyOp55
 70
     1
102
RTVSPropertyOp56
 70
     0
102
RTVSPropertyOp57
 70
     0
102
RTVSPropertyOp58
 70
     0
102
RTVSPropertyOp59
 70
     0
102
RTVSPropertyOp60
 70
     0
102
RTVSPropertyOp61
 70
     0
102
RTVSPropertyOp62
 70
     0
  0
XRECORD
  5
205
102
{ACAD_REACTORS
330
204
102
}
330
204
100
AcDbXrecord
280
     1
102
RTVSPost2010Prop28
280
     0
102
RTVSPost2010PropOp28
 70
     1
102
RTVSPost2010Prop29
280
     1
102
RTVSPost2010PropOp29
 70
     1
102
RTVSPost2010Prop30
280
     1
102
RTVSPost2010PropOp30
 70
     1
102
RTVSPost2010Prop31
280
     0
102
RTVSPost2010PropOp31
 70
     1
102
RTVSPost2010Prop32
280
     0
102
RTVSPost2010PropOp32
 70
     1
102
RTVSPost2010Prop33
280
     0
102
RTVSPost2010PropOp33
 70
     1
102
RTVSPost2010Prop34
280
     0
102
RTVSPost2010PropOp34
 70
     1
102
RTVSPost2010Prop35
280
     0
102
RTVSPost2010PropOp35
 70
     1
102
RTVSPost2010Prop36
280
     0
102
RTVSPost2010PropOp36
 70
     1
102
RTVSPost2010Prop37
 90
       50
102
RTVSPost2010PropOp37
 70
     1
102
RTVSPost2010Prop38
140
0.0
102
RTVSPost2010PropOp38
 70
     1
102
RTVSPost2010Prop39
140
1.0
102
RTVSPost2010PropOp39
 70
     1
102
RTVSPost2010Prop40
 90
        0
102
RTVSPost2010PropOp40
 70
     1
102
RTVSPost2010Prop41ColorIndex
 90
       18
102
RTVSPost2010Prop41ColorRGB
 90
        0
102
RTVSPost2010PropOp41
 70
     1
102
RTVSPost2010Prop42
 90
       50
102
RTVSPost2010PropOp42
 70
     1
102
RTVSPost2010Prop43
 90
        3
102
RTVSPost2010PropOp43
 70
     1
102
RTVSPost2010Prop44ColorIndex
 90
        5
102
RTVSPost2010Prop44ColorRGB
 90
      255
102
RTVSPost2010PropOp44
 70
     1
102
RTVSPost2010Prop45
280
     0
102
RTVSPost2010PropOp45
 70
     1
102
RTVSPost2010Prop46
 90
       50
102
RTVSPost2010PropOp46
 70
     1
102
RTVSPost2010Prop47
 90
       50
102
RTVSPost2010PropOp47
 70
     1
102
RTVSPost2010Prop48
 90
       50
102
RTVSPost2010PropOp48
 70
     1
102
RTVSPost2010Prop49
280
     0
102
RTVSPost2010PropOp49
 70
     1
102
RTVSPost2010Prop50
 90
       50
102
RTVSPost2010PropOp50
 70
     1
102
RTVSPost2010Prop51ColorIndex
 90
      256
102
RTVSPost2010Prop51ColorRGB
 90
-16777216
102
RTVSPost2010PropOp51
 70
     0
102
RTVSPost2010Prop52
140
1.0
102
RTVSPost2010PropOp52
 70
     0
102
RTVSPost2010Prop53
 90
        2
102
RTVSPost2010PropOp53
 70
     1
102
RTVSPost2010Prop54
  1
strokes_ogs.tif
102
RTVSPost2010PropOp54
 70
     1
102
RTVSPost2010Prop55
280
     0
102
RTVSPost2010PropOp55
 70
     1
102
RTVSPost2010Prop56
140
1.0
102
RTVSPost2010PropOp56
 70
     1
102
RTVSPost2010Prop57
140
1.0
102
RTVSPost2010PropOp57
 70
     1
102
RTVSPropertyOp0
 70
     1
102
RTVSPropertyOp1
 70
     1
102
RTVSPropertyOp2
 70
     1
102
RTVSPropertyOp3
 70
     1
102
RTVSPropertyOp4
 70
     1
102
RTVSPropertyOp5
 70
     1
102
RTVSPropertyOp6
 70
     1
102
RTVSPropertyOp7
 70
     1
102
RTVSPropertyOp8
 70
     1
102
RTVSPropertyOp9
 70
     1
102
RTVSPropertyOp10
 70
     1
102
RTVSPropertyOp11
 70
     1
102
RTVSPropertyOp12
 70
     1
102
RTVSPropertyOp13
 70
     1
102
RTVSPropertyOp14
 70
     1
102
RTVSPropertyOp15
 70
     1
102
RTVSPropertyOp16
 70
     1
102
RTVSPropertyOp17
 70
     1
102
RTVSPropertyOp18
 70
     1
102
RTVSPropertyOp19
 70
     1
102
RTVSPropertyOp20
 70
     1
102
RTVSPropertyOp21
 70
     1
102
RTVSPropertyOp22
 70
     1
102
RTVSPropertyOp23
 70
     1
102
RTVSPropertyOp24
 70
     1
102
RTVSPropertyOp25
 70
     1
102
RTVSPropertyOp26
 70
     1
102
RTVSPropertyOp27
 70
     1
102
RTVSPropertyOp28
 70
     1
102
RTVSPropertyOp29
 70
     1
102
RTVSPropertyOp30
 70
     1
102
RTVSPropertyOp31
 70
     1
102
RTVSPropertyOp32
 70
     1
102
RTVSPropertyOp33
 70
     1
102
RTVSPropertyOp34
 70
     1
102
RTVSPropertyOp35
 70
     1
102
RTVSPropertyOp36
 70
     1
102
RTVSPropertyOp37
 70
     1
102
RTVSPropertyOp38
 70
     1
102
RTVSPropertyOp39
 70
     1
102
RTVSPropertyOp40
 70
     1
102
RTVSPropertyOp41
 70
     1
102
RTVSPropertyOp42
 70
     1
102
RTVSPropertyOp43
 70
     1
102
RTVSPropertyOp44
 70
     1
102
RTVSPropertyOp45
 70
     1
102
RTVSPropertyOp46
 70
     1
102
RTVSPropertyOp47
 70
     1
102
RTVSPropertyOp48
 70
     1
102
RTVSPropertyOp49
 70
     1
102
RTVSPropertyOp50
 70
     1
102
RTVSPropertyOp51
 70
     0
102
RTVSPropertyOp52
 70
     0
102
RTVSPropertyOp53
 70
     1
102
RTVSPropertyOp54
 70
     1
102
RTVSPropertyOp55
 70
     1
102
RTVSPropertyOp56
 70
     1
102
RTVSPropertyOp57
 70
     1
102
RTVSPropertyOp58
 70
     1
102
RTVSPropertyOp59
 70
     1
102
RTVSPropertyOp60
 70
     1
102
RTVSPropertyOp61
 70
     1
102
RTVSPropertyOp62
 70
     1
  0
XRECORD
  5
217
102
{ACAD_REACTORS
330
216
102
}
330
216
100
AcDbXrecord
280
     1
102
RTVSPost2010Prop28
280
     0
102
RTVSPost2010PropOp28
 70
     1
102
RTVSPost2010Prop29
280
     1
102
RTVSPost2010PropOp29
 70
     1
102
RTVSPost2010Prop30
280
     1
102
RTVSPost2010PropOp30
 70
     1
102
RTVSPost2010Prop31
280
     0
102
RTVSPost2010PropOp31
 70
     1
102
RTVSPost2010Prop32
280
     0
102
RTVSPost2010PropOp32
 70
     1
102
RTVSPost2010Prop33
280
     0
102
RTVSPost2010PropOp33
 70
     1
102
RTVSPost2010Prop34
280
     0
102
RTVSPost2010PropOp34
 70
     1
102
RTVSPost2010Prop35
280
     0
102
RTVSPost2010PropOp35
 70
     1
102
RTVSPost2010Prop36
280
     0
102
RTVSPost2010PropOp36
 70
     1
102
RTVSPost2010Prop37
 90
       50
102
RTVSPost2010PropOp37
 70
     0
102
RTVSPost2010Prop38
140
0.0
102
RTVSPost2010PropOp38
 70
     0
102
RTVSPost2010Prop39
140
1.0
102
RTVSPost2010PropOp39
 70
     0
102
RTVSPost2010Prop40
 90
        0
102
RTVSPost2010PropOp40
 70
     0
102
RTVSPost2010Prop41ColorIndex
 90
       18
102
RTVSPost2010Prop41ColorRGB
 90
        0
102
RTVSPost2010PropOp41
 70
     0
102
RTVSPost2010Prop42
 90
       50
102
RTVSPost2010PropOp42
 70
     0
102
RTVSPost2010Prop43
 90
        3
102
RTVSPost2010PropOp43
 70
     0
102
RTVSPost2010Prop44ColorIndex
 90
        5
102
RTVSPost2010Prop44ColorRGB
 90
      255
102
RTVSPost2010PropOp44
 70
     0
102
RTVSPost2010Prop45
280
     0
102
RTVSPost2010PropOp45
 70
     1
102
RTVSPost2010Prop46
 90
       50
102
RTVSPost2010PropOp46
 70
     0
102
RTVSPost2010Prop47
 90
       50
102
RTVSPost2010PropOp47
 70
     0
102
RTVSPost2010Prop48
 90
       50
102
RTVSPost2010PropOp48
 70
     0
102
RTVSPost2010Prop49
280
     0
102
RTVSPost2010PropOp49
 70
     1
102
RTVSPost2010Prop50
 90
       50
102
RTVSPost2010PropOp50
 70
     0
102
RTVSPost2010Prop51ColorIndex
 90
      256
102
RTVSPost2010Prop51ColorRGB
 90
-16777216
102
RTVSPost2010PropOp51
 70
     0
102
RTVSPost2010Prop52
140
1.0
102
RTVSPost2010PropOp52
 70
     0
102
RTVSPost2010Prop53
 90
        2
102
RTVSPost2010PropOp53
 70
     0
102
RTVSPost2010Prop54
  1
strokes_ogs.tif
102
RTVSPost2010PropOp54
 70
     0
102
RTVSPost2010Prop55
280
     0
102
RTVSPost2010PropOp55
 70
     1
102
RTVSPost2010Prop56
140
1.0
102
RTVSPost2010PropOp56
 70
     0
102
RTVSPost2010Prop57
140
1.0
102
RTVSPost2010PropOp57
 70
     0
102
RTVSPropertyOp0
 70
     0
102
RTVSPropertyOp1
 70
     0
102
RTVSPropertyOp2
 70
     0
102
RTVSPropertyOp3
 70
     0
102
RTVSPropertyOp4
 70
     0
102
RTVSPropertyOp5
 70
     0
102
RTVSPropertyOp6
 70
     0
102
RTVSPropertyOp7
 70
     0
102
RTVSPropertyOp8
 70
     0
102
RTVSPropertyOp9
 70
     0
102
RTVSPropertyOp10
 70
     0
102
RTVSPropertyOp11
 70
     0
102
RTVSPropertyOp12
 70
     0
102
RTVSPropertyOp13
 70
     0
102
RTVSPropertyOp14
 70
     2
102
RTVSPropertyOp15
 70
     0
102
RTVSPropertyOp16
 70
     0
102
RTVSPropertyOp17
 70
     0
102
RTVSPropertyOp18
 70
     0
102
RTVSPropertyOp19
 70
     0
102
RTVSPropertyOp20
 70
     0
102
RTVSPropertyOp21
 70
     0
102
RTVSPropertyOp22
 70
     0
102
RTVSPropertyOp23
 70
     0
102
RTVSPropertyOp24
 70
     0
102
RTVSPropertyOp25
 70
     0
102
RTVSPropertyOp26
 70
     0
102
RTVSPropertyOp27
 70
     0
102
RTVSPropertyOp28
 70
     1
102
RTVSPropertyOp29
 70
     1
102
RTVSPropertyOp30
 70
     1
102
RTVSPropertyOp31
 70
     1
102
RTVSPropertyOp32
 70
     1
102
RTVSPropertyOp33
 70
     1
102
RTVSPropertyOp34
 70
     1
102
RTVSPropertyOp35
 70
     1
102
RTVSPropertyOp36
 70
     1
102
RTVSPropertyOp37
 70
     0
102
RTVSPropertyOp38
 70
     0
102
RTVSPropertyOp39
 70
     0
102
RTVSPropertyOp40
 70
     0
102
RTVSPropertyOp41
 70
     0
102
RTVSPropertyOp42
 70
     0
102
RTVSPropertyOp43
 70
     0
102
RTVSPropertyOp44
 70
     0
102
RTVSPropertyOp45
 70
     1
102
RTVSPropertyOp46
 70
     0
102
RTVSPropertyOp47
 70
     0
102
RTVSPropertyOp48
 70
     0
102
RTVSPropertyOp49
 70
     1
102
RTVSPropertyOp50
 70
     0
102
RTVSPropertyOp51
 70
     0
102
RTVSPropertyOp52
 70
     0
102
RTVSPropertyOp53
 70
     0
102
RTVSPropertyOp54
 70
     0
102
RTVSPropertyOp55
 70
     1
102
RTVSPropertyOp56
 70
     0
102
RTVSPropertyOp57
 70
     0
102
RTVSPropertyOp58
 70
     0
102
RTVSPropertyOp59
 70
     0
102
RTVSPropertyOp60
 70
     0
102
RTVSPropertyOp61
 70
     0
102
RTVSPropertyOp62
 70
     0
  0
XRECORD
  5
1FD
102
{ACAD_REACTORS
330
1FC
102
}
330
1FC
100
AcDbXrecord
280
     1
102
RTVSPost2010Prop28
280
     0
102
RTVSPost2010PropOp28
 70
     1
102
RTVSPost2010Prop29
280
     1
102
RTVSPost2010PropOp29
 70
     1
102
RTVSPost2010Prop30
280
     1
102
RTVSPost2010PropOp30
 70
     1
102
RTVSPost2010Prop31
280
     0
102
RTVSPost2010PropOp31
 70
     1
102
RTVSPost2010Prop32
280
     0
102
RTVSPost2010PropOp32
 70
     1
102
RTVSPost2010Prop33
280
     0
102
RTVSPost2010PropOp33
 70
     1
102
RTVSPost2010Prop34
280
     0
102
RTVSPost2010PropOp34
 70
     1
102
RTVSPost2010Prop35
280
     0
102
RTVSPost2010PropOp35
 70
     1
102
RTVSPost2010Prop36
280
     0
102
RTVSPost2010PropOp36
 70
     1
102
RTVSPost2010Prop37
 90
       50
102
RTVSPost2010PropOp37
 70
     1
102
RTVSPost2010Prop38
140
0.0
102
RTVSPost2010PropOp38
 70
     1
102
RTVSPost2010Prop39
140
1.0
102
RTVSPost2010PropOp39
 70
     1
102
RTVSPost2010Prop40
 90
        0
102
RTVSPost2010PropOp40
 70
     1
102
RTVSPost2010Prop41ColorIndex
 90
       18
102
RTVSPost2010Prop41ColorRGB
 90
        0
102
RTVSPost2010PropOp41
 70
     1
102
RTVSPost2010Prop42
 90
       50
102
RTVSPost2010PropOp42
 70
     1
102
RTVSPost2010Prop43
 90
        3
102
RTVSPost2010PropOp43
 70
     1
102
RTVSPost2010Prop44ColorIndex
 90
        5
102
RTVSPost2010Prop44ColorRGB
 90
      255
102
RTVSPost2010PropOp44
 70
     1
102
RTVSPost2010Prop45
280
     0
102
RTVSPost2010PropOp45
 70
     1
102
RTVSPost2010Prop46
 90
       50
102
RTVSPost2010PropOp46
 70
     1
102
RTVSPost2010Prop47
 90
       50
102
RTVSPost2010PropOp47
 70
     1
102
RTVSPost2010Prop48
 90
       50
102
RTVSPost2010PropOp48
 70
     1
102
RTVSPost2010Prop49
280
     0
102
RTVSPost2010PropOp49
 70
     1
102
RTVSPost2010Prop50
 90
       50
102
RTVSPost2010PropOp50
 70
     1
102
RTVSPost2010Prop51ColorIndex
 90
      256
102
RTVSPost2010Prop51ColorRGB
 90
-16777216
102
RTVSPost2010PropOp51
 70
     0
102
RTVSPost2010Prop52
140
1.0
102
RTVSPost2010PropOp52
 70
     0
102
RTVSPost2010Prop53
 90
        2
102
RTVSPost2010PropOp53
 70
     1
102
RTVSPost2010Prop54
  1
strokes_ogs.tif
102
RTVSPost2010PropOp54
 70
     1
102
RTVSPost2010Prop55
280
     0
102
RTVSPost2010PropOp55
 70
     1
102
RTVSPost2010Prop56
140
1.0
102
RTVSPost2010PropOp56
 70
     1
102
RTVSPost2010Prop57
140
1.0
102
RTVSPost2010PropOp57
 70
     1
102
RTVSPropertyOp0
 70
     1
102
RTVSPropertyOp1
 70
     1
102
RTVSPropertyOp2
 70
     1
102
RTVSPropertyOp3
 70
     1
102
RTVSPropertyOp4
 70
     1
102
RTVSPropertyOp5
 70
     1
102
RTVSPropertyOp6
 70
     1
102
RTVSPropertyOp7
 70
     1
102
RTVSPropertyOp8
 70
     1
102
RTVSPropertyOp9
 70
     1
102
RTVSPropertyOp10
 70
     1
102
RTVSPropertyOp11
 70
     1
102
RTVSPropertyOp12
 70
     1
102
RTVSPropertyOp13
 70
     1
102
RTVSPropertyOp14
 70
     1
102
RTVSPropertyOp15
 70
     1
102
RTVSPropertyOp16
 70
     1
102
RTVSPropertyOp17
 70
     1
102
RTVSPropertyOp18
 70
     1
102
RTVSPropertyOp19
 70
     1
102
RTVSPropertyOp20
 70
     1
102
RTVSPropertyOp21
 70
     1
102
RTVSPropertyOp22
 70
     1
102
RTVSPropertyOp23
 70
     1
102
RTVSPropertyOp24
 70
     1
102
RTVSPropertyOp25
 70
     1
102
RTVSPropertyOp26
 70
     1
102
RTVSPropertyOp27
 70
     1
102
RTVSPropertyOp28
 70
     1
102
RTVSPropertyOp29
 70
     1
102
RTVSPropertyOp30
 70
     1
102
RTVSPropertyOp31
 70
     1
102
RTVSPropertyOp32
 70
     1
102
RTVSPropertyOp33
 70
     1
102
RTVSPropertyOp34
 70
     1
102
RTVSPropertyOp35
 70
     1
102
RTVSPropertyOp36
 70
     1
102
RTVSPropertyOp37
 70
     1
102
RTVSPropertyOp38
 70
     1
102
RTVSPropertyOp39
 70
     1
102
RTVSPropertyOp40
 70
     1
102
RTVSPropertyOp41
 70
     1
102
RTVSPropertyOp42
 70
     1
102
RTVSPropertyOp43
 70
     1
102
RTVSPropertyOp44
 70
     1
102
RTVSPropertyOp45
 70
     1
102
RTVSPropertyOp46
 70
     1
102
RTVSPropertyOp47
 70
     1
102
RTVSPropertyOp48
 70
     1
102
RTVSPropertyOp49
 70
     1
102
RTVSPropertyOp50
 70
     1
102
RTVSPropertyOp51
 70
     0
102
RTVSPropertyOp52
 70
     0
102
RTVSPropertyOp53
 70
     1
102
RTVSPropertyOp54
 70
     1
102
RTVSPropertyOp55
 70
     1
102
RTVSPropertyOp56
 70
     1
102
RTVSPropertyOp57
 70
     1
102
RTVSPropertyOp58
 70
     1
102
RTVSPropertyOp59
 70
     1
102
RTVSPropertyOp60
 70
     1
102
RTVSPropertyOp61
 70
     1
102
RTVSPropertyOp62
 70
     1
  0
XRECORD
  5
213
102
{ACAD_REACTORS
330
212
102
}
330
212
100
AcDbXrecord
280
     1
102
RTVSPost2010Prop28
280
     0
102
RTVSPost2010PropOp28
 70
     1
102
RTVSPost2010Prop29
280
     1
102
RTVSPost2010PropOp29
 70
     1
102
RTVSPost2010Prop30
280
     1
102
RTVSPost2010PropOp30
 70
     1
102
RTVSPost2010Prop31
280
     0
102
RTVSPost2010PropOp31
 70
     1
102
RTVSPost2010Prop32
280
     0
102
RTVSPost2010PropOp32
 70
     1
102
RTVSPost2010Prop33
280
     0
102
RTVSPost2010PropOp33
 70
     1
102
RTVSPost2010Prop34
280
     0
102
RTVSPost2010PropOp34
 70
     1
102
RTVSPost2010Prop35
280
     0
102
RTVSPost2010PropOp35
 70
     1
102
RTVSPost2010Prop36
280
     0
102
RTVSPost2010PropOp36
 70
     1
102
RTVSPost2010Prop37
 90
       50
102
RTVSPost2010PropOp37
 70
     1
102
RTVSPost2010Prop38
140
0.0
102
RTVSPost2010PropOp38
 70
     1
102
RTVSPost2010Prop39
140
1.0
102
RTVSPost2010PropOp39
 70
     1
102
RTVSPost2010Prop40
 90
        0
102
RTVSPost2010PropOp40
 70
     1
102
RTVSPost2010Prop41ColorIndex
 90
       18
102
RTVSPost2010Prop41ColorRGB
 90
        0
102
RTVSPost2010PropOp41
 70
     1
102
RTVSPost2010Prop42
 90
       50
102
RTVSPost2010PropOp42
 70
     1
102
RTVSPost2010Prop43
 90
        3
102
RTVSPost2010PropOp43
 70
     1
102
RTVSPost2010Prop44ColorIndex
 90
        5
102
RTVSPost2010Prop44ColorRGB
 90
      255
102
RTVSPost2010PropOp44
 70
     1
102
RTVSPost2010Prop45
280
     0
102
RTVSPost2010PropOp45
 70
     1
102
RTVSPost2010Prop46
 90
       50
102
RTVSPost2010PropOp46
 70
     1
102
RTVSPost2010Prop47
 90
       50
102
RTVSPost2010PropOp47
 70
     1
102
RTVSPost2010Prop48
 90
       50
102
RTVSPost2010PropOp48
 70
     1
102
RTVSPost2010Prop49
280
     0
102
RTVSPost2010PropOp49
 70
     1
102
RTVSPost2010Prop50
 90
       50
102
RTVSPost2010PropOp50
 70
     1
102
RTVSPost2010Prop51ColorIndex
 90
      256
102
RTVSPost2010Prop51ColorRGB
 90
-16777216
102
RTVSPost2010PropOp51
 70
     0
102
RTVSPost2010Prop52
140
1.0
102
RTVSPost2010PropOp52
 70
     0
102
RTVSPost2010Prop53
 90
        2
102
RTVSPost2010PropOp53
 70
     1
102
RTVSPost2010Prop54
  1
strokes_ogs.tif
102
RTVSPost2010PropOp54
 70
     1
102
RTVSPost2010Prop55
280
     0
102
RTVSPost2010PropOp55
 70
     1
102
RTVSPost2010Prop56
140
1.0
102
RTVSPost2010PropOp56
 70
     1
102
RTVSPost2010Prop57
140
1.0
102
RTVSPost2010PropOp57
 70
     1
102
RTVSPropertyOp0
 70
     1
102
RTVSPropertyOp1
 70
     1
102
RTVSPropertyOp2
 70
     1
102
RTVSPropertyOp3
 70
     1
102
RTVSPropertyOp4
 70
     1
102
RTVSPropertyOp5
 70
     1
102
RTVSPropertyOp6
 70
     1
102
RTVSPropertyOp7
 70
     1
102
RTVSPropertyOp8
 70
     1
102
RTVSPropertyOp9
 70
     1
102
RTVSPropertyOp10
 70
     1
102
RTVSPropertyOp11
 70
     1
102
RTVSPropertyOp12
 70
     1
102
RTVSPropertyOp13
 70
     1
102
RTVSPropertyOp14
 70
     1
102
RTVSPropertyOp15
 70
     1
102
RTVSPropertyOp16
 70
     1
102
RTVSPropertyOp17
 70
     1
102
RTVSPropertyOp18
 70
     1
102
RTVSPropertyOp19
 70
     1
102
RTVSPropertyOp20
 70
     1
102
RTVSPropertyOp21
 70
     1
102
RTVSPropertyOp22
 70
     1
102
RTVSPropertyOp23
 70
     1
102
RTVSPropertyOp24
 70
     1
102
RTVSPropertyOp25
 70
     1
102
RTVSPropertyOp26
 70
     1
102
RTVSPropertyOp27
 70
     1
102
RTVSPropertyOp28
 70
     1
102
RTVSPropertyOp29
 70
     1
102
RTVSPropertyOp30
 70
     1
102
RTVSPropertyOp31
 70
     1
102
RTVSPropertyOp32
 70
     1
102
RTVSPropertyOp33
 70
     1
102
RTVSPropertyOp34
 70
     1
102
RTVSPropertyOp35
 70
     1
102
RTVSPropertyOp36
 70
     1
102
RTVSPropertyOp37
 70
     1
102
RTVSPropertyOp38
 70
     1
102
RTVSPropertyOp39
 70
     1
102
RTVSPropertyOp40
 70
     1
102
RTVSPropertyOp41
 70
     1
102
RTVSPropertyOp42
 70
     1
102
RTVSPropertyOp43
 70
     1
102
RTVSPropertyOp44
 70
     1
102
RTVSPropertyOp45
 70
     1
102
RTVSPropertyOp46
 70
     1
102
RTVSPropertyOp47
 70
     1
102
RTVSPropertyOp48
 70
     1
102
RTVSPropertyOp49
 70
     1
102
RTVSPropertyOp50
 70
     1
102
RTVSPropertyOp51
 70
     0
102
RTVSPropertyOp52
 70
     0
102
RTVSPropertyOp53
 70
     1
102
RTVSPropertyOp54
 70
     1
102
RTVSPropertyOp55
 70
     1
102
RTVSPropertyOp56
 70
     1
102
RTVSPropertyOp57
 70
     1
102
RTVSPropertyOp58
 70
     1
102
RTVSPropertyOp59
 70
     1
102
RTVSPropertyOp60
 70
     1
102
RTVSPropertyOp61
 70
     1
102
RTVSPropertyOp62
 70
     1
  0
XRECORD
  5
211
102
{ACAD_REACTORS
330
210
102
}
330
210
100
AcDbXrecord
280
     1
102
RTVSPost2010Prop28
280
     0
102
RTVSPost2010PropOp28
 70
     1
102
RTVSPost2010Prop29
280
     1
102
RTVSPost2010PropOp29
 70
     1
102
RTVSPost2010Prop30
280
     1
102
RTVSPost2010PropOp30
 70
     1
102
RTVSPost2010Prop31
280
     0
102
RTVSPost2010PropOp31
 70
     1
102
RTVSPost2010Prop32
280
     0
102
RTVSPost2010PropOp32
 70
     1
102
RTVSPost2010Prop33
280
     0
102
RTVSPost2010PropOp33
 70
     1
102
RTVSPost2010Prop34
280
     0
102
RTVSPost2010PropOp34
 70
     1
102
RTVSPost2010Prop35
280
     0
102
RTVSPost2010PropOp35
 70
     1
102
RTVSPost2010Prop36
280
     0
102
RTVSPost2010PropOp36
 70
     1
102
RTVSPost2010Prop37
 90
       50
102
RTVSPost2010PropOp37
 70
     1
102
RTVSPost2010Prop38
140
0.0
102
RTVSPost2010PropOp38
 70
     1
102
RTVSPost2010Prop39
140
1.0
102
RTVSPost2010PropOp39
 70
     1
102
RTVSPost2010Prop40
 90
        0
102
RTVSPost2010PropOp40
 70
     1
102
RTVSPost2010Prop41ColorIndex
 90
       18
102
RTVSPost2010Prop41ColorRGB
 90
        0
102
RTVSPost2010PropOp41
 70
     1
102
RTVSPost2010Prop42
 90
       50
102
RTVSPost2010PropOp42
 70
     1
102
RTVSPost2010Prop43
 90
        3
102
RTVSPost2010PropOp43
 70
     1
102
RTVSPost2010Prop44ColorIndex
 90
        5
102
RTVSPost2010Prop44ColorRGB
 90
      255
102
RTVSPost2010PropOp44
 70
     1
102
RTVSPost2010Prop45
280
     0
102
RTVSPost2010PropOp45
 70
     1
102
RTVSPost2010Prop46
 90
       50
102
RTVSPost2010PropOp46
 70
     1
102
RTVSPost2010Prop47
 90
       50
102
RTVSPost2010PropOp47
 70
     1
102
RTVSPost2010Prop48
 90
       50
102
RTVSPost2010PropOp48
 70
     1
102
RTVSPost2010Prop49
280
     0
102
RTVSPost2010PropOp49
 70
     1
102
RTVSPost2010Prop50
 90
       50
102
RTVSPost2010PropOp50
 70
     1
102
RTVSPost2010Prop51ColorIndex
 90
      256
102
RTVSPost2010Prop51ColorRGB
 90
-16777216
102
RTVSPost2010PropOp51
 70
     0
102
RTVSPost2010Prop52
140
1.0
102
RTVSPost2010PropOp52
 70
     0
102
RTVSPost2010Prop53
 90
        2
102
RTVSPost2010PropOp53
 70
     1
102
RTVSPost2010Prop54
  1
strokes_ogs.tif
102
RTVSPost2010PropOp54
 70
     1
102
RTVSPost2010Prop55
280
     0
102
RTVSPost2010PropOp55
 70
     1
102
RTVSPost2010Prop56
140
1.0
102
RTVSPost2010PropOp56
 70
     1
102
RTVSPost2010Prop57
140
1.0
102
RTVSPost2010PropOp57
 70
     1
102
RTVSPropertyOp0
 70
     1
102
RTVSPropertyOp1
 70
     1
102
RTVSPropertyOp2
 70
     1
102
RTVSPropertyOp3
 70
     1
102
RTVSPropertyOp4
 70
     1
102
RTVSPropertyOp5
 70
     1
102
RTVSPropertyOp6
 70
     1
102
RTVSPropertyOp7
 70
     1
102
RTVSPropertyOp8
 70
     1
102
RTVSPropertyOp9
 70
     1
102
RTVSPropertyOp10
 70
     1
102
RTVSPropertyOp11
 70
     1
102
RTVSPropertyOp12
 70
     1
102
RTVSPropertyOp13
 70
     1
102
RTVSPropertyOp14
 70
     1
102
RTVSPropertyOp15
 70
     1
102
RTVSPropertyOp16
 70
     1
102
RTVSPropertyOp17
 70
     1
102
RTVSPropertyOp18
 70
     1
102
RTVSPropertyOp19
 70
     1
102
RTVSPropertyOp20
 70
     1
102
RTVSPropertyOp21
 70
     1
102
RTVSPropertyOp22
 70
     1
102
RTVSPropertyOp23
 70
     1
102
RTVSPropertyOp24
 70
     1
102
RTVSPropertyOp25
 70
     1
102
RTVSPropertyOp26
 70
     1
102
RTVSPropertyOp27
 70
     1
102
RTVSPropertyOp28
 70
     1
102
RTVSPropertyOp29
 70
     1
102
RTVSPropertyOp30
 70
     1
102
RTVSPropertyOp31
 70
     1
102
RTVSPropertyOp32
 70
     1
102
RTVSPropertyOp33
 70
     1
102
RTVSPropertyOp34
 70
     1
102
RTVSPropertyOp35
 70
     1
102
RTVSPropertyOp36
 70
     1
102
RTVSPropertyOp37
 70
     1
102
RTVSPropertyOp38
 70
     1
102
RTVSPropertyOp39
 70
     1
102
RTVSPropertyOp40
 70
     1
102
RTVSPropertyOp41
 70
     1
102
RTVSPropertyOp42
 70
     1
102
RTVSPropertyOp43
 70
     1
102
RTVSPropertyOp44
 70
     1
102
RTVSPropertyOp45
 70
     1
102
RTVSPropertyOp46
 70
     1
102
RTVSPropertyOp47
 70
     1
102
RTVSPropertyOp48
 70
     1
102
RTVSPropertyOp49
 70
     1
102
RTVSPropertyOp50
 70
     1
102
RTVSPropertyOp51
 70
     0
102
RTVSPropertyOp52
 70
     0
102
RTVSPropertyOp53
 70
     1
102
RTVSPropertyOp54
 70
     1
102
RTVSPropertyOp55
 70
     1
102
RTVSPropertyOp56
 70
     1
102
RTVSPropertyOp57
 70
     1
102
RTVSPropertyOp58
 70
     1
102
RTVSPropertyOp59
 70
     1
102
RTVSPropertyOp60
 70
     1
102
RTVSPropertyOp61
 70
     1
102
RTVSPropertyOp62
 70
     1
  0
XRECORD
  5
20B
102
{ACAD_REACTORS
330
20A
102
}
330
20A
100
AcDbXrecord
280
     1
102
RTVSPost2010Prop28
280
     0
102
RTVSPost2010PropOp28
 70
     1
102
RTVSPost2010Prop29
280
     1
102
RTVSPost2010PropOp29
 70
     1
102
RTVSPost2010Prop30
280
     1
102
RTVSPost2010PropOp30
 70
     1
102
RTVSPost2010Prop31
280
     0
102
RTVSPost2010PropOp31
 70
     1
102
RTVSPost2010Prop32
280
     0
102
RTVSPost2010PropOp32
 70
     1
102
RTVSPost2010Prop33
280
     0
102
RTVSPost2010PropOp33
 70
     1
102
RTVSPost2010Prop34
280
     0
102
RTVSPost2010PropOp34
 70
     1
102
RTVSPost2010Prop35
280
     0
102
RTVSPost2010PropOp35
 70
     1
102
RTVSPost2010Prop36
280
     0
102
RTVSPost2010PropOp36
 70
     1
102
RTVSPost2010Prop37
 90
       50
102
RTVSPost2010PropOp37
 70
     1
102
RTVSPost2010Prop38
140
0.0
102
RTVSPost2010PropOp38
 70
     1
102
RTVSPost2010Prop39
140
1.0
102
RTVSPost2010PropOp39
 70
     1
102
RTVSPost2010Prop40
 90
        0
102
RTVSPost2010PropOp40
 70
     1
102
RTVSPost2010Prop41ColorIndex
 90
       18
102
RTVSPost2010Prop41ColorRGB
 90
        0
102
RTVSPost2010PropOp41
 70
     1
102
RTVSPost2010Prop42
 90
       50
102
RTVSPost2010PropOp42
 70
     1
102
RTVSPost2010Prop43
 90
        3
102
RTVSPost2010PropOp43
 70
     1
102
RTVSPost2010Prop44ColorIndex
 90
        5
102
RTVSPost2010Prop44ColorRGB
 90
      255
102
RTVSPost2010PropOp44
 70
     1
102
RTVSPost2010Prop45
280
     0
102
RTVSPost2010PropOp45
 70
     1
102
RTVSPost2010Prop46
 90
       50
102
RTVSPost2010PropOp46
 70
     1
102
RTVSPost2010Prop47
 90
       50
102
RTVSPost2010PropOp47
 70
     1
102
RTVSPost2010Prop48
 90
       50
102
RTVSPost2010PropOp48
 70
     1
102
RTVSPost2010Prop49
280
     0
102
RTVSPost2010PropOp49
 70
     1
102
RTVSPost2010Prop50
 90
       50
102
RTVSPost2010PropOp50
 70
     1
102
RTVSPost2010Prop51ColorIndex
 90
      256
102
RTVSPost2010Prop51ColorRGB
 90
-16777216
102
RTVSPost2010PropOp51
 70
     0
102
RTVSPost2010Prop52
140
1.0
102
RTVSPost2010PropOp52
 70
     0
102
RTVSPost2010Prop53
 90
        2
102
RTVSPost2010PropOp53
 70
     1
102
RTVSPost2010Prop54
  1
strokes_ogs.tif
102
RTVSPost2010PropOp54
 70
     1
102
RTVSPost2010Prop55
280
     0
102
RTVSPost2010PropOp55
 70
     1
102
RTVSPost2010Prop56
140
1.0
102
RTVSPost2010PropOp56
 70
     1
102
RTVSPost2010Prop57
140
1.0
102
RTVSPost2010PropOp57
 70
     1
102
RTVSPropertyOp0
 70
     1
102
RTVSPropertyOp1
 70
     1
102
RTVSPropertyOp2
 70
     1
102
RTVSPropertyOp3
 70
     1
102
RTVSPropertyOp4
 70
     1
102
RTVSPropertyOp5
 70
     1
102
RTVSPropertyOp6
 70
     1
102
RTVSPropertyOp7
 70
     1
102
RTVSPropertyOp8
 70
     1
102
RTVSPropertyOp9
 70
     1
102
RTVSPropertyOp10
 70
     1
102
RTVSPropertyOp11
 70
     1
102
RTVSPropertyOp12
 70
     1
102
RTVSPropertyOp13
 70
     1
102
RTVSPropertyOp14
 70
     1
102
RTVSPropertyOp15
 70
     1
102
RTVSPropertyOp16
 70
     1
102
RTVSPropertyOp17
 70
     1
102
RTVSPropertyOp18
 70
     1
102
RTVSPropertyOp19
 70
     1
102
RTVSPropertyOp20
 70
     1
102
RTVSPropertyOp21
 70
     1
102
RTVSPropertyOp22
 70
     1
102
RTVSPropertyOp23
 70
     1
102
RTVSPropertyOp24
 70
     1
102
RTVSPropertyOp25
 70
     1
102
RTVSPropertyOp26
 70
     1
102
RTVSPropertyOp27
 70
     1
102
RTVSPropertyOp28
 70
     1
102
RTVSPropertyOp29
 70
     1
102
RTVSPropertyOp30
 70
     1
102
RTVSPropertyOp31
 70
     1
102
RTVSPropertyOp32
 70
     1
102
RTVSPropertyOp33
 70
     1
102
RTVSPropertyOp34
 70
     1
102
RTVSPropertyOp35
 70
     1
102
RTVSPropertyOp36
 70
     1
102
RTVSPropertyOp37
 70
     1
102
RTVSPropertyOp38
 70
     1
102
RTVSPropertyOp39
 70
     1
102
RTVSPropertyOp40
 70
     1
102
RTVSPropertyOp41
 70
     1
102
RTVSPropertyOp42
 70
     1
102
RTVSPropertyOp43
 70
     1
102
RTVSPropertyOp44
 70
     1
102
RTVSPropertyOp45
 70
     1
102
RTVSPropertyOp46
 70
     1
102
RTVSPropertyOp47
 70
     1
102
RTVSPropertyOp48
 70
     1
102
RTVSPropertyOp49
 70
     1
102
RTVSPropertyOp50
 70
     1
102
RTVSPropertyOp51
 70
     0
102
RTVSPropertyOp52
 70
     0
102
RTVSPropertyOp53
 70
     1
102
RTVSPropertyOp54
 70
     1
102
RTVSPropertyOp55
 70
     1
102
RTVSPropertyOp56
 70
     1
102
RTVSPropertyOp57
 70
     1
102
RTVSPropertyOp58
 70
     1
102
RTVSPropertyOp59
 70
     1
102
RTVSPropertyOp60
 70
     1
102
RTVSPropertyOp61
 70
     1
102
RTVSPropertyOp62
 70
     1
  0
XRECORD
  5
20D
102
{ACAD_REACTORS
330
20C
102
}
330
20C
100
AcDbXrecord
280
     1
102
RTVSPost2010Prop28
280
     0
102
RTVSPost2010PropOp28
 70
     1
102
RTVSPost2010Prop29
280
     1
102
RTVSPost2010PropOp29
 70
     1
102
RTVSPost2010Prop30
280
     1
102
RTVSPost2010PropOp30
 70
     1
102
RTVSPost2010Prop31
280
     0
102
RTVSPost2010PropOp31
 70
     1
102
RTVSPost2010Prop32
280
     0
102
RTVSPost2010PropOp32
 70
     1
102
RTVSPost2010Prop33
280
     0
102
RTVSPost2010PropOp33
 70
     1
102
RTVSPost2010Prop34
280
     0
102
RTVSPost2010PropOp34
 70
     1
102
RTVSPost2010Prop35
280
     0
102
RTVSPost2010PropOp35
 70
     1
102
RTVSPost2010Prop36
280
     0
102
RTVSPost2010PropOp36
 70
     1
102
RTVSPost2010Prop37
 90
       50
102
RTVSPost2010PropOp37
 70
     1
102
RTVSPost2010Prop38
140
0.0
102
RTVSPost2010PropOp38
 70
     1
102
RTVSPost2010Prop39
140
1.0
102
RTVSPost2010PropOp39
 70
     1
102
RTVSPost2010Prop40
 90
        0
102
RTVSPost2010PropOp40
 70
     1
102
RTVSPost2010Prop41ColorIndex
 90
       18
102
RTVSPost2010Prop41ColorRGB
 90
        0
102
RTVSPost2010PropOp41
 70
     1
102
RTVSPost2010Prop42
 90
       50
102
RTVSPost2010PropOp42
 70
     1
102
RTVSPost2010Prop43
 90
        3
102
RTVSPost2010PropOp43
 70
     1
102
RTVSPost2010Prop44ColorIndex
 90
        5
102
RTVSPost2010Prop44ColorRGB
 90
      255
102
RTVSPost2010PropOp44
 70
     1
102
RTVSPost2010Prop45
280
     0
102
RTVSPost2010PropOp45
 70
     1
102
RTVSPost2010Prop46
 90
       50
102
RTVSPost2010PropOp46
 70
     1
102
RTVSPost2010Prop47
 90
       50
102
RTVSPost2010PropOp47
 70
     1
102
RTVSPost2010Prop48
 90
       50
102
RTVSPost2010PropOp48
 70
     1
102
RTVSPost2010Prop49
280
     0
102
RTVSPost2010PropOp49
 70
     1
102
RTVSPost2010Prop50
 90
       50
102
RTVSPost2010PropOp50
 70
     1
102
RTVSPost2010Prop51ColorIndex
 90
      256
102
RTVSPost2010Prop51ColorRGB
 90
-16777216
102
RTVSPost2010PropOp51
 70
     0
102
RTVSPost2010Prop52
140
1.0
102
RTVSPost2010PropOp52
 70
     0
102
RTVSPost2010Prop53
 90
        2
102
RTVSPost2010PropOp53
 70
     1
102
RTVSPost2010Prop54
  1
strokes_ogs.tif
102
RTVSPost2010PropOp54
 70
     1
102
RTVSPost2010Prop55
280
     0
102
RTVSPost2010PropOp55
 70
     1
102
RTVSPost2010Prop56
140
1.0
102
RTVSPost2010PropOp56
 70
     1
102
RTVSPost2010Prop57
140
1.0
102
RTVSPost2010PropOp57
 70
     1
102
RTVSPropertyOp0
 70
     1
102
RTVSPropertyOp1
 70
     1
102
RTVSPropertyOp2
 70
     1
102
RTVSPropertyOp3
 70
     1
102
RTVSPropertyOp4
 70
     1
102
RTVSPropertyOp5
 70
     1
102
RTVSPropertyOp6
 70
     1
102
RTVSPropertyOp7
 70
     1
102
RTVSPropertyOp8
 70
     1
102
RTVSPropertyOp9
 70
     1
102
RTVSPropertyOp10
 70
     1
102
RTVSPropertyOp11
 70
     1
102
RTVSPropertyOp12
 70
     1
102
RTVSPropertyOp13
 70
     1
102
RTVSPropertyOp14
 70
     1
102
RTVSPropertyOp15
 70
     1
102
RTVSPropertyOp16
 70
     1
102
RTVSPropertyOp17
 70
     1
102
RTVSPropertyOp18
 70
     1
102
RTVSPropertyOp19
 70
     1
102
RTVSPropertyOp20
 70
     1
102
RTVSPropertyOp21
 70
     1
102
RTVSPropertyOp22
 70
     1
102
RTVSPropertyOp23
 70
     1
102
RTVSPropertyOp24
 70
     1
102
RTVSPropertyOp25
 70
     1
102
RTVSPropertyOp26
 70
     1
102
RTVSPropertyOp27
 70
     1
102
RTVSPropertyOp28
 70
     1
102
RTVSPropertyOp29
 70
     1
102
RTVSPropertyOp30
 70
     1
102
RTVSPropertyOp31
 70
     1
102
RTVSPropertyOp32
 70
     1
102
RTVSPropertyOp33
 70
     1
102
RTVSPropertyOp34
 70
     1
102
RTVSPropertyOp35
 70
     1
102
RTVSPropertyOp36
 70
     1
102
RTVSPropertyOp37
 70
     1
102
RTVSPropertyOp38
 70
     1
102
RTVSPropertyOp39
 70
     1
102
RTVSPropertyOp40
 70
     1
102
RTVSPropertyOp41
 70
     1
102
RTVSPropertyOp42
 70
     1
102
RTVSPropertyOp43
 70
     1
102
RTVSPropertyOp44
 70
     1
102
RTVSPropertyOp45
 70
     1
102
RTVSPropertyOp46
 70
     1
102
RTVSPropertyOp47
 70
     1
102
RTVSPropertyOp48
 70
     1
102
RTVSPropertyOp49
 70
     1
102
RTVSPropertyOp50
 70
     1
102
RTVSPropertyOp51
 70
     0
102
RTVSPropertyOp52
 70
     0
102
RTVSPropertyOp53
 70
     1
102
RTVSPropertyOp54
 70
     1
102
RTVSPropertyOp55
 70
     1
102
RTVSPropertyOp56
 70
     1
102
RTVSPropertyOp57
 70
     1
102
RTVSPropertyOp58
 70
     1
102
RTVSPropertyOp59
 70
     1
102
RTVSPropertyOp60
 70
     1
102
RTVSPropertyOp61
 70
     1
102
RTVSPropertyOp62
 70
     1
  0
XRECORD
  5
203
102
{ACAD_REACTORS
330
202
102
}
330
202
100
AcDbXrecord
280
     1
102
RTVSPost2010Prop28
280
     0
102
RTVSPost2010PropOp28
 70
     1
102
RTVSPost2010Prop29
280
     1
102
RTVSPost2010PropOp29
 70
     1
102
RTVSPost2010Prop30
280
     1
102
RTVSPost2010PropOp30
 70
     1
102
RTVSPost2010Prop31
280
     0
102
RTVSPost2010PropOp31
 70
     1
102
RTVSPost2010Prop32
280
     0
102
RTVSPost2010PropOp32
 70
     1
102
RTVSPost2010Prop33
280
     0
102
RTVSPost2010PropOp33
 70
     1
102
RTVSPost2010Prop34
280
     0
102
RTVSPost2010PropOp34
 70
     1
102
RTVSPost2010Prop35
280
     0
102
RTVSPost2010PropOp35
 70
     1
102
RTVSPost2010Prop36
280
     0
102
RTVSPost2010PropOp36
 70
     1
102
RTVSPost2010Prop37
 90
       50
102
RTVSPost2010PropOp37
 70
     1
102
RTVSPost2010Prop38
140
0.0
102
RTVSPost2010PropOp38
 70
     1
102
RTVSPost2010Prop39
140
1.0
102
RTVSPost2010PropOp39
 70
     1
102
RTVSPost2010Prop40
 90
        0
102
RTVSPost2010PropOp40
 70
     1
102
RTVSPost2010Prop41ColorIndex
 90
       18
102
RTVSPost2010Prop41ColorRGB
 90
        0
102
RTVSPost2010PropOp41
 70
     1
102
RTVSPost2010Prop42
 90
       50
102
RTVSPost2010PropOp42
 70
     1
102
RTVSPost2010Prop43
 90
        3
102
RTVSPost2010PropOp43
 70
     1
102
RTVSPost2010Prop44ColorIndex
 90
        5
102
RTVSPost2010Prop44ColorRGB
 90
      255
102
RTVSPost2010PropOp44
 70
     1
102
RTVSPost2010Prop45
280
     0
102
RTVSPost2010PropOp45
 70
     1
102
RTVSPost2010Prop46
 90
       50
102
RTVSPost2010PropOp46
 70
     1
102
RTVSPost2010Prop47
 90
       50
102
RTVSPost2010PropOp47
 70
     1
102
RTVSPost2010Prop48
 90
       50
102
RTVSPost2010PropOp48
 70
     1
102
RTVSPost2010Prop49
280
     0
102
RTVSPost2010PropOp49
 70
     1
102
RTVSPost2010Prop50
 90
       50
102
RTVSPost2010PropOp50
 70
     1
102
RTVSPost2010Prop51ColorIndex
 90
      256
102
RTVSPost2010Prop51ColorRGB
 90
-16777216
102
RTVSPost2010PropOp51
 70
     0
102
RTVSPost2010Prop52
140
1.0
102
RTVSPost2010PropOp52
 70
     0
102
RTVSPost2010Prop53
 90
        2
102
RTVSPost2010PropOp53
 70
     1
102
RTVSPost2010Prop54
  1
strokes_ogs.tif
102
RTVSPost2010PropOp54
 70
     1
102
RTVSPost2010Prop55
280
     0
102
RTVSPost2010PropOp55
 70
     1
102
RTVSPost2010Prop56
140
1.0
102
RTVSPost2010PropOp56
 70
     1
102
RTVSPost2010Prop57
140
1.0
102
RTVSPost2010PropOp57
 70
     1
102
RTVSPropertyOp0
 70
     1
102
RTVSPropertyOp1
 70
     1
102
RTVSPropertyOp2
 70
     1
102
RTVSPropertyOp3
 70
     1
102
RTVSPropertyOp4
 70
     1
102
RTVSPropertyOp5
 70
     1
102
RTVSPropertyOp6
 70
     1
102
RTVSPropertyOp7
 70
     1
102
RTVSPropertyOp8
 70
     1
102
RTVSPropertyOp9
 70
     1
102
RTVSPropertyOp10
 70
     1
102
RTVSPropertyOp11
 70
     1
102
RTVSPropertyOp12
 70
     1
102
RTVSPropertyOp13
 70
     1
102
RTVSPropertyOp14
 70
     1
102
RTVSPropertyOp15
 70
     1
102
RTVSPropertyOp16
 70
     1
102
RTVSPropertyOp17
 70
     1
102
RTVSPropertyOp18
 70
     1
102
RTVSPropertyOp19
 70
     1
102
RTVSPropertyOp20
 70
     1
102
RTVSPropertyOp21
 70
     1
102
RTVSPropertyOp22
 70
     1
102
RTVSPropertyOp23
 70
     1
102
RTVSPropertyOp24
 70
     1
102
RTVSPropertyOp25
 70
     1
102
RTVSPropertyOp26
 70
     1
102
RTVSPropertyOp27
 70
     1
102
RTVSPropertyOp28
 70
     1
102
RTVSPropertyOp29
 70
     1
102
RTVSPropertyOp30
 70
     1
102
RTVSPropertyOp31
 70
     1
102
RTVSPropertyOp32
 70
     1
102
RTVSPropertyOp33
 70
     1
102
RTVSPropertyOp34
 70
     1
102
RTVSPropertyOp35
 70
     1
102
RTVSPropertyOp36
 70
     1
102
RTVSPropertyOp37
 70
     1
102
RTVSPropertyOp38
 70
     1
102
RTVSPropertyOp39
 70
     1
102
RTVSPropertyOp40
 70
     1
102
RTVSPropertyOp41
 70
     1
102
RTVSPropertyOp42
 70
     1
102
RTVSPropertyOp43
 70
     1
102
RTVSPropertyOp44
 70
     1
102
RTVSPropertyOp45
 70
     1
102
RTVSPropertyOp46
 70
     1
102
RTVSPropertyOp47
 70
     1
102
RTVSPropertyOp48
 70
     1
102
RTVSPropertyOp49
 70
     1
102
RTVSPropertyOp50
 70
     1
102
RTVSPropertyOp51
 70
     0
102
RTVSPropertyOp52
 70
     0
102
RTVSPropertyOp53
 70
     1
102
RTVSPropertyOp54
 70
     1
102
RTVSPropertyOp55
 70
     1
102
RTVSPropertyOp56
 70
     1
102
RTVSPropertyOp57
 70
     1
102
RTVSPropertyOp58
 70
     1
102
RTVSPropertyOp59
 70
     1
102
RTVSPropertyOp60
 70
     1
102
RTVSPropertyOp61
 70
     1
102
RTVSPropertyOp62
 70
     1
  0
XRECORD
  5
1F7
102
{ACAD_REACTORS
330
1F6
102
}
330
1F6
100
AcDbXrecord
280
     1
102
RTVSPost2010Prop28
280
     0
102
RTVSPost2010PropOp28
 70
     1
102
RTVSPost2010Prop29
280
     1
102
RTVSPost2010PropOp29
 70
     1
102
RTVSPost2010Prop30
280
     1
102
RTVSPost2010PropOp30
 70
     1
102
RTVSPost2010Prop31
280
     0
102
RTVSPost2010PropOp31
 70
     1
102
RTVSPost2010Prop32
280
     0
102
RTVSPost2010PropOp32
 70
     1
102
RTVSPost2010Prop33
280
     0
102
RTVSPost2010PropOp33
 70
     1
102
RTVSPost2010Prop34
280
     0
102
RTVSPost2010PropOp34
 70
     1
102
RTVSPost2010Prop35
280
     0
102
RTVSPost2010PropOp35
 70
     1
102
RTVSPost2010Prop36
280
     0
102
RTVSPost2010PropOp36
 70
     1
102
RTVSPost2010Prop37
 90
       50
102
RTVSPost2010PropOp37
 70
     1
102
RTVSPost2010Prop38
140
0.0
102
RTVSPost2010PropOp38
 70
     1
102
RTVSPost2010Prop39
140
1.0
102
RTVSPost2010PropOp39
 70
     1
102
RTVSPost2010Prop40
 90
        0
102
RTVSPost2010PropOp40
 70
     1
102
RTVSPost2010Prop41ColorIndex
 90
       18
102
RTVSPost2010Prop41ColorRGB
 90
        0
102
RTVSPost2010PropOp41
 70
     1
102
RTVSPost2010Prop42
 90
       50
102
RTVSPost2010PropOp42
 70
     1
102
RTVSPost2010Prop43
 90
        3
102
RTVSPost2010PropOp43
 70
     1
102
RTVSPost2010Prop44ColorIndex
 90
        5
102
RTVSPost2010Prop44ColorRGB
 90
      255
102
RTVSPost2010PropOp44
 70
     1
102
RTVSPost2010Prop45
280
     0
102
RTVSPost2010PropOp45
 70
     1
102
RTVSPost2010Prop46
 90
       50
102
RTVSPost2010PropOp46
 70
     1
102
RTVSPost2010Prop47
 90
       50
102
RTVSPost2010PropOp47
 70
     1
102
RTVSPost2010Prop48
 90
       50
102
RTVSPost2010PropOp48
 70
     1
102
RTVSPost2010Prop49
280
     0
102
RTVSPost2010PropOp49
 70
     1
102
RTVSPost2010Prop50
 90
       50
102
RTVSPost2010PropOp50
 70
     1
102
RTVSPost2010Prop51ColorIndex
 90
      256
102
RTVSPost2010Prop51ColorRGB
 90
-16777216
102
RTVSPost2010PropOp51
 70
     0
102
RTVSPost2010Prop52
140
1.0
102
RTVSPost2010PropOp52
 70
     0
102
RTVSPost2010Prop53
 90
        2
102
RTVSPost2010PropOp53
 70
     1
102
RTVSPost2010Prop54
  1
strokes_ogs.tif
102
RTVSPost2010PropOp54
 70
     1
102
RTVSPost2010Prop55
280
     0
102
RTVSPost2010PropOp55
 70
     1
102
RTVSPost2010Prop56
140
1.0
102
RTVSPost2010PropOp56
 70
     1
102
RTVSPost2010Prop57
140
1.0
102
RTVSPost2010PropOp57
 70
     1
102
RTVSPropertyOp0
 70
     1
102
RTVSPropertyOp1
 70
     1
102
RTVSPropertyOp2
 70
     1
102
RTVSPropertyOp3
 70
     1
102
RTVSPropertyOp4
 70
     1
102
RTVSPropertyOp5
 70
     1
102
RTVSPropertyOp6
 70
     1
102
RTVSPropertyOp7
 70
     1
102
RTVSPropertyOp8
 70
     1
102
RTVSPropertyOp9
 70
     1
102
RTVSPropertyOp10
 70
     1
102
RTVSPropertyOp11
 70
     1
102
RTVSPropertyOp12
 70
     1
102
RTVSPropertyOp13
 70
     1
102
RTVSPropertyOp14
 70
     1
102
RTVSPropertyOp15
 70
     1
102
RTVSPropertyOp16
 70
     1
102
RTVSPropertyOp17
 70
     1
102
RTVSPropertyOp18
 70
     1
102
RTVSPropertyOp19
 70
     1
102
RTVSPropertyOp20
 70
     1
102
RTVSPropertyOp21
 70
     1
102
RTVSPropertyOp22
 70
     1
102
RTVSPropertyOp23
 70
     1
102
RTVSPropertyOp24
 70
     1
102
RTVSPropertyOp25
 70
     1
102
RTVSPropertyOp26
 70
     1
102
RTVSPropertyOp27
 70
     1
102
RTVSPropertyOp28
 70
     1
102
RTVSPropertyOp29
 70
     1
102
RTVSPropertyOp30
 70
     1
102
RTVSPropertyOp31
 70
     1
102
RTVSPropertyOp32
 70
     1
102
RTVSPropertyOp33
 70
     1
102
RTVSPropertyOp34
 70
     1
102
RTVSPropertyOp35
 70
     1
102
RTVSPropertyOp36
 70
     1
102
RTVSPropertyOp37
 70
     1
102
RTVSPropertyOp38
 70
     1
102
RTVSPropertyOp39
 70
     1
102
RTVSPropertyOp40
 70
     1
102
RTVSPropertyOp41
 70
     1
102
RTVSPropertyOp42
 70
     1
102
RTVSPropertyOp43
 70
     1
102
RTVSPropertyOp44
 70
     1
102
RTVSPropertyOp45
 70
     1
102
RTVSPropertyOp46
 70
     1
102
RTVSPropertyOp47
 70
     1
102
RTVSPropertyOp48
 70
     1
102
RTVSPropertyOp49
 70
     1
102
RTVSPropertyOp50
 70
     1
102
RTVSPropertyOp51
 70
     0
102
RTVSPropertyOp52
 70
     0
102
RTVSPropertyOp53
 70
     1
102
RTVSPropertyOp54
 70
     1
102
RTVSPropertyOp55
 70
     1
102
RTVSPropertyOp56
 70
     1
102
RTVSPropertyOp57
 70
     1
102
RTVSPropertyOp58
 70
     1
102
RTVSPropertyOp59
 70
     1
102
RTVSPropertyOp60
 70
     1
102
RTVSPropertyOp61
 70
     1
102
RTVSPropertyOp62
 70
     1
  0
XRECORD
  5
20F
102
{ACAD_REACTORS
330
20E
102
}
330
20E
100
AcDbXrecord
280
     1
102
RTVSPost2010Prop28
280
     0
102
RTVSPost2010PropOp28
 70
     1
102
RTVSPost2010Prop29
280
     1
102
RTVSPost2010PropOp29
 70
     1
102
RTVSPost2010Prop30
280
     1
102
RTVSPost2010PropOp30
 70
     1
102
RTVSPost2010Prop31
280
     0
102
RTVSPost2010PropOp31
 70
     1
102
RTVSPost2010Prop32
280
     0
102
RTVSPost2010PropOp32
 70
     1
102
RTVSPost2010Prop33
280
     0
102
RTVSPost2010PropOp33
 70
     1
102
RTVSPost2010Prop34
280
     0
102
RTVSPost2010PropOp34
 70
     1
102
RTVSPost2010Prop35
280
     0
102
RTVSPost2010PropOp35
 70
     1
102
RTVSPost2010Prop36
280
     0
102
RTVSPost2010PropOp36
 70
     1
102
RTVSPost2010Prop37
 90
       50
102
RTVSPost2010PropOp37
 70
     1
102
RTVSPost2010Prop38
140
0.0
102
RTVSPost2010PropOp38
 70
     1
102
RTVSPost2010Prop39
140
1.0
102
RTVSPost2010PropOp39
 70
     1
102
RTVSPost2010Prop40
 90
        0
102
RTVSPost2010PropOp40
 70
     1
102
RTVSPost2010Prop41ColorIndex
 90
       18
102
RTVSPost2010Prop41ColorRGB
 90
        0
102
RTVSPost2010PropOp41
 70
     1
102
RTVSPost2010Prop42
 90
       50
102
RTVSPost2010PropOp42
 70
     1
102
RTVSPost2010Prop43
 90
        3
102
RTVSPost2010PropOp43
 70
     1
102
RTVSPost2010Prop44ColorIndex
 90
        5
102
RTVSPost2010Prop44ColorRGB
 90
      255
102
RTVSPost2010PropOp44
 70
     1
102
RTVSPost2010Prop45
280
     0
102
RTVSPost2010PropOp45
 70
     1
102
RTVSPost2010Prop46
 90
       50
102
RTVSPost2010PropOp46
 70
     1
102
RTVSPost2010Prop47
 90
       50
102
RTVSPost2010PropOp47
 70
     1
102
RTVSPost2010Prop48
 90
       50
102
RTVSPost2010PropOp48
 70
     1
102
RTVSPost2010Prop49
280
     0
102
RTVSPost2010PropOp49
 70
     1
102
RTVSPost2010Prop50
 90
       50
102
RTVSPost2010PropOp50
 70
     1
102
RTVSPost2010Prop51ColorIndex
 90
      256
102
RTVSPost2010Prop51ColorRGB
 90
-16777216
102
RTVSPost2010PropOp51
 70
     0
102
RTVSPost2010Prop52
140
1.0
102
RTVSPost2010PropOp52
 70
     0
102
RTVSPost2010Prop53
 90
        2
102
RTVSPost2010PropOp53
 70
     1
102
RTVSPost2010Prop54
  1
strokes_ogs.tif
102
RTVSPost2010PropOp54
 70
     1
102
RTVSPost2010Prop55
280
     0
102
RTVSPost2010PropOp55
 70
     1
102
RTVSPost2010Prop56
140
1.0
102
RTVSPost2010PropOp56
 70
     1
102
RTVSPost2010Prop57
140
1.0
102
RTVSPost2010PropOp57
 70
     1
102
RTVSPropertyOp0
 70
     1
102
RTVSPropertyOp1
 70
     1
102
RTVSPropertyOp2
 70
     1
102
RTVSPropertyOp3
 70
     1
102
RTVSPropertyOp4
 70
     1
102
RTVSPropertyOp5
 70
     1
102
RTVSPropertyOp6
 70
     1
102
RTVSPropertyOp7
 70
     1
102
RTVSPropertyOp8
 70
     1
102
RTVSPropertyOp9
 70
     1
102
RTVSPropertyOp10
 70
     1
102
RTVSPropertyOp11
 70
     1
102
RTVSPropertyOp12
 70
     1
102
RTVSPropertyOp13
 70
     1
102
RTVSPropertyOp14
 70
     1
102
RTVSPropertyOp15
 70
     1
102
RTVSPropertyOp16
 70
     1
102
RTVSPropertyOp17
 70
     1
102
RTVSPropertyOp18
 70
     1
102
RTVSPropertyOp19
 70
     1
102
RTVSPropertyOp20
 70
     1
102
RTVSPropertyOp21
 70
     1
102
RTVSPropertyOp22
 70
     1
102
RTVSPropertyOp23
 70
     1
102
RTVSPropertyOp24
 70
     1
102
RTVSPropertyOp25
 70
     1
102
RTVSPropertyOp26
 70
     1
102
RTVSPropertyOp27
 70
     1
102
RTVSPropertyOp28
 70
     1
102
RTVSPropertyOp29
 70
     1
102
RTVSPropertyOp30
 70
     1
102
RTVSPropertyOp31
 70
     1
102
RTVSPropertyOp32
 70
     1
102
RTVSPropertyOp33
 70
     1
102
RTVSPropertyOp34
 70
     1
102
RTVSPropertyOp35
 70
     1
102
RTVSPropertyOp36
 70
     1
102
RTVSPropertyOp37
 70
     1
102
RTVSPropertyOp38
 70
     1
102
RTVSPropertyOp39
 70
     1
102
RTVSPropertyOp40
 70
     1
102
RTVSPropertyOp41
 70
     1
102
RTVSPropertyOp42
 70
     1
102
RTVSPropertyOp43
 70
     1
102
RTVSPropertyOp44
 70
     1
102
RTVSPropertyOp45
 70
     1
102
RTVSPropertyOp46
 70
     1
102
RTVSPropertyOp47
 70
     1
102
RTVSPropertyOp48
 70
     1
102
RTVSPropertyOp49
 70
     1
102
RTVSPropertyOp50
 70
     1
102
RTVSPropertyOp51
 70
     0
102
RTVSPropertyOp52
 70
     0
102
RTVSPropertyOp53
 70
     1
102
RTVSPropertyOp54
 70
     1
102
RTVSPropertyOp55
 70
     1
102
RTVSPropertyOp56
 70
     1
102
RTVSPropertyOp57
 70
     1
102
RTVSPropertyOp58
 70
     1
102
RTVSPropertyOp59
 70
     1
102
RTVSPropertyOp60
 70
     1
102
RTVSPropertyOp61
 70
     1
102
RTVSPropertyOp62
 70
     1
  0
ENDSEC
  0
EOF
