  0
SECTION
  2
HEADER
  9
$ACADVER
  1
AC1018
  9
$ACADMAINTVER
 70
   104
  9
$DWGCODEPAGE
  3
ANSI_1252
  9
$LASTSAVEDBY
  1
titadi
  9
$INSBASE
 10
0.0
 20
0.0
 30
0.0
  9
$EXTMIN
 10
-77.38886237950021
 20
-50.14490427274026
 30
-0.0000000000000058
  9
$EXTMAX
 10
96.81409872617003
 20
32.95752421704731
 30
0.0000000000000104
  9
$LIMMIN
 10
0.0
 20
0.0
  9
$LIMMAX
 10
12.0
 20
9.0
  9
$ORTHOMODE
 70
     0
  9
$REGENMODE
 70
     1
  9
$FILLMODE
 70
     1
  9
$QTEXTMODE
 70
     0
  9
$MIRRTEXT
 70
     0
  9
$LTSCALE
 40
1.0
  9
$ATTMODE
 70
     1
  9
$TEXTSIZE
 40
0.0
  9
$TRACEWID
 40
0.05
  9
$TEXTSTYLE
  7
Standard
  9
$CLAYER
  8
0
  9
$CELTYPE
  6
ByLayer
  9
$CECOLOR
 62
   256
  9
$CELTSCALE
 40
1.0
  9
$DISPSILH
 70
     0
  9
$DIMSCALE
 40
1.0
  9
$DIMASZ
 40
0.18
  9
$DIMEXO
 40
0.0625
  9
$DIMDLI
 40
0.38
  9
$DIMRND
 40
0.0
  9
$DIMDLE
 40
0.0
  9
$DIMEXE
 40
0.18
  9
$DIMTP
 40
0.0
  9
$DIMTM
 40
0.0
  9
$DIMTXT
 40
0.18
  9
$DIMCEN
 40
0.09
  9
$DIMTSZ
 40
0.0
  9
$DIMTOL
 70
     0
  9
$DIMLIM
 70
     0
  9
$DIMTIH
 70
     1
  9
$DIMTOH
 70
     1
  9
$DIMSE1
 70
     0
  9
$DIMSE2
 70
     0
  9
$DIMTAD
 70
     0
  9
$DIMZIN
 70
     0
  9
$DIMBLK
  1

  9
$DIMASO
 70
     1
  9
$DIMSHO
 70
     1
  9
$DIMPOST
  1

  9
$DIMAPOST
  1

  9
$DIMALT
 70
     0
  9
$DIMALTD
 70
     2
  9
$DIMALTF
 40
25.4
  9
$DIMLFAC
 40
1.0
  9
$DIMTOFL
 70
     0
  9
$DIMTVP
 40
0.0
  9
$DIMTIX
 70
     0
  9
$DIMSOXD
 70
     0
  9
$DIMSAH
 70
     0
  9
$DIMBLK1
  1

  9
$DIMBLK2
  1

  9
$DIMSTYLE
  2
Standard
  9
$DIMCLRD
 70
     0
  9
$DIMCLRE
 70
     0
  9
$DIMCLRT
 70
     0
  9
$DIMTFAC
 40
1.0
  9
$DIMGAP
 40
0.09
  9
$DIMJUST
 70
     0
  9
$DIMSD1
 70
     0
  9
$DIMSD2
 70
     0
  9
$DIMTOLJ
 70
     1
  9
$DIMTZIN
 70
     0
  9
$DIMALTZ
 70
     0
  9
$DIMALTTZ
 70
     0
  9
$DIMUPT
 70
     0
  9
$DIMDEC
 70
     4
  9
$DIMTDEC
 70
     4
  9
$DIMALTU
 70
     2
  9
$DIMALTTD
 70
     2
  9
$DIMTXSTY
  7
Standard
  9
$DIMAUNIT
 70
     0
  9
$DIMADEC
 70
     0
  9
$DIMALTRND
 40
0.0
  9
$DIMAZIN
 70
     0
  9
$DIMDSEP
 70
    46
  9
$DIMATFIT
 70
     3
  9
$DIMFRAC
 70
     0
  9
$DIMLDRBLK
  1

  9
$DIMLUNIT
 70
     2
  9
$DIMLWD
 70
    -2
  9
$DIMLWE
 70
    -2
  9
$DIMTMOVE
 70
     0
  9
$LUNITS
 70
     2
  9
$LUPREC
 70
     4
  9
$SKETCHINC
 40
0.1
  9
$FILLETRAD
 40
0.0
  9
$AUNITS
 70
     0
  9
$AUPREC
 70
     0
  9
$MENU
  1
.
  9
$ELEVATION
 40
0.0
  9
$PELEVATION
 40
0.0
  9
$THICKNESS
 40
0.0
  9
$LIMCHECK
 70
     0
  9
$CHAMFERA
 40
0.0
  9
$CHAMFERB
 40
0.0
  9
$CHAMFERC
 40
0.0
  9
$CHAMFERD
 40
0.0
  9
$SKPOLY
 70
     0
  9
$TDCREATE
 40
2456818.491128970
  9
$TDUCREATE
 40
2456818.449462303
  9
$TDUPDATE
 40
2457358.589934653
  9
$TDUUPDATE
 40
2457358.548267986
  9
$TDINDWG
 40
0.0374715394
  9
$TDUSRTIMER
 40
0.0374712500
  9
$USRTIMER
 70
     1
  9
$ANGBASE
 50
0.0
  9
$ANGDIR
 70
     0
  9
$PDMODE
 70
     0
  9
$PDSIZE
 40
0.0
  9
$PLINEWID
 40
0.0
  9
$SPLFRAME
 70
     0
  9
$SPLINETYPE
 70
     6
  9
$SPLINESEGS
 70
     8
  9
$HANDSEED
  5
72F
  9
$SURFTAB1
 70
     6
  9
$SURFTAB2
 70
     6
  9
$SURFTYPE
 70
     6
  9
$SURFU
 70
     6
  9
$SURFV
 70
     6
  9
$UCSBASE
  2

  9
$UCSNAME
  2

  9
$UCSORG
 10
0.0
 20
0.0
 30
0.0
  9
$UCSXDIR
 10
1.0
 20
0.0
 30
0.0
  9
$UCSYDIR
 10
0.0
 20
1.0
 30
0.0
  9
$UCSORTHOREF
  2

  9
$UCSORTHOVIEW
 70
     0
  9
$UCSORGTOP
 10
0.0
 20
0.0
 30
0.0
  9
$UCSORGBOTTOM
 10
0.0
 20
0.0
 30
0.0
  9
$UCSORGLEFT
 10
0.0
 20
0.0
 30
0.0
  9
$UCSORGRIGHT
 10
0.0
 20
0.0
 30
0.0
  9
$UCSORGFRONT
 10
0.0
 20
0.0
 30
0.0
  9
$UCSORGBACK
 10
0.0
 20
0.0
 30
0.0
  9
$PUCSBASE
  2

  9
$PUCSNAME
  2

  9
$PUCSORG
 10
0.0
 20
0.0
 30
0.0
  9
$PUCSXDIR
 10
1.0
 20
0.0
 30
0.0
  9
$PUCSYDIR
 10
0.0
 20
1.0
 30
0.0
  9
$PUCSORTHOREF
  2

  9
$PUCSORTHOVIEW
 70
     0
  9
$PUCSORGTOP
 10
0.0
 20
0.0
 30
0.0
  9
$PUCSORGBOTTOM
 10
0.0
 20
0.0
 30
0.0
  9
$PUCSORGLEFT
 10
0.0
 20
0.0
 30
0.0
  9
$PUCSORGRIGHT
 10
0.0
 20
0.0
 30
0.0
  9
$PUCSORGFRONT
 10
0.0
 20
0.0
 30
0.0
  9
$PUCSORGBACK
 10
0.0
 20
0.0
 30
0.0
  9
$USERI1
 70
     0
  9
$USERI2
 70
     0
  9
$USERI3
 70
     0
  9
$USERI4
 70
     0
  9
$USERI5
 70
     0
  9
$USERR1
 40
0.0
  9
$USERR2
 40
0.0
  9
$USERR3
 40
0.0
  9
$USERR4
 40
0.0
  9
$USERR5
 40
0.0
  9
$WORLDVIEW
 70
     1
  9
$SHADEDGE
 70
     3
  9
$SHADEDIF
 70
    70
  9
$TILEMODE
 70
     1
  9
$MAXACTVP
 70
    64
  9
$PINSBASE
 10
0.0
 20
0.0
 30
0.0
  9
$PLIMCHECK
 70
     0
  9
$PEXTMIN
 10
1.000000000000000E+20
 20
1.000000000000000E+20
 30
1.000000000000000E+20
  9
$PEXTMAX
 10
-1.000000000000000E+20
 20
-1.000000000000000E+20
 30
-1.000000000000000E+20
  9
$PLIMMIN
 10
0.0
 20
0.0
  9
$PLIMMAX
 10
12.0
 20
9.0
  9
$UNITMODE
 70
     0
  9
$VISRETAIN
 70
     1
  9
$PLINEGEN
 70
     0
  9
$PSLTSCALE
 70
     1
  9
$TREEDEPTH
 70
  3020
  9
$CMLSTYLE
  2
Standard
  9
$CMLJUST
 70
     0
  9
$CMLSCALE
 40
1.0
  9
$PROXYGRAPHICS
 70
     1
  9
$MEASUREMENT
 70
     0
  9
$CELWEIGHT
370
    -1
  9
$ENDCAPS
280
     0
  9
$JOINSTYLE
280
     0
  9
$LWDISPLAY
290
     0
  9
$INSUNITS
 70
     4
  9
$HYPERLINKBASE
  1

  9
$STYLESHEET
  1

  9
$XEDIT
290
     1
  9
$CEPSNTYPE
380
     0
  9
$PSTYLEMODE
290
     1
  9
$FINGERPRINTGUID
  2
{DB00A7CA-1903-4B3E-92C6-6FDE7CE6AAD9}
  9
$VERSIONGUID
  2
{95B1DE75-E688-487F-8BFB-BF2A4931F471}
  9
$EXTNAMES
290
     1
  9
$PSVPSCALE
 40
0.0
  9
$OLESTARTUP
290
     0
  9
$SORTENTS
280
   127
  9
$INDEXCTL
280
     0
  9
$HIDETEXT
280
     0
  9
$XCLIPFRAME
290
     0
  9
$HALOGAP
280
     0
  9
$OBSCOLOR
 70
   257
  9
$OBSLTYPE
280
     0
  9
$INTERSECTIONDISPLAY
280
     0
  9
$INTERSECTIONCOLOR
 70
   257
  9
$DIMASSOC
280
     1
  9
$PROJECTNAME
  1

  0
ENDSEC
  0
SECTION
  2
CLASSES
  0
CLASS
  1
RASTERVARIABLES
  2
AcDbRasterVariables
  3
ISM
 90
        0
 91
        0
280
     0
281
     0
  0
CLASS
  1
ACDBDICTIONARYWDFLT
  2
AcDbDictionaryWithDefault
  3
ObjectDBX Classes
 90
        0
 91
        1
280
     0
281
     0
  0
CLASS
  1
MATERIAL
  2
AcDbMaterial
  3
ObjectDBX Classes
 90
     1153
 91
        3
280
     0
281
     0
  0
CLASS
  1
VISUALSTYLE
  2
AcDbVisualStyle
  3
ObjectDBX Classes
 90
     4095
 91
       24
280
     0
281
     0
  0
CLASS
  1
TABLESTYLE
  2
AcDbTableStyle
  3
ObjectDBX Classes
 90
     4095
 91
        1
280
     0
281
     0
  0
CLASS
  1
SCALE
  2
AcDbScale
  3
ObjectDBX Classes
 90
     1153
 91
       17
280
     0
281
     0
  0
CLASS
  1
MLEADERSTYLE
  2
AcDbMLeaderStyle
  3
ACDB_MLEADERSTYLE_CLASS
 90
     4095
 91
        1
280
     0
281
     0
  0
CLASS
  1
ACDBSECTIONVIEWSTYLE
  2
AcDbSectionViewStyle
  3
ObjectDBX Classes
 90
     1025
 91
        1
280
     0
281
     0
  0
CLASS
  1
ACDBDETAILVIEWSTYLE
  2
AcDbDetailViewStyle
  3
ObjectDBX Classes
 90
     1025
 91
        1
280
     0
281
     0
  0
CLASS
  1
EXACXREFPANELOBJECT
  2
ExAcXREFPanelObject
  3
EXAC_ESW
 90
     1025
 91
        0
280
     0
281
     0
  0
CLASS
  1
NPOCOLLECTION
  2
AcDbImpNonPersistentObjectsCollection
  3
ObjectDBX Classes
 90
     1153
 91
        0
280
     0
281
     0
  0
CLASS
  1
DICTIONARYVAR
  2
AcDbDictionaryVar
  3
ObjectDBX Classes
 90
        0
 91
       14
280
     0
281
     0
  0
CLASS
  1
CELLSTYLEMAP
  2
AcDbCellStyleMap
  3
ObjectDBX Classes
 90
     1152
 91
        2
280
     0
281
     0
  0
CLASS
  1
MULTILEADER
  2
AcDbMLeader
  3
ACDB_MLEADER_CLASS
 90
     1025
 91
        1
280
     0
281
     1
  0
ENDSEC
  0
SECTION
  2
TABLES
  0
TABLE
  2
VPORT
  5
128
330
0
100
AcDbSymbolTable
 70
     1
  0
VPORT
  5
1
330
128
100
AcDbSymbolTableRecord
100
AcDbViewportTableRecord
  2
*Active
 70
     0
 10
0.0
 20
0.0
 11
1.0
 21
1.0
 12
9.712618173334899
 22
-8.593690027846477
 13
0.0
 23
0.0
 14
0.5
 24
0.5
 15
10.0
 25
10.0
 16
0.0
 26
0.0
 36
1.0
 17
0.0
 27
0.0
 37
0.0
 40
83.77441578215782
 41
2.584345479082321
 42
50.0
 43
0.0
 44
0.0
 50
0.0
 51
0.0
 71
     0
 72
   100
 73
     1
 74
     1
 75
     0
 76
     0
 77
     0
 78
     0
281
     0
 65
     1
110
0.0
120
0.0
130
0.0
111
1.0
121
0.0
131
0.0
112
0.0
122
1.0
132
0.0
 79
     0
146
0.0
1001
ACAD_NAV_VCDISPLAY
1070
     3
  0
ENDTAB
  0
TABLE
  2
LTYPE
  5
129
330
0
100
AcDbSymbolTable
 70
     9
  0
LTYPE
  5
14
330
129
100
AcDbSymbolTableRecord
100
AcDbLinetypeTableRecord
  2
ByBlock
 70
     0
  3

 72
    65
 73
     0
 40
0.0
  0
LTYPE
  5
15
330
129
100
AcDbSymbolTableRecord
100
AcDbLinetypeTableRecord
  2
ByLayer
 70
     0
  3

 72
    65
 73
     0
 40
0.0
  0
LTYPE
  5
16
330
129
100
AcDbSymbolTableRecord
100
AcDbLinetypeTableRecord
  2
CONTINUOUS
 70
     0
  3
Solid line
 72
    65
 73
     0
 40
0.0
  0
LTYPE
  5
3C
330
129
100
AcDbSymbolTableRecord
100
AcDbLinetypeTableRecord
  2
DASHED
 70
     0
  3
__ __ __ __ __ __ __ __ __
 72
    65
 73
     2
 40
25.72
 49
12.86
 74
     0
 49
-12.86
 74
     0
  0
LTYPE
  5
3D
330
129
100
AcDbSymbolTableRecord
100
AcDbLinetypeTableRecord
  2
HIDDEN
 70
     0
  3
_ _ _ _ _ _ _ _ _ _ _ _ _ _ _
 72
    65
 73
     2
 40
0.5
 49
0.25
 74
     0
 49
-0.25
 74
     0
  0
LTYPE
  5
3E
330
129
100
AcDbSymbolTableRecord
100
AcDbLinetypeTableRecord
  2
PHANTOM
 70
     0
  3
____ _ _ ____ _ _ _____ _ _ ____
 72
    65
 73
     6
 40
50.5
 49
18.0
 74
     0
 49
-6.5
 74
     0
 49
6.5
 74
     0
 49
-6.5
 74
     0
 49
6.5
 74
     0
 49
-6.5
 74
     0
  0
LTYPE
  5
3F
330
129
100
AcDbSymbolTableRecord
100
AcDbLinetypeTableRecord
  2
CENTER
 70
     0
  3
____ _ ____ _ ____ _ ____
 72
    65
 73
     4
 40
47.5
 49
22.0
 74
     0
 49
-8.5
 74
     0
 49
8.5
 74
     0
 49
-8.5
 74
     0
  0
LTYPE
  5
40
330
129
100
AcDbSymbolTableRecord
100
AcDbLinetypeTableRecord
  2
DOT
 70
     0
  3
.........................
 72
    65
 73
     2
 40
10.0
 49
0.0
 74
     0
 49
-10.0
 74
     0
  0
LTYPE
  5
41
330
129
100
AcDbSymbolTableRecord
100
AcDbLinetypeTableRecord
  2
DASHDOT
 70
     0
  3
_._._._._._._._._._._._._._._._.
 72
    65
 73
     4
 40
70.0
 49
31.0
 74
     0
 49
-13.0
 74
     0
 49
13.0
 74
     0
 49
-13.0
 74
     0
  0
LTYPE
  5
180
330
129
100
AcDbSymbolTableRecord
100
AcDbLinetypeTableRecord
  2
PHANTOM2
 70
     0
  3
Phantom (.5x) ___ _ _ ___ _ _ ___ _ _ ___ _ _
 72
    65
 73
     6
 40
1.25
 49
0.625
 74
     0
 49
-0.125
 74
     0
 49
0.125
 74
     0
 49
-0.125
 74
     0
 49
0.125
 74
     0
 49
-0.125
 74
     0
  0
ENDTAB
  0
TABLE
  2
LAYER
  5
12A
102
{ACAD_XDICTIONARY
360
5AD
102
}
330
0
100
AcDbSymbolTable
 70
    11
  0
LAYER
  5
10
102
{ACAD_XDICTIONARY
360
18E
102
}
330
12A
100
AcDbSymbolTableRecord
100
AcDbLayerTableRecord
  2
0
 70
     0
 62
     7
  6
CONTINUOUS
370
    -3
390
135
  0
LAYER
  5
43
102
{ACAD_XDICTIONARY
360
190
102
}
330
12A
100
AcDbSymbolTableRecord
100
AcDbLayerTableRecord
  2
81
 70
     0
 62
    -3
  6
CONTINUOUS
370
    -3
390
135
  0
LAYER
  5
45
102
{ACAD_XDICTIONARY
360
192
102
}
330
12A
100
AcDbSymbolTableRecord
100
AcDbLayerTableRecord
  2
80
 70
     0
 62
    -6
  6
CONTINUOUS
370
    -3
390
135
  0
LAYER
  5
47
102
{ACAD_XDICTIONARY
360
194
102
}
330
12A
100
AcDbSymbolTableRecord
100
AcDbLayerTableRecord
  2
1
 70
     0
 62
     4
  6
CONTINUOUS
370
    -3
390
135
  0
LAYER
  5
9C
102
{ACAD_XDICTIONARY
360
196
102
}
330
12A
100
AcDbSymbolTableRecord
100
AcDbLayerTableRecord
  2
2
 70
     0
 62
     7
  6
CONTINUOUS
370
    -3
390
135
  0
LAYER
  5
114
102
{ACAD_XDICTIONARY
360
198
102
}
330
12A
100
AcDbSymbolTableRecord
100
AcDbLayerTableRecord
  2
SK1
 70
     0
 62
     4
  6
CONTINUOUS
370
    -3
390
135
  0
LAYER
  5
115
102
{ACAD_XDICTIONARY
360
19A
102
}
330
12A
100
AcDbSymbolTableRecord
100
AcDbLayerTableRecord
  2
SK4
 70
     0
 62
     2
  6
CENTER
370
    -3
390
135
  0
LAYER
  5
116
102
{ACAD_XDICTIONARY
360
19C
102
}
330
12A
100
AcDbSymbolTableRecord
100
AcDbLayerTableRecord
  2
SK6
 70
     0
 62
     5
  6
CONTINUOUS
370
    -3
390
135
  0
LAYER
  5
117
102
{ACAD_XDICTIONARY
360
19E
102
}
330
12A
100
AcDbSymbolTableRecord
100
AcDbLayerTableRecord
  2
SK2
 70
     0
 62
     7
  6
CONTINUOUS
370
    -3
390
135
  0
LAYER
  5
23E
102
{ACAD_XDICTIONARY
360
23F
102
}
330
12A
100
AcDbSymbolTableRecord
100
AcDbLayerTableRecord
  2
4
 70
     0
 62
     2
  6
CENTER
370
    -3
390
135
  0
LAYER
  5
240
330
12A
100
AcDbSymbolTableRecord
100
AcDbLayerTableRecord
  2
Defpoints
 70
     0
 62
     7
  6
CONTINUOUS
290
     0
370
    -3
390
135
  0
ENDTAB
  0
TABLE
  2
STYLE
  5
12B
330
0
100
AcDbSymbolTable
 70
     4
  0
STYLE
  5
11
330
12B
100
AcDbSymbolTableRecord
100
AcDbTextStyleTableRecord
  2
Standard
 70
     0
 40
0.0
 41
1.0
 50
0.0
 71
     0
 42
0.0
  3
txt
  4

  0
STYLE
  5
8C
330
12B
100
AcDbSymbolTableRecord
100
AcDbTextStyleTableRecord
  2
DEFAULT
 70
     0
 40
0.0
 41
1.0
 50
0.0
 71
     0
 42
0.0
  3
simplex.shx
  4

  0
STYLE
  5
8D
330
12B
100
AcDbSymbolTableRecord
100
AcDbTextStyleTableRecord
  2
DWGDirectTextStyle
 70
     0
 40
0.0
 41
1.0
 50
0.0
 71
     0
 42
0.0
  3
SIMPLEX
  4

  0
STYLE
  5
241
330
12B
100
AcDbSymbolTableRecord
100
AcDbTextStyleTableRecord
  2
SANDVIK_STYLE
 70
     0
 40
3.0
 41
1.0
 50
0.0
 71
     0
 42
3.0
  3
simplex.shx
  4

  0
ENDTAB
  0
TABLE
  2
VIEW
  5
12D
330
0
100
AcDbSymbolTable
 70
     1
  0
ENDTAB
  0
TABLE
  2
UCS
  5
12E
330
0
100
AcDbSymbolTable
 70
     0
  0
ENDTAB
  0
TABLE
  2
APPID
  5
12F
330
0
100
AcDbSymbolTable
 70
     6
  0
APPID
  5
12
330
12F
100
AcDbSymbolTableRecord
100
AcDbRegAppTableRecord
  2
ACAD
 70
     0
  0
APPID
  5
1A2
330
12F
100
AcDbSymbolTableRecord
100
AcDbRegAppTableRecord
  2
DCO15
 70
     0
  0
APPID
  5
1AE
330
12F
100
AcDbSymbolTableRecord
100
AcDbRegAppTableRecord
  2
ACAD_NAV_VCDISPLAY
 70
     0
  0
APPID
  5
1E7
330
12F
100
AcDbSymbolTableRecord
100
AcDbRegAppTableRecord
  2
ACAD_MLEADERVER
 70
     0
  0
APPID
  5
22A
330
12F
100
AcDbSymbolTableRecord
100
AcDbRegAppTableRecord
  2
ACAD_EXEMPT_FROM_CAD_STANDARDS
 70
     0
  0
APPID
  5
548
330
12F
100
AcDbSymbolTableRecord
100
AcDbRegAppTableRecord
  2
AcadAnnoMonitorAlertIconDisabled
 70
     0
  0
ENDTAB
  0
TABLE
  2
DIMSTYLE
  5
12C
330
0
100
AcDbSymbolTable
 70
     3
100
AcDbDimStyleTable
 71
     2
340
27
340
242
  0
DIMSTYLE
105
27
330
12C
100
AcDbSymbolTableRecord
100
AcDbDimStyleTableRecord
  2
Standard
 70
     0
  3
<>
 73
     0
 74
     0
 77
     1
271
     2
278
    52
340
11
  0
DIMSTYLE
105
242
102
{ACAD_REACTORS
330
24A
330
AE
330
A4
330
3EA
330
43A
330
C2
102
}
330
12C
100
AcDbSymbolTableRecord
100
AcDbDimStyleTableRecord
  2
SANDVIK_DIM
 70
     0
  4
 
 40
0.0
 41
4.57
 42
0.0
 44
5.0
 73
     0
 74
     0
 77
     1
 78
     8
140
4.5
147
2.299999999999998
176
   256
177
   256
178
   256
271
     2
272
     2
279
     2
340
241
  0
ENDTAB
  0
TABLE
  2
BLOCK_RECORD
  5
130
330
0
100
AcDbSymbolTable
 70
    15
  0
BLOCK_RECORD
  5
1F
330
130
100
AcDbSymbolTableRecord
100
AcDbBlockTableRecord
  2
*Model_Space
340
186
  0
BLOCK_RECORD
  5
1B
330
130
100
AcDbSymbolTableRecord
100
AcDbBlockTableRecord
  2
*Paper_Space
340
187
  0
BLOCK_RECORD
  5
23
330
130
100
AcDbSymbolTableRecord
100
AcDbBlockTableRecord
  2
*Paper_Space0
340
1EE
  0
BLOCK_RECORD
  5
8F
330
130
100
AcDbSymbolTableRecord
100
AcDbBlockTableRecord
  2
LABLE3D_1
340
0
  0
BLOCK_RECORD
  5
9A
330
130
100
AcDbSymbolTableRecord
100
AcDbBlockTableRecord
  2
DimnDraft3D1
340
0
  0
BLOCK_RECORD
  5
A5
330
130
100
AcDbSymbolTableRecord
100
AcDbBlockTableRecord
  2
DimnDraft3D2
340
0
  0
BLOCK_RECORD
  5
AF
330
130
100
AcDbSymbolTableRecord
100
AcDbBlockTableRecord
  2
DimnDraft3D3
340
0
  0
BLOCK_RECORD
  5
B9
330
130
100
AcDbSymbolTableRecord
100
AcDbBlockTableRecord
  2
DimnDraft3D4
340
0
  0
BLOCK_RECORD
  5
C3
330
130
100
AcDbSymbolTableRecord
100
AcDbBlockTableRecord
  2
DimnDraft3D5
340
0
  0
BLOCK_RECORD
  5
CD
330
130
100
AcDbSymbolTableRecord
100
AcDbBlockTableRecord
  2
DimnDraft3D66
340
0
  0
BLOCK_RECORD
  5
231
330
130
100
AcDbSymbolTableRecord
100
AcDbBlockTableRecord
  2
*D8
340
0
  0
BLOCK_RECORD
  5
24B
330
130
100
AcDbSymbolTableRecord
100
AcDbBlockTableRecord
  2
*D9
340
0
  0
BLOCK_RECORD
  5
3EB
330
130
100
AcDbSymbolTableRecord
100
AcDbBlockTableRecord
  2
*D10
340
0
  0
BLOCK_RECORD
  5
43B
330
130
100
AcDbSymbolTableRecord
100
AcDbBlockTableRecord
  2
*D11
340
0
  0
BLOCK_RECORD
  5
67A
330
130
100
AcDbSymbolTableRecord
100
AcDbBlockTableRecord
  2
*D13
340
0
  0
BLOCK_RECORD
  5
688
330
130
100
AcDbSymbolTableRecord
100
AcDbBlockTableRecord
  2
*D14
340
0
  0
ENDTAB
  0
ENDSEC
  0
SECTION
  2
BLOCKS
  0
BLOCK
  5
20
330
1F
100
AcDbEntity
  8
0
100
AcDbBlockBegin
  2
*Model_Space
 70
     0
 10
0.0
 20
0.0
 30
0.0
  3
*Model_Space
  1

  0
ENDBLK
  5
21
330
1F
100
AcDbEntity
  8
0
100
AcDbBlockEnd
  0
BLOCK
  5
1C
330
1B
100
AcDbEntity
 67
     1
  8
0
100
AcDbBlockBegin
  2
*Paper_Space
 70
     0
 10
0.0
 20
0.0
 30
0.0
  3
*Paper_Space
  1

  0
ENDBLK
  5
1D
330
1B
100
AcDbEntity
 67
     1
  8
0
100
AcDbBlockEnd
  0
BLOCK
  5
24
330
23
100
AcDbEntity
 67
     1
  8
0
100
AcDbBlockBegin
  2
*Paper_Space0
 70
     0
 10
0.0
 20
0.0
 30
0.0
  3
*Paper_Space0
  1

  0
ENDBLK
  5
25
330
23
100
AcDbEntity
 67
     1
  8
0
100
AcDbBlockEnd
  0
BLOCK
  5
98
330
8F
100
AcDbEntity
  8
0
100
AcDbBlockBegin
  2
LABLE3D_1
 70
     0
 10
0.0
 20
0.0
 30
0.0
  3
LABLE3D_1
  1

  0
MTEXT
  5
90
330
8F
100
AcDbEntity
  8
SK2
100
AcDbMText
 10
85.606536
 20
-23.513288
 30
0.0
 40
3.5
 41
0.0
 71
     7
 72
     5
  1
\W00.662;\fsimplex.shx,bigfont.shx;R 3\P 
  7
DEFAULT
 73
     1
 44
1.084337
  0
LINE
  5
92
330
8F
100
AcDbEntity
  8
SK2
100
AcDbLine
 10
83.23153600000003
 20
-16.513288
 30
0.0
 11
77.231548
 21
-16.513288
 31
0.0
  0
LINE
  5
93
330
8F
100
AcDbEntity
  8
SK2
100
AcDbLine
 10
63.867495
 20
-7.924786999999997
 30
0.0
 11
77.231548
 21
-16.513288
 31
0.0
  0
LINE
  5
94
330
8F
100
AcDbEntity
  8
SK2
100
AcDbLine
 10
63.867495
 20
-7.924786999999997
 30
0.0
 11
67.061004
 21
-9.429383999999997
 31
0.0
  0
LINE
  5
95
330
8F
100
AcDbEntity
  8
SK2
100
AcDbLine
 10
63.867495
 20
-7.924786999999997
 30
0.0
 11
66.56277199999999
 21
-10.204659
 31
0.0
  0
LINE
  5
96
330
8F
100
AcDbEntity
  8
SK2
100
AcDbLine
 10
67.061004
 20
-9.429383999999997
 30
0.0
 11
66.56277199999999
 21
-10.204659
 31
0.0
  0
ENDBLK
  5
99
330
8F
100
AcDbEntity
  8
0
100
AcDbBlockEnd
  0
BLOCK
  5
A2
330
9A
100
AcDbEntity
  8
0
100
AcDbBlockBegin
  2
DimnDraft3D1
 70
     0
 10
0.0
 20
0.0
 30
0.0
  3
DimnDraft3D1
  1

  0
LINE
  5
638
330
9A
100
AcDbEntity
  8
2
440
 16777216
370
    -2
100
AcDbLine
 10
64.3875
 20
-7.961744999999997
 30
0.0
 11
96.80954280766387
 21
-7.961745000000006
 31
0.0
  0
LINE
  5
639
330
9A
100
AcDbEntity
  8
2
440
 16777216
370
    -2
100
AcDbLine
 10
64.3875
 20
7.961744999999997
 30
0.0
 11
96.80954280766387
 21
7.961744999999988
 31
0.0
  0
LINE
  5
63A
330
9A
100
AcDbEntity
  8
2
440
 16777216
370
    -2
100
AcDbLine
 10
91.80954280766387
 20
-3.391745000000005
 30
0.0
 11
91.80954280766387
 21
3.391744999999989
 31
0.0
  0
LINE
  5
63B
330
9A
100
AcDbEntity
  8
2
440
 16777216
370
    -2
100
AcDbLine
 10
91.80954280766387
 20
7.961744999999989
 30
0.0
 11
91.80954280766387
 21
24.41745928571427
 31
0.0
  0
SOLID
  5
63C
330
9A
100
AcDbEntity
  8
2
440
 16777216
100
AcDbTrace
 10
91.0478761409972
 20
-3.391745000000005
 30
0.0
 11
92.57120947433055
 21
-3.391745000000005
 31
0.0
 12
91.80954280766387
 22
-7.961745000000005
 32
0.0
 13
91.80954280766387
 23
-7.961745000000005
 33
0.0
  0
SOLID
  5
63D
330
9A
100
AcDbEntity
  8
2
440
 16777216
100
AcDbTrace
 10
91.0478761409972
 20
3.391744999999989
 30
0.0
 11
92.57120947433055
 21
3.391744999999989
 31
0.0
 12
91.80954280766387
 22
7.961744999999989
 32
0.0
 13
91.80954280766387
 23
7.961744999999989
 33
0.0
  0
MTEXT
  5
63E
330
9A
100
AcDbEntity
  8
2
440
 16777216
370
    -3
100
AcDbMText
 10
88.00954280766388
 20
18.47460214285714
 30
0.0
 40
3.0
 41
0.0
 71
     5
 72
     1
  1
\A1;Ø16
  7
SANDVIK_STYLE
 11
0.0000000000000001
 21
1.0
 31
0.0
 73
     1
 44
1.0
  0
POINT
  5
63F
330
9A
100
AcDbEntity
  8
Defpoints
 62
     0
440
 16777216
100
AcDbPoint
 10
64.3875
 20
-7.961744999999997
 30
0.0
  0
POINT
  5
640
330
9A
100
AcDbEntity
  8
Defpoints
 62
     0
440
 16777216
100
AcDbPoint
 10
64.3875
 20
7.961744999999997
 30
0.0
  0
POINT
  5
641
330
9A
100
AcDbEntity
  8
Defpoints
 62
     0
440
 16777216
100
AcDbPoint
 10
91.80954280766387
 20
7.961744999999989
 30
0.0
  0
ENDBLK
  5
A3
330
9A
100
AcDbEntity
  8
0
100
AcDbBlockEnd
  0
BLOCK
  5
AC
330
A5
100
AcDbEntity
  8
0
100
AcDbBlockBegin
  2
DimnDraft3D2
 70
     0
 10
0.0
 20
0.0
 30
0.0
  3
DimnDraft3D2
  1

  0
LINE
  5
642
330
A5
100
AcDbEntity
  8
SK2
440
 16777216
370
    -2
100
AcDbLine
 10
-50.98749999999999
 20
-7.999999999999999
 30
0.0
 11
-77.07638119233097
 21
-7.999999999999992
 31
0.0
  0
LINE
  5
643
330
A5
100
AcDbEntity
  8
SK2
440
 16777216
370
    -2
100
AcDbLine
 10
-50.98749999999999
 20
8.0
 30
0.0
 11
-77.07638119233097
 21
8.000000000000007
 31
0.0
  0
LINE
  5
644
330
A5
100
AcDbEntity
  8
SK2
440
 16777216
370
    -2
100
AcDbLine
 10
-72.07638119233097
 20
-3.429999999999992
 30
0.0
 11
-72.07638119233097
 21
3.430000000000005
 31
0.0
  0
SOLID
  5
645
330
A5
100
AcDbEntity
  8
SK2
440
 16777216
100
AcDbTrace
 10
-72.83804785899764
 20
-3.429999999999992
 30
0.0
 11
-71.3147145256643
 21
-3.429999999999992
 31
0.0
 12
-72.07638119233097
 22
-7.999999999999992
 32
0.0
 13
-72.07638119233097
 23
-7.999999999999992
 33
0.0
  0
SOLID
  5
646
330
A5
100
AcDbEntity
  8
SK2
440
 16777216
100
AcDbTrace
 10
-72.83804785899764
 20
3.430000000000005
 30
0.0
 11
-71.3147145256643
 21
3.430000000000005
 31
0.0
 12
-72.07638119233097
 22
8.000000000000005
 32
0.0
 13
-72.07638119233097
 23
8.000000000000005
 33
0.0
  0
MTEXT
  5
647
330
A5
100
AcDbEntity
  8
SK2
440
 16777216
370
    -3
100
AcDbMText
 10
-75.87638119233097
 20
-0.0000000000000049
 30
0.0
 40
3.0
 41
0.0
 71
     5
 72
     1
  1
\A1;Ø16
  7
SANDVIK_STYLE
 11
0.0000000000000001
 21
1.0
 31
0.0
 73
     1
 44
1.0
  0
POINT
  5
648
330
A5
100
AcDbEntity
  8
Defpoints
 62
     0
440
 16777216
100
AcDbPoint
 10
-50.98749999999999
 20
-7.999999999999999
 30
0.0
  0
POINT
  5
649
330
A5
100
AcDbEntity
  8
Defpoints
 62
     0
440
 16777216
100
AcDbPoint
 10
-50.98749999999999
 20
8.0
 30
0.0
  0
POINT
  5
64A
330
A5
100
AcDbEntity
  8
Defpoints
 62
     0
440
 16777216
100
AcDbPoint
 10
-72.07638119233097
 20
8.000000000000005
 30
0.0
  0
ENDBLK
  5
AD
330
A5
100
AcDbEntity
  8
0
100
AcDbBlockEnd
  0
BLOCK
  5
B6
330
AF
100
AcDbEntity
  8
0
100
AcDbBlockBegin
  2
DimnDraft3D3
 70
     0
 10
0.0
 20
0.0
 30
0.0
  3
DimnDraft3D3
  1

  0
LINE
  5
39F
330
AF
100
AcDbEntity
  8
SK2
440
 16777216
370
    -2
100
AcDbLine
 10
0.0
 20
-9.5875
 30
0.0
 11
-0.0000000000000007
 21
-21.004587
 31
0.0
  0
LINE
  5
3A0
330
AF
100
AcDbEntity
  8
SK2
440
 16777216
370
    -2
100
AcDbLine
 10
-47.99999999999999
 20
-8.982246399192886
 30
0.0
 11
-47.99999999999999
 21
-21.004587
 31
0.0
  0
LINE
  5
3A1
330
AF
100
AcDbEntity
  8
SK2
440
 16777216
370
    -2
100
AcDbLine
 10
-4.57
 20
-16.004587
 30
0.0
 11
-43.42999999999999
 21
-16.004587
 31
0.0
  0
SOLID
  5
3A2
330
AF
100
AcDbEntity
  8
SK2
440
 16777216
100
AcDbTrace
 10
-4.57
 20
-15.24292033333333
 30
0.0
 11
-4.57
 21
-16.76625366666667
 31
0.0
 12
-0.0000000000000004
 22
-16.004587
 32
0.0
 13
-0.0000000000000004
 23
-16.004587
 33
0.0
  0
SOLID
  5
3A3
330
AF
100
AcDbEntity
  8
SK2
440
 16777216
100
AcDbTrace
 10
-43.42999999999999
 20
-15.24292033333333
 30
0.0
 11
-43.42999999999999
 21
-16.76625366666667
 31
0.0
 12
-47.99999999999999
 22
-16.004587
 32
0.0
 13
-47.99999999999999
 23
-16.004587
 33
0.0
  0
MTEXT
  5
3A4
330
AF
100
AcDbEntity
  8
SK2
440
 16777216
370
    -3
100
AcDbMText
 10
-24.0
 20
-12.204587
 30
0.0
 40
3.0
 41
0.0
 71
     5
 72
     1
  1
\A1;48
  7
SANDVIK_STYLE
 73
     1
 44
1.0
  0
POINT
  5
3A5
330
AF
100
AcDbEntity
  8
Defpoints
 62
     0
440
 16777216
100
AcDbPoint
 10
0.0
 20
-9.5875
 30
0.0
  0
POINT
  5
3A6
330
AF
100
AcDbEntity
  8
Defpoints
 62
     0
440
 16777216
100
AcDbPoint
 10
-47.99999999999999
 20
-8.982246399192886
 30
0.0
  0
POINT
  5
3A7
330
AF
100
AcDbEntity
  8
Defpoints
 62
     0
440
 16777216
100
AcDbPoint
 10
-47.99999999999999
 20
-16.004587
 30
0.0
  0
ENDBLK
  5
B7
330
AF
100
AcDbEntity
  8
0
100
AcDbBlockEnd
  0
BLOCK
  5
C0
330
B9
100
AcDbEntity
  8
0
100
AcDbBlockBegin
  2
DimnDraft3D4
 70
     0
 10
0.0
 20
0.0
 30
0.0
  3
DimnDraft3D4
  1

  0
LINE
  5
6B2
330
B9
100
AcDbEntity
  8
SK2
440
 16777216
370
    -2
100
AcDbLine
 10
-47.99999999999998
 20
-8.982246399192886
 30
0.0
 11
-47.99999999999998
 21
-50.14326665048949
 31
0.0
  0
LINE
  5
6B3
330
B9
100
AcDbEntity
  8
SK2
440
 16777216
370
    -2
100
AcDbLine
 10
67.00312405880357
 20
-11.17060347045321
 30
0.0
 11
67.00312405880357
 21
-50.14326665048949
 31
0.0
  0
LINE
  5
6B4
330
B9
100
AcDbEntity
  8
SK2
440
 16777216
370
    -2
100
AcDbLine
 10
-43.42999999999999
 20
-45.14326665048949
 30
0.0
 11
62.43312405880356
 21
-45.14326665048949
 31
0.0
  0
SOLID
  5
6B5
330
B9
100
AcDbEntity
  8
SK2
440
 16777216
100
AcDbTrace
 10
-43.42999999999999
 20
-44.38159998382282
 30
0.0
 11
-43.42999999999999
 21
-45.90493331715616
 31
0.0
 12
-47.99999999999998
 22
-45.14326665048949
 32
0.0
 13
-47.99999999999998
 23
-45.14326665048949
 33
0.0
  0
SOLID
  5
6B6
330
B9
100
AcDbEntity
  8
SK2
440
 16777216
100
AcDbTrace
 10
62.43312405880356
 20
-44.38159998382282
 30
0.0
 11
62.43312405880356
 21
-45.90493331715616
 31
0.0
 12
67.00312405880357
 22
-45.14326665048949
 32
0.0
 13
67.00312405880357
 23
-45.14326665048949
 33
0.0
  0
MTEXT
  5
6B7
330
B9
100
AcDbEntity
  8
SK2
440
 16777216
370
    -3
100
AcDbMText
 10
9.501562029401789
 20
-41.34326665048949
 30
0.0
 40
3.0
 41
0.0
 71
     5
 72
     1
  1
\A1;115
  7
SANDVIK_STYLE
 73
     1
 44
1.0
  0
POINT
  5
6B8
330
B9
100
AcDbEntity
  8
Defpoints
 62
     0
440
 16777216
100
AcDbPoint
 10
-47.99999999999998
 20
-8.982246399192886
 30
0.0
  0
POINT
  5
6B9
330
B9
100
AcDbEntity
  8
Defpoints
 62
     0
440
 16777216
100
AcDbPoint
 10
67.00312405880357
 20
-11.17060347045321
 30
0.0
  0
POINT
  5
6BA
330
B9
100
AcDbEntity
  8
Defpoints
 62
     0
440
 16777216
100
AcDbPoint
 10
67.00312405880357
 20
-45.14326665048949
 30
0.0
  0
ENDBLK
  5
C1
330
B9
100
AcDbEntity
  8
0
100
AcDbBlockEnd
  0
BLOCK
  5
CA
330
C3
100
AcDbEntity
  8
0
100
AcDbBlockBegin
  2
DimnDraft3D5
 70
     0
 10
0.0
 20
0.0
 30
0.0
  3
DimnDraft3D5
  1

  0
LINE
  5
3BB
330
C3
100
AcDbEntity
  8
2
440
 16777216
370
    -2
100
AcDbLine
 10
67.0
 20
1.587499999999999
 30
0.0
 11
67.0
 21
18.913416
 31
0.0
  0
LINE
  5
3BC
330
C3
100
AcDbEntity
  8
2
440
 16777216
370
    -2
100
AcDbLine
 10
31.0
 20
8.589228232415308
 30
0.0
 11
31.0
 21
18.913416
 31
0.0
  0
LINE
  5
3BD
330
C3
100
AcDbEntity
  8
2
440
 16777216
370
    -2
100
AcDbLine
 10
62.43
 20
13.913416
 30
0.0
 11
35.57
 21
13.913416
 31
0.0
  0
SOLID
  5
3BE
330
C3
100
AcDbEntity
  8
2
440
 16777216
100
AcDbTrace
 10
62.43
 20
14.67508266666667
 30
0.0
 11
62.43
 21
13.15174933333333
 31
0.0
 12
67.0
 22
13.913416
 32
0.0
 13
67.0
 23
13.913416
 33
0.0
  0
SOLID
  5
3BF
330
C3
100
AcDbEntity
  8
2
440
 16777216
100
AcDbTrace
 10
35.57
 20
14.67508266666667
 30
0.0
 11
35.57
 21
13.15174933333333
 31
0.0
 12
31.0
 22
13.913416
 32
0.0
 13
31.0
 23
13.913416
 33
0.0
  0
MTEXT
  5
3C0
330
C3
100
AcDbEntity
  8
2
440
 16777216
370
    -3
100
AcDbMText
 10
49.0
 20
17.713416
 30
0.0
 40
3.0
 41
0.0
 71
     5
 72
     1
  1
\A1;36
  7
SANDVIK_STYLE
 73
     1
 44
1.0
  0
POINT
  5
3C1
330
C3
100
AcDbEntity
  8
Defpoints
 62
     0
440
 16777216
100
AcDbPoint
 10
67.0
 20
1.587499999999999
 30
0.0
  0
POINT
  5
3C2
330
C3
100
AcDbEntity
  8
Defpoints
 62
     0
440
 16777216
100
AcDbPoint
 10
31.0
 20
8.589228232415308
 30
0.0
  0
POINT
  5
3C3
330
C3
100
AcDbEntity
  8
Defpoints
 62
     0
440
 16777216
100
AcDbPoint
 10
31.0
 20
13.913416
 30
0.0
  0
ENDBLK
  5
CB
330
C3
100
AcDbEntity
  8
0
100
AcDbBlockEnd
  0
BLOCK
  5
CE
330
CD
100
AcDbEntity
  8
0
100
AcDbBlockBegin
  2
DimnDraft3D66
 70
     0
 10
0.0
 20
0.0
 30
0.0
  3
DimnDraft3D66
  1

  0
LINE
  5
D0
330
CD
100
AcDbEntity
  8
2
100
AcDbLine
 10
66.2
 20
-1.587499999999999
 30
0.0
 11
66.2
 21
-18.004587
 31
0.0
  0
LINE
  5
D1
330
CD
100
AcDbEntity
  8
2
100
AcDbLine
 10
1.199999999999999
 20
-9.1875
 30
0.0
 11
1.199999999999999
 21
-18.004587
 31
0.0
  0
LINE
  5
D2
330
CD
100
AcDbEntity
  8
2
100
AcDbLine
 10
66.2
 20
-16.004587
 30
0.0
 11
1.199999999999999
 21
-16.004587
 31
0.0
  0
SOLID
  5
D3
330
CD
100
AcDbEntity
  8
2
100
AcDbTrace
 10
66.2
 20
-16.004587
 30
0.0
 11
62.70000200000001
 21
-16.46537099999999
 31
0.0
 12
62.699998
 22
-15.543803
 32
0.0
 13
66.2
 23
-16.004587
 33
0.0
  0
SOLID
  5
D4
330
CD
100
AcDbEntity
  8
2
100
AcDbTrace
 10
1.199999999999999
 20
-16.004587
 30
0.0
 11
4.699997999999999
 21
-15.543803
 31
0.0
 12
4.700001999999996
 22
-16.46537099999999
 32
0.0
 13
1.199999999999999
 23
-16.004587
 33
0.0
  0
MTEXT
  5
D5
330
CD
100
AcDbEntity
  8
2
100
AcDbMText
 10
32.530263
 20
-15.129587
 30
0.0
 40
3.5
 41
0.0
 71
     7
 72
     5
  1
\W00.656;\fsimplex.shx,bigfont.shx;65 
  7
DEFAULT
 73
     1
 44
1.084337
  0
ENDBLK
  5
CF
330
CD
100
AcDbEntity
  8
0
100
AcDbBlockEnd
  0
BLOCK
  5
232
330
231
100
AcDbEntity
  8
0
100
AcDbBlockBegin
  2
*D8
 70
     1
 10
0.0
 20
0.0
 30
0.0
  3
*D8
  1

  0
LINE
  5
233
330
231
100
AcDbEntity
  8
2
440
 16777216
370
    -2
100
AcDbLine
 10
5.80115168
 20
7.600000000000002
 30
0.0
 11
0.7292128224257838
 21
7.600000000000002
 31
0.0
  0
LINE
  5
234
330
231
100
AcDbEntity
  8
2
440
 16777216
370
    -2
100
AcDbLine
 10
5.72921282242578
 20
-7.599999999999997
 30
0.0
 11
0.7292128224257805
 21
-7.599999999999996
 31
0.0
  0
LINE
  5
235
330
231
100
AcDbEntity
  8
2
440
 16777216
370
    -2
100
AcDbLine
 10
5.729212822425781
 20
-3.029999999999998
 30
0.0
 11
5.729212822425783
 21
3.030000000000001
 31
0.0
  0
LINE
  5
236
330
231
100
AcDbEntity
  8
2
440
 16777216
370
    -2
100
AcDbLine
 10
5.729212822425783
 20
7.600000000000002
 30
0.0
 11
5.729212822425787
 21
31.38428571428572
 31
0.0
  0
SOLID
  5
237
330
231
100
AcDbEntity
  8
2
440
 16777216
100
AcDbTrace
 10
4.967546155759113
 20
-3.029999999999997
 30
0.0
 11
6.490879489092447
 21
-3.029999999999998
 31
0.0
 12
5.72921282242578
 22
-7.599999999999997
 32
0.0
 13
5.72921282242578
 23
-7.599999999999997
 33
0.0
  0
SOLID
  5
238
330
231
100
AcDbEntity
  8
2
440
 16777216
100
AcDbTrace
 10
4.967546155759116
 20
3.030000000000001
 30
0.0
 11
6.490879489092447
 21
3.030000000000001
 31
0.0
 12
5.729212822425783
 22
7.600000000000002
 32
0.0
 13
5.729212822425783
 23
7.600000000000002
 33
0.0
  0
MTEXT
  5
239
330
231
100
AcDbEntity
  8
2
440
 16777216
100
AcDbMText
 10
1.929212822425784
 20
24.79857142857143
 30
0.0
 40
3.0
 41
0.0
 71
     5
 72
     1
  1
\A1;15.2
  7
SANDVIK_STYLE
 11
0.0000000000000001
 21
1.0
 31
0.0
 73
     1
 44
1.0
  0
POINT
  5
23A
330
231
100
AcDbEntity
  8
Defpoints
 62
     0
440
 16777216
100
AcDbPoint
 10
5.80115168
 20
7.600000000000002
 30
0.0
  0
POINT
  5
23B
330
231
100
AcDbEntity
  8
Defpoints
 62
     0
440
 16777216
100
AcDbPoint
 10
5.72921282242578
 20
-7.599999999999997
 30
0.0
  0
POINT
  5
23C
330
231
100
AcDbEntity
  8
Defpoints
 62
     0
440
 16777216
100
AcDbPoint
 10
5.72921282242578
 20
-7.599999999999997
 30
0.0
  0
ENDBLK
  5
23D
330
231
100
AcDbEntity
  8
0
100
AcDbBlockEnd
  0
BLOCK
  5
24C
330
24B
100
AcDbEntity
  8
0
100
AcDbBlockBegin
  2
*D9
 70
     1
 10
0.0
 20
0.0
 30
0.0
  3
*D9
  1

  0
LINE
  5
654
330
24B
100
AcDbEntity
  8
2
440
 16777216
370
    -2
100
AcDbLine
 10
5.801151680000002
 20
7.600000000000002
 30
0.0
 11
0.7292128224257865
 21
7.600000000000003
 31
0.0
  0
LINE
  5
655
330
24B
100
AcDbEntity
  8
2
440
 16777216
370
    -2
100
AcDbLine
 10
5.729212822425783
 20
-7.599999999999997
 30
0.0
 11
0.7292128224257831
 21
-7.599999999999996
 31
0.0
  0
LINE
  5
656
330
24B
100
AcDbEntity
  8
2
440
 16777216
370
    -2
100
AcDbLine
 10
5.729212822425783
 20
-3.029999999999998
 30
0.0
 11
5.729212822425785
 21
3.030000000000001
 31
0.0
  0
LINE
  5
657
330
24B
100
AcDbEntity
  8
2
440
 16777216
370
    -2
100
AcDbLine
 10
5.729212822425786
 20
7.600000000000002
 30
0.0
 11
5.729212822425791
 21
32.95571428571428
 31
0.0
  0
SOLID
  5
658
330
24B
100
AcDbEntity
  8
2
440
 16777216
100
AcDbTrace
 10
4.967546155759117
 20
-3.029999999999997
 30
0.0
 11
6.49087948909245
 21
-3.029999999999998
 31
0.0
 12
5.729212822425783
 22
-7.599999999999997
 32
0.0
 13
5.729212822425783
 23
-7.599999999999997
 33
0.0
  0
SOLID
  5
659
330
24B
100
AcDbEntity
  8
2
440
 16777216
100
AcDbTrace
 10
4.967546155759118
 20
3.030000000000002
 30
0.0
 11
6.490879489092452
 21
3.030000000000001
 31
0.0
 12
5.729212822425786
 22
7.600000000000002
 32
0.0
 13
5.729212822425786
 23
7.600000000000002
 33
0.0
  0
MTEXT
  5
65A
330
24B
100
AcDbEntity
  8
2
440
 16777216
100
AcDbMText
 10
1.929212822425788
 20
24.79857142857143
 30
0.0
 40
3.0
 41
0.0
 71
     5
 72
     1
  1
\A1;Ø15.2
  7
SANDVIK_STYLE
 11
0.0000000000000001
 21
1.0
 31
0.0
 73
     1
 44
1.0
  0
POINT
  5
65B
330
24B
100
AcDbEntity
  8
Defpoints
 62
     0
440
 16777216
100
AcDbPoint
 10
5.801151680000002
 20
7.600000000000002
 30
0.0
  0
POINT
  5
65C
330
24B
100
AcDbEntity
  8
Defpoints
 62
     0
440
 16777216
100
AcDbPoint
 10
5.729212822425783
 20
-7.599999999999997
 30
0.0
  0
POINT
  5
65D
330
24B
100
AcDbEntity
  8
Defpoints
 62
     0
440
 16777216
100
AcDbPoint
 10
5.729212822425783
 20
-7.599999999999997
 30
0.0
  0
ENDBLK
  5
24D
330
24B
100
AcDbEntity
  8
0
100
AcDbBlockEnd
  0
BLOCK
  5
3EC
330
3EB
100
AcDbEntity
  8
0
100
AcDbBlockBegin
  2
*D10
 70
     1
 10
0.0
 20
0.0
 30
0.0
  3
*D10
  1

  0
LINE
  5
6DF
330
3EB
100
AcDbEntity
  8
2
440
 16777216
370
    -2
100
AcDbLine
 10
67.00312405880357
 20
-11.17060347045321
 30
0.0
 11
67.00312405880357
 21
-27.00908823339105
 31
0.0
  0
LINE
  5
6E0
330
3EB
100
AcDbEntity
  8
2
440
 16777216
370
    -2
100
AcDbLine
 10
30.07506048660037
 20
-8.934618902570235
 30
0.0
 11
30.07506048660037
 21
-27.00908823339105
 31
0.0
  0
LINE
  5
6E1
330
3EB
100
AcDbEntity
  8
2
440
 16777216
370
    -2
100
AcDbLine
 10
62.43312405880356
 20
-22.00908823339105
 30
0.0
 11
34.64506048660036
 21
-22.00908823339105
 31
0.0
  0
SOLID
  5
6E2
330
3EB
100
AcDbEntity
  8
2
440
 16777216
100
AcDbTrace
 10
62.43312405880356
 20
-21.24742156672438
 30
0.0
 11
62.43312405880356
 21
-22.77075490005772
 31
0.0
 12
67.00312405880357
 22
-22.00908823339105
 32
0.0
 13
67.00312405880357
 23
-22.00908823339105
 33
0.0
  0
SOLID
  5
6E3
330
3EB
100
AcDbEntity
  8
2
440
 16777216
100
AcDbTrace
 10
34.64506048660036
 20
-21.24742156672438
 30
0.0
 11
34.64506048660036
 21
-22.77075490005772
 31
0.0
 12
30.07506048660037
 22
-22.00908823339105
 32
0.0
 13
30.07506048660037
 23
-22.00908823339105
 33
0.0
  0
MTEXT
  5
6E4
330
3EB
100
AcDbEntity
  8
2
440
 16777216
100
AcDbMText
 10
48.53909227270197
 20
-18.20908823339105
 30
0.0
 40
3.0
 41
0.0
 71
     5
 72
     1
  1
\A1;37
  7
SANDVIK_STYLE
 73
     1
 44
1.0
  0
POINT
  5
6E5
330
3EB
100
AcDbEntity
  8
Defpoints
 62
     0
440
 16777216
100
AcDbPoint
 10
67.00312405880357
 20
-11.17060347045321
 30
0.0
  0
POINT
  5
6E6
330
3EB
100
AcDbEntity
  8
Defpoints
 62
     0
440
 16777216
100
AcDbPoint
 10
30.07506048660037
 20
-8.934618902570235
 30
0.0
  0
POINT
  5
6E7
330
3EB
100
AcDbEntity
  8
Defpoints
 62
     0
440
 16777216
100
AcDbPoint
 10
30.07506048660037
 20
-22.00908823339105
 30
0.0
  0
ENDBLK
  5
3ED
330
3EB
100
AcDbEntity
  8
0
100
AcDbBlockEnd
  0
BLOCK
  5
43C
330
43B
100
AcDbEntity
  8
0
100
AcDbBlockBegin
  2
*D11
 70
     1
 10
0.0
 20
0.0
 30
0.0
  3
*D11
  1

  0
LINE
  5
6C4
330
43B
100
AcDbEntity
  8
2
440
 16777216
370
    -2
100
AcDbLine
 10
67.00312405880357
 20
-11.17060347045321
 30
0.0
 11
67.00312405880357
 21
-39.02035490115299
 31
0.0
  0
LINE
  5
6C5
330
43B
100
AcDbEntity
  8
2
440
 16777216
370
    -2
100
AcDbLine
 10
0.0000000000000038
 20
-7.599999999999997
 30
0.0
 11
0.0000000000000019
 21
-39.02035490115299
 31
0.0
  0
LINE
  5
6C6
330
43B
100
AcDbEntity
  8
2
440
 16777216
370
    -2
100
AcDbLine
 10
62.43312405880356
 20
-34.02035490115299
 30
0.0
 11
4.570000000000002
 21
-34.02035490115299
 31
0.0
  0
SOLID
  5
6C7
330
43B
100
AcDbEntity
  8
2
440
 16777216
100
AcDbTrace
 10
62.43312405880356
 20
-33.25868823448632
 30
0.0
 11
62.43312405880356
 21
-34.78202156781966
 31
0.0
 12
67.00312405880357
 22
-34.02035490115299
 32
0.0
 13
67.00312405880357
 23
-34.02035490115299
 33
0.0
  0
SOLID
  5
6C8
330
43B
100
AcDbEntity
  8
2
440
 16777216
100
AcDbTrace
 10
4.570000000000002
 20
-33.25868823448632
 30
0.0
 11
4.570000000000002
 21
-34.78202156781966
 31
0.0
 12
0.0000000000000022
 22
-34.02035490115299
 32
0.0
 13
0.0000000000000022
 23
-34.02035490115299
 33
0.0
  0
MTEXT
  5
6C9
330
43B
100
AcDbEntity
  8
2
440
 16777216
100
AcDbMText
 10
33.65739787249702
 20
-30.22035490115299
 30
0.0
 40
3.0
 41
0.0
 71
     5
 72
     1
  1
\A1;67
  7
SANDVIK_STYLE
 73
     1
 44
1.0
  0
POINT
  5
6CA
330
43B
100
AcDbEntity
  8
Defpoints
 62
     0
440
 16777216
100
AcDbPoint
 10
67.00312405880357
 20
-11.17060347045321
 30
0.0
  0
POINT
  5
6CB
330
43B
100
AcDbEntity
  8
Defpoints
 62
     0
440
 16777216
100
AcDbPoint
 10
0.0000000000000038
 20
-7.599999999999997
 30
0.0
  0
POINT
  5
6CC
330
43B
100
AcDbEntity
  8
Defpoints
 62
     0
440
 16777216
100
AcDbPoint
 10
0.0000000000000022
 20
-34.02035490115299
 30
0.0
  0
ENDBLK
  5
43D
330
43B
100
AcDbEntity
  8
0
100
AcDbBlockEnd
  0
BLOCK
  5
67B
330
67A
100
AcDbEntity
  8
0
100
AcDbBlockBegin
  2
*D13
 70
     1
 10
0.0
 20
0.0
 30
0.0
  3
*D13
  1

  0
LINE
  5
695
330
67A
100
AcDbEntity
  8
0
 62
     0
440
 16777216
370
    -2
100
AcDbLine
 10
-47.99999999999998
 20
-7.4625
 30
0.0
 11
-47.99999999999998
 21
-29.23860993038413
 31
0.0
  0
LINE
  5
696
330
67A
100
AcDbEntity
  8
0
 62
     0
440
 16777216
370
    -2
100
AcDbLine
 10
0.0000000000000038
 20
-0.0625
 30
0.0
 11
0.000000000000002
 21
-29.23860993038413
 31
0.0
  0
LINE
  5
697
330
67A
100
AcDbEntity
  8
0
 62
     0
440
 16777216
370
    -2
100
AcDbLine
 10
-47.81999999999999
 20
-29.05860993038414
 30
0.0
 11
-24.56999999999999
 21
-29.05860993038414
 31
0.0
  0
LINE
  5
698
330
67A
100
AcDbEntity
  8
0
 62
     0
440
 16777216
370
    -2
100
AcDbLine
 10
-0.179999999999998
 20
-29.05860993038414
 30
0.0
 11
-23.42999999999999
 21
-29.05860993038414
 31
0.0
  0
SOLID
  5
699
330
67A
100
AcDbEntity
  8
0
 62
     0
440
 16777216
100
AcDbTrace
 10
-47.81999999999999
 20
-29.02860993038414
 30
0.0
 11
-47.81999999999999
 21
-29.08860993038414
 31
0.0
 12
-47.99999999999998
 22
-29.05860993038414
 32
0.0
 13
-47.99999999999998
 23
-29.05860993038414
 33
0.0
  0
SOLID
  5
69A
330
67A
100
AcDbEntity
  8
0
 62
     0
440
 16777216
100
AcDbTrace
 10
-0.179999999999998
 20
-29.02860993038414
 30
0.0
 11
-0.179999999999998
 21
-29.08860993038414
 31
0.0
 12
0.000000000000002
 22
-29.05860993038414
 32
0.0
 13
0.000000000000002
 23
-29.05860993038414
 33
0.0
  0
MTEXT
  5
69B
330
67A
100
AcDbEntity
  8
0
 62
     0
440
 16777216
100
AcDbMText
 10
-23.99999999999999
 20
-29.05860993038414
 30
0.0
 40
0.18
 41
0.0
 71
     5
 72
     1
  1
\A1;48.0000
 73
     1
 44
1.0
  0
POINT
  5
69C
330
67A
100
AcDbEntity
  8
Defpoints
 62
     0
440
 16777216
100
AcDbPoint
 10
-47.99999999999998
 20
-7.4
 30
0.0
  0
POINT
  5
69D
330
67A
100
AcDbEntity
  8
Defpoints
 62
     0
440
 16777216
100
AcDbPoint
 10
0.0000000000000038
 20
0.0
 30
0.0
  0
POINT
  5
69E
330
67A
100
AcDbEntity
  8
Defpoints
 62
     0
440
 16777216
100
AcDbPoint
 10
0.000000000000002
 20
-29.05860993038414
 30
0.0
  0
ENDBLK
  5
67C
330
67A
100
AcDbEntity
  8
0
100
AcDbBlockEnd
  0
BLOCK
  5
689
330
688
100
AcDbEntity
  8
0
100
AcDbBlockBegin
  2
*D14
 70
     1
 10
0.0
 20
0.0
 30
0.0
  3
*D14
  1

  0
LINE
  5
68B
330
688
100
AcDbEntity
  8
0
 62
     0
440
 16777216
370
    -2
100
AcDbLine
 10
0.0000000000000038
 20
-0.0625
 30
0.0
 11
0.0000000000000027
 21
-17.91712881436219
 31
0.0
  0
LINE
  5
68C
330
688
100
AcDbEntity
  8
0
 62
     0
440
 16777216
370
    -2
100
AcDbLine
 10
-49.19999999999999
 20
-0.0625
 30
0.0
 11
-49.19999999999999
 21
-17.91712881436219
 31
0.0
  0
LINE
  5
68D
330
688
100
AcDbEntity
  8
0
 62
     0
440
 16777216
370
    -2
100
AcDbLine
 10
-0.1799999999999973
 20
-17.73712881436219
 30
0.0
 11
-24.01499999999999
 21
-17.73712881436219
 31
0.0
  0
LINE
  5
68E
330
688
100
AcDbEntity
  8
0
 62
     0
440
 16777216
370
    -2
100
AcDbLine
 10
-49.01999999999999
 20
-17.73712881436219
 30
0.0
 11
-25.18499999999999
 21
-17.73712881436219
 31
0.0
  0
SOLID
  5
68F
330
688
100
AcDbEntity
  8
0
 62
     0
440
 16777216
100
AcDbTrace
 10
-0.1799999999999973
 20
-17.70712881436219
 30
0.0
 11
-0.1799999999999973
 21
-17.76712881436219
 31
0.0
 12
0.0000000000000027
 22
-17.73712881436219
 32
0.0
 13
0.0000000000000027
 23
-17.73712881436219
 33
0.0
  0
SOLID
  5
690
330
688
100
AcDbEntity
  8
0
 62
     0
440
 16777216
100
AcDbTrace
 10
-49.01999999999999
 20
-17.70712881436219
 30
0.0
 11
-49.01999999999999
 21
-17.76712881436219
 31
0.0
 12
-49.19999999999999
 22
-17.73712881436219
 32
0.0
 13
-49.19999999999999
 23
-17.73712881436219
 33
0.0
  0
MTEXT
  5
691
330
688
100
AcDbEntity
  8
0
 62
     0
440
 16777216
100
AcDbMText
 10
-24.59999999999999
 20
-17.73712881436219
 30
0.0
 40
0.18
 41
0.0
 71
     5
 72
     1
  1
\A1;49.2000
 73
     1
 44
1.0
  0
POINT
  5
692
330
688
100
AcDbEntity
  8
Defpoints
 62
     0
440
 16777216
100
AcDbPoint
 10
0.0000000000000038
 20
0.0
 30
0.0
  0
POINT
  5
693
330
688
100
AcDbEntity
  8
Defpoints
 62
     0
440
 16777216
100
AcDbPoint
 10
-49.19999999999999
 20
0.0
 30
0.0
  0
POINT
  5
694
330
688
100
AcDbEntity
  8
Defpoints
 62
     0
440
 16777216
100
AcDbPoint
 10
-49.19999999999999
 20
-17.73712881436219
 30
0.0
  0
ENDBLK
  5
68A
330
688
100
AcDbEntity
  8
0
100
AcDbBlockEnd
  0
ENDSEC
  0
SECTION
  2
ENTITIES
  0
ARC
  5
65
330
1F
100
AcDbEntity
  8
1
100
AcDbCircle
 10
-64.0
 20
-5.0
 30
0.0
 40
3.000000000000008
210
0.0
220
0.0
230
-1.0
100
AcDbArc
 50
180.0
 51
257.184825
  0
ARC
  5
66
330
1F
100
AcDbEntity
  8
1
100
AcDbCircle
 10
-0.0000000000000038
 20
-9.599999999999999
 30
0.0
 40
1.99999999999687
210
0.0
220
0.0
230
-1.0
100
AcDbArc
 50
53.130102
 51
90.0
  0
ARC
  5
67
330
1F
100
AcDbEntity
  8
1
100
AcDbCircle
 10
64.0
 20
5.0
 30
0.0
 40
3.0
100
AcDbArc
 50
76.152265
 51
77.108897
  0
ARC
  5
68
330
1F
100
AcDbEntity
  8
1
100
AcDbCircle
 10
-64.0
 20
5.0
 30
0.0
 40
2.99999999999997
210
0.0
220
0.0
230
-1.0
100
AcDbArc
 50
115.709252
 51
180.0
  0
ARC
  5
69
330
1F
100
AcDbEntity
  8
1
100
AcDbCircle
 10
-0.0000000000000038
 20
9.599999999999999
 30
0.0
 40
1.9999999999989
210
0.0
220
0.0
230
-1.0
100
AcDbArc
 50
270.0
 51
306.869898
  0
POINT
  5
42
330
1F
100
AcDbEntity
  8
81
100
AcDbPoint
 10
65.00000000000001
 20
0.0
 30
0.0
 50
360.0
  0
POINT
  5
44
330
1F
100
AcDbEntity
  8
80
100
AcDbPoint
 10
-1.199999999999995
 20
0.0
 30
0.0
 50
360.0
  0
SPLINE
  5
6A
330
1F
100
AcDbEntity
  8
1
100
AcDbSpline
210
0.0
220
0.0
230
1.0
 70
    12
 71
     3
 72
    10
 73
     6
 74
     0
 42
0.000000001
 43
0.0000000001
 40
0.0
 40
0.0
 40
0.0
 40
0.0
 40
0.148029818979866
 40
0.148029818979866
 40
1.0
 40
1.0
 40
1.0
 40
1.0
 10
64.6674949273391
 20
-7.92478682688707
 30
0.0
 41
1.0
 10
64.63431095292801
 20
-7.93236423113223
 30
0.0
 41
1.0
 10
64.60113800005361
 20
-7.93907500906599
 30
0.0
 41
1.0
 10
64.37766043730561
 20
-7.978461404254827
 30
0.0
 41
1.0
 10
64.18903292689631
 20
-7.983749538026298
 30
0.0
 41
1.0
 10
64.0
 20
-7.96174484258594
 30
0.0
 41
1.0
  0
SPLINE
  5
6B
330
1F
100
AcDbEntity
  8
1
100
AcDbSpline
210
0.0
220
0.0
230
1.0
 70
    12
 71
     3
 72
    14
 73
    10
 74
     0
 42
0.000000001
 43
0.0000000001
 40
-0.0437705255024644
 40
-0.0437705255024644
 40
-0.0437705255024644
 40
-0.0437705255024644
 40
-0.030596947103886
 40
-0.030596947103886
 40
-0.030596947103886
 40
0.0
 40
0.0
 40
0.0
 40
1.0
 40
1.0
 40
1.0
 40
1.0
 10
29.30951889135452
 20
6.445924278204022
 30
0.0
 41
1.0
 10
29.31157777543545
 20
6.447155134152223
 30
0.0
 41
1.0
 10
29.31363665951636
 20
6.448385990100419
 30
0.0
 41
1.0
 10
29.31569554359727
 20
6.449616846048618
 30
0.0
 41
1.0
 10
29.32047750681265
 20
6.452475631505394
 30
0.0
 41
1.0
 10
29.32525947002801
 20
6.455334416962169
 30
0.0
 41
1.0
 10
29.33004169854891
 20
6.458188435789709
 30
0.0
 41
1.0
 10
29.4863392698277
 20
6.55146633105974
 30
0.0
 41
1.0
 10
29.6429202347354
 20
6.639652615741107
 30
0.0
 41
1.0
 10
29.8
 20
6.722604220270707
 30
0.0
 41
1.0
  0
SPLINE
  5
6C
330
1F
100
AcDbEntity
  8
1
100
AcDbSpline
210
0.0
220
0.0
230
1.0
 70
    12
 71
     3
 72
    12
 73
     8
 74
     0
 42
0.000000001
 43
0.0000000001
 40
0.0
 40
0.0
 40
0.0
 40
0.0
 40
0.5
 40
0.5
 40
0.75
 40
0.75
 40
1.0
 40
1.0
 40
1.0
 40
1.0
 10
29.8
 20
-6.722604220270707
 30
0.0
 41
1.0
 10
30.0129638197431
 20
-6.835067404339499
 30
0.0
 41
1.0
 10
30.2239074547926
 20
-6.96621853860267
 30
0.0
 41
1.0
 10
30.5278960990719
 20
-7.194141179215619
 30
0.0
 41
1.0
 10
30.6271008286935
 20
-7.275357348545037
 30
0.0
 41
1.0
 10
30.8190137886414
 20
-7.448893508208067
 30
0.0
 41
1.0
 10
30.9116098327181
 20
-7.54117023391782
 30
0.0
 41
1.0
 10
31.0
 20
-7.63930721188839
 30
0.0
 41
1.0
  0
SPLINE
  5
6D
330
1F
100
AcDbEntity
  8
1
100
AcDbSpline
210
0.0
220
0.0
230
1.0
 70
    12
 71
     3
 72
    40
 73
    36
 74
     0
 42
0.000000001
 43
0.0000000001
 40
0.0
 40
0.0
 40
0.0
 40
0.0
 40
0.0547555166200317
 40
0.0547555166200317
 40
0.109511033240063
 40
0.109511033240063
 40
0.219022066480127
 40
0.219022066480127
 40
0.273777583100159
 40
0.273777583100159
 40
0.301155341410175
 40
0.301155341410175
 40
0.32853309972019
 40
0.32853309972019
 40
0.438044132960254
 40
0.438044132960254
 40
0.547555166200318
 40
0.547555166200318
 40
0.6023106828203501
 40
0.6023106828203501
 40
0.6296884411303659
 40
0.6296884411303659
 40
0.657066199440382
 40
0.657066199440382
 40
0.7665772326804459
 40
0.7665772326804459
 40
0.876088265920511
 40
0.876088265920511
 40
0.9308437825405427
 40
0.9308437825405427
 40
0.9582215408505588
 40
0.9582215408505588
 40
0.9855992991605747
 40
0.9855992991605747
 40
1.0
 40
1.0
 40
1.0
 40
1.0
 10
64.0
 20
1.33777280889086
 30
0.0
 41
1.0
 10
63.82676325218771
 20
1.541309340286549
 30
0.0
 41
1.0
 10
63.65357439734641
 20
1.743463201693149
 30
0.0
 41
1.0
 10
63.30728419767611
 20
2.143811352540409
 30
0.0
 41
1.0
 10
63.13400164784461
 20
2.342203719033538
 30
0.0
 41
1.0
 10
62.61628034665879
 20
2.92731736781852
 30
0.0
 41
1.0
 10
62.27299217344762
 20
3.305261012193278
 30
0.0
 41
1.0
 10
61.75728044060111
 20
3.85143412870445
 30
0.0
 41
1.0
 10
61.58523178550209
 20
4.030017036045896
 30
0.0
 41
1.0
 10
61.3265060247334
 20
4.29230946772046
 30
0.0
 41
1.0
 10
61.2401563085453
 20
4.378810233709939
 30
0.0
 41
1.0
 10
61.0671662330294
 20
4.54988271372647
 30
0.0
 41
1.0
 10
60.98048596163141
 20
4.63448900422037
 30
0.0
 41
1.0
 10
60.54867093800041
 20
5.050124623978429
 30
0.0
 41
1.0
 10
60.20626776842161
 20
5.360960557729268
 30
0.0
 41
1.0
 10
59.5227663538774
 20
5.937697167610137
 30
0.0
 41
1.0
 10
59.18171613468978
 20
6.203620704147849
 30
0.0
 41
1.0
 10
58.66756739713701
 20
6.566537665532137
 30
0.0
 41
1.0
 10
58.4957684146646
 20
6.68151134855103
 30
0.0
 41
1.0
 10
58.23699420209941
 20
6.84458069727353
 30
0.0
 41
1.0
 10
58.15047686541938
 20
6.897417480969918
 30
0.0
 41
1.0
 10
57.97734690318461
 20
6.9996745012904
 30
0.0
 41
1.0
 10
57.89099512740509
 20
7.04894385159443
 30
0.0
 41
1.0
 10
57.46008704298272
 20
7.28603644316283
 30
0.0
 41
1.0
 10
57.11809141589349
 20
7.446181694014398
 30
0.0
 41
1.0
 10
56.4349035190309
 20
7.707493920690517
 30
0.0
 41
1.0
 10
56.09365146551411
 20
7.808642857829058
 30
0.0
 41
1.0
 10
55.57886804373642
 20
7.914770700810749
 30
0.0
 41
1.0
 10
55.4067896159899
 20
7.942531888787438
 30
0.0
 41
1.0
 10
55.14745561047423
 20
7.972435543386919
 30
0.0
 41
1.0
 10
55.06075175160071
 20
7.98044261109507
 30
0.0
 41
1.0
 10
54.888005429646
 20
7.992425867294968
 30
0.0
 41
1.0
 10
54.8018249327618
 20
7.99642134310747
 30
0.0
 41
1.0
 10
54.67055114036321
 20
7.999507136657997
 30
0.0
 41
1.0
 10
54.62534533755201
 20
8.000026109607718
 30
0.0
 41
1.0
 10
54.58017715886989
 20
8.000002244877148
 30
0.0
 41
1.0
  0
SPLINE
  5
6E
330
1F
100
AcDbEntity
  8
1
100
AcDbSpline
210
0.0
220
0.0
230
1.0
 70
    12
 71
     3
 72
    20
 73
    16
 74
     0
 42
0.000000001
 43
0.0000000001
 40
0.0
 40
0.0
 40
0.0
 40
0.0
 40
0.125000000000003
 40
0.125000000000003
 40
0.187500000000004
 40
0.187500000000004
 40
0.250000000000005
 40
0.250000000000005
 40
0.500000000000002
 40
0.500000000000002
 40
0.75
 40
0.75
 40
0.875
 40
0.875
 40
1.0
 40
1.0
 40
1.0
 40
1.0
 10
29.8
 20
-5.322373349466086
 30
0.0
 41
1.0
 10
29.5820188910356
 20
-5.1462492154678
 30
0.0
 41
1.0
 10
29.364136948669
 20
-4.961746742875386
 30
0.0
 41
1.0
 10
29.03770809972431
 20
-4.673960838257269
 30
0.0
 41
1.0
 10
28.9289168723023
 20
-4.576160185751176
 30
0.0
 41
1.0
 10
28.7111870802216
 20
-4.376940135817276
 30
0.0
 41
1.0
 10
28.6020964662454
 20
-4.27538486880087
 30
0.0
 41
1.0
 10
28.0582920853635
 20
-3.76092160865585
 30
0.0
 41
1.0
 10
27.6283342232204
 20
-3.32771234253681
 30
0.0
 41
1.0
 10
26.76868414230781
 20
-2.427125021111068
 30
0.0
 41
1.0
 10
26.3394113112339
 20
-1.959399971890089
 30
0.0
 41
1.0
 10
25.688999406073
 20
-1.237261942060428
 30
0.0
 41
1.0
 10
25.4707265006043
 20
-0.992567379807099
 30
0.0
 41
1.0
 10
25.0354631496764
 20
-0.502065817146473
 30
0.0
 41
1.0
 10
24.8179805983172
 20
-0.25579140723417
 30
0.0
 41
1.0
 10
24.60000000000001
 20
-0.009061834548362
 30
0.0
 41
1.0
  0
SPLINE
  5
6F
330
1F
100
AcDbEntity
  8
1
100
AcDbSpline
210
0.0
220
0.0
230
1.0
 70
    12
 71
     3
 72
    12
 73
     8
 74
     0
 42
0.000000001
 43
0.0000000001
 40
0.0
 40
0.0
 40
0.0
 40
0.0
 40
0.5
 40
0.5
 40
0.75
 40
0.75
 40
1.0
 40
1.0
 40
1.0
 40
1.0
 10
29.8
 20
3.544938997726009
 30
0.0
 41
1.0
 10
30.0129638197431
 20
3.331664389522268
 30
0.0
 41
1.0
 10
30.2239074547926
 20
3.130961404182189
 30
0.0
 41
1.0
 10
30.5278960990719
 20
2.84160508159474
 30
0.0
 41
1.0
 10
30.6271008286935
 20
2.74708100676466
 30
0.0
 41
1.0
 10
30.8190137886414
 20
2.56006993878856
 30
0.0
 41
1.0
 10
30.9116098327181
 20
2.46743396726762
 30
0.0
 41
1.0
 10
31.0
 20
2.375075856133828
 30
0.0
 41
1.0
  0
SPLINE
  5
70
330
1F
100
AcDbEntity
  8
1
100
AcDbSpline
210
0.0
220
0.0
230
1.0
 70
    12
 71
     3
 72
    34
 73
    30
 74
     0
 42
0.000000001
 43
0.0000000001
 40
0.0
 40
0.0
 40
0.0
 40
0.0
 40
0.0019531249999993
 40
0.0019531249999993
 40
0.0039062499999985
 40
0.007812499999998
 40
0.007812499999998
 40
0.0156249999999977
 40
0.0156249999999977
 40
0.0312499999999976
 40
0.0312499999999976
 40
0.0624999999999979
 40
0.124999999999997
 40
0.124999999999997
 40
0.249999999999997
 40
0.249999999999997
 40
0.499999999999999
 40
0.499999999999999
 40
0.625000000000001
 40
0.625000000000001
 40
0.7500000000000031
 40
0.7500000000000031
 40
0.8125000000000021
 40
0.8125000000000021
 40
0.875000000000001
 40
0.875000000000001
 40
0.937500000000001
 40
0.937500000000001
 40
1.0
 40
1.0
 40
1.0
 40
1.0
 10
31.0
 20
-7.45396738380424
 30
0.0
 41
1.0
 10
30.99902914760731
 20
-7.4525706654309
 30
0.0
 41
1.0
 10
30.99897397751801
 20
-7.45164654152541
 30
0.0
 41
1.0
 10
30.9982720252335
 20
-7.449490560336467
 30
0.0
 41
1.0
 10
30.99715295991351
 20
-7.44621392859361
 30
0.0
 41
1.0
 10
30.99589275727411
 20
-7.44284811751294
 30
0.0
 41
1.0
 10
30.99331321898481
 20
-7.43607448047868
 30
0.0
 41
1.0
 10
30.9915663036637
 20
-7.431533086697237
 30
0.0
 41
1.0
 10
30.9865076225433
 20
-7.417985204855678
 30
0.0
 41
1.0
 10
30.9831789774608
 20
-7.40893843080224
 30
0.0
 41
1.0
 10
30.9730185652085
 20
-7.381577875108827
 30
0.0
 41
1.0
 10
30.9523422139111
 20
-7.32616888703225
 30
0.0
 41
1.0
 10
30.9305898851516
 20
-7.268809835883558
 30
0.0
 41
1.0
 10
30.88553507286301
 20
-7.151570255790289
 30
0.0
 41
1.0
 10
30.85336908297611
 20
-7.06986680355519
 30
0.0
 41
1.0
 10
30.75029290154651
 20
-6.816980948466659
 30
0.0
 41
1.0
 10
30.67306117623981
 20
-6.63801668930472
 30
0.0
 41
1.0
 10
30.53827083621531
 20
-6.358892845328456
 30
0.0
 41
1.0
 10
30.49015418645231
 20
-6.264087018422427
 30
0.0
 41
1.0
 10
30.38566720242281
 20
-6.07224268421365
 30
0.0
 41
1.0
 10
30.3293378949857
 20
-5.975178687300569
 30
0.0
 41
1.0
 10
30.23617005766031
 20
-5.82949270280503
 30
0.0
 41
1.0
 10
30.20365475272721
 20
-5.78092377257261
 30
0.0
 41
1.0
 10
30.1349730042983
 20
-5.684223676489128
 30
0.0
 41
1.0
 10
30.09869859615
 20
-5.63594934477388
 30
0.0
 41
1.0
 10
30.02206149644431
 20
-5.541380784657287
 30
0.0
 41
1.0
 10
29.981723949089
 20
-5.495070924626818
 30
0.0
 41
1.0
 10
29.895586236573
 20
-5.405714330420637
 30
0.0
 41
1.0
 10
29.8498276348311
 20
-5.362633026441018
 30
0.0
 41
1.0
 10
29.80000000000071
 20
-5.322373349465347
 30
0.0
 41
1.0
  0
SPLINE
  5
71
330
1F
100
AcDbEntity
  8
1
100
AcDbSpline
210
0.0
220
0.0
230
1.0
 70
    12
 71
     3
 72
    18
 73
    14
 74
     0
 42
0.000000001
 43
0.0000000001
 40
0.0
 40
0.0
 40
0.0
 40
0.0
 40
0.249999999999999
 40
0.249999999999999
 40
0.499999999999997
 40
0.499999999999997
 40
0.5624999999999975
 40
0.5624999999999975
 40
0.624999999999996
 40
0.624999999999996
 40
0.7499999999999979
 40
0.7499999999999979
 40
1.0
 40
1.0
 40
1.0
 40
1.0
 10
24.60000000000001
 20
-2.32492500761782
 30
0.0
 41
1.0
 10
25.03663653149891
 20
-2.79556915371526
 30
0.0
 41
1.0
 10
25.46791886389091
 20
-3.24569763294667
 30
0.0
 41
1.0
 10
26.32908610346821
 20
-4.09929060018391
 30
0.0
 41
1.0
 10
26.75891372597161
 20
-4.50279593146115
 30
0.0
 41
1.0
 10
27.30090926014121
 20
-4.973268534894629
 30
0.0
 41
1.0
 10
27.4095457258804
 20
-5.065660767049418
 30
0.0
 41
1.0
 10
27.6274428569132
 20
-5.24689187638845
 30
0.0
 41
1.0
 10
27.736693302574
 20
-5.335712480416217
 30
0.0
 41
1.0
 10
28.0632884445253
 20
-5.594813271628988
 30
0.0
 41
1.0
 10
28.2802510062093
 20
-5.758390327862707
 30
0.0
 41
1.0
 10
28.93058231793871
 20
-6.22099451342334
 30
0.0
 41
1.0
 10
29.3633640993339
 20
-6.492022970709598
 30
0.0
 41
1.0
 10
29.8
 20
-6.722604220270707
 30
0.0
 41
1.0
  0
SPLINE
  5
72
330
1F
100
AcDbEntity
  8
1
100
AcDbSpline
210
0.0
220
0.0
230
1.0
 70
    12
 71
     3
 72
    34
 73
    30
 74
     0
 42
0.000000001
 43
0.0000000001
 40
0.0
 40
0.0
 40
0.0
 40
0.0
 40
0.0019531250000005
 40
0.0019531250000005
 40
0.0039062500000011
 40
0.0078125000000011
 40
0.0078125000000011
 40
0.0156250000000013
 40
0.0156250000000013
 40
0.0312500000000017
 40
0.0312500000000017
 40
0.0625000000000018
 40
0.125000000000001
 40
0.125000000000001
 40
0.250000000000001
 40
0.250000000000001
 40
0.500000000000001
 40
0.500000000000001
 40
0.6250000000000023
 40
0.6250000000000023
 40
0.7500000000000031
 40
0.7500000000000031
 40
0.8125000000000021
 40
0.8125000000000021
 40
0.8750000000000021
 40
0.8750000000000021
 40
0.937500000000001
 40
0.937500000000001
 40
1.0
 40
1.0
 40
1.0
 40
1.0
 10
31.0
 20
2.90488730266469
 30
0.0
 41
1.0
 10
30.99902914760731
 20
2.9064660141137
 30
0.0
 41
1.0
 10
30.99897397751801
 20
2.90872216701038
 30
0.0
 41
1.0
 10
30.9982720252335
 20
2.91279658773922
 30
0.0
 41
1.0
 10
30.99715295991351
 20
2.9188746989704
 30
0.0
 41
1.0
 10
30.9958927572742
 20
2.924872785305036
 30
0.0
 41
1.0
 10
30.9933132189849
 20
2.93683290759503
 30
0.0
 41
1.0
 10
30.9915663036637
 20
2.944786124534918
 30
0.0
 41
1.0
 10
30.9865076225434
 20
2.96872761374021
 30
0.0
 41
1.0
 10
30.9831789774608
 20
2.984689439419608
 30
0.0
 41
1.0
 10
30.9730185652085
 20
3.03241109578391
 30
0.0
 41
1.0
 10
30.9523422139111
 20
3.127400545745528
 30
0.0
 41
1.0
 10
30.9305898851516
 20
3.22088301656549
 30
0.0
 41
1.0
 10
30.88553507286311
 20
3.405860397020227
 30
0.0
 41
1.0
 10
30.85336908297611
 20
3.526779550087549
 30
0.0
 41
1.0
 10
30.75029290154651
 20
3.879559253570278
 30
0.0
 41
1.0
 10
30.67306117623991
 20
4.10149160775597
 30
0.0
 41
1.0
 10
30.5382708362154
 20
4.415967090356248
 30
0.0
 41
1.0
 10
30.4901541864524
 20
4.517721339466929
 30
0.0
 41
1.0
 10
30.38566720242281
 20
4.71536138881223
 30
0.0
 41
1.0
 10
30.32933789498561
 20
4.811243716595209
 30
0.0
 41
1.0
 10
30.23617005766011
 20
4.95091308368148
 30
0.0
 41
1.0
 10
30.2036547527269
 20
4.99677793815641
 30
0.0
 41
1.0
 10
30.1349730042979
 20
5.08718339231774
 30
0.0
 41
1.0
 10
30.09869859614962
 20
5.13185045307105
 30
0.0
 41
1.0
 10
30.02206149644411
 20
5.21915821035671
 30
0.0
 41
1.0
 10
29.9817239490887
 20
5.26180716435849
 30
0.0
 41
1.0
 10
29.8955862365729
 20
5.34505613222871
 30
0.0
 41
1.0
 10
29.8498276348311
 20
5.385661321681967
 30
0.0
 41
1.0
 10
29.80000000000071
 20
5.42515823998636
 30
0.0
 41
1.0
  0
SPLINE
  5
73
330
1F
100
AcDbEntity
  8
1
100
AcDbSpline
210
0.0
220
0.0
230
1.0
 70
    12
 71
     3
 72
    16
 73
    12
 74
     0
 42
0.000000001
 43
0.0000000001
 40
0.4863199397580202
 40
0.4863199397580202
 40
0.4863199397580202
 40
0.4863199397580202
 40
0.489324084992972
 40
0.553981886106752
 40
0.654263705285426
 40
0.7241406585969169
 40
0.7922723395147479
 40
0.8334241091967429
 40
0.879849081050018
 40
0.9438795890429579
 40
1.0
 40
1.0
 40
1.0
 40
1.0
 10
29.30951889135452
 20
6.445924278204022
 30
0.0
 41
1.0
 10
29.30353205409335
 20
6.447850203180352
 30
0.0
 41
1.0
 10
29.16869230769755
 20
6.491220820100477
 30
0.0
 41
1.0
 10
28.83406292937101
 20
6.598490211579668
 30
0.0
 41
1.0
 10
28.3662335181074
 20
6.74637034129714
 30
0.0
 41
1.0
 10
27.89059868220931
 20
6.89356581191313
 30
0.0
 41
1.0
 10
27.5326371885669
 20
7.0021180703626
 30
0.0
 41
1.0
 10
27.2217595831379
 20
7.09438030847551
 30
0.0
 41
1.0
 10
26.919312339753
 20
7.182465362632965
 30
0.0
 41
1.0
 10
26.5865417624904
 20
7.27740924036934
 30
0.0
 41
1.0
 10
26.34659236620251
 20
7.342826643467837
 30
0.0
 41
1.0
 10
26.23449970902551
 20
7.372836316423097
 30
0.0
 41
1.0
  0
SPLINE
  5
74
330
1F
100
AcDbEntity
  8
1
100
AcDbSpline
210
0.0
220
0.0
230
1.0
 70
    12
 71
     3
 72
   100
 73
    96
 74
     0
 42
0.000000001
 43
0.0000000001
 40
0.0
 40
0.0
 40
0.0
 40
0.0
 40
0.0039062500000002
 40
0.0039062500000002
 40
0.0058593750000002
 40
0.0058593750000002
 40
0.0078125000000003
 40
0.0078125000000003
 40
0.0156250000000004
 40
0.0156250000000004
 40
0.0234375000000005
 40
0.0234375000000005
 40
0.0312500000000007
 40
0.0312500000000007
 40
0.0390625000000008
 40
0.0390625000000008
 40
0.0468750000000009
 40
0.0468750000000009
 40
0.054687500000001
 40
0.054687500000001
 40
0.0625000000000012
 40
0.0625000000000012
 40
0.0703125000000013
 40
0.0703125000000013
 40
0.0781250000000014
 40
0.0781250000000014
 40
0.0937500000000015
 40
0.0937500000000015
 40
0.109375000000002
 40
0.109375000000002
 40
0.125000000000002
 40
0.125000000000002
 40
0.140625000000002
 40
0.140625000000002
 40
0.156250000000002
 40
0.156250000000002
 40
0.187500000000002
 40
0.187500000000002
 40
0.250000000000003
 40
0.250000000000003
 40
0.265625000000003
 40
0.265625000000003
 40
0.281250000000003
 40
0.281250000000003
 40
0.3125000000000039
 40
0.3125000000000039
 40
0.3750000000000039
 40
0.3750000000000039
 40
0.4062500000000039
 40
0.4062500000000039
 40
0.437500000000005
 40
0.437500000000005
 40
0.468750000000005
 40
0.468750000000005
 40
0.484375000000005
 40
0.484375000000005
 40
0.492187500000005
 40
0.492187500000005
 40
0.500000000000005
 40
0.500000000000005
 40
0.515625000000005
 40
0.515625000000005
 40
0.531250000000005
 40
0.531250000000005
 40
0.562500000000005
 40
0.562500000000005
 40
0.593750000000004
 40
0.593750000000004
 40
0.609375000000004
 40
0.609375000000004
 40
0.625000000000004
 40
0.625000000000004
 40
0.656250000000004
 40
0.656250000000004
 40
0.6875000000000031
 40
0.6875000000000031
 40
0.7187500000000031
 40
0.7187500000000031
 40
0.7343750000000031
 40
0.7343750000000031
 40
0.7500000000000031
 40
0.7500000000000031
 40
0.8125000000000021
 40
0.8125000000000021
 40
0.8281250000000021
 40
0.8281250000000021
 40
0.8437500000000021
 40
0.8437500000000021
 40
0.8750000000000021
 40
0.8750000000000021
 40
0.906250000000001
 40
0.906250000000001
 40
0.937500000000001
 40
0.937500000000001
 40
1.0
 40
1.0
 40
1.0
 40
1.0
 10
64.0
 20
-7.887354684036468
 30
0.0
 41
1.0
 10
64.0118501152789
 20
-7.88971611860086
 30
0.0
 41
1.0
 10
64.02372457237911
 20
-7.891968190743967
 30
0.0
 41
1.0
 10
64.0416793073464
 20
-7.89516426901753
 30
0.0
 41
1.0
 10
64.047645961266
 20
-7.896208392321107
 30
0.0
 41
1.0
 10
64.0600597566287
 20
-7.898152218058361
 30
0.0
 41
1.0
 10
64.0665383113233
 20
-7.89904560678812
 30
0.0
 41
1.0
 10
64.09877590644922
 20
-7.90339672836953
 30
0.0
 41
1.0
 10
64.1251658682865
 20
-7.9063063463382
 30
0.0
 41
1.0
 10
64.17931710499461
 20
-7.91088493369838
 30
0.0
 41
1.0
 10
64.20754154257449
 20
-7.91249311672445
 30
0.0
 41
1.0
 10
64.2663221849846
 20
-7.91387816938891
 30
0.0
 41
1.0
 10
64.29667810834327
 20
-7.913730840641847
 30
0.0
 41
1.0
 10
64.359677263751
 20
-7.91151972300565
 30
0.0
 41
1.0
 10
64.39232520531921
 20
-7.909455867925088
 30
0.0
 41
1.0
 10
64.4604435199184
 20
-7.90303439878906
 30
0.0
 41
1.0
 10
64.49544534913821
 20
-7.898701306379336
 30
0.0
 41
1.0
 10
64.56584258080841
 20
-7.887854613492097
 30
0.0
 41
1.0
 10
64.60146931826701
 20
-7.88132085142408
 30
0.0
 41
1.0
 10
64.67359186663109
 20
-7.865910272943318
 30
0.0
 41
1.0
 10
64.70925878939128
 20
-7.85720473817065
 30
0.0
 41
1.0
 10
64.7792288277126
 20
-7.83810788236298
 30
0.0
 41
1.0
 10
64.81369306600979
 20
-7.827676176804969
 30
0.0
 41
1.0
 10
64.881426281265
 20
-7.80523211830882
 30
0.0
 41
1.0
 10
64.91406412424288
 20
-7.793434898049468
 30
0.0
 41
1.0
 10
65.00904627609749
 20
-7.75649690623686
 30
0.0
 41
1.0
 10
65.068497742797
 20
-7.729820955790499
 30
0.0
 41
1.0
 10
65.18204907558518
 20
-7.672796208922159
 30
0.0
 41
1.0
 10
65.23502265405039
 20
-7.64300816113683
 30
0.0
 41
1.0
 10
65.33552492659161
 20
-7.581105715418599
 30
0.0
 41
1.0
 10
65.38306094929779
 20
-7.548970058118699
 30
0.0
 41
1.0
 10
65.47404932042102
 20
-7.48234716905318
 30
0.0
 41
1.0
 10
65.51749107772311
 20
-7.44785901840103
 30
0.0
 41
1.0
 10
65.60113290315192
 20
-7.37650004860686
 30
0.0
 41
1.0
 10
65.64113360307962
 20
-7.33979173738245
 30
0.0
 41
1.0
 10
65.75606225533132
 20
-7.227153531181611
 30
0.0
 41
1.0
 10
65.82622842677292
 20
-7.14849341437832
 30
0.0
 41
1.0
 10
66.0228356268889
 20
-6.901565274299937
 30
0.0
 41
1.0
 10
66.13557600403351
 20
-6.722381174826097
 30
0.0
 41
1.0
 10
66.26104209607049
 20
-6.479498152097338
 30
0.0
 41
1.0
 10
66.28534274864891
 20
-6.42995972474361
 30
0.0
 41
1.0
 10
66.33212854353401
 20
-6.32968066128541
 30
0.0
 41
1.0
 10
66.3546593598068
 20
-6.27885495570283
 30
0.0
 41
1.0
 10
66.41986772253051
 20
-6.1243324688887
 30
0.0
 41
1.0
 10
66.46017652104742
 20
-6.018587940558177
 30
0.0
 41
1.0
 10
66.57299065619401
 20
-5.693081760804918
 30
0.0
 41
1.0
 10
66.63727766095369
 20
-5.46522732211773
 30
0.0
 41
1.0
 10
66.72066425061273
 20
-5.106599025889097
 30
0.0
 41
1.0
 10
66.7462518284459
 20
-4.98425443339167
 30
0.0
 41
1.0
 10
66.79335359952251
 20
-4.73380550789844
 30
0.0
 41
1.0
 10
66.81486812970089
 20
-4.6056671426982
 30
0.0
 41
1.0
 10
66.8537603808986
 20
-4.346033255592177
 30
0.0
 41
1.0
 10
66.87115564540551
 20
-4.214295091390368
 30
0.0
 41
1.0
 10
66.89459725649801
 20
-4.0135278332499
 30
0.0
 41
1.0
 10
66.9019817616585
 20
-3.9460559994865
 30
0.0
 41
1.0
 10
66.9124387336172
 20
-3.843997669467058
 30
0.0
 41
1.0
 10
66.91583625496772
 20
-3.80980036469802
 30
0.0
 41
1.0
 10
66.92187909175372
 20
-3.742145485411548
 30
0.0
 41
1.0
 10
66.9245306344243
 20
-3.7086865575375
 30
0.0
 41
1.0
 10
66.93133973899851
 20
-3.609738222121587
 30
0.0
 41
1.0
 10
66.93445947431571
 20
-3.54550450583093
 30
0.0
 41
1.0
 10
66.93852719646831
 20
-3.42007520123712
 30
0.0
 41
1.0
 10
66.9394628364123
 20
-3.358832212065069
 30
0.0
 41
1.0
 10
66.9392354577064
 20
-3.179929738003008
 30
0.0
 41
1.0
 10
66.9351546305934
 20
-3.071558066763939
 30
0.0
 41
1.0
 10
66.91888186991661
 20
-2.871148401282169
 30
0.0
 41
1.0
 10
66.90658725246681
 20
-2.77922518330493
 30
0.0
 41
1.0
 10
66.87994721491562
 20
-2.650489187057329
 30
0.0
 41
1.0
 10
66.86969939298123
 20
-2.60907821516136
 30
0.0
 41
1.0
 10
66.84612904078701
 20
-2.528644925306048
 30
0.0
 41
1.0
 10
66.83286977640631
 20
-2.48986530449588
 30
0.0
 41
1.0
 10
66.78858681870931
 20
-2.37723619410912
 30
0.0
 41
1.0
 10
66.75298275959661
 20
-2.30673696720768
 30
0.0
 41
1.0
 10
66.66927264412301
 20
-2.168852545647347
 30
0.0
 41
1.0
 10
66.62114987992051
 20
-2.101551944580188
 30
0.0
 41
1.0
 10
66.51278613546421
 20
-1.96530349900996
 30
0.0
 41
1.0
 10
66.4525753232178
 20
-1.8963316177593
 30
0.0
 41
1.0
 10
66.35370383636502
 20
-1.788819097351678
 30
0.0
 41
1.0
 10
66.3192917311418
 20
-1.752292709647949
 30
0.0
 41
1.0
 10
66.24850550214882
 20
-1.67830402511498
 30
0.0
 41
1.0
 10
66.21204755983301
 20
-1.64074893188032
 30
0.0
 41
1.0
 10
66.0249240008121
 20
-1.449493009322619
 30
0.0
 41
1.0
 10
65.86003197178361
 20
-1.285068876527188
 30
0.0
 41
1.0
 10
65.63967627642892
 20
-1.05882974479374
 30
0.0
 41
1.0
 10
65.5947342441554
 20
-1.012412263167189
 30
0.0
 41
1.0
 10
65.50425820259992
 20
-0.918258038457083
 30
0.0
 41
1.0
 10
65.45875205932822
 20
-0.8705512237857249
 30
0.0
 41
1.0
 10
65.32153966095461
 20
-0.7255226049537671
 30
0.0
 41
1.0
 10
65.22915076894541
 20
-0.6262883593444713
 30
0.0
 41
1.0
 10
65.0427864459124
 20
-0.4228025366228679
 30
0.0
 41
1.0
 10
64.94880132812439
 20
-0.318560719905179
 30
0.0
 41
1.0
 10
64.7592115098012
 20
-0.105188288385733
 30
0.0
 41
1.0
 10
64.66325476668799
 20
0.0043619849952847
 30
0.0
 41
1.0
 10
64.37766043730561
 20
0.33421178454563
 30
0.0
 41
1.0
 10
64.18903292689631
 20
0.5572197195435252
 30
0.0
 41
1.0
 10
64.0
 20
0.78142118064369
 30
0.0
 41
1.0
  0
SPLINE
  5
75
330
1F
100
AcDbEntity
  8
1
100
AcDbSpline
210
0.0
220
0.0
230
1.0
 70
    12
 71
     3
 72
    52
 73
    48
 74
     0
 42
0.000000001
 43
0.0000000001
 40
0.0
 40
0.0
 40
0.0
 40
0.0
 40
0.0393852065065034
 40
0.0393852065065034
 40
0.11327865215985
 40
0.11327865215985
 40
0.131752013573186
 40
0.131752013573186
 40
0.150225374986522
 40
0.150225374986522
 40
0.187172097813195
 40
0.187172097813195
 40
0.261065543466541
 40
0.261065543466541
 40
0.298012266293214
 40
0.298012266293214
 40
0.334958989119887
 40
0.334958989119887
 40
0.408852434773232
 40
0.408852434773232
 40
0.482745880426578
 40
0.482745880426578
 40
0.51969260325325
 40
0.51969260325325
 40
0.5381659646665871
 40
0.5381659646665871
 40
0.5566393260799229
 40
0.5566393260799229
 40
0.6305327717332691
 40
0.6305327717332691
 40
0.704426217386615
 40
0.704426217386615
 40
0.7413729402132879
 40
0.7413729402132879
 40
0.7598463016266243
 40
0.7598463016266243
 40
0.778319663039961
 40
0.778319663039961
 40
0.852213108693307
 40
0.852213108693307
 40
0.9261065543466539
 40
0.9261065543466539
 40
0.9630532771733268
 40
0.9630532771733268
 40
0.981526638586663
 40
0.981526638586663
 40
1.0
 40
1.0
 40
1.0
 40
1.0
 10
50.04290410450462
 20
6.57449437611996
 30
0.0
 41
1.0
 10
50.2252838955969
 20
6.69833465073899
 30
0.0
 41
1.0
 10
50.40752757772931
 20
6.81479467085569
 30
0.0
 41
1.0
 10
50.93232571478431
 20
7.128115762277619
 30
0.0
 41
1.0
 10
51.27542173278289
 20
7.306028534794589
 30
0.0
 41
1.0
 10
51.70827541476679
 20
7.49306366721453
 30
0.0
 41
1.0
 10
51.7951178590879
 20
7.52871915045824
 30
0.0
 41
1.0
 10
51.96814532380162
 20
7.595987876282259
 30
0.0
 41
1.0
 10
52.05446434972681
 20
7.62766245447193
 30
0.0
 41
1.0
 10
52.31295575154192
 20
7.71684865817653
 30
0.0
 41
1.0
 10
52.48466321018251
 20
7.768526707373577
 30
0.0
 41
1.0
 10
52.99882207204589
 20
7.90041556047868
 30
0.0
 41
1.0
 10
53.3403168896692
 20
7.95753884820144
 30
0.0
 41
1.0
 10
53.85417338049251
 20
7.996686088401329
 30
0.0
 41
1.0
 10
54.02572404500578
 20
8.001964227953488
 30
0.0
 41
1.0
 10
54.36995872469322
 20
7.99673685199929
 30
0.0
 41
1.0
 10
54.5427716274489
 20
7.98621772429595
 30
0.0
 41
1.0
 10
55.0630739865265
 20
7.930509603109036
 30
0.0
 41
1.0
 10
55.4065228985145
 20
7.861919717587369
 30
0.0
 41
1.0
 10
56.09149506856947
 20
7.66485025514669
 30
0.0
 41
1.0
 10
56.4330107188012
 20
7.536364183796557
 30
0.0
 41
1.0
 10
56.94732268936681
 20
7.29948683022232
 30
0.0
 41
1.0
 10
57.119101221293
 20
7.21315555692954
 30
0.0
 41
1.0
 10
57.3777405282972
 20
7.0725704853279
 30
0.0
 41
1.0
 10
57.46411572102441
 20
7.02385986821128
 30
0.0
 41
1.0
 10
57.6372691689755
 20
6.92272438089361
 30
0.0
 41
1.0
 10
57.7241108093797
 20
6.87025409013384
 30
0.0
 41
1.0
 10
58.15665958149399
 20
6.60040390515084
 30
0.0
 41
1.0
 10
58.4995970751923
 20
6.3593701851357
 30
0.0
 41
1.0
 10
59.18415857127699
 20
5.830965497811599
 30
0.0
 41
1.0
 10
59.52574967918661
 20
5.54357375838498
 30
0.0
 41
1.0
 10
60.040641975454
 20
5.07951549950207
 30
0.0
 41
1.0
 10
60.21269208949791
 20
4.919324462412126
 30
0.0
 41
1.0
 10
60.47185364267519
 20
4.670911580627716
 30
0.0
 41
1.0
 10
60.55848960320471
 20
4.586685165977056
 30
0.0
 41
1.0
 10
60.73191251860531
 20
4.41582563696599
 30
0.0
 41
1.0
 10
60.8184090682371
 20
4.329480818744228
 30
0.0
 41
1.0
 10
61.25001988470421
 20
3.893378733514428
 30
0.0
 41
1.0
 10
61.5925404571996
 20
3.530534411514368
 30
0.0
 41
1.0
 10
62.27682441727339
 20
2.781164788691769
 30
0.0
 41
1.0
 10
62.61857631431681
 20
2.394629405188106
 30
0.0
 41
1.0
 10
63.13416591085001
 20
1.7996533655116
 30
0.0
 41
1.0
 10
63.30652019301172
 20
1.59879143279929
 30
0.0
 41
1.0
 10
63.56625988220581
 20
1.293987776406139
 30
0.0
 41
1.0
 10
63.6530737020661
 20
1.19176284840879
 30
0.0
 41
1.0
 10
63.82652872896279
 20
0.9869710538779939
 30
0.0
 41
1.0
 10
63.91324887455329
 20
0.8843118748554559
 30
0.0
 41
1.0
 10
64.0
 20
0.7814211806437191
 30
0.0
 41
1.0
  0
SPLINE
  5
76
330
1F
100
AcDbEntity
  8
1
100
AcDbSpline
210
0.0
220
0.0
230
1.0
 70
    12
 71
     3
 72
    14
 73
    10
 74
     0
 42
0.000000001
 43
0.0000000001
 40
0.0
 40
0.0
 40
0.0
 40
0.0
 40
0.0658407790734641
 40
0.209572165036547
 40
0.375391395006085
 40
0.586124046766937
 40
0.7465284246996271
 40
0.8871969769560859
 40
1.0
 40
1.0
 40
1.0
 40
1.0
 10
26.11520441829031
 20
-7.40434290628207
 30
0.0
 41
1.0
 10
26.18742675314131
 20
-7.385020932978048
 30
0.0
 41
1.0
 10
26.4165255682934
 20
-7.32311733548428
 30
0.0
 41
1.0
 10
26.82324143596411
 20
-7.20839929264935
 30
0.0
 41
1.0
 10
27.37529229764461
 20
-7.04933052597522
 30
0.0
 41
1.0
 10
27.941488390311
 20
-6.878399814227378
 30
0.0
 41
1.0
 10
28.49083831502511
 20
-6.707225393147639
 30
0.0
 41
1.0
 10
28.9373024477973
 20
-6.565455793958387
 30
0.0
 41
1.0
 10
29.21057094050011
 20
-6.477788929857499
 30
0.0
 41
1.0
 10
29.33216274063301
 20
-6.43865482313885
 30
0.0
 41
1.0
  0
SPLINE
  5
77
330
1F
100
AcDbEntity
  8
1
100
AcDbSpline
210
0.0
220
0.0
230
1.0
 70
    12
 71
     3
 72
    24
 73
    20
 74
     0
 42
0.000000001
 43
0.0000000001
 40
0.0
 40
0.0
 40
0.0
 40
0.0
 40
0.0000061478379597
 40
0.0005002279031526
 40
0.0009971309500386
 40
0.0015532260671721
 40
0.0022097986718341
 40
0.0039132192052795
 40
0.0169894606966471
 40
0.0883067240306822
 40
0.163593175776593
 40
0.229061955659646
 40
0.289707267096699
 40
0.3796583288683641
 40
0.485561206326636
 40
0.6424648615493172
 40
0.7948668778669391
 40
0.9211317078210795
 40
1.0
 40
1.0
 40
1.0
 40
1.0
 10
34.86874909723971
 20
-7.836351627294727
 30
0.0
 41
1.0
 10
34.8687590076312
 20
-7.83635028412886
 30
0.0
 41
1.0
 10
34.86881460349481
 20
-7.836342718005
 30
0.0
 41
1.0
 10
34.86908585727413
 20
-7.836294473997727
 30
0.0
 41
1.0
 10
34.87045188710641
 20
-7.83601924918221
 30
0.0
 41
1.0
 10
34.87257664267322
 20
-7.835582561302367
 30
0.0
 41
1.0
 10
34.87676601265552
 20
-7.834713888227669
 30
0.0
 41
1.0
 10
34.90105716131861
 20
-7.829636436606247
 30
0.0
 41
1.0
 10
35.03863933922673
 20
-7.800482126273317
 30
0.0
 41
1.0
 10
35.28250432829871
 20
-7.747037261264807
 30
0.0
 41
1.0
 10
35.61147217771102
 20
-7.671085256581697
 30
0.0
 41
1.0
 10
35.92250359269062
 20
-7.59590786452679
 30
0.0
 41
1.0
 10
36.25647152441112
 20
-7.51209833267609
 30
0.0
 41
1.0
 10
36.65277752011772
 20
-7.408604550310536
 30
0.0
 41
1.0
 10
37.19601839424881
 20
-7.259864928862096
 30
0.0
 41
1.0
 10
37.83414849366831
 20
-7.075719801234097
 30
0.0
 41
1.0
 10
38.506692979971
 20
-6.871976246576
 30
0.0
 41
1.0
 10
39.0611307526565
 20
-6.699027555031531
 30
0.0
 41
1.0
 10
39.37873305600362
 20
-6.59812402027217
 30
0.0
 41
1.0
 10
39.5007735544249
 20
-6.55915857273899
 30
0.0
 41
1.0
  0
SPLINE
  5
78
330
1F
100
AcDbEntity
  8
1
100
AcDbSpline
210
0.0
220
0.0
230
1.0
 70
    12
 71
     3
 72
    23
 73
    19
 74
     0
 42
0.000000001
 43
0.0000000001
 40
0.0
 40
0.0
 40
0.0
 40
0.0
 40
0.001030485886723
 40
0.0033202198452314
 40
0.0053521616972073
 40
0.0074116880829233
 40
0.0097737428324712
 40
0.0248831323606856
 40
0.0869114884528063
 40
0.187777605108346
 40
0.320196847493559
 40
0.43514339636392
 40
0.511320629197798
 40
0.584794457592483
 40
0.6699333559727024
 40
0.77017385079163
 40
0.8948771116537297
 40
1.0
 40
1.0
 40
1.0
 40
1.0
 10
45.51870359411959
 20
-7.813883741099797
 30
0.0
 41
1.0
 10
45.51870205168159
 20
-7.813896444984981
 30
0.0
 41
1.0
 10
45.51891202808667
 20
-7.81388964101654
 30
0.0
 41
1.0
 10
45.5205222216686
 20
-7.81359690390673
 30
0.0
 41
1.0
 10
45.52588800000187
 20
-7.812488815519317
 30
0.0
 41
1.0
 10
45.53435226354888
 20
-7.810694406008907
 30
0.0
 41
1.0
 10
45.56419447541411
 20
-7.804304910340928
 30
0.0
 41
1.0
 10
45.68750005199779
 20
-7.777608731747107
 30
0.0
 41
1.0
 10
45.95357946003779
 20
-7.718396568746388
 30
0.0
 41
1.0
 10
46.40161102658471
 20
-7.612986502589757
 30
0.0
 41
1.0
 10
46.9250267116551
 20
-7.480879981297388
 30
0.0
 41
1.0
 10
47.41437897219411
 20
-7.349670709439289
 30
0.0
 41
1.0
 10
47.81719717095898
 20
-7.237109191755108
 30
0.0
 41
1.0
 10
48.17416600558521
 20
-7.13452304933537
 30
0.0
 41
1.0
 10
48.56671480720581
 20
-7.018775400024168
 30
0.0
 41
1.0
 10
49.03642072687032
 20
-6.87631892675103
 30
0.0
 41
1.0
 10
49.536613984496
 20
-6.720849924713456
 30
0.0
 41
1.0
 10
49.88479221040179
 20
-6.61036892247367
 30
0.0
 41
1.0
 10
50.04403038389678
 20
-6.559526687511096
 30
0.0
 41
1.0
  0
SPLINE
  5
79
330
1F
100
AcDbEntity
  8
1
100
AcDbSpline
210
0.0
220
0.0
230
1.0
 70
    12
 71
     3
 72
    20
 73
    16
 74
     0
 42
0.000000001
 43
0.0000000001
 40
0.0
 40
0.0
 40
0.0
 40
0.0
 40
0.0216737059516947
 40
0.0216737059516947
 40
0.0969295747246412
 40
0.0969295747246412
 40
0.397953049816427
 40
0.397953049816427
 40
0.698976524908214
 40
0.698976524908214
 40
0.8494882624541059
 40
0.8494882624541059
 40
0.9247441312270542
 40
0.9247441312270542
 40
1.0
 40
1.0
 40
1.0
 40
1.0
 10
60.5703052324405
 20
6.562891567752298
 30
0.0
 41
1.0
 10
60.59526148703231
 20
6.579899394721449
 30
0.0
 41
1.0
 10
60.6202281429454
 20
6.59677833057333
 30
0.0
 41
1.0
 10
60.73191251860531
 20
6.67166868118778
 30
0.0
 41
1.0
 10
60.81840906823701
 20
6.728014514553338
 30
0.0
 41
1.0
 10
61.25001988470411
 20
7.000781208126057
 30
0.0
 41
1.0
 10
61.5925404571996
 20
7.19038165474274
 30
0.0
 41
1.0
 10
62.27682441727329
 20
7.51208253348491
 30
0.0
 41
1.0
 10
62.61857631431681
 20
7.644183930885589
 30
0.0
 41
1.0
 10
63.13416591085001
 20
7.797640492697329
 30
0.0
 41
1.0
 10
63.30652019301172
 20
7.84132981159965
 30
0.0
 41
1.0
 10
63.56625988220581
 20
7.89533042053844
 30
0.0
 41
1.0
 10
63.6530737020661
 20
7.911408491709468
 30
0.0
 41
1.0
 10
63.82652872896279
 20
7.93955736476204
 30
0.0
 41
1.0
 10
63.91324887455329
 20
7.951646432081838
 30
0.0
 41
1.0
 10
64.0
 20
7.961744842585797
 30
0.0
 41
1.0
  0
SPLINE
  5
7A
330
1F
100
AcDbEntity
  8
1
100
AcDbSpline
210
0.0
220
0.0
230
1.0
 70
    12
 71
     3
 72
   100
 73
    96
 74
     0
 42
0.000000001
 43
0.0000000001
 40
0.0
 40
0.0
 40
0.0
 40
0.0
 40
0.0039062500000001
 40
0.0039062500000001
 40
0.0058593750000001
 40
0.0058593750000001
 40
0.0078125000000002
 40
0.0078125000000002
 40
0.0156250000000002
 40
0.0156250000000002
 40
0.0234375000000002
 40
0.0234375000000002
 40
0.0312500000000003
 40
0.0312500000000003
 40
0.0390625000000003
 40
0.0390625000000003
 40
0.0468750000000003
 40
0.0468750000000003
 40
0.0546875000000003
 40
0.0546875000000003
 40
0.0625000000000004
 40
0.0625000000000004
 40
0.0703125000000004
 40
0.0703125000000004
 40
0.0781250000000004
 40
0.0781250000000004
 40
0.0937500000000005
 40
0.0937500000000005
 40
0.109375000000001
 40
0.109375000000001
 40
0.125000000000001
 40
0.125000000000001
 40
0.140625000000001
 40
0.140625000000001
 40
0.156250000000001
 40
0.156250000000001
 40
0.187500000000001
 40
0.187500000000001
 40
0.250000000000001
 40
0.250000000000001
 40
0.265625000000001
 40
0.265625000000001
 40
0.2812500000000011
 40
0.2812500000000011
 40
0.3125000000000011
 40
0.3125000000000011
 40
0.3750000000000011
 40
0.3750000000000011
 40
0.406250000000002
 40
0.406250000000002
 40
0.437500000000002
 40
0.437500000000002
 40
0.468750000000002
 40
0.468750000000002
 40
0.484375000000002
 40
0.484375000000002
 40
0.492187500000002
 40
0.492187500000002
 40
0.500000000000002
 40
0.500000000000002
 40
0.515625000000002
 40
0.515625000000002
 40
0.531250000000002
 40
0.531250000000002
 40
0.562500000000001
 40
0.562500000000001
 40
0.593750000000001
 40
0.593750000000001
 40
0.609375000000001
 40
0.609375000000001
 40
0.625000000000001
 40
0.625000000000001
 40
0.656250000000001
 40
0.656250000000001
 40
0.687500000000001
 40
0.687500000000001
 40
0.718750000000001
 40
0.718750000000001
 40
0.734375000000001
 40
0.734375000000001
 40
0.750000000000001
 40
0.750000000000001
 40
0.812500000000001
 40
0.812500000000001
 40
0.828125000000001
 40
0.828125000000001
 40
0.843750000000001
 40
0.843750000000001
 40
0.875000000000001
 40
0.875000000000001
 40
0.90625
 40
0.90625
 40
0.9375
 40
0.9375
 40
1.0
 40
1.0
 40
1.0
 40
1.0
 10
64.0
 20
1.337772808890949
 30
0.0
 41
1.0
 10
64.0118501152789
 20
1.32385006218178
 30
0.0
 41
1.0
 10
64.02372457237911
 20
1.309929695984008
 30
0.0
 41
1.0
 10
64.0416793073464
 20
1.28914440106371
 30
0.0
 41
1.0
 10
64.047645961266
 20
1.28218091836908
 30
0.0
 41
1.0
 10
64.0600597566287
 20
1.26874766298886
 30
0.0
 41
1.0
 10
64.0665383113233
 20
1.262309357326669
 30
0.0
 41
1.0
 10
64.09877590644922
 20
1.22994125281357
 30
0.0
 41
1.0
 10
64.1251658682866
 20
1.204617814033718
 30
0.0
 41
1.0
 10
64.17931710499461
 20
1.155283466204879
 30
0.0
 41
1.0
 10
64.2075415425746
 20
1.131499602118399
 30
0.0
 41
1.0
 10
64.2663221849846
 20
1.08809381889506
 30
0.0
 41
1.0
 10
64.29667810834327
 20
1.068077466630029
 30
0.0
 41
1.0
 10
64.3596772637511
 20
1.0320361674473
 30
0.0
 41
1.0
 10
64.3923252053193
 20
1.0160192445916
 30
0.0
 41
1.0
 10
64.4604435199184
 20
0.9889070493678101
 30
0.0
 41
1.0
 10
64.49544534913821
 20
0.9780605653781147
 30
0.0
 41
1.0
 10
64.56584258080849
 20
0.962604930257129
 30
0.0
 41
1.0
 10
64.60146931826709
 20
0.9578983927829368
 30
0.0
 41
1.0
 10
64.67359186663109
 20
0.954689580991044
 30
0.0
 41
1.0
 10
64.7092587893914
 20
0.956236226294038
 30
0.0
 41
1.0
 10
64.7792288277126
 20
0.964772158013972
 30
0.0
 41
1.0
 10
64.81369306600979
 20
0.9717692464259927
 30
0.0
 41
1.0
 10
64.8814262812651
 20
0.9904033976084749
 30
0.0
 41
1.0
 10
64.914064124243
 20
1.001847327224369
 30
0.0
 41
1.0
 10
65.0090462760976
 20
1.04109797801496
 30
0.0
 41
1.0
 10
65.06849774279709
 20
1.07375073118337
 30
0.0
 41
1.0
 10
65.1820490755853
 20
1.147279704873938
 30
0.0
 41
1.0
 10
65.23502265405039
 20
1.187432972173749
 30
0.0
 41
1.0
 10
65.33552492659172
 20
1.271824276810177
 30
0.0
 41
1.0
 10
65.38306094929791
 20
1.31612016797331
 30
0.0
 41
1.0
 10
65.47404932042113
 20
1.4074501342281
 30
0.0
 41
1.0
 10
65.51749107772311
 20
1.45449513311547
 30
0.0
 41
1.0
 10
65.601132903152
 20
1.550378034721769
 30
0.0
 41
1.0
 10
65.6411336030797
 20
1.598986436447628
 30
0.0
 41
1.0
 10
65.75606225533132
 20
1.74540457140594
 30
0.0
 41
1.0
 10
65.82622842677301
 20
1.84410185216001
 30
0.0
 41
1.0
 10
66.022835626889
 20
2.139679868673848
 30
0.0
 41
1.0
 10
66.13557600403351
 20
2.33595041512797
 30
0.0
 41
1.0
 10
66.26104209607049
 20
2.57485516420394
 30
0.0
 41
1.0
 10
66.28534274864901
 20
2.62232185997519
 30
0.0
 41
1.0
 10
66.33212854353401
 20
2.715917076379128
 30
0.0
 41
1.0
 10
66.3546593598068
 20
2.76213046292199
 30
0.0
 41
1.0
 10
66.41986772253051
 20
2.898951253357807
 30
0.0
 41
1.0
 10
66.46017652104752
 20
2.98772957428429
 30
0.0
 41
1.0
 10
66.57299065619401
 20
3.246063826968649
 30
0.0
 41
1.0
 10
66.63727766095369
 20
3.40791145355047
 30
0.0
 41
1.0
 10
66.7206642506128
 20
3.63293113733872
 30
0.0
 41
1.0
 10
66.746251828446
 20
3.70500152375749
 30
0.0
 41
1.0
 10
66.79335359952251
 20
3.84291101958416
 30
0.0
 41
1.0
 10
66.81486812970089
 20
3.908694616937049
 30
0.0
 41
1.0
 10
66.85376038089872
 20
4.032420755180567
 30
0.0
 41
1.0
 10
66.87115564540561
 20
4.090687014216736
 30
0.0
 41
1.0
 10
66.89459725649801
 20
4.17201451602142
 30
0.0
 41
1.0
 10
66.90198176165863
 20
4.198061174174259
 30
0.0
 41
1.0
 10
66.9124387336172
 20
4.235476528576127
 30
0.0
 41
1.0
 10
66.91583625496772
 20
4.24759336677536
 30
0.0
 41
1.0
 10
66.92187909175379
 20
4.27354482453347
 30
0.0
 41
1.0
 10
66.9245306344243
 20
4.28737525398816
 30
0.0
 41
1.0
 10
66.93133973899851
 20
4.33211735886087
 30
0.0
 41
1.0
 10
66.93445947431571
 20
4.36589335530303
 30
0.0
 41
1.0
 10
66.93852719646831
 20
4.440302285771339
 30
0.0
 41
1.0
 10
66.9394628364123
 20
4.48102778278886
 30
0.0
 41
1.0
 10
66.9392354577064
 20
4.61284589668691
 30
0.0
 41
1.0
 10
66.93515463059331
 20
4.710229502147798
 30
0.0
 41
1.0
 10
66.91888186991651
 20
4.91901452674824
 30
0.0
 41
1.0
 10
66.90658725246672
 20
5.030509725635846
 30
0.0
 41
1.0
 10
66.87994721491562
 20
5.20522635858143
 30
0.0
 41
1.0
 10
66.86969939298123
 20
5.26468909711022
 30
0.0
 41
1.0
 10
66.84612904078701
 20
5.38546932351858
 30
0.0
 41
1.0
 10
66.83286977640631
 20
5.44642895900313
 30
0.0
 41
1.0
 10
66.78858681870931
 20
5.629373101359417
 30
0.0
 41
1.0
 10
66.75298275959651
 20
5.7517040023148
 30
0.0
 41
1.0
 10
66.66927264412301
 20
5.993331211642469
 30
0.0
 41
1.0
 10
66.62114987992051
 20
6.112671757597636
 30
0.0
 41
1.0
 10
66.51278613546421
 20
6.34561003683433
 30
0.0
 41
1.0
 10
66.4525753232178
 20
6.45920517234515
 30
0.0
 41
1.0
 10
66.35370383636511
 20
6.623807260304659
 30
0.0
 41
1.0
 10
66.3192917311418
 20
6.677736668102878
 30
0.0
 41
1.0
 10
66.24850550214882
 20
6.782362748844547
 30
0.0
 41
1.0
 10
66.21204755983301
 20
6.833207222901419
 30
0.0
 41
1.0
 10
66.0249240008121
 20
7.079905565012128
 30
0.0
 41
1.0
 10
65.86003197178361
 20
7.25317536143248
 30
0.0
 41
1.0
 10
65.63967627642892
 20
7.438007976947969
 30
0.0
 41
1.0
 10
65.59473424415552
 20
7.473486712139079
 30
0.0
 41
1.0
 10
65.50425820260001
 20
7.540617050596321
 30
0.0
 41
1.0
 10
65.45875205932822
 20
7.572265660981366
 30
0.0
 41
1.0
 10
65.32153966095461
 20
7.66164183555145
 30
0.0
 41
1.0
 10
65.22915076894541
 20
7.713813167009867
 30
0.0
 41
1.0
 10
65.0427864459124
 20
7.803989437829637
 30
0.0
 41
1.0
 10
64.94880132812439
 20
7.84199627951264
 30
0.0
 41
1.0
 10
64.7592115098012
 20
7.904058475193549
 30
0.0
 41
1.0
 10
64.6632547666881
 20
7.92812735289669
 30
0.0
 41
1.0
 10
64.37766043730561
 20
7.978461404254827
 30
0.0
 41
1.0
 10
64.1890329268962
 20
7.983749538026298
 30
0.0
 41
1.0
 10
64.0
 20
7.96174484258594
 30
0.0
 41
1.0
  0
SPLINE
  5
7B
330
1F
100
AcDbEntity
  8
1
100
AcDbSpline
210
0.0
220
0.0
230
1.0
 70
    12
 71
     3
 72
    83
 73
    79
 74
     0
 42
0.000000001
 43
0.0000000001
 40
0.0
 40
0.0
 40
0.0
 40
0.0
 40
0.022466311930154
 40
0.022466311930154
 40
0.0451138036891013
 40
0.0451138036891013
 40
0.0564375495685749
 40
0.0564375495685749
 40
0.0677612954480486
 40
0.0677612954480486
 40
0.113056278965943
 40
0.113056278965943
 40
0.158351262483837
 40
0.158351262483837
 40
0.180998754242784
 40
0.180998754242784
 40
0.203646246001732
 40
0.203646246001732
 40
0.248941229519626
 40
0.248941229519626
 40
0.29423621303752
 40
0.29423621303752
 40
0.3055599589169939
 40
0.3055599589169939
 40
0.316883704796467
 40
0.316883704796467
 40
0.339531196555414
 40
0.339531196555414
 40
0.384826180073308
 40
0.384826180073308
 40
0.4301211635912022
 40
0.4301211635912022
 40
0.452768655350149
 40
0.452768655350149
 40
0.475416147109096
 40
0.498063638868043
 40
0.498063638868043
 40
0.509387384747516
 40
0.509387384747516
 40
0.52071113062699
 40
0.52071113062699
 40
0.566006114144884
 40
0.566006114144884
 40
0.5886536059038311
 40
0.5886536059038311
 40
0.611301097662778
 40
0.611301097662778
 40
0.6226248435422514
 40
0.6226248435422514
 40
0.633948589421725
 40
0.633948589421725
 40
0.6565960811806713
 40
0.6565960811806713
 40
0.701891064698565
 40
0.701891064698565
 40
0.7245385564575121
 40
0.7245385564575121
 40
0.735862302336985
 40
0.735862302336985
 40
0.7471860482164593
 40
0.7471860482164593
 40
0.792481031734353
 40
0.792481031734353
 40
0.8377760152522469
 40
0.8377760152522469
 40
0.8604235070111949
 40
0.8604235070111949
 40
0.8717472528906679
 40
0.8717472528906679
 40
0.8830709987701419
 40
0.8830709987701419
 40
0.9283659822880359
 40
0.9283659822880359
 40
0.97366096580593
 40
0.97366096580593
 40
0.9963084575648771
 40
0.9963084575648771
 40
1.0
 40
1.0
 40
1.0
 40
1.0
 10
56.11116416030408
 20
-7.803716815097177
 30
0.0
 41
1.0
 10
56.09042944852539
 20
-7.801730713952879
 30
0.0
 41
1.0
 10
55.9206842365945
 20
-7.84430181290645
 30
0.0
 41
1.0
 10
55.57886804373651
 20
-7.914770700810717
 30
0.0
 41
1.0
 10
55.40678961599011
 20
-7.94253188878741
 30
0.0
 41
1.0
 10
55.1474556104744
 20
-7.97243554338689
 30
0.0
 41
1.0
 10
55.0607517516009
 20
-7.980442611095037
 30
0.0
 41
1.0
 10
54.88800542964622
 20
-7.992425867294968
 30
0.0
 41
1.0
 10
54.80182493276189
 20
-7.99642134310747
 30
0.0
 41
1.0
 10
54.37170110413141
 20
-8.00653206903428
 30
0.0
 41
1.0
 10
54.03010165009751
 20
-7.983122411094941
 30
0.0
 41
1.0
 10
53.34697680364139
 20
-7.874922968788037
 30
0.0
 41
1.0
 10
53.0055279589159
 20
-7.7901277732222
 30
0.0
 41
1.0
 10
52.4899773291516
 20
-7.6166328372795
 30
0.0
 41
1.0
 10
52.3174083123358
 20
-7.551014700306297
 30
0.0
 41
1.0
 10
51.97108073033021
 20
-7.40433163274236
 30
0.0
 41
1.0
 10
51.7987780786899
 20
-7.32389394521505
 30
0.0
 41
1.0
 10
51.283511294844
 20
-7.06209621386054
 30
0.0
 41
1.0
 10
50.94213450304987
 20
-6.86032343700415
 30
0.0
 41
1.0
 10
50.259004337954
 20
-6.40514341225344
 30
0.0
 41
1.0
 10
49.9172863430666
 20
-6.151716705894297
 30
0.0
 41
1.0
 10
49.48689106512571
 20
-5.80346572360207
 30
0.0
 41
1.0
 10
49.40065177545879
 20
-5.732236847993847
 30
0.0
 41
1.0
 10
49.22777636795128
 20
-5.586624754443389
 30
0.0
 41
1.0
 10
49.14106969348569
 20
-5.512175372881078
 30
0.0
 41
1.0
 10
48.88193836292181
 20
-5.285614414501845
 30
0.0
 41
1.0
 10
48.70996833190061
 20
-5.129851999338539
 30
0.0
 41
1.0
 10
48.19542009227022
 20
-4.64931582645616
 30
0.0
 41
1.0
 10
47.85423778458951
 20
-4.31130397038069
 30
0.0
 41
1.0
 10
47.17097814378949
 20
-3.603587747445399
 30
0.0
 41
1.0
 10
46.82884396312939
 20
-3.233927311782418
 30
0.0
 41
1.0
 10
46.31140248931989
 20
-2.6576994327269
 30
0.0
 41
1.0
 10
46.13792692761272
 20
-2.46165797540837
 30
0.0
 41
1.0
 10
45.79220419549339
 20
-2.066478510648519
 30
0.0
 41
1.0
 10
45.44698208610919
 20
-1.667429084777438
 30
0.0
 41
1.0
 10
45.1016464981206
 20
-1.261575873468079
 30
0.0
 41
1.0
 10
44.84214049285387
 20
-0.9550002012419442
 30
0.0
 41
1.0
 10
44.75548832848871
 20
-0.852366074159789
 30
0.0
 41
1.0
 10
44.5824289829903
 20
-0.6470238372754979
 30
0.0
 41
1.0
 10
44.4959859269761
 20
-0.5442762965232931
 30
0.0
 41
1.0
 10
44.0640260207209
 20
-0.0303059618176746
 30
0.0
 41
1.0
 10
43.719319642238
 20
0.381651868500654
 30
0.0
 41
1.0
 10
43.19988041663361
 20
0.9976741936029608
 30
0.0
 41
1.0
 10
43.0265709332213
 20
1.202385023014238
 30
0.0
 41
1.0
 10
42.6802466824608
 20
1.60867657756424
 30
0.0
 41
1.0
 10
42.5072425814439
 20
1.81025001372839
 30
0.0
 41
1.0
 10
42.24751320290071
 20
2.10987368684252
 30
0.0
 41
1.0
 10
42.160871719173
 20
2.2093216501745
 30
0.0
 41
1.0
 10
41.98814593508121
 20
2.4064249847487
 30
0.0
 41
1.0
 10
41.9019725644395
 20
2.504181299869058
 30
0.0
 41
1.0
 10
41.6439060362159
 20
2.795004629314376
 30
0.0
 41
1.0
 10
41.4724717259656
 20
2.985632300376439
 30
0.0
 41
1.0
 10
40.95913046857421
 20
3.547240451914768
 30
0.0
 41
1.0
 10
40.61816436100278
 20
3.90795663040683
 30
0.0
 41
1.0
 10
40.10503869272711
 20
4.425857488254926
 30
0.0
 41
1.0
 10
39.9337312490055
 20
4.59463201381146
 30
0.0
 41
1.0
 10
39.67592247447161
 20
4.84160669216223
 30
0.0
 41
1.0
 10
39.58984441187212
 20
4.922899547292096
 30
0.0
 41
1.0
 10
39.41732244329472
 20
5.083343990380599
 30
0.0
 41
1.0
 10
39.3307927813505
 20
5.162571765462669
 30
0.0
 41
1.0
 10
38.8979617409605
 20
5.5523004756032
 30
0.0
 41
1.0
 10
38.55507475471691
 20
5.84016939498713
 30
0.0
 41
1.0
 10
37.87120130633562
 20
6.367068971454297
 30
0.0
 41
1.0
 10
37.5301683223304
 20
6.60607210531805
 30
0.0
 41
1.0
 10
37.01660206341261
 20
6.92609135423811
 30
0.0
 41
1.0
 10
36.84507413695962
 20
7.026335702983177
 30
0.0
 41
1.0
 10
36.58678801086222
 20
7.166691452685307
 30
0.0
 41
1.0
 10
36.50052680213761
 20
7.21180749190768
 30
0.0
 41
1.0
 10
36.32760092185361
 20
7.29863325480386
 30
0.0
 41
1.0
 10
36.24090454500262
 20
7.34035026003383
 30
0.0
 41
1.0
 10
35.80910866767961
 20
7.53896554506937
 30
0.0
 41
1.0
 10
35.46676454400433
 20
7.66721876585333
 30
0.0
 41
1.0
 10
34.7832719757838
 20
7.863115621124787
 30
0.0
 41
1.0
 10
34.44221782234432
 20
7.93077609089698
 30
0.0
 41
1.0
 10
33.9280948377797
 20
7.985918011267557
 30
0.0
 41
1.0
 10
33.75628579132083
 20
7.996559221857718
 30
0.0
 41
1.0
 10
33.5556355000995
 20
7.999738443065981
 30
0.0
 41
1.0
 10
33.52748626989212
 20
7.99997354090505
 30
0.0
 41
1.0
 10
33.49931684210723
 20
7.99999746214553
 30
0.0
 41
1.0
  0
SPLINE
  5
7C
330
1F
100
AcDbEntity
  8
1
100
AcDbSpline
210
0.0
220
0.0
230
1.0
 70
    12
 71
     3
 72
    20
 73
    16
 74
     0
 42
0.000000001
 43
0.0000000001
 40
0.4216603192045544
 40
0.4216603192045544
 40
0.4216603192045544
 40
0.4216603192045544
 40
0.5138946854463052
 40
0.60933163591487
 40
0.681738648410934
 40
0.75424288623982
 40
0.876004869875997
 40
0.939217306827807
 40
0.980109716623385
 40
0.991512487180255
 40
0.9949492990425808
 40
0.9962461736186519
 40
0.99741644136706
 40
0.9986354957618257
 40
1.0
 40
1.0
 40
1.0
 40
1.0
 10
60.57271040017546
 20
6.564530281962134
 30
0.0
 41
1.0
 10
60.33216244157729
 20
6.64127539965607
 30
0.0
 41
1.0
 10
59.84262154411287
 20
6.795972212739335
 30
0.0
 41
1.0
 10
59.16426903492872
 20
7.003660471574647
 30
0.0
 41
1.0
 10
58.53732905366871
 20
7.18768119142638
 30
0.0
 41
1.0
 10
57.8410831035924
 20
7.383512234466847
 30
0.0
 41
1.0
 10
57.16917267118572
 20
7.55899602307883
 30
0.0
 41
1.0
 10
56.58277160545811
 20
7.69900519607441
 30
0.0
 41
1.0
 10
56.27966052508822
 20
7.76713296182942
 30
0.0
 41
1.0
 10
56.13687899308899
 20
7.798199097893079
 30
0.0
 41
1.0
 10
56.0927272401404
 20
7.807712743455651
 30
0.0
 41
1.0
 10
56.07763813769249
 20
7.810937269335338
 30
0.0
 41
1.0
 10
56.07017435390108
 20
7.812511498509246
 30
0.0
 41
1.0
 10
56.06607548302971
 20
7.81334088104964
 30
0.0
 41
1.0
 10
56.06541850444648
 20
7.813434907988548
 30
0.0
 41
1.0
 10
56.06540163634341
 20
7.813411172072648
 30
0.0
 41
1.0
  0
SPLINE
  5
7D
330
1F
100
AcDbEntity
  8
1
100
AcDbSpline
210
0.0
220
0.0
230
1.0
 70
    12
 71
     3
 72
    57
 73
    53
 74
     0
 42
0.000000001
 43
0.0000000001
 40
0.0324407576423076
 40
0.0324407576423076
 40
0.0324407576423076
 40
0.0324407576423076
 40
0.0463540072012318
 40
0.0804127926583308
 40
0.0804127926583308
 40
0.0974421853868806
 40
0.0974421853868806
 40
0.11447157811543
 40
0.11447157811543
 40
0.182589149029628
 40
0.182589149029628
 40
0.216647934486728
 40
0.216647934486728
 40
0.250706719943827
 40
0.250706719943827
 40
0.267736112672376
 40
0.267736112672376
 40
0.2847655054009261
 40
0.2847655054009261
 40
0.318824290858025
 40
0.318824290858025
 40
0.386941861772224
 40
0.386941861772224
 40
0.4210006472293231
 40
0.4210006472293231
 40
0.4380300399578723
 40
0.4380300399578723
 40
0.4550594326864223
 40
0.4550594326864223
 40
0.523177003600619
 40
0.523177003600619
 40
0.5912945745148172
 40
0.5912945745148172
 40
0.625353359971916
 40
0.625353359971916
 40
0.642382752700465
 40
0.642382752700465
 40
0.6594121454290151
 40
0.6594121454290151
 40
0.7275297163432131
 40
0.7275297163432131
 40
0.7956472872574109
 40
0.7956472872574109
 40
0.829706072714509
 40
0.829706072714509
 40
0.8467354654430579
 40
0.8467354654430579
 40
0.8637648581716078
 40
0.8637648581716078
 40
0.931882429085804
 40
0.931882429085804
 40
1.0
 40
1.0
 40
1.0
 40
1.0
 10
45.53821650117185
 20
-7.80986618645566
 30
0.0
 41
1.0
 10
45.51870359411959
 20
-7.813883741099797
 30
0.0
 41
1.0
 10
45.34485052686068
 20
-7.853165079909012
 30
0.0
 41
1.0
 10
45.1016464981206
 20
-7.902590809583068
 30
0.0
 41
1.0
 10
44.84214049285387
 20
-7.943462935816087
 30
0.0
 41
1.0
 10
44.75548832848871
 20
-7.955130849185737
 30
0.0
 41
1.0
 10
44.58242898299038
 20
-7.974458909922497
 30
0.0
 41
1.0
 10
44.4959859269761
 20
-7.98212767449064
 30
0.0
 41
1.0
 10
44.0640260207209
 20
-8.010534559012429
 30
0.0
 41
1.0
 10
43.719319642238
 20
-8.00154185132391
 30
0.0
 41
1.0
 10
43.1998804166337
 20
-7.9402285068015
 30
0.0
 41
1.0
 10
43.02657093322138
 20
-7.91181729315642
 30
0.0
 41
1.0
 10
42.6802466824608
 20
-7.839307513591619
 30
0.0
 41
1.0
 10
42.5072425814439
 20
-7.795228222323317
 30
0.0
 41
1.0
 10
42.2475132029008
 20
-7.717452951793577
 30
0.0
 41
1.0
 10
42.160871719173
 20
-7.68957033595791
 30
0.0
 41
1.0
 10
41.98814593508121
 20
-7.630184329251219
 30
0.0
 41
1.0
 10
41.9019725644395
 20
-7.598656757281669
 30
0.0
 41
1.0
 10
41.6439060362159
 20
-7.498665422042217
 30
0.0
 41
1.0
 10
41.4724717259657
 20
-7.42479534529124
 30
0.0
 41
1.0
 10
40.95913046857421
 20
-7.18216052357073
 30
0.0
 41
1.0
 10
40.61816436100278
 20
-6.992428509005859
 30
0.0
 41
1.0
 10
40.10503869272711
 20
-6.6673331151062
 30
0.0
 41
1.0
 10
39.9337312490055
 20
-6.552199370915076
 30
0.0
 41
1.0
 10
39.67592247447171
 20
-6.369406143833169
 30
0.0
 41
1.0
 10
39.58984441187222
 20
-6.30679233072101
 30
0.0
 41
1.0
 10
39.41732244329479
 20
-6.17820227339894
 30
0.0
 41
1.0
 10
39.33079278135062
 20
-6.11215960072499
 30
0.0
 41
1.0
 10
38.89796174096062
 20
-5.774273540559079
 30
0.0
 41
1.0
 10
38.55507475471691
 20
-5.4825634776563
 30
0.0
 41
1.0
 10
37.87120130633562
 20
-4.860711219710418
 30
0.0
 41
1.0
 10
37.5301683223304
 20
-4.53059758947532
 30
0.0
 41
1.0
 10
37.01660206341261
 20
-4.00885075443293
 30
0.0
 41
1.0
 10
36.84507413695972
 20
-3.83049814813489
 30
0.0
 41
1.0
 10
36.58678801086229
 20
-3.556551839982089
 30
0.0
 41
1.0
 10
36.50052680213761
 20
-3.464166414084838
 30
0.0
 41
1.0
 10
36.32760092185361
 20
-3.27728071069302
 30
0.0
 41
1.0
 10
36.24090454500272
 20
-3.182742493798798
 30
0.0
 41
1.0
 10
35.80910866767961
 20
-2.708037307577769
 30
0.0
 41
1.0
 10
35.46676454400433
 20
-2.319398023885208
 30
0.0
 41
1.0
 10
34.7832719757838
 20
-1.528811147748398
 30
0.0
 41
1.0
 10
34.44221782234432
 20
-1.126785579532447
 30
0.0
 41
1.0
 10
33.9280948377798
 20
-0.5165532940955301
 30
0.0
 41
1.0
 10
33.75628579132083
 20
-0.311950154141414
 30
0.0
 41
1.0
 10
33.49749351081921
 20
-0.0035740319000297
 30
0.0
 41
1.0
 10
33.41097417654411
 20
0.0995519904660114
 30
0.0
 41
1.0
 10
33.2378249806977
 20
0.305842057224879
 30
0.0
 41
1.0
 10
33.15142029115641
 20
0.408737599473198
 30
0.0
 41
1.0
 10
32.72004413080431
 20
0.92181559022174
 30
0.0
 41
1.0
 10
32.37695938626122
 20
1.32776827662286
 30
0.0
 41
1.0
 10
31.6901749636052
 20
2.126952502337668
 30
0.0
 41
1.0
 10
31.3464723716969
 20
2.520181197708438
 30
0.0
 41
1.0
 10
31.0
 20
2.90488730266472
 30
0.0
 41
1.0
  0
SPLINE
  5
7E
330
1F
100
AcDbEntity
  8
1
100
AcDbSpline
210
0.0
220
0.0
230
1.0
 70
    12
 71
     3
 72
    88
 73
    84
 74
     0
 42
0.000000001
 43
0.0000000001
 40
-0.0005495427583251
 40
-0.0005495427583251
 40
-0.0005495427583251
 40
-0.0005495427583251
 40
0.0
 40
0.0
 40
0.0
 40
0.0108178642045935
 40
0.0108178642045935
 40
0.0213410784151828
 40
0.0213410784151828
 40
0.0318642926257721
 40
0.0318642926257721
 40
0.0739571494681295
 40
0.0739571494681295
 40
0.116050006310487
 40
0.116050006310487
 40
0.137096434731665
 40
0.137096434731665
 40
0.158142863152844
 40
0.158142863152844
 40
0.200235719995202
 40
0.200235719995202
 40
0.242328576837559
 40
0.242328576837559
 40
0.252851791048148
 40
0.252851791048148
 40
0.263375005258738
 40
0.263375005258738
 40
0.284421433679917
 40
0.284421433679917
 40
0.326514290522274
 40
0.326514290522274
 40
0.368607147364632
 40
0.368607147364632
 40
0.3791303615752209
 40
0.3791303615752209
 40
0.389653575785811
 40
0.410700004206989
 40
0.410700004206989
 40
0.452792861049348
 40
0.452792861049348
 40
0.4948857178917061
 40
0.4948857178917061
 40
0.505408932102295
 40
0.505408932102295
 40
0.515932146312885
 40
0.515932146312885
 40
0.536978574734064
 40
0.536978574734064
 40
0.5790714315764221
 40
0.5790714315764221
 40
0.6001178599976013
 40
0.6001178599976013
 40
0.62116428841878
 40
0.62116428841878
 40
0.6632571452611379
 40
0.6632571452611379
 40
0.7053500021034961
 40
0.7053500021034961
 40
0.7263964305246751
 40
0.7263964305246751
 40
0.7369196447352641
 40
0.7369196447352641
 40
0.7474428589458541
 40
0.7474428589458541
 40
0.7895357157882109
 40
0.7895357157882109
 40
0.8316285726305688
 40
0.8316285726305688
 40
0.852675001051748
 40
0.852675001051748
 40
0.8631982152623381
 40
0.8631982152623381
 40
0.873721429472927
 40
0.873721429472927
 40
0.915814286315285
 40
0.915814286315285
 40
0.9579071431576419
 40
0.9579071431576419
 40
0.9789535715788208
 40
0.9789535715788208
 40
0.9894767857894107
 40
0.9894767857894107
 40
1.0
 40
1.0
 40
1.0
 40
1.0
 10
39.48386210267286
 20
6.564549260736592
 30
0.0
 41
1.0
 10
39.48836238292063
 20
6.567614629243152
 30
0.0
 41
1.0
 10
39.49286309735276
 20
6.570675858179887
 30
0.0
 41
1.0
 10
39.49736424597211
 20
6.57373294751929
 30
0.0
 41
1.0
 10
39.58597029853361
 20
6.63391239094557
 30
0.0
 41
1.0
 10
39.6747446018918
 20
6.69248770950554
 30
0.0
 41
1.0
 10
39.85029132677873
 20
6.80480272603137
 30
0.0
 41
1.0
 10
39.93713732091591
 20
6.85867521801541
 30
0.0
 41
1.0
 10
40.11018278500571
 20
6.962570549940177
 30
0.0
 41
1.0
 10
40.196509891944
 20
7.012678505933537
 30
0.0
 41
1.0
 10
40.62736482885321
 20
7.25405413044865
 30
0.0
 41
1.0
 10
40.96955564980841
 20
7.417903670873807
 30
0.0
 41
1.0
 10
41.65372502986751
 20
7.68682405765949
 30
0.0
 41
1.0
 10
41.99569324943061
 20
7.79189784508503
 30
0.0
 41
1.0
 10
42.512006067541
 20
7.90383201451411
 30
0.0
 41
1.0
 10
42.68476623430279
 20
7.93352683849861
 30
0.0
 41
1.0
 10
43.0316741710328
 20
7.977150900428306
 30
0.0
 41
1.0
 10
43.20426737981019
 20
7.990892826206327
 30
0.0
 41
1.0
 10
43.72039964432191
 20
8.008443178309821
 30
0.0
 41
1.0
 10
44.06230190005149
 20
7.988636103610247
 30
0.0
 41
1.0
 10
44.7464960589774
 20
7.88728841174665
 30
0.0
 41
1.0
 10
45.08875450639188
 20
7.805745258474928
 30
0.0
 41
1.0
 10
45.51978292324
 20
7.66480763600384
 30
0.0
 41
1.0
 10
45.60614980182999
 20
7.63466490311919
 30
0.0
 41
1.0
 10
45.77928475384299
 20
7.570438556850088
 30
0.0
 41
1.0
 10
45.86613061056611
 20
7.536316741379637
 30
0.0
 41
1.0
 10
46.12568675473211
 20
7.42872314775707
 30
0.0
 41
1.0
 10
46.29794103402068
 20
7.349847604242397
 30
0.0
 41
1.0
 10
46.81329666692437
 20
7.092535850806
 30
0.0
 41
1.0
 10
47.15499933071421
 20
6.89347013723742
 30
0.0
 41
1.0
 10
47.83934964752972
 20
6.44286992348745
 30
0.0
 41
1.0
 10
48.18198904016228
 20
6.19133331952671
 30
0.0
 41
1.0
 10
48.61388311422889
 20
5.84471698883721
 30
0.0
 41
1.0
 10
48.700494406749
 20
5.77373583920073
 30
0.0
 41
1.0
 10
48.87393707823551
 20
5.628730761597638
 30
0.0
 41
1.0
 10
49.133452912427
 20
5.4074809652931
 30
0.0
 41
1.0
 10
49.39139387546739
 20
5.17537567303958
 30
0.0
 41
1.0
 10
49.90609923145878
 20
4.69753518173778
 30
0.0
 41
1.0
 10
50.2476575645184
 20
4.360827942803156
 30
0.0
 41
1.0
 10
50.93232571478431
 20
3.65464266678674
 30
0.0
 41
1.0
 10
51.27542173278301
 20
3.28515742698639
 30
0.0
 41
1.0
 10
51.70827541476679
 20
2.804396797178839
 30
0.0
 41
1.0
 10
51.7951178590879
 20
2.70721596958023
 30
0.0
 41
1.0
 10
51.96814532380162
 20
2.51228950079397
 30
0.0
 41
1.0
 10
52.05446434972681
 20
2.41439634507981
 30
0.0
 41
1.0
 10
52.31295575154192
 20
2.119533842329667
 30
0.0
 41
1.0
 10
52.48466321018261
 20
1.921382639459469
 30
0.0
 41
1.0
 10
52.99882207204589
 20
1.32299197779812
 30
0.0
 41
1.0
 10
53.3403168896692
 20
0.9188291550401569
 30
0.0
 41
1.0
 10
53.85417338049251
 20
0.307700321360272
 30
0.0
 41
1.0
 10
54.02572404500578
 20
0.103171328748431
 30
0.0
 41
1.0
 10
54.36995872469322
 20
-0.307043235391205
 30
0.0
 41
1.0
 10
54.5427716274488
 20
-0.5128811131309022
 30
0.0
 41
1.0
 10
55.0630739865265
 20
-1.130442275950909
 30
0.0
 41
1.0
 10
55.4065228985145
 20
-1.535192246973198
 30
0.0
 41
1.0
 10
56.09149506856947
 20
-2.32737350829936
 30
0.0
 41
1.0
 10
56.4330107188012
 20
-2.714809488096419
 30
0.0
 41
1.0
 10
56.94732268936681
 20
-3.28012742622573
 30
0.0
 41
1.0
 10
57.119101221293
 20
-3.46592162076499
 30
0.0
 41
1.0
 10
57.3777405282972
 20
-3.74022768992827
 30
0.0
 41
1.0
 10
57.46411572102441
 20
-3.83093173719075
 30
0.0
 41
1.0
 10
57.6372691689755
 20
-4.01080198582099
 30
0.0
 41
1.0
 10
57.7241108093797
 20
-4.100029010732779
 30
0.0
 41
1.0
 10
58.15665958149399
 20
-4.539243848757926
 30
0.0
 41
1.0
 10
58.4995970751923
 20
-4.87081107315362
 30
0.0
 41
1.0
 10
59.18415857127699
 20
-5.492379359192089
 30
0.0
 41
1.0
 10
59.52574967918661
 20
-5.782399104239287
 30
0.0
 41
1.0
 10
60.040641975454
 20
-6.183879012736159
 30
0.0
 41
1.0
 10
60.21269208949791
 20
-6.312102866134468
 30
0.0
 41
1.0
 10
60.47185364267519
 20
-6.49562806399391
 30
0.0
 41
1.0
 10
60.55848960320471
 20
-6.55537933576952
 30
0.0
 41
1.0
 10
60.73191251860531
 20
-6.67166868118778
 30
0.0
 41
1.0
 10
60.8184090682371
 20
-6.728014514553338
 30
0.0
 41
1.0
 10
61.25001988470421
 20
-7.000781208126057
 30
0.0
 41
1.0
 10
61.59254045719971
 20
-7.190381654742767
 30
0.0
 41
1.0
 10
62.27682441727339
 20
-7.51208253348494
 30
0.0
 41
1.0
 10
62.61857631431681
 20
-7.644183930885589
 30
0.0
 41
1.0
 10
63.13416591085001
 20
-7.797640492697329
 30
0.0
 41
1.0
 10
63.30652019301172
 20
-7.84132981159965
 30
0.0
 41
1.0
 10
63.56625988220581
 20
-7.895330420538468
 30
0.0
 41
1.0
 10
63.6530737020661
 20
-7.911408491709468
 30
0.0
 41
1.0
 10
63.82652872896279
 20
-7.93955736476204
 30
0.0
 41
1.0
 10
63.91324887455329
 20
-7.951646432081838
 30
0.0
 41
1.0
 10
64.0
 20
-7.961744842585797
 30
0.0
 41
1.0
  0
SPLINE
  5
7F
330
1F
100
AcDbEntity
  8
1
100
AcDbSpline
210
0.0
220
0.0
230
1.0
 70
    12
 71
     3
 72
    23
 73
    19
 74
     0
 42
0.000000001
 43
0.0000000001
 40
0.4234183278365429
 40
0.4234183278365429
 40
0.4234183278365429
 40
0.4234183278365429
 40
0.4669542055798642
 40
0.5541728215970411
 40
0.661617690561926
 40
0.75852446800884
 40
0.8146472595585109
 40
0.871769428684497
 40
0.938146334717228
 40
0.9763897671997659
 40
0.9901681137620251
 40
0.9977353246175193
 40
0.998721092765091
 40
0.9991010508245
 40
0.9994228626394491
 40
0.9997104200490467
 40
0.9999963438013191
 40
1.0
 40
1.0
 40
1.0
 40
1.0
 10
39.48386210267286
 20
6.564549260736592
 30
0.0
 41
1.0
 10
39.36744766837648
 20
6.601700274135723
 30
0.0
 41
1.0
 10
39.01765960729095
 20
6.712799879995952
 30
0.0
 41
1.0
 10
38.379155251741
 20
6.911617153891969
 30
0.0
 41
1.0
 10
37.60277665766401
 20
7.144233891675098
 30
0.0
 41
1.0
 10
36.9108453376441
 20
7.339404113624937
 30
0.0
 41
1.0
 10
36.35030487330341
 20
7.48828776578563
 30
0.0
 41
1.0
 10
35.87061459463491
 20
7.60949175519102
 30
0.0
 41
1.0
 10
35.43836278314541
 20
7.7119116171809
 30
0.0
 41
1.0
 10
35.1224483702924
 20
7.78222660705299
 30
0.0
 41
1.0
 10
34.96285607609232
 20
7.8165407495035
 30
0.0
 41
1.0
 10
34.90105416569601
 20
7.829637075999807
 30
0.0
 41
1.0
 10
34.87676608208231
 20
7.834713873409016
 30
0.0
 41
1.0
 10
34.87257663346152
 20
7.835582563268559
 30
0.0
 41
1.0
 10
34.87045188912391
 20
7.836019248751567
 30
0.0
 41
1.0
 10
34.86908585677781
 20
7.83629447410365
 30
0.0
 41
1.0
 10
34.86881455710441
 20
7.83634272625974
 30
0.0
 41
1.0
 10
34.86875895697862
 20
7.83635029116945
 30
0.0
 41
1.0
 10
34.86874904651582
 20
7.836351633801429
 30
0.0
 41
1.0
  0
SPLINE
  5
80
330
1F
100
AcDbEntity
  8
1
100
AcDbSpline
210
0.0
220
0.0
230
1.0
 70
    12
 71
     3
 72
    22
 73
    18
 74
     0
 42
0.000000001
 43
0.0000000001
 40
0.4147997296094179
 40
0.4147997296094179
 40
0.4147997296094179
 40
0.4147997296094179
 40
0.477811168564536
 40
0.5562533632847933
 40
0.651102451930449
 40
0.738222433941362
 40
0.8024011657475959
 40
0.864257407751824
 40
0.939274287564943
 40
0.9771754539002307
 40
0.990491382836384
 40
0.9977921562021759
 40
0.9987452216608859
 40
0.99911485256823
 40
0.999430701509789
 40
0.9997164467272099
 40
1.0
 40
1.0
 40
1.0
 40
1.0
 10
50.06658988689975
 20
6.552324390178302
 30
0.0
 41
1.0
 10
49.90125849559781
 20
6.605130981307492
 30
0.0
 41
1.0
 10
49.52984356416314
 20
6.723002265036646
 30
0.0
 41
1.0
 10
48.90928613586222
 20
6.91573327241557
 30
0.0
 41
1.0
 10
48.22789653263072
 20
7.120122968288169
 30
0.0
 41
1.0
 10
47.585103942342
 20
7.303346536342419
 30
0.0
 41
1.0
 10
47.02766409193172
 20
7.45376610664823
 30
0.0
 41
1.0
 10
46.50059483938461
 20
7.58865699611715
 30
0.0
 41
1.0
 10
46.04222462400382
 20
7.69829331494819
 30
0.0
 41
1.0
 10
45.71167120351422
 20
7.772346124245159
 30
0.0
 41
1.0
 10
45.55782518832311
 20
7.805693313416129
 30
0.0
 41
1.0
 10
45.49908902873749
 20
7.818253508740669
 30
0.0
 41
1.0
 10
45.4761883534094
 20
7.823083913904329
 30
0.0
 41
1.0
 10
45.4722603406656
 20
7.82390555155624
 30
0.0
 41
1.0
 10
45.47027895214839
 20
7.824316119719918
 30
0.0
 41
1.0
 10
45.46902319568621
 20
7.82457083350761
 30
0.0
 41
1.0
 10
45.46881196547971
 20
7.824607169399707
 30
0.0
 41
1.0
 10
45.4687539124569
 20
7.824615175980767
 30
0.0
 41
1.0
  0
SPLINE
  5
81
330
1F
100
AcDbEntity
  8
1
100
AcDbSpline
210
0.0
220
0.0
230
1.0
 70
    12
 71
     3
 72
    71
 73
    67
 74
     0
 42
0.000000001
 43
0.0000000001
 40
0.0
 40
0.0
 40
0.0
 40
0.0
 40
0.0258317834261642
 40
0.0258317834261642
 40
0.0516635668523283
 40
0.0516635668523283
 40
0.103327133704657
 40
0.103327133704657
 40
0.129158917130821
 40
0.129158917130821
 40
0.142074808843903
 40
0.142074808843903
 40
0.154990700556985
 40
0.154990700556985
 40
0.206654267409313
 40
0.206654267409313
 40
0.258317834261642
 40
0.258317834261642
 40
0.284149617687806
 40
0.284149617687806
 40
0.297065509400888
 40
0.297065509400888
 40
0.30998140111397
 40
0.30998140111397
 40
0.3616449679662979
 40
0.3616449679662979
 40
0.4133085348186264
 40
0.4133085348186264
 40
0.43914031824479
 40
0.43914031824479
 40
0.4520562099578723
 40
0.4520562099578723
 40
0.464972101670954
 40
0.464972101670954
 40
0.5166356685232813
 40
0.5166356685232813
 40
0.568299235375609
 40
0.568299235375609
 40
0.594131018801773
 40
0.594131018801773
 40
0.619962802227936
 40
0.619962802227936
 40
0.671626369080264
 40
0.671626369080264
 40
0.7232899359325921
 40
0.7232899359325921
 40
0.736205827645673
 40
0.736205827645673
 40
0.7491217193587551
 40
0.7491217193587551
 40
0.7749535027849192
 40
0.7749535027849192
 40
0.8266170696372469
 40
0.8266170696372469
 40
0.8782806364895748
 40
0.8782806364895748
 40
0.9041124199157387
 40
0.9041124199157387
 40
0.9299442033419019
 40
0.9557759867680658
 40
0.9557759867680658
 40
0.9686918784811478
 40
0.9686918784811478
 40
0.9816077701942299
 40
0.9816077701942299
 40
1.0
 40
1.0
 40
1.0
 40
1.0
 10
64.0
 20
-7.887354684036468
 30
0.0
 41
1.0
 10
63.82676325218771
 20
-7.852832889566117
 30
0.0
 41
1.0
 10
63.65357439734641
 20
-7.810436561617
 30
0.0
 41
1.0
 10
63.30728419767611
 20
-7.710165763679807
 30
0.0
 41
1.0
 10
63.13400164784461
 20
-7.65221378171125
 30
0.0
 41
1.0
 10
62.61628034665879
 20
-7.45654002321365
 30
0.0
 41
1.0
 10
62.27299217344771
 20
-7.29679061250758
 30
0.0
 41
1.0
 10
61.7572804406013
 20
-7.01487213376961
 30
0.0
 41
1.0
 10
61.5852317855024
 20
-6.91384198894136
 30
0.0
 41
1.0
 10
61.32650602473381
 20
-6.75178802415442
 30
0.0
 41
1.0
 10
61.24015630854573
 20
-6.696017191885028
 30
0.0
 41
1.0
 10
61.06716623302979
 20
-6.580972009376496
 30
0.0
 41
1.0
 10
60.98048596163179
 20
-6.52166435231629
 30
0.0
 41
1.0
 10
60.54867093800051
 20
-6.21817894197471
 30
0.0
 41
1.0
 10
60.20626776842161
 20
-5.951972230156339
 30
0.0
 41
1.0
 10
59.52276635387729
 20
-5.376767046826099
 30
0.0
 41
1.0
 10
59.18171613468978
 20
-5.067734406519829
 30
0.0
 41
1.0
 10
58.66756739713711
 20
-4.574089369702758
 30
0.0
 41
1.0
 10
58.4957684146648
 20
-4.404506674219018
 30
0.0
 41
1.0
 10
58.2369942020998
 20
-4.14273862493499
 30
0.0
 41
1.0
 10
58.15047686541991
 20
-4.05416778032463
 30
0.0
 41
1.0
 10
57.9773469031851
 20
-3.874945312361889
 30
0.0
 41
1.0
 10
57.89099512740539
 20
-3.78456596309206
 30
0.0
 41
1.0
 10
57.46008704298279
 20
-3.329032318806528
 30
0.0
 41
1.0
 10
57.11809141589349
 20
-2.95298629938989
 30
0.0
 41
1.0
 10
56.43490351903079
 20
-2.18180827919829
 30
0.0
 41
1.0
 10
56.09365146551411
 20
-1.786723629783439
 30
0.0
 41
1.0
 10
55.57886804373672
 20
-1.18246602822541
 30
0.0
 41
1.0
 10
55.40678961599029
 20
-0.9791033222230399
 30
0.0
 41
1.0
 10
55.1474556104748
 20
-0.6714801088193381
 30
0.0
 41
1.0
 10
55.06075175160121
 20
-0.568445310589453
 30
0.0
 41
1.0
 10
54.88800542964639
 20
-0.362936765713755
 30
0.0
 41
1.0
 10
54.8018249327621
 20
-0.260297947269635
 30
0.0
 41
1.0
 10
54.37170110413141
 20
0.252177134983896
 30
0.0
 41
1.0
 10
54.03010165009751
 20
0.6598736551951561
 30
0.0
 41
1.0
 10
53.34697680364139
 20
1.466719096146698
 30
0.0
 41
1.0
 10
53.0055279589159
 20
1.86593264782212
 30
0.0
 41
1.0
 10
52.4899773291518
 20
2.455372286365106
 30
0.0
 41
1.0
 10
52.31740831233621
 20
2.65042630020497
 30
0.0
 41
1.0
 10
51.9710807303305
 20
3.036190977101338
 30
0.0
 41
1.0
 10
51.79877807869011
 20
3.22528764410899
 30
0.0
 41
1.0
 10
51.28351129484411
 20
3.780794717297597
 30
0.0
 41
1.0
 10
50.94213450304987
 20
4.135414936332298
 30
0.0
 41
1.0
 10
50.259004337954
 20
4.81038794947091
 30
0.0
 41
1.0
 10
49.9172863430666
 20
5.130763771418709
 30
0.0
 41
1.0
 10
49.48689106512588
 20
5.50729587019003
 30
0.0
 41
1.0
 10
49.40065177545911
 20
5.581404108982749
 30
0.0
 41
1.0
 10
49.22777636795161
 20
5.72714893837303
 30
0.0
 41
1.0
 10
49.14106969348601
 20
5.79883784082236
 30
0.0
 41
1.0
 10
48.88193836292201
 20
6.008716239216076
 30
0.0
 41
1.0
 10
48.7099683319008
 20
6.142181919015138
 30
0.0
 41
1.0
 10
48.19542009227029
 20
6.523111480628927
 30
0.0
 41
1.0
 10
47.85423778458951
 20
6.75118083081583
 30
0.0
 41
1.0
 10
47.17097814378949
 20
7.154015647302999
 30
0.0
 41
1.0
 10
46.8288439631295
 20
7.32876077664278
 30
0.0
 41
1.0
 10
46.31140248932029
 20
7.54843618374494
 30
0.0
 41
1.0
 10
46.13792692761299
 20
7.614635971175736
 30
0.0
 41
1.0
 10
45.79220419549371
 20
7.731242301625509
 30
0.0
 41
1.0
 10
45.44698208610951
 20
7.83240957095711
 30
0.0
 41
1.0
 10
45.10164649812089
 20
7.90259080958305
 30
0.0
 41
1.0
 10
44.84214049285419
 20
7.94346293581603
 30
0.0
 41
1.0
 10
44.75548832848899
 20
7.955130849185708
 30
0.0
 41
1.0
 10
44.58242898299068
 20
7.97445890992248
 30
0.0
 41
1.0
 10
44.4959859269764
 20
7.98212767449061
 30
0.0
 41
1.0
 10
44.28657176438139
 20
7.995899332109588
 30
0.0
 41
1.0
 10
44.1636587719975
 20
7.999969773086409
 30
0.0
 41
1.0
 10
44.04074452034222
 20
8.000012946094329
 30
0.0
 41
1.0
  0
SPLINE
  5
82
330
1F
100
AcDbEntity
  8
1
100
AcDbSpline
210
0.0
220
0.0
230
1.0
 70
    12
 71
     3
 72
    10
 73
     6
 74
     0
 42
0.000000001
 43
0.0000000001
 40
0.0
 40
0.0
 40
0.0
 40
0.0
 40
0.509683995923716
 40
0.509683995923716
 40
1.0
 40
1.0
 40
1.0
 40
1.0
 10
31.0
 20
-7.63930721188839
 30
0.0
 41
1.0
 10
31.34700393937081
 20
-7.762081012521089
 30
0.0
 41
1.0
 10
31.690542218324
 20
-7.85308797495779
 30
0.0
 41
1.0
 10
32.36259516752911
 20
-7.970822256895099
 30
0.0
 41
1.0
 10
32.69117720462792
 20
-7.99985673151824
 30
0.0
 41
1.0
 10
33.0208968303854
 20
-7.99999976001754
 30
0.0
 41
1.0
  0
SPLINE
  5
83
330
1F
100
AcDbEntity
  8
1
100
AcDbSpline
210
0.0
220
0.0
230
1.0
 70
    12
 71
     3
 72
    12
 73
     8
 74
     0
 42
0.000000001
 43
0.0000000001
 40
0.0
 40
0.0
 40
0.0
 40
0.0
 40
0.5
 40
0.5
 40
0.75
 40
0.75
 40
1.0
 40
1.0
 40
1.0
 40
1.0
 10
29.8
 20
6.722604220270707
 30
0.0
 41
1.0
 10
30.0129638197431
 20
6.835067404339499
 30
0.0
 41
1.0
 10
30.2239074547926
 20
6.96621853860267
 30
0.0
 41
1.0
 10
30.5278960990719
 20
7.194141179215619
 30
0.0
 41
1.0
 10
30.6271008286935
 20
7.275357348545037
 30
0.0
 41
1.0
 10
30.8190137886414
 20
7.448893508208067
 30
0.0
 41
1.0
 10
30.9116098327181
 20
7.541170233917847
 30
0.0
 41
1.0
 10
31.0
 20
7.639307211888419
 30
0.0
 41
1.0
  0
SPLINE
  5
84
330
1F
100
AcDbEntity
  8
1
100
AcDbSpline
210
0.0
220
0.0
230
1.0
 70
    12
 71
     3
 72
    18
 73
    14
 74
     0
 42
0.000000001
 43
0.0000000001
 40
0.0
 40
0.0
 40
0.0
 40
0.0
 40
0.25
 40
0.25
 40
0.500000000000001
 40
0.500000000000001
 40
0.5625
 40
0.5625
 40
0.625
 40
0.625
 40
0.7499999999999992
 40
0.7499999999999992
 40
1.0
 40
1.0
 40
1.0
 40
1.0
 10
24.60000000000001
 20
7.235656411753747
 30
0.0
 41
1.0
 10
25.0366365314988
 20
7.084431383548515
 30
0.0
 41
1.0
 10
25.46791886389091
 20
6.889346390263058
 30
0.0
 41
1.0
 10
26.32908610346821
 20
6.418213410661111
 30
0.0
 41
1.0
 10
26.75891372597161
 20
6.14213426793773
 30
0.0
 41
1.0
 10
27.30090926014121
 20
5.748187680929249
 30
0.0
 41
1.0
 10
27.4095457258804
 20
5.666947631471169
 30
0.0
 41
1.0
 10
27.6274428569131
 20
5.49957635660689
 30
0.0
 41
1.0
 10
27.736693302574
 20
5.413442878186907
 30
0.0
 41
1.0
 10
28.0632884445254
 20
5.149643709214418
 30
0.0
 41
1.0
 10
28.2802510062094
 20
4.966001941562409
 30
0.0
 41
1.0
 10
28.93058231793871
 20
4.393195314398718
 30
0.0
 41
1.0
 10
29.3633640993339
 20
3.98221210239979
 30
0.0
 41
1.0
 10
29.8
 20
3.544938997725977
 30
0.0
 41
1.0
  0
SPLINE
  5
85
330
1F
100
AcDbEntity
  8
1
100
AcDbSpline
210
0.0
220
0.0
230
1.0
 70
    12
 71
     3
 72
    12
 73
     8
 74
     0
 42
0.000000001
 43
0.0000000001
 40
0.0
 40
0.0
 40
0.0
 40
0.0
 40
0.139090659631608
 40
0.139090659631608
 40
0.569545329815804
 40
0.569545329815804
 40
1.0
 40
1.0
 40
1.0
 40
1.0
 10
26.11564885290921
 20
-7.4050835382607
 30
0.0
 41
1.0
 10
26.0457997764835
 20
-7.42287331441398
 30
0.0
 41
1.0
 10
25.9758581538884
 20
-7.439483466833218
 30
0.0
 41
1.0
 10
25.688999406073
 20
-7.502626401722576
 30
0.0
 41
1.0
 10
25.4707265006043
 20
-7.538935282357777
 30
0.0
 41
1.0
 10
25.0354631496764
 20
-7.58740173645032
 30
0.0
 41
1.0
 10
24.8179805983172
 20
-7.59970041018519
 30
0.0
 41
1.0
 10
24.60000000000001
 20
-7.599994597574037
 30
0.0
 41
1.0
  0
SPLINE
  5
86
330
1F
100
AcDbEntity
  8
1
100
AcDbSpline
210
0.0
220
0.0
230
1.0
 70
    12
 71
     3
 72
    44
 73
    40
 74
     0
 42
0.000000001
 43
0.0000000001
 40
0.0
 40
0.0
 40
0.0
 40
0.0
 40
0.0820512820662814
 40
0.0820512820662814
 40
0.164102564132563
 40
0.164102564132563
 40
0.205128205165704
 40
0.205128205165704
 40
0.225641025682274
 40
0.225641025682274
 40
0.246153846198844
 40
0.246153846198844
 40
0.328205128265125
 40
0.328205128265125
 40
0.410256410331406
 40
0.410256410331406
 40
0.451282051364546
 40
0.451282051364546
 40
0.4923076923976863
 40
0.4923076923976863
 40
0.574358974463967
 40
0.574358974463967
 40
0.656410256530248
 40
0.656410256530248
 40
0.6974358975633879
 40
0.6974358975633879
 40
0.7179487180799593
 40
0.7179487180799593
 40
0.7384615385965291
 40
0.7384615385965291
 40
0.8205128206628119
 40
0.8205128206628119
 40
0.9025641027290941
 40
0.9025641027290941
 40
0.9435897437622347
 40
0.9435897437622347
 40
0.984615384795375
 40
0.984615384795375
 40
1.0
 40
1.0
 40
1.0
 40
1.0
 10
31.0
 20
2.375075856133856
 30
0.0
 41
1.0
 10
31.3470039393709
 20
1.98018035071996
 30
0.0
 41
1.0
 10
31.690542218324
 20
1.57976367255634
 30
0.0
 41
1.0
 10
32.37561148357041
 20
0.7721916819845383
 30
0.0
 41
1.0
 10
32.71713440777772
 20
0.365029171105704
 30
0.0
 41
1.0
 10
33.23139542682851
 20
-0.247841001650812
 30
0.0
 41
1.0
 10
33.40314666155731
 20
-0.4524854629990501
 30
0.0
 41
1.0
 10
33.66172878187349
 20
-0.7596090844983791
 30
0.0
 41
1.0
 10
33.74808219870202
 20
-0.862009720501703
 30
0.0
 41
1.0
 10
33.92118645358741
 20
-1.066799915438789
 30
0.0
 41
1.0
 10
34.00803626499512
 20
-1.1693051433866
 30
0.0
 41
1.0
 10
34.44070820915282
 20
-1.678390711422738
 30
0.0
 41
1.0
 10
34.78370967561751
 20
-2.07690234558217
 30
0.0
 41
1.0
 10
35.46833587524139
 20
-2.853100295610798
 30
0.0
 41
1.0
 10
35.80992751010222
 20
-3.230811884377029
 30
0.0
 41
1.0
 10
36.32477299042251
 20
-3.778893605595098
 30
0.0
 41
1.0
 10
36.4967994485823
 20
-3.95850006774739
 30
0.0
 41
1.0
 10
36.84228362345752
 20
-4.31097256648727
 30
0.0
 41
1.0
 10
37.0161368034989
 20
-4.48420003315124
 30
0.0
 41
1.0
 10
37.5341668170628
 20
-4.98648105332259
 30
0.0
 41
1.0
 10
37.87672351922552
 20
-5.30017605890575
 30
0.0
 41
1.0
 10
38.56102603621841
 20
-5.88339735010587
 30
0.0
 41
1.0
 10
38.90276059688241
 20
-6.152928113465746
 30
0.0
 41
1.0
 10
39.41828216660352
 20
-6.521675111494596
 30
0.0
 41
1.0
 10
39.59060682246072
 20
-6.63865625185042
 30
0.0
 41
1.0
 10
39.85029132677873
 20
-6.80480272603137
 30
0.0
 41
1.0
 10
39.93713732091591
 20
-6.85867521801541
 30
0.0
 41
1.0
 10
40.11018278500571
 20
-6.962570549940177
 30
0.0
 41
1.0
 10
40.196509891944
 20
-7.012678505933537
 30
0.0
 41
1.0
 10
40.62736482885321
 20
-7.254054130448619
 30
0.0
 41
1.0
 10
40.96955564980841
 20
-7.417903670873807
 30
0.0
 41
1.0
 10
41.65372502986751
 20
-7.68682405765949
 30
0.0
 41
1.0
 10
41.99569324943061
 20
-7.79189784508503
 30
0.0
 41
1.0
 10
42.512006067541
 20
-7.90383201451408
 30
0.0
 41
1.0
 10
42.68476623430279
 20
-7.93352683849861
 30
0.0
 41
1.0
 10
43.0316741710328
 20
-7.977150900428306
 30
0.0
 41
1.0
 10
43.2042673798101
 20
-7.990892826206327
 30
0.0
 41
1.0
 10
43.44082800027811
 20
-7.998936737561017
 30
0.0
 41
1.0
 10
43.50526768380579
 20
-8.000022852726889
 30
0.0
 41
1.0
 10
43.5696462119464
 20
-8.0000055113693
 30
0.0
 41
1.0
  0
SPLINE
  5
87
330
1F
100
AcDbEntity
  8
1
100
AcDbSpline
210
0.0
220
0.0
230
1.0
 70
    12
 71
     3
 72
    23
 73
    19
 74
     0
 42
0.000000001
 43
0.0000000001
 40
0.0
 40
0.0
 40
0.0
 40
0.0
 40
0.0004152791292339
 40
0.0010503446761808
 40
0.0016868202359198
 40
0.0023657646656991
 40
0.0039733924002108
 40
0.0086738663067165
 40
0.0505511045691377
 40
0.101266202274754
 40
0.182938390295161
 40
0.302449079115679
 40
0.393291374997109
 40
0.515472046564444
 40
0.6581234310231423
 40
0.7946807727568293
 40
0.908929526827109
 40
1.0
 40
1.0
 40
1.0
 40
1.0
 10
56.06875502097412
 20
-7.81269746970605
 30
0.0
 41
1.0
 10
56.06876536153771
 20
-7.812700000713249
 30
0.0
 41
1.0
 10
56.06885735602628
 20
-7.81269210477637
 30
0.0
 41
1.0
 10
56.06957629860609
 20
-7.81255644141828
 30
0.0
 41
1.0
 10
56.0711383482403
 20
-7.81224035469347
 30
0.0
 41
1.0
 10
56.0743695087986
 20
-7.811570624000689
 30
0.0
 41
1.0
 10
56.0842273018815
 20
-7.80949183597841
 30
0.0
 41
1.0
 10
56.1594932541623
 20
-7.79338730497958
 30
0.0
 41
1.0
 10
56.30704558222229
 20
-7.76101765241307
 30
0.0
 41
1.0
 10
56.568380193182
 20
-7.70189806032474
 30
0.0
 41
1.0
 10
56.94767245716761
 20
-7.61219875841488
 30
0.0
 41
1.0
 10
57.38692829456351
 20
-7.501886002596168
 30
0.0
 41
1.0
 10
57.88664665076151
 20
-7.369624339060039
 30
0.0
 41
1.0
 10
58.42045791014861
 20
-7.221295883403199
 30
0.0
 41
1.0
 10
59.02346447872639
 20
-7.045635056129017
 30
0.0
 41
1.0
 10
59.615266609257
 20
-6.86582905254789
 30
0.0
 41
1.0
 10
60.1299373863495
 20
-6.70535475471462
 30
0.0
 41
1.0
 10
60.4390221346384
 20
-6.607232476838277
 30
0.0
 41
1.0
 10
60.57607776495689
 20
-6.563487894238878
 30
0.0
 41
1.0
  0
SPLINE
  5
88
330
1F
100
AcDbEntity
  8
1
100
AcDbSpline
210
0.0
220
0.0
230
1.0
 70
    12
 71
     3
 72
    20
 73
    16
 74
     0
 42
0.000000001
 43
0.0000000001
 40
0.0
 40
0.0
 40
0.0
 40
0.0
 40
0.125000000000002
 40
0.125000000000002
 40
0.187500000000003
 40
0.187500000000003
 40
0.250000000000004
 40
0.250000000000004
 40
0.500000000000002
 40
0.500000000000002
 40
0.75
 40
0.75
 40
0.875
 40
0.875
 40
1.0
 40
1.0
 40
1.0
 40
1.0
 10
29.8
 20
5.425158239986467
 30
0.0
 41
1.0
 10
29.5820188910356
 20
5.59794553125496
 30
0.0
 41
1.0
 10
29.364136948669
 20
5.76210038326033
 30
0.0
 41
1.0
 10
29.0377080997244
 20
5.99410318348276
 30
0.0
 41
1.0
 10
28.9289168723023
 20
6.069098070168049
 30
0.0
 41
1.0
 10
28.7111870802216
 20
6.214305148481507
 30
0.0
 41
1.0
 10
28.6020964662454
 20
6.28460332741929
 30
0.0
 41
1.0
 10
28.0582920853635
 20
6.62253311080042
 30
0.0
 41
1.0
 10
27.6283342232204
 20
6.850038204113557
 30
0.0
 41
1.0
 10
26.76868414230781
 20
7.218431752422667
 30
0.0
 41
1.0
 10
26.3394113112339
 20
7.35945866885194
 30
0.0
 41
1.0
 10
25.688999406073
 20
7.502626401722576
 30
0.0
 41
1.0
 10
25.4707265006043
 20
7.538935282357777
 30
0.0
 41
1.0
 10
25.0354631496764
 20
7.58740173645032
 30
0.0
 41
1.0
 10
24.8179805983172
 20
7.59970041018519
 30
0.0
 41
1.0
 10
24.60000000000001
 20
7.599994597574037
 30
0.0
 41
1.0
  0
SPLINE
  5
89
330
1F
100
AcDbEntity
  8
1
100
AcDbSpline
210
0.0
220
0.0
230
1.0
 70
    12
 71
     3
 72
    75
 73
    71
 74
     0
 42
0.000000001
 43
0.0000000001
 40
0.0
 40
0.0
 40
0.0
 40
0.0
 40
0.0446199495754203
 40
0.0446199495754203
 40
0.0892398991508407
 40
0.0892398991508407
 40
0.111549873938551
 40
0.111549873938551
 40
0.122704861332406
 40
0.122704861332406
 40
0.133859848726261
 40
0.133859848726261
 40
0.17847979830168
 40
0.17847979830168
 40
0.223099747877099
 40
0.223099747877099
 40
0.245409722664808
 40
0.245409722664808
 40
0.267719697452518
 40
0.267719697452518
 40
0.312339647027936
 40
0.312339647027936
 40
0.356959596603356
 40
0.356959596603356
 40
0.379269571391065
 40
0.379269571391065
 40
0.39042455878492
 40
0.39042455878492
 40
0.4015795461787751
 40
0.4015795461787751
 40
0.446199495754194
 40
0.446199495754194
 40
0.490819445329613
 40
0.490819445329613
 40
0.513129420117323
 40
0.513129420117323
 40
0.5354393949050321
 40
0.5354393949050321
 40
0.5800593444804511
 40
0.5800593444804511
 40
0.624679294055871
 40
0.624679294055871
 40
0.635834281449725
 40
0.635834281449725
 40
0.64698926884358
 40
0.64698926884358
 40
0.66929924363129
 40
0.66929924363129
 40
0.7139191932067092
 40
0.7139191932067092
 40
0.7585391427821279
 40
0.7585391427821279
 40
0.7696941301759829
 40
0.7696941301759829
 40
0.7808491175698383
 40
0.803159092357548
 40
0.803159092357548
 40
0.847779041932967
 40
0.847779041932967
 40
0.8923989915083867
 40
0.8923989915083867
 40
0.9035539789022417
 40
0.9035539789022417
 40
0.914708966296096
 40
0.914708966296096
 40
0.9370189410838058
 40
0.9370189410838058
 40
0.981638890659225
 40
0.981638890659225
 40
1.0
 40
1.0
 40
1.0
 40
1.0
 10
31.0
 20
7.63930721188839
 30
0.0
 41
1.0
 10
31.3470039393709
 20
7.762081012521089
 30
0.0
 41
1.0
 10
31.6905422183239
 20
7.853087974957759
 30
0.0
 41
1.0
 10
32.37561148357041
 20
7.973102533507807
 30
0.0
 41
1.0
 10
32.71713440777772
 20
8.002105745503339
 30
0.0
 41
1.0
 10
33.23139542682851
 20
7.99876931173756
 30
0.0
 41
1.0
 10
33.40314666155731
 20
7.989835039684749
 30
0.0
 41
1.0
 10
33.66172878187349
 20
7.964517926569527
 30
0.0
 41
1.0
 10
33.74808219870202
 20
7.95409194150184
 30
0.0
 41
1.0
 10
33.92118645358732
 20
7.929222995509968
 30
0.0
 41
1.0
 10
34.00803626499512
 20
7.914755884068767
 30
0.0
 41
1.0
 10
34.44070820915282
 20
7.832826321567348
 30
0.0
 41
1.0
 10
34.78370967561741
 20
7.73646544993724
 30
0.0
 41
1.0
 10
35.46833587524131
 20
7.48506778288234
 30
0.0
 41
1.0
 10
35.80992751010222
 20
7.330018648447889
 30
0.0
 41
1.0
 10
36.32477299042251
 20
7.054203911306982
 30
0.0
 41
1.0
 10
36.4967994485823
 20
6.95504545039475
 30
0.0
 41
1.0
 10
36.84228362345752
 20
6.742247068626817
 30
0.0
 41
1.0
 10
37.0161368034988
 20
6.628295392258556
 30
0.0
 41
1.0
 10
37.5341668170628
 20
6.26932258559518
 30
0.0
 41
1.0
 10
37.87672351922562
 20
6.006197153951289
 30
0.0
 41
1.0
 10
38.56102603621841
 20
5.43616649195894
 30
0.0
 41
1.0
 10
38.90276059688241
 20
5.12925234243028
 30
0.0
 41
1.0
 10
39.41828216660352
 20
4.63785427008682
 30
0.0
 41
1.0
 10
39.59060682246072
 20
4.46887146517787
 30
0.0
 41
1.0
 10
39.85029132677873
 20
4.20776687928696
 30
0.0
 41
1.0
 10
39.93713732091591
 20
4.119369711265386
 30
0.0
 41
1.0
 10
40.11018278500561
 20
3.94122365534045
 30
0.0
 41
1.0
 10
40.196509891944
 20
3.85134861581216
 30
0.0
 41
1.0
 10
40.62736482885321
 20
3.398151627300507
 30
0.0
 41
1.0
 10
40.96955564980841
 20
3.023393924182049
 30
0.0
 41
1.0
 10
41.65372502986751
 20
2.25365072665025
 30
0.0
 41
1.0
 10
41.99569324943061
 20
1.858656993837909
 30
0.0
 41
1.0
 10
42.512006067541
 20
1.253598400041989
 30
0.0
 41
1.0
 10
42.68476623430279
 20
1.04970579299493
 30
0.0
 41
1.0
 10
43.0316741710328
 20
0.638587394818074
 30
0.0
 41
1.0
 10
43.2042673798101
 20
0.433209915742253
 30
0.0
 41
1.0
 10
43.72039964432191
 20
-0.181642021116318
 30
0.0
 41
1.0
 10
44.06230190005149
 20
-0.5898337774461031
 30
0.0
 41
1.0
 10
44.7464960589774
 20
-1.398889627829159
 30
0.0
 41
1.0
 10
45.08875450639188
 20
-1.79978191759662
 30
0.0
 41
1.0
 10
45.51978292324
 20
-2.293747703541439
 30
0.0
 41
1.0
 10
45.60614980182999
 20
-2.392182051359298
 30
0.0
 41
1.0
 10
45.77928475384299
 20
-2.588262584577369
 30
0.0
 41
1.0
 10
45.86613061056611
 20
-2.685993547083397
 30
0.0
 41
1.0
 10
46.12568675473197
 20
-2.976003669263408
 30
0.0
 41
1.0
 10
46.29794103402068
 20
-3.16569955649831
 30
0.0
 41
1.0
 10
46.81329666692437
 20
-3.723384099906609
 30
0.0
 41
1.0
 10
47.15499933071411
 20
-4.079995591924299
 30
0.0
 41
1.0
 10
47.83934964752972
 20
-4.759802696764467
 30
0.0
 41
1.0
 10
48.18198904016228
 20
-5.08300522557636
 30
0.0
 41
1.0
 10
48.61388311422889
 20
-5.463504390058861
 30
0.0
 41
1.0
 10
48.7004944067489
 20
-5.5384705424218
 30
0.0
 41
1.0
 10
48.87393707823551
 20
-5.68577800336854
 30
0.0
 41
1.0
 10
49.133452912427
 20
-5.90197465872012
 30
0.0
 41
1.0
 10
49.39139387546739
 20
-6.10387520811852
 30
0.0
 41
1.0
 10
49.90609923145878
 20
-6.488481091120797
 30
0.0
 41
1.0
 10
50.2476575645184
 20
-6.71934721499011
 30
0.0
 41
1.0
 10
50.93232571478431
 20
-7.128115762277587
 30
0.0
 41
1.0
 10
51.27542173278289
 20
-7.306028534794589
 30
0.0
 41
1.0
 10
51.70827541476679
 20
-7.49306366721453
 30
0.0
 41
1.0
 10
51.79511785908779
 20
-7.52871915045824
 30
0.0
 41
1.0
 10
51.96814532380148
 20
-7.595987876282259
 30
0.0
 41
1.0
 10
52.05446434972681
 20
-7.6276624544719
 30
0.0
 41
1.0
 10
52.31295575154192
 20
-7.71684865817653
 30
0.0
 41
1.0
 10
52.48466321018251
 20
-7.768526707373577
 30
0.0
 41
1.0
 10
52.99882207204579
 20
-7.90041556047868
 30
0.0
 41
1.0
 10
53.3403168896692
 20
-7.95753884820144
 30
0.0
 41
1.0
 10
53.82385584822871
 20
-7.99437640128247
 30
0.0
 41
1.0
 10
53.96500341859422
 20
-7.999852310810608
 30
0.0
 41
1.0
 10
54.10649866766799
 20
-7.99999734944703
 30
0.0
 41
1.0
  0
SPLINE
  5
8A
330
1F
100
AcDbEntity
  8
1
100
AcDbSpline
210
0.0
220
0.0
230
1.0
 70
    12
 71
     3
 72
    18
 73
    14
 74
     0
 42
0.000000001
 43
0.0000000001
 40
0.0
 40
0.0
 40
0.0
 40
0.0
 40
0.204138479915245
 40
0.204138479915245
 40
0.3367820665960361
 40
0.3367820665960361
 40
0.403103859936432
 40
0.403103859936432
 40
0.469425653276828
 40
0.469425653276828
 40
0.7347128266384141
 40
0.7347128266384141
 40
1.0
 40
1.0
 40
1.0
 40
1.0
 10
34.88878179574821
 20
-7.828063425404137
 30
0.0
 41
1.0
 10
34.62595598171831
 20
-7.892665416019357
 30
0.0
 41
1.0
 10
34.36321425706691
 20
-7.93924956599207
 30
0.0
 41
1.0
 10
33.92809483777962
 20
-7.985918011267557
 30
0.0
 41
1.0
 10
33.75628579132062
 20
-7.996559221857718
 30
0.0
 41
1.0
 10
33.49749351081891
 20
-8.00065967893502
 30
0.0
 41
1.0
 10
33.41097417654372
 20
-8.000045945702199
 30
0.0
 41
1.0
 10
33.2378249806975
 20
-7.994817469347536
 30
0.0
 41
1.0
 10
33.15142029115611
 20
-7.990213184520597
 30
0.0
 41
1.0
 10
32.7200441308042
 20
-7.95735047401666
 30
0.0
 41
1.0
 10
32.37695938626103
 20
-7.899652749580329
 30
0.0
 41
1.0
 10
31.6901749636052
 20
-7.722924006693177
 30
0.0
 41
1.0
 10
31.3464723716969
 20
-7.60389128633878
 30
0.0
 41
1.0
 10
31.0
 20
-7.45396738380424
 30
0.0
 41
1.0
  0
LINE
  5
46
330
1F
100
AcDbEntity
  8
1
100
AcDbLine
 10
33.02322700000002
 20
-8.0
 30
0.0
 11
33.49435200000002
 21
-8.0
 31
0.0
  0
LINE
  5
48
330
1F
100
AcDbEntity
  8
1
100
AcDbLine
 10
33.49435200000002
 20
8.0
 30
0.0
 11
33.02322700000002
 21
8.0
 31
0.0
  0
LINE
  5
49
330
1F
100
AcDbEntity
  8
SK1
100
AcDbLine
 10
-47.40000000000001
 20
8.0
 30
0.0
 11
-47.99999999999998
 21
7.4
 31
0.0
  0
LINE
  5
4B
330
1F
100
AcDbEntity
  8
1
100
AcDbLine
 10
43.56810900000001
 20
-8.0
 30
0.0
 11
44.038987
 21
-8.0
 31
0.0
  0
LINE
  5
4C
330
1F
100
AcDbEntity
  8
SK1
100
AcDbLine
 10
-47.40000000000001
 20
-8.0
 30
0.0
 11
-1.199999999999995
 21
-8.0
 31
0.0
  0
LINE
  5
4D
330
1F
100
AcDbEntity
  8
1
100
AcDbLine
 10
64.0
 20
-7.961744999999997
 30
0.0
 11
64.0
 21
-7.887355
 31
0.0
  0
LINE
  5
4E
330
1F
100
AcDbEntity
  8
1
100
AcDbLine
 10
0.0000000000000038
 20
-7.599999999999997
 30
0.0
 11
0.0000000000000038
 21
7.599999999999997
 31
0.0
  0
LINE
  5
4F
330
1F
100
AcDbEntity
  8
1
100
AcDbLine
 10
67.00000000000001
 20
-5.0
 30
0.0
 11
67.00000000000001
 21
5.0
 31
0.0
  0
LINE
  5
50
330
1F
100
AcDbEntity
  8
1
100
AcDbLine
 10
31.0
 20
-7.639307
 30
0.0
 11
31.0
 21
-7.453966999999997
 31
0.0
  0
LINE
  5
51
330
1F
100
AcDbEntity
  8
SK1
100
AcDbLine
 10
-47.99999999999998
 20
-7.4
 30
0.0
 11
-47.99999999999998
 21
7.4
 31
0.0
  0
LINE
  5
52
330
1F
100
AcDbEntity
  8
1
100
AcDbLine
 10
24.60000000000001
 20
7.599999999999997
 30
0.0
 11
0.0000000000000042
 21
7.600000000001099
 31
0.0
  0
LINE
  5
53
330
1F
100
AcDbEntity
  8
1
100
AcDbLine
 10
54.58330400000002
 20
8.0
 30
0.0
 11
54.11216099999998
 21
8.0
 31
0.0
  0
LINE
  5
54
330
1F
100
AcDbEntity
  8
1
100
AcDbLine
 10
29.8
 20
3.544938999999998
 30
0.0
 11
29.8
 21
5.425158
 31
0.0
  0
LINE
  5
55
330
1F
100
AcDbEntity
  8
SK1
100
AcDbLine
 10
-47.40000000000001
 20
-8.0
 30
0.0
 11
-47.40000000000001
 21
8.0
 31
0.0
  0
LINE
  5
56
330
1F
100
AcDbEntity
  8
1
100
AcDbLine
 10
44.038987
 20
8.0
 30
0.0
 11
43.56810900000001
 21
8.0
 31
0.0
  0
LINE
  5
57
330
1F
100
AcDbEntity
  8
SK1
100
AcDbLine
 10
-1.199999999999995
 20
8.0
 30
0.0
 11
-47.40000000000001
 21
8.0
 31
0.0
  0
LINE
  5
58
330
1F
100
AcDbEntity
  8
1
100
AcDbLine
 10
-1.199999999999995
 20
-8.0
 30
0.0
 11
-1.199999999999995
 21
8.0
 31
0.0
  0
LINE
  5
59
330
1F
100
AcDbEntity
  8
1
100
AcDbLine
 10
64.0
 20
0.781421
 30
0.0
 11
64.0
 21
1.337772999999998
 31
0.0
  0
LINE
  5
5A
330
1F
100
AcDbEntity
  8
1
100
AcDbLine
 10
24.60000000000001
 20
-7.599999999999997
 30
0.0
 11
24.60000000000001
 21
-2.324924999999999
 31
0.0
  0
LINE
  5
5B
330
1F
100
AcDbEntity
  8
1
100
AcDbLine
 10
31.0
 20
2.375075999999999
 30
0.0
 11
31.0
 21
2.904887
 31
0.0
  0
LINE
  5
5C
330
1F
100
AcDbEntity
  8
1
100
AcDbLine
 10
24.60000000000001
 20
-0.009062
 30
0.0
 11
24.60000000000001
 21
7.235655999999997
 31
0.0
  0
LINE
  5
5D
330
1F
100
AcDbEntity
  8
1
100
AcDbLine
 10
29.8
 20
-6.722603999999997
 30
0.0
 11
29.8
 21
-5.322373
 31
0.0
  0
LINE
  5
5E
330
1F
100
AcDbEntity
  8
1
100
AcDbLine
 10
54.11216099999998
 20
-8.0
 30
0.0
 11
54.58330400000002
 21
-8.0
 31
0.0
  0
LINE
  5
5F
330
1F
100
AcDbEntity
  8
1
100
AcDbLine
 10
0.0000000000000038
 20
-7.599999999999996
 30
0.0
 11
24.60000000000001
 21
-7.599999999999997
 31
0.0
  0
LINE
  5
60
330
1F
100
AcDbEntity
  8
SK1
100
AcDbLine
 10
-47.99999999999998
 20
-7.4
 30
0.0
 11
-47.40000000000001
 21
-8.0
 31
0.0
  0
LINE
  5
61
330
1F
100
AcDbEntity
  8
81
100
AcDbLine
 10
65.00000000000001
 20
0.0
 30
0.0
 11
74.57239200000003
 21
0.0
 31
0.0
  0
LINE
  5
62
330
1F
100
AcDbEntity
  8
80
100
AcDbLine
 10
-1.199999999999995
 20
0.0
 30
0.0
 11
-14.03857499999999
 21
0.0
 31
0.0
  0
LINE
  5
63
330
1F
100
AcDbEntity
  8
SK4
100
AcDbLine
 10
0.0000000000000038
 20
0.0
 30
0.0
 11
-61.42454599999998
 21
0.0
 31
0.0
  0
DIMENSION
  5
A4
330
1F
100
AcDbEntity
  8
2
370
    -3
100
AcDbDimension
  2
DimnDraft3D1
 10
91.80954280766387
 20
7.961744999999989
 30
0.0
 11
91.80954280766387
 21
18.47460214285714
 31
0.0
 70
   160
  1
Ø16
 71
     5
 42
15.92348999999999
  3
SANDVIK_DIM
100
AcDbAlignedDimension
 13
64.3875
 23
-7.961744999999997
 33
0.0
 14
64.3875
 24
7.961744999999997
 34
0.0
 50
90.0
100
AcDbRotatedDimension
1001
ACAD
1000
DSTYLE
1002
{
1070
    40
1040
1.0
1070
   140
1040
3.0
1070
   279
1070
     0
1002
}
  0
DIMENSION
  5
AE
330
1F
100
AcDbEntity
  8
SK2
370
    -3
100
AcDbDimension
  2
DimnDraft3D2
 10
-72.07638119233097
 20
8.000000000000005
 30
0.0
 11
-75.87638119233097
 21
-0.0000000000000049
 31
0.0
 70
    32
  1
Ø16
 71
     5
 42
16.0
  3
SANDVIK_DIM
100
AcDbAlignedDimension
 13
-50.98749999999999
 23
-8.0
 33
0.0
 14
-50.98749999999999
 24
8.0
 34
0.0
 50
90.0
100
AcDbRotatedDimension
1001
ACAD
1000
DSTYLE
1002
{
1070
   140
1040
3.0
1070
    40
1040
1.0
1002
}
  0
DIMENSION
  5
C2
330
1F
100
AcDbEntity
  8
SK2
370
    -3
100
AcDbDimension
  2
DimnDraft3D4
 10
67.00312405880357
 20
-45.14326665048949
 30
0.0
 11
9.501562029401789
 21
-41.34326665048949
 31
0.0
 70
    32
 71
     5
 42
115.0031240588035
  3
SANDVIK_DIM
100
AcDbAlignedDimension
 13
-47.99999999999998
 23
-8.982246399192886
 33
0.0
 14
67.00312405880357
 24
-11.17060347045321
 34
0.0
100
AcDbRotatedDimension
1001
ACAD
1000
DSTYLE
1002
{
1070
   140
1040
3.0
1070
    40
1040
1.0
1002
}
  0
LINE
  5
249
330
1F
100
AcDbEntity
  8
4
100
AcDbLine
 10
70.61484384636088
 20
0.0
 30
0.0
 11
0.0
 21
0.0
 31
0.0
  0
DIMENSION
  5
24A
330
1F
100
AcDbEntity
  8
2
100
AcDbDimension
  2
*D9
 10
5.729212822425783
 20
-7.599999999999997
 30
0.0
 11
5.729212822425786
 21
24.79857142857143
 31
0.0
 70
   160
  1
Ø<>
 71
     5
 42
15.2
  3
SANDVIK_DIM
100
AcDbAlignedDimension
 13
5.801151680000002
 23
7.600000000000002
 33
0.0
 14
5.729212822425783
 24
-7.599999999999997
 34
0.0
 50
90.0
100
AcDbRotatedDimension
1001
ACAD
1000
DSTYLE
1002
{
1070
    40
1040
1.0
1070
   140
1040
3.0
1070
   279
1070
     0
1002
}
  0
SPLINE
  5
38B
330
1F
100
AcDbEntity
  8
1
100
AcDbSpline
210
0.0
220
0.0
230
1.0
 70
    12
 71
     3
 72
    21
 73
    17
 74
     0
 42
0.000000001
 43
0.0000000001
 40
-0.100108095803295
 40
-0.100108095803295
 40
-0.100108095803295
 40
-0.100108095803295
 40
0.0
 40
0.0
 40
0.0
 40
0.204138479915245
 40
0.204138479915245
 40
0.3367820665960361
 40
0.3367820665960361
 40
0.403103859936432
 40
0.403103859936432
 40
0.469425653276828
 40
0.469425653276828
 40
0.7347128266384141
 40
0.7347128266384141
 40
1.0
 40
1.0
 40
1.0
 40
1.0
 10
34.49319844268656
 20
-7.911642990445866
 30
0.0
 41
1.0
 10
34.35817433113818
 20
-7.909364739548542
 30
0.0
 41
1.0
 10
34.22447505098975
 20
-7.903136898211822
 30
0.0
 41
1.0
 10
34.09215377774663
 20
-7.8928009394959
 30
0.0
 41
1.0
 10
33.82232681356808
 20
-7.871724053717542
 30
0.0
 41
1.0
 10
33.55822995657522
 20
-7.833564559119601
 30
0.0
 41
1.0
 10
33.13042410467961
 20
-7.741428757667504
 30
0.0
 41
1.0
 10
32.96394450468104
 20
-7.697655174397622
 30
0.0
 41
1.0
 10
32.7169204395839
 20
-7.620393479759163
 30
0.0
 41
1.0
 10
32.63495780502859
 20
-7.592678891386665
 30
0.0
 41
1.0
 10
32.47218227052236
 20
-7.533415864520093
 30
0.0
 41
1.0
 10
32.39157990475447
 20
-7.501947969037022
 30
0.0
 41
1.0
 10
31.99226886605779
 20
-7.335466607207544
 30
0.0
 41
1.0
 10
31.68458369144782
 20
-7.173090492373397
 30
0.0
 41
1.0
 10
31.08786308760193
 20
-6.789905924950691
 30
0.0
 41
1.0
 10
30.79882542525315
 20
-6.569094942562107
 30
0.0
 41
1.0
 10
30.51684493995822
 20
-6.318082419342062
 30
0.0
 41
1.0
  0
SPLINE
  5
38C
330
1F
100
AcDbEntity
  8
1
100
AcDbSpline
210
0.0
220
0.0
230
1.0
 70
    12
 71
     3
 72
    59
 73
    55
 74
     0
 42
0.000000001
 43
0.0000000001
 40
0.0495828235743807
 40
0.0495828235743807
 40
0.0495828235743807
 40
0.0495828235743807
 40
0.0804127926583308
 40
0.0804127926583308
 40
0.0974421853868806
 40
0.0974421853868806
 40
0.11447157811543
 40
0.11447157811543
 40
0.182589149029628
 40
0.182589149029628
 40
0.216647934486728
 40
0.216647934486728
 40
0.250706719943827
 40
0.250706719943827
 40
0.267736112672376
 40
0.267736112672376
 40
0.2847655054009261
 40
0.2847655054009261
 40
0.318824290858025
 40
0.318824290858025
 40
0.386941861772224
 40
0.386941861772224
 40
0.4210006472293231
 40
0.4210006472293231
 40
0.4380300399578723
 40
0.4380300399578723
 40
0.4550594326864223
 40
0.4550594326864223
 40
0.523177003600619
 40
0.523177003600619
 40
0.5912945745148172
 40
0.5912945745148172
 40
0.625353359971916
 40
0.625353359971916
 40
0.642382752700465
 40
0.642382752700465
 40
0.6594121454290151
 40
0.6594121454290151
 40
0.7275297163432131
 40
0.7275297163432131
 40
0.7956472872574109
 40
0.7956472872574109
 40
0.829706072714509
 40
0.829706072714509
 40
0.8467354654430579
 40
0.8467354654430579
 40
0.8637648581716078
 40
0.8637648581716078
 40
0.931882429085804
 40
0.931882429085804
 40
1.0
 40
1.0
 40
1.0
 40
1.00886167375842
 40
1.00886167375842
 40
1.00886167375842
 40
1.00886167375842
 10
46.15316456939989
 20
-7.671139894835089
 30
0.0
 41
1.0
 10
45.99688418252077
 20
-7.708585747255213
 30
0.0
 41
1.0
 10
45.84055652141501
 20
-7.739676935088271
 30
0.0
 41
1.0
 10
45.59745151670248
 20
-7.777965908132562
 30
0.0
 41
1.0
 10
45.5107993523373
 20
-7.789633821502213
 30
0.0
 41
1.0
 10
45.33774000683897
 20
-7.808961882238973
 30
0.0
 41
1.0
 10
45.25129695082468
 20
-7.816630646807116
 30
0.0
 41
1.0
 10
44.81933704456948
 20
-7.845037531328905
 30
0.0
 41
1.0
 10
44.4746306660866
 20
-7.836044823640388
 30
0.0
 41
1.0
 10
43.95519144048228
 20
-7.774731479117976
 30
0.0
 41
1.0
 10
43.78188195706997
 20
-7.746320265472895
 30
0.0
 41
1.0
 10
43.4355577063094
 20
-7.673810485908093
 30
0.0
 41
1.0
 10
43.26255360529247
 20
-7.629731194639793
 30
0.0
 41
1.0
 10
43.00282422674938
 20
-7.551955924110053
 30
0.0
 41
1.0
 10
42.9161827430216
 20
-7.524073308274386
 30
0.0
 41
1.0
 10
42.74345695892979
 20
-7.464687301567693
 30
0.0
 41
1.0
 10
42.65728358828808
 20
-7.433159729598143
 30
0.0
 41
1.0
 10
42.39921706006447
 20
-7.333168394358695
 30
0.0
 41
1.0
 10
42.22778274981428
 20
-7.259298317607717
 30
0.0
 41
1.0
 10
41.7144414924228
 20
-7.016663495887205
 30
0.0
 41
1.0
 10
41.3734753848514
 20
-6.826931481322334
 30
0.0
 41
1.0
 10
40.86034971657571
 20
-6.501836087422676
 30
0.0
 41
1.0
 10
40.6890422728541
 20
-6.386702343231553
 30
0.0
 41
1.0
 10
40.43123349832028
 20
-6.203909116149644
 30
0.0
 41
1.0
 10
40.34515543572079
 20
-6.141295303037486
 30
0.0
 41
1.0
 10
40.17263346714339
 20
-6.012705245715415
 30
0.0
 41
1.0
 10
40.08610380519921
 20
-5.946662573041463
 30
0.0
 41
1.0
 10
39.6532727648092
 20
-5.608776512875556
 30
0.0
 41
1.0
 10
39.3103857785655
 20
-5.317066449972775
 30
0.0
 41
1.0
 10
38.62651233018422
 20
-4.695214192026893
 30
0.0
 41
1.0
 10
38.28547934617901
 20
-4.365100561791797
 30
0.0
 41
1.0
 10
37.77191308726121
 20
-3.843353726749406
 30
0.0
 41
1.0
 10
37.6003851608083
 20
-3.665001120451366
 30
0.0
 41
1.0
 10
37.34209903471089
 20
-3.391054812298563
 30
0.0
 41
1.0
 10
37.2558378259862
 20
-3.298669386401314
 30
0.0
 41
1.0
 10
37.08291194570219
 20
-3.111783683009496
 30
0.0
 41
1.0
 10
36.9962155688513
 20
-3.017245466115275
 30
0.0
 41
1.0
 10
36.56441969152819
 20
-2.542540279894244
 30
0.0
 41
1.0
 10
36.22207556785291
 20
-2.153900996201685
 30
0.0
 41
1.0
 10
35.5385829996324
 20
-1.363314120064873
 30
0.0
 41
1.0
 10
35.1975288461929
 20
-0.9612885518489251
 30
0.0
 41
1.0
 10
34.6834058616284
 20
-0.3510562664120065
 30
0.0
 41
1.0
 10
34.51159681516941
 20
-0.1464531264578903
 30
0.0
 41
1.0
 10
34.2528045346678
 20
0.161922995783494
 30
0.0
 41
1.0
 10
34.16628520039271
 20
0.2650490181495351
 30
0.0
 41
1.0
 10
33.99313600454629
 20
0.4713390849084027
 30
0.0
 41
1.0
 10
33.906731315005
 20
0.5742346271567218
 30
0.0
 41
1.0
 10
33.4753551546529
 20
1.087312617905263
 30
0.0
 41
1.0
 10
33.13227041010982
 20
1.493265304306383
 30
0.0
 41
1.0
 10
32.4454859874538
 20
2.29244953002119
 30
0.0
 41
1.0
 10
32.10178339554549
 20
2.68567822539196
 30
0.0
 41
1.0
 10
30.95386859442854
 20
4.003155027683525
 30
0.0
 41
1.0
 10
30.80453199399725
 20
4.174550593460586
 30
0.0
 41
1.0
 10
30.64158458668489
 20
4.361588501332748
 30
0.0
 41
1.0
 10
30.46502644862524
 20
4.564268663802563
 30
0.0
 41
1.0
  0
ARC
  5
398
330
1F
100
AcDbEntity
  8
1
100
AcDbCircle
 10
3.399840409360899
 20
-32.01033077308399
 30
0.0
 40
52.82118884677868
100
AcDbArc
 50
37.65565237789458
 51
46.91086059342609
  0
ARC
  5
399
330
1F
100
AcDbEntity
  8
1
100
AcDbCircle
 10
63.26938340061023
 20
11.7208380857965
 30
0.0
 40
21.38273668093992
100
AcDbArc
 50
212.4142776349655
 51
244.8241558923171
  0
ARC
  5
39A
330
1F
100
AcDbEntity
  8
1
100
AcDbCircle
 10
55.4765051302599
 20
-4.01933634747995
 30
0.0
 40
3.839316154820735
100
AcDbArc
 50
250.1560832097241
 51
278.873835607696
  0
ARC
  5
39B
330
1F
100
AcDbEntity
  8
1
100
AcDbCircle
 10
13.95888241119266
 20
-32.00038565770062
 30
0.0
 40
52.82118884677868
100
AcDbArc
 50
37.65565237789456
 51
46.91086059342609
  0
ARC
  5
39C
330
1F
100
AcDbEntity
  8
1
100
AcDbCircle
 10
73.82842540244201
 20
11.73078320117988
 30
0.0
 40
21.38273668093992
100
AcDbArc
 50
212.4142776349655
 51
244.8241558923171
  0
ARC
  5
39D
330
1F
100
AcDbEntity
  8
1
100
AcDbCircle
 10
66.03554713209169
 20
-4.00939123209658
 30
0.0
 40
3.839316154820735
100
AcDbArc
 50
250.1560832097241
 51
255.4927749970236
  0
ARC
  5
39E
330
1F
100
AcDbEntity
  8
1
100
AcDbCircle
 10
24.4650029244684
 20
-31.98817976591679
 30
0.0
 40
52.82118884677868
100
AcDbArc
 50
39.15016288676191
 51
46.91086059342609
  0
MULTILEADER
  5
3DF
330
1F
100
AcDbEntity
  8
2
 92
      660
310
94020000180000000C00000016000000000000C00C00000033000000000000000C00000013000000993A0000A00000000B0000006B5AA2727196544089370C273EEC3AC0000000000000000000000000000000000000000000000000000000000000F03F000000000000F03F00000000000000000000000000000000523300
310
5E02000000010000000000000000000840000000000000F03F0000000000000000000000000000F03F000000000000000000000000000000000000000073696D706C65782E736878000000F03F0C00000033000000000000000C00000010000000040000000C00000016000000000000C00C00000012000000FF7F00000C00
310
000013000000010000000C0000001400000001000000540000000700000003000000C06C96428A13514054F40C3CFB6C26C00000000000000000B15EA8E1FC8650404E21AD9996881CC000000000000000005B54DB819E605140089A8B3A678F24C000000000000000000C00000013000000891300003C0000000600000002
310
0000008DE03862143A51402E474C3B317E25C000000000000000009E8DD5A5A479544023D1A5C0D7853BC000000000000000000C00000013000000112700003C00000006000000020000009E8DD5A5A479544023D1A5C0D7853BC00000000000000000753146E3AE90544023D1A5C0D7853BC000000000000000000C000000
310
16000000000000C00C00000012000000FF7F00000C00000017000000000000000C000000130000009A3A00003C0000000600000002000000753146E3AE90544023D1A5C0D7853BC000000000000000006B5AA27271D6554023D1A5C0D7853BC000000000000000000C00000016000000000000C00C00000012000000FF7F00
310
000C00000017000000FFFFFFFF0C0000003300000000000000
100
AcDbMLeader
300
CONTEXT_DATA{
 40
1.0
 10
82.26067430357746
 20
-27.5228233723475
 30
0.0
 41
3.0
140
4.57
145
0.09
174
     6
175
     6
176
     0
177
     0
290
     1
304
R3
 11
0.0
 21
0.0
 31
1.0
340
241
 12
82.35067430357746
 22
-23.9228233723475
 32
0.0
 13
1.0
 23
0.0
 33
0.0
 42
0.0
 43
0.0
 44
0.0
 45
1.0
170
     1
 90
-1073741824
171
     1
172
     5
 91
-1073741824
141
0.0
 92
        0
291
     0
292
     0
173
     0
293
     0
142
0.0
143
0.0
294
     0
295
     0
296
     0
110
65.14480925194002
120
-6.871328290818205
130
0.0
111
1.0
121
0.0
131
0.0
112
0.0
122
1.0
132
0.0
297
     0
302
LEADER{
290
     1
291
     1
 10
81.90067430357746
 20
-27.5228233723475
 30
0.0
 11
1.0
 21
0.0
 31
0.0
 90
        0
 40
0.36
304
LEADER_LINE{
 10
66.10918466036197
 20
-7.133386994545004
 30
0.0
 91
        0
305
}
303
}
301
}
340
17E
 90
   351744
170
     1
 91
-1056964608
341
14
171
    -2
290
     1
291
     1
 41
0.36
 42
4.57
172
     2
343
241
173
     6
 95
        6
174
     1
175
     0
 92
-1056964608
292
     0
 93
-1056964608
 10
1.0
 20
1.0
 30
1.0
 43
0.0
176
     0
293
     0
294
     0
178
     0
179
     1
 45
1.0
1001
ACAD_MLEADERVER
1070
     2
  0
DIMENSION
  5
3EA
330
1F
100
AcDbEntity
  8
2
100
AcDbDimension
  2
*D10
 10
30.07506048660037
 20
-22.00908823339105
 30
0.0
 11
48.53909227270197
 21
-18.20908823339105
 31
0.0
 70
    32
  1
37
 71
     5
 42
36.9280635722032
  3
SANDVIK_DIM
100
AcDbAlignedDimension
 13
67.00312405880357
 23
-11.17060347045321
 33
0.0
 14
30.07506048660037
 24
-8.934618902570235
 34
0.0
100
AcDbRotatedDimension
1001
ACAD
1000
DSTYLE
1002
{
1070
   279
1070
     0
1070
   140
1040
3.0
1070
    40
1040
1.0
1002
}
  0
DIMENSION
  5
43A
330
1F
100
AcDbEntity
  8
2
100
AcDbDimension
  2
*D11
 10
0.0000000000000022
 20
-34.02035490115299
 30
0.0
 11
33.65739787249702
 21
-34.02035490115299
 31
0.0
 70
   160
 71
     5
 42
67.00312405880357
  3
SANDVIK_DIM
100
AcDbAlignedDimension
 13
67.00312405880357
 23
-11.17060347045321
 33
0.0
 14
0.0000000000000038
 24
-7.599999999999997
 34
0.0
100
AcDbRotatedDimension
1001
ACAD
1000
DSTYLE
1002
{
1070
    40
1040
1.0
1070
   140
1040
3.0
1070
   279
1070
     0
1002
}
  0
ENDSEC
  0
SECTION
  2
OBJECTS
  0
DICTIONARY
  5
125
330
0
100
AcDbDictionary
281
     1
  3
ACAD_CIP_PREVIOUS_PRODUCT_INFO
350
18B
  3
ACAD_COLOR
350
168
  3
ACAD_DETAILVIEWSTYLE
350
182
  3
ACAD_GROUP
350
126
  3
ACAD_LAYOUT
350
184
  3
ACAD_MATERIAL
350
136
  3
ACAD_MLEADERSTYLE
350
17D
  3
ACAD_MLINESTYLE
350
127
  3
ACAD_PLOTSETTINGS
350
185
  3
ACAD_PLOTSTYLENAME
350
134
  3
ACAD_SCALELIST
350
16B
  3
ACAD_SECTIONVIEWSTYLE
350
17F
  3
ACAD_TABLESTYLE
350
169
  3
ACAD_VISUALSTYLE
350
14F
  3
ACDB_RECOMPOSE_DATA
350
6F1
  3
AcDbVariableDictionary
350
1A4
  3
AcDsDecomposeData
350
6F7
  3
ASE_INDEX_DICTIONARY
350
1A1
  0
DICTIONARY
  5
5AD
330
12A
100
AcDbDictionary
280
     1
281
     1
  3
ACAD_LAYERSTATES
360
5AE
  0
DICTIONARY
  5
18E
330
10
100
AcDbDictionary
280
     1
281
     1
  3
ADSK_XREC_LAYER_RECONCILED
360
18F
  0
DICTIONARY
  5
190
330
43
100
AcDbDictionary
280
     1
281
     1
  3
ADSK_XREC_LAYER_RECONCILED
360
191
  0
DICTIONARY
  5
192
330
45
100
AcDbDictionary
280
     1
281
     1
  3
ADSK_XREC_LAYER_RECONCILED
360
193
  0
DICTIONARY
  5
194
330
47
100
AcDbDictionary
280
     1
281
     1
  3
ADSK_XREC_LAYER_RECONCILED
360
195
  0
DICTIONARY
  5
196
330
9C
100
AcDbDictionary
280
     1
281
     1
  3
ADSK_XREC_LAYER_RECONCILED
360
197
  0
DICTIONARY
  5
198
330
114
100
AcDbDictionary
280
     1
281
     1
  3
ADSK_XREC_LAYER_RECONCILED
360
199
  0
DICTIONARY
  5
19A
330
115
100
AcDbDictionary
280
     1
281
     1
  3
ADSK_XREC_LAYER_RECONCILED
360
19B
  0
DICTIONARY
  5
19C
330
116
100
AcDbDictionary
280
     1
281
     1
  3
ADSK_XREC_LAYER_RECONCILED
360
19D
  0
DICTIONARY
  5
19E
330
117
100
AcDbDictionary
280
     1
281
     1
  3
ADSK_XREC_LAYER_RECONCILED
360
19F
  0
DICTIONARY
  5
23F
330
23E
100
AcDbDictionary
280
     1
281
     1
  0
XRECORD
  5
18B
102
{ACAD_REACTORS
330
125
102
}
330
125
100
AcDbXrecord
280
     1
300
AMECH_PP
300
2014
300
86132PDSS_2014_0F
  0
DICTIONARY
  5
168
102
{ACAD_REACTORS
330
125
102
}
330
125
100
AcDbDictionary
281
     1
  0
DICTIONARY
  5
182
102
{ACAD_REACTORS
330
125
102
}
330
125
100
AcDbDictionary
281
     1
  3
Imperial24
350
183
  0
DICTIONARY
  5
126
330
125
100
AcDbDictionary
281
     1
  0
DICTIONARY
  5
184
102
{ACAD_REACTORS
330
125
102
}
330
125
100
AcDbDictionary
281
     1
  3
Layout1
350
187
  3
Layout2
350
1EE
  3
Model
350
186
  0
DICTIONARY
  5
136
102
{ACAD_REACTORS
330
125
102
}
330
125
100
AcDbDictionary
281
     1
  3
ByBlock
350
13F
  3
ByLayer
350
137
  3
Global
350
147
  0
DICTIONARY
  5
17D
102
{ACAD_REACTORS
330
125
102
}
330
125
100
AcDbDictionary
281
     1
  3
Standard
350
17E
  0
DICTIONARY
  5
127
330
125
100
AcDbDictionary
281
     1
  3
Standard
350
18
  0
DICTIONARY
  5
185
102
{ACAD_REACTORS
330
125
102
}
330
125
100
AcDbDictionary
281
     1
  0
ACDBDICTIONARYWDFLT
  5
134
102
{ACAD_REACTORS
330
125
102
}
330
125
100
AcDbDictionary
281
     1
  3
Normal
350
135
100
AcDbDictionaryWithDefault
340
135
  0
DICTIONARY
  5
16B
102
{ACAD_REACTORS
330
125
102
}
330
125
100
AcDbDictionary
281
     1
  3
A0
350
16C
  3
A1
350
16D
  3
A2
350
16E
  3
A3
350
16F
  3
A4
350
170
  3
A5
350
171
  3
A6
350
172
  3
A7
350
173
  3
A8
350
174
  3
A9
350
175
  3
B0
350
176
  3
B1
350
177
  3
B2
350
178
  3
B3
350
179
  3
B4
350
17A
  3
B5
350
17B
  3
B6
350
17C
  0
DICTIONARY
  5
17F
102
{ACAD_REACTORS
330
125
102
}
330
125
100
AcDbDictionary
281
     1
  3
Imperial24
350
181
  0
DICTIONARY
  5
169
102
{ACAD_REACTORS
330
125
102
}
330
125
100
AcDbDictionary
281
     1
  3
Standard
350
16A
  0
DICTIONARY
  5
14F
102
{ACAD_REACTORS
330
125
102
}
330
125
100
AcDbDictionary
281
     1
  3
2dWireframe
350
155
  3
Basic
350
154
  3
Brighten
350
15B
  3
ColorChange
350
15F
  3
Conceptual
350
158
  3
Dim
350
15A
  3
EdgeColorOff
350
167
  3
Facepattern
350
15E
  3
Flat
350
150
  3
FlatWithEdges
350
151
  3
Gouraud
350
152
  3
GouraudWithEdges
350
153
  3
Hidden
350
157
  3
JitterOff
350
165
  3
Linepattern
350
15D
  3
OverhangOff
350
166
  3
Realistic
350
159
  3
Shaded
350
164
  3
Shaded with edges
350
163
  3
Shades of Gray
350
160
  3
Sketchy
350
161
  3
Thicken
350
15C
  3
Wireframe
350
156
  3
X-Ray
350
162
  0
XRECORD
  5
6F1
102
{ACAD_REACTORS
330
125
102
}
330
125
100
AcDbXrecord
280
     1
 90
        1
330
16A
  0
DICTIONARY
  5
1A4
102
{ACAD_REACTORS
330
125
102
}
330
125
100
AcDbDictionary
281
     1
  3
CANNOSCALE
350
1A9
  3
CMLEADERSTYLE
350
1A6
  3
CTABLESTYLE
350
1A5
  3
CVIEWDETAILSTYLE
350
1A7
  3
CVIEWSECTIONSTYLE
350
1A8
  3
DIMASSOC
350
1AC
  3
INDEXCTL
350
1AB
  3
SORTENTS
350
1AA
  3
XCLIPFRAME
350
6EF
  0
DICTIONARY
  5
6F7
102
{ACAD_REACTORS
330
125
102
}
330
125
100
AcDbDictionary
281
     1
  3
AcDsRecords
350
6F9
  3
AcDsSchemas
350
6F8
1001
ACAD
1070
     2
  0
DICTIONARY
  5
1A1
102
{ACAD_REACTORS
330
125
102
}
330
125
100
AcDbDictionary
281
     1
  3
ASEBlockHierarchyIndexRecord
350
1A3
1001
DCO15
1040
1815723730.184
  0
DICTIONARY
  5
5AE
102
{ACAD_REACTORS
330
5AD
102
}
330
5AD
100
AcDbDictionary
281
     1
  0
XRECORD
  5
18F
102
{ACAD_REACTORS
330
18E
102
}
330
18E
100
AcDbXrecord
280
     1
290
     1
  0
XRECORD
  5
191
102
{ACAD_REACTORS
330
190
102
}
330
190
100
AcDbXrecord
280
     1
290
     1
  0
XRECORD
  5
193
102
{ACAD_REACTORS
330
192
102
}
330
192
100
AcDbXrecord
280
     1
290
     1
  0
XRECORD
  5
195
102
{ACAD_REACTORS
330
194
102
}
330
194
100
AcDbXrecord
280
     1
290
     1
  0
XRECORD
  5
197
102
{ACAD_REACTORS
330
196
102
}
330
196
100
AcDbXrecord
280
     1
290
     1
  0
XRECORD
  5
199
102
{ACAD_REACTORS
330
198
102
}
330
198
100
AcDbXrecord
280
     1
290
     1
  0
XRECORD
  5
19B
102
{ACAD_REACTORS
330
19A
102
}
330
19A
100
AcDbXrecord
280
     1
290
     1
  0
XRECORD
  5
19D
102
{ACAD_REACTORS
330
19C
102
}
330
19C
100
AcDbXrecord
280
     1
290
     1
  0
XRECORD
  5
19F
102
{ACAD_REACTORS
330
19E
102
}
330
19E
100
AcDbXrecord
280
     1
290
     1
  0
ACDBDETAILVIEWSTYLE
  5
183
102
{ACAD_XDICTIONARY
360
72D
102
}
102
{ACAD_REACTORS
330
182
102
}
330
182
100
AcDbModelDocViewStyle
 70
     0
  3
Imperial24
290
     0
100
AcDbDetailViewStyle
 70
     0
 71
     0
 90
        3
 71
     1
340
11
 62
   256
 40
0.24
340
0
 62
   256
 40
0.24
300

 40
0.36
280
     3
 71
     2
340
16
 90
       25
 62
   256
 71
     3
340
11
 62
   256
 40
0.24
 90
        1
 40
0.75
 90
        1
300
%<\AcVar ViewType \f "%tc1">% %<\AcVar ViewDetailId>%\PSCALE %<\AcVar ViewScale \f "%sn">%
 71
     4
340
16
 90
       25
 62
   256
340
16
 90
       25
 62
   256
280
     0
  0
LAYOUT
  5
187
102
{ACAD_REACTORS
330
184
102
}
330
184
100
AcDbPlotSettings
  1

  2
Brother DCP-9020CDW Printer
  4

  6

 40
0.0
 41
0.0
 42
0.0
 43
0.0
 44
0.0
 45
0.0
 46
0.0
 47
0.0
 48
0.0
 49
0.0
140
0.0
141
0.0
142
1.0
143
1.0
 70
   688
 72
     0
 73
     0
 74
     5
  7

 75
    16
147
1.0
 76
     0
 77
     2
 78
   300
148
0.0
149
0.0
100
AcDbLayout
  1
Layout1
 70
     1
 71
     1
 10
0.0
 20
0.0
 11
12.0
 21
9.0
 12
0.0
 22
0.0
 32
0.0
 14
1.000000000000000E+20
 24
1.000000000000000E+20
 34
1.000000000000000E+20
 15
-1.000000000000000E+20
 25
-1.000000000000000E+20
 35
-1.000000000000000E+20
146
0.0
 13
0.0
 23
0.0
 33
0.0
 16
1.0
 26
0.0
 36
0.0
 17
0.0
 27
1.0
 37
0.0
 76
     0
330
1B
  0
LAYOUT
  5
1EE
102
{ACAD_REACTORS
330
184
102
}
330
184
100
AcDbPlotSettings
  1

  2
\\itdnt33\ITTPR40
  4

  6

 40
0.0
 41
0.0
 42
0.0
 43
0.0
 44
0.0
 45
0.0
 46
0.0
 47
0.0
 48
0.0
 49
0.0
140
0.0
141
0.0
142
1.0
143
1.0
 70
   688
 72
     0
 73
     0
 74
     5
  7

 75
    16
147
1.0
 76
     0
 77
     2
 78
   300
148
0.0
149
0.0
100
AcDbLayout
  1
Layout2
 70
     1
 71
     2
 10
0.0
 20
0.0
 11
12.0
 21
9.0
 12
0.0
 22
0.0
 32
0.0
 14
0.0
 24
0.0
 34
0.0
 15
0.0
 25
0.0
 35
0.0
146
0.0
 13
0.0
 23
0.0
 33
0.0
 16
1.0
 26
0.0
 36
0.0
 17
0.0
 27
1.0
 37
0.0
 76
     0
330
23
  0
LAYOUT
  5
186
102
{ACAD_REACTORS
330
184
102
}
330
184
100
AcDbPlotSettings
  1

  2
Brother DCP-9020CDW Printer
  4

  6

 40
0.0
 41
0.0
 42
0.0
 43
0.0
 44
0.0
 45
0.0
 46
0.0
 47
0.0
 48
0.0
 49
0.0
140
0.0
141
0.0
142
1.0
143
1.0
 70
  1712
 72
     0
 73
     0
 74
     0
  7

 75
     0
147
1.0
 76
     0
 77
     2
 78
   300
148
0.0
149
0.0
100
AcDbLayout
  1
Model
 70
     1
 71
     0
 10
0.0
 20
0.0
 11
12.0
 21
9.0
 12
0.0
 22
0.0
 32
0.0
 14
0.0
 24
0.0
 34
0.0
 15
0.0
 25
0.0
 35
0.0
146
0.0
 13
0.0
 23
0.0
 33
0.0
 16
1.0
 26
0.0
 36
0.0
 17
0.0
 27
1.0
 37
0.0
 76
     0
330
1F
331
1
  0
MATERIAL
  5
13F
102
{ACAD_XDICTIONARY
360
140
102
}
102
{ACAD_REACTORS
330
136
102
}
330
136
100
AcDbMaterial
  1
ByBlock
 72
     0
 43
0.0008202099737533
 43
0.0
 43
0.0
 43
0.0
 43
0.0
 43
0.0008202099737533
 43
0.0
 43
0.0
 43
0.0
 43
0.0
 43
1.0
 43
0.0
 43
0.0
 43
0.0
 43
0.0
 43
1.0
 77
     0
 47
0.0008202099737533
 47
0.0
 47
0.0
 47
0.0
 47
0.0
 47
0.0008202099737533
 47
0.0
 47
0.0
 47
0.0
 47
0.0
 47
1.0
 47
0.0
 47
0.0
 47
0.0
 47
0.0
 47
1.0
171
     0
 49
0.0008202099737533
 49
0.0
 49
0.0
 49
0.0
 49
0.0
 49
0.0008202099737533
 49
0.0
 49
0.0
 49
0.0
 49
0.0
 49
1.0
 49
0.0
 49
0.0
 49
0.0
 49
0.0
 49
1.0
175
     0
142
0.0008202099737533
142
0.0
142
0.0
142
0.0
142
0.0
142
0.0008202099737533
142
0.0
142
0.0
142
0.0
142
0.0
142
1.0
142
0.0
142
0.0
142
0.0
142
0.0
142
1.0
179
     0
144
0.0008202099737533
144
0.0
144
0.0
144
0.0
144
0.0
144
0.0008202099737533
144
0.0
144
0.0
144
0.0
144
0.0
144
1.0
144
0.0
144
0.0
144
0.0
144
0.0
144
1.0
147
0.0008202099737533
147
0.0
147
0.0
147
0.0
147
0.0
147
0.0008202099737533
147
0.0
147
0.0
147
0.0
147
0.0
147
1.0
147
0.0
147
0.0
147
0.0
147
0.0
147
1.0
  0
MATERIAL
  5
137
102
{ACAD_XDICTIONARY
360
138
102
}
102
{ACAD_REACTORS
330
136
102
}
330
136
100
AcDbMaterial
  1
ByLayer
 72
     0
 43
0.0008202099737533
 43
0.0
 43
0.0
 43
0.0
 43
0.0
 43
0.0008202099737533
 43
0.0
 43
0.0
 43
0.0
 43
0.0
 43
1.0
 43
0.0
 43
0.0
 43
0.0
 43
0.0
 43
1.0
 77
     0
 47
0.0008202099737533
 47
0.0
 47
0.0
 47
0.0
 47
0.0
 47
0.0008202099737533
 47
0.0
 47
0.0
 47
0.0
 47
0.0
 47
1.0
 47
0.0
 47
0.0
 47
0.0
 47
0.0
 47
1.0
171
     0
 49
0.0008202099737533
 49
0.0
 49
0.0
 49
0.0
 49
0.0
 49
0.0008202099737533
 49
0.0
 49
0.0
 49
0.0
 49
0.0
 49
1.0
 49
0.0
 49
0.0
 49
0.0
 49
0.0
 49
1.0
175
     0
142
0.0008202099737533
142
0.0
142
0.0
142
0.0
142
0.0
142
0.0008202099737533
142
0.0
142
0.0
142
0.0
142
0.0
142
1.0
142
0.0
142
0.0
142
0.0
142
0.0
142
1.0
179
     0
144
0.0008202099737533
144
0.0
144
0.0
144
0.0
144
0.0
144
0.0008202099737533
144
0.0
144
0.0
144
0.0
144
0.0
144
1.0
144
0.0
144
0.0
144
0.0
144
0.0
144
1.0
147
0.0008202099737533
147
0.0
147
0.0
147
0.0
147
0.0
147
0.0008202099737533
147
0.0
147
0.0
147
0.0
147
0.0
147
1.0
147
0.0
147
0.0
147
0.0
147
0.0
147
1.0
  0
MATERIAL
  5
147
102
{ACAD_XDICTIONARY
360
148
102
}
102
{ACAD_REACTORS
330
136
102
}
330
136
100
AcDbMaterial
  1
Global
 72
     0
 43
0.0008202099737533
 43
0.0
 43
0.0
 43
0.0
 43
0.0
 43
0.0008202099737533
 43
0.0
 43
0.0
 43
0.0
 43
0.0
 43
1.0
 43
0.0
 43
0.0
 43
0.0
 43
0.0
 43
1.0
 77
     0
 47
0.0008202099737533
 47
0.0
 47
0.0
 47
0.0
 47
0.0
 47
0.0008202099737533
 47
0.0
 47
0.0
 47
0.0
 47
0.0
 47
1.0
 47
0.0
 47
0.0
 47
0.0
 47
0.0
 47
1.0
171
     0
 49
0.0008202099737533
 49
0.0
 49
0.0
 49
0.0
 49
0.0
 49
0.0008202099737533
 49
0.0
 49
0.0
 49
0.0
 49
0.0
 49
1.0
 49
0.0
 49
0.0
 49
0.0
 49
0.0
 49
1.0
175
     0
142
0.0008202099737533
142
0.0
142
0.0
142
0.0
142
0.0
142
0.0008202099737533
142
0.0
142
0.0
142
0.0
142
0.0
142
1.0
142
0.0
142
0.0
142
0.0
142
0.0
142
1.0
179
     0
144
0.0008202099737533
144
0.0
144
0.0
144
0.0
144
0.0
144
0.0008202099737533
144
0.0
144
0.0
144
0.0
144
0.0
144
1.0
144
0.0
144
0.0
144
0.0
144
0.0
144
1.0
147
0.0008202099737533
147
0.0
147
0.0
147
0.0
147
0.0
147
0.0008202099737533
147
0.0
147
0.0
147
0.0
147
0.0
147
1.0
147
0.0
147
0.0
147
0.0
147
0.0
147
1.0
  0
MLEADERSTYLE
  5
17E
102
{ACAD_REACTORS
330
17D
330
3DF
102
}
330
17D
100
AcDbMLeaderStyle
170
     2
171
     1
172
     0
 90
        2
 40
0.0
 41
0.0
173
     1
 91
-1056964608
340
14
 92
       -2
290
     1
 42
0.09
291
     1
 43
0.36
  3
Standard
 44
0.18
300

342
11
174
     1
178
     6
175
     1
176
     0
 93
-1056964608
 45
0.18
292
     0
297
     0
 46
0.18
 94
-1056964608
 47
1.0
 49
1.0
140
1.0
293
     1
141
0.0
294
     1
177
     0
142
1.0
295
     0
296
     0
143
0.125
1001
ACAD_MLEADERVER
1070
     2
  0
MLINESTYLE
  5
18
330
127
100
AcDbMlineStyle
  2
STANDARD
 70
     0
  3

 62
   256
 51
90.0
 52
90.0
 71
     2
 49
0.5
 62
   256
  6
BYLAYER
 49
-0.5
 62
   256
  6
BYLAYER
  0
ACDBPLACEHOLDER
  5
135
102
{ACAD_REACTORS
330
134
102
}
330
134
  0
SCALE
  5
16C
102
{ACAD_REACTORS
330
16B
102
}
330
16B
100
AcDbScale
 70
     0
300
1:1
140
1.0
141
1.0
290
     1
  0
SCALE
  5
16D
102
{ACAD_REACTORS
330
16B
102
}
330
16B
100
AcDbScale
 70
     0
300
1/128" = 1'-0"
140
0.0078125
141
12.0
290
     0
  0
SCALE
  5
16E
102
{ACAD_REACTORS
330
16B
102
}
330
16B
100
AcDbScale
 70
     0
300
1/64" = 1'-0"
140
0.015625
141
12.0
290
     0
  0
SCALE
  5
16F
102
{ACAD_REACTORS
330
16B
102
}
330
16B
100
AcDbScale
 70
     0
300
1/32" = 1'-0"
140
0.03125
141
12.0
290
     0
  0
SCALE
  5
170
102
{ACAD_REACTORS
330
16B
102
}
330
16B
100
AcDbScale
 70
     0
300
1/16" = 1'-0"
140
0.0625
141
12.0
290
     0
  0
SCALE
  5
171
102
{ACAD_REACTORS
330
16B
102
}
330
16B
100
AcDbScale
 70
     0
300
3/32" = 1'-0"
140
0.09375
141
12.0
290
     0
  0
SCALE
  5
172
102
{ACAD_REACTORS
330
16B
102
}
330
16B
100
AcDbScale
 70
     0
300
1/8" = 1'-0"
140
0.125
141
12.0
290
     0
  0
SCALE
  5
173
102
{ACAD_REACTORS
330
16B
102
}
330
16B
100
AcDbScale
 70
     0
300
3/16" = 1'-0"
140
0.1875
141
12.0
290
     0
  0
SCALE
  5
174
102
{ACAD_REACTORS
330
16B
102
}
330
16B
100
AcDbScale
 70
     0
300
1/4" = 1'-0"
140
0.25
141
12.0
290
     0
  0
SCALE
  5
175
102
{ACAD_REACTORS
330
16B
102
}
330
16B
100
AcDbScale
 70
     0
300
3/8" = 1'-0"
140
0.375
141
12.0
290
     0
  0
SCALE
  5
176
102
{ACAD_REACTORS
330
16B
102
}
330
16B
100
AcDbScale
 70
     0
300
1/2" = 1'-0"
140
0.5
141
12.0
290
     0
  0
SCALE
  5
177
102
{ACAD_REACTORS
330
16B
102
}
330
16B
100
AcDbScale
 70
     0
300
3/4" = 1'-0"
140
0.75
141
12.0
290
     0
  0
SCALE
  5
178
102
{ACAD_REACTORS
330
16B
102
}
330
16B
100
AcDbScale
 70
     0
300
1" = 1'-0"
140
1.0
141
12.0
290
     0
  0
SCALE
  5
179
102
{ACAD_REACTORS
330
16B
102
}
330
16B
100
AcDbScale
 70
     0
300
1-1/2" = 1'-0"
140
1.5
141
12.0
290
     0
  0
SCALE
  5
17A
102
{ACAD_REACTORS
330
16B
102
}
330
16B
100
AcDbScale
 70
     0
300
3" = 1'-0"
140
3.0
141
12.0
290
     0
  0
SCALE
  5
17B
102
{ACAD_REACTORS
330
16B
102
}
330
16B
100
AcDbScale
 70
     0
300
6" = 1'-0"
140
6.0
141
12.0
290
     0
  0
SCALE
  5
17C
102
{ACAD_REACTORS
330
16B
102
}
330
16B
100
AcDbScale
 70
     0
300
1'-0" = 1'-0"
140
12.0
141
12.0
290
     0
  0
ACDBSECTIONVIEWSTYLE
  5
181
102
{ACAD_XDICTIONARY
360
72B
102
}
102
{ACAD_REACTORS
330
17F
102
}
330
17F
100
AcDbModelDocViewStyle
 70
     0
  3
Imperial24
290
     0
100
AcDbSectionViewStyle
 70
     0
 71
     0
 90
       78
 71
     1
340
11
 62
   256
 40
0.24
340
0
340
0
 62
   256
 40
0.24
300
I, O, Q, S, X, Z
 40
0.48
 90
        3
 40
0.18
 90
        1
 71
     2
340
180
 90
       25
 62
   256
340
16
 90
       50
 62
   256
 40
0.24
 40
0.0
 40
0.24
 71
     3
340
11
 62
   256
 40
0.24
 90
        1
 40
0.75
 90
        1
300
%<\AcVar ViewType \f "%tc1">% %<\AcVar ViewSectionStartId>%-%<\AcVar ViewSectionEndId>%\PSCALE %<\AcVar ViewScale \f "%sn">%
 71
     4
 62
   256
 62
   257
300
ANSI31
 40
1.0
 90
        0
290
     0
290
     0
 90
        6
 40
0.0
 40
1.570796326794896
 40
0.2617993877991494
 40
1.308996938995747
 40
-0.2617993877991494
 40
1.832595714594044
  0
TABLESTYLE
  5
16A
102
{ACAD_XDICTIONARY
360
1AF
102
}
102
{ACAD_REACTORS
330
169
102
}
330
169
100
AcDbTableStyle
  3
Standard
 70
     0
 71
     0
 40
0.06
 41
0.06
280
     0
281
     0
  7
Standard
140
0.18
170
     2
 62
     0
 63
     7
283
     0
274
    -2
284
     1
 64
     0
275
    -2
285
     1
 65
     0
276
    -2
286
     1
 66
     0
277
    -2
287
     1
 67
     0
278
    -2
288
     1
 68
     0
279
    -2
289
     1
 69
     0
  7
Standard
140
0.25
170
     5
 62
     0
 63
     7
283
     0
274
    -2
284
     1
 64
     0
275
    -2
285
     1
 65
     0
276
    -2
286
     1
 66
     0
277
    -2
287
     1
 67
     0
278
    -2
288
     1
 68
     0
279
    -2
289
     1
 69
     0
  7
Standard
140
0.18
170
     5
 62
     0
 63
     7
283
     0
274
    -2
284
     1
 64
     0
275
    -2
285
     1
 65
     0
276
    -2
286
     1
 66
     0
277
    -2
287
     1
 67
     0
278
    -2
288
     1
 68
     0
279
    -2
289
     1
 69
     0
  0
VISUALSTYLE
  5
155
102
{ACAD_XDICTIONARY
360
704
102
}
102
{ACAD_REACTORS
330
14F
102
}
330
14F
100
AcDbVisualStyle
  2

 70
     4
 71
     0
 72
     2
 73
     0
 90
        0
 40
-0.6
 41
-30.0
 62
     5
 63
     7
 74
     1
 91
        4
 64
     7
 65
   257
 75
     1
175
     1
 42
1.0
 92
        0
 66
   257
 43
1.0
 76
     1
 77
     6
 78
     2
 67
     7
 79
     5
170
     0
171
     0
290
     0
174
     0
 93
        1
 44
0.0
173
     0
291
     0
 45
0.0
1001
ACAD
1000
AcDbSavedByObjectVersion
1070
     0
  0
VISUALSTYLE
  5
154
102
{ACAD_XDICTIONARY
360
702
102
}
102
{ACAD_REACTORS
330
14F
102
}
330
14F
100
AcDbVisualStyle
  2

 70
     7
 71
     1
 72
     0
 73
     1
 90
        0
 40
-0.6
 41
-30.0
 62
     5
 63
     7
 74
     0
 91
        4
 64
     7
 65
   257
 75
     1
175
     1
 42
1.0
 92
        8
 66
     7
 43
1.0
 76
     1
 77
     6
 78
     2
 67
     7
 79
     5
170
     0
171
     0
290
     0
174
     0
 93
        1
 44
0.0
173
     0
291
     1
 45
0.0
1001
ACAD
1000
AcDbSavedByObjectVersion
1070
     0
  0
VISUALSTYLE
  5
15B
102
{ACAD_XDICTIONARY
360
710
102
}
102
{ACAD_REACTORS
330
14F
102
}
330
14F
100
AcDbVisualStyle
  2

 70
    12
 71
     2
 72
     2
 73
     0
 90
        0
 40
-0.6
 41
-30.0
 62
     5
 63
     7
 74
     1
 91
        4
 64
     7
 65
   257
 75
     1
175
     1
 42
1.0
 92
        8
 66
     7
 43
1.0
 76
     1
 77
     6
 78
     2
 67
     7
 79
     5
170
     0
171
     0
290
     0
174
     0
 93
        1
 44
50.0
173
     0
291
     1
 45
0.0
1001
ACAD
1000
AcDbSavedByObjectVersion
1070
     0
  0
VISUALSTYLE
  5
15F
102
{ACAD_XDICTIONARY
360
718
102
}
102
{ACAD_REACTORS
330
14F
102
}
330
14F
100
AcDbVisualStyle
  2

 70
    16
 71
     2
 72
     2
 73
     3
 90
        0
 40
-0.6
 41
-30.0
 62
     5
 63
     8
 74
     1
 91
        4
 64
     7
 65
   257
 75
     1
175
     1
 42
1.0
 92
        8
 66
     8
 43
1.0
 76
     1
 77
     6
 78
     2
 67
     7
 79
     5
170
     0
171
     0
290
     0
174
     0
 93
        1
 44
0.0
173
     0
291
     1
 45
0.0
1001
ACAD
1000
AcDbSavedByObjectVersion
1070
     0
  0
VISUALSTYLE
  5
158
102
{ACAD_XDICTIONARY
360
70A
102
}
102
{ACAD_REACTORS
330
14F
102
}
330
14F
100
AcDbVisualStyle
  2

 70
     9
 71
     3
 72
     2
 73
     0
 90
        0
 40
-0.6
 41
-30.0
 62
     5
 63
     7
 74
     2
 91
        2
 64
     7
 65
   257
 75
     1
175
     1
 42
179.0
 92
        8
 66
     7
 43
1.0
 76
     1
 77
     6
 78
     2
 67
     7
 79
     3
170
     0
171
     0
290
     0
174
     0
 93
        1
 44
0.0
173
     0
291
     0
 45
0.0
1001
ACAD
1000
AcDbSavedByObjectVersion
1070
     0
  0
VISUALSTYLE
  5
15A
102
{ACAD_XDICTIONARY
360
70E
102
}
102
{ACAD_REACTORS
330
14F
102
}
330
14F
100
AcDbVisualStyle
  2

 70
    11
 71
     2
 72
     2
 73
     0
 90
        0
 40
-0.6
 41
-30.0
 62
     5
 63
     7
 74
     1
 91
        4
 64
     7
 65
   257
 75
     1
175
     1
 42
1.0
 92
        8
 66
     7
 43
1.0
 76
     1
 77
     6
 78
     2
 67
     7
 79
     5
170
     0
171
     0
290
     0
174
     0
 93
        1
 44
-50.0
173
     0
291
     1
 45
0.0
1001
ACAD
1000
AcDbSavedByObjectVersion
1070
     0
  0
VISUALSTYLE
  5
167
102
{ACAD_XDICTIONARY
360
728
102
}
102
{ACAD_REACTORS
330
14F
102
}
330
14F
100
AcDbVisualStyle
  2

 70
    22
 71
     2
 72
     2
 73
     0
 90
        0
 40
-0.6
 41
-30.0
 62
     5
 63
     7
 74
     1
 91
        4
 64
     7
 65
   257
 75
     1
175
     1
 42
1.0
 92
        8
 66
     7
 43
1.0
 76
     1
 77
     6
 78
     2
 67
     7
 79
     5
170
     0
171
     0
290
     0
174
     0
 93
        1
 44
0.0
173
     0
291
     1
 45
0.0
1001
ACAD
1000
AcDbSavedByObjectVersion
1070
     0
  0
VISUALSTYLE
  5
15E
102
{ACAD_XDICTIONARY
360
716
102
}
102
{ACAD_REACTORS
330
14F
102
}
330
14F
100
AcDbVisualStyle
  2

 70
    15
 71
     2
 72
     2
 73
     0
 90
        0
 40
-0.6
 41
-30.0
 62
     5
 63
     7
 74
     1
 91
        4
 64
     7
 65
   257
 75
     1
175
     1
 42
1.0
 92
        8
 66
     7
 43
1.0
 76
     1
 77
     6
 78
     2
 67
     7
 79
     5
170
     0
171
     0
290
     0
174
     0
 93
        1
 44
0.0
173
     0
291
     1
 45
0.0
1001
ACAD
1000
AcDbSavedByObjectVersion
1070
     0
  0
VISUALSTYLE
  5
150
102
{ACAD_XDICTIONARY
360
6FA
102
}
102
{ACAD_REACTORS
330
14F
102
}
330
14F
100
AcDbVisualStyle
  2

 70
     0
 71
     2
 72
     1
 73
     1
 90
        2
 40
-0.6
 41
30.0
 62
     5
 63
     7
 74
     0
 91
        0
 64
     7
 65
   257
 75
     1
175
     1
 42
1.0
 92
        8
 66
     7
 43
1.0
 76
     1
 77
     6
 78
     2
 67
     7
 79
     5
170
     0
171
     0
290
     0
174
     0
 93
       13
 44
0.0
173
     0
291
     1
 45
0.0
1001
ACAD
1000
AcDbSavedByObjectVersion
1070
     0
  0
VISUALSTYLE
  5
151
102
{ACAD_XDICTIONARY
360
6FC
102
}
102
{ACAD_REACTORS
330
14F
102
}
330
14F
100
AcDbVisualStyle
  2

 70
     1
 71
     2
 72
     1
 73
     1
 90
        2
 40
-0.6
 41
30.0
 62
     5
 63
     7
 74
     1
 91
        0
 64
     7
 65
   257
 75
     1
175
     1
 42
1.0
 92
        0
 66
   257
 43
1.0
 76
     1
 77
     6
 78
     2
 67
     7
 79
     5
170
     0
171
     0
290
     0
174
     0
 93
       13
 44
0.0
173
     0
291
     1
 45
0.0
1001
ACAD
1000
AcDbSavedByObjectVersion
1070
     0
  0
VISUALSTYLE
  5
152
102
{ACAD_XDICTIONARY
360
6FE
102
}
102
{ACAD_REACTORS
330
14F
102
}
330
14F
100
AcDbVisualStyle
  2

 70
     2
 71
     2
 72
     2
 73
     1
 90
        2
 40
-0.6
 41
30.0
 62
     5
 63
     7
 74
     0
 91
        0
 64
     7
 65
   257
 75
     1
175
     1
 42
1.0
 92
        0
 66
     7
 43
1.0
 76
     1
 77
     6
 78
     2
 67
     7
 79
     5
170
     0
171
     0
290
     0
174
     0
 93
       13
 44
0.0
173
     0
291
     1
 45
0.0
1001
ACAD
1000
AcDbSavedByObjectVersion
1070
     0
  0
VISUALSTYLE
  5
153
102
{ACAD_XDICTIONARY
360
700
102
}
102
{ACAD_REACTORS
330
14F
102
}
330
14F
100
AcDbVisualStyle
  2

 70
     3
 71
     2
 72
     2
 73
     1
 90
        2
 40
-0.6
 41
30.0
 62
     5
 63
     7
 74
     1
 91
        0
 64
     7
 65
   257
 75
     1
175
     1
 42
1.0
 92
        0
 66
   257
 43
1.0
 76
     1
 77
     6
 78
     2
 67
     7
 79
     5
170
     0
171
     0
290
     0
174
     0
 93
       13
 44
0.0
173
     0
291
     1
 45
0.0
1001
ACAD
1000
AcDbSavedByObjectVersion
1070
     0
  0
VISUALSTYLE
  5
157
102
{ACAD_XDICTIONARY
360
708
102
}
102
{ACAD_REACTORS
330
14F
102
}
330
14F
100
AcDbVisualStyle
  2

 70
     6
 71
     1
 72
     2
 73
     2
 90
        0
 40
-0.6
 41
-30.0
 62
     5
 63
     7
 74
     2
 91
        2
 64
     7
 65
   257
 75
     2
175
     1
 42
40.0
 92
        0
 66
   257
 43
1.0
 76
     1
 77
     6
 78
     2
 67
     7
 79
     3
170
     0
171
     0
290
     0
174
     0
 93
        1
 44
0.0
173
     0
291
     0
 45
0.0
1001
ACAD
1000
AcDbSavedByObjectVersion
1070
     0
  0
VISUALSTYLE
  5
165
102
{ACAD_XDICTIONARY
360
724
102
}
102
{ACAD_REACTORS
330
14F
102
}
330
14F
100
AcDbVisualStyle
  2

 70
    20
 71
     2
 72
     2
 73
     0
 90
        0
 40
-0.6
 41
-30.0
 62
     5
 63
     7
 74
     1
 91
        4
 64
     7
 65
   257
 75
     1
175
     1
 42
1.0
 92
       10
 66
     7
 43
1.0
 76
     1
 77
     6
 78
     2
 67
     7
 79
     5
170
     0
171
     0
290
     0
174
     0
 93
        1
 44
0.0
173
     0
291
     1
 45
0.0
1001
ACAD
1000
AcDbSavedByObjectVersion
1070
     0
  0
VISUALSTYLE
  5
15D
102
{ACAD_XDICTIONARY
360
714
102
}
102
{ACAD_REACTORS
330
14F
102
}
330
14F
100
AcDbVisualStyle
  2

 70
    14
 71
     2
 72
     2
 73
     0
 90
        0
 40
-0.6
 41
-30.0
 62
     5
 63
     7
 74
     1
 91
        4
 64
     7
 65
   257
 75
     7
175
     7
 42
1.0
 92
        8
 66
     7
 43
1.0
 76
     1
 77
     6
 78
     2
 67
     7
 79
     5
170
     0
171
     0
290
     0
174
     0
 93
        1
 44
0.0
173
     0
291
     1
 45
0.0
1001
ACAD
1000
AcDbSavedByObjectVersion
1070
     0
  0
VISUALSTYLE
  5
166
102
{ACAD_XDICTIONARY
360
726
102
}
102
{ACAD_REACTORS
330
14F
102
}
330
14F
100
AcDbVisualStyle
  2

 70
    21
 71
     2
 72
     2
 73
     0
 90
        0
 40
-0.6
 41
-30.0
 62
     5
 63
     7
 74
     1
 91
        4
 64
     7
 65
   257
 75
     1
175
     1
 42
1.0
 92
        9
 66
     7
 43
1.0
 76
     1
 77
     6
 78
     2
 67
     7
 79
     5
170
     0
171
     0
290
     0
174
     0
 93
        1
 44
0.0
173
     0
291
     1
 45
0.0
1001
ACAD
1000
AcDbSavedByObjectVersion
1070
     0
  0
VISUALSTYLE
  5
159
102
{ACAD_XDICTIONARY
360
70C
102
}
102
{ACAD_REACTORS
330
14F
102
}
330
14F
100
AcDbVisualStyle
  2

 70
     8
 71
     2
 72
     3
 73
     0
 90
        2
 40
-0.6
 41
30.0
 62
     5
 63
     7
 74
     0
 91
        0
 64
     7
 65
   257
 75
     1
175
     1
 42
1.0
 92
        8
 66
   257
 43
1.0
 76
     1
 77
     6
 78
     2
 67
     7
 79
     3
170
     0
171
     0
290
     0
174
     0
 93
       13
 44
0.0
173
     0
291
     0
 45
0.0
1001
ACAD
1000
AcDbSavedByObjectVersion
1070
     0
  0
VISUALSTYLE
  5
164
102
{ACAD_XDICTIONARY
360
722
102
}
102
{ACAD_REACTORS
330
14F
102
}
330
14F
100
AcDbVisualStyle
  2

 70
    27
 71
     2
 72
     2
 73
     1
 90
        2
 40
-0.6
 41
30.0
 62
     5
 63
     7
 74
     0
 91
        4
 64
     7
 65
   257
 75
     1
175
     1
 42
1.0
 92
        8
 66
   257
 43
1.0
 76
     1
 77
     6
 78
     2
 67
     8
 79
     3
170
     0
171
     0
290
     0
174
     0
 93
        5
 44
0.0
173
     0
291
     0
 45
0.0
1001
ACAD
1000
AcDbSavedByObjectVersion
1070
     0
  0
VISUALSTYLE
  5
163
102
{ACAD_XDICTIONARY
360
720
102
}
102
{ACAD_REACTORS
330
14F
102
}
330
14F
100
AcDbVisualStyle
  2

 70
    26
 71
     2
 72
     2
 73
     1
 90
        2
 40
-0.6
 41
30.0
 62
     5
 63
     7
 74
     1
 91
       10
 64
     7
 65
   257
 75
     2
175
     1
 42
1.0
 92
        8
 66
   257
 43
1.0
 76
     1
 77
     6
 78
     2
 67
     7
 79
     3
170
     0
171
     0
290
     0
174
     0
 93
        5
 44
0.0
173
     0
291
     0
 45
0.0
1001
ACAD
1000
AcDbSavedByObjectVersion
1070
     0
  0
VISUALSTYLE
  5
160
102
{ACAD_XDICTIONARY
360
71A
102
}
102
{ACAD_REACTORS
330
14F
102
}
330
14F
100
AcDbVisualStyle
  2

 70
    23
 71
     2
 72
     2
 73
     3
 90
        0
 40
-0.6
 41
-30.0
 62
     5
 63
     7
 74
     2
 91
        2
 64
     7
 65
     7
 75
     1
175
     1
 42
40.0
 92
        8
 66
     7
 43
1.0
 76
     1
 77
     6
 78
     2
 67
     7
 79
     3
170
     0
171
     0
290
     0
174
     0
 93
        1
 44
0.0
173
     0
291
     0
 45
0.0
1001
ACAD
1000
AcDbSavedByObjectVersion
1070
     0
  0
VISUALSTYLE
  5
161
102
{ACAD_XDICTIONARY
360
71C
102
}
102
{ACAD_REACTORS
330
14F
102
}
330
14F
100
AcDbVisualStyle
  2

 70
    24
 71
     1
 72
     2
 73
     2
 90
        0
 40
-0.6
 41
-30.0
 62
     5
 63
     7
 74
     2
 91
        2
 64
     7
 65
     7
 75
     1
175
     1
 42
40.0
 92
       11
 66
     7
 43
1.0
 76
     1
 77
     6
 78
     2
 67
     7
 79
     6
170
     0
171
     0
290
     0
174
     0
 93
        1
 44
0.0
173
     0
291
     0
 45
0.0
1001
ACAD
1000
AcDbSavedByObjectVersion
1070
     0
  0
VISUALSTYLE
  5
15C
102
{ACAD_XDICTIONARY
360
712
102
}
102
{ACAD_REACTORS
330
14F
102
}
330
14F
100
AcDbVisualStyle
  2

 70
    13
 71
     2
 72
     2
 73
     0
 90
        0
 40
-0.6
 41
-30.0
 62
     5
 63
     7
 74
     1
 91
        4
 64
     7
 65
   257
 75
     1
175
     1
 42
1.0
 92
       12
 66
     7
 43
1.0
 76
     1
 77
     6
 78
     2
 67
     7
 79
     5
170
     0
171
     0
290
     0
174
     0
 93
        1
 44
0.0
173
     0
291
     1
 45
0.0
1001
ACAD
1000
AcDbSavedByObjectVersion
1070
     0
  0
VISUALSTYLE
  5
156
102
{ACAD_XDICTIONARY
360
706
102
}
102
{ACAD_REACTORS
330
14F
102
}
330
14F
100
AcDbVisualStyle
  2

 70
     5
 71
     0
 72
     2
 73
     0
 90
        0
 40
-0.6
 41
-30.0
 62
     5
 63
     7
 74
     1
 91
        4
 64
     7
 65
   257
 75
     1
175
     1
 42
1.0
 92
        0
 66
   257
 43
1.0
 76
     1
 77
     6
 78
     2
 67
     7
 79
     3
170
     0
171
     0
290
     0
174
     0
 93
        1
 44
0.0
173
     0
291
     0
 45
0.0
1001
ACAD
1000
AcDbSavedByObjectVersion
1070
     0
  0
VISUALSTYLE
  5
162
102
{ACAD_XDICTIONARY
360
71E
102
}
102
{ACAD_REACTORS
330
14F
102
}
330
14F
100
AcDbVisualStyle
  2

 70
    25
 71
     2
 72
     2
 73
     1
 90
        1
 40
0.5
 41
-30.0
 62
     5
 63
     7
 74
     1
 91
        0
 64
     7
 65
   257
 75
     1
175
     1
 42
1.0
 92
        8
 66
     7
 43
1.0
 76
     1
 77
     6
 78
     2
 67
     7
 79
     3
170
     0
171
     0
290
     0
174
     0
 93
       13
 44
0.0
173
     0
291
     0
 45
0.0
1001
ACAD
1000
AcDbSavedByObjectVersion
1070
     0
  0
DICTIONARYVAR
  5
1A9
102
{ACAD_REACTORS
330
1A4
102
}
330
1A4
100
DictionaryVariables
280
     0
  1
1:1
  0
DICTIONARYVAR
  5
1A6
102
{ACAD_REACTORS
330
1A4
102
}
330
1A4
100
DictionaryVariables
280
     0
  1
STANDARD
  0
DICTIONARYVAR
  5
1A5
102
{ACAD_REACTORS
330
1A4
102
}
330
1A4
100
DictionaryVariables
280
     0
  1
STANDARD
  0
DICTIONARYVAR
  5
1A7
102
{ACAD_REACTORS
330
1A4
102
}
330
1A4
100
DictionaryVariables
280
     0
  1
Imperial24
  0
DICTIONARYVAR
  5
1A8
102
{ACAD_REACTORS
330
1A4
102
}
330
1A4
100
DictionaryVariables
280
     0
  1
Imperial24
  0
DICTIONARYVAR
  5
1AC
102
{ACAD_REACTORS
330
1A4
102
}
330
1A4
100
DictionaryVariables
280
     0
  1
1
  0
DICTIONARYVAR
  5
1AB
102
{ACAD_REACTORS
330
1A4
102
}
330
1A4
100
DictionaryVariables
280
     0
  1
0
  0
DICTIONARYVAR
  5
1AA
102
{ACAD_REACTORS
330
1A4
102
}
330
1A4
100
DictionaryVariables
280
     0
  1
127
  0
DICTIONARYVAR
  5
6EF
102
{ACAD_REACTORS
330
1A4
102
}
330
1A4
100
DictionaryVariables
280
     0
  1
2
  0
DICTIONARY
  5
6F9
102
{ACAD_REACTORS
330
6F7
102
}
330
6F7
100
AcDbDictionary
281
     1
  0
DICTIONARY
  5
6F8
102
{ACAD_REACTORS
330
6F7
102
}
330
6F7
100
AcDbDictionary
281
     1
  3
8796088787616
350
6F2
  3
8796088787632
350
6F3
  3
8796088787648
350
6F4
  3
8796088787664
350
6F5
  3
8796088787680
350
6F6
  0
XRECORD
  5
1A3
102
{ACAD_REACTORS
330
1A1
102
}
330
1A1
100
AcDbXrecord
280
     1
330
D6
330
97
  0
DICTIONARY
  5
72D
330
183
100
AcDbDictionary
280
     1
281
     1
  3
ACAD_XREC_ROUNDTRIP
360
72E
  0
DICTIONARY
  5
140
330
13F
100
AcDbDictionary
280
     1
281
     1
  3
ACAD_XREC_ROUNDTRIP
360
1B4
  3
BUMPTILE
360
142
  3
DIFFUSETILE
360
141
  3
OPACITYTILE
360
145
  3
REFLECTIONTILE
360
144
  3
REFRACTIONTILE
360
146
  3
SPECULARTILE
360
143
  0
DICTIONARY
  5
138
330
137
100
AcDbDictionary
280
     1
281
     1
  3
ACAD_XREC_ROUNDTRIP
360
1B3
  3
BUMPTILE
360
13A
  3
DIFFUSETILE
360
139
  3
OPACITYTILE
360
13D
  3
REFLECTIONTILE
360
13C
  3
REFRACTIONTILE
360
13E
  3
SPECULARTILE
360
13B
  0
DICTIONARY
  5
148
330
147
100
AcDbDictionary
280
     1
281
     1
  3
ACAD_XREC_ROUNDTRIP
360
1B5
  3
BUMPTILE
360
14A
  3
DIFFUSETILE
360
149
  3
OPACITYTILE
360
14D
  3
REFLECTIONTILE
360
14C
  3
REFRACTIONTILE
360
14E
  3
SPECULARTILE
360
14B
  0
DICTIONARY
  5
72B
330
181
100
AcDbDictionary
280
     1
281
     1
  3
ACAD_XREC_ROUNDTRIP
360
72C
  0
DICTIONARY
  5
1AF
330
16A
100
AcDbDictionary
280
     1
281
     1
  3
ACAD_ROUNDTRIP_2008_TABLESTYLE_CELLSTYLEMAP
360
6F0
  3
ACAD_XREC_ROUNDTRIP
360
72A
  0
DICTIONARY
  5
704
330
155
100
AcDbDictionary
280
     1
281
     1
  3
ACAD_XREC_ROUNDTRIP
360
705
  0
DICTIONARY
  5
702
330
154
100
AcDbDictionary
280
     1
281
     1
  3
ACAD_XREC_ROUNDTRIP
360
703
  0
DICTIONARY
  5
710
330
15B
100
AcDbDictionary
280
     1
281
     1
  3
ACAD_XREC_ROUNDTRIP
360
711
  0
DICTIONARY
  5
718
330
15F
100
AcDbDictionary
280
     1
281
     1
  3
ACAD_XREC_ROUNDTRIP
360
719
  0
DICTIONARY
  5
70A
330
158
100
AcDbDictionary
280
     1
281
     1
  3
ACAD_XREC_ROUNDTRIP
360
70B
  0
DICTIONARY
  5
70E
330
15A
100
AcDbDictionary
280
     1
281
     1
  3
ACAD_XREC_ROUNDTRIP
360
70F
  0
DICTIONARY
  5
728
330
167
100
AcDbDictionary
280
     1
281
     1
  3
ACAD_XREC_ROUNDTRIP
360
729
  0
DICTIONARY
  5
716
330
15E
100
AcDbDictionary
280
     1
281
     1
  3
ACAD_XREC_ROUNDTRIP
360
717
  0
DICTIONARY
  5
6FA
330
150
100
AcDbDictionary
280
     1
281
     1
  3
ACAD_XREC_ROUNDTRIP
360
6FB
  0
DICTIONARY
  5
6FC
330
151
100
AcDbDictionary
280
     1
281
     1
  3
ACAD_XREC_ROUNDTRIP
360
6FD
  0
DICTIONARY
  5
6FE
330
152
100
AcDbDictionary
280
     1
281
     1
  3
ACAD_XREC_ROUNDTRIP
360
6FF
  0
DICTIONARY
  5
700
330
153
100
AcDbDictionary
280
     1
281
     1
  3
ACAD_XREC_ROUNDTRIP
360
701
  0
DICTIONARY
  5
708
330
157
100
AcDbDictionary
280
     1
281
     1
  3
ACAD_XREC_ROUNDTRIP
360
709
  0
DICTIONARY
  5
724
330
165
100
AcDbDictionary
280
     1
281
     1
  3
ACAD_XREC_ROUNDTRIP
360
725
  0
DICTIONARY
  5
714
330
15D
100
AcDbDictionary
280
     1
281
     1
  3
ACAD_XREC_ROUNDTRIP
360
715
  0
DICTIONARY
  5
726
330
166
100
AcDbDictionary
280
     1
281
     1
  3
ACAD_XREC_ROUNDTRIP
360
727
  0
DICTIONARY
  5
70C
330
159
100
AcDbDictionary
280
     1
281
     1
  3
ACAD_XREC_ROUNDTRIP
360
70D
  0
DICTIONARY
  5
722
330
164
100
AcDbDictionary
280
     1
281
     1
  3
ACAD_XREC_ROUNDTRIP
360
723
  0
DICTIONARY
  5
720
330
163
100
AcDbDictionary
280
     1
281
     1
  3
ACAD_XREC_ROUNDTRIP
360
721
  0
DICTIONARY
  5
71A
330
160
100
AcDbDictionary
280
     1
281
     1
  3
ACAD_XREC_ROUNDTRIP
360
71B
  0
DICTIONARY
  5
71C
330
161
100
AcDbDictionary
280
     1
281
     1
  3
ACAD_XREC_ROUNDTRIP
360
71D
  0
DICTIONARY
  5
712
330
15C
100
AcDbDictionary
280
     1
281
     1
  3
ACAD_XREC_ROUNDTRIP
360
713
  0
DICTIONARY
  5
706
330
156
100
AcDbDictionary
280
     1
281
     1
  3
ACAD_XREC_ROUNDTRIP
360
707
  0
DICTIONARY
  5
71E
330
162
100
AcDbDictionary
280
     1
281
     1
  3
ACAD_XREC_ROUNDTRIP
360
71F
  0
XRECORD
  5
6F2
102
{ACAD_REACTORS
330
6F8
102
}
330
6F8
100
AcDbXrecord
280
     1
  1
AcDb_Thumbnail_Schema
102
{ATTRRECORD
341
6F3
  2
AcDbDs::TreatedAsObjectData
280
     1
291
     1
102
ATTRRECORD}
102
{ATTRRECORD
341
6F4
  2
AcDbDs::Legacy
280
     1
291
     1
102
ATTRRECORD}
  2
AcDbDs::ID
280
    10
 91
        8
102
{ATTRRECORD
341
6F5
  2
AcDs:Indexable
280
     1
291
     1
102
ATTRRECORD}
102
{ATTRRECORD
341
6F6
  2
AcDbDs::HandleAttribute
280
     7
282
     1
102
ATTRRECORD}
  2
Thumbnail_Data
280
    15
 91
        0
  0
XRECORD
  5
6F3
102
{ACAD_REACTORS
330
6F8
102
}
330
6F8
100
AcDbXrecord
280
     1
  1
AcDbDs::TreatedAsObjectDataSchema
  2
AcDbDs::TreatedAsObjectData
280
     1
 91
        0
  0
XRECORD
  5
6F4
102
{ACAD_REACTORS
330
6F8
102
}
330
6F8
100
AcDbXrecord
280
     1
  1
AcDbDs::LegacySchema
  2
AcDbDs::Legacy
280
     1
 91
        0
  0
XRECORD
  5
6F5
102
{ACAD_REACTORS
330
6F8
102
}
330
6F8
100
AcDbXrecord
280
     1
  1
AcDbDs::IndexedPropertySchema
  2
AcDs:Indexable
280
     1
 91
        0
  0
XRECORD
  5
6F6
102
{ACAD_REACTORS
330
6F8
102
}
330
6F8
100
AcDbXrecord
280
     1
  1
AcDbDs::HandleAttributeSchema
  2
AcDbDs::HandleAttribute
280
     7
 91
        1
284
     1
  0
XRECORD
  5
72E
102
{ACAD_REACTORS
330
72D
102
}
330
72D
100
AcDbXrecord
280
     1
102
DISPLAYNAME
  1
Imperial24
102
FLAGS
 90
        0
  0
XRECORD
  5
1B4
102
{ACAD_REACTORS
330
140
102
}
330
140
100
AcDbXrecord
280
     1
102
MATERIAL
148
0.0
149
0.0
149
0.0
 93
        0
 94
      127
282
     0
 72
     0
 77
     0
171
     0
175
     0
179
     0
273
     0
  0
XRECORD
  5
142
102
{ACAD_REACTORS
330
140
102
}
330
140
100
AcDbXrecord
280
     1
270
     1
271
     1
  0
XRECORD
  5
141
102
{ACAD_REACTORS
330
140
102
}
330
140
100
AcDbXrecord
280
     1
270
     1
271
     1
  0
XRECORD
  5
145
102
{ACAD_REACTORS
330
140
102
}
330
140
100
AcDbXrecord
280
     1
270
     1
271
     1
  0
XRECORD
  5
144
102
{ACAD_REACTORS
330
140
102
}
330
140
100
AcDbXrecord
280
     1
270
     1
271
     1
  0
XRECORD
  5
146
102
{ACAD_REACTORS
330
140
102
}
330
140
100
AcDbXrecord
280
     1
270
     1
271
     1
  0
XRECORD
  5
143
102
{ACAD_REACTORS
330
140
102
}
330
140
100
AcDbXrecord
280
     1
270
     1
271
     1
  0
XRECORD
  5
1B3
102
{ACAD_REACTORS
330
138
102
}
330
138
100
AcDbXrecord
280
     1
102
MATERIAL
148
0.0
149
0.0
149
0.0
 93
        0
 94
      127
282
     0
 72
     0
 77
     0
171
     0
175
     0
179
     0
273
     0
  0
XRECORD
  5
13A
102
{ACAD_REACTORS
330
138
102
}
330
138
100
AcDbXrecord
280
     1
270
     1
271
     1
  0
XRECORD
  5
139
102
{ACAD_REACTORS
330
138
102
}
330
138
100
AcDbXrecord
280
     1
270
     1
271
     1
  0
XRECORD
  5
13D
102
{ACAD_REACTORS
330
138
102
}
330
138
100
AcDbXrecord
280
     1
270
     1
271
     1
  0
XRECORD
  5
13C
102
{ACAD_REACTORS
330
138
102
}
330
138
100
AcDbXrecord
280
     1
270
     1
271
     1
  0
XRECORD
  5
13E
102
{ACAD_REACTORS
330
138
102
}
330
138
100
AcDbXrecord
280
     1
270
     1
271
     1
  0
XRECORD
  5
13B
102
{ACAD_REACTORS
330
138
102
}
330
138
100
AcDbXrecord
280
     1
270
     1
271
     1
  0
XRECORD
  5
1B5
102
{ACAD_REACTORS
330
148
102
}
330
148
100
AcDbXrecord
280
     1
102
MATERIAL
148
0.0
149
0.0
149
0.0
 93
        0
 94
      127
282
     0
 72
     0
 77
     0
171
     0
175
     0
179
     0
273
     0
  0
XRECORD
  5
14A
102
{ACAD_REACTORS
330
148
102
}
330
148
100
AcDbXrecord
280
     1
270
     1
271
     1
  0
XRECORD
  5
149
102
{ACAD_REACTORS
330
148
102
}
330
148
100
AcDbXrecord
280
     1
270
     1
271
     1
  0
XRECORD
  5
14D
102
{ACAD_REACTORS
330
148
102
}
330
148
100
AcDbXrecord
280
     1
270
     1
271
     1
  0
XRECORD
  5
14C
102
{ACAD_REACTORS
330
148
102
}
330
148
100
AcDbXrecord
280
     1
270
     1
271
     1
  0
XRECORD
  5
14E
102
{ACAD_REACTORS
330
148
102
}
330
148
100
AcDbXrecord
280
     1
270
     1
271
     1
  0
XRECORD
  5
14B
102
{ACAD_REACTORS
330
148
102
}
330
148
100
AcDbXrecord
280
     1
270
     1
271
     1
  0
XRECORD
  5
72C
102
{ACAD_REACTORS
330
72B
102
}
330
72B
100
AcDbXrecord
280
     1
102
DISPLAYNAME
  1
Imperial24
102
FLAGS
 90
        0
  0
CELLSTYLEMAP
  5
6F0
102
{ACAD_REACTORS
330
1AF
102
}
330
1AF
100
AcDbCellStyleMap
 90
        3
300
CELLSTYLE
  1
TABLEFORMAT_BEGIN
 90
        5
170
     1
 91
        0
 92
    32768
 62
   257
 93
        1
300
CONTENTFORMAT
  1
CONTENTFORMAT_BEGIN
 90
        0
 91
        0
 92
      512
 93
        0
300

 40
0.0
140
1.0
 94
        5
 62
     0
340
11
144
0.25
309
CONTENTFORMAT_END
171
     1
301
MARGIN
  1
CELLMARGIN_BEGIN
 40
0.06
 40
0.06
 40
0.06
 40
0.06
 40
0.18
 40
0.18
309
CELLMARGIN_END
 94
        6
 95
        1
302
GRIDFORMAT
  1
GRIDFORMAT_BEGIN
 90
        0
 91
        1
 62
     0
 92
       -2
340
0
 93
        0
 40
0.045
309
GRIDFORMAT_END
 95
        2
302
GRIDFORMAT
  1
GRIDFORMAT_BEGIN
 90
        0
 91
        1
 62
     0
 92
       -2
340
0
 93
        0
 40
0.045
309
GRIDFORMAT_END
 95
        4
302
GRIDFORMAT
  1
GRIDFORMAT_BEGIN
 90
        0
 91
        1
 62
     0
 92
       -2
340
0
 93
        0
 40
0.045
309
GRIDFORMAT_END
 95
        8
302
GRIDFORMAT
  1
GRIDFORMAT_BEGIN
 90
        0
 91
        1
 62
     0
 92
       -2
340
0
 93
        0
 40
0.045
309
GRIDFORMAT_END
 95
       16
302
GRIDFORMAT
  1
GRIDFORMAT_BEGIN
 90
        0
 91
        1
 62
     0
 92
       -2
340
0
 93
        0
 40
0.045
309
GRIDFORMAT_END
 95
       32
302
GRIDFORMAT
  1
GRIDFORMAT_BEGIN
 90
        0
 91
        1
 62
     0
 92
       -2
340
0
 93
        0
 40
0.045
309
GRIDFORMAT_END
309
TABLEFORMAT_END
  1
CELLSTYLE_BEGIN
 90
        1
 91
        1
300
_TITLE
309
CELLSTYLE_END
300
CELLSTYLE
  1
TABLEFORMAT_BEGIN
 90
        5
170
     1
 91
        0
 92
        0
 62
   257
 93
        1
300
CONTENTFORMAT
  1
CONTENTFORMAT_BEGIN
 90
        0
 91
        0
 92
      512
 93
        0
300

 40
0.0
140
1.0
 94
        5
 62
     0
340
11
144
0.18
309
CONTENTFORMAT_END
171
     1
301
MARGIN
  1
CELLMARGIN_BEGIN
 40
0.06
 40
0.06
 40
0.06
 40
0.06
 40
0.18
 40
0.18
309
CELLMARGIN_END
 94
        6
 95
        1
302
GRIDFORMAT
  1
GRIDFORMAT_BEGIN
 90
        0
 91
        1
 62
     0
 92
       -2
340
0
 93
        0
 40
0.045
309
GRIDFORMAT_END
 95
        2
302
GRIDFORMAT
  1
GRIDFORMAT_BEGIN
 90
        0
 91
        1
 62
     0
 92
       -2
340
0
 93
        0
 40
0.045
309
GRIDFORMAT_END
 95
        4
302
GRIDFORMAT
  1
GRIDFORMAT_BEGIN
 90
        0
 91
        1
 62
     0
 92
       -2
340
0
 93
        0
 40
0.045
309
GRIDFORMAT_END
 95
        8
302
GRIDFORMAT
  1
GRIDFORMAT_BEGIN
 90
        0
 91
        1
 62
     0
 92
       -2
340
0
 93
        0
 40
0.045
309
GRIDFORMAT_END
 95
       16
302
GRIDFORMAT
  1
GRIDFORMAT_BEGIN
 90
        0
 91
        1
 62
     0
 92
       -2
340
0
 93
        0
 40
0.045
309
GRIDFORMAT_END
 95
       32
302
GRIDFORMAT
  1
GRIDFORMAT_BEGIN
 90
        0
 91
        1
 62
     0
 92
       -2
340
0
 93
        0
 40
0.045
309
GRIDFORMAT_END
309
TABLEFORMAT_END
  1
CELLSTYLE_BEGIN
 90
        2
 91
        1
300
_HEADER
309
CELLSTYLE_END
300
CELLSTYLE
  1
TABLEFORMAT_BEGIN
 90
        5
170
     1
 91
        0
 92
        0
 62
   257
 93
        1
300
CONTENTFORMAT
  1
CONTENTFORMAT_BEGIN
 90
        0
 91
        0
 92
      512
 93
        0
300

 40
0.0
140
1.0
 94
        2
 62
     0
340
11
144
0.18
309
CONTENTFORMAT_END
171
     1
301
MARGIN
  1
CELLMARGIN_BEGIN
 40
0.06
 40
0.06
 40
0.06
 40
0.06
 40
0.18
 40
0.18
309
CELLMARGIN_END
 94
        6
 95
        1
302
GRIDFORMAT
  1
GRIDFORMAT_BEGIN
 90
        0
 91
        1
 62
     0
 92
       -2
340
0
 93
        0
 40
0.045
309
GRIDFORMAT_END
 95
        2
302
GRIDFORMAT
  1
GRIDFORMAT_BEGIN
 90
        0
 91
        1
 62
     0
 92
       -2
340
0
 93
        0
 40
0.045
309
GRIDFORMAT_END
 95
        4
302
GRIDFORMAT
  1
GRIDFORMAT_BEGIN
 90
        0
 91
        1
 62
     0
 92
       -2
340
0
 93
        0
 40
0.045
309
GRIDFORMAT_END
 95
        8
302
GRIDFORMAT
  1
GRIDFORMAT_BEGIN
 90
        0
 91
        1
 62
     0
 92
       -2
340
0
 93
        0
 40
0.045
309
GRIDFORMAT_END
 95
       16
302
GRIDFORMAT
  1
GRIDFORMAT_BEGIN
 90
        0
 91
        1
 62
     0
 92
       -2
340
0
 93
        0
 40
0.045
309
GRIDFORMAT_END
 95
       32
302
GRIDFORMAT
  1
GRIDFORMAT_BEGIN
 90
        0
 91
        1
 62
     0
 92
       -2
340
0
 93
        0
 40
0.045
309
GRIDFORMAT_END
309
TABLEFORMAT_END
  1
CELLSTYLE_BEGIN
 90
        3
 91
        2
300
_DATA
309
CELLSTYLE_END
  0
XRECORD
  5
72A
102
{ACAD_REACTORS
330
1AF
102
}
330
1AF
100
AcDbXrecord
280
     1
102
ACAD_ROUNDTRIP_PRE2007_TABLESTYLE
 90
      512
 91
        0
  1

 92
      512
 93
        0
  2

 94
      512
 95
        0
  3

  0
XRECORD
  5
705
102
{ACAD_REACTORS
330
704
102
}
330
704
100
AcDbXrecord
280
     1
102
RTVSPost2010Prop28
280
     1
102
RTVSPost2010PropOp28
 70
     1
102
RTVSPost2010Prop29
280
     1
102
RTVSPost2010PropOp29
 70
     1
102
RTVSPost2010Prop30
280
     0
102
RTVSPost2010PropOp30
 70
     1
102
RTVSPost2010Prop31
280
     0
102
RTVSPost2010PropOp31
 70
     1
102
RTVSPost2010Prop32
280
     0
102
RTVSPost2010PropOp32
 70
     1
102
RTVSPost2010Prop33
280
     0
102
RTVSPost2010PropOp33
 70
     1
102
RTVSPost2010Prop34
280
     0
102
RTVSPost2010PropOp34
 70
     1
102
RTVSPost2010Prop35
280
     0
102
RTVSPost2010PropOp35
 70
     1
102
RTVSPost2010Prop36
280
     0
102
RTVSPost2010PropOp36
 70
     1
102
RTVSPost2010Prop37
 90
       50
102
RTVSPost2010PropOp37
 70
     1
102
RTVSPost2010Prop38
140
0.0
102
RTVSPost2010PropOp38
 70
     1
102
RTVSPost2010Prop39
140
1.0
102
RTVSPost2010PropOp39
 70
     1
102
RTVSPost2010Prop40
 90
        0
102
RTVSPost2010PropOp40
 70
     1
102
RTVSPost2010Prop41ColorIndex
 90
       18
102
RTVSPost2010Prop41ColorRGB
 90
        0
102
RTVSPost2010PropOp41
 70
     1
102
RTVSPost2010Prop42
 90
       50
102
RTVSPost2010PropOp42
 70
     1
102
RTVSPost2010Prop43
 90
        3
102
RTVSPost2010PropOp43
 70
     1
102
RTVSPost2010Prop44ColorIndex
 90
        5
102
RTVSPost2010Prop44ColorRGB
 90
      255
102
RTVSPost2010PropOp44
 70
     1
102
RTVSPost2010Prop45
280
     0
102
RTVSPost2010PropOp45
 70
     1
102
RTVSPost2010Prop46
 90
       50
102
RTVSPost2010PropOp46
 70
     1
102
RTVSPost2010Prop47
 90
       50
102
RTVSPost2010PropOp47
 70
     1
102
RTVSPost2010Prop48
 90
       50
102
RTVSPost2010PropOp48
 70
     1
102
RTVSPost2010Prop49
280
     0
102
RTVSPost2010PropOp49
 70
     1
102
RTVSPost2010Prop50
 90
       50
102
RTVSPost2010PropOp50
 70
     1
102
RTVSPost2010Prop51ColorIndex
 90
      256
102
RTVSPost2010Prop51ColorRGB
 90
-16777216
102
RTVSPost2010PropOp51
 70
     0
102
RTVSPost2010Prop52
140
1.0
102
RTVSPost2010PropOp52
 70
     0
102
RTVSPost2010Prop53
 90
        2
102
RTVSPost2010PropOp53
 70
     1
102
RTVSPost2010Prop54
  1
strokes_ogs.tif
102
RTVSPost2010PropOp54
 70
     1
102
RTVSPost2010Prop55
280
     0
102
RTVSPost2010PropOp55
 70
     1
102
RTVSPost2010Prop56
140
1.0
102
RTVSPost2010PropOp56
 70
     1
102
RTVSPost2010Prop57
140
1.0
102
RTVSPost2010PropOp57
 70
     1
102
RTVSPropertyOp0
 70
     1
102
RTVSPropertyOp1
 70
     1
102
RTVSPropertyOp2
 70
     1
102
RTVSPropertyOp3
 70
     1
102
RTVSPropertyOp4
 70
     1
102
RTVSPropertyOp5
 70
     1
102
RTVSPropertyOp6
 70
     1
102
RTVSPropertyOp7
 70
     1
102
RTVSPropertyOp8
 70
     1
102
RTVSPropertyOp9
 70
     1
102
RTVSPropertyOp10
 70
     1
102
RTVSPropertyOp11
 70
     1
102
RTVSPropertyOp12
 70
     1
102
RTVSPropertyOp13
 70
     1
102
RTVSPropertyOp14
 70
     1
102
RTVSPropertyOp15
 70
     1
102
RTVSPropertyOp16
 70
     1
102
RTVSPropertyOp17
 70
     1
102
RTVSPropertyOp18
 70
     1
102
RTVSPropertyOp19
 70
     1
102
RTVSPropertyOp20
 70
     1
102
RTVSPropertyOp21
 70
     1
102
RTVSPropertyOp22
 70
     1
102
RTVSPropertyOp23
 70
     1
102
RTVSPropertyOp24
 70
     1
102
RTVSPropertyOp25
 70
     1
102
RTVSPropertyOp26
 70
     1
102
RTVSPropertyOp27
 70
     1
102
RTVSPropertyOp28
 70
     1
102
RTVSPropertyOp29
 70
     1
102
RTVSPropertyOp30
 70
     1
102
RTVSPropertyOp31
 70
     1
102
RTVSPropertyOp32
 70
     1
102
RTVSPropertyOp33
 70
     1
102
RTVSPropertyOp34
 70
     1
102
RTVSPropertyOp35
 70
     1
102
RTVSPropertyOp36
 70
     1
102
RTVSPropertyOp37
 70
     1
102
RTVSPropertyOp38
 70
     1
102
RTVSPropertyOp39
 70
     1
102
RTVSPropertyOp40
 70
     1
102
RTVSPropertyOp41
 70
     1
102
RTVSPropertyOp42
 70
     1
102
RTVSPropertyOp43
 70
     1
102
RTVSPropertyOp44
 70
     1
102
RTVSPropertyOp45
 70
     1
102
RTVSPropertyOp46
 70
     1
102
RTVSPropertyOp47
 70
     1
102
RTVSPropertyOp48
 70
     1
102
RTVSPropertyOp49
 70
     1
102
RTVSPropertyOp50
 70
     1
102
RTVSPropertyOp51
 70
     0
102
RTVSPropertyOp52
 70
     0
102
RTVSPropertyOp53
 70
     1
102
RTVSPropertyOp54
 70
     1
102
RTVSPropertyOp55
 70
     1
102
RTVSPropertyOp56
 70
     1
102
RTVSPropertyOp57
 70
     1
102
RTVSPropertyOp58
 70
     1
102
RTVSPropertyOp59
 70
     1
102
RTVSPropertyOp60
 70
     1
102
RTVSPropertyOp61
 70
     1
102
RTVSPropertyOp62
 70
     1
  0
XRECORD
  5
703
102
{ACAD_REACTORS
330
702
102
}
330
702
100
AcDbXrecord
280
     1
102
RTVSPost2010Prop28
280
     0
102
RTVSPost2010PropOp28
 70
     1
102
RTVSPost2010Prop29
280
     1
102
RTVSPost2010PropOp29
 70
     1
102
RTVSPost2010Prop30
280
     1
102
RTVSPost2010PropOp30
 70
     1
102
RTVSPost2010Prop31
280
     0
102
RTVSPost2010PropOp31
 70
     1
102
RTVSPost2010Prop32
280
     0
102
RTVSPost2010PropOp32
 70
     1
102
RTVSPost2010Prop33
280
     0
102
RTVSPost2010PropOp33
 70
     1
102
RTVSPost2010Prop34
280
     0
102
RTVSPost2010PropOp34
 70
     1
102
RTVSPost2010Prop35
280
     0
102
RTVSPost2010PropOp35
 70
     1
102
RTVSPost2010Prop36
280
     0
102
RTVSPost2010PropOp36
 70
     1
102
RTVSPost2010Prop37
 90
       50
102
RTVSPost2010PropOp37
 70
     1
102
RTVSPost2010Prop38
140
0.0
102
RTVSPost2010PropOp38
 70
     1
102
RTVSPost2010Prop39
140
1.0
102
RTVSPost2010PropOp39
 70
     1
102
RTVSPost2010Prop40
 90
        0
102
RTVSPost2010PropOp40
 70
     1
102
RTVSPost2010Prop41ColorIndex
 90
       18
102
RTVSPost2010Prop41ColorRGB
 90
        0
102
RTVSPost2010PropOp41
 70
     1
102
RTVSPost2010Prop42
 90
       50
102
RTVSPost2010PropOp42
 70
     1
102
RTVSPost2010Prop43
 90
        3
102
RTVSPost2010PropOp43
 70
     1
102
RTVSPost2010Prop44ColorIndex
 90
        5
102
RTVSPost2010Prop44ColorRGB
 90
      255
102
RTVSPost2010PropOp44
 70
     1
102
RTVSPost2010Prop45
280
     0
102
RTVSPost2010PropOp45
 70
     1
102
RTVSPost2010Prop46
 90
       50
102
RTVSPost2010PropOp46
 70
     1
102
RTVSPost2010Prop47
 90
       50
102
RTVSPost2010PropOp47
 70
     1
102
RTVSPost2010Prop48
 90
       50
102
RTVSPost2010PropOp48
 70
     1
102
RTVSPost2010Prop49
280
     0
102
RTVSPost2010PropOp49
 70
     1
102
RTVSPost2010Prop50
 90
       50
102
RTVSPost2010PropOp50
 70
     1
102
RTVSPost2010Prop51ColorIndex
 90
      256
102
RTVSPost2010Prop51ColorRGB
 90
-16777216
102
RTVSPost2010PropOp51
 70
     0
102
RTVSPost2010Prop52
140
1.0
102
RTVSPost2010PropOp52
 70
     0
102
RTVSPost2010Prop53
 90
        2
102
RTVSPost2010PropOp53
 70
     1
102
RTVSPost2010Prop54
  1
strokes_ogs.tif
102
RTVSPost2010PropOp54
 70
     1
102
RTVSPost2010Prop55
280
     0
102
RTVSPost2010PropOp55
 70
     1
102
RTVSPost2010Prop56
140
1.0
102
RTVSPost2010PropOp56
 70
     1
102
RTVSPost2010Prop57
140
1.0
102
RTVSPost2010PropOp57
 70
     1
102
RTVSPropertyOp0
 70
     1
102
RTVSPropertyOp1
 70
     1
102
RTVSPropertyOp2
 70
     1
102
RTVSPropertyOp3
 70
     1
102
RTVSPropertyOp4
 70
     1
102
RTVSPropertyOp5
 70
     1
102
RTVSPropertyOp6
 70
     1
102
RTVSPropertyOp7
 70
     1
102
RTVSPropertyOp8
 70
     1
102
RTVSPropertyOp9
 70
     1
102
RTVSPropertyOp10
 70
     1
102
RTVSPropertyOp11
 70
     1
102
RTVSPropertyOp12
 70
     1
102
RTVSPropertyOp13
 70
     1
102
RTVSPropertyOp14
 70
     1
102
RTVSPropertyOp15
 70
     1
102
RTVSPropertyOp16
 70
     1
102
RTVSPropertyOp17
 70
     1
102
RTVSPropertyOp18
 70
     1
102
RTVSPropertyOp19
 70
     1
102
RTVSPropertyOp20
 70
     1
102
RTVSPropertyOp21
 70
     1
102
RTVSPropertyOp22
 70
     1
102
RTVSPropertyOp23
 70
     1
102
RTVSPropertyOp24
 70
     1
102
RTVSPropertyOp25
 70
     1
102
RTVSPropertyOp26
 70
     1
102
RTVSPropertyOp27
 70
     1
102
RTVSPropertyOp28
 70
     1
102
RTVSPropertyOp29
 70
     1
102
RTVSPropertyOp30
 70
     1
102
RTVSPropertyOp31
 70
     1
102
RTVSPropertyOp32
 70
     1
102
RTVSPropertyOp33
 70
     1
102
RTVSPropertyOp34
 70
     1
102
RTVSPropertyOp35
 70
     1
102
RTVSPropertyOp36
 70
     1
102
RTVSPropertyOp37
 70
     1
102
RTVSPropertyOp38
 70
     1
102
RTVSPropertyOp39
 70
     1
102
RTVSPropertyOp40
 70
     1
102
RTVSPropertyOp41
 70
     1
102
RTVSPropertyOp42
 70
     1
102
RTVSPropertyOp43
 70
     1
102
RTVSPropertyOp44
 70
     1
102
RTVSPropertyOp45
 70
     1
102
RTVSPropertyOp46
 70
     1
102
RTVSPropertyOp47
 70
     1
102
RTVSPropertyOp48
 70
     1
102
RTVSPropertyOp49
 70
     1
102
RTVSPropertyOp50
 70
     1
102
RTVSPropertyOp51
 70
     0
102
RTVSPropertyOp52
 70
     0
102
RTVSPropertyOp53
 70
     1
102
RTVSPropertyOp54
 70
     1
102
RTVSPropertyOp55
 70
     1
102
RTVSPropertyOp56
 70
     1
102
RTVSPropertyOp57
 70
     1
102
RTVSPropertyOp58
 70
     1
102
RTVSPropertyOp59
 70
     1
102
RTVSPropertyOp60
 70
     1
102
RTVSPropertyOp61
 70
     1
102
RTVSPropertyOp62
 70
     1
  0
XRECORD
  5
711
102
{ACAD_REACTORS
330
710
102
}
330
710
100
AcDbXrecord
280
     1
102
RTVSPost2010Prop28
280
     0
102
RTVSPost2010PropOp28
 70
     1
102
RTVSPost2010Prop29
280
     1
102
RTVSPost2010PropOp29
 70
     1
102
RTVSPost2010Prop30
280
     1
102
RTVSPost2010PropOp30
 70
     1
102
RTVSPost2010Prop31
280
     0
102
RTVSPost2010PropOp31
 70
     1
102
RTVSPost2010Prop32
280
     0
102
RTVSPost2010PropOp32
 70
     1
102
RTVSPost2010Prop33
280
     0
102
RTVSPost2010PropOp33
 70
     1
102
RTVSPost2010Prop34
280
     0
102
RTVSPost2010PropOp34
 70
     1
102
RTVSPost2010Prop35
280
     0
102
RTVSPost2010PropOp35
 70
     1
102
RTVSPost2010Prop36
280
     0
102
RTVSPost2010PropOp36
 70
     1
102
RTVSPost2010Prop37
 90
       50
102
RTVSPost2010PropOp37
 70
     1
102
RTVSPost2010Prop38
140
0.0
102
RTVSPost2010PropOp38
 70
     1
102
RTVSPost2010Prop39
140
1.0
102
RTVSPost2010PropOp39
 70
     1
102
RTVSPost2010Prop40
 90
        0
102
RTVSPost2010PropOp40
 70
     1
102
RTVSPost2010Prop41ColorIndex
 90
       18
102
RTVSPost2010Prop41ColorRGB
 90
        0
102
RTVSPost2010PropOp41
 70
     1
102
RTVSPost2010Prop42
 90
       50
102
RTVSPost2010PropOp42
 70
     1
102
RTVSPost2010Prop43
 90
        3
102
RTVSPost2010PropOp43
 70
     1
102
RTVSPost2010Prop44ColorIndex
 90
        5
102
RTVSPost2010Prop44ColorRGB
 90
      255
102
RTVSPost2010PropOp44
 70
     1
102
RTVSPost2010Prop45
280
     0
102
RTVSPost2010PropOp45
 70
     1
102
RTVSPost2010Prop46
 90
       50
102
RTVSPost2010PropOp46
 70
     1
102
RTVSPost2010Prop47
 90
       50
102
RTVSPost2010PropOp47
 70
     1
102
RTVSPost2010Prop48
 90
       50
102
RTVSPost2010PropOp48
 70
     1
102
RTVSPost2010Prop49
280
     0
102
RTVSPost2010PropOp49
 70
     1
102
RTVSPost2010Prop50
 90
       50
102
RTVSPost2010PropOp50
 70
     1
102
RTVSPost2010Prop51ColorIndex
 90
      256
102
RTVSPost2010Prop51ColorRGB
 90
-16777216
102
RTVSPost2010PropOp51
 70
     0
102
RTVSPost2010Prop52
140
1.0
102
RTVSPost2010PropOp52
 70
     0
102
RTVSPost2010Prop53
 90
        2
102
RTVSPost2010PropOp53
 70
     1
102
RTVSPost2010Prop54
  1
strokes_ogs.tif
102
RTVSPost2010PropOp54
 70
     1
102
RTVSPost2010Prop55
280
     0
102
RTVSPost2010PropOp55
 70
     1
102
RTVSPost2010Prop56
140
1.0
102
RTVSPost2010PropOp56
 70
     1
102
RTVSPost2010Prop57
140
1.0
102
RTVSPost2010PropOp57
 70
     1
102
RTVSPropertyOp0
 70
     1
102
RTVSPropertyOp1
 70
     1
102
RTVSPropertyOp2
 70
     1
102
RTVSPropertyOp3
 70
     1
102
RTVSPropertyOp4
 70
     1
102
RTVSPropertyOp5
 70
     1
102
RTVSPropertyOp6
 70
     1
102
RTVSPropertyOp7
 70
     1
102
RTVSPropertyOp8
 70
     1
102
RTVSPropertyOp9
 70
     1
102
RTVSPropertyOp10
 70
     1
102
RTVSPropertyOp11
 70
     1
102
RTVSPropertyOp12
 70
     1
102
RTVSPropertyOp13
 70
     1
102
RTVSPropertyOp14
 70
     1
102
RTVSPropertyOp15
 70
     1
102
RTVSPropertyOp16
 70
     1
102
RTVSPropertyOp17
 70
     1
102
RTVSPropertyOp18
 70
     1
102
RTVSPropertyOp19
 70
     1
102
RTVSPropertyOp20
 70
     1
102
RTVSPropertyOp21
 70
     1
102
RTVSPropertyOp22
 70
     1
102
RTVSPropertyOp23
 70
     1
102
RTVSPropertyOp24
 70
     1
102
RTVSPropertyOp25
 70
     1
102
RTVSPropertyOp26
 70
     1
102
RTVSPropertyOp27
 70
     1
102
RTVSPropertyOp28
 70
     1
102
RTVSPropertyOp29
 70
     1
102
RTVSPropertyOp30
 70
     1
102
RTVSPropertyOp31
 70
     1
102
RTVSPropertyOp32
 70
     1
102
RTVSPropertyOp33
 70
     1
102
RTVSPropertyOp34
 70
     1
102
RTVSPropertyOp35
 70
     1
102
RTVSPropertyOp36
 70
     1
102
RTVSPropertyOp37
 70
     1
102
RTVSPropertyOp38
 70
     1
102
RTVSPropertyOp39
 70
     1
102
RTVSPropertyOp40
 70
     1
102
RTVSPropertyOp41
 70
     1
102
RTVSPropertyOp42
 70
     1
102
RTVSPropertyOp43
 70
     1
102
RTVSPropertyOp44
 70
     1
102
RTVSPropertyOp45
 70
     1
102
RTVSPropertyOp46
 70
     1
102
RTVSPropertyOp47
 70
     1
102
RTVSPropertyOp48
 70
     1
102
RTVSPropertyOp49
 70
     1
102
RTVSPropertyOp50
 70
     1
102
RTVSPropertyOp51
 70
     0
102
RTVSPropertyOp52
 70
     0
102
RTVSPropertyOp53
 70
     1
102
RTVSPropertyOp54
 70
     1
102
RTVSPropertyOp55
 70
     1
102
RTVSPropertyOp56
 70
     1
102
RTVSPropertyOp57
 70
     1
102
RTVSPropertyOp58
 70
     1
102
RTVSPropertyOp59
 70
     1
102
RTVSPropertyOp60
 70
     1
102
RTVSPropertyOp61
 70
     1
102
RTVSPropertyOp62
 70
     1
  0
XRECORD
  5
719
102
{ACAD_REACTORS
330
718
102
}
330
718
100
AcDbXrecord
280
     1
102
RTVSPost2010Prop28
280
     0
102
RTVSPost2010PropOp28
 70
     1
102
RTVSPost2010Prop29
280
     1
102
RTVSPost2010PropOp29
 70
     1
102
RTVSPost2010Prop30
280
     1
102
RTVSPost2010PropOp30
 70
     1
102
RTVSPost2010Prop31
280
     0
102
RTVSPost2010PropOp31
 70
     1
102
RTVSPost2010Prop32
280
     0
102
RTVSPost2010PropOp32
 70
     1
102
RTVSPost2010Prop33
280
     0
102
RTVSPost2010PropOp33
 70
     1
102
RTVSPost2010Prop34
280
     0
102
RTVSPost2010PropOp34
 70
     1
102
RTVSPost2010Prop35
280
     0
102
RTVSPost2010PropOp35
 70
     1
102
RTVSPost2010Prop36
280
     0
102
RTVSPost2010PropOp36
 70
     1
102
RTVSPost2010Prop37
 90
       50
102
RTVSPost2010PropOp37
 70
     1
102
RTVSPost2010Prop38
140
0.0
102
RTVSPost2010PropOp38
 70
     1
102
RTVSPost2010Prop39
140
1.0
102
RTVSPost2010PropOp39
 70
     1
102
RTVSPost2010Prop40
 90
        0
102
RTVSPost2010PropOp40
 70
     1
102
RTVSPost2010Prop41ColorIndex
 90
       18
102
RTVSPost2010Prop41ColorRGB
 90
        0
102
RTVSPost2010PropOp41
 70
     1
102
RTVSPost2010Prop42
 90
       50
102
RTVSPost2010PropOp42
 70
     1
102
RTVSPost2010Prop43
 90
        3
102
RTVSPost2010PropOp43
 70
     1
102
RTVSPost2010Prop44ColorIndex
 90
        5
102
RTVSPost2010Prop44ColorRGB
 90
      255
102
RTVSPost2010PropOp44
 70
     1
102
RTVSPost2010Prop45
280
     0
102
RTVSPost2010PropOp45
 70
     1
102
RTVSPost2010Prop46
 90
       50
102
RTVSPost2010PropOp46
 70
     1
102
RTVSPost2010Prop47
 90
       50
102
RTVSPost2010PropOp47
 70
     1
102
RTVSPost2010Prop48
 90
       50
102
RTVSPost2010PropOp48
 70
     1
102
RTVSPost2010Prop49
280
     0
102
RTVSPost2010PropOp49
 70
     1
102
RTVSPost2010Prop50
 90
       50
102
RTVSPost2010PropOp50
 70
     1
102
RTVSPost2010Prop51ColorIndex
 90
      256
102
RTVSPost2010Prop51ColorRGB
 90
-16777216
102
RTVSPost2010PropOp51
 70
     0
102
RTVSPost2010Prop52
140
1.0
102
RTVSPost2010PropOp52
 70
     0
102
RTVSPost2010Prop53
 90
        2
102
RTVSPost2010PropOp53
 70
     1
102
RTVSPost2010Prop54
  1
strokes_ogs.tif
102
RTVSPost2010PropOp54
 70
     1
102
RTVSPost2010Prop55
280
     0
102
RTVSPost2010PropOp55
 70
     1
102
RTVSPost2010Prop56
140
1.0
102
RTVSPost2010PropOp56
 70
     1
102
RTVSPost2010Prop57
140
1.0
102
RTVSPost2010PropOp57
 70
     1
102
RTVSPropertyOp0
 70
     1
102
RTVSPropertyOp1
 70
     1
102
RTVSPropertyOp2
 70
     1
102
RTVSPropertyOp3
 70
     1
102
RTVSPropertyOp4
 70
     1
102
RTVSPropertyOp5
 70
     1
102
RTVSPropertyOp6
 70
     1
102
RTVSPropertyOp7
 70
     1
102
RTVSPropertyOp8
 70
     1
102
RTVSPropertyOp9
 70
     1
102
RTVSPropertyOp10
 70
     1
102
RTVSPropertyOp11
 70
     1
102
RTVSPropertyOp12
 70
     1
102
RTVSPropertyOp13
 70
     1
102
RTVSPropertyOp14
 70
     1
102
RTVSPropertyOp15
 70
     1
102
RTVSPropertyOp16
 70
     1
102
RTVSPropertyOp17
 70
     1
102
RTVSPropertyOp18
 70
     1
102
RTVSPropertyOp19
 70
     1
102
RTVSPropertyOp20
 70
     1
102
RTVSPropertyOp21
 70
     1
102
RTVSPropertyOp22
 70
     1
102
RTVSPropertyOp23
 70
     1
102
RTVSPropertyOp24
 70
     1
102
RTVSPropertyOp25
 70
     1
102
RTVSPropertyOp26
 70
     1
102
RTVSPropertyOp27
 70
     1
102
RTVSPropertyOp28
 70
     1
102
RTVSPropertyOp29
 70
     1
102
RTVSPropertyOp30
 70
     1
102
RTVSPropertyOp31
 70
     1
102
RTVSPropertyOp32
 70
     1
102
RTVSPropertyOp33
 70
     1
102
RTVSPropertyOp34
 70
     1
102
RTVSPropertyOp35
 70
     1
102
RTVSPropertyOp36
 70
     1
102
RTVSPropertyOp37
 70
     1
102
RTVSPropertyOp38
 70
     1
102
RTVSPropertyOp39
 70
     1
102
RTVSPropertyOp40
 70
     1
102
RTVSPropertyOp41
 70
     1
102
RTVSPropertyOp42
 70
     1
102
RTVSPropertyOp43
 70
     1
102
RTVSPropertyOp44
 70
     1
102
RTVSPropertyOp45
 70
     1
102
RTVSPropertyOp46
 70
     1
102
RTVSPropertyOp47
 70
     1
102
RTVSPropertyOp48
 70
     1
102
RTVSPropertyOp49
 70
     1
102
RTVSPropertyOp50
 70
     1
102
RTVSPropertyOp51
 70
     0
102
RTVSPropertyOp52
 70
     0
102
RTVSPropertyOp53
 70
     1
102
RTVSPropertyOp54
 70
     1
102
RTVSPropertyOp55
 70
     1
102
RTVSPropertyOp56
 70
     1
102
RTVSPropertyOp57
 70
     1
102
RTVSPropertyOp58
 70
     1
102
RTVSPropertyOp59
 70
     1
102
RTVSPropertyOp60
 70
     1
102
RTVSPropertyOp61
 70
     1
102
RTVSPropertyOp62
 70
     1
  0
XRECORD
  5
70B
102
{ACAD_REACTORS
330
70A
102
}
330
70A
100
AcDbXrecord
280
     1
102
RTVSPost2010Prop28
280
     0
102
RTVSPost2010PropOp28
 70
     1
102
RTVSPost2010Prop29
280
     1
102
RTVSPost2010PropOp29
 70
     1
102
RTVSPost2010Prop30
280
     1
102
RTVSPost2010PropOp30
 70
     1
102
RTVSPost2010Prop31
280
     0
102
RTVSPost2010PropOp31
 70
     1
102
RTVSPost2010Prop32
280
     0
102
RTVSPost2010PropOp32
 70
     1
102
RTVSPost2010Prop33
280
     0
102
RTVSPost2010PropOp33
 70
     1
102
RTVSPost2010Prop34
280
     0
102
RTVSPost2010PropOp34
 70
     1
102
RTVSPost2010Prop35
280
     0
102
RTVSPost2010PropOp35
 70
     1
102
RTVSPost2010Prop36
280
     0
102
RTVSPost2010PropOp36
 70
     1
102
RTVSPost2010Prop37
 90
       50
102
RTVSPost2010PropOp37
 70
     1
102
RTVSPost2010Prop38
140
0.0
102
RTVSPost2010PropOp38
 70
     1
102
RTVSPost2010Prop39
140
1.0
102
RTVSPost2010PropOp39
 70
     1
102
RTVSPost2010Prop40
 90
        0
102
RTVSPost2010PropOp40
 70
     1
102
RTVSPost2010Prop41ColorIndex
 90
       18
102
RTVSPost2010Prop41ColorRGB
 90
        0
102
RTVSPost2010PropOp41
 70
     1
102
RTVSPost2010Prop42
 90
       50
102
RTVSPost2010PropOp42
 70
     1
102
RTVSPost2010Prop43
 90
        3
102
RTVSPost2010PropOp43
 70
     1
102
RTVSPost2010Prop44ColorIndex
 90
        5
102
RTVSPost2010Prop44ColorRGB
 90
      255
102
RTVSPost2010PropOp44
 70
     1
102
RTVSPost2010Prop45
280
     0
102
RTVSPost2010PropOp45
 70
     1
102
RTVSPost2010Prop46
 90
       50
102
RTVSPost2010PropOp46
 70
     1
102
RTVSPost2010Prop47
 90
       50
102
RTVSPost2010PropOp47
 70
     1
102
RTVSPost2010Prop48
 90
       50
102
RTVSPost2010PropOp48
 70
     1
102
RTVSPost2010Prop49
280
     0
102
RTVSPost2010PropOp49
 70
     1
102
RTVSPost2010Prop50
 90
       50
102
RTVSPost2010PropOp50
 70
     1
102
RTVSPost2010Prop51ColorIndex
 90
      256
102
RTVSPost2010Prop51ColorRGB
 90
-16777216
102
RTVSPost2010PropOp51
 70
     0
102
RTVSPost2010Prop52
140
1.0
102
RTVSPost2010PropOp52
 70
     0
102
RTVSPost2010Prop53
 90
        2
102
RTVSPost2010PropOp53
 70
     1
102
RTVSPost2010Prop54
  1
strokes_ogs.tif
102
RTVSPost2010PropOp54
 70
     1
102
RTVSPost2010Prop55
280
     0
102
RTVSPost2010PropOp55
 70
     1
102
RTVSPost2010Prop56
140
1.0
102
RTVSPost2010PropOp56
 70
     1
102
RTVSPost2010Prop57
140
1.0
102
RTVSPost2010PropOp57
 70
     1
102
RTVSPropertyOp0
 70
     1
102
RTVSPropertyOp1
 70
     1
102
RTVSPropertyOp2
 70
     1
102
RTVSPropertyOp3
 70
     1
102
RTVSPropertyOp4
 70
     1
102
RTVSPropertyOp5
 70
     1
102
RTVSPropertyOp6
 70
     1
102
RTVSPropertyOp7
 70
     1
102
RTVSPropertyOp8
 70
     1
102
RTVSPropertyOp9
 70
     1
102
RTVSPropertyOp10
 70
     1
102
RTVSPropertyOp11
 70
     1
102
RTVSPropertyOp12
 70
     1
102
RTVSPropertyOp13
 70
     1
102
RTVSPropertyOp14
 70
     1
102
RTVSPropertyOp15
 70
     1
102
RTVSPropertyOp16
 70
     1
102
RTVSPropertyOp17
 70
     1
102
RTVSPropertyOp18
 70
     1
102
RTVSPropertyOp19
 70
     1
102
RTVSPropertyOp20
 70
     1
102
RTVSPropertyOp21
 70
     1
102
RTVSPropertyOp22
 70
     1
102
RTVSPropertyOp23
 70
     1
102
RTVSPropertyOp24
 70
     1
102
RTVSPropertyOp25
 70
     1
102
RTVSPropertyOp26
 70
     1
102
RTVSPropertyOp27
 70
     1
102
RTVSPropertyOp28
 70
     1
102
RTVSPropertyOp29
 70
     1
102
RTVSPropertyOp30
 70
     1
102
RTVSPropertyOp31
 70
     1
102
RTVSPropertyOp32
 70
     1
102
RTVSPropertyOp33
 70
     1
102
RTVSPropertyOp34
 70
     1
102
RTVSPropertyOp35
 70
     1
102
RTVSPropertyOp36
 70
     1
102
RTVSPropertyOp37
 70
     1
102
RTVSPropertyOp38
 70
     1
102
RTVSPropertyOp39
 70
     1
102
RTVSPropertyOp40
 70
     1
102
RTVSPropertyOp41
 70
     1
102
RTVSPropertyOp42
 70
     1
102
RTVSPropertyOp43
 70
     1
102
RTVSPropertyOp44
 70
     1
102
RTVSPropertyOp45
 70
     1
102
RTVSPropertyOp46
 70
     1
102
RTVSPropertyOp47
 70
     1
102
RTVSPropertyOp48
 70
     1
102
RTVSPropertyOp49
 70
     1
102
RTVSPropertyOp50
 70
     1
102
RTVSPropertyOp51
 70
     0
102
RTVSPropertyOp52
 70
     0
102
RTVSPropertyOp53
 70
     1
102
RTVSPropertyOp54
 70
     1
102
RTVSPropertyOp55
 70
     1
102
RTVSPropertyOp56
 70
     1
102
RTVSPropertyOp57
 70
     1
102
RTVSPropertyOp58
 70
     1
102
RTVSPropertyOp59
 70
     1
102
RTVSPropertyOp60
 70
     1
102
RTVSPropertyOp61
 70
     1
102
RTVSPropertyOp62
 70
     1
  0
XRECORD
  5
70F
102
{ACAD_REACTORS
330
70E
102
}
330
70E
100
AcDbXrecord
280
     1
102
RTVSPost2010Prop28
280
     0
102
RTVSPost2010PropOp28
 70
     1
102
RTVSPost2010Prop29
280
     1
102
RTVSPost2010PropOp29
 70
     1
102
RTVSPost2010Prop30
280
     1
102
RTVSPost2010PropOp30
 70
     1
102
RTVSPost2010Prop31
280
     0
102
RTVSPost2010PropOp31
 70
     1
102
RTVSPost2010Prop32
280
     0
102
RTVSPost2010PropOp32
 70
     1
102
RTVSPost2010Prop33
280
     0
102
RTVSPost2010PropOp33
 70
     1
102
RTVSPost2010Prop34
280
     0
102
RTVSPost2010PropOp34
 70
     1
102
RTVSPost2010Prop35
280
     0
102
RTVSPost2010PropOp35
 70
     1
102
RTVSPost2010Prop36
280
     0
102
RTVSPost2010PropOp36
 70
     1
102
RTVSPost2010Prop37
 90
       50
102
RTVSPost2010PropOp37
 70
     1
102
RTVSPost2010Prop38
140
0.0
102
RTVSPost2010PropOp38
 70
     1
102
RTVSPost2010Prop39
140
1.0
102
RTVSPost2010PropOp39
 70
     1
102
RTVSPost2010Prop40
 90
        0
102
RTVSPost2010PropOp40
 70
     1
102
RTVSPost2010Prop41ColorIndex
 90
       18
102
RTVSPost2010Prop41ColorRGB
 90
        0
102
RTVSPost2010PropOp41
 70
     1
102
RTVSPost2010Prop42
 90
       50
102
RTVSPost2010PropOp42
 70
     1
102
RTVSPost2010Prop43
 90
        3
102
RTVSPost2010PropOp43
 70
     1
102
RTVSPost2010Prop44ColorIndex
 90
        5
102
RTVSPost2010Prop44ColorRGB
 90
      255
102
RTVSPost2010PropOp44
 70
     1
102
RTVSPost2010Prop45
280
     0
102
RTVSPost2010PropOp45
 70
     1
102
RTVSPost2010Prop46
 90
       50
102
RTVSPost2010PropOp46
 70
     1
102
RTVSPost2010Prop47
 90
       50
102
RTVSPost2010PropOp47
 70
     1
102
RTVSPost2010Prop48
 90
       50
102
RTVSPost2010PropOp48
 70
     1
102
RTVSPost2010Prop49
280
     0
102
RTVSPost2010PropOp49
 70
     1
102
RTVSPost2010Prop50
 90
       50
102
RTVSPost2010PropOp50
 70
     1
102
RTVSPost2010Prop51ColorIndex
 90
      256
102
RTVSPost2010Prop51ColorRGB
 90
-16777216
102
RTVSPost2010PropOp51
 70
     0
102
RTVSPost2010Prop52
140
1.0
102
RTVSPost2010PropOp52
 70
     0
102
RTVSPost2010Prop53
 90
        2
102
RTVSPost2010PropOp53
 70
     1
102
RTVSPost2010Prop54
  1
strokes_ogs.tif
102
RTVSPost2010PropOp54
 70
     1
102
RTVSPost2010Prop55
280
     0
102
RTVSPost2010PropOp55
 70
     1
102
RTVSPost2010Prop56
140
1.0
102
RTVSPost2010PropOp56
 70
     1
102
RTVSPost2010Prop57
140
1.0
102
RTVSPost2010PropOp57
 70
     1
102
RTVSPropertyOp0
 70
     1
102
RTVSPropertyOp1
 70
     1
102
RTVSPropertyOp2
 70
     1
102
RTVSPropertyOp3
 70
     1
102
RTVSPropertyOp4
 70
     1
102
RTVSPropertyOp5
 70
     1
102
RTVSPropertyOp6
 70
     1
102
RTVSPropertyOp7
 70
     1
102
RTVSPropertyOp8
 70
     1
102
RTVSPropertyOp9
 70
     1
102
RTVSPropertyOp10
 70
     1
102
RTVSPropertyOp11
 70
     1
102
RTVSPropertyOp12
 70
     1
102
RTVSPropertyOp13
 70
     1
102
RTVSPropertyOp14
 70
     1
102
RTVSPropertyOp15
 70
     1
102
RTVSPropertyOp16
 70
     1
102
RTVSPropertyOp17
 70
     1
102
RTVSPropertyOp18
 70
     1
102
RTVSPropertyOp19
 70
     1
102
RTVSPropertyOp20
 70
     1
102
RTVSPropertyOp21
 70
     1
102
RTVSPropertyOp22
 70
     1
102
RTVSPropertyOp23
 70
     1
102
RTVSPropertyOp24
 70
     1
102
RTVSPropertyOp25
 70
     1
102
RTVSPropertyOp26
 70
     1
102
RTVSPropertyOp27
 70
     1
102
RTVSPropertyOp28
 70
     1
102
RTVSPropertyOp29
 70
     1
102
RTVSPropertyOp30
 70
     1
102
RTVSPropertyOp31
 70
     1
102
RTVSPropertyOp32
 70
     1
102
RTVSPropertyOp33
 70
     1
102
RTVSPropertyOp34
 70
     1
102
RTVSPropertyOp35
 70
     1
102
RTVSPropertyOp36
 70
     1
102
RTVSPropertyOp37
 70
     1
102
RTVSPropertyOp38
 70
     1
102
RTVSPropertyOp39
 70
     1
102
RTVSPropertyOp40
 70
     1
102
RTVSPropertyOp41
 70
     1
102
RTVSPropertyOp42
 70
     1
102
RTVSPropertyOp43
 70
     1
102
RTVSPropertyOp44
 70
     1
102
RTVSPropertyOp45
 70
     1
102
RTVSPropertyOp46
 70
     1
102
RTVSPropertyOp47
 70
     1
102
RTVSPropertyOp48
 70
     1
102
RTVSPropertyOp49
 70
     1
102
RTVSPropertyOp50
 70
     1
102
RTVSPropertyOp51
 70
     0
102
RTVSPropertyOp52
 70
     0
102
RTVSPropertyOp53
 70
     1
102
RTVSPropertyOp54
 70
     1
102
RTVSPropertyOp55
 70
     1
102
RTVSPropertyOp56
 70
     1
102
RTVSPropertyOp57
 70
     1
102
RTVSPropertyOp58
 70
     1
102
RTVSPropertyOp59
 70
     1
102
RTVSPropertyOp60
 70
     1
102
RTVSPropertyOp61
 70
     1
102
RTVSPropertyOp62
 70
     1
  0
XRECORD
  5
729
102
{ACAD_REACTORS
330
728
102
}
330
728
100
AcDbXrecord
280
     1
102
RTVSPost2010Prop28
280
     0
102
RTVSPost2010PropOp28
 70
     1
102
RTVSPost2010Prop29
280
     1
102
RTVSPost2010PropOp29
 70
     1
102
RTVSPost2010Prop30
280
     1
102
RTVSPost2010PropOp30
 70
     1
102
RTVSPost2010Prop31
280
     0
102
RTVSPost2010PropOp31
 70
     1
102
RTVSPost2010Prop32
280
     0
102
RTVSPost2010PropOp32
 70
     1
102
RTVSPost2010Prop33
280
     0
102
RTVSPost2010PropOp33
 70
     1
102
RTVSPost2010Prop34
280
     0
102
RTVSPost2010PropOp34
 70
     1
102
RTVSPost2010Prop35
280
     0
102
RTVSPost2010PropOp35
 70
     1
102
RTVSPost2010Prop36
280
     0
102
RTVSPost2010PropOp36
 70
     1
102
RTVSPost2010Prop37
 90
       50
102
RTVSPost2010PropOp37
 70
     0
102
RTVSPost2010Prop38
140
0.0
102
RTVSPost2010PropOp38
 70
     0
102
RTVSPost2010Prop39
140
1.0
102
RTVSPost2010PropOp39
 70
     0
102
RTVSPost2010Prop40
 90
        0
102
RTVSPost2010PropOp40
 70
     0
102
RTVSPost2010Prop41ColorIndex
 90
       18
102
RTVSPost2010Prop41ColorRGB
 90
        0
102
RTVSPost2010PropOp41
 70
     0
102
RTVSPost2010Prop42
 90
       50
102
RTVSPost2010PropOp42
 70
     0
102
RTVSPost2010Prop43
 90
        3
102
RTVSPost2010PropOp43
 70
     0
102
RTVSPost2010Prop44ColorIndex
 90
        5
102
RTVSPost2010Prop44ColorRGB
 90
      255
102
RTVSPost2010PropOp44
 70
     0
102
RTVSPost2010Prop45
280
     0
102
RTVSPost2010PropOp45
 70
     1
102
RTVSPost2010Prop46
 90
       50
102
RTVSPost2010PropOp46
 70
     0
102
RTVSPost2010Prop47
 90
       50
102
RTVSPost2010PropOp47
 70
     0
102
RTVSPost2010Prop48
 90
       50
102
RTVSPost2010PropOp48
 70
     0
102
RTVSPost2010Prop49
280
     0
102
RTVSPost2010PropOp49
 70
     1
102
RTVSPost2010Prop50
 90
       50
102
RTVSPost2010PropOp50
 70
     0
102
RTVSPost2010Prop51ColorIndex
 90
      256
102
RTVSPost2010Prop51ColorRGB
 90
-16777216
102
RTVSPost2010PropOp51
 70
     0
102
RTVSPost2010Prop52
140
1.0
102
RTVSPost2010PropOp52
 70
     0
102
RTVSPost2010Prop53
 90
        2
102
RTVSPost2010PropOp53
 70
     0
102
RTVSPost2010Prop54
  1
strokes_ogs.tif
102
RTVSPost2010PropOp54
 70
     0
102
RTVSPost2010Prop55
280
     0
102
RTVSPost2010PropOp55
 70
     1
102
RTVSPost2010Prop56
140
1.0
102
RTVSPost2010PropOp56
 70
     0
102
RTVSPost2010Prop57
140
1.0
102
RTVSPost2010PropOp57
 70
     0
102
RTVSPropertyOp0
 70
     0
102
RTVSPropertyOp1
 70
     0
102
RTVSPropertyOp2
 70
     0
102
RTVSPropertyOp3
 70
     0
102
RTVSPropertyOp4
 70
     0
102
RTVSPropertyOp5
 70
     0
102
RTVSPropertyOp6
 70
     0
102
RTVSPropertyOp7
 70
     0
102
RTVSPropertyOp8
 70
     0
102
RTVSPropertyOp9
 70
     0
102
RTVSPropertyOp10
 70
     0
102
RTVSPropertyOp11
 70
     0
102
RTVSPropertyOp12
 70
     0
102
RTVSPropertyOp13
 70
     0
102
RTVSPropertyOp14
 70
     2
102
RTVSPropertyOp15
 70
     0
102
RTVSPropertyOp16
 70
     0
102
RTVSPropertyOp17
 70
     0
102
RTVSPropertyOp18
 70
     0
102
RTVSPropertyOp19
 70
     0
102
RTVSPropertyOp20
 70
     0
102
RTVSPropertyOp21
 70
     0
102
RTVSPropertyOp22
 70
     0
102
RTVSPropertyOp23
 70
     0
102
RTVSPropertyOp24
 70
     0
102
RTVSPropertyOp25
 70
     0
102
RTVSPropertyOp26
 70
     0
102
RTVSPropertyOp27
 70
     0
102
RTVSPropertyOp28
 70
     1
102
RTVSPropertyOp29
 70
     1
102
RTVSPropertyOp30
 70
     1
102
RTVSPropertyOp31
 70
     1
102
RTVSPropertyOp32
 70
     1
102
RTVSPropertyOp33
 70
     1
102
RTVSPropertyOp34
 70
     1
102
RTVSPropertyOp35
 70
     1
102
RTVSPropertyOp36
 70
     1
102
RTVSPropertyOp37
 70
     0
102
RTVSPropertyOp38
 70
     0
102
RTVSPropertyOp39
 70
     0
102
RTVSPropertyOp40
 70
     0
102
RTVSPropertyOp41
 70
     0
102
RTVSPropertyOp42
 70
     0
102
RTVSPropertyOp43
 70
     0
102
RTVSPropertyOp44
 70
     0
102
RTVSPropertyOp45
 70
     1
102
RTVSPropertyOp46
 70
     0
102
RTVSPropertyOp47
 70
     0
102
RTVSPropertyOp48
 70
     0
102
RTVSPropertyOp49
 70
     1
102
RTVSPropertyOp50
 70
     0
102
RTVSPropertyOp51
 70
     0
102
RTVSPropertyOp52
 70
     0
102
RTVSPropertyOp53
 70
     0
102
RTVSPropertyOp54
 70
     0
102
RTVSPropertyOp55
 70
     1
102
RTVSPropertyOp56
 70
     0
102
RTVSPropertyOp57
 70
     0
102
RTVSPropertyOp58
 70
     0
102
RTVSPropertyOp59
 70
     0
102
RTVSPropertyOp60
 70
     0
102
RTVSPropertyOp61
 70
     0
102
RTVSPropertyOp62
 70
     0
  0
XRECORD
  5
717
102
{ACAD_REACTORS
330
716
102
}
330
716
100
AcDbXrecord
280
     1
102
RTVSPost2010Prop28
280
     0
102
RTVSPost2010PropOp28
 70
     1
102
RTVSPost2010Prop29
280
     1
102
RTVSPost2010PropOp29
 70
     1
102
RTVSPost2010Prop30
280
     1
102
RTVSPost2010PropOp30
 70
     1
102
RTVSPost2010Prop31
280
     0
102
RTVSPost2010PropOp31
 70
     1
102
RTVSPost2010Prop32
280
     0
102
RTVSPost2010PropOp32
 70
     1
102
RTVSPost2010Prop33
280
     0
102
RTVSPost2010PropOp33
 70
     1
102
RTVSPost2010Prop34
280
     0
102
RTVSPost2010PropOp34
 70
     1
102
RTVSPost2010Prop35
280
     0
102
RTVSPost2010PropOp35
 70
     1
102
RTVSPost2010Prop36
280
     0
102
RTVSPost2010PropOp36
 70
     1
102
RTVSPost2010Prop37
 90
       50
102
RTVSPost2010PropOp37
 70
     1
102
RTVSPost2010Prop38
140
0.0
102
RTVSPost2010PropOp38
 70
     1
102
RTVSPost2010Prop39
140
1.0
102
RTVSPost2010PropOp39
 70
     1
102
RTVSPost2010Prop40
 90
        0
102
RTVSPost2010PropOp40
 70
     1
102
RTVSPost2010Prop41ColorIndex
 90
       18
102
RTVSPost2010Prop41ColorRGB
 90
        0
102
RTVSPost2010PropOp41
 70
     1
102
RTVSPost2010Prop42
 90
       50
102
RTVSPost2010PropOp42
 70
     1
102
RTVSPost2010Prop43
 90
        3
102
RTVSPost2010PropOp43
 70
     1
102
RTVSPost2010Prop44ColorIndex
 90
        5
102
RTVSPost2010Prop44ColorRGB
 90
      255
102
RTVSPost2010PropOp44
 70
     1
102
RTVSPost2010Prop45
280
     0
102
RTVSPost2010PropOp45
 70
     1
102
RTVSPost2010Prop46
 90
       50
102
RTVSPost2010PropOp46
 70
     1
102
RTVSPost2010Prop47
 90
       50
102
RTVSPost2010PropOp47
 70
     1
102
RTVSPost2010Prop48
 90
       50
102
RTVSPost2010PropOp48
 70
     1
102
RTVSPost2010Prop49
280
     0
102
RTVSPost2010PropOp49
 70
     1
102
RTVSPost2010Prop50
 90
       50
102
RTVSPost2010PropOp50
 70
     1
102
RTVSPost2010Prop51ColorIndex
 90
      256
102
RTVSPost2010Prop51ColorRGB
 90
-16777216
102
RTVSPost2010PropOp51
 70
     0
102
RTVSPost2010Prop52
140
1.0
102
RTVSPost2010PropOp52
 70
     0
102
RTVSPost2010Prop53
 90
        2
102
RTVSPost2010PropOp53
 70
     1
102
RTVSPost2010Prop54
  1
strokes_ogs.tif
102
RTVSPost2010PropOp54
 70
     1
102
RTVSPost2010Prop55
280
     0
102
RTVSPost2010PropOp55
 70
     1
102
RTVSPost2010Prop56
140
1.0
102
RTVSPost2010PropOp56
 70
     1
102
RTVSPost2010Prop57
140
1.0
102
RTVSPost2010PropOp57
 70
     1
102
RTVSPropertyOp0
 70
     1
102
RTVSPropertyOp1
 70
     1
102
RTVSPropertyOp2
 70
     1
102
RTVSPropertyOp3
 70
     1
102
RTVSPropertyOp4
 70
     1
102
RTVSPropertyOp5
 70
     1
102
RTVSPropertyOp6
 70
     1
102
RTVSPropertyOp7
 70
     1
102
RTVSPropertyOp8
 70
     1
102
RTVSPropertyOp9
 70
     1
102
RTVSPropertyOp10
 70
     1
102
RTVSPropertyOp11
 70
     1
102
RTVSPropertyOp12
 70
     1
102
RTVSPropertyOp13
 70
     1
102
RTVSPropertyOp14
 70
     1
102
RTVSPropertyOp15
 70
     1
102
RTVSPropertyOp16
 70
     1
102
RTVSPropertyOp17
 70
     1
102
RTVSPropertyOp18
 70
     1
102
RTVSPropertyOp19
 70
     1
102
RTVSPropertyOp20
 70
     1
102
RTVSPropertyOp21
 70
     1
102
RTVSPropertyOp22
 70
     1
102
RTVSPropertyOp23
 70
     1
102
RTVSPropertyOp24
 70
     1
102
RTVSPropertyOp25
 70
     1
102
RTVSPropertyOp26
 70
     1
102
RTVSPropertyOp27
 70
     1
102
RTVSPropertyOp28
 70
     1
102
RTVSPropertyOp29
 70
     1
102
RTVSPropertyOp30
 70
     1
102
RTVSPropertyOp31
 70
     1
102
RTVSPropertyOp32
 70
     1
102
RTVSPropertyOp33
 70
     1
102
RTVSPropertyOp34
 70
     1
102
RTVSPropertyOp35
 70
     1
102
RTVSPropertyOp36
 70
     1
102
RTVSPropertyOp37
 70
     1
102
RTVSPropertyOp38
 70
     1
102
RTVSPropertyOp39
 70
     1
102
RTVSPropertyOp40
 70
     1
102
RTVSPropertyOp41
 70
     1
102
RTVSPropertyOp42
 70
     1
102
RTVSPropertyOp43
 70
     1
102
RTVSPropertyOp44
 70
     1
102
RTVSPropertyOp45
 70
     1
102
RTVSPropertyOp46
 70
     1
102
RTVSPropertyOp47
 70
     1
102
RTVSPropertyOp48
 70
     1
102
RTVSPropertyOp49
 70
     1
102
RTVSPropertyOp50
 70
     1
102
RTVSPropertyOp51
 70
     0
102
RTVSPropertyOp52
 70
     0
102
RTVSPropertyOp53
 70
     1
102
RTVSPropertyOp54
 70
     1
102
RTVSPropertyOp55
 70
     1
102
RTVSPropertyOp56
 70
     1
102
RTVSPropertyOp57
 70
     1
102
RTVSPropertyOp58
 70
     1
102
RTVSPropertyOp59
 70
     1
102
RTVSPropertyOp60
 70
     1
102
RTVSPropertyOp61
 70
     1
102
RTVSPropertyOp62
 70
     1
  0
XRECORD
  5
6FB
102
{ACAD_REACTORS
330
6FA
102
}
330
6FA
100
AcDbXrecord
280
     1
102
RTVSPost2010Prop28
280
     0
102
RTVSPost2010PropOp28
 70
     1
102
RTVSPost2010Prop29
280
     1
102
RTVSPost2010PropOp29
 70
     1
102
RTVSPost2010Prop30
280
     1
102
RTVSPost2010PropOp30
 70
     1
102
RTVSPost2010Prop31
280
     0
102
RTVSPost2010PropOp31
 70
     1
102
RTVSPost2010Prop32
280
     0
102
RTVSPost2010PropOp32
 70
     1
102
RTVSPost2010Prop33
280
     0
102
RTVSPost2010PropOp33
 70
     1
102
RTVSPost2010Prop34
280
     0
102
RTVSPost2010PropOp34
 70
     1
102
RTVSPost2010Prop35
280
     0
102
RTVSPost2010PropOp35
 70
     1
102
RTVSPost2010Prop36
280
     0
102
RTVSPost2010PropOp36
 70
     1
102
RTVSPost2010Prop37
 90
       50
102
RTVSPost2010PropOp37
 70
     1
102
RTVSPost2010Prop38
140
0.0
102
RTVSPost2010PropOp38
 70
     1
102
RTVSPost2010Prop39
140
1.0
102
RTVSPost2010PropOp39
 70
     1
102
RTVSPost2010Prop40
 90
        0
102
RTVSPost2010PropOp40
 70
     1
102
RTVSPost2010Prop41ColorIndex
 90
       18
102
RTVSPost2010Prop41ColorRGB
 90
        0
102
RTVSPost2010PropOp41
 70
     1
102
RTVSPost2010Prop42
 90
       50
102
RTVSPost2010PropOp42
 70
     1
102
RTVSPost2010Prop43
 90
        3
102
RTVSPost2010PropOp43
 70
     1
102
RTVSPost2010Prop44ColorIndex
 90
        5
102
RTVSPost2010Prop44ColorRGB
 90
      255
102
RTVSPost2010PropOp44
 70
     1
102
RTVSPost2010Prop45
280
     0
102
RTVSPost2010PropOp45
 70
     1
102
RTVSPost2010Prop46
 90
       50
102
RTVSPost2010PropOp46
 70
     1
102
RTVSPost2010Prop47
 90
       50
102
RTVSPost2010PropOp47
 70
     1
102
RTVSPost2010Prop48
 90
       50
102
RTVSPost2010PropOp48
 70
     1
102
RTVSPost2010Prop49
280
     0
102
RTVSPost2010PropOp49
 70
     1
102
RTVSPost2010Prop50
 90
       50
102
RTVSPost2010PropOp50
 70
     1
102
RTVSPost2010Prop51ColorIndex
 90
      256
102
RTVSPost2010Prop51ColorRGB
 90
-16777216
102
RTVSPost2010PropOp51
 70
     0
102
RTVSPost2010Prop52
140
1.0
102
RTVSPost2010PropOp52
 70
     0
102
RTVSPost2010Prop53
 90
        2
102
RTVSPost2010PropOp53
 70
     1
102
RTVSPost2010Prop54
  1
strokes_ogs.tif
102
RTVSPost2010PropOp54
 70
     1
102
RTVSPost2010Prop55
280
     0
102
RTVSPost2010PropOp55
 70
     1
102
RTVSPost2010Prop56
140
1.0
102
RTVSPost2010PropOp56
 70
     1
102
RTVSPost2010Prop57
140
1.0
102
RTVSPost2010PropOp57
 70
     1
102
RTVSPropertyOp0
 70
     1
102
RTVSPropertyOp1
 70
     1
102
RTVSPropertyOp2
 70
     1
102
RTVSPropertyOp3
 70
     1
102
RTVSPropertyOp4
 70
     1
102
RTVSPropertyOp5
 70
     1
102
RTVSPropertyOp6
 70
     1
102
RTVSPropertyOp7
 70
     1
102
RTVSPropertyOp8
 70
     1
102
RTVSPropertyOp9
 70
     1
102
RTVSPropertyOp10
 70
     1
102
RTVSPropertyOp11
 70
     1
102
RTVSPropertyOp12
 70
     1
102
RTVSPropertyOp13
 70
     1
102
RTVSPropertyOp14
 70
     1
102
RTVSPropertyOp15
 70
     1
102
RTVSPropertyOp16
 70
     1
102
RTVSPropertyOp17
 70
     1
102
RTVSPropertyOp18
 70
     1
102
RTVSPropertyOp19
 70
     1
102
RTVSPropertyOp20
 70
     1
102
RTVSPropertyOp21
 70
     1
102
RTVSPropertyOp22
 70
     1
102
RTVSPropertyOp23
 70
     1
102
RTVSPropertyOp24
 70
     1
102
RTVSPropertyOp25
 70
     1
102
RTVSPropertyOp26
 70
     1
102
RTVSPropertyOp27
 70
     1
102
RTVSPropertyOp28
 70
     1
102
RTVSPropertyOp29
 70
     1
102
RTVSPropertyOp30
 70
     1
102
RTVSPropertyOp31
 70
     1
102
RTVSPropertyOp32
 70
     1
102
RTVSPropertyOp33
 70
     1
102
RTVSPropertyOp34
 70
     1
102
RTVSPropertyOp35
 70
     1
102
RTVSPropertyOp36
 70
     1
102
RTVSPropertyOp37
 70
     1
102
RTVSPropertyOp38
 70
     1
102
RTVSPropertyOp39
 70
     1
102
RTVSPropertyOp40
 70
     1
102
RTVSPropertyOp41
 70
     1
102
RTVSPropertyOp42
 70
     1
102
RTVSPropertyOp43
 70
     1
102
RTVSPropertyOp44
 70
     1
102
RTVSPropertyOp45
 70
     1
102
RTVSPropertyOp46
 70
     1
102
RTVSPropertyOp47
 70
     1
102
RTVSPropertyOp48
 70
     1
102
RTVSPropertyOp49
 70
     1
102
RTVSPropertyOp50
 70
     1
102
RTVSPropertyOp51
 70
     0
102
RTVSPropertyOp52
 70
     0
102
RTVSPropertyOp53
 70
     1
102
RTVSPropertyOp54
 70
     1
102
RTVSPropertyOp55
 70
     1
102
RTVSPropertyOp56
 70
     1
102
RTVSPropertyOp57
 70
     1
102
RTVSPropertyOp58
 70
     1
102
RTVSPropertyOp59
 70
     1
102
RTVSPropertyOp60
 70
     1
102
RTVSPropertyOp61
 70
     1
102
RTVSPropertyOp62
 70
     1
  0
XRECORD
  5
6FD
102
{ACAD_REACTORS
330
6FC
102
}
330
6FC
100
AcDbXrecord
280
     1
102
RTVSPost2010Prop28
280
     0
102
RTVSPost2010PropOp28
 70
     1
102
RTVSPost2010Prop29
280
     1
102
RTVSPost2010PropOp29
 70
     1
102
RTVSPost2010Prop30
280
     1
102
RTVSPost2010PropOp30
 70
     1
102
RTVSPost2010Prop31
280
     0
102
RTVSPost2010PropOp31
 70
     1
102
RTVSPost2010Prop32
280
     0
102
RTVSPost2010PropOp32
 70
     1
102
RTVSPost2010Prop33
280
     0
102
RTVSPost2010PropOp33
 70
     1
102
RTVSPost2010Prop34
280
     0
102
RTVSPost2010PropOp34
 70
     1
102
RTVSPost2010Prop35
280
     0
102
RTVSPost2010PropOp35
 70
     1
102
RTVSPost2010Prop36
280
     0
102
RTVSPost2010PropOp36
 70
     1
102
RTVSPost2010Prop37
 90
       50
102
RTVSPost2010PropOp37
 70
     1
102
RTVSPost2010Prop38
140
0.0
102
RTVSPost2010PropOp38
 70
     1
102
RTVSPost2010Prop39
140
1.0
102
RTVSPost2010PropOp39
 70
     1
102
RTVSPost2010Prop40
 90
        0
102
RTVSPost2010PropOp40
 70
     1
102
RTVSPost2010Prop41ColorIndex
 90
       18
102
RTVSPost2010Prop41ColorRGB
 90
        0
102
RTVSPost2010PropOp41
 70
     1
102
RTVSPost2010Prop42
 90
       50
102
RTVSPost2010PropOp42
 70
     1
102
RTVSPost2010Prop43
 90
        3
102
RTVSPost2010PropOp43
 70
     1
102
RTVSPost2010Prop44ColorIndex
 90
        5
102
RTVSPost2010Prop44ColorRGB
 90
      255
102
RTVSPost2010PropOp44
 70
     1
102
RTVSPost2010Prop45
280
     0
102
RTVSPost2010PropOp45
 70
     1
102
RTVSPost2010Prop46
 90
       50
102
RTVSPost2010PropOp46
 70
     1
102
RTVSPost2010Prop47
 90
       50
102
RTVSPost2010PropOp47
 70
     1
102
RTVSPost2010Prop48
 90
       50
102
RTVSPost2010PropOp48
 70
     1
102
RTVSPost2010Prop49
280
     0
102
RTVSPost2010PropOp49
 70
     1
102
RTVSPost2010Prop50
 90
       50
102
RTVSPost2010PropOp50
 70
     1
102
RTVSPost2010Prop51ColorIndex
 90
      256
102
RTVSPost2010Prop51ColorRGB
 90
-16777216
102
RTVSPost2010PropOp51
 70
     0
102
RTVSPost2010Prop52
140
1.0
102
RTVSPost2010PropOp52
 70
     0
102
RTVSPost2010Prop53
 90
        2
102
RTVSPost2010PropOp53
 70
     1
102
RTVSPost2010Prop54
  1
strokes_ogs.tif
102
RTVSPost2010PropOp54
 70
     1
102
RTVSPost2010Prop55
280
     0
102
RTVSPost2010PropOp55
 70
     1
102
RTVSPost2010Prop56
140
1.0
102
RTVSPost2010PropOp56
 70
     1
102
RTVSPost2010Prop57
140
1.0
102
RTVSPost2010PropOp57
 70
     1
102
RTVSPropertyOp0
 70
     1
102
RTVSPropertyOp1
 70
     1
102
RTVSPropertyOp2
 70
     1
102
RTVSPropertyOp3
 70
     1
102
RTVSPropertyOp4
 70
     1
102
RTVSPropertyOp5
 70
     1
102
RTVSPropertyOp6
 70
     1
102
RTVSPropertyOp7
 70
     1
102
RTVSPropertyOp8
 70
     1
102
RTVSPropertyOp9
 70
     1
102
RTVSPropertyOp10
 70
     1
102
RTVSPropertyOp11
 70
     1
102
RTVSPropertyOp12
 70
     1
102
RTVSPropertyOp13
 70
     1
102
RTVSPropertyOp14
 70
     1
102
RTVSPropertyOp15
 70
     1
102
RTVSPropertyOp16
 70
     1
102
RTVSPropertyOp17
 70
     1
102
RTVSPropertyOp18
 70
     1
102
RTVSPropertyOp19
 70
     1
102
RTVSPropertyOp20
 70
     1
102
RTVSPropertyOp21
 70
     1
102
RTVSPropertyOp22
 70
     1
102
RTVSPropertyOp23
 70
     1
102
RTVSPropertyOp24
 70
     1
102
RTVSPropertyOp25
 70
     1
102
RTVSPropertyOp26
 70
     1
102
RTVSPropertyOp27
 70
     1
102
RTVSPropertyOp28
 70
     1
102
RTVSPropertyOp29
 70
     1
102
RTVSPropertyOp30
 70
     1
102
RTVSPropertyOp31
 70
     1
102
RTVSPropertyOp32
 70
     1
102
RTVSPropertyOp33
 70
     1
102
RTVSPropertyOp34
 70
     1
102
RTVSPropertyOp35
 70
     1
102
RTVSPropertyOp36
 70
     1
102
RTVSPropertyOp37
 70
     1
102
RTVSPropertyOp38
 70
     1
102
RTVSPropertyOp39
 70
     1
102
RTVSPropertyOp40
 70
     1
102
RTVSPropertyOp41
 70
     1
102
RTVSPropertyOp42
 70
     1
102
RTVSPropertyOp43
 70
     1
102
RTVSPropertyOp44
 70
     1
102
RTVSPropertyOp45
 70
     1
102
RTVSPropertyOp46
 70
     1
102
RTVSPropertyOp47
 70
     1
102
RTVSPropertyOp48
 70
     1
102
RTVSPropertyOp49
 70
     1
102
RTVSPropertyOp50
 70
     1
102
RTVSPropertyOp51
 70
     0
102
RTVSPropertyOp52
 70
     0
102
RTVSPropertyOp53
 70
     1
102
RTVSPropertyOp54
 70
     1
102
RTVSPropertyOp55
 70
     1
102
RTVSPropertyOp56
 70
     1
102
RTVSPropertyOp57
 70
     1
102
RTVSPropertyOp58
 70
     1
102
RTVSPropertyOp59
 70
     1
102
RTVSPropertyOp60
 70
     1
102
RTVSPropertyOp61
 70
     1
102
RTVSPropertyOp62
 70
     1
  0
XRECORD
  5
6FF
102
{ACAD_REACTORS
330
6FE
102
}
330
6FE
100
AcDbXrecord
280
     1
102
RTVSPost2010Prop28
280
     0
102
RTVSPost2010PropOp28
 70
     1
102
RTVSPost2010Prop29
280
     1
102
RTVSPost2010PropOp29
 70
     1
102
RTVSPost2010Prop30
280
     1
102
RTVSPost2010PropOp30
 70
     1
102
RTVSPost2010Prop31
280
     0
102
RTVSPost2010PropOp31
 70
     1
102
RTVSPost2010Prop32
280
     0
102
RTVSPost2010PropOp32
 70
     1
102
RTVSPost2010Prop33
280
     0
102
RTVSPost2010PropOp33
 70
     1
102
RTVSPost2010Prop34
280
     0
102
RTVSPost2010PropOp34
 70
     1
102
RTVSPost2010Prop35
280
     0
102
RTVSPost2010PropOp35
 70
     1
102
RTVSPost2010Prop36
280
     0
102
RTVSPost2010PropOp36
 70
     1
102
RTVSPost2010Prop37
 90
       50
102
RTVSPost2010PropOp37
 70
     1
102
RTVSPost2010Prop38
140
0.0
102
RTVSPost2010PropOp38
 70
     1
102
RTVSPost2010Prop39
140
1.0
102
RTVSPost2010PropOp39
 70
     1
102
RTVSPost2010Prop40
 90
        0
102
RTVSPost2010PropOp40
 70
     1
102
RTVSPost2010Prop41ColorIndex
 90
       18
102
RTVSPost2010Prop41ColorRGB
 90
        0
102
RTVSPost2010PropOp41
 70
     1
102
RTVSPost2010Prop42
 90
       50
102
RTVSPost2010PropOp42
 70
     1
102
RTVSPost2010Prop43
 90
        3
102
RTVSPost2010PropOp43
 70
     1
102
RTVSPost2010Prop44ColorIndex
 90
        5
102
RTVSPost2010Prop44ColorRGB
 90
      255
102
RTVSPost2010PropOp44
 70
     1
102
RTVSPost2010Prop45
280
     0
102
RTVSPost2010PropOp45
 70
     1
102
RTVSPost2010Prop46
 90
       50
102
RTVSPost2010PropOp46
 70
     1
102
RTVSPost2010Prop47
 90
       50
102
RTVSPost2010PropOp47
 70
     1
102
RTVSPost2010Prop48
 90
       50
102
RTVSPost2010PropOp48
 70
     1
102
RTVSPost2010Prop49
280
     0
102
RTVSPost2010PropOp49
 70
     1
102
RTVSPost2010Prop50
 90
       50
102
RTVSPost2010PropOp50
 70
     1
102
RTVSPost2010Prop51ColorIndex
 90
      256
102
RTVSPost2010Prop51ColorRGB
 90
-16777216
102
RTVSPost2010PropOp51
 70
     0
102
RTVSPost2010Prop52
140
1.0
102
RTVSPost2010PropOp52
 70
     0
102
RTVSPost2010Prop53
 90
        2
102
RTVSPost2010PropOp53
 70
     1
102
RTVSPost2010Prop54
  1
strokes_ogs.tif
102
RTVSPost2010PropOp54
 70
     1
102
RTVSPost2010Prop55
280
     0
102
RTVSPost2010PropOp55
 70
     1
102
RTVSPost2010Prop56
140
1.0
102
RTVSPost2010PropOp56
 70
     1
102
RTVSPost2010Prop57
140
1.0
102
RTVSPost2010PropOp57
 70
     1
102
RTVSPropertyOp0
 70
     1
102
RTVSPropertyOp1
 70
     1
102
RTVSPropertyOp2
 70
     1
102
RTVSPropertyOp3
 70
     1
102
RTVSPropertyOp4
 70
     1
102
RTVSPropertyOp5
 70
     1
102
RTVSPropertyOp6
 70
     1
102
RTVSPropertyOp7
 70
     1
102
RTVSPropertyOp8
 70
     1
102
RTVSPropertyOp9
 70
     1
102
RTVSPropertyOp10
 70
     1
102
RTVSPropertyOp11
 70
     1
102
RTVSPropertyOp12
 70
     1
102
RTVSPropertyOp13
 70
     1
102
RTVSPropertyOp14
 70
     1
102
RTVSPropertyOp15
 70
     1
102
RTVSPropertyOp16
 70
     1
102
RTVSPropertyOp17
 70
     1
102
RTVSPropertyOp18
 70
     1
102
RTVSPropertyOp19
 70
     1
102
RTVSPropertyOp20
 70
     1
102
RTVSPropertyOp21
 70
     1
102
RTVSPropertyOp22
 70
     1
102
RTVSPropertyOp23
 70
     1
102
RTVSPropertyOp24
 70
     1
102
RTVSPropertyOp25
 70
     1
102
RTVSPropertyOp26
 70
     1
102
RTVSPropertyOp27
 70
     1
102
RTVSPropertyOp28
 70
     1
102
RTVSPropertyOp29
 70
     1
102
RTVSPropertyOp30
 70
     1
102
RTVSPropertyOp31
 70
     1
102
RTVSPropertyOp32
 70
     1
102
RTVSPropertyOp33
 70
     1
102
RTVSPropertyOp34
 70
     1
102
RTVSPropertyOp35
 70
     1
102
RTVSPropertyOp36
 70
     1
102
RTVSPropertyOp37
 70
     1
102
RTVSPropertyOp38
 70
     1
102
RTVSPropertyOp39
 70
     1
102
RTVSPropertyOp40
 70
     1
102
RTVSPropertyOp41
 70
     1
102
RTVSPropertyOp42
 70
     1
102
RTVSPropertyOp43
 70
     1
102
RTVSPropertyOp44
 70
     1
102
RTVSPropertyOp45
 70
     1
102
RTVSPropertyOp46
 70
     1
102
RTVSPropertyOp47
 70
     1
102
RTVSPropertyOp48
 70
     1
102
RTVSPropertyOp49
 70
     1
102
RTVSPropertyOp50
 70
     1
102
RTVSPropertyOp51
 70
     0
102
RTVSPropertyOp52
 70
     0
102
RTVSPropertyOp53
 70
     1
102
RTVSPropertyOp54
 70
     1
102
RTVSPropertyOp55
 70
     1
102
RTVSPropertyOp56
 70
     1
102
RTVSPropertyOp57
 70
     1
102
RTVSPropertyOp58
 70
     1
102
RTVSPropertyOp59
 70
     1
102
RTVSPropertyOp60
 70
     1
102
RTVSPropertyOp61
 70
     1
102
RTVSPropertyOp62
 70
     1
  0
XRECORD
  5
701
102
{ACAD_REACTORS
330
700
102
}
330
700
100
AcDbXrecord
280
     1
102
RTVSPost2010Prop28
280
     0
102
RTVSPost2010PropOp28
 70
     1
102
RTVSPost2010Prop29
280
     1
102
RTVSPost2010PropOp29
 70
     1
102
RTVSPost2010Prop30
280
     1
102
RTVSPost2010PropOp30
 70
     1
102
RTVSPost2010Prop31
280
     0
102
RTVSPost2010PropOp31
 70
     1
102
RTVSPost2010Prop32
280
     0
102
RTVSPost2010PropOp32
 70
     1
102
RTVSPost2010Prop33
280
     0
102
RTVSPost2010PropOp33
 70
     1
102
RTVSPost2010Prop34
280
     0
102
RTVSPost2010PropOp34
 70
     1
102
RTVSPost2010Prop35
280
     0
102
RTVSPost2010PropOp35
 70
     1
102
RTVSPost2010Prop36
280
     0
102
RTVSPost2010PropOp36
 70
     1
102
RTVSPost2010Prop37
 90
       50
102
RTVSPost2010PropOp37
 70
     1
102
RTVSPost2010Prop38
140
0.0
102
RTVSPost2010PropOp38
 70
     1
102
RTVSPost2010Prop39
140
1.0
102
RTVSPost2010PropOp39
 70
     1
102
RTVSPost2010Prop40
 90
        0
102
RTVSPost2010PropOp40
 70
     1
102
RTVSPost2010Prop41ColorIndex
 90
       18
102
RTVSPost2010Prop41ColorRGB
 90
        0
102
RTVSPost2010PropOp41
 70
     1
102
RTVSPost2010Prop42
 90
       50
102
RTVSPost2010PropOp42
 70
     1
102
RTVSPost2010Prop43
 90
        3
102
RTVSPost2010PropOp43
 70
     1
102
RTVSPost2010Prop44ColorIndex
 90
        5
102
RTVSPost2010Prop44ColorRGB
 90
      255
102
RTVSPost2010PropOp44
 70
     1
102
RTVSPost2010Prop45
280
     0
102
RTVSPost2010PropOp45
 70
     1
102
RTVSPost2010Prop46
 90
       50
102
RTVSPost2010PropOp46
 70
     1
102
RTVSPost2010Prop47
 90
       50
102
RTVSPost2010PropOp47
 70
     1
102
RTVSPost2010Prop48
 90
       50
102
RTVSPost2010PropOp48
 70
     1
102
RTVSPost2010Prop49
280
     0
102
RTVSPost2010PropOp49
 70
     1
102
RTVSPost2010Prop50
 90
       50
102
RTVSPost2010PropOp50
 70
     1
102
RTVSPost2010Prop51ColorIndex
 90
      256
102
RTVSPost2010Prop51ColorRGB
 90
-16777216
102
RTVSPost2010PropOp51
 70
     0
102
RTVSPost2010Prop52
140
1.0
102
RTVSPost2010PropOp52
 70
     0
102
RTVSPost2010Prop53
 90
        2
102
RTVSPost2010PropOp53
 70
     1
102
RTVSPost2010Prop54
  1
strokes_ogs.tif
102
RTVSPost2010PropOp54
 70
     1
102
RTVSPost2010Prop55
280
     0
102
RTVSPost2010PropOp55
 70
     1
102
RTVSPost2010Prop56
140
1.0
102
RTVSPost2010PropOp56
 70
     1
102
RTVSPost2010Prop57
140
1.0
102
RTVSPost2010PropOp57
 70
     1
102
RTVSPropertyOp0
 70
     1
102
RTVSPropertyOp1
 70
     1
102
RTVSPropertyOp2
 70
     1
102
RTVSPropertyOp3
 70
     1
102
RTVSPropertyOp4
 70
     1
102
RTVSPropertyOp5
 70
     1
102
RTVSPropertyOp6
 70
     1
102
RTVSPropertyOp7
 70
     1
102
RTVSPropertyOp8
 70
     1
102
RTVSPropertyOp9
 70
     1
102
RTVSPropertyOp10
 70
     1
102
RTVSPropertyOp11
 70
     1
102
RTVSPropertyOp12
 70
     1
102
RTVSPropertyOp13
 70
     1
102
RTVSPropertyOp14
 70
     1
102
RTVSPropertyOp15
 70
     1
102
RTVSPropertyOp16
 70
     1
102
RTVSPropertyOp17
 70
     1
102
RTVSPropertyOp18
 70
     1
102
RTVSPropertyOp19
 70
     1
102
RTVSPropertyOp20
 70
     1
102
RTVSPropertyOp21
 70
     1
102
RTVSPropertyOp22
 70
     1
102
RTVSPropertyOp23
 70
     1
102
RTVSPropertyOp24
 70
     1
102
RTVSPropertyOp25
 70
     1
102
RTVSPropertyOp26
 70
     1
102
RTVSPropertyOp27
 70
     1
102
RTVSPropertyOp28
 70
     1
102
RTVSPropertyOp29
 70
     1
102
RTVSPropertyOp30
 70
     1
102
RTVSPropertyOp31
 70
     1
102
RTVSPropertyOp32
 70
     1
102
RTVSPropertyOp33
 70
     1
102
RTVSPropertyOp34
 70
     1
102
RTVSPropertyOp35
 70
     1
102
RTVSPropertyOp36
 70
     1
102
RTVSPropertyOp37
 70
     1
102
RTVSPropertyOp38
 70
     1
102
RTVSPropertyOp39
 70
     1
102
RTVSPropertyOp40
 70
     1
102
RTVSPropertyOp41
 70
     1
102
RTVSPropertyOp42
 70
     1
102
RTVSPropertyOp43
 70
     1
102
RTVSPropertyOp44
 70
     1
102
RTVSPropertyOp45
 70
     1
102
RTVSPropertyOp46
 70
     1
102
RTVSPropertyOp47
 70
     1
102
RTVSPropertyOp48
 70
     1
102
RTVSPropertyOp49
 70
     1
102
RTVSPropertyOp50
 70
     1
102
RTVSPropertyOp51
 70
     0
102
RTVSPropertyOp52
 70
     0
102
RTVSPropertyOp53
 70
     1
102
RTVSPropertyOp54
 70
     1
102
RTVSPropertyOp55
 70
     1
102
RTVSPropertyOp56
 70
     1
102
RTVSPropertyOp57
 70
     1
102
RTVSPropertyOp58
 70
     1
102
RTVSPropertyOp59
 70
     1
102
RTVSPropertyOp60
 70
     1
102
RTVSPropertyOp61
 70
     1
102
RTVSPropertyOp62
 70
     1
  0
XRECORD
  5
709
102
{ACAD_REACTORS
330
708
102
}
330
708
100
AcDbXrecord
280
     1
102
RTVSPost2010Prop28
280
     0
102
RTVSPost2010PropOp28
 70
     1
102
RTVSPost2010Prop29
280
     1
102
RTVSPost2010PropOp29
 70
     1
102
RTVSPost2010Prop30
280
     1
102
RTVSPost2010PropOp30
 70
     1
102
RTVSPost2010Prop31
280
     0
102
RTVSPost2010PropOp31
 70
     1
102
RTVSPost2010Prop32
280
     0
102
RTVSPost2010PropOp32
 70
     1
102
RTVSPost2010Prop33
280
     0
102
RTVSPost2010PropOp33
 70
     1
102
RTVSPost2010Prop34
280
     0
102
RTVSPost2010PropOp34
 70
     1
102
RTVSPost2010Prop35
280
     0
102
RTVSPost2010PropOp35
 70
     1
102
RTVSPost2010Prop36
280
     0
102
RTVSPost2010PropOp36
 70
     1
102
RTVSPost2010Prop37
 90
       50
102
RTVSPost2010PropOp37
 70
     1
102
RTVSPost2010Prop38
140
0.0
102
RTVSPost2010PropOp38
 70
     1
102
RTVSPost2010Prop39
140
1.0
102
RTVSPost2010PropOp39
 70
     1
102
RTVSPost2010Prop40
 90
        0
102
RTVSPost2010PropOp40
 70
     1
102
RTVSPost2010Prop41ColorIndex
 90
       18
102
RTVSPost2010Prop41ColorRGB
 90
        0
102
RTVSPost2010PropOp41
 70
     1
102
RTVSPost2010Prop42
 90
       50
102
RTVSPost2010PropOp42
 70
     1
102
RTVSPost2010Prop43
 90
        3
102
RTVSPost2010PropOp43
 70
     1
102
RTVSPost2010Prop44ColorIndex
 90
        5
102
RTVSPost2010Prop44ColorRGB
 90
      255
102
RTVSPost2010PropOp44
 70
     1
102
RTVSPost2010Prop45
280
     0
102
RTVSPost2010PropOp45
 70
     1
102
RTVSPost2010Prop46
 90
       50
102
RTVSPost2010PropOp46
 70
     1
102
RTVSPost2010Prop47
 90
       50
102
RTVSPost2010PropOp47
 70
     1
102
RTVSPost2010Prop48
 90
       50
102
RTVSPost2010PropOp48
 70
     1
102
RTVSPost2010Prop49
280
     0
102
RTVSPost2010PropOp49
 70
     1
102
RTVSPost2010Prop50
 90
       50
102
RTVSPost2010PropOp50
 70
     1
102
RTVSPost2010Prop51ColorIndex
 90
      256
102
RTVSPost2010Prop51ColorRGB
 90
-16777216
102
RTVSPost2010PropOp51
 70
     0
102
RTVSPost2010Prop52
140
1.0
102
RTVSPost2010PropOp52
 70
     0
102
RTVSPost2010Prop53
 90
        2
102
RTVSPost2010PropOp53
 70
     1
102
RTVSPost2010Prop54
  1
strokes_ogs.tif
102
RTVSPost2010PropOp54
 70
     1
102
RTVSPost2010Prop55
280
     0
102
RTVSPost2010PropOp55
 70
     1
102
RTVSPost2010Prop56
140
1.0
102
RTVSPost2010PropOp56
 70
     1
102
RTVSPost2010Prop57
140
1.0
102
RTVSPost2010PropOp57
 70
     1
102
RTVSPropertyOp0
 70
     1
102
RTVSPropertyOp1
 70
     1
102
RTVSPropertyOp2
 70
     1
102
RTVSPropertyOp3
 70
     1
102
RTVSPropertyOp4
 70
     1
102
RTVSPropertyOp5
 70
     1
102
RTVSPropertyOp6
 70
     1
102
RTVSPropertyOp7
 70
     1
102
RTVSPropertyOp8
 70
     1
102
RTVSPropertyOp9
 70
     1
102
RTVSPropertyOp10
 70
     1
102
RTVSPropertyOp11
 70
     1
102
RTVSPropertyOp12
 70
     1
102
RTVSPropertyOp13
 70
     1
102
RTVSPropertyOp14
 70
     1
102
RTVSPropertyOp15
 70
     1
102
RTVSPropertyOp16
 70
     1
102
RTVSPropertyOp17
 70
     1
102
RTVSPropertyOp18
 70
     1
102
RTVSPropertyOp19
 70
     1
102
RTVSPropertyOp20
 70
     1
102
RTVSPropertyOp21
 70
     1
102
RTVSPropertyOp22
 70
     1
102
RTVSPropertyOp23
 70
     1
102
RTVSPropertyOp24
 70
     1
102
RTVSPropertyOp25
 70
     1
102
RTVSPropertyOp26
 70
     1
102
RTVSPropertyOp27
 70
     1
102
RTVSPropertyOp28
 70
     1
102
RTVSPropertyOp29
 70
     1
102
RTVSPropertyOp30
 70
     1
102
RTVSPropertyOp31
 70
     1
102
RTVSPropertyOp32
 70
     1
102
RTVSPropertyOp33
 70
     1
102
RTVSPropertyOp34
 70
     1
102
RTVSPropertyOp35
 70
     1
102
RTVSPropertyOp36
 70
     1
102
RTVSPropertyOp37
 70
     1
102
RTVSPropertyOp38
 70
     1
102
RTVSPropertyOp39
 70
     1
102
RTVSPropertyOp40
 70
     1
102
RTVSPropertyOp41
 70
     1
102
RTVSPropertyOp42
 70
     1
102
RTVSPropertyOp43
 70
     1
102
RTVSPropertyOp44
 70
     1
102
RTVSPropertyOp45
 70
     1
102
RTVSPropertyOp46
 70
     1
102
RTVSPropertyOp47
 70
     1
102
RTVSPropertyOp48
 70
     1
102
RTVSPropertyOp49
 70
     1
102
RTVSPropertyOp50
 70
     1
102
RTVSPropertyOp51
 70
     0
102
RTVSPropertyOp52
 70
     0
102
RTVSPropertyOp53
 70
     1
102
RTVSPropertyOp54
 70
     1
102
RTVSPropertyOp55
 70
     1
102
RTVSPropertyOp56
 70
     1
102
RTVSPropertyOp57
 70
     1
102
RTVSPropertyOp58
 70
     1
102
RTVSPropertyOp59
 70
     1
102
RTVSPropertyOp60
 70
     1
102
RTVSPropertyOp61
 70
     1
102
RTVSPropertyOp62
 70
     1
  0
XRECORD
  5
725
102
{ACAD_REACTORS
330
724
102
}
330
724
100
AcDbXrecord
280
     1
102
RTVSPost2010Prop28
280
     0
102
RTVSPost2010PropOp28
 70
     1
102
RTVSPost2010Prop29
280
     1
102
RTVSPost2010PropOp29
 70
     1
102
RTVSPost2010Prop30
280
     1
102
RTVSPost2010PropOp30
 70
     1
102
RTVSPost2010Prop31
280
     0
102
RTVSPost2010PropOp31
 70
     1
102
RTVSPost2010Prop32
280
     0
102
RTVSPost2010PropOp32
 70
     1
102
RTVSPost2010Prop33
280
     0
102
RTVSPost2010PropOp33
 70
     1
102
RTVSPost2010Prop34
280
     0
102
RTVSPost2010PropOp34
 70
     1
102
RTVSPost2010Prop35
280
     0
102
RTVSPost2010PropOp35
 70
     1
102
RTVSPost2010Prop36
280
     0
102
RTVSPost2010PropOp36
 70
     1
102
RTVSPost2010Prop37
 90
       50
102
RTVSPost2010PropOp37
 70
     0
102
RTVSPost2010Prop38
140
0.0
102
RTVSPost2010PropOp38
 70
     0
102
RTVSPost2010Prop39
140
1.0
102
RTVSPost2010PropOp39
 70
     0
102
RTVSPost2010Prop40
 90
        0
102
RTVSPost2010PropOp40
 70
     0
102
RTVSPost2010Prop41ColorIndex
 90
       18
102
RTVSPost2010Prop41ColorRGB
 90
        0
102
RTVSPost2010PropOp41
 70
     0
102
RTVSPost2010Prop42
 90
       50
102
RTVSPost2010PropOp42
 70
     0
102
RTVSPost2010Prop43
 90
        3
102
RTVSPost2010PropOp43
 70
     0
102
RTVSPost2010Prop44ColorIndex
 90
        5
102
RTVSPost2010Prop44ColorRGB
 90
      255
102
RTVSPost2010PropOp44
 70
     0
102
RTVSPost2010Prop45
280
     0
102
RTVSPost2010PropOp45
 70
     1
102
RTVSPost2010Prop46
 90
       50
102
RTVSPost2010PropOp46
 70
     0
102
RTVSPost2010Prop47
 90
       50
102
RTVSPost2010PropOp47
 70
     0
102
RTVSPost2010Prop48
 90
       50
102
RTVSPost2010PropOp48
 70
     0
102
RTVSPost2010Prop49
280
     0
102
RTVSPost2010PropOp49
 70
     1
102
RTVSPost2010Prop50
 90
       50
102
RTVSPost2010PropOp50
 70
     0
102
RTVSPost2010Prop51ColorIndex
 90
      256
102
RTVSPost2010Prop51ColorRGB
 90
-16777216
102
RTVSPost2010PropOp51
 70
     0
102
RTVSPost2010Prop52
140
1.0
102
RTVSPost2010PropOp52
 70
     0
102
RTVSPost2010Prop53
 90
        2
102
RTVSPost2010PropOp53
 70
     0
102
RTVSPost2010Prop54
  1
strokes_ogs.tif
102
RTVSPost2010PropOp54
 70
     0
102
RTVSPost2010Prop55
280
     0
102
RTVSPost2010PropOp55
 70
     1
102
RTVSPost2010Prop56
140
1.0
102
RTVSPost2010PropOp56
 70
     0
102
RTVSPost2010Prop57
140
1.0
102
RTVSPost2010PropOp57
 70
     0
102
RTVSPropertyOp0
 70
     0
102
RTVSPropertyOp1
 70
     0
102
RTVSPropertyOp2
 70
     0
102
RTVSPropertyOp3
 70
     0
102
RTVSPropertyOp4
 70
     0
102
RTVSPropertyOp5
 70
     0
102
RTVSPropertyOp6
 70
     0
102
RTVSPropertyOp7
 70
     0
102
RTVSPropertyOp8
 70
     0
102
RTVSPropertyOp9
 70
     0
102
RTVSPropertyOp10
 70
     0
102
RTVSPropertyOp11
 70
     0
102
RTVSPropertyOp12
 70
     0
102
RTVSPropertyOp13
 70
     0
102
RTVSPropertyOp14
 70
     2
102
RTVSPropertyOp15
 70
     0
102
RTVSPropertyOp16
 70
     0
102
RTVSPropertyOp17
 70
     0
102
RTVSPropertyOp18
 70
     0
102
RTVSPropertyOp19
 70
     0
102
RTVSPropertyOp20
 70
     0
102
RTVSPropertyOp21
 70
     0
102
RTVSPropertyOp22
 70
     0
102
RTVSPropertyOp23
 70
     0
102
RTVSPropertyOp24
 70
     0
102
RTVSPropertyOp25
 70
     0
102
RTVSPropertyOp26
 70
     0
102
RTVSPropertyOp27
 70
     0
102
RTVSPropertyOp28
 70
     1
102
RTVSPropertyOp29
 70
     1
102
RTVSPropertyOp30
 70
     1
102
RTVSPropertyOp31
 70
     1
102
RTVSPropertyOp32
 70
     1
102
RTVSPropertyOp33
 70
     1
102
RTVSPropertyOp34
 70
     1
102
RTVSPropertyOp35
 70
     1
102
RTVSPropertyOp36
 70
     1
102
RTVSPropertyOp37
 70
     0
102
RTVSPropertyOp38
 70
     0
102
RTVSPropertyOp39
 70
     0
102
RTVSPropertyOp40
 70
     0
102
RTVSPropertyOp41
 70
     0
102
RTVSPropertyOp42
 70
     0
102
RTVSPropertyOp43
 70
     0
102
RTVSPropertyOp44
 70
     0
102
RTVSPropertyOp45
 70
     1
102
RTVSPropertyOp46
 70
     0
102
RTVSPropertyOp47
 70
     0
102
RTVSPropertyOp48
 70
     0
102
RTVSPropertyOp49
 70
     1
102
RTVSPropertyOp50
 70
     0
102
RTVSPropertyOp51
 70
     0
102
RTVSPropertyOp52
 70
     0
102
RTVSPropertyOp53
 70
     0
102
RTVSPropertyOp54
 70
     0
102
RTVSPropertyOp55
 70
     1
102
RTVSPropertyOp56
 70
     0
102
RTVSPropertyOp57
 70
     0
102
RTVSPropertyOp58
 70
     0
102
RTVSPropertyOp59
 70
     0
102
RTVSPropertyOp60
 70
     0
102
RTVSPropertyOp61
 70
     0
102
RTVSPropertyOp62
 70
     0
  0
XRECORD
  5
715
102
{ACAD_REACTORS
330
714
102
}
330
714
100
AcDbXrecord
280
     1
102
RTVSPost2010Prop28
280
     0
102
RTVSPost2010PropOp28
 70
     1
102
RTVSPost2010Prop29
280
     1
102
RTVSPost2010PropOp29
 70
     1
102
RTVSPost2010Prop30
280
     1
102
RTVSPost2010PropOp30
 70
     1
102
RTVSPost2010Prop31
280
     0
102
RTVSPost2010PropOp31
 70
     1
102
RTVSPost2010Prop32
280
     0
102
RTVSPost2010PropOp32
 70
     1
102
RTVSPost2010Prop33
280
     0
102
RTVSPost2010PropOp33
 70
     1
102
RTVSPost2010Prop34
280
     0
102
RTVSPost2010PropOp34
 70
     1
102
RTVSPost2010Prop35
280
     0
102
RTVSPost2010PropOp35
 70
     1
102
RTVSPost2010Prop36
280
     0
102
RTVSPost2010PropOp36
 70
     1
102
RTVSPost2010Prop37
 90
       50
102
RTVSPost2010PropOp37
 70
     1
102
RTVSPost2010Prop38
140
0.0
102
RTVSPost2010PropOp38
 70
     1
102
RTVSPost2010Prop39
140
1.0
102
RTVSPost2010PropOp39
 70
     1
102
RTVSPost2010Prop40
 90
        0
102
RTVSPost2010PropOp40
 70
     1
102
RTVSPost2010Prop41ColorIndex
 90
       18
102
RTVSPost2010Prop41ColorRGB
 90
        0
102
RTVSPost2010PropOp41
 70
     1
102
RTVSPost2010Prop42
 90
       50
102
RTVSPost2010PropOp42
 70
     1
102
RTVSPost2010Prop43
 90
        3
102
RTVSPost2010PropOp43
 70
     1
102
RTVSPost2010Prop44ColorIndex
 90
        5
102
RTVSPost2010Prop44ColorRGB
 90
      255
102
RTVSPost2010PropOp44
 70
     1
102
RTVSPost2010Prop45
280
     0
102
RTVSPost2010PropOp45
 70
     1
102
RTVSPost2010Prop46
 90
       50
102
RTVSPost2010PropOp46
 70
     1
102
RTVSPost2010Prop47
 90
       50
102
RTVSPost2010PropOp47
 70
     1
102
RTVSPost2010Prop48
 90
       50
102
RTVSPost2010PropOp48
 70
     1
102
RTVSPost2010Prop49
280
     0
102
RTVSPost2010PropOp49
 70
     1
102
RTVSPost2010Prop50
 90
       50
102
RTVSPost2010PropOp50
 70
     1
102
RTVSPost2010Prop51ColorIndex
 90
      256
102
RTVSPost2010Prop51ColorRGB
 90
-16777216
102
RTVSPost2010PropOp51
 70
     0
102
RTVSPost2010Prop52
140
1.0
102
RTVSPost2010PropOp52
 70
     0
102
RTVSPost2010Prop53
 90
        2
102
RTVSPost2010PropOp53
 70
     1
102
RTVSPost2010Prop54
  1
strokes_ogs.tif
102
RTVSPost2010PropOp54
 70
     1
102
RTVSPost2010Prop55
280
     0
102
RTVSPost2010PropOp55
 70
     1
102
RTVSPost2010Prop56
140
1.0
102
RTVSPost2010PropOp56
 70
     1
102
RTVSPost2010Prop57
140
1.0
102
RTVSPost2010PropOp57
 70
     1
102
RTVSPropertyOp0
 70
     1
102
RTVSPropertyOp1
 70
     1
102
RTVSPropertyOp2
 70
     1
102
RTVSPropertyOp3
 70
     1
102
RTVSPropertyOp4
 70
     1
102
RTVSPropertyOp5
 70
     1
102
RTVSPropertyOp6
 70
     1
102
RTVSPropertyOp7
 70
     1
102
RTVSPropertyOp8
 70
     1
102
RTVSPropertyOp9
 70
     1
102
RTVSPropertyOp10
 70
     1
102
RTVSPropertyOp11
 70
     1
102
RTVSPropertyOp12
 70
     1
102
RTVSPropertyOp13
 70
     1
102
RTVSPropertyOp14
 70
     1
102
RTVSPropertyOp15
 70
     1
102
RTVSPropertyOp16
 70
     1
102
RTVSPropertyOp17
 70
     1
102
RTVSPropertyOp18
 70
     1
102
RTVSPropertyOp19
 70
     1
102
RTVSPropertyOp20
 70
     1
102
RTVSPropertyOp21
 70
     1
102
RTVSPropertyOp22
 70
     1
102
RTVSPropertyOp23
 70
     1
102
RTVSPropertyOp24
 70
     1
102
RTVSPropertyOp25
 70
     1
102
RTVSPropertyOp26
 70
     1
102
RTVSPropertyOp27
 70
     1
102
RTVSPropertyOp28
 70
     1
102
RTVSPropertyOp29
 70
     1
102
RTVSPropertyOp30
 70
     1
102
RTVSPropertyOp31
 70
     1
102
RTVSPropertyOp32
 70
     1
102
RTVSPropertyOp33
 70
     1
102
RTVSPropertyOp34
 70
     1
102
RTVSPropertyOp35
 70
     1
102
RTVSPropertyOp36
 70
     1
102
RTVSPropertyOp37
 70
     1
102
RTVSPropertyOp38
 70
     1
102
RTVSPropertyOp39
 70
     1
102
RTVSPropertyOp40
 70
     1
102
RTVSPropertyOp41
 70
     1
102
RTVSPropertyOp42
 70
     1
102
RTVSPropertyOp43
 70
     1
102
RTVSPropertyOp44
 70
     1
102
RTVSPropertyOp45
 70
     1
102
RTVSPropertyOp46
 70
     1
102
RTVSPropertyOp47
 70
     1
102
RTVSPropertyOp48
 70
     1
102
RTVSPropertyOp49
 70
     1
102
RTVSPropertyOp50
 70
     1
102
RTVSPropertyOp51
 70
     0
102
RTVSPropertyOp52
 70
     0
102
RTVSPropertyOp53
 70
     1
102
RTVSPropertyOp54
 70
     1
102
RTVSPropertyOp55
 70
     1
102
RTVSPropertyOp56
 70
     1
102
RTVSPropertyOp57
 70
     1
102
RTVSPropertyOp58
 70
     1
102
RTVSPropertyOp59
 70
     1
102
RTVSPropertyOp60
 70
     1
102
RTVSPropertyOp61
 70
     1
102
RTVSPropertyOp62
 70
     1
  0
XRECORD
  5
727
102
{ACAD_REACTORS
330
726
102
}
330
726
100
AcDbXrecord
280
     1
102
RTVSPost2010Prop28
280
     0
102
RTVSPost2010PropOp28
 70
     1
102
RTVSPost2010Prop29
280
     1
102
RTVSPost2010PropOp29
 70
     1
102
RTVSPost2010Prop30
280
     1
102
RTVSPost2010PropOp30
 70
     1
102
RTVSPost2010Prop31
280
     0
102
RTVSPost2010PropOp31
 70
     1
102
RTVSPost2010Prop32
280
     0
102
RTVSPost2010PropOp32
 70
     1
102
RTVSPost2010Prop33
280
     0
102
RTVSPost2010PropOp33
 70
     1
102
RTVSPost2010Prop34
280
     0
102
RTVSPost2010PropOp34
 70
     1
102
RTVSPost2010Prop35
280
     0
102
RTVSPost2010PropOp35
 70
     1
102
RTVSPost2010Prop36
280
     0
102
RTVSPost2010PropOp36
 70
     1
102
RTVSPost2010Prop37
 90
       50
102
RTVSPost2010PropOp37
 70
     0
102
RTVSPost2010Prop38
140
0.0
102
RTVSPost2010PropOp38
 70
     0
102
RTVSPost2010Prop39
140
1.0
102
RTVSPost2010PropOp39
 70
     0
102
RTVSPost2010Prop40
 90
        0
102
RTVSPost2010PropOp40
 70
     0
102
RTVSPost2010Prop41ColorIndex
 90
       18
102
RTVSPost2010Prop41ColorRGB
 90
        0
102
RTVSPost2010PropOp41
 70
     0
102
RTVSPost2010Prop42
 90
       50
102
RTVSPost2010PropOp42
 70
     0
102
RTVSPost2010Prop43
 90
        3
102
RTVSPost2010PropOp43
 70
     0
102
RTVSPost2010Prop44ColorIndex
 90
        5
102
RTVSPost2010Prop44ColorRGB
 90
      255
102
RTVSPost2010PropOp44
 70
     0
102
RTVSPost2010Prop45
280
     0
102
RTVSPost2010PropOp45
 70
     1
102
RTVSPost2010Prop46
 90
       50
102
RTVSPost2010PropOp46
 70
     0
102
RTVSPost2010Prop47
 90
       50
102
RTVSPost2010PropOp47
 70
     0
102
RTVSPost2010Prop48
 90
       50
102
RTVSPost2010PropOp48
 70
     0
102
RTVSPost2010Prop49
280
     0
102
RTVSPost2010PropOp49
 70
     1
102
RTVSPost2010Prop50
 90
       50
102
RTVSPost2010PropOp50
 70
     0
102
RTVSPost2010Prop51ColorIndex
 90
      256
102
RTVSPost2010Prop51ColorRGB
 90
-16777216
102
RTVSPost2010PropOp51
 70
     0
102
RTVSPost2010Prop52
140
1.0
102
RTVSPost2010PropOp52
 70
     0
102
RTVSPost2010Prop53
 90
        2
102
RTVSPost2010PropOp53
 70
     0
102
RTVSPost2010Prop54
  1
strokes_ogs.tif
102
RTVSPost2010PropOp54
 70
     0
102
RTVSPost2010Prop55
280
     0
102
RTVSPost2010PropOp55
 70
     1
102
RTVSPost2010Prop56
140
1.0
102
RTVSPost2010PropOp56
 70
     0
102
RTVSPost2010Prop57
140
1.0
102
RTVSPost2010PropOp57
 70
     0
102
RTVSPropertyOp0
 70
     0
102
RTVSPropertyOp1
 70
     0
102
RTVSPropertyOp2
 70
     0
102
RTVSPropertyOp3
 70
     0
102
RTVSPropertyOp4
 70
     0
102
RTVSPropertyOp5
 70
     0
102
RTVSPropertyOp6
 70
     0
102
RTVSPropertyOp7
 70
     0
102
RTVSPropertyOp8
 70
     0
102
RTVSPropertyOp9
 70
     0
102
RTVSPropertyOp10
 70
     0
102
RTVSPropertyOp11
 70
     0
102
RTVSPropertyOp12
 70
     0
102
RTVSPropertyOp13
 70
     0
102
RTVSPropertyOp14
 70
     2
102
RTVSPropertyOp15
 70
     0
102
RTVSPropertyOp16
 70
     0
102
RTVSPropertyOp17
 70
     0
102
RTVSPropertyOp18
 70
     0
102
RTVSPropertyOp19
 70
     0
102
RTVSPropertyOp20
 70
     0
102
RTVSPropertyOp21
 70
     0
102
RTVSPropertyOp22
 70
     0
102
RTVSPropertyOp23
 70
     0
102
RTVSPropertyOp24
 70
     0
102
RTVSPropertyOp25
 70
     0
102
RTVSPropertyOp26
 70
     0
102
RTVSPropertyOp27
 70
     0
102
RTVSPropertyOp28
 70
     1
102
RTVSPropertyOp29
 70
     1
102
RTVSPropertyOp30
 70
     1
102
RTVSPropertyOp31
 70
     1
102
RTVSPropertyOp32
 70
     1
102
RTVSPropertyOp33
 70
     1
102
RTVSPropertyOp34
 70
     1
102
RTVSPropertyOp35
 70
     1
102
RTVSPropertyOp36
 70
     1
102
RTVSPropertyOp37
 70
     0
102
RTVSPropertyOp38
 70
     0
102
RTVSPropertyOp39
 70
     0
102
RTVSPropertyOp40
 70
     0
102
RTVSPropertyOp41
 70
     0
102
RTVSPropertyOp42
 70
     0
102
RTVSPropertyOp43
 70
     0
102
RTVSPropertyOp44
 70
     0
102
RTVSPropertyOp45
 70
     1
102
RTVSPropertyOp46
 70
     0
102
RTVSPropertyOp47
 70
     0
102
RTVSPropertyOp48
 70
     0
102
RTVSPropertyOp49
 70
     1
102
RTVSPropertyOp50
 70
     0
102
RTVSPropertyOp51
 70
     0
102
RTVSPropertyOp52
 70
     0
102
RTVSPropertyOp53
 70
     0
102
RTVSPropertyOp54
 70
     0
102
RTVSPropertyOp55
 70
     1
102
RTVSPropertyOp56
 70
     0
102
RTVSPropertyOp57
 70
     0
102
RTVSPropertyOp58
 70
     0
102
RTVSPropertyOp59
 70
     0
102
RTVSPropertyOp60
 70
     0
102
RTVSPropertyOp61
 70
     0
102
RTVSPropertyOp62
 70
     0
  0
XRECORD
  5
70D
102
{ACAD_REACTORS
330
70C
102
}
330
70C
100
AcDbXrecord
280
     1
102
RTVSPost2010Prop28
280
     0
102
RTVSPost2010PropOp28
 70
     1
102
RTVSPost2010Prop29
280
     1
102
RTVSPost2010PropOp29
 70
     1
102
RTVSPost2010Prop30
280
     1
102
RTVSPost2010PropOp30
 70
     1
102
RTVSPost2010Prop31
280
     0
102
RTVSPost2010PropOp31
 70
     1
102
RTVSPost2010Prop32
280
     0
102
RTVSPost2010PropOp32
 70
     1
102
RTVSPost2010Prop33
280
     0
102
RTVSPost2010PropOp33
 70
     1
102
RTVSPost2010Prop34
280
     0
102
RTVSPost2010PropOp34
 70
     1
102
RTVSPost2010Prop35
280
     0
102
RTVSPost2010PropOp35
 70
     1
102
RTVSPost2010Prop36
280
     0
102
RTVSPost2010PropOp36
 70
     1
102
RTVSPost2010Prop37
 90
       50
102
RTVSPost2010PropOp37
 70
     1
102
RTVSPost2010Prop38
140
0.0
102
RTVSPost2010PropOp38
 70
     1
102
RTVSPost2010Prop39
140
1.0
102
RTVSPost2010PropOp39
 70
     1
102
RTVSPost2010Prop40
 90
        0
102
RTVSPost2010PropOp40
 70
     1
102
RTVSPost2010Prop41ColorIndex
 90
       18
102
RTVSPost2010Prop41ColorRGB
 90
        0
102
RTVSPost2010PropOp41
 70
     1
102
RTVSPost2010Prop42
 90
       50
102
RTVSPost2010PropOp42
 70
     1
102
RTVSPost2010Prop43
 90
        3
102
RTVSPost2010PropOp43
 70
     1
102
RTVSPost2010Prop44ColorIndex
 90
        5
102
RTVSPost2010Prop44ColorRGB
 90
      255
102
RTVSPost2010PropOp44
 70
     1
102
RTVSPost2010Prop45
280
     0
102
RTVSPost2010PropOp45
 70
     1
102
RTVSPost2010Prop46
 90
       50
102
RTVSPost2010PropOp46
 70
     1
102
RTVSPost2010Prop47
 90
       50
102
RTVSPost2010PropOp47
 70
     1
102
RTVSPost2010Prop48
 90
       50
102
RTVSPost2010PropOp48
 70
     1
102
RTVSPost2010Prop49
280
     0
102
RTVSPost2010PropOp49
 70
     1
102
RTVSPost2010Prop50
 90
       50
102
RTVSPost2010PropOp50
 70
     1
102
RTVSPost2010Prop51ColorIndex
 90
      256
102
RTVSPost2010Prop51ColorRGB
 90
-16777216
102
RTVSPost2010PropOp51
 70
     0
102
RTVSPost2010Prop52
140
1.0
102
RTVSPost2010PropOp52
 70
     0
102
RTVSPost2010Prop53
 90
        2
102
RTVSPost2010PropOp53
 70
     1
102
RTVSPost2010Prop54
  1
strokes_ogs.tif
102
RTVSPost2010PropOp54
 70
     1
102
RTVSPost2010Prop55
280
     0
102
RTVSPost2010PropOp55
 70
     1
102
RTVSPost2010Prop56
140
1.0
102
RTVSPost2010PropOp56
 70
     1
102
RTVSPost2010Prop57
140
1.0
102
RTVSPost2010PropOp57
 70
     1
102
RTVSPropertyOp0
 70
     1
102
RTVSPropertyOp1
 70
     1
102
RTVSPropertyOp2
 70
     1
102
RTVSPropertyOp3
 70
     1
102
RTVSPropertyOp4
 70
     1
102
RTVSPropertyOp5
 70
     1
102
RTVSPropertyOp6
 70
     1
102
RTVSPropertyOp7
 70
     1
102
RTVSPropertyOp8
 70
     1
102
RTVSPropertyOp9
 70
     1
102
RTVSPropertyOp10
 70
     1
102
RTVSPropertyOp11
 70
     1
102
RTVSPropertyOp12
 70
     1
102
RTVSPropertyOp13
 70
     1
102
RTVSPropertyOp14
 70
     1
102
RTVSPropertyOp15
 70
     1
102
RTVSPropertyOp16
 70
     1
102
RTVSPropertyOp17
 70
     1
102
RTVSPropertyOp18
 70
     1
102
RTVSPropertyOp19
 70
     1
102
RTVSPropertyOp20
 70
     1
102
RTVSPropertyOp21
 70
     1
102
RTVSPropertyOp22
 70
     1
102
RTVSPropertyOp23
 70
     1
102
RTVSPropertyOp24
 70
     1
102
RTVSPropertyOp25
 70
     1
102
RTVSPropertyOp26
 70
     1
102
RTVSPropertyOp27
 70
     1
102
RTVSPropertyOp28
 70
     1
102
RTVSPropertyOp29
 70
     1
102
RTVSPropertyOp30
 70
     1
102
RTVSPropertyOp31
 70
     1
102
RTVSPropertyOp32
 70
     1
102
RTVSPropertyOp33
 70
     1
102
RTVSPropertyOp34
 70
     1
102
RTVSPropertyOp35
 70
     1
102
RTVSPropertyOp36
 70
     1
102
RTVSPropertyOp37
 70
     1
102
RTVSPropertyOp38
 70
     1
102
RTVSPropertyOp39
 70
     1
102
RTVSPropertyOp40
 70
     1
102
RTVSPropertyOp41
 70
     1
102
RTVSPropertyOp42
 70
     1
102
RTVSPropertyOp43
 70
     1
102
RTVSPropertyOp44
 70
     1
102
RTVSPropertyOp45
 70
     1
102
RTVSPropertyOp46
 70
     1
102
RTVSPropertyOp47
 70
     1
102
RTVSPropertyOp48
 70
     1
102
RTVSPropertyOp49
 70
     1
102
RTVSPropertyOp50
 70
     1
102
RTVSPropertyOp51
 70
     0
102
RTVSPropertyOp52
 70
     0
102
RTVSPropertyOp53
 70
     1
102
RTVSPropertyOp54
 70
     1
102
RTVSPropertyOp55
 70
     1
102
RTVSPropertyOp56
 70
     1
102
RTVSPropertyOp57
 70
     1
102
RTVSPropertyOp58
 70
     1
102
RTVSPropertyOp59
 70
     1
102
RTVSPropertyOp60
 70
     1
102
RTVSPropertyOp61
 70
     1
102
RTVSPropertyOp62
 70
     1
  0
XRECORD
  5
723
102
{ACAD_REACTORS
330
722
102
}
330
722
100
AcDbXrecord
280
     1
102
RTVSPost2010Prop28
280
     0
102
RTVSPost2010PropOp28
 70
     1
102
RTVSPost2010Prop29
280
     1
102
RTVSPost2010PropOp29
 70
     1
102
RTVSPost2010Prop30
280
     1
102
RTVSPost2010PropOp30
 70
     1
102
RTVSPost2010Prop31
280
     0
102
RTVSPost2010PropOp31
 70
     1
102
RTVSPost2010Prop32
280
     0
102
RTVSPost2010PropOp32
 70
     1
102
RTVSPost2010Prop33
280
     0
102
RTVSPost2010PropOp33
 70
     1
102
RTVSPost2010Prop34
280
     0
102
RTVSPost2010PropOp34
 70
     1
102
RTVSPost2010Prop35
280
     0
102
RTVSPost2010PropOp35
 70
     1
102
RTVSPost2010Prop36
280
     0
102
RTVSPost2010PropOp36
 70
     1
102
RTVSPost2010Prop37
 90
       50
102
RTVSPost2010PropOp37
 70
     1
102
RTVSPost2010Prop38
140
0.0
102
RTVSPost2010PropOp38
 70
     1
102
RTVSPost2010Prop39
140
1.0
102
RTVSPost2010PropOp39
 70
     1
102
RTVSPost2010Prop40
 90
        0
102
RTVSPost2010PropOp40
 70
     1
102
RTVSPost2010Prop41ColorIndex
 90
       18
102
RTVSPost2010Prop41ColorRGB
 90
        0
102
RTVSPost2010PropOp41
 70
     1
102
RTVSPost2010Prop42
 90
       50
102
RTVSPost2010PropOp42
 70
     1
102
RTVSPost2010Prop43
 90
        3
102
RTVSPost2010PropOp43
 70
     1
102
RTVSPost2010Prop44ColorIndex
 90
        5
102
RTVSPost2010Prop44ColorRGB
 90
      255
102
RTVSPost2010PropOp44
 70
     1
102
RTVSPost2010Prop45
280
     0
102
RTVSPost2010PropOp45
 70
     1
102
RTVSPost2010Prop46
 90
       50
102
RTVSPost2010PropOp46
 70
     1
102
RTVSPost2010Prop47
 90
       50
102
RTVSPost2010PropOp47
 70
     1
102
RTVSPost2010Prop48
 90
       50
102
RTVSPost2010PropOp48
 70
     1
102
RTVSPost2010Prop49
280
     0
102
RTVSPost2010PropOp49
 70
     1
102
RTVSPost2010Prop50
 90
       50
102
RTVSPost2010PropOp50
 70
     1
102
RTVSPost2010Prop51ColorIndex
 90
      256
102
RTVSPost2010Prop51ColorRGB
 90
-16777216
102
RTVSPost2010PropOp51
 70
     0
102
RTVSPost2010Prop52
140
1.0
102
RTVSPost2010PropOp52
 70
     0
102
RTVSPost2010Prop53
 90
        2
102
RTVSPost2010PropOp53
 70
     1
102
RTVSPost2010Prop54
  1
strokes_ogs.tif
102
RTVSPost2010PropOp54
 70
     1
102
RTVSPost2010Prop55
280
     0
102
RTVSPost2010PropOp55
 70
     1
102
RTVSPost2010Prop56
140
1.0
102
RTVSPost2010PropOp56
 70
     1
102
RTVSPost2010Prop57
140
1.0
102
RTVSPost2010PropOp57
 70
     1
102
RTVSPropertyOp0
 70
     1
102
RTVSPropertyOp1
 70
     1
102
RTVSPropertyOp2
 70
     1
102
RTVSPropertyOp3
 70
     1
102
RTVSPropertyOp4
 70
     1
102
RTVSPropertyOp5
 70
     1
102
RTVSPropertyOp6
 70
     1
102
RTVSPropertyOp7
 70
     1
102
RTVSPropertyOp8
 70
     1
102
RTVSPropertyOp9
 70
     1
102
RTVSPropertyOp10
 70
     1
102
RTVSPropertyOp11
 70
     1
102
RTVSPropertyOp12
 70
     1
102
RTVSPropertyOp13
 70
     1
102
RTVSPropertyOp14
 70
     1
102
RTVSPropertyOp15
 70
     1
102
RTVSPropertyOp16
 70
     1
102
RTVSPropertyOp17
 70
     1
102
RTVSPropertyOp18
 70
     1
102
RTVSPropertyOp19
 70
     1
102
RTVSPropertyOp20
 70
     1
102
RTVSPropertyOp21
 70
     1
102
RTVSPropertyOp22
 70
     1
102
RTVSPropertyOp23
 70
     1
102
RTVSPropertyOp24
 70
     1
102
RTVSPropertyOp25
 70
     1
102
RTVSPropertyOp26
 70
     1
102
RTVSPropertyOp27
 70
     1
102
RTVSPropertyOp28
 70
     1
102
RTVSPropertyOp29
 70
     1
102
RTVSPropertyOp30
 70
     1
102
RTVSPropertyOp31
 70
     1
102
RTVSPropertyOp32
 70
     1
102
RTVSPropertyOp33
 70
     1
102
RTVSPropertyOp34
 70
     1
102
RTVSPropertyOp35
 70
     1
102
RTVSPropertyOp36
 70
     1
102
RTVSPropertyOp37
 70
     1
102
RTVSPropertyOp38
 70
     1
102
RTVSPropertyOp39
 70
     1
102
RTVSPropertyOp40
 70
     1
102
RTVSPropertyOp41
 70
     1
102
RTVSPropertyOp42
 70
     1
102
RTVSPropertyOp43
 70
     1
102
RTVSPropertyOp44
 70
     1
102
RTVSPropertyOp45
 70
     1
102
RTVSPropertyOp46
 70
     1
102
RTVSPropertyOp47
 70
     1
102
RTVSPropertyOp48
 70
     1
102
RTVSPropertyOp49
 70
     1
102
RTVSPropertyOp50
 70
     1
102
RTVSPropertyOp51
 70
     0
102
RTVSPropertyOp52
 70
     0
102
RTVSPropertyOp53
 70
     1
102
RTVSPropertyOp54
 70
     1
102
RTVSPropertyOp55
 70
     1
102
RTVSPropertyOp56
 70
     1
102
RTVSPropertyOp57
 70
     1
102
RTVSPropertyOp58
 70
     1
102
RTVSPropertyOp59
 70
     1
102
RTVSPropertyOp60
 70
     1
102
RTVSPropertyOp61
 70
     1
102
RTVSPropertyOp62
 70
     1
  0
XRECORD
  5
721
102
{ACAD_REACTORS
330
720
102
}
330
720
100
AcDbXrecord
280
     1
102
RTVSPost2010Prop28
280
     0
102
RTVSPost2010PropOp28
 70
     1
102
RTVSPost2010Prop29
280
     1
102
RTVSPost2010PropOp29
 70
     1
102
RTVSPost2010Prop30
280
     1
102
RTVSPost2010PropOp30
 70
     1
102
RTVSPost2010Prop31
280
     0
102
RTVSPost2010PropOp31
 70
     1
102
RTVSPost2010Prop32
280
     0
102
RTVSPost2010PropOp32
 70
     1
102
RTVSPost2010Prop33
280
     0
102
RTVSPost2010PropOp33
 70
     1
102
RTVSPost2010Prop34
280
     0
102
RTVSPost2010PropOp34
 70
     1
102
RTVSPost2010Prop35
280
     0
102
RTVSPost2010PropOp35
 70
     1
102
RTVSPost2010Prop36
280
     0
102
RTVSPost2010PropOp36
 70
     1
102
RTVSPost2010Prop37
 90
       50
102
RTVSPost2010PropOp37
 70
     1
102
RTVSPost2010Prop38
140
0.0
102
RTVSPost2010PropOp38
 70
     1
102
RTVSPost2010Prop39
140
1.0
102
RTVSPost2010PropOp39
 70
     1
102
RTVSPost2010Prop40
 90
        0
102
RTVSPost2010PropOp40
 70
     1
102
RTVSPost2010Prop41ColorIndex
 90
       18
102
RTVSPost2010Prop41ColorRGB
 90
        0
102
RTVSPost2010PropOp41
 70
     1
102
RTVSPost2010Prop42
 90
       50
102
RTVSPost2010PropOp42
 70
     1
102
RTVSPost2010Prop43
 90
        3
102
RTVSPost2010PropOp43
 70
     1
102
RTVSPost2010Prop44ColorIndex
 90
        5
102
RTVSPost2010Prop44ColorRGB
 90
      255
102
RTVSPost2010PropOp44
 70
     1
102
RTVSPost2010Prop45
280
     0
102
RTVSPost2010PropOp45
 70
     1
102
RTVSPost2010Prop46
 90
       50
102
RTVSPost2010PropOp46
 70
     1
102
RTVSPost2010Prop47
 90
       50
102
RTVSPost2010PropOp47
 70
     1
102
RTVSPost2010Prop48
 90
       50
102
RTVSPost2010PropOp48
 70
     1
102
RTVSPost2010Prop49
280
     0
102
RTVSPost2010PropOp49
 70
     1
102
RTVSPost2010Prop50
 90
       50
102
RTVSPost2010PropOp50
 70
     1
102
RTVSPost2010Prop51ColorIndex
 90
      256
102
RTVSPost2010Prop51ColorRGB
 90
-16777216
102
RTVSPost2010PropOp51
 70
     0
102
RTVSPost2010Prop52
140
1.0
102
RTVSPost2010PropOp52
 70
     0
102
RTVSPost2010Prop53
 90
        2
102
RTVSPost2010PropOp53
 70
     1
102
RTVSPost2010Prop54
  1
strokes_ogs.tif
102
RTVSPost2010PropOp54
 70
     1
102
RTVSPost2010Prop55
280
     0
102
RTVSPost2010PropOp55
 70
     1
102
RTVSPost2010Prop56
140
1.0
102
RTVSPost2010PropOp56
 70
     1
102
RTVSPost2010Prop57
140
1.0
102
RTVSPost2010PropOp57
 70
     1
102
RTVSPropertyOp0
 70
     1
102
RTVSPropertyOp1
 70
     1
102
RTVSPropertyOp2
 70
     1
102
RTVSPropertyOp3
 70
     1
102
RTVSPropertyOp4
 70
     1
102
RTVSPropertyOp5
 70
     1
102
RTVSPropertyOp6
 70
     1
102
RTVSPropertyOp7
 70
     1
102
RTVSPropertyOp8
 70
     1
102
RTVSPropertyOp9
 70
     1
102
RTVSPropertyOp10
 70
     1
102
RTVSPropertyOp11
 70
     1
102
RTVSPropertyOp12
 70
     1
102
RTVSPropertyOp13
 70
     1
102
RTVSPropertyOp14
 70
     1
102
RTVSPropertyOp15
 70
     1
102
RTVSPropertyOp16
 70
     1
102
RTVSPropertyOp17
 70
     1
102
RTVSPropertyOp18
 70
     1
102
RTVSPropertyOp19
 70
     1
102
RTVSPropertyOp20
 70
     1
102
RTVSPropertyOp21
 70
     1
102
RTVSPropertyOp22
 70
     1
102
RTVSPropertyOp23
 70
     1
102
RTVSPropertyOp24
 70
     1
102
RTVSPropertyOp25
 70
     1
102
RTVSPropertyOp26
 70
     1
102
RTVSPropertyOp27
 70
     1
102
RTVSPropertyOp28
 70
     1
102
RTVSPropertyOp29
 70
     1
102
RTVSPropertyOp30
 70
     1
102
RTVSPropertyOp31
 70
     1
102
RTVSPropertyOp32
 70
     1
102
RTVSPropertyOp33
 70
     1
102
RTVSPropertyOp34
 70
     1
102
RTVSPropertyOp35
 70
     1
102
RTVSPropertyOp36
 70
     1
102
RTVSPropertyOp37
 70
     1
102
RTVSPropertyOp38
 70
     1
102
RTVSPropertyOp39
 70
     1
102
RTVSPropertyOp40
 70
     1
102
RTVSPropertyOp41
 70
     1
102
RTVSPropertyOp42
 70
     1
102
RTVSPropertyOp43
 70
     1
102
RTVSPropertyOp44
 70
     1
102
RTVSPropertyOp45
 70
     1
102
RTVSPropertyOp46
 70
     1
102
RTVSPropertyOp47
 70
     1
102
RTVSPropertyOp48
 70
     1
102
RTVSPropertyOp49
 70
     1
102
RTVSPropertyOp50
 70
     1
102
RTVSPropertyOp51
 70
     0
102
RTVSPropertyOp52
 70
     0
102
RTVSPropertyOp53
 70
     1
102
RTVSPropertyOp54
 70
     1
102
RTVSPropertyOp55
 70
     1
102
RTVSPropertyOp56
 70
     1
102
RTVSPropertyOp57
 70
     1
102
RTVSPropertyOp58
 70
     1
102
RTVSPropertyOp59
 70
     1
102
RTVSPropertyOp60
 70
     1
102
RTVSPropertyOp61
 70
     1
102
RTVSPropertyOp62
 70
     1
  0
XRECORD
  5
71B
102
{ACAD_REACTORS
330
71A
102
}
330
71A
100
AcDbXrecord
280
     1
102
RTVSPost2010Prop28
280
     0
102
RTVSPost2010PropOp28
 70
     1
102
RTVSPost2010Prop29
280
     1
102
RTVSPost2010PropOp29
 70
     1
102
RTVSPost2010Prop30
280
     1
102
RTVSPost2010PropOp30
 70
     1
102
RTVSPost2010Prop31
280
     0
102
RTVSPost2010PropOp31
 70
     1
102
RTVSPost2010Prop32
280
     0
102
RTVSPost2010PropOp32
 70
     1
102
RTVSPost2010Prop33
280
     0
102
RTVSPost2010PropOp33
 70
     1
102
RTVSPost2010Prop34
280
     0
102
RTVSPost2010PropOp34
 70
     1
102
RTVSPost2010Prop35
280
     0
102
RTVSPost2010PropOp35
 70
     1
102
RTVSPost2010Prop36
280
     0
102
RTVSPost2010PropOp36
 70
     1
102
RTVSPost2010Prop37
 90
       50
102
RTVSPost2010PropOp37
 70
     1
102
RTVSPost2010Prop38
140
0.0
102
RTVSPost2010PropOp38
 70
     1
102
RTVSPost2010Prop39
140
1.0
102
RTVSPost2010PropOp39
 70
     1
102
RTVSPost2010Prop40
 90
        0
102
RTVSPost2010PropOp40
 70
     1
102
RTVSPost2010Prop41ColorIndex
 90
       18
102
RTVSPost2010Prop41ColorRGB
 90
        0
102
RTVSPost2010PropOp41
 70
     1
102
RTVSPost2010Prop42
 90
       50
102
RTVSPost2010PropOp42
 70
     1
102
RTVSPost2010Prop43
 90
        3
102
RTVSPost2010PropOp43
 70
     1
102
RTVSPost2010Prop44ColorIndex
 90
        5
102
RTVSPost2010Prop44ColorRGB
 90
      255
102
RTVSPost2010PropOp44
 70
     1
102
RTVSPost2010Prop45
280
     0
102
RTVSPost2010PropOp45
 70
     1
102
RTVSPost2010Prop46
 90
       50
102
RTVSPost2010PropOp46
 70
     1
102
RTVSPost2010Prop47
 90
       50
102
RTVSPost2010PropOp47
 70
     1
102
RTVSPost2010Prop48
 90
       50
102
RTVSPost2010PropOp48
 70
     1
102
RTVSPost2010Prop49
280
     0
102
RTVSPost2010PropOp49
 70
     1
102
RTVSPost2010Prop50
 90
       50
102
RTVSPost2010PropOp50
 70
     1
102
RTVSPost2010Prop51ColorIndex
 90
      256
102
RTVSPost2010Prop51ColorRGB
 90
-16777216
102
RTVSPost2010PropOp51
 70
     0
102
RTVSPost2010Prop52
140
1.0
102
RTVSPost2010PropOp52
 70
     0
102
RTVSPost2010Prop53
 90
        2
102
RTVSPost2010PropOp53
 70
     1
102
RTVSPost2010Prop54
  1
strokes_ogs.tif
102
RTVSPost2010PropOp54
 70
     1
102
RTVSPost2010Prop55
280
     0
102
RTVSPost2010PropOp55
 70
     1
102
RTVSPost2010Prop56
140
1.0
102
RTVSPost2010PropOp56
 70
     1
102
RTVSPost2010Prop57
140
1.0
102
RTVSPost2010PropOp57
 70
     1
102
RTVSPropertyOp0
 70
     1
102
RTVSPropertyOp1
 70
     1
102
RTVSPropertyOp2
 70
     1
102
RTVSPropertyOp3
 70
     1
102
RTVSPropertyOp4
 70
     1
102
RTVSPropertyOp5
 70
     1
102
RTVSPropertyOp6
 70
     1
102
RTVSPropertyOp7
 70
     1
102
RTVSPropertyOp8
 70
     1
102
RTVSPropertyOp9
 70
     1
102
RTVSPropertyOp10
 70
     1
102
RTVSPropertyOp11
 70
     1
102
RTVSPropertyOp12
 70
     1
102
RTVSPropertyOp13
 70
     1
102
RTVSPropertyOp14
 70
     1
102
RTVSPropertyOp15
 70
     1
102
RTVSPropertyOp16
 70
     1
102
RTVSPropertyOp17
 70
     1
102
RTVSPropertyOp18
 70
     1
102
RTVSPropertyOp19
 70
     1
102
RTVSPropertyOp20
 70
     1
102
RTVSPropertyOp21
 70
     1
102
RTVSPropertyOp22
 70
     1
102
RTVSPropertyOp23
 70
     1
102
RTVSPropertyOp24
 70
     1
102
RTVSPropertyOp25
 70
     1
102
RTVSPropertyOp26
 70
     1
102
RTVSPropertyOp27
 70
     1
102
RTVSPropertyOp28
 70
     1
102
RTVSPropertyOp29
 70
     1
102
RTVSPropertyOp30
 70
     1
102
RTVSPropertyOp31
 70
     1
102
RTVSPropertyOp32
 70
     1
102
RTVSPropertyOp33
 70
     1
102
RTVSPropertyOp34
 70
     1
102
RTVSPropertyOp35
 70
     1
102
RTVSPropertyOp36
 70
     1
102
RTVSPropertyOp37
 70
     1
102
RTVSPropertyOp38
 70
     1
102
RTVSPropertyOp39
 70
     1
102
RTVSPropertyOp40
 70
     1
102
RTVSPropertyOp41
 70
     1
102
RTVSPropertyOp42
 70
     1
102
RTVSPropertyOp43
 70
     1
102
RTVSPropertyOp44
 70
     1
102
RTVSPropertyOp45
 70
     1
102
RTVSPropertyOp46
 70
     1
102
RTVSPropertyOp47
 70
     1
102
RTVSPropertyOp48
 70
     1
102
RTVSPropertyOp49
 70
     1
102
RTVSPropertyOp50
 70
     1
102
RTVSPropertyOp51
 70
     0
102
RTVSPropertyOp52
 70
     0
102
RTVSPropertyOp53
 70
     1
102
RTVSPropertyOp54
 70
     1
102
RTVSPropertyOp55
 70
     1
102
RTVSPropertyOp56
 70
     1
102
RTVSPropertyOp57
 70
     1
102
RTVSPropertyOp58
 70
     1
102
RTVSPropertyOp59
 70
     1
102
RTVSPropertyOp60
 70
     1
102
RTVSPropertyOp61
 70
     1
102
RTVSPropertyOp62
 70
     1
  0
XRECORD
  5
71D
102
{ACAD_REACTORS
330
71C
102
}
330
71C
100
AcDbXrecord
280
     1
102
RTVSPost2010Prop28
280
     0
102
RTVSPost2010PropOp28
 70
     1
102
RTVSPost2010Prop29
280
     1
102
RTVSPost2010PropOp29
 70
     1
102
RTVSPost2010Prop30
280
     1
102
RTVSPost2010PropOp30
 70
     1
102
RTVSPost2010Prop31
280
     0
102
RTVSPost2010PropOp31
 70
     1
102
RTVSPost2010Prop32
280
     0
102
RTVSPost2010PropOp32
 70
     1
102
RTVSPost2010Prop33
280
     0
102
RTVSPost2010PropOp33
 70
     1
102
RTVSPost2010Prop34
280
     0
102
RTVSPost2010PropOp34
 70
     1
102
RTVSPost2010Prop35
280
     0
102
RTVSPost2010PropOp35
 70
     1
102
RTVSPost2010Prop36
280
     0
102
RTVSPost2010PropOp36
 70
     1
102
RTVSPost2010Prop37
 90
       50
102
RTVSPost2010PropOp37
 70
     1
102
RTVSPost2010Prop38
140
0.0
102
RTVSPost2010PropOp38
 70
     1
102
RTVSPost2010Prop39
140
1.0
102
RTVSPost2010PropOp39
 70
     1
102
RTVSPost2010Prop40
 90
        0
102
RTVSPost2010PropOp40
 70
     1
102
RTVSPost2010Prop41ColorIndex
 90
       18
102
RTVSPost2010Prop41ColorRGB
 90
        0
102
RTVSPost2010PropOp41
 70
     1
102
RTVSPost2010Prop42
 90
       50
102
RTVSPost2010PropOp42
 70
     1
102
RTVSPost2010Prop43
 90
        3
102
RTVSPost2010PropOp43
 70
     1
102
RTVSPost2010Prop44ColorIndex
 90
        5
102
RTVSPost2010Prop44ColorRGB
 90
      255
102
RTVSPost2010PropOp44
 70
     1
102
RTVSPost2010Prop45
280
     0
102
RTVSPost2010PropOp45
 70
     1
102
RTVSPost2010Prop46
 90
       50
102
RTVSPost2010PropOp46
 70
     1
102
RTVSPost2010Prop47
 90
       50
102
RTVSPost2010PropOp47
 70
     1
102
RTVSPost2010Prop48
 90
       50
102
RTVSPost2010PropOp48
 70
     1
102
RTVSPost2010Prop49
280
     0
102
RTVSPost2010PropOp49
 70
     1
102
RTVSPost2010Prop50
 90
       50
102
RTVSPost2010PropOp50
 70
     1
102
RTVSPost2010Prop51ColorIndex
 90
      256
102
RTVSPost2010Prop51ColorRGB
 90
-16777216
102
RTVSPost2010PropOp51
 70
     0
102
RTVSPost2010Prop52
140
1.0
102
RTVSPost2010PropOp52
 70
     0
102
RTVSPost2010Prop53
 90
        2
102
RTVSPost2010PropOp53
 70
     1
102
RTVSPost2010Prop54
  1
strokes_ogs.tif
102
RTVSPost2010PropOp54
 70
     1
102
RTVSPost2010Prop55
280
     0
102
RTVSPost2010PropOp55
 70
     1
102
RTVSPost2010Prop56
140
1.0
102
RTVSPost2010PropOp56
 70
     1
102
RTVSPost2010Prop57
140
1.0
102
RTVSPost2010PropOp57
 70
     1
102
RTVSPropertyOp0
 70
     1
102
RTVSPropertyOp1
 70
     1
102
RTVSPropertyOp2
 70
     1
102
RTVSPropertyOp3
 70
     1
102
RTVSPropertyOp4
 70
     1
102
RTVSPropertyOp5
 70
     1
102
RTVSPropertyOp6
 70
     1
102
RTVSPropertyOp7
 70
     1
102
RTVSPropertyOp8
 70
     1
102
RTVSPropertyOp9
 70
     1
102
RTVSPropertyOp10
 70
     1
102
RTVSPropertyOp11
 70
     1
102
RTVSPropertyOp12
 70
     1
102
RTVSPropertyOp13
 70
     1
102
RTVSPropertyOp14
 70
     1
102
RTVSPropertyOp15
 70
     1
102
RTVSPropertyOp16
 70
     1
102
RTVSPropertyOp17
 70
     1
102
RTVSPropertyOp18
 70
     1
102
RTVSPropertyOp19
 70
     1
102
RTVSPropertyOp20
 70
     1
102
RTVSPropertyOp21
 70
     1
102
RTVSPropertyOp22
 70
     1
102
RTVSPropertyOp23
 70
     1
102
RTVSPropertyOp24
 70
     1
102
RTVSPropertyOp25
 70
     1
102
RTVSPropertyOp26
 70
     1
102
RTVSPropertyOp27
 70
     1
102
RTVSPropertyOp28
 70
     1
102
RTVSPropertyOp29
 70
     1
102
RTVSPropertyOp30
 70
     1
102
RTVSPropertyOp31
 70
     1
102
RTVSPropertyOp32
 70
     1
102
RTVSPropertyOp33
 70
     1
102
RTVSPropertyOp34
 70
     1
102
RTVSPropertyOp35
 70
     1
102
RTVSPropertyOp36
 70
     1
102
RTVSPropertyOp37
 70
     1
102
RTVSPropertyOp38
 70
     1
102
RTVSPropertyOp39
 70
     1
102
RTVSPropertyOp40
 70
     1
102
RTVSPropertyOp41
 70
     1
102
RTVSPropertyOp42
 70
     1
102
RTVSPropertyOp43
 70
     1
102
RTVSPropertyOp44
 70
     1
102
RTVSPropertyOp45
 70
     1
102
RTVSPropertyOp46
 70
     1
102
RTVSPropertyOp47
 70
     1
102
RTVSPropertyOp48
 70
     1
102
RTVSPropertyOp49
 70
     1
102
RTVSPropertyOp50
 70
     1
102
RTVSPropertyOp51
 70
     0
102
RTVSPropertyOp52
 70
     0
102
RTVSPropertyOp53
 70
     1
102
RTVSPropertyOp54
 70
     1
102
RTVSPropertyOp55
 70
     1
102
RTVSPropertyOp56
 70
     1
102
RTVSPropertyOp57
 70
     1
102
RTVSPropertyOp58
 70
     1
102
RTVSPropertyOp59
 70
     1
102
RTVSPropertyOp60
 70
     1
102
RTVSPropertyOp61
 70
     1
102
RTVSPropertyOp62
 70
     1
  0
XRECORD
  5
713
102
{ACAD_REACTORS
330
712
102
}
330
712
100
AcDbXrecord
280
     1
102
RTVSPost2010Prop28
280
     0
102
RTVSPost2010PropOp28
 70
     1
102
RTVSPost2010Prop29
280
     1
102
RTVSPost2010PropOp29
 70
     1
102
RTVSPost2010Prop30
280
     1
102
RTVSPost2010PropOp30
 70
     1
102
RTVSPost2010Prop31
280
     0
102
RTVSPost2010PropOp31
 70
     1
102
RTVSPost2010Prop32
280
     0
102
RTVSPost2010PropOp32
 70
     1
102
RTVSPost2010Prop33
280
     0
102
RTVSPost2010PropOp33
 70
     1
102
RTVSPost2010Prop34
280
     0
102
RTVSPost2010PropOp34
 70
     1
102
RTVSPost2010Prop35
280
     0
102
RTVSPost2010PropOp35
 70
     1
102
RTVSPost2010Prop36
280
     0
102
RTVSPost2010PropOp36
 70
     1
102
RTVSPost2010Prop37
 90
       50
102
RTVSPost2010PropOp37
 70
     1
102
RTVSPost2010Prop38
140
0.0
102
RTVSPost2010PropOp38
 70
     1
102
RTVSPost2010Prop39
140
1.0
102
RTVSPost2010PropOp39
 70
     1
102
RTVSPost2010Prop40
 90
        0
102
RTVSPost2010PropOp40
 70
     1
102
RTVSPost2010Prop41ColorIndex
 90
       18
102
RTVSPost2010Prop41ColorRGB
 90
        0
102
RTVSPost2010PropOp41
 70
     1
102
RTVSPost2010Prop42
 90
       50
102
RTVSPost2010PropOp42
 70
     1
102
RTVSPost2010Prop43
 90
        3
102
RTVSPost2010PropOp43
 70
     1
102
RTVSPost2010Prop44ColorIndex
 90
        5
102
RTVSPost2010Prop44ColorRGB
 90
      255
102
RTVSPost2010PropOp44
 70
     1
102
RTVSPost2010Prop45
280
     0
102
RTVSPost2010PropOp45
 70
     1
102
RTVSPost2010Prop46
 90
       50
102
RTVSPost2010PropOp46
 70
     1
102
RTVSPost2010Prop47
 90
       50
102
RTVSPost2010PropOp47
 70
     1
102
RTVSPost2010Prop48
 90
       50
102
RTVSPost2010PropOp48
 70
     1
102
RTVSPost2010Prop49
280
     0
102
RTVSPost2010PropOp49
 70
     1
102
RTVSPost2010Prop50
 90
       50
102
RTVSPost2010PropOp50
 70
     1
102
RTVSPost2010Prop51ColorIndex
 90
      256
102
RTVSPost2010Prop51ColorRGB
 90
-16777216
102
RTVSPost2010PropOp51
 70
     0
102
RTVSPost2010Prop52
140
1.0
102
RTVSPost2010PropOp52
 70
     0
102
RTVSPost2010Prop53
 90
        2
102
RTVSPost2010PropOp53
 70
     1
102
RTVSPost2010Prop54
  1
strokes_ogs.tif
102
RTVSPost2010PropOp54
 70
     1
102
RTVSPost2010Prop55
280
     0
102
RTVSPost2010PropOp55
 70
     1
102
RTVSPost2010Prop56
140
1.0
102
RTVSPost2010PropOp56
 70
     1
102
RTVSPost2010Prop57
140
1.0
102
RTVSPost2010PropOp57
 70
     1
102
RTVSPropertyOp0
 70
     1
102
RTVSPropertyOp1
 70
     1
102
RTVSPropertyOp2
 70
     1
102
RTVSPropertyOp3
 70
     1
102
RTVSPropertyOp4
 70
     1
102
RTVSPropertyOp5
 70
     1
102
RTVSPropertyOp6
 70
     1
102
RTVSPropertyOp7
 70
     1
102
RTVSPropertyOp8
 70
     1
102
RTVSPropertyOp9
 70
     1
102
RTVSPropertyOp10
 70
     1
102
RTVSPropertyOp11
 70
     1
102
RTVSPropertyOp12
 70
     1
102
RTVSPropertyOp13
 70
     1
102
RTVSPropertyOp14
 70
     1
102
RTVSPropertyOp15
 70
     1
102
RTVSPropertyOp16
 70
     1
102
RTVSPropertyOp17
 70
     1
102
RTVSPropertyOp18
 70
     1
102
RTVSPropertyOp19
 70
     1
102
RTVSPropertyOp20
 70
     1
102
RTVSPropertyOp21
 70
     1
102
RTVSPropertyOp22
 70
     1
102
RTVSPropertyOp23
 70
     1
102
RTVSPropertyOp24
 70
     1
102
RTVSPropertyOp25
 70
     1
102
RTVSPropertyOp26
 70
     1
102
RTVSPropertyOp27
 70
     1
102
RTVSPropertyOp28
 70
     1
102
RTVSPropertyOp29
 70
     1
102
RTVSPropertyOp30
 70
     1
102
RTVSPropertyOp31
 70
     1
102
RTVSPropertyOp32
 70
     1
102
RTVSPropertyOp33
 70
     1
102
RTVSPropertyOp34
 70
     1
102
RTVSPropertyOp35
 70
     1
102
RTVSPropertyOp36
 70
     1
102
RTVSPropertyOp37
 70
     1
102
RTVSPropertyOp38
 70
     1
102
RTVSPropertyOp39
 70
     1
102
RTVSPropertyOp40
 70
     1
102
RTVSPropertyOp41
 70
     1
102
RTVSPropertyOp42
 70
     1
102
RTVSPropertyOp43
 70
     1
102
RTVSPropertyOp44
 70
     1
102
RTVSPropertyOp45
 70
     1
102
RTVSPropertyOp46
 70
     1
102
RTVSPropertyOp47
 70
     1
102
RTVSPropertyOp48
 70
     1
102
RTVSPropertyOp49
 70
     1
102
RTVSPropertyOp50
 70
     1
102
RTVSPropertyOp51
 70
     0
102
RTVSPropertyOp52
 70
     0
102
RTVSPropertyOp53
 70
     1
102
RTVSPropertyOp54
 70
     1
102
RTVSPropertyOp55
 70
     1
102
RTVSPropertyOp56
 70
     1
102
RTVSPropertyOp57
 70
     1
102
RTVSPropertyOp58
 70
     1
102
RTVSPropertyOp59
 70
     1
102
RTVSPropertyOp60
 70
     1
102
RTVSPropertyOp61
 70
     1
102
RTVSPropertyOp62
 70
     1
  0
XRECORD
  5
707
102
{ACAD_REACTORS
330
706
102
}
330
706
100
AcDbXrecord
280
     1
102
RTVSPost2010Prop28
280
     0
102
RTVSPost2010PropOp28
 70
     1
102
RTVSPost2010Prop29
280
     1
102
RTVSPost2010PropOp29
 70
     1
102
RTVSPost2010Prop30
280
     1
102
RTVSPost2010PropOp30
 70
     1
102
RTVSPost2010Prop31
280
     0
102
RTVSPost2010PropOp31
 70
     1
102
RTVSPost2010Prop32
280
     0
102
RTVSPost2010PropOp32
 70
     1
102
RTVSPost2010Prop33
280
     0
102
RTVSPost2010PropOp33
 70
     1
102
RTVSPost2010Prop34
280
     0
102
RTVSPost2010PropOp34
 70
     1
102
RTVSPost2010Prop35
280
     0
102
RTVSPost2010PropOp35
 70
     1
102
RTVSPost2010Prop36
280
     0
102
RTVSPost2010PropOp36
 70
     1
102
RTVSPost2010Prop37
 90
       50
102
RTVSPost2010PropOp37
 70
     1
102
RTVSPost2010Prop38
140
0.0
102
RTVSPost2010PropOp38
 70
     1
102
RTVSPost2010Prop39
140
1.0
102
RTVSPost2010PropOp39
 70
     1
102
RTVSPost2010Prop40
 90
        0
102
RTVSPost2010PropOp40
 70
     1
102
RTVSPost2010Prop41ColorIndex
 90
       18
102
RTVSPost2010Prop41ColorRGB
 90
        0
102
RTVSPost2010PropOp41
 70
     1
102
RTVSPost2010Prop42
 90
       50
102
RTVSPost2010PropOp42
 70
     1
102
RTVSPost2010Prop43
 90
        3
102
RTVSPost2010PropOp43
 70
     1
102
RTVSPost2010Prop44ColorIndex
 90
        5
102
RTVSPost2010Prop44ColorRGB
 90
      255
102
RTVSPost2010PropOp44
 70
     1
102
RTVSPost2010Prop45
280
     0
102
RTVSPost2010PropOp45
 70
     1
102
RTVSPost2010Prop46
 90
       50
102
RTVSPost2010PropOp46
 70
     1
102
RTVSPost2010Prop47
 90
       50
102
RTVSPost2010PropOp47
 70
     1
102
RTVSPost2010Prop48
 90
       50
102
RTVSPost2010PropOp48
 70
     1
102
RTVSPost2010Prop49
280
     0
102
RTVSPost2010PropOp49
 70
     1
102
RTVSPost2010Prop50
 90
       50
102
RTVSPost2010PropOp50
 70
     1
102
RTVSPost2010Prop51ColorIndex
 90
      256
102
RTVSPost2010Prop51ColorRGB
 90
-16777216
102
RTVSPost2010PropOp51
 70
     0
102
RTVSPost2010Prop52
140
1.0
102
RTVSPost2010PropOp52
 70
     0
102
RTVSPost2010Prop53
 90
        2
102
RTVSPost2010PropOp53
 70
     1
102
RTVSPost2010Prop54
  1
strokes_ogs.tif
102
RTVSPost2010PropOp54
 70
     1
102
RTVSPost2010Prop55
280
     0
102
RTVSPost2010PropOp55
 70
     1
102
RTVSPost2010Prop56
140
1.0
102
RTVSPost2010PropOp56
 70
     1
102
RTVSPost2010Prop57
140
1.0
102
RTVSPost2010PropOp57
 70
     1
102
RTVSPropertyOp0
 70
     1
102
RTVSPropertyOp1
 70
     1
102
RTVSPropertyOp2
 70
     1
102
RTVSPropertyOp3
 70
     1
102
RTVSPropertyOp4
 70
     1
102
RTVSPropertyOp5
 70
     1
102
RTVSPropertyOp6
 70
     1
102
RTVSPropertyOp7
 70
     1
102
RTVSPropertyOp8
 70
     1
102
RTVSPropertyOp9
 70
     1
102
RTVSPropertyOp10
 70
     1
102
RTVSPropertyOp11
 70
     1
102
RTVSPropertyOp12
 70
     1
102
RTVSPropertyOp13
 70
     1
102
RTVSPropertyOp14
 70
     1
102
RTVSPropertyOp15
 70
     1
102
RTVSPropertyOp16
 70
     1
102
RTVSPropertyOp17
 70
     1
102
RTVSPropertyOp18
 70
     1
102
RTVSPropertyOp19
 70
     1
102
RTVSPropertyOp20
 70
     1
102
RTVSPropertyOp21
 70
     1
102
RTVSPropertyOp22
 70
     1
102
RTVSPropertyOp23
 70
     1
102
RTVSPropertyOp24
 70
     1
102
RTVSPropertyOp25
 70
     1
102
RTVSPropertyOp26
 70
     1
102
RTVSPropertyOp27
 70
     1
102
RTVSPropertyOp28
 70
     1
102
RTVSPropertyOp29
 70
     1
102
RTVSPropertyOp30
 70
     1
102
RTVSPropertyOp31
 70
     1
102
RTVSPropertyOp32
 70
     1
102
RTVSPropertyOp33
 70
     1
102
RTVSPropertyOp34
 70
     1
102
RTVSPropertyOp35
 70
     1
102
RTVSPropertyOp36
 70
     1
102
RTVSPropertyOp37
 70
     1
102
RTVSPropertyOp38
 70
     1
102
RTVSPropertyOp39
 70
     1
102
RTVSPropertyOp40
 70
     1
102
RTVSPropertyOp41
 70
     1
102
RTVSPropertyOp42
 70
     1
102
RTVSPropertyOp43
 70
     1
102
RTVSPropertyOp44
 70
     1
102
RTVSPropertyOp45
 70
     1
102
RTVSPropertyOp46
 70
     1
102
RTVSPropertyOp47
 70
     1
102
RTVSPropertyOp48
 70
     1
102
RTVSPropertyOp49
 70
     1
102
RTVSPropertyOp50
 70
     1
102
RTVSPropertyOp51
 70
     0
102
RTVSPropertyOp52
 70
     0
102
RTVSPropertyOp53
 70
     1
102
RTVSPropertyOp54
 70
     1
102
RTVSPropertyOp55
 70
     1
102
RTVSPropertyOp56
 70
     1
102
RTVSPropertyOp57
 70
     1
102
RTVSPropertyOp58
 70
     1
102
RTVSPropertyOp59
 70
     1
102
RTVSPropertyOp60
 70
     1
102
RTVSPropertyOp61
 70
     1
102
RTVSPropertyOp62
 70
     1
  0
XRECORD
  5
71F
102
{ACAD_REACTORS
330
71E
102
}
330
71E
100
AcDbXrecord
280
     1
102
RTVSPost2010Prop28
280
     0
102
RTVSPost2010PropOp28
 70
     1
102
RTVSPost2010Prop29
280
     1
102
RTVSPost2010PropOp29
 70
     1
102
RTVSPost2010Prop30
280
     1
102
RTVSPost2010PropOp30
 70
     1
102
RTVSPost2010Prop31
280
     0
102
RTVSPost2010PropOp31
 70
     1
102
RTVSPost2010Prop32
280
     0
102
RTVSPost2010PropOp32
 70
     1
102
RTVSPost2010Prop33
280
     0
102
RTVSPost2010PropOp33
 70
     1
102
RTVSPost2010Prop34
280
     0
102
RTVSPost2010PropOp34
 70
     1
102
RTVSPost2010Prop35
280
     0
102
RTVSPost2010PropOp35
 70
     1
102
RTVSPost2010Prop36
280
     0
102
RTVSPost2010PropOp36
 70
     1
102
RTVSPost2010Prop37
 90
       50
102
RTVSPost2010PropOp37
 70
     1
102
RTVSPost2010Prop38
140
0.0
102
RTVSPost2010PropOp38
 70
     1
102
RTVSPost2010Prop39
140
1.0
102
RTVSPost2010PropOp39
 70
     1
102
RTVSPost2010Prop40
 90
        0
102
RTVSPost2010PropOp40
 70
     1
102
RTVSPost2010Prop41ColorIndex
 90
       18
102
RTVSPost2010Prop41ColorRGB
 90
        0
102
RTVSPost2010PropOp41
 70
     1
102
RTVSPost2010Prop42
 90
       50
102
RTVSPost2010PropOp42
 70
     1
102
RTVSPost2010Prop43
 90
        3
102
RTVSPost2010PropOp43
 70
     1
102
RTVSPost2010Prop44ColorIndex
 90
        5
102
RTVSPost2010Prop44ColorRGB
 90
      255
102
RTVSPost2010PropOp44
 70
     1
102
RTVSPost2010Prop45
280
     0
102
RTVSPost2010PropOp45
 70
     1
102
RTVSPost2010Prop46
 90
       50
102
RTVSPost2010PropOp46
 70
     1
102
RTVSPost2010Prop47
 90
       50
102
RTVSPost2010PropOp47
 70
     1
102
RTVSPost2010Prop48
 90
       50
102
RTVSPost2010PropOp48
 70
     1
102
RTVSPost2010Prop49
280
     0
102
RTVSPost2010PropOp49
 70
     1
102
RTVSPost2010Prop50
 90
       50
102
RTVSPost2010PropOp50
 70
     1
102
RTVSPost2010Prop51ColorIndex
 90
      256
102
RTVSPost2010Prop51ColorRGB
 90
-16777216
102
RTVSPost2010PropOp51
 70
     0
102
RTVSPost2010Prop52
140
1.0
102
RTVSPost2010PropOp52
 70
     0
102
RTVSPost2010Prop53
 90
        2
102
RTVSPost2010PropOp53
 70
     1
102
RTVSPost2010Prop54
  1
strokes_ogs.tif
102
RTVSPost2010PropOp54
 70
     1
102
RTVSPost2010Prop55
280
     0
102
RTVSPost2010PropOp55
 70
     1
102
RTVSPost2010Prop56
140
1.0
102
RTVSPost2010PropOp56
 70
     1
102
RTVSPost2010Prop57
140
1.0
102
RTVSPost2010PropOp57
 70
     1
102
RTVSPropertyOp0
 70
     1
102
RTVSPropertyOp1
 70
     1
102
RTVSPropertyOp2
 70
     1
102
RTVSPropertyOp3
 70
     1
102
RTVSPropertyOp4
 70
     1
102
RTVSPropertyOp5
 70
     1
102
RTVSPropertyOp6
 70
     1
102
RTVSPropertyOp7
 70
     1
102
RTVSPropertyOp8
 70
     1
102
RTVSPropertyOp9
 70
     1
102
RTVSPropertyOp10
 70
     1
102
RTVSPropertyOp11
 70
     1
102
RTVSPropertyOp12
 70
     1
102
RTVSPropertyOp13
 70
     1
102
RTVSPropertyOp14
 70
     1
102
RTVSPropertyOp15
 70
     1
102
RTVSPropertyOp16
 70
     1
102
RTVSPropertyOp17
 70
     1
102
RTVSPropertyOp18
 70
     1
102
RTVSPropertyOp19
 70
     1
102
RTVSPropertyOp20
 70
     1
102
RTVSPropertyOp21
 70
     1
102
RTVSPropertyOp22
 70
     1
102
RTVSPropertyOp23
 70
     1
102
RTVSPropertyOp24
 70
     1
102
RTVSPropertyOp25
 70
     1
102
RTVSPropertyOp26
 70
     1
102
RTVSPropertyOp27
 70
     1
102
RTVSPropertyOp28
 70
     1
102
RTVSPropertyOp29
 70
     1
102
RTVSPropertyOp30
 70
     1
102
RTVSPropertyOp31
 70
     1
102
RTVSPropertyOp32
 70
     1
102
RTVSPropertyOp33
 70
     1
102
RTVSPropertyOp34
 70
     1
102
RTVSPropertyOp35
 70
     1
102
RTVSPropertyOp36
 70
     1
102
RTVSPropertyOp37
 70
     1
102
RTVSPropertyOp38
 70
     1
102
RTVSPropertyOp39
 70
     1
102
RTVSPropertyOp40
 70
     1
102
RTVSPropertyOp41
 70
     1
102
RTVSPropertyOp42
 70
     1
102
RTVSPropertyOp43
 70
     1
102
RTVSPropertyOp44
 70
     1
102
RTVSPropertyOp45
 70
     1
102
RTVSPropertyOp46
 70
     1
102
RTVSPropertyOp47
 70
     1
102
RTVSPropertyOp48
 70
     1
102
RTVSPropertyOp49
 70
     1
102
RTVSPropertyOp50
 70
     1
102
RTVSPropertyOp51
 70
     0
102
RTVSPropertyOp52
 70
     0
102
RTVSPropertyOp53
 70
     1
102
RTVSPropertyOp54
 70
     1
102
RTVSPropertyOp55
 70
     1
102
RTVSPropertyOp56
 70
     1
102
RTVSPropertyOp57
 70
     1
102
RTVSPropertyOp58
 70
     1
102
RTVSPropertyOp59
 70
     1
102
RTVSPropertyOp60
 70
     1
102
RTVSPropertyOp61
 70
     1
102
RTVSPropertyOp62
 70
     1
  0
ENDSEC
  0
EOF
