  0
SECTION
  2
HEADER
  9
$ACADVER
  1
AC1015
  9
$ACADMAINTVER
 70
     6
  9
$DWGCODEPAGE
  3
ANSI_1252
  9
$INSBASE
 10
0.0
 20
0.0
 30
0.0
  9
$EXTMIN
 10
1.000000000000000E+20
 20
1.000000000000000E+20
 30
1.000000000000000E+20
  9
$EXTMAX
 10
-1.000000000000000E+20
 20
-1.000000000000000E+20
 30
-1.000000000000000E+20
  9
$LIMMIN
 10
-170.0
 20
-170.0
  9
$LIMMAX
 10
519.0
 20
260.0
  9
$ORTHOMODE
 70
     0
  9
$REGENMODE
 70
     1
  9
$FILLMODE
 70
     1
  9
$QTEXTMODE
 70
     0
  9
$MIRRTEXT
 70
     0
  9
$LTSCALE
 40
1.0
  9
$ATTMODE
 70
     1
  9
$TEXTSIZE
 40
3.5
  9
$TRACEWID
 40
1.0
  9
$TEXTSTYLE
  7
SIMPLEX
  9
$CLAYER
  8
1
  9
$CELTYPE
  6
BYLAYER
  9
$CECOLOR
 62
   256
  9
$CELTSCALE
 40
1.0
  9
$DISPSILH
 70
     0
  9
$DIMSCALE
 40
1.0
  9
$DIMASZ
 40
2.5
  9
$DIMEXO
 40
0.0
  9
$DIMDLI
 40
3.75
  9
$DIMRND
 40
0.0
  9
$DIMDLE
 40
0.0
  9
$DIMEXE
 40
1.25
  9
$DIMTP
 40
0.0
  9
$DIMTM
 40
0.0
  9
$DIMTXT
 40
3.5
  9
$DIMCEN
 40
0.0
  9
$DIMTSZ
 40
0.0
  9
$DIMTOL
 70
     0
  9
$DIMLIM
 70
     0
  9
$DIMTIH
 70
     0
  9
$DIMTOH
 70
     0
  9
$DIMSE1
 70
     0
  9
$DIMSE2
 70
     0
  9
$DIMTAD
 70
     1
  9
$DIMZIN
 70
     8
  9
$DIMBLK
  1

  9
$DIMASO
 70
     1
  9
$DIMSHO
 70
     1
  9
$DIMPOST
  1

  9
$DIMAPOST
  1

  9
$DIMALT
 70
     0
  9
$DIMALTD
 70
     3
  9
$DIMALTF
 40
0.039370078
  9
$DIMLFAC
 40
1.0
  9
$DIMTOFL
 70
     0
  9
$DIMTVP
 40
0.0
  9
$DIMTIX
 70
     0
  9
$DIMSOXD
 70
     0
  9
$DIMSAH
 70
     0
  9
$DIMBLK1
  1

  9
$DIMBLK2
  1

  9
$DIMSTYLE
  2
STANDARD
  9
$DIMCLRD
 70
     0
  9
$DIMCLRE
 70
     0
  9
$DIMCLRT
 70
     0
  9
$DIMTFAC
 40
1.0
  9
$DIMGAP
 40
0.625
  9
$DIMJUST
 70
     0
  9
$DIMSD1
 70
     0
  9
$DIMSD2
 70
     0
  9
$DIMTOLJ
 70
     0
  9
$DIMTZIN
 70
     8
  9
$DIMALTZ
 70
     0
  9
$DIMALTTZ
 70
     0
  9
$DIMUPT
 70
     0
  9
$DIMDEC
 70
     2
  9
$DIMTDEC
 70
     2
  9
$DIMALTU
 70
     2
  9
$DIMALTTD
 70
     3
  9
$DIMTXSTY
  7
SIMPLEX
  9
$DIMAUNIT
 70
     0
  9
$DIMADEC
 70
     2
  9
$DIMALTRND
 40
0.0
  9
$DIMAZIN
 70
     2
  9
$DIMDSEP
 70
    46
  9
$DIMATFIT
 70
     3
  9
$DIMFRAC
 70
     0
  9
$DIMLDRBLK
  1

  9
$DIMLUNIT
 70
     2
  9
$DIMLWD
 70
    -2
  9
$DIMLWE
 70
    -2
  9
$DIMTMOVE
 70
     0
  9
$LUNITS
 70
     2
  9
$LUPREC
 70
     4
  9
$SKETCHINC
 40
1.0
  9
$FILLETRAD
 40
0.0
  9
$AUNITS
 70
     0
  9
$AUPREC
 70
     0
  9
$MENU
  1
c:\tdm21\cad\caduti13\tdm13
  9
$ELEVATION
 40
0.0
  9
$PELEVATION
 40
0.0
  9
$THICKNESS
 40
0.0
  9
$LIMCHECK
 70
     0
  9
$CHAMFERA
 40
0.0
  9
$CHAMFERB
 40
0.0
  9
$CHAMFERC
 40
0.0
  9
$CHAMFERD
 40
0.0
  9
$SKPOLY
 70
     0
  9
$TDCREATE
 40
2454957.551975972
  9
$TDUCREATE
 40
2454957.510309306
  9
$TDUPDATE
 40
2457360.415791123
  9
$TDUUPDATE
 40
2457360.374124456
  9
$TDINDWG
 40
0.0009643519
  9
$TDUSRTIMER
 40
0.0009475231
  9
$USRTIMER
 70
     1
  9
$ANGBASE
 50
0.0
  9
$ANGDIR
 70
     0
  9
$PDMODE
 70
     1
  9
$PDSIZE
 40
0.0
  9
$PLINEWID
 40
0.0
  9
$SPLFRAME
 70
     0
  9
$SPLINETYPE
 70
     6
  9
$SPLINESEGS
 70
     8
  9
$HANDSEED
  5
69F
  9
$SURFTAB1
 70
     6
  9
$SURFTAB2
 70
     6
  9
$SURFTYPE
 70
     6
  9
$SURFU
 70
     6
  9
$SURFV
 70
     6
  9
$UCSBASE
  2

  9
$UCSNAME
  2

  9
$UCSORG
 10
0.0
 20
0.0
 30
0.0
  9
$UCSXDIR
 10
1.0
 20
0.0
 30
0.0
  9
$UCSYDIR
 10
0.0
 20
1.0
 30
0.0
  9
$UCSORTHOREF
  2

  9
$UCSORTHOVIEW
 70
     0
  9
$UCSORGTOP
 10
0.0
 20
0.0
 30
0.0
  9
$UCSORGBOTTOM
 10
0.0
 20
0.0
 30
0.0
  9
$UCSORGLEFT
 10
0.0
 20
0.0
 30
0.0
  9
$UCSORGRIGHT
 10
0.0
 20
0.0
 30
0.0
  9
$UCSORGFRONT
 10
0.0
 20
0.0
 30
0.0
  9
$UCSORGBACK
 10
0.0
 20
0.0
 30
0.0
  9
$PUCSBASE
  2

  9
$PUCSNAME
  2

  9
$PUCSORG
 10
0.0
 20
0.0
 30
0.0
  9
$PUCSXDIR
 10
1.0
 20
0.0
 30
0.0
  9
$PUCSYDIR
 10
0.0
 20
1.0
 30
0.0
  9
$PUCSORTHOREF
  2

  9
$PUCSORTHOVIEW
 70
     0
  9
$PUCSORGTOP
 10
0.0
 20
0.0
 30
0.0
  9
$PUCSORGBOTTOM
 10
0.0
 20
0.0
 30
0.0
  9
$PUCSORGLEFT
 10
0.0
 20
0.0
 30
0.0
  9
$PUCSORGRIGHT
 10
0.0
 20
0.0
 30
0.0
  9
$PUCSORGFRONT
 10
0.0
 20
0.0
 30
0.0
  9
$PUCSORGBACK
 10
0.0
 20
0.0
 30
0.0
  9
$USERI1
 70
     0
  9
$USERI2
 70
     0
  9
$USERI3
 70
     0
  9
$USERI4
 70
     0
  9
$USERI5
 70
     0
  9
$USERR1
 40
0.0
  9
$USERR2
 40
0.0
  9
$USERR3
 40
0.0
  9
$USERR4
 40
0.0
  9
$USERR5
 40
0.0
  9
$WORLDVIEW
 70
     1
  9
$SHADEDGE
 70
     3
  9
$SHADEDIF
 70
    70
  9
$TILEMODE
 70
     1
  9
$MAXACTVP
 70
    64
  9
$PINSBASE
 10
0.0
 20
0.0
 30
0.0
  9
$PLIMCHECK
 70
     0
  9
$PEXTMIN
 10
0.0
 20
0.0
 30
0.0
  9
$PEXTMAX
 10
0.0
 20
0.0
 30
0.0
  9
$PLIMMIN
 10
0.0
 20
0.0
  9
$PLIMMAX
 10
12.0
 20
9.0
  9
$UNITMODE
 70
     0
  9
$VISRETAIN
 70
     0
  9
$PLINEGEN
 70
     0
  9
$PSLTSCALE
 70
     1
  9
$TREEDEPTH
 70
  3020
  9
$CMLSTYLE
  2
STANDARD
  9
$CMLJUST
 70
     0
  9
$CMLSCALE
 40
20.0
  9
$PROXYGRAPHICS
 70
     1
  9
$MEASUREMENT
 70
     1
  9
$CELWEIGHT
370
    -1
  9
$ENDCAPS
280
     0
  9
$JOINSTYLE
280
     0
  9
$LWDISPLAY
290
     0
  9
$INSUNITS
 70
     4
  9
$HYPERLINKBASE
  1

  9
$STYLESHEET
  1
MONOCHROME.CTB
  9
$XEDIT
290
     1
  9
$CEPSNTYPE
380
     0
  9
$PSTYLEMODE
290
     1
  9
$FINGERPRINTGUID
  2
{46B44192-1510-48B1-B61B-CBE2ADA013A7}
  9
$VERSIONGUID
  2
{6160D478-9A74-4C97-9D8A-D4A65CE74B12}
  9
$EXTNAMES
290
     1
  9
$PSVPSCALE
 40
0.0
  9
$OLESTARTUP
290
     0
  0
ENDSEC
  0
SECTION
  2
CLASSES
  0
CLASS
  1
ACDBDICTIONARYWDFLT
  2
AcDbDictionaryWithDefault
  3
ObjectDBX Classes
 90
        0
280
     0
281
     0
  0
CLASS
  1
ACDBPLACEHOLDER
  2
AcDbPlaceHolder
  3
ObjectDBX Classes
 90
        0
280
     0
281
     0
  0
CLASS
  1
LAYOUT
  2
AcDbLayout
  3
ObjectDBX Classes
 90
        0
280
     0
281
     0
  0
CLASS
  1
DICTIONARYVAR
  2
AcDbDictionaryVar
  3
ObjectDBX Classes
 90
        0
280
     0
281
     0
  0
CLASS
  1
TABLESTYLE
  2
AcDbTableStyle
  3
ObjectDBX Classes
 90
     4095
280
     0
281
     0
  0
CLASS
  1
SCALE
  2
AcDbScale
  3
ObjectDBX Classes
 90
     1153
280
     0
281
     0
  0
CLASS
  1
VISUALSTYLE
  2
AcDbVisualStyle
  3
ObjectDBX Classes
 90
     4095
280
     0
281
     0
  0
CLASS
  1
MATERIAL
  2
AcDbMaterial
  3
ObjectDBX Classes
 90
     1153
280
     0
281
     0
  0
CLASS
  1
MLEADERSTYLE
  2
AcDbMLeaderStyle
  3
ACDB_MLEADERSTYLE_CLASS
 90
     4095
280
     0
281
     0
  0
ENDSEC
  0
SECTION
  2
TABLES
  0
TABLE
  2
VPORT
  5
8
102
{ACAD_XDICTIONARY
360
663
102
}
330
0
100
AcDbSymbolTable
 70
     1
  0
VPORT
  5
39A
330
8
100
AcDbSymbolTableRecord
100
AcDbViewportTableRecord
  2
*Active
 70
     0
 10
0.0
 20
0.0
 11
1.0
 21
1.0
 12
218.9201881351169
 22
109.7549380673833
 13
0.0
 23
0.0
 14
5.0
 24
5.0
 15
5.0
 25
5.0
 16
0.0
 26
0.0
 36
1.0
 17
0.0
 27
0.0
 37
0.0
 40
564.6711112651689
 41
1.066073697585768
 42
50.0
 43
0.0
 44
0.0
 50
0.0
 51
0.0
 71
     0
 72
  2000
 73
     1
 74
     1
 75
     0
 76
     0
 77
     0
 78
     0
281
     0
 65
     1
110
0.0
120
0.0
130
0.0
111
1.0
121
0.0
131
0.0
112
0.0
122
1.0
132
0.0
 79
     0
146
0.0
  0
ENDTAB
  0
TABLE
  2
LTYPE
  5
5
330
0
100
AcDbSymbolTable
 70
     3
  0
LTYPE
  5
12
330
5
100
AcDbSymbolTableRecord
100
AcDbLinetypeTableRecord
  2
BYBLOCK
 70
     0
  3

 72
    65
 73
     0
 40
0.0
  0
LTYPE
  5
13
330
5
100
AcDbSymbolTableRecord
100
AcDbLinetypeTableRecord
  2
BYLAYER
 70
     0
  3

 72
    65
 73
     0
 40
0.0
  0
LTYPE
  5
14
330
5
100
AcDbSymbolTableRecord
100
AcDbLinetypeTableRecord
  2
CONTINUOUS
 70
     0
  3
Solid line
 72
    65
 73
     0
 40
0.0
  0
LTYPE
  5
20
330
5
100
AcDbSymbolTableRecord
100
AcDbLinetypeTableRecord
  2
HIDDEN
 70
     0
  3
Hidden __ __ __ __ __ __ __ __ __ __ __ __ __ _
 72
    65
 73
     2
 40
9.524999999999997
 49
6.349999999999998
 74
     0
 49
-3.174999999999998
 74
     0
  0
LTYPE
  5
351
330
5
100
AcDbSymbolTableRecord
100
AcDbLinetypeTableRecord
  2
CENTER
 70
     0
  3
Dash dot __ . __ . __ . __ . __ . __ . __ . __
 72
    65
 73
     4
 40
25.4
 49
12.7
 74
     0
 49
-6.349999999999998
 74
     0
 49
0.0
 74
     0
 49
-6.349999999999998
 74
     0
  0
ENDTAB
  0
TABLE
  2
LAYER
  5
2
330
0
100
AcDbSymbolTable
 70
    16
  0
LAYER
  5
F
330
2
100
AcDbSymbolTableRecord
100
AcDbLayerTableRecord
  2
0
 70
     0
 62
     7
  6
CONTINUOUS
370
    -3
390
300
  0
LAYER
  5
23
330
2
100
AcDbSymbolTableRecord
100
AcDbLayerTableRecord
  2
1
 70
     0
 62
     4
  6
CONTINUOUS
370
    -3
390
300
  0
LAYER
  5
24
330
2
100
AcDbSymbolTableRecord
100
AcDbLayerTableRecord
  2
SK1
 70
     0
 62
     4
  6
CONTINUOUS
370
    -3
390
300
  0
LAYER
  5
25
330
2
100
AcDbSymbolTableRecord
100
AcDbLayerTableRecord
  2
2
 70
     0
 62
     7
  6
CONTINUOUS
370
    -3
390
300
  0
LAYER
  5
26
330
2
100
AcDbSymbolTableRecord
100
AcDbLayerTableRecord
  2
2L
 70
     0
 62
     7
  6
CONTINUOUS
370
    -3
390
300
  0
LAYER
  5
27
330
2
100
AcDbSymbolTableRecord
100
AcDbLayerTableRecord
  2
SK2
 70
     0
 62
     7
  6
CONTINUOUS
370
    -3
390
300
  0
LAYER
  5
28
330
2
100
AcDbSymbolTableRecord
100
AcDbLayerTableRecord
  2
3
 70
     0
 62
     1
  6
HIDDEN
370
    -3
390
300
  0
LAYER
  5
29
330
2
100
AcDbSymbolTableRecord
100
AcDbLayerTableRecord
  2
SK3
 70
     0
 62
     1
  6
HIDDEN
370
    -3
390
300
  0
LAYER
  5
2A
330
2
100
AcDbSymbolTableRecord
100
AcDbLayerTableRecord
  2
4
 70
     0
 62
     2
  6
CENTER
370
    -3
390
300
  0
LAYER
  5
2B
330
2
100
AcDbSymbolTableRecord
100
AcDbLayerTableRecord
  2
SK4
 70
     0
 62
     2
  6
CENTER
370
    -3
390
300
  0
LAYER
  5
2C
330
2
100
AcDbSymbolTableRecord
100
AcDbLayerTableRecord
  2
5
 70
     0
 62
    -7
  6
CONTINUOUS
370
    -3
390
300
  0
LAYER
  5
2D
330
2
100
AcDbSymbolTableRecord
100
AcDbLayerTableRecord
  2
6
 70
     0
 62
     5
  6
CONTINUOUS
370
    -3
390
300
  0
LAYER
  5
2E
330
2
100
AcDbSymbolTableRecord
100
AcDbLayerTableRecord
  2
SK6
 70
     0
 62
     5
  6
CONTINUOUS
370
    -3
390
300
  0
LAYER
  5
2F
330
2
100
AcDbSymbolTableRecord
100
AcDbLayerTableRecord
  2
DEFPOINTS
 70
     0
 62
     7
  6
CONTINUOUS
290
     0
370
    -3
390
300
  0
LAYER
  5
375
330
2
100
AcDbSymbolTableRecord
100
AcDbLayerTableRecord
  2
CUT
 70
     0
 62
     1
  6
CONTINUOUS
370
    -3
390
300
  0
LAYER
  5
376
330
2
100
AcDbSymbolTableRecord
100
AcDbLayerTableRecord
  2
NOCUT
 70
     0
 62
     7
  6
CONTINUOUS
370
    -3
390
300
  0
ENDTAB
  0
TABLE
  2
STYLE
  5
3
330
0
100
AcDbSymbolTable
 70
     4
  0
STYLE
  5
10
330
3
100
AcDbSymbolTableRecord
100
AcDbTextStyleTableRecord
  2
STANDARD
 70
     0
 40
0.0
 41
1.0
 50
0.0
 71
     0
 42
5.0
  3
txt
  4

  0
STYLE
  5
1D
330
3
100
AcDbSymbolTableRecord
100
AcDbTextStyleTableRecord
  2
TXT
 70
     0
 40
8.0
 41
1.0
 50
0.0
 71
     0
 42
8.0
  3
txt
  4

  0
STYLE
  5
1E
330
3
100
AcDbSymbolTableRecord
100
AcDbTextStyleTableRecord
  2
SIMPLEX
 70
     0
 40
0.0
 41
1.0
 50
0.0
 71
     0
 42
3.5
  3
simplex
  4

  0
STYLE
  5
34C
330
3
100
AcDbSymbolTableRecord
100
AcDbTextStyleTableRecord
  2

 70
     1
 40
0.0
 41
1.0
 50
0.0
 71
     0
 42
2.5
  3
ltypeshp.shx
  4

  0
ENDTAB
  0
TABLE
  2
VIEW
  5
6
330
0
100
AcDbSymbolTable
 70
     0
  0
ENDTAB
  0
TABLE
  2
UCS
  5
7
330
0
100
AcDbSymbolTable
 70
     0
  0
ENDTAB
  0
TABLE
  2
APPID
  5
9
330
0
100
AcDbSymbolTable
 70
     2
  0
APPID
  5
11
330
9
100
AcDbSymbolTableRecord
100
AcDbRegAppTableRecord
  2
ACAD
 70
     0
  0
APPID
  5
69C
330
9
100
AcDbSymbolTableRecord
100
AcDbRegAppTableRecord
  2
ACAD_MLEADERVER
 70
     0
  0
ENDTAB
  0
TABLE
  2
DIMSTYLE
  5
A
330
0
100
AcDbSymbolTable
 70
     1
100
AcDbDimStyleTable
  0
DIMSTYLE
105
3F
102
{ACAD_REACTORS
330
612
330
61F
330
62C
330
639
330
646
330
653
102
}
330
A
100
AcDbSymbolTableRecord
100
AcDbDimStyleTableRecord
  2
STANDARD
 70
     0
 41
2.5
 42
0.0
 43
3.75
 44
1.25
 73
     0
 74
     0
 77
     1
 78
     8
 79
     2
140
3.5
141
0.0
143
0.039370078
147
0.625
171
     3
178
     0
179
     2
271
     2
272
     2
274
     3
283
     0
284
     8
340
1E
  0
ENDTAB
  0
TABLE
  2
BLOCK_RECORD
  5
1
330
0
100
AcDbSymbolTable
 70
     6
  0
BLOCK_RECORD
  5
18
330
1
100
AcDbSymbolTableRecord
100
AcDbBlockTableRecord
  2
*MODEL_SPACE
340
303
  0
BLOCK_RECORD
  5
338
330
1
100
AcDbSymbolTableRecord
100
AcDbBlockTableRecord
  2
*Paper_Space
340
33B
  0
BLOCK_RECORD
  5
613
330
1
100
AcDbSymbolTableRecord
100
AcDbBlockTableRecord
  2
*D0
340
0
  0
BLOCK_RECORD
  5
620
330
1
100
AcDbSymbolTableRecord
100
AcDbBlockTableRecord
  2
*D1
340
0
  0
BLOCK_RECORD
  5
62D
330
1
100
AcDbSymbolTableRecord
100
AcDbBlockTableRecord
  2
*D2
340
0
  0
BLOCK_RECORD
  5
63A
330
1
100
AcDbSymbolTableRecord
100
AcDbBlockTableRecord
  2
*D3
340
0
  0
BLOCK_RECORD
  5
647
330
1
100
AcDbSymbolTableRecord
100
AcDbBlockTableRecord
  2
*D4
340
0
  0
BLOCK_RECORD
  5
654
330
1
100
AcDbSymbolTableRecord
100
AcDbBlockTableRecord
  2
*D5
340
0
  0
ENDTAB
  0
ENDSEC
  0
SECTION
  2
BLOCKS
  0
BLOCK
  5
32
330
18
100
AcDbEntity
  8
0
100
AcDbBlockBegin
  2
*MODEL_SPACE
 70
     0
 10
0.0
 20
0.0
 30
0.0
  3
*MODEL_SPACE
  1

  0
ENDBLK
  5
33
330
18
100
AcDbEntity
  8
0
100
AcDbBlockEnd
  0
BLOCK
  5
339
330
338
100
AcDbEntity
 67
     1
  8
0
100
AcDbBlockBegin
  2
*Paper_Space
 70
     0
 10
0.0
 20
0.0
 30
0.0
  3
*Paper_Space
  1

  0
ENDBLK
  5
33A
330
338
100
AcDbEntity
 67
     1
  8
0
100
AcDbBlockEnd
  0
BLOCK
  5
614
330
613
100
AcDbEntity
  8
0
100
AcDbBlockBegin
  2
*D0
 70
     1
 10
0.0
 20
0.0
 30
0.0
  3
*D0
  1

  0
LINE
  5
616
330
613
100
AcDbEntity
  8
2
 62
     0
370
    -2
100
AcDbLine
 10
55.0
 20
6.0
 30
0.0
 11
71.24999999999997
 21
6.000000000000057
 31
0.0
  0
LINE
  5
617
330
613
100
AcDbEntity
  8
2
 62
     0
370
    -2
100
AcDbLine
 10
55.0
 20
-6.0
 30
0.0
 11
71.25000000000001
 21
-5.999999999999943
 31
0.0
  0
LINE
  5
618
330
613
100
AcDbEntity
  8
2
 62
     0
370
    -2
100
AcDbLine
 10
69.99999999999999
 20
3.500000000000052
 30
0.0
 11
70.0
 21
-3.499999999999948
 31
0.0
  0
SOLID
  5
619
330
613
100
AcDbEntity
  8
2
 62
     0
100
AcDbTrace
 10
70.41666666666666
 20
3.500000000000054
 30
0.0
 11
69.58333333333331
 21
3.500000000000051
 31
0.0
 12
69.99999999999997
 22
6.000000000000052
 32
0.0
 13
69.99999999999997
 23
6.000000000000052
 33
0.0
  0
SOLID
  5
61A
330
613
100
AcDbEntity
  8
2
 62
     0
100
AcDbTrace
 10
69.58333333333333
 20
-3.499999999999949
 30
0.0
 11
70.41666666666667
 21
-3.499999999999946
 31
0.0
 12
70.00000000000001
 22
-5.999999999999948
 32
0.0
 13
70.00000000000001
 23
-5.999999999999948
 33
0.0
  0
MTEXT
  5
61B
330
613
100
AcDbEntity
  8
2
 62
     0
100
AcDbMText
 10
67.60925
 20
0.0000000000000439
 30
0.0
 40
3.5
 41
0.0
 71
     5
 72
     1
  1
%%c12
  7
SIMPLEX
 11
-3.552713678800501E-15
 21
1.0
 31
0.0
 73
     1
 44
1.0
  0
POINT
  5
61C
330
613
100
AcDbEntity
  8
DEFPOINTS
 62
     0
100
AcDbPoint
 10
55.0
 20
6.0
 30
0.0
  0
POINT
  5
61D
330
613
100
AcDbEntity
  8
DEFPOINTS
 62
     0
100
AcDbPoint
 10
55.0
 20
-6.0
 30
0.0
  0
POINT
  5
61E
330
613
100
AcDbEntity
  8
DEFPOINTS
 62
     0
100
AcDbPoint
 10
70.00000000000001
 20
-5.999999999999948
 30
0.0
  0
ENDBLK
  5
615
330
613
100
AcDbEntity
  8
0
100
AcDbBlockEnd
  0
BLOCK
  5
621
330
620
100
AcDbEntity
  8
0
100
AcDbBlockBegin
  2
*D1
 70
     1
 10
0.0
 20
0.0
 30
0.0
  3
*D1
  1

  0
LINE
  5
623
330
620
100
AcDbEntity
  8
2
 62
     0
370
    -2
100
AcDbLine
 10
0.0
 20
0.0
 30
0.0
 11
0.0
 21
76.25
 31
0.0
  0
LINE
  5
624
330
620
100
AcDbEntity
  8
2
 62
     0
370
    -2
100
AcDbLine
 10
55.0
 20
0.0
 30
0.0
 11
55.0
 21
76.25
 31
0.0
  0
LINE
  5
625
330
620
100
AcDbEntity
  8
2
 62
     0
370
    -2
100
AcDbLine
 10
2.5
 20
75.0
 30
0.0
 11
52.5
 21
75.0
 31
0.0
  0
SOLID
  5
626
330
620
100
AcDbEntity
  8
2
 62
     0
100
AcDbTrace
 10
2.5
 20
75.41666666666667
 30
0.0
 11
2.5
 21
74.58333333333333
 31
0.0
 12
0.0
 22
75.0
 32
0.0
 13
0.0
 23
75.0
 33
0.0
  0
SOLID
  5
627
330
620
100
AcDbEntity
  8
2
 62
     0
100
AcDbTrace
 10
52.5
 20
74.58333333333333
 30
0.0
 11
52.5
 21
75.41666666666667
 31
0.0
 12
55.0
 22
75.0
 32
0.0
 13
55.0
 23
75.0
 33
0.0
  0
MTEXT
  5
628
330
620
100
AcDbEntity
  8
2
 62
     0
100
AcDbMText
 10
27.5
 20
77.39075
 30
0.0
 40
3.5
 41
0.0
 71
     5
 72
     1
  1
55
  7
SIMPLEX
 73
     1
 44
1.0
  0
POINT
  5
629
330
620
100
AcDbEntity
  8
DEFPOINTS
 62
     0
100
AcDbPoint
 10
0.0
 20
0.0
 30
0.0
  0
POINT
  5
62A
330
620
100
AcDbEntity
  8
DEFPOINTS
 62
     0
100
AcDbPoint
 10
55.0
 20
0.0
 30
0.0
  0
POINT
  5
62B
330
620
100
AcDbEntity
  8
DEFPOINTS
 62
     0
100
AcDbPoint
 10
55.0
 20
75.0
 30
0.0
  0
ENDBLK
  5
622
330
620
100
AcDbEntity
  8
0
100
AcDbBlockEnd
  0
BLOCK
  5
62E
330
62D
100
AcDbEntity
  8
0
100
AcDbBlockBegin
  2
*D2
 70
     1
 10
0.0
 20
0.0
 30
0.0
  3
*D2
  1

  0
LINE
  5
630
330
62D
100
AcDbEntity
  8
2
 62
     0
370
    -2
100
AcDbLine
 10
29.0
 20
6.0
 30
0.0
 11
29.0
 21
61.25
 31
0.0
  0
LINE
  5
631
330
62D
100
AcDbEntity
  8
2
 62
     0
370
    -2
100
AcDbLine
 10
55.0
 20
6.0
 30
0.0
 11
55.0
 21
61.25
 31
0.0
  0
LINE
  5
632
330
62D
100
AcDbEntity
  8
2
 62
     0
370
    -2
100
AcDbLine
 10
31.5
 20
60.0
 30
0.0
 11
52.5
 21
60.0
 31
0.0
  0
SOLID
  5
633
330
62D
100
AcDbEntity
  8
2
 62
     0
100
AcDbTrace
 10
31.5
 20
60.41666666666666
 30
0.0
 11
31.5
 21
59.58333333333334
 31
0.0
 12
29.0
 22
60.0
 32
0.0
 13
29.0
 23
60.0
 33
0.0
  0
SOLID
  5
634
330
62D
100
AcDbEntity
  8
2
 62
     0
100
AcDbTrace
 10
52.5
 20
59.58333333333334
 30
0.0
 11
52.5
 21
60.41666666666666
 31
0.0
 12
55.0
 22
60.0
 32
0.0
 13
55.0
 23
60.0
 33
0.0
  0
MTEXT
  5
635
330
62D
100
AcDbEntity
  8
2
 62
     0
100
AcDbMText
 10
42.0
 20
62.39075
 30
0.0
 40
3.5
 41
0.0
 71
     5
 72
     1
  1
26
  7
SIMPLEX
 73
     1
 44
1.0
  0
POINT
  5
636
330
62D
100
AcDbEntity
  8
DEFPOINTS
 62
     0
100
AcDbPoint
 10
29.0
 20
6.0
 30
0.0
  0
POINT
  5
637
330
62D
100
AcDbEntity
  8
DEFPOINTS
 62
     0
100
AcDbPoint
 10
55.0
 20
6.0
 30
0.0
  0
POINT
  5
638
330
62D
100
AcDbEntity
  8
DEFPOINTS
 62
     0
100
AcDbPoint
 10
55.0
 20
60.0
 30
0.0
  0
ENDBLK
  5
62F
330
62D
100
AcDbEntity
  8
0
100
AcDbBlockEnd
  0
BLOCK
  5
63B
330
63A
100
AcDbEntity
  8
0
100
AcDbBlockBegin
  2
*D3
 70
     1
 10
0.0
 20
0.0
 30
0.0
  3
*D3
  1

  0
LINE
  5
63D
330
63A
100
AcDbEntity
  8
SK2
 62
     0
370
    -2
100
AcDbLine
 10
-45.0
 20
6.0
 30
0.0
 11
-61.25000000003062
 21
5.99999999991707
 31
0.0
  0
LINE
  5
63E
330
63A
100
AcDbEntity
  8
SK2
 62
     0
370
    -2
100
AcDbLine
 10
-45.0
 20
-6.0
 30
0.0
 11
-61.24999999996938
 21
-6.00000000008293
 31
0.0
  0
LINE
  5
63F
330
63A
100
AcDbEntity
  8
SK2
 62
     0
370
    -2
100
AcDbLine
 10
-60.00000000001786
 20
3.499999999923449
 30
0.0
 11
-59.99999999998214
 21
-3.500000000076551
 31
0.0
  0
SOLID
  5
640
330
63A
100
AcDbEntity
  8
SK2
 62
     0
100
AcDbTrace
 10
-59.5833333333512
 20
3.499999999925575
 30
0.0
 11
-60.41666666668453
 21
3.499999999921322
 31
0.0
 12
-60.00000000003062
 22
5.999999999923449
 32
0.0
 13
-60.00000000003062
 23
5.999999999923449
 33
0.0
  0
SOLID
  5
641
330
63A
100
AcDbEntity
  8
SK2
 62
     0
100
AcDbTrace
 10
-60.41666666664881
 20
-3.500000000078678
 30
0.0
 11
-59.58333333331548
 21
-3.500000000074425
 31
0.0
 12
-59.99999999996938
 22
-6.000000000076551
 32
0.0
 13
-59.99999999996938
 23
-6.000000000076551
 33
0.0
  0
MTEXT
  5
642
330
63A
100
AcDbEntity
  8
SK2
 62
     0
100
AcDbMText
 10
-62.39075
 20
-0.0000000000887523
 30
0.0
 40
3.5
 41
0.0
 71
     5
 72
     1
  1
%%c12
  7
SIMPLEX
 11
-5.103473199596920E-12
 21
1.0
 31
0.0
 73
     1
 44
1.0
  0
POINT
  5
643
330
63A
100
AcDbEntity
  8
DEFPOINTS
 62
     0
100
AcDbPoint
 10
-45.0
 20
6.0
 30
0.0
  0
POINT
  5
644
330
63A
100
AcDbEntity
  8
DEFPOINTS
 62
     0
100
AcDbPoint
 10
-45.0
 20
-6.0
 30
0.0
  0
POINT
  5
645
330
63A
100
AcDbEntity
  8
DEFPOINTS
 62
     0
100
AcDbPoint
 10
-59.99999999996938
 20
-6.000000000076551
 30
0.0
  0
ENDBLK
  5
63C
330
63A
100
AcDbEntity
  8
0
100
AcDbBlockEnd
  0
BLOCK
  5
648
330
647
100
AcDbEntity
  8
0
100
AcDbBlockBegin
  2
*D4
 70
     1
 10
0.0
 20
0.0
 30
0.0
  3
*D4
  1

  0
LINE
  5
64A
330
647
100
AcDbEntity
  8
SK2
 62
     0
370
    -2
100
AcDbLine
 10
-45.0
 20
0.0
 30
0.0
 11
-45.0
 21
91.25
 31
0.0
  0
LINE
  5
64B
330
647
100
AcDbEntity
  8
SK2
 62
     0
370
    -2
100
AcDbLine
 10
55.0
 20
0.0
 30
0.0
 11
55.0
 21
91.25
 31
0.0
  0
LINE
  5
64C
330
647
100
AcDbEntity
  8
SK2
 62
     0
370
    -2
100
AcDbLine
 10
-42.5
 20
90.0
 30
0.0
 11
52.5
 21
90.0
 31
0.0
  0
SOLID
  5
64D
330
647
100
AcDbEntity
  8
SK2
 62
     0
100
AcDbTrace
 10
-42.5
 20
90.41666666666667
 30
0.0
 11
-42.5
 21
89.58333333333333
 31
0.0
 12
-45.0
 22
90.0
 32
0.0
 13
-45.0
 23
90.0
 33
0.0
  0
SOLID
  5
64E
330
647
100
AcDbEntity
  8
SK2
 62
     0
100
AcDbTrace
 10
52.5
 20
89.58333333333333
 30
0.0
 11
52.5
 21
90.41666666666667
 31
0.0
 12
55.0
 22
90.0
 32
0.0
 13
55.0
 23
90.0
 33
0.0
  0
MTEXT
  5
64F
330
647
100
AcDbEntity
  8
SK2
 62
     0
100
AcDbMText
 10
5.0
 20
92.39075
 30
0.0
 40
3.5
 41
0.0
 71
     5
 72
     1
  1
100
  7
SIMPLEX
 73
     1
 44
1.0
  0
POINT
  5
650
330
647
100
AcDbEntity
  8
DEFPOINTS
 62
     0
100
AcDbPoint
 10
-45.0
 20
0.0
 30
0.0
  0
POINT
  5
651
330
647
100
AcDbEntity
  8
DEFPOINTS
 62
     0
100
AcDbPoint
 10
55.0
 20
0.0
 30
0.0
  0
POINT
  5
652
330
647
100
AcDbEntity
  8
DEFPOINTS
 62
     0
100
AcDbPoint
 10
55.0
 20
90.0
 30
0.0
  0
ENDBLK
  5
649
330
647
100
AcDbEntity
  8
0
100
AcDbBlockEnd
  0
BLOCK
  5
655
330
654
100
AcDbEntity
  8
0
100
AcDbBlockBegin
  2
*D5
 70
     1
 10
0.0
 20
0.0
 30
0.0
  3
*D5
  1

  0
LINE
  5
657
330
654
100
AcDbEntity
  8
2
 62
     0
370
    -2
100
AcDbLine
 10
52.95506497716812
 20
-8.416442641567144
 30
0.0
 11
56.35069623197033
 21
-27.67402444305247
 31
0.0
  0
MTEXT
  5
658
330
654
100
AcDbEntity
  8
2
 62
     0
100
AcDbMText
 10
58.10521432568944
 20
-23.85661047757633
 30
0.0
 40
3.5
 41
0.0
 71
     5
 72
     1
  1
R3
  7
SIMPLEX
 11
0.1736481776669313
 21
-0.984807753012208
 31
0.0
 73
     1
 44
1.0
  0
SOLID
  5
659
330
654
100
AcDbEntity
  8
2
 62
     0
100
AcDbTrace
 10
53.36540154092321
 20
-8.344089234205923
 30
0.0
 11
52.54472841341303
 21
-8.488796048928366
 31
0.0
 12
52.52094453300079
 22
-5.954423259036624
 32
0.0
 13
52.52094453300079
 23
-5.954423259036624
 33
0.0
  0
POINT
  5
65A
330
654
100
AcDbEntity
  8
DEFPOINTS
 62
     0
100
AcDbPoint
 10
52.52094453300079
 20
-5.954423259036624
 30
0.0
  0
POINT
  5
65B
330
654
100
AcDbEntity
  8
DEFPOINTS
 62
     0
100
AcDbPoint
 10
52.0
 20
-3.0
 30
0.0
  0
ENDBLK
  5
656
330
654
100
AcDbEntity
  8
0
100
AcDbBlockEnd
  0
ENDSEC
  0
SECTION
  2
ENTITIES
  0
LINE
  5
3E0
330
18
100
AcDbEntity
  8
SK4
100
AcDbLine
 10
-47.0
 20
0.0
 30
0.0
 11
0.0
 21
0.0
 31
0.0
  0
LINE
  5
3E1
330
18
100
AcDbEntity
  8
4
100
AcDbLine
 10
-2.0
 20
0.0
 30
0.0
 11
57.0
 21
0.0
 31
0.0
  0
LINE
  5
3E2
330
18
100
AcDbEntity
  8
SK4
100
AcDbLine
 10
-2.0
 20
0.0
 30
0.0
 11
57.0
 21
0.0
 31
0.0
  0
LINE
  5
3E3
330
18
100
AcDbEntity
  8
1
100
AcDbLine
 10
28.00000000000001
 20
6.0
 30
0.0
 11
28.00000000000001
 21
5.999844238858803
 31
0.0
  0
LINE
  5
3E4
330
18
100
AcDbEntity
  8
1
100
AcDbLine
 10
28.00000000000001
 20
5.999844238858803
 30
0.0
 11
28.0
 21
5.952940497911732
 31
0.0
  0
LINE
  5
3E5
330
18
100
AcDbEntity
  8
1
100
AcDbLine
 10
28.0
 20
5.952940497911732
 30
0.0
 11
28.0
 21
5.269992949461112
 31
0.0
  0
LINE
  5
3E6
330
18
100
AcDbEntity
  8
1
100
AcDbLine
 10
28.0
 20
-4.927365620044459
 30
0.0
 11
28.00000000000001
 21
-5.999999999999997
 31
0.0
  0
LINE
  5
3E7
330
18
100
AcDbEntity
  8
1
100
AcDbLine
 10
28.0
 20
3.423604540013918
 30
0.0
 11
28.0
 21
-2.868305128927219
 31
0.0
  0
ARC
  5
3E8
330
18
100
AcDbEntity
  8
1
100
AcDbCircle
 10
15.56006287842069
 20
-18.98346613119337
 30
0.0
 40
24.45830145107981
100
AcDbArc
 50
56.66705948581339
 51
59.42788694665682
  0
ARC
  5
3E9
330
18
100
AcDbEntity
  8
1
100
AcDbCircle
 10
24.18262085906543
 20
1.493601227106921
 30
0.0
 40
7.766506428371994
100
AcDbArc
 50
299.4404250665517
 51
301.812165211768
  0
ARC
  5
3EA
330
18
100
AcDbEntity
  8
1
100
AcDbCircle
 10
32.33533747020024
 20
1.459938883056989
 30
0.0
 40
7.719544354837015
100
AcDbArc
 50
235.8335796195573
 51
244.3996594924724
  0
ARC
  5
3EB
330
18
100
AcDbEntity
  8
1
100
AcDbCircle
 10
43.44639128796671
 20
11.97381297279532
 30
0.0
 40
21.42140571920033
100
AcDbArc
 50
223.8570678610591
 51
227.59231593727
  0
ARC
  5
3EC
330
18
100
AcDbEntity
  8
1
100
AcDbCircle
 10
10.2322060028241
 20
-14.83838016652211
 30
0.0
 40
25.47935723857933
100
AcDbArc
 50
42.55919132560122
 51
45.7858295962776
  0
ARC
  5
3ED
330
18
100
AcDbEntity
  8
1
100
AcDbCircle
 10
23.637961120807
 20
-2.397116341539159
 30
0.0
 40
8.82120278106299
100
AcDbArc
 50
52.56774450439907
 51
60.36320791084328
  0
LINE
  5
3EE
330
18
100
AcDbEntity
  8
1
100
AcDbLine
 10
-0.0000000000000036
 20
6.0
 30
0.0
 11
28.00000000000001
 21
6.0
 31
0.0
  0
ARC
  5
3EF
330
18
100
AcDbEntity
  8
1
100
AcDbCircle
 10
32.13206925129172
 20
-1.088560866307205
 30
0.0
 40
7.296531916332784
100
AcDbArc
 50
115.4209520712292
 51
121.896760740467
  0
LINE
  5
3F0
330
18
100
AcDbEntity
  8
1
100
AcDbLine
 10
28.99999999999999
 20
4.607962708749171
 30
0.0
 11
29.0
 21
5.501341259369438
 31
0.0
  0
LINE
  5
3F1
330
18
100
AcDbEntity
  8
1
100
AcDbLine
 10
29.00000000000001
 20
4.607962708749171
 30
0.0
 11
29.0
 21
2.394837019080733
 31
0.0
  0
LINE
  5
3F2
330
18
100
AcDbEntity
  8
1
100
AcDbLine
 10
28.99999999999999
 20
1.451270670976085
 30
0.0
 11
29.0
 21
2.394837019080729
 31
0.0
  0
LINE
  5
3F3
330
18
100
AcDbEntity
  8
1
100
AcDbLine
 10
28.99999999999999
 20
-3.842743769076603
 30
0.0
 11
28.99999999999999
 21
1.451270670976085
 31
0.0
  0
LINE
  5
3F4
330
18
100
AcDbEntity
  8
1
100
AcDbLine
 10
29.00000000000001
 20
-3.84274376907661
 30
0.0
 11
29.0
 21
-5.501341259369443
 31
0.0
  0
LINE
  5
3F5
330
18
100
AcDbEntity
  8
1
100
AcDbLine
 10
-0.0000000000000009
 20
-5.999999999999998
 30
0.0
 11
28.00000000000001
 21
-5.999999999999998
 31
0.0
  0
LINE
  5
3F6
330
18
100
AcDbEntity
  8
1
 62
     1
100
AcDbLine
 10
55.0
 20
3.0
 30
0.0
 11
55.0
 21
2.99701742011701
 31
0.0
  0
LINE
  5
3F7
330
18
100
AcDbEntity
  8
1
 62
     1
100
AcDbLine
 10
55.0
 20
2.99701742011701
 30
0.0
 11
55.0
 21
2.73082016327026
 31
0.0
  0
LINE
  5
3F8
330
18
100
AcDbEntity
  8
1
 62
     1
100
AcDbLine
 10
55.0
 20
2.73082016327026
 30
0.0
 11
55.0
 21
-3.0
 31
0.0
  0
LINE
  5
3F9
330
18
100
AcDbEntity
  8
1
 62
     1
100
AcDbLine
 10
28.99999999999999
 20
2.394837019080733
 30
0.0
 11
31.08776697482146
 21
0.0000000000014566
 31
0.0
  0
ARC
  5
3FA
330
18
100
AcDbEntity
  8
1
 62
     1
100
AcDbCircle
 10
20.55177666947851
 20
-6.474360280410113
 30
0.0
 40
13.93535747581594
100
AcDbArc
 50
46.18037117175159
 51
52.68117537359145
  0
LINE
  5
3FB
330
18
100
AcDbEntity
  8
1
 62
     1
100
AcDbLine
 10
33.45290090324294
 20
5.999999999999999
 30
0.0
 11
33.74887562233732
 21
5.989837658858402
 31
0.0
  0
LINE
  5
3FC
330
18
100
AcDbEntity
  8
1
 62
     1
100
AcDbLine
 10
33.74887562233732
 20
5.989837658858402
 30
0.0
 11
34.04483432254615
 21
5.959391131725361
 31
0.0
  0
LINE
  5
3FD
330
18
100
AcDbEntity
  8
1
 62
     1
100
AcDbLine
 10
34.04483432254615
 20
5.959391131725361
 30
0.0
 11
34.34080404375885
 21
5.908761625327005
 31
0.0
  0
LINE
  5
3FE
330
18
100
AcDbEntity
  8
1
 62
     1
100
AcDbLine
 10
34.34080404375885
 20
5.908761625327005
 30
0.0
 11
34.63678342535341
 21
5.838114894727838
 31
0.0
  0
LINE
  5
3FF
330
18
100
AcDbEntity
  8
1
 62
     1
100
AcDbLine
 10
34.63678342535341
 20
5.838114894727838
 30
0.0
 11
34.93274277571954
 21
5.7477010939938
 31
0.0
  0
LINE
  5
400
330
18
100
AcDbEntity
  8
1
 62
     1
100
AcDbLine
 10
34.93274277571954
 20
5.7477010939938
 30
0.0
 11
35.22870842908567
 21
5.637821159350309
 31
0.0
  0
LINE
  5
401
330
18
100
AcDbEntity
  8
1
 62
     1
100
AcDbLine
 10
35.22870842908567
 20
5.637821159350309
 30
0.0
 11
35.52469085616437
 21
5.508838038533947
 31
0.0
  0
LINE
  5
402
330
18
100
AcDbEntity
  8
1
 62
     1
100
AcDbLine
 10
35.52469085616437
 20
5.508838038533947
 30
0.0
 11
35.82065152805642
 21
5.361205818866458
 31
0.0
  0
LINE
  5
403
330
18
100
AcDbEntity
  8
1
 62
     1
100
AcDbLine
 10
35.82065152805642
 20
5.361205818866458
 30
0.0
 11
36.11661415273471
 21
5.195418472453263
 31
0.0
  0
LINE
  5
404
330
18
100
AcDbEntity
  8
1
 62
     1
100
AcDbLine
 10
36.11661415273471
 20
5.195418472453263
 30
0.0
 11
36.41259571399873
 21
5.012021460972043
 31
0.0
  0
LINE
  5
405
330
18
100
AcDbEntity
  8
1
 62
     1
100
AcDbLine
 10
36.41259571399873
 20
5.012021460972043
 30
0.0
 11
36.7085599550724
 21
4.811659951715296
 31
0.0
  0
LINE
  5
406
330
18
100
AcDbEntity
  8
1
 62
     1
100
AcDbLine
 10
36.7085599550724
 20
4.811659951715296
 30
0.0
 11
37.00451948918548
 21
4.595007283756445
 31
0.0
  0
LINE
  5
407
330
18
100
AcDbEntity
  8
1
 62
     1
100
AcDbLine
 10
37.00451948918548
 20
4.595007283756445
 30
0.0
 11
37.59646821243793
 21
4.115777337855444
 31
0.0
  0
LINE
  5
408
330
18
100
AcDbEntity
  8
1
 62
     1
100
AcDbLine
 10
37.59646821243793
 20
4.115777337855444
 30
0.0
 11
38.1884019660927
 21
3.580849250019197
 31
0.0
  0
LINE
  5
409
330
18
100
AcDbEntity
  8
1
 62
     1
100
AcDbLine
 10
31.08776697482269
 20
6.000000000000001
 30
0.0
 11
31.33737800801882
 21
5.992770808073555
 31
0.0
  0
LINE
  5
40A
330
18
100
AcDbEntity
  8
1
 62
     1
100
AcDbLine
 10
31.33737800801882
 20
5.992770808073555
 30
0.0
 11
31.58697640398445
 21
5.971108318257584
 31
0.0
  0
LINE
  5
40B
330
18
100
AcDbEntity
  8
1
 62
     1
100
AcDbLine
 10
31.58697640398445
 20
5.971108318257584
 30
0.0
 11
31.8365982386615
 21
5.935056024143581
 31
0.0
  0
LINE
  5
40C
330
18
100
AcDbEntity
  8
1
 62
     1
100
AcDbLine
 10
31.8365982386615
 20
5.935056024143581
 30
0.0
 11
32.08619327885516
 21
5.884710452329068
 31
0.0
  0
LINE
  5
40D
330
18
100
AcDbEntity
  8
1
 62
     1
100
AcDbLine
 10
32.08619327885516
 20
5.884710452329068
 30
0.0
 11
32.33581315705124
 21
5.820183489136825
 31
0.0
  0
LINE
  5
40E
330
18
100
AcDbEntity
  8
1
 62
     1
100
AcDbLine
 10
32.33581315705124
 20
5.820183489136825
 30
0.0
 11
32.58541418567366
 21
5.741637755095661
 31
0.0
  0
LINE
  5
40F
330
18
100
AcDbEntity
  8
1
 62
     1
100
AcDbLine
 10
32.58541418567366
 20
5.741637755095661
 30
0.0
 11
32.83502026163769
 21
5.649261517371711
 31
0.0
  0
LINE
  5
410
330
18
100
AcDbEntity
  8
1
 62
     1
100
AcDbLine
 10
32.83502026163769
 20
5.649261517371711
 30
0.0
 11
33.08463568102086
 21
5.543268592102019
 31
0.0
  0
LINE
  5
411
330
18
100
AcDbEntity
  8
1
 62
     1
100
AcDbLine
 10
33.08463568102086
 20
5.543268592102019
 30
0.0
 11
33.33423191346988
 21
5.423932274944208
 31
0.0
  0
LINE
  5
412
330
18
100
AcDbEntity
  8
1
 62
     1
100
AcDbLine
 10
33.33423191346988
 20
5.423932274944208
 30
0.0
 11
33.58385426089367
 21
5.291515050861795
 31
0.0
  0
LINE
  5
413
330
18
100
AcDbEntity
  8
1
 62
     1
100
AcDbLine
 10
33.58385426089367
 20
5.291515050861795
 30
0.0
 11
33.83345014853212
 21
5.146363957543817
 31
0.0
  0
LINE
  5
414
330
18
100
AcDbEntity
  8
1
 62
     1
100
AcDbLine
 10
33.83345014853212
 20
5.146363957543817
 30
0.0
 11
34.08306626759049
 21
4.988804460959128
 31
0.0
  0
LINE
  5
415
330
18
100
AcDbEntity
  8
1
 62
     1
100
AcDbLine
 10
34.08306626759049
 20
4.988804460959128
 30
0.0
 11
34.58227279111308
 21
4.638052508124617
 31
0.0
  0
LINE
  5
416
330
18
100
AcDbEntity
  8
1
 62
     1
100
AcDbLine
 10
34.58227279111308
 20
4.638052508124617
 30
0.0
 11
35.08148686670092
 21
4.242627991330428
 31
0.0
  0
LINE
  5
417
330
18
100
AcDbEntity
  8
1
 62
     1
100
AcDbLine
 10
35.08148686670092
 20
4.242627991330428
 30
0.0
 11
35.58070632582236
 21
3.806339851375395
 31
0.0
  0
LINE
  5
418
330
18
100
AcDbEntity
  8
1
 62
     1
100
AcDbLine
 10
35.58070632582236
 20
3.806339851375395
 30
0.0
 11
36.07992745200597
 21
3.333392503036364
 31
0.0
  0
LINE
  5
419
330
18
100
AcDbEntity
  8
1
 62
     1
100
AcDbLine
 10
36.07992745200597
 20
3.333392503036364
 30
0.0
 11
37.07835929267602
 21
2.296063382746745
 31
0.0
  0
LINE
  5
41A
330
18
100
AcDbEntity
  8
1
 62
     1
100
AcDbLine
 10
37.07835929267602
 20
2.296063382746745
 30
0.0
 11
39.0751780336788
 21
-0.0000000000000637
 31
0.0
  0
LINE
  5
41B
330
18
100
AcDbEntity
  8
1
 62
     1
100
AcDbLine
 10
41.44031156844957
 20
5.999999999999998
 30
0.0
 11
41.73628636176409
 21
5.989837648449186
 31
0.0
  0
LINE
  5
41C
330
18
100
AcDbEntity
  8
1
 62
     1
100
AcDbLine
 10
41.73628636176409
 20
5.989837648449186
 30
0.0
 11
42.03224498224762
 21
5.959391126569818
 31
0.0
  0
LINE
  5
41D
330
18
100
AcDbEntity
  8
1
 62
     1
100
AcDbLine
 10
42.03224498224762
 20
5.959391126569818
 30
0.0
 11
42.32821480334168
 21
5.908761600737839
 31
0.0
  0
LINE
  5
41E
330
18
100
AcDbEntity
  8
1
 62
     1
100
AcDbLine
 10
42.32821480334168
 20
5.908761600737839
 30
0.0
 11
42.62419481346591
 21
5.838114977872689
 31
0.0
  0
LINE
  5
41F
330
18
100
AcDbEntity
  8
1
 62
     1
100
AcDbLine
 10
42.62419481346591
 20
5.838114977872689
 30
0.0
 11
42.92015387641676
 21
5.747701092397042
 31
0.0
  0
LINE
  5
420
330
18
100
AcDbEntity
  8
1
 62
     1
100
AcDbLine
 10
42.92015387641676
 20
5.747701092397042
 30
0.0
 11
43.21611999045062
 21
5.63782126060357
 31
0.0
  0
LINE
  5
421
330
18
100
AcDbEntity
  8
1
 62
     1
100
AcDbLine
 10
43.21611999045062
 20
5.63782126060357
 30
0.0
 11
43.51210150948454
 21
5.508837815821234
 31
0.0
  0
LINE
  5
422
330
18
100
AcDbEntity
  8
1
 62
     1
100
AcDbLine
 10
43.51210150948454
 20
5.508837815821234
 30
0.0
 11
43.808062761529
 21
5.36120575322782
 31
0.0
  0
LINE
  5
423
330
18
100
AcDbEntity
  8
1
 62
     1
100
AcDbLine
 10
43.808062761529
 20
5.36120575322782
 30
0.0
 11
44.10402486665435
 21
5.195418157153829
 31
0.0
  0
LINE
  5
424
330
18
100
AcDbEntity
  8
1
 62
     1
100
AcDbLine
 10
44.10402486665435
 20
5.195418157153829
 30
0.0
 11
44.40000705219153
 21
5.012021362101856
 31
0.0
  0
LINE
  5
425
330
18
100
AcDbEntity
  8
1
 62
     1
100
AcDbLine
 10
44.40000705219153
 20
5.012021362101856
 30
0.0
 11
44.69597135043969
 21
4.811659839787364
 31
0.0
  0
LINE
  5
426
330
18
100
AcDbEntity
  8
1
 62
     1
100
AcDbLine
 10
44.69597135043969
 20
4.811659839787364
 30
0.0
 11
44.99193094928079
 21
4.595007133089931
 31
0.0
  0
LINE
  5
427
330
18
100
AcDbEntity
  8
1
 62
     1
100
AcDbLine
 10
44.99193094928079
 20
4.595007133089931
 30
0.0
 11
45.5838793197529
 21
4.115776825029414
 31
0.0
  0
LINE
  5
428
330
18
100
AcDbEntity
  8
1
 62
     1
100
AcDbLine
 10
45.5838793197529
 20
4.115776825029414
 30
0.0
 11
46.17581297351326
 21
3.580848511984763
 31
0.0
  0
LINE
  5
429
330
18
100
AcDbEntity
  8
1
 62
     1
100
AcDbLine
 10
39.07517803367883
 20
6.0
 30
0.0
 11
41.44031156844958
 21
6.0
 31
0.0
  0
LINE
  5
42A
330
18
100
AcDbEntity
  8
1
 62
     1
100
AcDbLine
 10
39.07517803367882
 20
6.000000000000001
 30
0.0
 11
39.32478903046632
 21
5.992770806448959
 31
0.0
  0
LINE
  5
42B
330
18
100
AcDbEntity
  8
1
 62
     1
100
AcDbLine
 10
39.32478903046632
 20
5.992770806448959
 30
0.0
 11
39.5743874591189
 21
5.971108317524294
 31
0.0
  0
LINE
  5
42C
330
18
100
AcDbEntity
  8
1
 62
     1
100
AcDbLine
 10
39.5743874591189
 20
5.971108317524294
 30
0.0
 11
39.82400922378197
 21
5.935056014019858
 31
0.0
  0
LINE
  5
42D
330
18
100
AcDbEntity
  8
1
 62
     1
100
AcDbLine
 10
39.82400922378197
 20
5.935056014019858
 30
0.0
 11
40.07360430725332
 21
5.884710446918267
 31
0.0
  0
LINE
  5
42E
330
18
100
AcDbEntity
  8
1
 62
     1
100
AcDbLine
 10
40.07360430725332
 20
5.884710446918267
 30
0.0
 11
40.32322413238417
 21
5.820183472449333
 31
0.0
  0
LINE
  5
42F
330
18
100
AcDbEntity
  8
1
 62
     1
100
AcDbLine
 10
40.32322413238417
 20
5.820183472449333
 30
0.0
 11
40.57282519523321
 21
5.741637745435431
 31
0.0
  0
LINE
  5
430
330
18
100
AcDbEntity
  8
1
 62
     1
100
AcDbLine
 10
40.57282519523321
 20
5.741637745435431
 30
0.0
 11
40.82243126114975
 21
5.649261501945603
 31
0.0
  0
LINE
  5
431
330
18
100
AcDbEntity
  8
1
 62
     1
100
AcDbLine
 10
40.82243126114975
 20
5.649261501945603
 30
0.0
 11
41.07204671395593
 21
5.543268587132021
 31
0.0
  0
LINE
  5
432
330
18
100
AcDbEntity
  8
1
 62
     1
100
AcDbLine
 10
41.07204671395593
 20
5.543268587132021
 30
0.0
 11
41.32164294908178
 21
5.423932268891375
 31
0.0
  0
LINE
  5
433
330
18
100
AcDbEntity
  8
1
 62
     1
100
AcDbLine
 10
41.32164294908178
 20
5.423932268891375
 30
0.0
 11
41.57126528568165
 21
5.291515040140435
 31
0.0
  0
LINE
  5
434
330
18
100
AcDbEntity
  8
1
 62
     1
100
AcDbLine
 10
41.57126528568165
 20
5.291515040140435
 30
0.0
 11
41.8208611812048
 21
5.146363948225716
 31
0.0
  0
LINE
  5
435
330
18
100
AcDbEntity
  8
1
 62
     1
100
AcDbLine
 10
41.8208611812048
 20
5.146363948225716
 30
0.0
 11
42.07047725189634
 21
4.988804429876842
 31
0.0
  0
LINE
  5
436
330
18
100
AcDbEntity
  8
1
 62
     1
100
AcDbLine
 10
42.07047725189634
 20
4.988804429876842
 30
0.0
 11
42.56968375758468
 21
4.638052464103579
 31
0.0
  0
LINE
  5
437
330
18
100
AcDbEntity
  8
1
 62
     1
100
AcDbLine
 10
42.56968375758468
 20
4.638052464103579
 30
0.0
 11
43.06889785690603
 21
4.242627958111847
 31
0.0
  0
LINE
  5
438
330
18
100
AcDbEntity
  8
1
 62
     1
100
AcDbLine
 10
43.06889785690603
 20
4.242627958111847
 30
0.0
 11
43.56811734669862
 21
3.806339835108338
 31
0.0
  0
LINE
  5
439
330
18
100
AcDbEntity
  8
1
 62
     1
100
AcDbLine
 10
43.56811734669862
 20
3.806339835108338
 30
0.0
 11
44.06733844454766
 21
3.333392465759858
 31
0.0
  0
LINE
  5
43A
330
18
100
AcDbEntity
  8
1
 62
     1
100
AcDbLine
 10
44.06733844454766
 20
3.333392465759858
 30
0.0
 11
45.06577032338807
 21
2.296063374948648
 31
0.0
  0
LINE
  5
43B
330
18
100
AcDbEntity
  8
1
 62
     1
100
AcDbLine
 10
45.06577032338807
 20
2.296063374948648
 30
0.0
 11
47.06258906865369
 21
-0.0000000000002435
 31
0.0
  0
LINE
  5
43C
330
18
100
AcDbEntity
  8
1
 62
     1
100
AcDbLine
 10
49.42772177312365
 20
6.0
 30
0.0
 11
49.58848527273634
 21
5.997000089166378
 31
0.0
  0
LINE
  5
43D
330
18
100
AcDbEntity
  8
1
 62
     1
100
AcDbLine
 10
49.58848527273634
 20
5.997000089166378
 30
0.0
 11
49.74926462178595
 21
5.988007271635209
 31
0.0
  0
LINE
  5
43E
330
18
100
AcDbEntity
  8
1
 62
     1
100
AcDbLine
 10
49.74926462178595
 20
5.988007271635209
 30
0.0
 11
49.91001920166546
 21
5.973031422787208
 31
0.0
  0
LINE
  5
43F
330
18
100
AcDbEntity
  8
1
 62
     1
100
AcDbLine
 10
49.91001920166546
 20
5.973031422787208
 30
0.0
 11
50.07079282417637
 21
5.952081532694258
 31
0.0
  0
LINE
  5
440
330
18
100
AcDbEntity
  8
1
 62
     1
100
AcDbLine
 10
50.07079282417637
 20
5.952081532694258
 30
0.0
 11
50.2315678219667
 21
5.925184538055625
 31
0.0
  0
LINE
  5
441
330
18
100
AcDbEntity
  8
1
 62
     1
100
AcDbLine
 10
50.2315678219667
 20
5.925184538055625
 30
0.0
 11
50.39232149273536
 21
5.892367434404313
 31
0.0
  0
LINE
  5
442
330
18
100
AcDbEntity
  8
1
 62
     1
100
AcDbLine
 10
50.39232149273536
 20
5.892367434404313
 30
0.0
 11
50.71386619728186
 21
5.809097722493644
 31
0.0
  0
LINE
  5
443
330
18
100
AcDbEntity
  8
1
 62
     1
100
AcDbLine
 10
50.71386619728186
 20
5.809097722493644
 30
0.0
 11
51.03540627290548
 21
5.702606614901512
 31
0.0
  0
LINE
  5
444
330
18
100
AcDbEntity
  8
1
 62
     1
100
AcDbLine
 10
51.03540627290548
 20
5.702606614901512
 30
0.0
 11
51.35693395283116
 21
5.573327528590898
 31
0.0
  0
LINE
  5
445
330
18
100
AcDbEntity
  8
1
 62
     1
100
AcDbLine
 10
51.35693395283116
 20
5.573327528590898
 30
0.0
 11
51.67846262248069
 21
5.421773318637447
 31
0.0
  0
LINE
  5
446
330
18
100
AcDbEntity
  8
1
 62
     1
100
AcDbLine
 10
51.67846262248069
 20
5.421773318637447
 30
0.0
 11
52.0
 21
5.248543637648122
 31
0.0
  0
LINE
  5
447
330
18
100
AcDbEntity
  8
1
 62
     1
100
AcDbLine
 10
47.06258906865382
 20
5.999999999999999
 30
0.0
 11
47.21687917581004
 21
5.997236715136689
 31
0.0
  0
LINE
  5
448
330
18
100
AcDbEntity
  8
1
 62
     1
100
AcDbLine
 10
47.21687917581004
 20
5.997236715136689
 30
0.0
 11
47.37118582664267
 21
5.988952989253255
 31
0.0
  0
LINE
  5
449
330
18
100
AcDbEntity
  8
1
 62
     1
100
AcDbLine
 10
47.37118582664267
 20
5.988952989253255
 30
0.0
 11
47.52547004425691
 21
5.975157809755769
 31
0.0
  0
LINE
  5
44A
330
18
100
AcDbEntity
  8
1
 62
     1
100
AcDbLine
 10
47.52547004425691
 20
5.975157809755769
 30
0.0
 11
47.6797667362307
 21
5.955857931870533
 31
0.0
  0
LINE
  5
44B
330
18
100
AcDbEntity
  8
1
 62
     1
100
AcDbLine
 10
47.6797667362307
 20
5.955857931870533
 30
0.0
 11
47.98835286120318
 21
5.900836623250166
 31
0.0
  0
LINE
  5
44C
330
18
100
AcDbEntity
  8
1
 62
     1
100
AcDbLine
 10
47.98835286120318
 20
5.900836623250166
 30
0.0
 11
48.29695610078326
 21
5.824084166496018
 31
0.0
  0
LINE
  5
44D
330
18
100
AcDbEntity
  8
1
 62
     1
100
AcDbLine
 10
48.29695610078326
 20
5.824084166496018
 30
0.0
 11
48.60554225568465
 21
5.725891688599174
 31
0.0
  0
LINE
  5
44E
330
18
100
AcDbEntity
  8
1
 62
     1
100
AcDbLine
 10
48.60554225568465
 20
5.725891688599174
 30
0.0
 11
48.91412299504935
 21
5.606622198910803
 31
0.0
  0
LINE
  5
44F
330
18
100
AcDbEntity
  8
1
 62
     1
100
AcDbLine
 10
48.91412299504935
 20
5.606622198910803
 30
0.0
 11
49.22271912572004
 21
5.466704728856208
 31
0.0
  0
LINE
  5
450
330
18
100
AcDbEntity
  8
1
 62
     1
100
AcDbLine
 10
49.22271912572004
 20
5.466704728856208
 30
0.0
 11
49.53131597770967
 21
5.306656673567236
 31
0.0
  0
LINE
  5
451
330
18
100
AcDbEntity
  8
1
 62
     1
100
AcDbLine
 10
49.53131597770967
 20
5.306656673567236
 30
0.0
 11
49.83989686473843
 21
5.12708021293229
 31
0.0
  0
LINE
  5
452
330
18
100
AcDbEntity
  8
1
 62
     1
100
AcDbLine
 10
49.83989686473843
 20
5.12708021293229
 30
0.0
 11
50.14848220409952
 21
4.928626505612424
 31
0.0
  0
LINE
  5
453
330
18
100
AcDbEntity
  8
1
 62
     1
100
AcDbLine
 10
50.14848220409952
 20
4.928626505612424
 30
0.0
 11
50.45708495179224
 21
4.712013593564922
 31
0.0
  0
LINE
  5
454
330
18
100
AcDbEntity
  8
1
 62
     1
100
AcDbLine
 10
50.45708495179224
 20
4.712013593564922
 30
0.0
 11
51.07425197528855
 21
4.227630514919792
 31
0.0
  0
LINE
  5
455
330
18
100
AcDbEntity
  8
1
 62
     1
100
AcDbLine
 10
51.07425197528855
 20
4.227630514919792
 30
0.0
 11
51.53713844468741
 21
3.823088771677252
 31
0.0
  0
LINE
  5
456
330
18
100
AcDbEntity
  8
1
 62
     1
100
AcDbLine
 10
51.53713844468741
 20
3.823088771677252
 30
0.0
 11
51.99999999999999
 21
3.386913829741977
 31
0.0
  0
LINE
  5
457
330
18
100
AcDbEntity
  8
1
 62
     1
100
AcDbLine
 10
54.93180652705712
 20
3.635029189162633
 30
0.0
 11
54.89635984908038
 21
3.780000449551105
 31
0.0
  0
LINE
  5
458
330
18
100
AcDbEntity
  8
1
 62
     1
100
AcDbLine
 10
54.89635984908038
 20
3.780000449551105
 30
0.0
 11
54.85405023572391
 21
3.921419346770542
 31
0.0
  0
LINE
  5
459
330
18
100
AcDbEntity
  8
1
 62
     1
100
AcDbLine
 10
54.85405023572391
 20
3.921419346770542
 30
0.0
 11
54.80525374075896
 21
4.058566221356141
 31
0.0
  0
LINE
  5
45A
330
18
100
AcDbEntity
  8
1
 62
     1
100
AcDbLine
 10
54.80525374075896
 20
4.058566221356141
 30
0.0
 11
54.75039975311105
 21
4.190755812125499
 31
0.0
  0
LINE
  5
45B
330
18
100
AcDbEntity
  8
1
 62
     1
100
AcDbLine
 10
54.75039975311105
 20
4.190755812125499
 30
0.0
 11
54.68996326435847
 21
4.317348069130978
 31
0.0
  0
LINE
  5
45C
330
18
100
AcDbEntity
  8
1
 62
     1
100
AcDbLine
 10
54.68996326435847
 20
4.317348069130978
 30
0.0
 11
54.62445576459142
 21
4.437764933355303
 31
0.0
  0
LINE
  5
45D
330
18
100
AcDbEntity
  8
1
 62
     1
100
AcDbLine
 10
54.62445576459142
 20
4.437764933355303
 30
0.0
 11
54.5543846167301
 21
4.551544554363923
 31
0.0
  0
LINE
  5
45E
330
18
100
AcDbEntity
  8
1
 62
     1
100
AcDbLine
 10
54.5543846167301
 20
4.551544554363923
 30
0.0
 11
54.48024740229413
 21
4.65831682109264
 31
0.0
  0
LINE
  5
45F
330
18
100
AcDbEntity
  8
1
 62
     1
100
AcDbLine
 10
54.48024740229413
 20
4.65831682109264
 30
0.0
 11
54.40252315265579
 21
4.757798241776966
 31
0.0
  0
LINE
  5
460
330
18
100
AcDbEntity
  8
1
 62
     1
100
AcDbLine
 10
54.40252315265579
 20
4.757798241776966
 30
0.0
 11
54.32167337131693
 21
4.849778935791179
 31
0.0
  0
LINE
  5
461
330
18
100
AcDbEntity
  8
1
 62
     1
100
AcDbLine
 10
54.32167337131693
 20
4.849778935791179
 30
0.0
 11
54.238110854052
 21
4.934144800692582
 31
0.0
  0
LINE
  5
462
330
18
100
AcDbEntity
  8
1
 62
     1
100
AcDbLine
 10
54.238110854052
 20
4.934144800692582
 30
0.0
 11
54.15220514549557
 21
5.010849213784517
 31
0.0
  0
LINE
  5
463
330
18
100
AcDbEntity
  8
1
 62
     1
100
AcDbLine
 10
54.15220514549557
 20
5.010849213784517
 30
0.0
 11
54.06428636049105
 21
5.079897668126093
 31
0.0
  0
LINE
  5
464
330
18
100
AcDbEntity
  8
1
 62
     1
100
AcDbLine
 10
54.06428636049105
 20
5.079897668126093
 30
0.0
 11
53.9746542893307
 21
5.141333585145303
 31
0.0
  0
LINE
  5
465
330
18
100
AcDbEntity
  8
1
 62
     1
100
AcDbLine
 10
53.9746542893307
 20
5.141333585145303
 30
0.0
 11
53.88356746044755
 21
5.19524080200063
 31
0.0
  0
LINE
  5
466
330
18
100
AcDbEntity
  8
1
 62
     1
100
AcDbLine
 10
53.88356746044755
 20
5.19524080200063
 30
0.0
 11
53.79124380033561
 21
5.241732853779767
 31
0.0
  0
LINE
  5
467
330
18
100
AcDbEntity
  8
1
 62
     1
100
AcDbLine
 10
53.79124380033561
 20
5.241732853779767
 30
0.0
 11
53.69787160632082
 21
5.280940412895838
 31
0.0
  0
LINE
  5
468
330
18
100
AcDbEntity
  8
1
 62
     1
100
AcDbLine
 10
53.69787160632082
 20
5.280940412895838
 30
0.0
 11
53.60359741848043
 21
5.313010169419696
 31
0.0
  0
LINE
  5
469
330
18
100
AcDbEntity
  8
1
 62
     1
100
AcDbLine
 10
53.60359741848043
 20
5.313010169419696
 30
0.0
 11
53.50858817648103
 21
5.338087517116779
 31
0.0
  0
LINE
  5
46A
330
18
100
AcDbEntity
  8
1
 62
     1
100
AcDbLine
 10
53.50858817648103
 20
5.338087517116779
 30
0.0
 11
53.41294952496523
 21
5.356330031008977
 31
0.0
  0
LINE
  5
46B
330
18
100
AcDbEntity
  8
1
 62
     1
100
AcDbLine
 10
53.41294952496523
 20
5.356330031008977
 30
0.0
 11
53.31679900874592
 21
5.3678994459344
 31
0.0
  0
LINE
  5
46C
330
18
100
AcDbEntity
  8
1
 62
     1
100
AcDbLine
 10
53.31679900874592
 20
5.3678994459344
 30
0.0
 11
53.22020332309081
 21
5.372956721064126
 31
0.0
  0
LINE
  5
46D
330
18
100
AcDbEntity
  8
1
 62
     1
100
AcDbLine
 10
53.22020332309081
 20
5.372956721064126
 30
0.0
 11
53.12325621655617
 21
5.371664855775594
 31
0.0
  0
LINE
  5
46E
330
18
100
AcDbEntity
  8
1
 62
     1
100
AcDbLine
 10
53.12325621655617
 20
5.371664855775594
 30
0.0
 11
53.0259959460541
 21
5.364180899367589
 31
0.0
  0
LINE
  5
46F
330
18
100
AcDbEntity
  8
1
 62
     1
100
AcDbLine
 10
53.0259959460541
 20
5.364180899367589
 30
0.0
 11
52.92849894811566
 21
5.350666350236718
 31
0.0
  0
LINE
  5
470
330
18
100
AcDbEntity
  8
1
 62
     1
100
AcDbLine
 10
52.92849894811566
 20
5.350666350236718
 30
0.0
 11
52.8307832136138
 21
5.331270868657096
 31
0.0
  0
LINE
  5
471
330
18
100
AcDbEntity
  8
1
 62
     1
100
AcDbLine
 10
52.8307832136138
 20
5.331270868657096
 30
0.0
 11
52.73291277854857
 21
5.306153554963971
 31
0.0
  0
LINE
  5
472
330
18
100
AcDbEntity
  8
1
 62
     1
100
AcDbLine
 10
52.73291277854857
 20
5.306153554963971
 30
0.0
 11
52.63489140365262
 21
5.275455738563593
 31
0.0
  0
LINE
  5
473
330
18
100
AcDbEntity
  8
1
 62
     1
100
AcDbLine
 10
52.63489140365262
 20
5.275455738563593
 30
0.0
 11
52.53677419269388
 21
5.23933443313029
 31
0.0
  0
LINE
  5
474
330
18
100
AcDbEntity
  8
1
 62
     1
100
AcDbLine
 10
52.53677419269388
 20
5.23933443313029
 30
0.0
 11
52.43855526809532
 21
5.197923127442902
 31
0.0
  0
LINE
  5
475
330
18
100
AcDbEntity
  8
1
 62
     1
100
AcDbLine
 10
52.43855526809532
 20
5.197923127442902
 30
0.0
 11
52.34028361151228
 21
5.151377504716607
 31
0.0
  0
LINE
  5
476
330
18
100
AcDbEntity
  8
1
 62
     1
100
AcDbLine
 10
52.34028361151228
 20
5.151377504716607
 30
0.0
 11
52.24194745054989
 21
5.099824537596093
 31
0.0
  0
LINE
  5
477
330
18
100
AcDbEntity
  8
1
 62
     1
100
AcDbLine
 10
54.93180652705712
 20
3.635029189162633
 30
0.0
 11
54.93471071176985
 21
3.622473323302558
 31
0.0
  0
ARC
  5
478
330
18
100
AcDbEntity
  8
1
 62
     1
100
AcDbCircle
 10
52.00000000000032
 20
3.000000000000005
 30
0.0
 40
2.999999999999677
100
AcDbArc
 50
359.9999999999999
 51
11.97536513575555
  0
LINE
  5
479
330
18
100
AcDbEntity
  8
1
 62
     1
100
AcDbLine
 10
54.93180652705711
 20
0.0845081085149105
 30
0.0
 11
54.8469598380372
 21
0.1575202341614779
 31
0.0
  0
LINE
  5
47A
330
18
100
AcDbEntity
  8
1
 62
     1
100
AcDbLine
 10
54.8469598380372
 20
0.1575202341614779
 30
0.0
 11
54.73239224395391
 21
0.2645714468613838
 31
0.0
  0
LINE
  5
47B
330
18
100
AcDbEntity
  8
1
 62
     1
100
AcDbLine
 10
54.73239224395391
 20
0.2645714468613838
 30
0.0
 11
54.43285080554237
 21
0.5757311789004517
 31
0.0
  0
LINE
  5
47C
330
18
100
AcDbEntity
  8
1
 62
     1
100
AcDbLine
 10
54.43285080554237
 20
0.5757311789004517
 30
0.0
 11
54.07118150826845
 21
0.9891145708542521
 31
0.0
  0
LINE
  5
47D
330
18
100
AcDbEntity
  8
1
 62
     1
100
AcDbLine
 10
54.07118150826845
 20
0.9891145708542521
 30
0.0
 11
53.26496394740428
 21
1.967073489257378
 31
0.0
  0
LINE
  5
47E
330
18
100
AcDbEntity
  8
1
 62
     1
100
AcDbLine
 10
53.26496394740428
 20
1.967073489257378
 30
0.0
 11
52.63505701561874
 21
2.712517047185458
 31
0.0
  0
LINE
  5
47F
330
18
100
AcDbEntity
  8
1
 62
     1
100
AcDbLine
 10
52.63505701561874
 20
2.712517047185458
 30
0.0
 11
52.31778038564421
 21
3.062351199277921
 31
0.0
  0
LINE
  5
480
330
18
100
AcDbEntity
  8
1
 62
     1
100
AcDbLine
 10
52.31778038564421
 20
3.062351199277921
 30
0.0
 11
51.99999999999999
 21
3.386913829741973
 31
0.0
  0
LINE
  5
481
330
18
100
AcDbEntity
  8
1
 62
     1
100
AcDbLine
 10
54.93180652705712
 20
-3.635029189162633
 30
0.0
 11
54.89334731526341
 21
-3.791004948372613
 31
0.0
  0
LINE
  5
482
330
18
100
AcDbEntity
  8
1
 62
     1
100
AcDbLine
 10
54.89334731526341
 20
-3.791004948372613
 30
0.0
 11
54.84695983803721
 21
-3.942801102214843
 31
0.0
  0
LINE
  5
483
330
18
100
AcDbEntity
  8
1
 62
     1
100
AcDbLine
 10
54.84695983803721
 20
-3.942801102214843
 30
0.0
 11
54.79312417642121
 21
-4.089514322255765
 31
0.0
  0
LINE
  5
484
330
18
100
AcDbEntity
  8
1
 62
     1
100
AcDbLine
 10
54.79312417642121
 20
-4.089514322255765
 30
0.0
 11
54.73239224395391
 21
-4.230293809380055
 31
0.0
  0
LINE
  5
485
330
18
100
AcDbEntity
  8
1
 62
     1
100
AcDbLine
 10
54.73239224395391
 20
-4.230293809380055
 30
0.0
 11
54.66536679034398
 21
-4.364371804514532
 31
0.0
  0
LINE
  5
486
330
18
100
AcDbEntity
  8
1
 62
     1
100
AcDbLine
 10
54.66536679034398
 20
-4.364371804514532
 30
0.0
 11
54.59267806760268
 21
-4.491086548714133
 31
0.0
  0
LINE
  5
487
330
18
100
AcDbEntity
  8
1
 62
     1
100
AcDbLine
 10
54.59267806760268
 20
-4.491086548714133
 30
0.0
 11
54.5149667606433
 21
-4.609888050007142
 31
0.0
  0
LINE
  5
488
330
18
100
AcDbEntity
  8
1
 62
     1
100
AcDbLine
 10
54.5149667606433
 20
-4.609888050007142
 30
0.0
 11
54.43285080554239
 21
-4.720363756689985
 31
0.0
  0
LINE
  5
489
330
18
100
AcDbEntity
  8
1
 62
     1
100
AcDbLine
 10
54.43285080554239
 20
-4.720363756689985
 30
0.0
 11
54.34690872757486
 21
-4.822227091482993
 31
0.0
  0
LINE
  5
48A
330
18
100
AcDbEntity
  8
1
 62
     1
100
AcDbLine
 10
54.34690872757486
 20
-4.822227091482993
 30
0.0
 11
54.25767240398039
 21
-4.915299464735075
 31
0.0
  0
LINE
  5
48B
330
18
100
AcDbEntity
  8
1
 62
     1
100
AcDbLine
 10
54.25767240398039
 20
-4.915299464735075
 30
0.0
 11
54.16562132968851
 21
-4.999495568516591
 31
0.0
  0
LINE
  5
48C
330
18
100
AcDbEntity
  8
1
 62
     1
100
AcDbLine
 10
54.16562132968851
 20
-4.999495568516591
 30
0.0
 11
54.07118150826845
 21
-5.074807008876725
 31
0.0
  0
LINE
  5
48D
330
18
100
AcDbEntity
  8
1
 62
     1
100
AcDbLine
 10
54.07118150826845
 20
-5.074807008876725
 30
0.0
 11
54.02319042508373
 21
-5.109141465517158
 31
0.0
  0
LINE
  5
48E
330
18
100
AcDbEntity
  8
1
 62
     1
100
AcDbLine
 10
54.02319042508373
 20
-5.109141465517158
 30
0.0
 11
53.97473061277184
 21
-5.141284903503536
 31
0.0
  0
LINE
  5
48F
330
18
100
AcDbEntity
  8
1
 62
     1
100
AcDbLine
 10
53.97473061277184
 20
-5.141284903503536
 30
0.0
 11
53.92585688729914
 21
-5.17124057002136
 31
0.0
  0
LINE
  5
490
330
18
100
AcDbEntity
  8
1
 62
     1
100
AcDbLine
 10
53.92585688729914
 20
-5.17124057002136
 30
0.0
 11
53.87658962535411
 21
-5.199034163231111
 31
0.0
  0
LINE
  5
491
330
18
100
AcDbEntity
  8
1
 62
     1
100
AcDbLine
 10
53.87658962535411
 20
-5.199034163231111
 30
0.0
 11
53.82697204019559
 21
-5.224678942956775
 31
0.0
  0
LINE
  5
492
330
18
100
AcDbEntity
  8
1
 62
     1
100
AcDbLine
 10
53.82697204019559
 20
-5.224678942956775
 30
0.0
 11
53.77703249723777
 21
-5.24819512523458
 31
0.0
  0
LINE
  5
493
330
18
100
AcDbEntity
  8
1
 62
     1
100
AcDbLine
 10
53.77703249723777
 20
-5.24819512523458
 30
0.0
 11
53.72679362012244
 21
-5.269607340230349
 31
0.0
  0
LINE
  5
494
330
18
100
AcDbEntity
  8
1
 62
     1
100
AcDbLine
 10
53.72679362012244
 20
-5.269607340230349
 30
0.0
 11
53.67629117408117
 21
-5.288932911965745
 31
0.0
  0
LINE
  5
495
330
18
100
AcDbEntity
  8
1
 62
     1
100
AcDbLine
 10
53.67629117408117
 20
-5.288932911965745
 30
0.0
 11
53.62552794377224
 21
-5.306202254525323
 31
0.0
  0
LINE
  5
496
330
18
100
AcDbEntity
  8
1
 62
     1
100
AcDbLine
 10
53.62552794377224
 20
-5.306202254525323
 30
0.0
 11
53.57453624823381
 21
-5.321436094723284
 31
0.0
  0
LINE
  5
497
330
18
100
AcDbEntity
  8
1
 62
     1
100
AcDbLine
 10
53.57453624823381
 20
-5.321436094723284
 30
0.0
 11
53.52335284191735
 21
-5.334653587178106
 31
0.0
  0
LINE
  5
498
330
18
100
AcDbEntity
  8
1
 62
     1
100
AcDbLine
 10
53.52335284191735
 20
-5.334653587178106
 30
0.0
 11
53.47198812883079
 21
-5.345880663717278
 31
0.0
  0
LINE
  5
499
330
18
100
AcDbEntity
  8
1
 62
     1
100
AcDbLine
 10
53.47198812883079
 20
-5.345880663717278
 30
0.0
 11
53.42044203572471
 21
-5.35514703995976
 31
0.0
  0
LINE
  5
49A
330
18
100
AcDbEntity
  8
1
 62
     1
100
AcDbLine
 10
53.42044203572471
 20
-5.35514703995976
 30
0.0
 11
53.36874405075055
 21
-5.362475461674215
 31
0.0
  0
LINE
  5
49B
330
18
100
AcDbEntity
  8
1
 62
     1
100
AcDbLine
 10
53.36874405075055
 20
-5.362475461674215
 30
0.0
 11
53.3169210522105
 21
-5.367888949310018
 31
0.0
  0
LINE
  5
49C
330
18
100
AcDbEntity
  8
1
 62
     1
100
AcDbLine
 10
53.3169210522105
 20
-5.367888949310018
 30
0.0
 11
53.2649639474043
 21
-5.371414841067534
 31
0.0
  0
LINE
  5
49D
330
18
100
AcDbEntity
  8
1
 62
     1
100
AcDbLine
 10
53.2649639474043
 20
-5.371414841067534
 30
0.0
 11
53.212885434481
 21
-5.373078924315648
 31
0.0
  0
LINE
  5
49E
330
18
100
AcDbEntity
  8
1
 62
     1
100
AcDbLine
 10
53.212885434481
 20
-5.373078924315648
 30
0.0
 11
53.16070962126253
 21
-5.372905839335372
 31
0.0
  0
LINE
  5
49F
330
18
100
AcDbEntity
  8
1
 62
     1
100
AcDbLine
 10
53.16070962126253
 20
-5.372905839335372
 30
0.0
 11
53.056091792632
 21
-5.367145863068404
 31
0.0
  0
LINE
  5
4A0
330
18
100
AcDbEntity
  8
1
 62
     1
100
AcDbLine
 10
53.056091792632
 20
-5.367145863068404
 30
0.0
 11
52.95116200405973
 21
-5.35433488244142
 31
0.0
  0
LINE
  5
4A1
330
18
100
AcDbEntity
  8
1
 62
     1
100
AcDbLine
 10
52.95116200405973
 20
-5.35433488244142
 30
0.0
 11
52.84598112202197
 21
-5.334664617792082
 31
0.0
  0
LINE
  5
4A2
330
18
100
AcDbEntity
  8
1
 62
     1
100
AcDbLine
 10
52.84598112202197
 20
-5.334664617792082
 30
0.0
 11
52.74060558539068
 21
-5.308330232348577
 31
0.0
  0
LINE
  5
4A3
330
18
100
AcDbEntity
  8
1
 62
     1
100
AcDbLine
 10
52.74060558539068
 20
-5.308330232348577
 30
0.0
 11
52.63505701561873
 21
-5.275512188573495
 31
0.0
  0
LINE
  5
4A4
330
18
100
AcDbEntity
  8
1
 62
     1
100
AcDbLine
 10
52.63505701561873
 20
-5.275512188573495
 30
0.0
 11
52.52939443619857
 21
-5.236403637280098
 31
0.0
  0
LINE
  5
4A5
330
18
100
AcDbEntity
  8
1
 62
     1
100
AcDbLine
 10
52.52939443619857
 20
-5.236403637280098
 30
0.0
 11
52.42361761209382
 21
-5.191174130374112
 31
0.0
  0
LINE
  5
4A6
330
18
100
AcDbEntity
  8
1
 62
     1
100
AcDbLine
 10
52.42361761209382
 20
-5.191174130374112
 30
0.0
 11
52.31778038564421
 21
-5.140014207861717
 31
0.0
  0
LINE
  5
4A7
330
18
100
AcDbEntity
  8
1
 62
     1
100
AcDbLine
 10
52.31778038564421
 20
-5.140014207861717
 30
0.0
 11
52.21187726846789
 21
-5.083087773514874
 31
0.0
  0
LINE
  5
4A8
330
18
100
AcDbEntity
  8
1
 62
     1
100
AcDbLine
 10
52.21187726846789
 20
-5.083087773514874
 30
0.0
 11
52.10594945415632
 21
-5.020579780226868
 31
0.0
  0
LINE
  5
4A9
330
18
100
AcDbEntity
  8
1
 62
     1
100
AcDbLine
 10
52.10594945415632
 20
-5.020579780226868
 30
0.0
 11
52.00000000000001
 21
-4.952657338227899
 31
0.0
  0
LINE
  5
4AA
330
18
100
AcDbEntity
  8
1
 62
     1
100
AcDbLine
 10
29.0
 20
-5.501341259369442
 30
0.0
 11
29.26095652414599
 21
-5.616945050181928
 31
0.0
  0
LINE
  5
4AB
330
18
100
AcDbEntity
  8
1
 62
     1
100
AcDbLine
 10
29.26095652414599
 20
-5.616945050181928
 30
0.0
 11
29.52194582767791
 21
-5.717772517530364
 31
0.0
  0
LINE
  5
4AC
330
18
100
AcDbEntity
  8
1
 62
     1
100
AcDbLine
 10
29.52194582767791
 20
-5.717772517530364
 30
0.0
 11
29.78291608542938
 21
-5.803532877220817
 31
0.0
  0
LINE
  5
4AD
330
18
100
AcDbEntity
  8
1
 62
     1
100
AcDbLine
 10
29.78291608542938
 20
-5.803532877220817
 30
0.0
 11
30.043888009068
 21
-5.874013456973413
 31
0.0
  0
LINE
  5
4AE
330
18
100
AcDbEntity
  8
1
 62
     1
100
AcDbLine
 10
30.043888009068
 20
-5.874013456973413
 30
0.0
 11
30.3048762817379
 21
-5.929025827406443
 31
0.0
  0
LINE
  5
4AF
330
18
100
AcDbEntity
  8
1
 62
     1
100
AcDbLine
 10
30.3048762817379
 20
-5.929025827406443
 30
0.0
 11
30.56584072397347
 21
-5.968420636340761
 31
0.0
  0
LINE
  5
4B0
330
18
100
AcDbEntity
  8
1
 62
     1
100
AcDbLine
 10
30.56584072397347
 20
-5.968420636340761
 30
0.0
 11
30.82682755410608
 21
-5.992101574771883
 31
0.0
  0
LINE
  5
4B1
330
18
100
AcDbEntity
  8
1
 62
     1
100
AcDbLine
 10
30.82682755410608
 20
-5.992101574771883
 30
0.0
 11
31.08776697482269
 21
-5.999999999999694
 31
0.0
  0
LINE
  5
4B2
330
18
100
AcDbEntity
  8
1
 62
     1
100
AcDbLine
 10
47.06258906865381
 20
6.0
 30
0.0
 11
49.42772177312366
 21
6.0
 31
0.0
  0
LINE
  5
4B3
330
18
100
AcDbEntity
  8
1
 62
     1
100
AcDbLine
 10
28.99999999999999
 20
-3.842743769076609
 30
0.0
 11
29.55660509012543
 21
-4.323131243244656
 31
0.0
  0
LINE
  5
4B4
330
18
100
AcDbEntity
  8
1
 62
     1
100
AcDbLine
 10
29.55660509012543
 20
-4.323131243244656
 30
0.0
 11
30.11320939461143
 21
-4.751772326805128
 31
0.0
  0
LINE
  5
4B5
330
18
100
AcDbEntity
  8
1
 62
     1
100
AcDbLine
 10
30.11320939461143
 20
-4.751772326805128
 30
0.0
 11
30.39152912602033
 21
-4.945071110167937
 31
0.0
  0
LINE
  5
4B6
330
18
100
AcDbEntity
  8
1
 62
     1
100
AcDbLine
 10
30.39152912602033
 20
-4.945071110167937
 30
0.0
 11
30.66983269851298
 21
-5.123546731629911
 31
0.0
  0
LINE
  5
4B7
330
18
100
AcDbEntity
  8
1
 62
     1
100
AcDbLine
 10
30.66983269851298
 20
-5.123546731629911
 30
0.0
 11
30.9481311890004
 21
-5.286678557985113
 31
0.0
  0
LINE
  5
4B8
330
18
100
AcDbEntity
  8
1
 62
     1
100
AcDbLine
 10
30.9481311890004
 20
-5.286678557985113
 30
0.0
 11
31.22645299929997
 21
-5.433988919336469
 31
0.0
  0
LINE
  5
4B9
330
18
100
AcDbEntity
  8
1
 62
     1
100
AcDbLine
 10
31.22645299929997
 20
-5.433988919336469
 30
0.0
 11
31.50475253516512
 21
-5.565013701943339
 31
0.0
  0
LINE
  5
4BA
330
18
100
AcDbEntity
  8
1
 62
     1
100
AcDbLine
 10
31.50475253516512
 20
-5.565013701943339
 30
0.0
 11
31.7830543663725
 21
-5.679375880380277
 31
0.0
  0
LINE
  5
4BB
330
18
100
AcDbEntity
  8
1
 62
     1
100
AcDbLine
 10
31.7830543663725
 20
-5.679375880380277
 30
0.0
 11
32.06137435324298
 21
-5.776734931552753
 31
0.0
  0
LINE
  5
4BC
330
18
100
AcDbEntity
  8
1
 62
     1
100
AcDbLine
 10
32.06137435324298
 20
-5.776734931552753
 30
0.0
 11
32.33967228058908
 21
-5.856785567046972
 31
0.0
  0
LINE
  5
4BD
330
18
100
AcDbEntity
  8
1
 62
     1
100
AcDbLine
 10
32.33967228058908
 20
-5.856785567046972
 30
0.0
 11
32.61797678041471
 21
-5.919301281665442
 31
0.0
  0
LINE
  5
4BE
330
18
100
AcDbEntity
  8
1
 62
     1
100
AcDbLine
 10
32.61797678041471
 20
-5.919301281665442
 30
0.0
 11
32.89629580628055
 21
-5.964089495704979
 31
0.0
  0
LINE
  5
4BF
330
18
100
AcDbEntity
  8
1
 62
     1
100
AcDbLine
 10
32.89629580628055
 20
-5.964089495704979
 30
0.0
 11
33.17459186509847
 21
-5.991014018202496
 31
0.0
  0
LINE
  5
4C0
330
18
100
AcDbEntity
  8
1
 62
     1
100
AcDbLine
 10
33.17459186509847
 20
-5.991014018202496
 30
0.0
 11
33.45290090324704
 21
-5.999999999980217
 31
0.0
  0
LINE
  5
4C1
330
18
100
AcDbEntity
  8
1
 62
     1
100
AcDbLine
 10
29.0
 20
5.50134125936944
 30
0.0
 11
29.26095593645688
 21
5.616944806386208
 31
0.0
  0
LINE
  5
4C2
330
18
100
AcDbEntity
  8
1
 62
     1
100
AcDbLine
 10
29.26095593645688
 20
5.616944806386208
 30
0.0
 11
29.52194465241128
 21
5.717772097206039
 31
0.0
  0
LINE
  5
4C3
330
18
100
AcDbEntity
  8
1
 62
     1
100
AcDbLine
 10
29.52194465241128
 20
5.717772097206039
 30
0.0
 11
29.78291432226737
 21
5.803532349195706
 31
0.0
  0
LINE
  5
4C4
330
18
100
AcDbEntity
  8
1
 62
     1
100
AcDbLine
 10
29.78291432226737
 20
5.803532349195706
 30
0.0
 11
30.04388565857858
 21
5.874012891623908
 31
0.0
  0
LINE
  5
4C5
330
18
100
AcDbEntity
  8
1
 62
     1
100
AcDbLine
 10
30.04388565857858
 20
5.874012891623908
 30
0.0
 11
30.30487334326279
 21
5.929025295651693
 31
0.0
  0
LINE
  5
4C6
330
18
100
AcDbEntity
  8
1
 62
     1
100
AcDbLine
 10
30.30487334326279
 20
5.929025295651693
 30
0.0
 11
30.56583719777353
 21
5.968420210058271
 31
0.0
  0
LINE
  5
4C7
330
18
100
AcDbEntity
  8
1
 62
     1
100
AcDbLine
 10
30.56583719777353
 20
5.968420210058271
 30
0.0
 11
30.82682344082951
 21
5.992101325787019
 31
0.0
  0
LINE
  5
4C8
330
18
100
AcDbEntity
  8
1
 62
     1
100
AcDbLine
 10
30.82682344082951
 20
5.992101325787019
 30
0.0
 11
31.08776697482269
 21
6.000000000000001
 31
0.0
  0
LINE
  5
4C9
330
18
100
AcDbEntity
  8
1
 62
     1
100
AcDbLine
 10
31.08776697482269
 20
6.0
 30
0.0
 11
33.45290090324294
 21
6.0
 31
0.0
  0
ARC
  5
4CA
330
18
100
AcDbEntity
  8
1
 62
     1
100
AcDbCircle
 10
55.0529715621387
 20
-3.557235943722334
 30
0.0
 40
7.193290984584576
100
AcDbArc
 50
90.96514635729919
 51
97.10515480846296
  0
LINE
  5
4CB
330
18
100
AcDbEntity
  8
1
 62
     1
100
AcDbLine
 10
52.00000000000001
 20
5.248543637648108
 30
0.0
 11
52.24703400504703
 21
5.096487629499937
 31
0.0
  0
LINE
  5
4CC
330
18
100
AcDbEntity
  8
1
 62
     1
100
AcDbLine
 10
52.24703400504703
 20
5.096487629499937
 30
0.0
 11
52.50169127345621
 21
4.919703420840484
 31
0.0
  0
LINE
  5
4CD
330
18
100
AcDbEntity
  8
1
 62
     1
100
AcDbLine
 10
52.50169127345621
 20
4.919703420840484
 30
0.0
 11
52.76440515959925
 21
4.720260209795874
 31
0.0
  0
LINE
  5
4CE
330
18
100
AcDbEntity
  8
1
 62
     1
100
AcDbLine
 10
52.76440515959925
 20
4.720260209795874
 30
0.0
 11
53.31501910419689
 21
4.266715808171007
 31
0.0
  0
LINE
  5
4CF
330
18
100
AcDbEntity
  8
1
 62
     1
100
AcDbLine
 10
53.31501910419689
 20
4.266715808171007
 30
0.0
 11
53.74552442100928
 21
3.904788702729228
 31
0.0
  0
LINE
  5
4D0
330
18
100
AcDbEntity
  8
1
 62
     1
100
AcDbLine
 10
53.74552442100928
 20
3.904788702729228
 30
0.0
 11
53.95934186221317
 21
3.73305876927086
 31
0.0
  0
LINE
  5
4D1
330
18
100
AcDbEntity
  8
1
 62
     1
100
AcDbLine
 10
53.95934186221317
 20
3.73305876927086
 30
0.0
 11
54.1632243959805
 21
3.580846041036982
 31
0.0
  0
LINE
  5
4D2
330
18
100
AcDbEntity
  8
1
 62
     1
100
AcDbLine
 10
54.93180652705712
 20
0.0845081085149079
 30
0.0
 11
52.74280813886661
 21
1.593735625627218
 31
0.0
  0
LINE
  5
4D3
330
18
100
AcDbEntity
  8
1
 62
     1
100
AcDbLine
 10
52.74280813886661
 20
1.593735625627218
 30
0.0
 11
51.64830894477134
 21
2.254976940856367
 31
0.0
  0
LINE
  5
4D4
330
18
100
AcDbEntity
  8
1
 62
     1
100
AcDbLine
 10
51.64830894477134
 20
2.254976940856367
 30
0.0
 11
51.10105934772372
 21
2.548306374462242
 31
0.0
  0
LINE
  5
4D5
330
18
100
AcDbEntity
  8
1
 62
     1
100
AcDbLine
 10
51.10105934772372
 20
2.548306374462242
 30
0.0
 11
50.55380975067608
 21
2.812148775424629
 31
0.0
  0
LINE
  5
4D6
330
18
100
AcDbEntity
  8
1
 62
     1
100
AcDbLine
 10
50.55380975067608
 20
2.812148775424629
 30
0.0
 11
50.00656015362844
 21
3.043451163617989
 31
0.0
  0
LINE
  5
4D7
330
18
100
AcDbEntity
  8
1
 62
     1
100
AcDbLine
 10
50.00656015362844
 20
3.043451163617989
 30
0.0
 11
49.45931055658084
 21
3.239537088159403
 31
0.0
  0
LINE
  5
4D8
330
18
100
AcDbEntity
  8
1
 62
     1
100
AcDbLine
 10
49.45931055658084
 20
3.239537088159403
 30
0.0
 11
48.91206095953321
 21
3.398137595438167
 31
0.0
  0
LINE
  5
4D9
330
18
100
AcDbEntity
  8
1
 62
     1
100
AcDbLine
 10
48.91206095953321
 20
3.398137595438167
 30
0.0
 11
48.63843616100939
 21
3.462790443415636
 31
0.0
  0
LINE
  5
4DA
330
18
100
AcDbEntity
  8
1
 62
     1
100
AcDbLine
 10
48.63843616100939
 20
3.462790443415636
 30
0.0
 11
48.36481136248556
 21
3.517417484140899
 31
0.0
  0
LINE
  5
4DB
330
18
100
AcDbEntity
  8
1
 62
     1
100
AcDbLine
 10
48.36481136248556
 20
3.517417484140899
 30
0.0
 11
48.09118656396176
 21
3.56186339798125
 31
0.0
  0
LINE
  5
4DC
330
18
100
AcDbEntity
  8
1
 62
     1
100
AcDbLine
 10
48.09118656396176
 20
3.56186339798125
 30
0.0
 11
47.81756176543794
 21
3.595996540626746
 31
0.0
  0
LINE
  5
4DD
330
18
100
AcDbEntity
  8
1
 62
     1
100
AcDbLine
 10
47.81756176543794
 20
3.595996540626746
 30
0.0
 11
47.54393696691412
 21
3.619721227236657
 31
0.0
  0
LINE
  5
4DE
330
18
100
AcDbEntity
  8
1
 62
     1
100
AcDbLine
 10
47.54393696691412
 20
3.619721227236657
 30
0.0
 11
47.27031216839031
 21
3.632965509703142
 31
0.0
  0
LINE
  5
4DF
330
18
100
AcDbEntity
  8
1
 62
     1
100
AcDbLine
 10
47.27031216839031
 20
3.632965509703142
 30
0.0
 11
46.9966873698665
 21
3.635694444037784
 31
0.0
  0
LINE
  5
4E0
330
18
100
AcDbEntity
  8
1
 62
     1
100
AcDbLine
 10
46.9966873698665
 20
3.635694444037784
 30
0.0
 11
46.72306257134268
 21
3.6278966157935
 31
0.0
  0
LINE
  5
4E1
330
18
100
AcDbEntity
  8
1
 62
     1
100
AcDbLine
 10
46.72306257134268
 20
3.6278966157935
 30
0.0
 11
46.44943777281888
 21
3.609598217617364
 31
0.0
  0
LINE
  5
4E2
330
18
100
AcDbEntity
  8
1
 62
     1
100
AcDbLine
 10
46.44943777281888
 20
3.609598217617364
 30
0.0
 11
46.17581297429506
 21
3.580848512810543
 31
0.0
  0
LINE
  5
4E3
330
18
100
AcDbEntity
  8
1
 62
     1
100
AcDbLine
 10
54.93180652705711
 20
0.0845081085149105
 30
0.0
 11
54.94174306548805
 21
-0.7751236267777194
 31
0.0
  0
LINE
  5
4E4
330
18
100
AcDbEntity
  8
1
 62
     1
100
AcDbLine
 10
54.94174306548805
 20
-0.7751236267777194
 30
0.0
 11
54.90367529576213
 21
-1.634945529673069
 31
0.0
  0
LINE
  5
4E5
330
18
100
AcDbEntity
  8
1
 62
     1
100
AcDbLine
 10
54.90367529576213
 20
-1.634945529673069
 30
0.0
 11
54.85569992371963
 21
-2.064431387259597
 31
0.0
  0
LINE
  5
4E6
330
18
100
AcDbEntity
  8
1
 62
     1
100
AcDbLine
 10
54.85569992371963
 20
-2.064431387259597
 30
0.0
 11
54.82043149321901
 21
-2.278346584484682
 31
0.0
  0
LINE
  5
4E7
330
18
100
AcDbEntity
  8
1
 62
     1
100
AcDbLine
 10
54.82043149321901
 20
-2.278346584484682
 30
0.0
 11
54.77534936958677
 21
-2.490856805394685
 31
0.0
  0
LINE
  5
4E8
330
18
100
AcDbEntity
  8
1
 62
     1
100
AcDbLine
 10
54.77534936958677
 20
-2.490856805394685
 30
0.0
 11
54.71833893824841
 21
-2.700680219576943
 31
0.0
  0
LINE
  5
4E9
330
18
100
AcDbEntity
  8
1
 62
     1
100
AcDbLine
 10
54.71833893824841
 20
-2.700680219576943
 30
0.0
 11
54.68463159059394
 21
-2.80393762295992
 31
0.0
  0
LINE
  5
4EA
330
18
100
AcDbEntity
  8
1
 62
     1
100
AcDbLine
 10
54.68463159059394
 20
-2.80393762295992
 30
0.0
 11
54.64704012172246
 21
-2.905636857732173
 31
0.0
  0
LINE
  5
4EB
330
18
100
AcDbEntity
  8
1
 62
     1
100
AcDbLine
 10
54.64704012172246
 20
-2.905636857732173
 30
0.0
 11
54.60528871382572
 21
-3.005243959838575
 31
0.0
  0
LINE
  5
4EC
330
18
100
AcDbEntity
  8
1
 62
     1
100
AcDbLine
 10
54.60528871382572
 20
-3.005243959838575
 30
0.0
 11
54.55910294689949
 21
-3.102211640219839
 31
0.0
  0
LINE
  5
4ED
330
18
100
AcDbEntity
  8
1
 62
     1
100
AcDbLine
 10
54.55910294689949
 20
-3.102211640219839
 30
0.0
 11
54.5083161833767
 21
-3.195762645571064
 31
0.0
  0
LINE
  5
4EE
330
18
100
AcDbEntity
  8
1
 62
     1
100
AcDbLine
 10
54.5083161833767
 20
-3.195762645571064
 30
0.0
 11
54.45280921747839
 21
-3.285126570826229
 31
0.0
  0
LINE
  5
4EF
330
18
100
AcDbEntity
  8
1
 62
     1
100
AcDbLine
 10
54.45280921747839
 20
-3.285126570826229
 30
0.0
 11
54.3926015870059
 21
-3.369425904758497
 31
0.0
  0
LINE
  5
4F0
330
18
100
AcDbEntity
  8
1
 62
     1
100
AcDbLine
 10
54.3926015870059
 20
-3.369425904758497
 30
0.0
 11
54.36077337380857
 21
-3.409403736902124
 31
0.0
  0
LINE
  5
4F1
330
18
100
AcDbEntity
  8
1
 62
     1
100
AcDbLine
 10
54.36077337380857
 20
-3.409403736902124
 30
0.0
 11
54.3278585089077
 21
-3.447764220612215
 31
0.0
  0
LINE
  5
4F2
330
18
100
AcDbEntity
  8
1
 62
     1
100
AcDbLine
 10
54.3278585089077
 20
-3.447764220612215
 30
0.0
 11
54.29387571740162
 21
-3.484430943511638
 31
0.0
  0
LINE
  5
4F3
330
18
100
AcDbEntity
  8
1
 62
     1
100
AcDbLine
 10
54.29387571740162
 20
-3.484430943511638
 30
0.0
 11
54.25889898991925
 21
-3.519293193483666
 31
0.0
  0
LINE
  5
4F4
330
18
100
AcDbEntity
  8
1
 62
     1
100
AcDbLine
 10
54.25889898991925
 20
-3.519293193483666
 30
0.0
 11
54.22298646510284
 21
-3.552260750642407
 31
0.0
  0
LINE
  5
4F5
330
18
100
AcDbEntity
  8
1
 62
     1
100
AcDbLine
 10
54.22298646510284
 20
-3.552260750642407
 30
0.0
 11
54.18619413372009
 21
-3.583278841338537
 31
0.0
  0
LINE
  5
4F6
330
18
100
AcDbEntity
  8
1
 62
     1
100
AcDbLine
 10
54.18619413372009
 20
-3.583278841338537
 30
0.0
 11
54.14862149906642
 21
-3.612261416732977
 31
0.0
  0
LINE
  5
4F7
330
18
100
AcDbEntity
  8
1
 62
     1
100
AcDbLine
 10
54.14862149906642
 20
-3.612261416732977
 30
0.0
 11
54.11031333646873
 21
-3.639186835187517
 31
0.0
  0
LINE
  5
4F8
330
18
100
AcDbEntity
  8
1
 62
     1
100
AcDbLine
 10
54.11031333646873
 20
-3.639186835187517
 30
0.0
 11
54.07137381410492
 21
-3.664009091005828
 31
0.0
  0
LINE
  5
4F9
330
18
100
AcDbEntity
  8
1
 62
     1
100
AcDbLine
 10
54.07137381410492
 20
-3.664009091005828
 30
0.0
 11
54.03186785725611
 21
-3.686713454131085
 31
0.0
  0
LINE
  5
4FA
330
18
100
AcDbEntity
  8
1
 62
     1
100
AcDbLine
 10
54.03186785725611
 20
-3.686713454131085
 30
0.0
 11
53.99186736906951
 21
-3.707304734139671
 31
0.0
  0
LINE
  5
4FB
330
18
100
AcDbEntity
  8
1
 62
     1
100
AcDbLine
 10
53.99186736906951
 20
-3.707304734139671
 30
0.0
 11
53.95146533454168
 21
-3.725777948682611
 31
0.0
  0
LINE
  5
4FC
330
18
100
AcDbEntity
  8
1
 62
     1
100
AcDbLine
 10
53.95146533454168
 20
-3.725777948682611
 30
0.0
 11
53.91070278760132
 21
-3.742167766466993
 31
0.0
  0
LINE
  5
4FD
330
18
100
AcDbEntity
  8
1
 62
     1
100
AcDbLine
 10
53.91070278760132
 20
-3.742167766466993
 30
0.0
 11
53.86966979072909
 21
-3.756494226764022
 31
0.0
  0
LINE
  5
4FE
330
18
100
AcDbEntity
  8
1
 62
     1
100
AcDbLine
 10
53.86966979072909
 20
-3.756494226764022
 30
0.0
 11
53.82840830810096
 21
-3.768798819900154
 31
0.0
  0
LINE
  5
4FF
330
18
100
AcDbEntity
  8
1
 62
     1
100
AcDbLine
 10
53.82840830810096
 20
-3.768798819900154
 30
0.0
 11
53.78697687341634
 21
-3.7791268338163
 31
0.0
  0
LINE
  5
500
330
18
100
AcDbEntity
  8
1
 62
     1
100
AcDbLine
 10
53.78697687341634
 20
-3.7791268338163
 30
0.0
 11
53.74543414389865
 21
-3.787522811746786
 31
0.0
  0
LINE
  5
501
330
18
100
AcDbEntity
  8
1
 62
     1
100
AcDbLine
 10
53.74543414389865
 20
-3.787522811746786
 30
0.0
 11
53.70380524474433
 21
-3.794044553469791
 31
0.0
  0
LINE
  5
502
330
18
100
AcDbEntity
  8
1
 62
     1
100
AcDbLine
 10
53.70380524474433
 20
-3.794044553469791
 30
0.0
 11
53.66214871796786
 21
-3.798743814628665
 31
0.0
  0
LINE
  5
503
330
18
100
AcDbEntity
  8
1
 62
     1
100
AcDbLine
 10
53.66214871796786
 20
-3.798743814628665
 30
0.0
 11
53.62048176767162
 21
-3.80167876832372
 31
0.0
  0
LINE
  5
504
330
18
100
AcDbEntity
  8
1
 62
     1
100
AcDbLine
 10
53.62048176767162
 20
-3.80167876832372
 30
0.0
 11
53.57884313191439
 21
-3.802906654803846
 31
0.0
  0
LINE
  5
505
330
18
100
AcDbEntity
  8
1
 62
     1
100
AcDbLine
 10
53.57884313191439
 20
-3.802906654803846
 30
0.0
 11
53.53725568857362
 21
-3.802483716918386
 31
0.0
  0
LINE
  5
506
330
18
100
AcDbEntity
  8
1
 62
     1
100
AcDbLine
 10
53.53725568857362
 20
-3.802483716918386
 30
0.0
 11
53.49572709001065
 21
-3.8004662462934
 31
0.0
  0
LINE
  5
507
330
18
100
AcDbEntity
  8
1
 62
     1
100
AcDbLine
 10
53.49572709001065
 20
-3.8004662462934
 30
0.0
 11
53.45429216441553
 21
-3.796910278233348
 31
0.0
  0
LINE
  5
508
330
18
100
AcDbEntity
  8
1
 62
     1
100
AcDbLine
 10
53.45429216441553
 20
-3.796910278233348
 30
0.0
 11
53.41298312744614
 21
-3.791871546889804
 31
0.0
  0
LINE
  5
509
330
18
100
AcDbEntity
  8
1
 62
     1
100
AcDbLine
 10
53.41298312744614
 20
-3.791871546889804
 30
0.0
 11
53.33072641997691
 21
-3.777546550867876
 31
0.0
  0
LINE
  5
50A
330
18
100
AcDbEntity
  8
1
 62
     1
100
AcDbLine
 10
53.33072641997691
 20
-3.777546550867876
 30
0.0
 11
53.24906005121056
 21
-3.757894641850931
 31
0.0
  0
LINE
  5
50B
330
18
100
AcDbEntity
  8
1
 62
     1
100
AcDbLine
 10
53.24906005121056
 20
-3.757894641850931
 30
0.0
 11
53.16801803797762
 21
-3.733278138896414
 31
0.0
  0
LINE
  5
50C
330
18
100
AcDbEntity
  8
1
 62
     1
100
AcDbLine
 10
53.16801803797762
 20
-3.733278138896414
 30
0.0
 11
53.08766557586988
 21
-3.70404400926284
 31
0.0
  0
LINE
  5
50D
330
18
100
AcDbEntity
  8
1
 62
     1
100
AcDbLine
 10
53.08766557586988
 20
-3.70404400926284
 30
0.0
 11
53.00799902864099
 21
-3.670492094407468
 31
0.0
  0
LINE
  5
50E
330
18
100
AcDbEntity
  8
1
 62
     1
100
AcDbLine
 10
53.00799902864099
 20
-3.670492094407468
 30
0.0
 11
52.92905379868471
 21
-3.632915206029748
 31
0.0
  0
LINE
  5
50F
330
18
100
AcDbEntity
  8
1
 62
     1
100
AcDbLine
 10
52.92905379868471
 20
-3.632915206029748
 30
0.0
 11
52.85081458883658
 21
-3.591562013482482
 31
0.0
  0
LINE
  5
510
330
18
100
AcDbEntity
  8
1
 62
     1
100
AcDbLine
 10
52.85081458883658
 20
-3.591562013482482
 30
0.0
 11
52.77329291837173
 21
-3.546675545755632
 31
0.0
  0
LINE
  5
511
330
18
100
AcDbEntity
  8
1
 62
     1
100
AcDbLine
 10
52.77329291837173
 20
-3.546675545755632
 30
0.0
 11
52.62034816644105
 21
-3.44712855382051
 31
0.0
  0
LINE
  5
512
330
18
100
AcDbEntity
  8
1
 62
     1
100
AcDbLine
 10
52.62034816644105
 20
-3.44712855382051
 30
0.0
 11
52.47014545739961
 21
-3.335794309292792
 31
0.0
  0
LINE
  5
513
330
18
100
AcDbEntity
  8
1
 62
     1
100
AcDbLine
 10
52.47014545739961
 20
-3.335794309292792
 30
0.0
 11
52.32260454323189
 21
-3.213986771558988
 31
0.0
  0
LINE
  5
514
330
18
100
AcDbEntity
  8
1
 62
     1
100
AcDbLine
 10
52.32260454323189
 20
-3.213986771558988
 30
0.0
 11
52.17765719379431
 21
-3.082860731361913
 31
0.0
  0
LINE
  5
515
330
18
100
AcDbEntity
  8
1
 62
     1
100
AcDbLine
 10
52.17765719379431
 20
-3.082860731361913
 30
0.0
 11
52.0
 21
-2.907368171337007
 31
0.0
  0
ARC
  5
516
330
18
100
AcDbEntity
  8
1
 62
     1
100
AcDbCircle
 10
54.59420642215046
 20
-3.55033481347573
 30
0.0
 40
0.3480617688569681
100
AcDbArc
 50
345.9167492457402
 51
348.0383076389372
  0
LINE
  5
517
330
18
100
AcDbEntity
  8
1
 62
     1
100
AcDbLine
 10
29.00000000000001
 20
-3.84274376907661
 30
0.0
 11
29.0
 21
-5.501341259369443
 31
0.0
  0
LINE
  5
518
330
18
100
AcDbEntity
  8
1
 62
     1
100
AcDbLine
 10
28.99999999999999
 20
-3.842743769076603
 30
0.0
 11
28.99999999999999
 21
1.451270670976085
 31
0.0
  0
LINE
  5
519
330
18
100
AcDbEntity
  8
1
 62
     1
100
AcDbLine
 10
28.99999999999999
 20
1.451270670976085
 30
0.0
 11
29.0
 21
2.394837019080729
 31
0.0
  0
LINE
  5
51A
330
18
100
AcDbEntity
  8
1
 62
     1
100
AcDbLine
 10
29.00000000000001
 20
4.607962708749171
 30
0.0
 11
29.0
 21
2.394837019080733
 31
0.0
  0
LINE
  5
51B
330
18
100
AcDbEntity
  8
1
 62
     1
100
AcDbLine
 10
28.99999999999999
 20
4.607962708749171
 30
0.0
 11
29.0
 21
5.501341259369438
 31
0.0
  0
LINE
  5
51C
330
18
100
AcDbEntity
  8
1
 62
     1
100
AcDbLine
 10
41.44031156845382
 20
-5.999999999988038
 30
0.0
 11
41.61600009626218
 21
-5.996417577687634
 31
0.0
  0
LINE
  5
51D
330
18
100
AcDbEntity
  8
1
 62
     1
100
AcDbLine
 10
41.61600009626218
 20
-5.996417577687634
 30
0.0
 11
41.79170807573352
 21
-5.985678128321748
 31
0.0
  0
LINE
  5
51E
330
18
100
AcDbEntity
  8
1
 62
     1
100
AcDbLine
 10
41.79170807573352
 20
-5.985678128321748
 30
0.0
 11
41.96739040318516
 21
-5.967795260674169
 31
0.0
  0
LINE
  5
51F
330
18
100
AcDbEntity
  8
1
 62
     1
100
AcDbLine
 10
41.96739040318516
 20
-5.967795260674169
 30
0.0
 11
42.14309695850741
 21
-5.942784192459959
 31
0.0
  0
LINE
  5
520
330
18
100
AcDbEntity
  8
1
 62
     1
100
AcDbLine
 10
42.14309695850741
 20
-5.942784192459959
 30
0.0
 11
42.31879074476659
 21
-5.910683378239288
 31
0.0
  0
LINE
  5
521
330
18
100
AcDbEntity
  8
1
 62
     1
100
AcDbLine
 10
42.31879074476659
 20
-5.910683378239288
 30
0.0
 11
42.49448296746326
 21
-5.871524271137457
 31
0.0
  0
LINE
  5
522
330
18
100
AcDbEntity
  8
1
 62
     1
100
AcDbLine
 10
42.49448296746326
 20
-5.871524271137457
 30
0.0
 11
42.67019052731293
 21
-5.825354589435462
 31
0.0
  0
LINE
  5
523
330
18
100
AcDbEntity
  8
1
 62
     1
100
AcDbLine
 10
42.67019052731293
 20
-5.825354589435462
 30
0.0
 11
42.84587210874006
 21
-5.772237167088776
 31
0.0
  0
LINE
  5
524
330
18
100
AcDbEntity
  8
1
 62
     1
100
AcDbLine
 10
42.84587210874006
 20
-5.772237167088776
 30
0.0
 11
43.02158033171912
 21
-5.712220474888848
 31
0.0
  0
LINE
  5
525
330
18
100
AcDbEntity
  8
1
 62
     1
100
AcDbLine
 10
43.02158033171912
 20
-5.712220474888848
 30
0.0
 11
43.3729661246163
 21
-5.571821574384809
 31
0.0
  0
LINE
  5
526
330
18
100
AcDbEntity
  8
1
 62
     1
100
AcDbLine
 10
43.3729661246163
 20
-5.571821574384809
 30
0.0
 11
43.72435445578295
 21
-5.404826313904637
 31
0.0
  0
LINE
  5
527
330
18
100
AcDbEntity
  8
1
 62
     1
100
AcDbLine
 10
43.72435445578295
 20
-5.404826313904637
 30
0.0
 11
43.98791176929036
 21
-5.262590796830606
 31
0.0
  0
LINE
  5
528
330
18
100
AcDbEntity
  8
1
 62
     1
100
AcDbLine
 10
43.98791176929036
 20
-5.262590796830606
 30
0.0
 11
44.25144894099317
 21
-5.106232453508172
 31
0.0
  0
LINE
  5
529
330
18
100
AcDbEntity
  8
1
 62
     1
100
AcDbLine
 10
39.07517803367837
 20
-5.999999999999998
 30
0.0
 11
41.44031156845382
 21
-5.999999999999998
 31
0.0
  0
LINE
  5
52A
330
18
100
AcDbEntity
  8
1
 62
     1
100
AcDbLine
 10
49.42772177315378
 20
-5.999999999904002
 30
0.0
 11
49.58848070945401
 21
-5.997000459353361
 31
0.0
  0
LINE
  5
52B
330
18
100
AcDbEntity
  8
1
 62
     1
100
AcDbLine
 10
49.58848070945401
 20
-5.997000459353361
 30
0.0
 11
49.74926117995352
 21
-5.988007267642991
 31
0.0
  0
LINE
  5
52C
330
18
100
AcDbEntity
  8
1
 62
     1
100
AcDbLine
 10
49.74926117995352
 20
-5.988007267642991
 30
0.0
 11
49.91001919898965
 21
-5.973031610372271
 31
0.0
  0
LINE
  5
52D
330
18
100
AcDbEntity
  8
1
 62
     1
100
AcDbLine
 10
49.91001919898965
 20
-5.973031610372271
 30
0.0
 11
50.07078952458212
 21
-5.952082054638048
 31
0.0
  0
LINE
  5
52E
330
18
100
AcDbEntity
  8
1
 62
     1
100
AcDbLine
 10
50.07078952458212
 20
-5.952082054638048
 30
0.0
 11
50.23156773912464
 21
-5.925184272062987
 31
0.0
  0
LINE
  5
52F
330
18
100
AcDbEntity
  8
1
 62
     1
100
AcDbLine
 10
50.23156773912464
 20
-5.925184272062987
 30
0.0
 11
50.39232143886846
 21
-5.89236769661355
 31
0.0
  0
LINE
  5
530
330
18
100
AcDbEntity
  8
1
 62
     1
100
AcDbLine
 10
50.39232143886846
 20
-5.89236769661355
 30
0.0
 11
50.71387022753603
 21
-5.809096426787693
 31
0.0
  0
LINE
  5
531
330
18
100
AcDbEntity
  8
1
 62
     1
100
AcDbLine
 10
50.71387022753603
 20
-5.809096426787693
 30
0.0
 11
51.03540776349633
 21
-5.702605870608535
 31
0.0
  0
LINE
  5
532
330
18
100
AcDbEntity
  8
1
 62
     1
100
AcDbLine
 10
51.03540776349633
 20
-5.702605870608535
 30
0.0
 11
51.35693592624323
 21
-5.573326809155256
 31
0.0
  0
LINE
  5
533
330
18
100
AcDbEntity
  8
1
 62
     1
100
AcDbLine
 10
51.35693592624323
 20
-5.573326809155256
 30
0.0
 11
51.67846782604818
 21
-5.421770997873697
 31
0.0
  0
LINE
  5
534
330
18
100
AcDbEntity
  8
1
 62
     1
100
AcDbLine
 10
51.67846782604818
 20
-5.421770997873697
 30
0.0
 11
52.0
 21
-5.248543637648121
 31
0.0
  0
LINE
  5
535
330
18
100
AcDbEntity
  8
1
 62
     1
100
AcDbLine
 10
47.06258906864967
 20
-5.999999999999998
 30
0.0
 11
49.42772177315378
 21
-5.999999999999998
 31
0.0
  0
ARC
  5
536
330
18
100
AcDbEntity
  8
1
 62
     1
100
AcDbCircle
 10
52.00000019426518
 20
-2.999999985587167
 30
0.0
 40
2.999999798133537
100
AcDbArc
 50
348.0246338251296
 51
359.9999997247352
  0
LINE
  5
537
330
18
100
AcDbEntity
  8
1
 62
     1
100
AcDbLine
 10
33.45290090324704
 20
-5.999999999980217
 30
0.0
 11
33.62859079425555
 21
-5.99641744482827
 31
0.0
  0
LINE
  5
538
330
18
100
AcDbEntity
  8
1
 62
     1
100
AcDbLine
 10
33.62859079425555
 20
-5.99641744482827
 30
0.0
 11
33.80429867026756
 21
-5.98567814743426
 31
0.0
  0
LINE
  5
539
330
18
100
AcDbEntity
  8
1
 62
     1
100
AcDbLine
 10
33.80429867026756
 20
-5.98567814743426
 30
0.0
 11
33.97998080579075
 21
-5.967795075586457
 31
0.0
  0
LINE
  5
53A
330
18
100
AcDbEntity
  8
1
 62
     1
100
AcDbLine
 10
33.97998080579075
 20
-5.967795075586457
 30
0.0
 11
34.15568756388232
 21
-5.942783969316601
 31
0.0
  0
LINE
  5
53B
330
18
100
AcDbEntity
  8
1
 62
     1
100
AcDbLine
 10
34.15568756388232
 20
-5.942783969316601
 30
0.0
 11
34.33137944650277
 21
-5.910683503890323
 31
0.0
  0
LINE
  5
53C
330
18
100
AcDbEntity
  8
1
 62
     1
100
AcDbLine
 10
34.33137944650277
 20
-5.910683503890323
 30
0.0
 11
34.50707342813344
 21
-5.871523909009443
 31
0.0
  0
LINE
  5
53D
330
18
100
AcDbEntity
  8
1
 62
     1
100
AcDbLine
 10
34.50707342813344
 20
-5.871523909009443
 30
0.0
 11
34.68277959098054
 21
-5.825354466540127
 31
0.0
  0
LINE
  5
53E
330
18
100
AcDbEntity
  8
1
 62
     1
100
AcDbLine
 10
34.68277959098054
 20
-5.825354466540127
 30
0.0
 11
34.85846153197574
 21
-5.772236895298587
 31
0.0
  0
LINE
  5
53F
330
18
100
AcDbEntity
  8
1
 62
     1
100
AcDbLine
 10
34.85846153197574
 20
-5.772236895298587
 30
0.0
 11
35.03417007172744
 21
-5.712220182481799
 31
0.0
  0
LINE
  5
540
330
18
100
AcDbEntity
  8
1
 62
     1
100
AcDbLine
 10
35.03417007172744
 20
-5.712220182481799
 30
0.0
 11
35.38555584428053
 21
-5.571821258732895
 31
0.0
  0
LINE
  5
541
330
18
100
AcDbEntity
  8
1
 62
     1
100
AcDbLine
 10
35.38555584428053
 20
-5.571821258732895
 30
0.0
 11
35.73694321476656
 21
-5.404826152697353
 31
0.0
  0
LINE
  5
542
330
18
100
AcDbEntity
  8
1
 62
     1
100
AcDbLine
 10
35.73694321476656
 20
-5.404826152697353
 30
0.0
 11
36.00050032129553
 21
-5.26259151582067
 31
0.0
  0
LINE
  5
543
330
18
100
AcDbEntity
  8
1
 62
     1
100
AcDbLine
 10
36.00050032129553
 20
-5.26259151582067
 30
0.0
 11
36.26403812210046
 21
-5.106232438870697
 31
0.0
  0
LINE
  5
544
330
18
100
AcDbEntity
  8
1
 62
     1
100
AcDbLine
 10
31.0877669748227
 20
-5.999999999999997
 30
0.0
 11
33.45290090324704
 21
-5.999999999999998
 31
0.0
  0
LINE
  5
545
330
18
100
AcDbEntity
  8
1
 62
     1
100
AcDbLine
 10
31.08776697482146
 20
0.0000000000014566
 30
0.0
 11
33.08462633445177
 21
-2.296107083906017
 31
0.0
  0
LINE
  5
546
330
18
100
AcDbEntity
  8
1
 62
     1
100
AcDbLine
 10
33.08462633445177
 20
-2.296107083906017
 30
0.0
 11
34.08306290189755
 21
-3.333437550259973
 31
0.0
  0
LINE
  5
547
330
18
100
AcDbEntity
  8
1
 62
     1
100
AcDbLine
 10
34.08306290189755
 20
-3.333437550259973
 30
0.0
 11
34.58227071328145
 21
-3.80637002420226
 31
0.0
  0
LINE
  5
548
330
18
100
AcDbEntity
  8
1
 62
     1
100
AcDbLine
 10
34.58227071328145
 20
-3.80637002420226
 30
0.0
 11
35.08148035982512
 21
-4.242646784004041
 31
0.0
  0
LINE
  5
549
330
18
100
AcDbEntity
  8
1
 62
     1
100
AcDbLine
 10
35.08148035982512
 20
-4.242646784004041
 30
0.0
 11
35.58069735612348
 21
-4.638070376205094
 31
0.0
  0
LINE
  5
54A
330
18
100
AcDbEntity
  8
1
 62
     1
100
AcDbLine
 10
35.58069735612348
 20
-4.638070376205094
 30
0.0
 11
36.0799180433117
 21
-4.988828789178696
 31
0.0
  0
LINE
  5
54B
330
18
100
AcDbEntity
  8
1
 62
     1
100
AcDbLine
 10
36.0799180433117
 20
-4.988828789178696
 30
0.0
 11
36.32952093579868
 21
-5.146380866779841
 31
0.0
  0
LINE
  5
54C
330
18
100
AcDbEntity
  8
1
 62
     1
100
AcDbLine
 10
36.32952093579868
 20
-5.146380866779841
 30
0.0
 11
36.5791385832742
 21
-5.291541119124032
 31
0.0
  0
LINE
  5
54D
330
18
100
AcDbEntity
  8
1
 62
     1
100
AcDbLine
 10
36.5791385832742
 20
-5.291541119124032
 30
0.0
 11
36.82873374265819
 21
-5.423942476101542
 31
0.0
  0
LINE
  5
54E
330
18
100
AcDbEntity
  8
1
 62
     1
100
AcDbLine
 10
36.82873374265819
 20
-5.423942476101542
 30
0.0
 11
37.07835511355348
 21
-5.543290175602931
 31
0.0
  0
LINE
  5
54F
330
18
100
AcDbEntity
  8
1
 62
     1
100
AcDbLine
 10
37.07835511355348
 20
-5.543290175602931
 30
0.0
 11
37.32795245269638
 21
-5.64927106213411
 31
0.0
  0
LINE
  5
550
330
18
100
AcDbEntity
  8
1
 62
     1
100
AcDbLine
 10
37.32795245269638
 20
-5.64927106213411
 30
0.0
 11
37.57756376812934
 21
-5.741650697858317
 31
0.0
  0
LINE
  5
551
330
18
100
AcDbEntity
  8
1
 62
     1
100
AcDbLine
 10
37.57756376812934
 20
-5.741650697858317
 30
0.0
 11
37.82717325375579
 21
-5.820194019765656
 31
0.0
  0
LINE
  5
552
330
18
100
AcDbEntity
  8
1
 62
     1
100
AcDbLine
 10
37.82717325375579
 20
-5.820194019765656
 30
0.0
 11
38.07677131020125
 21
-5.8847157490245
 31
0.0
  0
LINE
  5
553
330
18
100
AcDbEntity
  8
1
 62
     1
100
AcDbLine
 10
38.07677131020125
 20
-5.8847157490245
 30
0.0
 11
38.32639219757191
 21
-5.935063929911191
 31
0.0
  0
LINE
  5
554
330
18
100
AcDbEntity
  8
1
 62
     1
100
AcDbLine
 10
38.32639219757191
 20
-5.935063929911191
 30
0.0
 11
38.5759870130682
 21
-5.97110963357722
 31
0.0
  0
LINE
  5
555
330
18
100
AcDbEntity
  8
1
 62
     1
100
AcDbLine
 10
38.5759870130682
 20
-5.97110963357722
 30
0.0
 11
38.82560520148064
 21
-5.992774490025432
 31
0.0
  0
LINE
  5
556
330
18
100
AcDbEntity
  8
1
 62
     1
100
AcDbLine
 10
38.82560520148064
 20
-5.992774490025432
 30
0.0
 11
39.07517803367837
 21
-5.999999999897605
 31
0.0
  0
LINE
  5
557
330
18
100
AcDbEntity
  8
1
 62
     1
100
AcDbLine
 10
31.08776697482145
 20
0.0000000000008844
 30
0.0
 11
29.0
 21
1.45127067097608
 31
0.0
  0
LINE
  5
558
330
18
100
AcDbEntity
  8
1
 62
     1
100
AcDbLine
 10
54.1632243959805
 20
3.580846041036982
 30
0.0
 11
54.32203835518642
 21
3.474673015281035
 31
0.0
  0
LINE
  5
559
330
18
100
AcDbEntity
  8
1
 62
     1
100
AcDbLine
 10
54.32203835518642
 20
3.474673015281035
 30
0.0
 11
54.39406092577135
 21
3.431561259687949
 31
0.0
  0
LINE
  5
55A
330
18
100
AcDbEntity
  8
1
 62
     1
100
AcDbLine
 10
54.39406092577135
 20
3.431561259687949
 30
0.0
 11
54.46049146265781
 21
3.395389035317028
 31
0.0
  0
LINE
  5
55B
330
18
100
AcDbEntity
  8
1
 62
     1
100
AcDbLine
 10
54.46049146265781
 20
3.395389035317028
 30
0.0
 11
54.52111686285184
 21
3.366020168107344
 31
0.0
  0
LINE
  5
55C
330
18
100
AcDbEntity
  8
1
 62
     1
100
AcDbLine
 10
54.52111686285184
 20
3.366020168107344
 30
0.0
 11
54.57594431332224
 21
3.343093509715532
 31
0.0
  0
LINE
  5
55D
330
18
100
AcDbEntity
  8
1
 62
     1
100
AcDbLine
 10
54.57594431332224
 20
3.343093509715532
 30
0.0
 11
54.62515786454331
 21
3.326096392887586
 31
0.0
  0
LINE
  5
55E
330
18
100
AcDbEntity
  8
1
 62
     1
100
AcDbLine
 10
54.62515786454331
 20
3.326096392887586
 30
0.0
 11
54.64775186670187
 21
3.319637654539461
 31
0.0
  0
LINE
  5
55F
330
18
100
AcDbEntity
  8
1
 62
     1
100
AcDbLine
 10
54.64775186670187
 20
3.319637654539461
 30
0.0
 11
54.66906440115871
 21
3.314436322933334
 31
0.0
  0
LINE
  5
560
330
18
100
AcDbEntity
  8
1
 62
     1
100
AcDbLine
 10
54.66906440115871
 20
3.314436322933334
 30
0.0
 11
54.68914491952837
 21
3.310415160389279
 31
0.0
  0
LINE
  5
561
330
18
100
AcDbEntity
  8
1
 62
     1
100
AcDbLine
 10
54.68914491952837
 20
3.310415160389279
 30
0.0
 11
54.70804408548464
 21
3.307498036380291
 31
0.0
  0
LINE
  5
562
330
18
100
AcDbEntity
  8
1
 62
     1
100
AcDbLine
 10
54.70804408548464
 20
3.307498036380291
 30
0.0
 11
54.72581795877194
 21
3.305611331987884
 31
0.0
  0
LINE
  5
563
330
18
100
AcDbEntity
  8
1
 62
     1
100
AcDbLine
 10
54.72581795877194
 20
3.305611331987884
 30
0.0
 11
54.74251300872169
 21
3.304684950048166
 31
0.0
  0
LINE
  5
564
330
18
100
AcDbEntity
  8
1
 62
     1
100
AcDbLine
 10
54.74251300872169
 20
3.304684950048166
 30
0.0
 11
54.75817932039683
 21
3.304649129114986
 31
0.0
  0
LINE
  5
565
330
18
100
AcDbEntity
  8
1
 62
     1
100
AcDbLine
 10
54.75817932039683
 20
3.304649129114986
 30
0.0
 11
54.77287340708047
 21
3.305439556421192
 31
0.0
  0
LINE
  5
566
330
18
100
AcDbEntity
  8
1
 62
     1
100
AcDbLine
 10
54.77287340708047
 20
3.305439556421192
 30
0.0
 11
54.78664171418002
 21
3.306996040548547
 31
0.0
  0
LINE
  5
567
330
18
100
AcDbEntity
  8
1
 62
     1
100
AcDbLine
 10
54.78664171418002
 20
3.306996040548547
 30
0.0
 11
54.79953076164366
 21
3.309258775613379
 31
0.0
  0
LINE
  5
568
330
18
100
AcDbEntity
  8
1
 62
     1
100
AcDbLine
 10
54.79953076164366
 20
3.309258775613379
 30
0.0
 11
54.81159001758427
 21
3.31217367295981
 31
0.0
  0
LINE
  5
569
330
18
100
AcDbEntity
  8
1
 62
     1
100
AcDbLine
 10
54.81159001758427
 20
3.31217367295981
 30
0.0
 11
54.82286216703952
 21
3.315691464729295
 31
0.0
  0
LINE
  5
56A
330
18
100
AcDbEntity
  8
1
 62
     1
100
AcDbLine
 10
54.82286216703952
 20
3.315691464729295
 30
0.0
 11
54.83338872471103
 21
3.319763052053546
 31
0.0
  0
LINE
  5
56B
330
18
100
AcDbEntity
  8
1
 62
     1
100
AcDbLine
 10
54.83338872471103
 20
3.319763052053546
 30
0.0
 11
54.84321207926951
 21
3.324343326307209
 31
0.0
  0
LINE
  5
56C
330
18
100
AcDbEntity
  8
1
 62
     1
100
AcDbLine
 10
54.84321207926951
 20
3.324343326307209
 30
0.0
 11
54.85236981711749
 21
3.329392801569933
 31
0.0
  0
LINE
  5
56D
330
18
100
AcDbEntity
  8
1
 62
     1
100
AcDbLine
 10
54.85236981711749
 20
3.329392801569933
 30
0.0
 11
54.86089787363498
 21
3.334872265669925
 31
0.0
  0
LINE
  5
56E
330
18
100
AcDbEntity
  8
1
 62
     1
100
AcDbLine
 10
54.86089787363498
 20
3.334872265669925
 30
0.0
 11
54.86883222957177
 21
3.340744502426553
 31
0.0
  0
LINE
  5
56F
330
18
100
AcDbEntity
  8
1
 62
     1
100
AcDbLine
 10
54.86883222957177
 20
3.340744502426553
 30
0.0
 11
54.87620532796669
 21
3.346977966748374
 31
0.0
  0
LINE
  5
570
330
18
100
AcDbEntity
  8
1
 62
     1
100
AcDbLine
 10
54.87620532796669
 20
3.346977966748374
 30
0.0
 11
54.88304758345907
 21
3.353541793334565
 31
0.0
  0
LINE
  5
571
330
18
100
AcDbEntity
  8
1
 62
     1
100
AcDbLine
 10
54.88304758345907
 20
3.353541793334565
 30
0.0
 11
54.88938932166141
 21
3.360405869703407
 31
0.0
  0
LINE
  5
572
330
18
100
AcDbEntity
  8
1
 62
     1
100
AcDbLine
 10
54.88938932166141
 20
3.360405869703407
 30
0.0
 11
54.89525818981497
 21
3.367544708753794
 31
0.0
  0
LINE
  5
573
330
18
100
AcDbEntity
  8
1
 62
     1
100
AcDbLine
 10
54.89525818981497
 20
3.367544708753794
 30
0.0
 11
54.90067951294505
 21
3.374934221193822
 31
0.0
  0
LINE
  5
574
330
18
100
AcDbEntity
  8
1
 62
     1
100
AcDbLine
 10
54.90067951294505
 20
3.374934221193822
 30
0.0
 11
54.9056785240688
 21
3.382550495329263
 31
0.0
  0
LINE
  5
575
330
18
100
AcDbEntity
  8
1
 62
     1
100
AcDbLine
 10
54.9056785240688
 20
3.382550495329263
 30
0.0
 11
54.91027855036725
 21
3.39037272549098
 31
0.0
  0
LINE
  5
576
330
18
100
AcDbEntity
  8
1
 62
     1
100
AcDbLine
 10
54.91027855036725
 20
3.39037272549098
 30
0.0
 11
54.91450033704348
 21
3.398382141693477
 31
0.0
  0
LINE
  5
577
330
18
100
AcDbEntity
  8
1
 62
     1
100
AcDbLine
 10
54.91450033704348
 20
3.398382141693477
 30
0.0
 11
54.91836445279942
 21
3.406559990837111
 31
0.0
  0
LINE
  5
578
330
18
100
AcDbEntity
  8
1
 62
     1
100
AcDbLine
 10
54.91836445279942
 20
3.406559990837111
 30
0.0
 11
54.92189029229243
 21
3.414889248505663
 31
0.0
  0
LINE
  5
579
330
18
100
AcDbEntity
  8
1
 62
     1
100
AcDbLine
 10
54.92189029229243
 20
3.414889248505663
 30
0.0
 11
54.92509450805423
 21
3.423355172906722
 31
0.0
  0
LINE
  5
57A
330
18
100
AcDbEntity
  8
1
 62
     1
100
AcDbLine
 10
54.92509450805423
 20
3.423355172906722
 30
0.0
 11
54.9279933664256
 21
3.431943113549229
 31
0.0
  0
LINE
  5
57B
330
18
100
AcDbEntity
  8
1
 62
     1
100
AcDbLine
 10
54.9279933664256
 20
3.431943113549229
 30
0.0
 11
54.93293504419872
 21
3.449431573405755
 31
0.0
  0
LINE
  5
57C
330
18
100
AcDbEntity
  8
1
 62
     1
100
AcDbLine
 10
54.93293504419872
 20
3.449431573405755
 30
0.0
 11
54.93681889763822
 21
3.467259380974283
 31
0.0
  0
LINE
  5
57D
330
18
100
AcDbEntity
  8
1
 62
     1
100
AcDbLine
 10
54.93681889763822
 20
3.467259380974283
 30
0.0
 11
54.93973118100467
 21
3.48534246326401
 31
0.0
  0
LINE
  5
57E
330
18
100
AcDbEntity
  8
1
 62
     1
100
AcDbLine
 10
54.93973118100467
 20
3.48534246326401
 30
0.0
 11
54.94173955391707
 21
3.503606743599711
 31
0.0
  0
LINE
  5
57F
330
18
100
AcDbEntity
  8
1
 62
     1
100
AcDbLine
 10
54.94173955391707
 20
3.503606743599711
 30
0.0
 11
54.94289334624808
 21
3.521985964223325
 31
0.0
  0
LINE
  5
580
330
18
100
AcDbEntity
  8
1
 62
     1
100
AcDbLine
 10
54.94289334624808
 20
3.521985964223325
 30
0.0
 11
54.94322691084609
 21
3.54041851144496
 31
0.0
  0
LINE
  5
581
330
18
100
AcDbEntity
  8
1
 62
     1
100
AcDbLine
 10
54.94322691084609
 20
3.54041851144496
 30
0.0
 11
54.94275723097584
 21
3.558846229998533
 31
0.0
  0
LINE
  5
582
330
18
100
AcDbEntity
  8
1
 62
     1
100
AcDbLine
 10
54.94275723097584
 20
3.558846229998533
 30
0.0
 11
54.94148724066942
 21
3.577212085143619
 31
0.0
  0
LINE
  5
583
330
18
100
AcDbEntity
  8
1
 62
     1
100
AcDbLine
 10
54.94148724066942
 20
3.577212085143619
 30
0.0
 11
54.93940658079408
 21
3.595458610250687
 31
0.0
  0
LINE
  5
584
330
18
100
AcDbEntity
  8
1
 62
     1
100
AcDbLine
 10
54.93940658079408
 20
3.595458610250687
 30
0.0
 11
54.93730000373625
 21
3.60902937803109
 31
0.0
  0
LINE
  5
585
330
18
100
AcDbEntity
  8
1
 62
     1
100
AcDbLine
 10
54.93730000373625
 20
3.60902937803109
 30
0.0
 11
54.93471071176985
 21
3.622473323302558
 31
0.0
  0
LINE
  5
586
330
18
100
AcDbEntity
  8
1
 62
     1
100
AcDbLine
 10
44.25144893626151
 20
5.106232434563622
 30
0.0
 11
44.60285047702609
 21
5.311597999847701
 31
0.0
  0
LINE
  5
587
330
18
100
AcDbEntity
  8
1
 62
     1
100
AcDbLine
 10
44.60285047702609
 20
5.311597999847701
 30
0.0
 11
44.95424356950199
 21
5.491602993201479
 31
0.0
  0
LINE
  5
588
330
18
100
AcDbEntity
  8
1
 62
     1
100
AcDbLine
 10
44.95424356950199
 20
5.491602993201479
 30
0.0
 11
45.30563345885023
 21
5.645392931978543
 31
0.0
  0
LINE
  5
589
330
18
100
AcDbEntity
  8
1
 62
     1
100
AcDbLine
 10
45.30563345885023
 20
5.645392931978543
 30
0.0
 11
45.65702544197266
 21
5.772236219238301
 31
0.0
  0
LINE
  5
58A
330
18
100
AcDbEntity
  8
1
 62
     1
100
AcDbLine
 10
45.65702544197266
 20
5.772236219238301
 30
0.0
 11
45.83273575265589
 21
5.825361181127346
 31
0.0
  0
LINE
  5
58B
330
18
100
AcDbEntity
  8
1
 62
     1
100
AcDbLine
 10
45.83273575265589
 20
5.825361181127346
 30
0.0
 11
46.00842470380394
 21
5.871527557604312
 31
0.0
  0
LINE
  5
58C
330
18
100
AcDbEntity
  8
1
 62
     1
100
AcDbLine
 10
46.00842470380394
 20
5.871527557604312
 30
0.0
 11
46.18412587851721
 21
5.910685134091322
 31
0.0
  0
LINE
  5
58D
330
18
100
AcDbEntity
  8
1
 62
     1
100
AcDbLine
 10
46.18412587851721
 20
5.910685134091322
 30
0.0
 11
46.35983053837785
 21
5.942790020356799
 31
0.0
  0
LINE
  5
58E
330
18
100
AcDbEntity
  8
1
 62
     1
100
AcDbLine
 10
46.35983053837785
 20
5.942790020356799
 30
0.0
 11
46.53551667783541
 21
5.967795504185925
 31
0.0
  0
LINE
  5
58F
330
18
100
AcDbEntity
  8
1
 62
     1
100
AcDbLine
 10
46.53551667783541
 20
5.967795504185925
 30
0.0
 11
46.71122724983267
 21
5.98568075070061
 31
0.0
  0
LINE
  5
590
330
18
100
AcDbEntity
  8
1
 62
     1
100
AcDbLine
 10
46.71122724983267
 20
5.98568075070061
 30
0.0
 11
46.88691168947652
 21
5.996419491522818
 31
0.0
  0
LINE
  5
591
330
18
100
AcDbEntity
  8
1
 62
     1
100
AcDbLine
 10
46.88691168947652
 20
5.996419491522818
 30
0.0
 11
47.06258906865382
 21
6.0
 31
0.0
  0
LINE
  5
592
330
18
100
AcDbEntity
  8
1
 62
     1
100
AcDbLine
 10
46.17581297351326
 20
3.580848511984763
 30
0.0
 11
46.9038470605751
 21
2.857276861799297
 31
0.0
  0
LINE
  5
593
330
18
100
AcDbEntity
  8
1
 62
     1
100
AcDbLine
 10
46.9038470605751
 20
2.857276861799297
 30
0.0
 11
48.35989212288762
 21
1.250749540016612
 31
0.0
  0
LINE
  5
594
330
18
100
AcDbEntity
  8
1
 62
     1
100
AcDbLine
 10
48.35989212288762
 20
1.250749540016612
 30
0.0
 11
52.0
 21
-2.907368171337003
 31
0.0
  0
LINE
  5
595
330
18
100
AcDbEntity
  8
1
 62
     1
100
AcDbLine
 10
38.1884019660927
 20
3.580849250019197
 30
0.0
 11
38.89086725407136
 21
2.883769371256409
 31
0.0
  0
LINE
  5
596
330
18
100
AcDbEntity
  8
1
 62
     1
100
AcDbLine
 10
38.89086725407136
 20
2.883769371256409
 30
0.0
 11
40.2957913239653
 21
1.339106840286352
 31
0.0
  0
LINE
  5
597
330
18
100
AcDbEntity
  8
1
 62
     1
100
AcDbLine
 10
40.2957913239653
 20
1.339106840286352
 30
0.0
 11
43.10560682979649
 21
-1.930034299123711
 31
0.0
  0
LINE
  5
598
330
18
100
AcDbEntity
  8
1
 62
     1
100
AcDbLine
 10
43.10560682979649
 20
-1.930034299123711
 30
0.0
 11
43.80806200014889
 21
-2.693964997258657
 31
0.0
  0
LINE
  5
599
330
18
100
AcDbEntity
  8
1
 62
     1
100
AcDbLine
 10
43.80806200014889
 20
-2.693964997258657
 30
0.0
 11
44.51051901274027
 21
-3.406569391173025
 31
0.0
  0
LINE
  5
59A
330
18
100
AcDbEntity
  8
1
 62
     1
100
AcDbLine
 10
44.51051901274027
 20
-3.406569391173025
 30
0.0
 11
45.21299478552535
 21
-4.054280033393037
 31
0.0
  0
LINE
  5
59B
330
18
100
AcDbEntity
  8
1
 62
     1
100
AcDbLine
 10
45.21299478552535
 20
-4.054280033393037
 30
0.0
 11
45.56422090670264
 21
-4.349873159006447
 31
0.0
  0
LINE
  5
59C
330
18
100
AcDbEntity
  8
1
 62
     1
100
AcDbLine
 10
45.56422090670264
 20
-4.349873159006447
 30
0.0
 11
45.91544566351318
 21
-4.624720443866392
 31
0.0
  0
LINE
  5
59D
330
18
100
AcDbEntity
  8
1
 62
     1
100
AcDbLine
 10
45.91544566351318
 20
-4.624720443866392
 30
0.0
 11
46.26667343573956
 21
-4.877515890598699
 31
0.0
  0
LINE
  5
59E
330
18
100
AcDbEntity
  8
1
 62
     1
100
AcDbLine
 10
46.26667343573956
 20
-4.877515890598699
 30
0.0
 11
46.61791030777003
 21
-5.107055473514345
 31
0.0
  0
LINE
  5
59F
330
18
100
AcDbEntity
  8
1
 62
     1
100
AcDbLine
 10
46.61791030777003
 20
-5.107055473514345
 30
0.0
 11
46.96914972239875
 21
-5.312237636618848
 31
0.0
  0
LINE
  5
5A0
330
18
100
AcDbEntity
  8
1
 62
     1
100
AcDbLine
 10
46.96914972239875
 20
-5.312237636618848
 30
0.0
 11
47.32037864981529
 21
-5.492079125759442
 31
0.0
  0
LINE
  5
5A1
330
18
100
AcDbEntity
  8
1
 62
     1
100
AcDbLine
 10
47.32037864981529
 20
-5.492079125759442
 30
0.0
 11
47.67160319615738
 21
-5.645727022318323
 31
0.0
  0
LINE
  5
5A2
330
18
100
AcDbEntity
  8
1
 62
     1
100
AcDbLine
 10
47.67160319615738
 20
-5.645727022318323
 30
0.0
 11
48.02282875754309
 21
-5.772451618967251
 31
0.0
  0
LINE
  5
5A3
330
18
100
AcDbEntity
  8
1
 62
     1
100
AcDbLine
 10
48.02282875754309
 20
-5.772451618967251
 30
0.0
 11
48.19845629684791
 21
-5.825527391629452
 31
0.0
  0
LINE
  5
5A4
330
18
100
AcDbEntity
  8
1
 62
     1
100
AcDbLine
 10
48.19845629684791
 20
-5.825527391629452
 30
0.0
 11
48.37405978353897
 21
-5.871649375674599
 31
0.0
  0
LINE
  5
5A5
330
18
100
AcDbEntity
  8
1
 62
     1
100
AcDbLine
 10
48.37405978353897
 20
-5.871649375674599
 30
0.0
 11
48.54968165478046
 21
-5.910770829467595
 31
0.0
  0
LINE
  5
5A6
330
18
100
AcDbEntity
  8
1
 62
     1
100
AcDbLine
 10
48.54968165478046
 20
-5.910770829467595
 30
0.0
 11
48.72530031616147
 21
-5.942844899777244
 31
0.0
  0
LINE
  5
5A7
330
18
100
AcDbEntity
  8
1
 62
     1
100
AcDbLine
 10
48.72530031616147
 20
-5.942844899777244
 30
0.0
 11
48.90090612636375
 21
-5.967826646307065
 31
0.0
  0
LINE
  5
5A8
330
18
100
AcDbEntity
  8
1
 62
     1
100
AcDbLine
 10
48.90090612636375
 20
-5.967826646307065
 30
0.0
 11
49.07653408756023
 21
-5.985695056653526
 31
0.0
  0
LINE
  5
5A9
330
18
100
AcDbEntity
  8
1
 62
     1
100
AcDbLine
 10
49.07653408756023
 20
-5.985695056653526
 30
0.0
 11
49.25213225732286
 21
-5.996423057285308
 31
0.0
  0
LINE
  5
5AA
330
18
100
AcDbEntity
  8
1
 62
     1
100
AcDbLine
 10
49.25213225732286
 20
-5.996423057285308
 30
0.0
 11
49.42772177315377
 21
-5.999999999904002
 31
0.0
  0
ARC
  5
5AB
330
18
100
AcDbEntity
  8
1
 62
     1
100
AcDbCircle
 10
49.63137412252188
 20
-1.125309071892268
 30
0.0
 40
4.755186552745448
100
AcDbArc
 50
299.8755665418653
 51
303.2980325176751
  0
LINE
  5
5AC
330
18
100
AcDbEntity
  8
1
 62
     1
100
AcDbLine
 10
39.0751780336788
 20
-0.0000000000000637
 30
0.0
 11
41.07204633856074
 21
-2.29611696396138
 31
0.0
  0
LINE
  5
5AD
330
18
100
AcDbEntity
  8
1
 62
     1
100
AcDbLine
 10
41.07204633856074
 20
-2.29611696396138
 30
0.0
 11
42.07047719646312
 21
-3.333441016958377
 31
0.0
  0
LINE
  5
5AE
330
18
100
AcDbEntity
  8
1
 62
     1
100
AcDbLine
 10
42.07047719646312
 20
-3.333441016958377
 30
0.0
 11
42.56968364708104
 21
-3.806371734938533
 31
0.0
  0
LINE
  5
5AF
330
18
100
AcDbEntity
  8
1
 62
     1
100
AcDbLine
 10
42.56968364708104
 20
-3.806371734938533
 30
0.0
 11
43.06889757946881
 21
-4.242651723389337
 31
0.0
  0
LINE
  5
5B0
330
18
100
AcDbEntity
  8
1
 62
     1
100
AcDbLine
 10
43.06889757946881
 20
-4.242651723389337
 30
0.0
 11
43.56811699039365
 21
-4.638076635102941
 31
0.0
  0
LINE
  5
5B1
330
18
100
AcDbEntity
  8
1
 62
     1
100
AcDbLine
 10
43.56811699039365
 20
-4.638076635102941
 30
0.0
 11
44.06733809840693
 21
-4.988834824505195
 31
0.0
  0
LINE
  5
5B2
330
18
100
AcDbEntity
  8
1
 62
     1
100
AcDbLine
 10
44.06733809840693
 20
-4.988834824505195
 30
0.0
 11
44.31693585619865
 21
-5.146382936040787
 31
0.0
  0
LINE
  5
5B3
330
18
100
AcDbEntity
  8
1
 62
     1
100
AcDbLine
 10
44.31693585619865
 20
-5.146382936040787
 30
0.0
 11
44.56655713031245
 21
-5.29154568717408
 31
0.0
  0
LINE
  5
5B4
330
18
100
AcDbEntity
  8
1
 62
     1
100
AcDbLine
 10
44.56655713031245
 20
-5.29154568717408
 30
0.0
 11
44.81615213940735
 21
-5.423945893458382
 31
0.0
  0
LINE
  5
5B5
330
18
100
AcDbEntity
  8
1
 62
     1
100
AcDbLine
 10
44.81615213940735
 20
-5.423945893458382
 30
0.0
 11
45.06577026266632
 21
-5.54329238591461
 31
0.0
  0
LINE
  5
5B6
330
18
100
AcDbEntity
  8
1
 62
     1
100
AcDbLine
 10
45.06577026266632
 20
-5.54329238591461
 30
0.0
 11
45.31537244388993
 21
-5.649274544573316
 31
0.0
  0
LINE
  5
5B7
330
18
100
AcDbEntity
  8
1
 62
     1
100
AcDbLine
 10
45.31537244388993
 20
-5.649274544573316
 30
0.0
 11
45.56497593329274
 21
-5.741650957446295
 31
0.0
  0
LINE
  5
5B8
330
18
100
AcDbEntity
  8
1
 62
     1
100
AcDbLine
 10
45.56497593329274
 20
-5.741650957446295
 30
0.0
 11
45.81459285113169
 21
-5.820196720393152
 31
0.0
  0
LINE
  5
5B9
330
18
100
AcDbEntity
  8
1
 62
     1
100
AcDbLine
 10
45.81459285113169
 20
-5.820196720393152
 30
0.0
 11
46.06418806648534
 21
-5.884716641677309
 31
0.0
  0
LINE
  5
5BA
330
18
100
AcDbEntity
  8
1
 62
     1
100
AcDbLine
 10
46.06418806648534
 20
-5.884716641677309
 30
0.0
 11
46.31380935319517
 21
-5.935065431608161
 31
0.0
  0
LINE
  5
5BB
330
18
100
AcDbEntity
  8
1
 62
     1
100
AcDbLine
 10
46.31380935319517
 20
-5.935065431608161
 30
0.0
 11
46.56340637019198
 21
-5.971110320219297
 31
0.0
  0
LINE
  5
5BC
330
18
100
AcDbEntity
  8
1
 62
     1
100
AcDbLine
 10
46.56340637019198
 20
-5.971110320219297
 30
0.0
 11
46.81301797131087
 21
-5.992774794325729
 31
0.0
  0
LINE
  5
5BD
330
18
100
AcDbEntity
  8
1
 62
     1
100
AcDbLine
 10
46.81301797131087
 20
-5.992774794325729
 30
0.0
 11
47.06258906864966
 21
-5.999999999903414
 31
0.0
  0
LINE
  5
5BE
330
18
100
AcDbEntity
  8
1
 62
     1
100
AcDbLine
 10
39.07517803367884
 20
0.0000000000000009
 30
0.0
 11
36.85663129184088
 21
1.53652387103473
 31
0.0
  0
LINE
  5
5BF
330
18
100
AcDbEntity
  8
1
 62
     1
100
AcDbLine
 10
36.85663129184088
 20
1.53652387103473
 30
0.0
 11
35.74735792092195
 21
2.213304094513401
 31
0.0
  0
LINE
  5
5C0
330
18
100
AcDbEntity
  8
1
 62
     1
100
AcDbLine
 10
35.74735792092195
 20
2.213304094513401
 30
0.0
 11
35.19272123546247
 21
2.514179526222652
 31
0.0
  0
LINE
  5
5C1
330
18
100
AcDbEntity
  8
1
 62
     1
100
AcDbLine
 10
35.19272123546247
 20
2.514179526222652
 30
0.0
 11
34.63808455000298
 21
2.785172913609871
 31
0.0
  0
LINE
  5
5C2
330
18
100
AcDbEntity
  8
1
 62
     1
100
AcDbLine
 10
34.63808455000298
 20
2.785172913609871
 30
0.0
 11
34.08344786454349
 21
3.023063387144836
 31
0.0
  0
LINE
  5
5C3
330
18
100
AcDbEntity
  8
1
 62
     1
100
AcDbLine
 10
34.08344786454349
 20
3.023063387144836
 30
0.0
 11
33.52881117908401
 21
3.225023518230958
 31
0.0
  0
LINE
  5
5C4
330
18
100
AcDbEntity
  8
1
 62
     1
100
AcDbLine
 10
33.52881117908401
 20
3.225023518230958
 30
0.0
 11
32.97417449362454
 21
3.388652924197889
 31
0.0
  0
LINE
  5
5C5
330
18
100
AcDbEntity
  8
1
 62
     1
100
AcDbLine
 10
32.97417449362454
 20
3.388652924197889
 30
0.0
 11
32.6968561508948
 21
3.45546690289407
 31
0.0
  0
LINE
  5
5C6
330
18
100
AcDbEntity
  8
1
 62
     1
100
AcDbLine
 10
32.6968561508948
 20
3.45546690289407
 30
0.0
 11
32.41953780816505
 21
3.512006798826487
 31
0.0
  0
LINE
  5
5C7
330
18
100
AcDbEntity
  8
1
 62
     1
100
AcDbLine
 10
32.41953780816505
 20
3.512006798826487
 30
0.0
 11
32.14221946543531
 21
3.558102383876273
 31
0.0
  0
LINE
  5
5C8
330
18
100
AcDbEntity
  8
1
 62
     1
100
AcDbLine
 10
32.14221946543531
 20
3.558102383876273
 30
0.0
 11
31.86490112270558
 21
3.59361902441984
 31
0.0
  0
LINE
  5
5C9
330
18
100
AcDbEntity
  8
1
 62
     1
100
AcDbLine
 10
31.86490112270558
 20
3.59361902441984
 30
0.0
 11
31.58758277997584
 21
3.618448360468339
 31
0.0
  0
LINE
  5
5CA
330
18
100
AcDbEntity
  8
1
 62
     1
100
AcDbLine
 10
31.58758277997584
 20
3.618448360468339
 30
0.0
 11
31.3102644372461
 21
3.632519607232205
 31
0.0
  0
LINE
  5
5CB
330
18
100
AcDbEntity
  8
1
 62
     1
100
AcDbLine
 10
31.3102644372461
 20
3.632519607232205
 30
0.0
 11
31.03294609451636
 21
3.635787572253131
 31
0.0
  0
LINE
  5
5CC
330
18
100
AcDbEntity
  8
1
 62
     1
100
AcDbLine
 10
31.03294609451636
 20
3.635787572253131
 30
0.0
 11
30.75562775178663
 21
3.628246174788832
 31
0.0
  0
LINE
  5
5CD
330
18
100
AcDbEntity
  8
1
 62
     1
100
AcDbLine
 10
30.75562775178663
 20
3.628246174788832
 30
0.0
 11
30.47830940905688
 21
3.609914041814326
 31
0.0
  0
LINE
  5
5CE
330
18
100
AcDbEntity
  8
1
 62
     1
100
AcDbLine
 10
30.47830940905688
 20
3.609914041814326
 30
0.0
 11
30.20099106632715
 21
3.580849569619156
 31
0.0
  0
LINE
  5
5CF
330
18
100
AcDbEntity
  8
1
 62
     1
100
AcDbLine
 10
30.20099025911892
 20
3.580848717035506
 30
0.0
 11
30.90344681279128
 21
2.883779573117389
 31
0.0
  0
LINE
  5
5D0
330
18
100
AcDbEntity
  8
1
 62
     1
100
AcDbLine
 10
30.90344681279128
 20
2.883779573117389
 30
0.0
 11
32.30836589717783
 21
1.339123316418667
 31
0.0
  0
LINE
  5
5D1
330
18
100
AcDbEntity
  8
1
 62
     1
100
AcDbLine
 10
32.30836589717783
 20
1.339123316418667
 30
0.0
 11
35.11821417559571
 21
-1.930055307751932
 31
0.0
  0
LINE
  5
5D2
330
18
100
AcDbEntity
  8
1
 62
     1
100
AcDbLine
 10
35.11821417559571
 20
-1.930055307751932
 30
0.0
 11
35.8206662832396
 21
-2.693981270131701
 31
0.0
  0
LINE
  5
5D3
330
18
100
AcDbEntity
  8
1
 62
     1
100
AcDbLine
 10
35.8206662832396
 20
-2.693981270131701
 30
0.0
 11
36.52312293957896
 21
-3.40658350767926
 31
0.0
  0
LINE
  5
5D4
330
18
100
AcDbEntity
  8
1
 62
     1
100
AcDbLine
 10
36.52312293957896
 20
-3.40658350767926
 30
0.0
 11
37.2255952018006
 21
-4.054290090824097
 31
0.0
  0
LINE
  5
5D5
330
18
100
AcDbEntity
  8
1
 62
     1
100
AcDbLine
 10
37.2255952018006
 20
-4.054290090824097
 30
0.0
 11
37.57682004958006
 21
-4.349881158737992
 31
0.0
  0
LINE
  5
5D6
330
18
100
AcDbEntity
  8
1
 62
     1
100
AcDbLine
 10
37.57682004958006
 20
-4.349881158737992
 30
0.0
 11
37.92804358182076
 21
-4.624727343230324
 31
0.0
  0
LINE
  5
5D7
330
18
100
AcDbEntity
  8
1
 62
     1
100
AcDbLine
 10
37.92804358182076
 20
-4.624727343230324
 30
0.0
 11
38.27927162903821
 21
-4.877521704476804
 31
0.0
  0
LINE
  5
5D8
330
18
100
AcDbEntity
  8
1
 62
     1
100
AcDbLine
 10
38.27927162903821
 20
-4.877521704476804
 30
0.0
 11
38.63050832484328
 21
-5.107061011727777
 31
0.0
  0
LINE
  5
5D9
330
18
100
AcDbEntity
  8
1
 62
     1
100
AcDbLine
 10
38.63050832484328
 20
-5.107061011727777
 30
0.0
 11
38.98174483732923
 21
-5.312241335699434
 31
0.0
  0
LINE
  5
5DA
330
18
100
AcDbEntity
  8
1
 62
     1
100
AcDbLine
 10
38.98174483732923
 20
-5.312241335699434
 30
0.0
 11
39.33297238526994
 21
-5.492081299703711
 31
0.0
  0
LINE
  5
5DB
330
18
100
AcDbEntity
  8
1
 62
     1
100
AcDbLine
 10
39.33297238526994
 20
-5.492081299703711
 30
0.0
 11
39.68419559990004
 21
-5.645728470377538
 31
0.0
  0
LINE
  5
5DC
330
18
100
AcDbEntity
  8
1
 62
     1
100
AcDbLine
 10
39.68419559990004
 20
-5.645728470377538
 30
0.0
 11
40.03542059351424
 21
-5.77245262488557
 31
0.0
  0
LINE
  5
5DD
330
18
100
AcDbEntity
  8
1
 62
     1
100
AcDbLine
 10
40.03542059351424
 20
-5.77245262488557
 30
0.0
 11
40.21104756725587
 21
-5.825527892216103
 31
0.0
  0
LINE
  5
5DE
330
18
100
AcDbEntity
  8
1
 62
     1
100
AcDbLine
 10
40.21104756725587
 20
-5.825527892216103
 30
0.0
 11
40.38665206782666
 21
-5.871650039195933
 31
0.0
  0
LINE
  5
5DF
330
18
100
AcDbEntity
  8
1
 62
     1
100
AcDbLine
 10
40.38665206782666
 20
-5.871650039195933
 30
0.0
 11
40.56227147963195
 21
-5.910770944635875
 31
0.0
  0
LINE
  5
5E0
330
18
100
AcDbEntity
  8
1
 62
     1
100
AcDbLine
 10
40.56227147963195
 20
-5.910770944635875
 30
0.0
 11
40.73789095769339
 21
-5.942845146446481
 31
0.0
  0
LINE
  5
5E1
330
18
100
AcDbEntity
  8
1
 62
     1
100
AcDbLine
 10
40.73789095769339
 20
-5.942845146446481
 30
0.0
 11
40.91349515379287
 21
-5.967826702538979
 31
0.0
  0
LINE
  5
5E2
330
18
100
AcDbEntity
  8
1
 62
     1
100
AcDbLine
 10
40.91349515379287
 20
-5.967826702538979
 30
0.0
 11
41.08912233868801
 21
-5.985694937923121
 31
0.0
  0
LINE
  5
5E3
330
18
100
AcDbEntity
  8
1
 62
     1
100
AcDbLine
 10
41.08912233868801
 20
-5.985694937923121
 30
0.0
 11
41.26472146182586
 21
-5.99642309322633
 31
0.0
  0
LINE
  5
5E4
330
18
100
AcDbEntity
  8
1
 62
     1
100
AcDbLine
 10
41.26472146182586
 20
-5.99642309322633
 30
0.0
 11
41.44031156845381
 21
-5.999999999988038
 31
0.0
  0
LINE
  5
5E5
330
18
100
AcDbEntity
  8
1
 62
     1
100
AcDbLine
 10
47.06258906865369
 20
-0.0000000000002435
 30
0.0
 11
49.53131572274718
 21
-2.799889258165137
 31
0.0
  0
LINE
  5
5E6
330
18
100
AcDbEntity
  8
1
 62
     1
100
AcDbLine
 10
49.53131572274718
 20
-2.799889258165137
 30
0.0
 11
50.14848209583772
 21
-3.421788196929668
 31
0.0
  0
LINE
  5
5E7
330
18
100
AcDbEntity
  8
1
 62
     1
100
AcDbLine
 10
50.14848209583772
 20
-3.421788196929668
 30
0.0
 11
50.76567136657618
 21
-3.99336165286804
 31
0.0
  0
LINE
  5
5E8
330
18
100
AcDbEntity
  8
1
 62
     1
100
AcDbLine
 10
50.76567136657618
 20
-3.99336165286804
 30
0.0
 11
51.38284628899816
 21
-4.506167442235996
 31
0.0
  0
LINE
  5
5E9
330
18
100
AcDbEntity
  8
1
 62
     1
100
AcDbLine
 10
51.38284628899816
 20
-4.506167442235996
 30
0.0
 11
51.69144407243829
 21
-4.738148445563734
 31
0.0
  0
LINE
  5
5EA
330
18
100
AcDbEntity
  8
1
 62
     1
100
AcDbLine
 10
51.69144407243829
 20
-4.738148445563734
 30
0.0
 11
51.99999999999999
 21
-4.95265733822789
 31
0.0
  0
LINE
  5
5EB
330
18
100
AcDbEntity
  8
1
 62
     1
100
AcDbLine
 10
47.06258906865389
 20
-0.0000000000000282
 30
0.0
 11
44.84404229313317
 21
1.53652420118891
 31
0.0
  0
LINE
  5
5EC
330
18
100
AcDbEntity
  8
1
 62
     1
100
AcDbLine
 10
44.84404229313317
 20
1.53652420118891
 30
0.0
 11
43.7347689053728
 21
2.213304576339474
 31
0.0
  0
LINE
  5
5ED
330
18
100
AcDbEntity
  8
1
 62
     1
100
AcDbLine
 10
43.7347689053728
 20
2.213304576339474
 30
0.0
 11
43.18013221149263
 21
2.514180056916025
 31
0.0
  0
LINE
  5
5EE
330
18
100
AcDbEntity
  8
1
 62
     1
100
AcDbLine
 10
43.18013221149263
 20
2.514180056916025
 30
0.0
 11
42.62549551761244
 21
2.785173466352205
 31
0.0
  0
LINE
  5
5EF
330
18
100
AcDbEntity
  8
1
 62
     1
100
AcDbLine
 10
42.62549551761244
 20
2.785173466352205
 30
0.0
 11
42.07085882373227
 21
3.023063929275208
 31
0.0
  0
LINE
  5
5F0
330
18
100
AcDbEntity
  8
1
 62
     1
100
AcDbLine
 10
42.07085882373227
 20
3.023063929275208
 30
0.0
 11
41.5162221298521
 21
3.225024012486653
 31
0.0
  0
LINE
  5
5F1
330
18
100
AcDbEntity
  8
1
 62
     1
100
AcDbLine
 10
41.5162221298521
 20
3.225024012486653
 30
0.0
 11
40.9615854359719
 21
3.388653334177471
 31
0.0
  0
LINE
  5
5F2
330
18
100
AcDbEntity
  8
1
 62
     1
100
AcDbLine
 10
40.9615854359719
 20
3.388653334177471
 30
0.0
 11
40.68426708903182
 21
3.455466670153004
 31
0.0
  0
LINE
  5
5F3
330
18
100
AcDbEntity
  8
1
 62
     1
100
AcDbLine
 10
40.68426708903182
 20
3.455466670153004
 30
0.0
 11
40.40694874209174
 21
3.512007093283299
 31
0.0
  0
LINE
  5
5F4
330
18
100
AcDbEntity
  8
1
 62
     1
100
AcDbLine
 10
40.40694874209174
 20
3.512007093283299
 30
0.0
 11
40.12963039515165
 21
3.558102240691413
 31
0.0
  0
LINE
  5
5F5
330
18
100
AcDbEntity
  8
1
 62
     1
100
AcDbLine
 10
40.12963039515165
 20
3.558102240691413
 30
0.0
 11
39.85231204821157
 21
3.593619181796883
 31
0.0
  0
LINE
  5
5F6
330
18
100
AcDbEntity
  8
1
 62
     1
100
AcDbLine
 10
39.85231204821157
 20
3.593619181796883
 30
0.0
 11
39.57499370127147
 21
3.618448308771903
 31
0.0
  0
LINE
  5
5F7
330
18
100
AcDbEntity
  8
1
 62
     1
100
AcDbLine
 10
39.57499370127147
 20
3.618448308771903
 30
0.0
 11
39.29767535433139
 21
3.632519609705046
 31
0.0
  0
LINE
  5
5F8
330
18
100
AcDbEntity
  8
1
 62
     1
100
AcDbLine
 10
39.29767535433139
 20
3.632519609705046
 30
0.0
 11
39.0203570073913
 21
3.63578763543252
 31
0.0
  0
LINE
  5
5F9
330
18
100
AcDbEntity
  8
1
 62
     1
100
AcDbLine
 10
39.0203570073913
 20
3.63578763543252
 30
0.0
 11
38.74303866045121
 21
3.628246033402216
 31
0.0
  0
LINE
  5
5FA
330
18
100
AcDbEntity
  8
1
 62
     1
100
AcDbLine
 10
38.74303866045121
 20
3.628246033402216
 30
0.0
 11
38.46572031351111
 21
3.609914133791825
 31
0.0
  0
LINE
  5
5FB
330
18
100
AcDbEntity
  8
1
 62
     1
100
AcDbLine
 10
38.46572031351111
 20
3.609914133791825
 30
0.0
 11
38.18840196657102
 21
3.580849250524436
 31
0.0
  0
LINE
  5
5FC
330
18
100
AcDbEntity
  8
1
 62
     1
100
AcDbLine
 10
36.26403808783608
 20
5.106232417640377
 30
0.0
 11
36.61543744554977
 21
5.311596658578438
 31
0.0
  0
LINE
  5
5FD
330
18
100
AcDbEntity
  8
1
 62
     1
100
AcDbLine
 10
36.61543744554977
 20
5.311596658578438
 30
0.0
 11
36.96682950150141
 21
5.491601445265406
 31
0.0
  0
LINE
  5
5FE
330
18
100
AcDbEntity
  8
1
 62
     1
100
AcDbLine
 10
36.96682950150141
 20
5.491601445265406
 30
0.0
 11
37.31821960146271
 21
5.645391867309697
 31
0.0
  0
LINE
  5
5FF
330
18
100
AcDbEntity
  8
1
 62
     1
100
AcDbLine
 10
37.31821960146271
 20
5.645391867309697
 30
0.0
 11
37.66961291344141
 21
5.772235940427783
 31
0.0
  0
LINE
  5
600
330
18
100
AcDbEntity
  8
1
 62
     1
100
AcDbLine
 10
37.66961291344141
 20
5.772235940427783
 30
0.0
 11
37.84532230765422
 21
5.825360354414785
 31
0.0
  0
LINE
  5
601
330
18
100
AcDbEntity
  8
1
 62
     1
100
AcDbLine
 10
37.84532230765422
 20
5.825360354414785
 30
0.0
 11
38.02101468843128
 21
5.871527895460488
 31
0.0
  0
LINE
  5
602
330
18
100
AcDbEntity
  8
1
 62
     1
100
AcDbLine
 10
38.02101468843128
 20
5.871527895460488
 30
0.0
 11
38.19671230874425
 21
5.910684660697025
 31
0.0
  0
LINE
  5
603
330
18
100
AcDbEntity
  8
1
 62
     1
100
AcDbLine
 10
38.19671230874425
 20
5.910684660697025
 30
0.0
 11
38.3724194781021
 21
5.942789812932041
 31
0.0
  0
LINE
  5
604
330
18
100
AcDbEntity
  8
1
 62
     1
100
AcDbLine
 10
38.3724194781021
 20
5.942789812932041
 30
0.0
 11
38.54810413912595
 21
5.967795512848134
 31
0.0
  0
LINE
  5
605
330
18
100
AcDbEntity
  8
1
 62
     1
100
AcDbLine
 10
38.54810413912595
 20
5.967795512848134
 30
0.0
 11
38.7238145521457
 21
5.985680432347215
 31
0.0
  0
LINE
  5
606
330
18
100
AcDbEntity
  8
1
 62
     1
100
AcDbLine
 10
38.7238145521457
 20
5.985680432347215
 30
0.0
 11
38.89950215382959
 21
5.996419583745693
 31
0.0
  0
LINE
  5
607
330
18
100
AcDbEntity
  8
1
 62
     1
100
AcDbLine
 10
38.89950215382959
 20
5.996419583745693
 30
0.0
 11
39.07517803367882
 21
6.000000000000001
 31
0.0
  0
LINE
  5
608
330
18
100
AcDbEntity
  8
SK1
100
AcDbLine
 10
-44.4
 20
6.0
 30
0.0
 11
-45.0
 21
5.4
 31
0.0
  0
LINE
  5
609
330
18
100
AcDbEntity
  8
SK1
100
AcDbLine
 10
-45.0
 20
5.4
 30
0.0
 11
-45.00000000000001
 21
5.394631356210617
 31
0.0
  0
LINE
  5
60A
330
18
100
AcDbEntity
  8
SK1
100
AcDbLine
 10
-45.00000000000001
 20
5.394631356210617
 30
0.0
 11
-45.0
 21
4.915476293886469
 31
0.0
  0
LINE
  5
60B
330
18
100
AcDbEntity
  8
SK1
100
AcDbLine
 10
-45.0
 20
4.915476293886469
 30
0.0
 11
-45.0
 21
-5.4
 31
0.0
  0
LINE
  5
60C
330
18
100
AcDbEntity
  8
SK1
100
AcDbLine
 10
-44.4
 20
6.0
 30
0.0
 11
0.0000000000000036
 21
6.0
 31
0.0
  0
LINE
  5
60D
330
18
100
AcDbEntity
  8
SK1
100
AcDbLine
 10
-44.4
 20
6.0
 30
0.0
 11
-44.4
 21
5.994034840234019
 31
0.0
  0
LINE
  5
60E
330
18
100
AcDbEntity
  8
SK1
100
AcDbLine
 10
-44.4
 20
5.994034840234019
 30
0.0
 11
-44.39999999999999
 21
5.46164032654052
 31
0.0
  0
LINE
  5
60F
330
18
100
AcDbEntity
  8
SK1
100
AcDbLine
 10
-44.39999999999999
 20
5.46164032654052
 30
0.0
 11
-44.4
 21
-6.0
 31
0.0
  0
LINE
  5
610
330
18
100
AcDbEntity
  8
SK1
100
AcDbLine
 10
-45.0
 20
-5.4
 30
0.0
 11
-44.4
 21
-6.0
 31
0.0
  0
LINE
  5
611
330
18
100
AcDbEntity
  8
SK1
100
AcDbLine
 10
-44.4
 20
-5.999999999999998
 30
0.0
 11
0.0000000000000044
 21
-5.999999999999998
 31
0.0
  0
DIMENSION
  5
612
330
18
100
AcDbEntity
  8
2
100
AcDbDimension
  2
*D0
 10
70.00000000000001
 20
-5.999999999999948
 30
0.0
 11
67.60925
 21
0.0000000000000439
 31
0.0
 70
    32
  1
%%c<>
 71
     5
 42
12.0
  3
STANDARD
100
AcDbAlignedDimension
 13
55.0
 23
6.0
 33
0.0
 14
55.0
 24
-6.0
 34
0.0
 50
90.0000000000002
100
AcDbRotatedDimension
  0
DIMENSION
  5
61F
330
18
100
AcDbEntity
  8
2
100
AcDbDimension
  2
*D1
 10
55.0
 20
75.0
 30
0.0
 11
27.5
 21
77.39075
 31
0.0
 70
    32
  1
<>
 71
     5
 42
55.0
  3
STANDARD
100
AcDbAlignedDimension
 13
0.0
 23
0.0
 33
0.0
 14
55.0
 24
0.0
 34
0.0
100
AcDbRotatedDimension
  0
DIMENSION
  5
62C
330
18
100
AcDbEntity
  8
2
100
AcDbDimension
  2
*D2
 10
55.0
 20
60.0
 30
0.0
 11
42.0
 21
62.39075
 31
0.0
 70
    32
  1
<>
 71
     5
 42
26.0
  3
STANDARD
100
AcDbAlignedDimension
 13
29.0
 23
6.0
 33
0.0
 14
55.0
 24
6.0
 34
0.0
100
AcDbRotatedDimension
  0
DIMENSION
  5
639
330
18
100
AcDbEntity
  8
SK2
100
AcDbDimension
  2
*D3
 10
-59.99999999996938
 20
-6.000000000076551
 30
0.0
 11
-62.39075
 21
-0.0000000000887523
 31
0.0
 70
    32
  1
%%c<>
 71
     5
 42
12.0
  3
STANDARD
100
AcDbAlignedDimension
 13
-45.0
 23
6.0
 33
0.0
 14
-45.0
 24
-6.0
 34
0.0
 50
90.0000000002924
100
AcDbRotatedDimension
  0
DIMENSION
  5
646
330
18
100
AcDbEntity
  8
SK2
100
AcDbDimension
  2
*D4
 10
55.0
 20
90.0
 30
0.0
 11
5.0
 21
92.39075
 31
0.0
 70
    32
  1
<>
 71
     5
 42
100.0
  3
STANDARD
100
AcDbAlignedDimension
 13
-45.0
 23
0.0
 33
0.0
 14
55.0
 24
0.0
 34
0.0
100
AcDbRotatedDimension
  0
DIMENSION
  5
653
330
18
100
AcDbEntity
  8
2
100
AcDbDimension
  2
*D5
 10
52.0
 20
-3.0
 30
0.0
 11
55.7507851901755
 21
-24.27175985833355
 31
0.0
 70
   164
  1
<>
 71
     5
 42
3.0
  3
STANDARD
100
AcDbRadialDimension
 15
52.52094453300079
 25
-5.954423259036624
 35
0.0
 40
0.0
  0
ENDSEC
  0
SECTION
  2
OBJECTS
  0
DICTIONARY
  5
C
330
0
100
AcDbDictionary
281
     1
  3
ACAD_COLOR
350
387
  3
ACAD_GROUP
350
D
  3
ACAD_LAYOUT
350
301
  3
ACAD_MATERIAL
350
386
  3
ACAD_MLEADERSTYLE
350
3DE
  3
ACAD_MLINESTYLE
350
E
  3
ACAD_PLOTSETTINGS
350
302
  3
ACAD_PLOTSTYLENAME
350
2FF
  3
ACAD_SCALELIST
350
3A0
  3
ACAD_TABLESTYLE
350
388
  3
ACAD_VISUALSTYLE
350
3C2
  3
ACDBHEADERROUNDTRIPXREC
350
660
  3
AcDbVariableDictionary
350
357
  0
DICTIONARY
  5
663
330
8
100
AcDbDictionary
280
     1
281
     1
  3
ACAD_XREC_ROUNDTRIP
360
664
  0
DICTIONARY
  5
387
102
{ACAD_REACTORS
330
C
102
}
330
C
100
AcDbDictionary
281
     1
  0
DICTIONARY
  5
D
102
{ACAD_REACTORS
330
C
102
}
330
C
100
AcDbDictionary
281
     1
  0
DICTIONARY
  5
301
102
{ACAD_REACTORS
330
C
102
}
330
C
100
AcDbDictionary
281
     1
  3
Layout1
350
33B
  3
Model
350
303
  0
DICTIONARY
  5
386
102
{ACAD_REACTORS
330
C
102
}
330
C
100
AcDbDictionary
281
     1
  3
ByBlock
350
3DC
  3
ByLayer
350
3DB
  3
Global
350
3DD
  0
DICTIONARY
  5
3DE
102
{ACAD_REACTORS
330
C
102
}
330
C
100
AcDbDictionary
281
     1
  3
Standard
350
3DF
  0
DICTIONARY
  5
E
102
{ACAD_REACTORS
330
C
102
}
330
C
100
AcDbDictionary
281
     1
  3
STANDARD
350
1B
  0
DICTIONARY
  5
302
102
{ACAD_REACTORS
330
C
102
}
330
C
100
AcDbDictionary
281
     1
  0
ACDBDICTIONARYWDFLT
  5
2FF
102
{ACAD_REACTORS
330
C
102
}
330
C
100
AcDbDictionary
281
     1
  3
Normal
350
300
100
AcDbDictionaryWithDefault
340
300
  0
DICTIONARY
  5
3A0
102
{ACAD_REACTORS
330
C
102
}
330
C
100
AcDbDictionary
281
     1
  3
A0
350
3A1
  3
A1
350
3A2
  3
A2
350
3A3
  3
A3
350
3A4
  3
A4
350
3A5
  3
A5
350
3A6
  3
A6
350
3A7
  3
A7
350
3A8
  3
A8
350
3A9
  3
A9
350
3AA
  3
B0
350
3AB
  3
B1
350
3AC
  3
B2
350
3AD
  3
B3
350
3AE
  3
B4
350
3AF
  3
B5
350
3B0
  3
B6
350
3B1
  3
B7
350
3B2
  3
B8
350
3B3
  3
B9
350
3B4
  3
C0
350
3B5
  3
C1
350
3B6
  3
C2
350
3B7
  3
C3
350
3B8
  3
C4
350
3B9
  3
C5
350
3BA
  3
C6
350
3BB
  3
C7
350
3BC
  3
C8
350
3BD
  3
C9
350
3BE
  3
D0
350
3BF
  3
D1
350
3C0
  3
D2
350
3C1
  0
DICTIONARY
  5
388
102
{ACAD_REACTORS
330
C
102
}
330
C
100
AcDbDictionary
281
     1
  3
Standard
350
389
  0
DICTIONARY
  5
3C2
102
{ACAD_REACTORS
330
C
102
}
330
C
100
AcDbDictionary
281
     1
  3
2dWireframe
350
3C7
  3
Basic
350
3CA
  3
Brighten
350
3CE
  3
ColorChange
350
3D2
  3
Conceptual
350
3CC
  3
Dim
350
3CD
  3
EdgeColorOff
350
3D5
  3
Facepattern
350
3D1
  3
Flat
350
3C3
  3
FlatWithEdges
350
3C4
  3
Gouraud
350
3C5
  3
GouraudWithEdges
350
3C6
  3
Hidden
350
3C9
  3
JitterOff
350
3D3
  3
Linepattern
350
3D0
  3
OverhangOff
350
3D4
  3
Realistic
350
3CB
  3
Shaded
350
3DA
  3
Shaded with edges
350
3D9
  3
Shades of Gray
350
3D6
  3
Sketchy
350
3D7
  3
Thicken
350
3CF
  3
Wireframe
350
3C8
  3
X-Ray
350
3D8
  0
DICTIONARY
  5
660
102
{ACAD_REACTORS
330
C
102
}
330
C
100
AcDbDictionary
281
     1
  3
COLORDICT
350
661
  3
MATERIALDICT
350
662
  0
DICTIONARY
  5
357
102
{ACAD_REACTORS
330
C
102
}
330
C
100
AcDbDictionary
281
     1
  3
CANNOSCALE
350
665
  3
CMLEADERSTYLE
350
65C
  3
CTABLESTYLE
350
38D
  3
DIMASSOC
350
359
  3
HIDETEXT
350
358
  3
MSLTSCALE
350
65D
  3
PROJECTNAME
350
38E
  0
XRECORD
  5
664
102
{ACAD_REACTORS
330
663
102
}
330
663
100
AcDbXrecord
280
     1
102
VTR_0.000_0.000_1.000_1.000_VISUALSTYLE
340
3C7
102
VTR_0.000_0.000_1.000_1.000_GRIDDISPLAY
 70
     3
102
VTR_0.000_0.000_1.000_1.000_GRIDMAJOR
 70
     5
102
VTR_0.000_0.000_1.000_1.000_DEFAULTLIGHTING
280
     1
102
VTR_0.000_0.000_1.000_1.000_DEFAULTLIGHTINGTYPE
 70
     1
102
VTR_0.000_0.000_1.000_1.000_BRIGHTNESS
141
0.0
102
VTR_0.000_0.000_1.000_1.000_CONTRAST
142
0.0
  0
LAYOUT
  5
33B
102
{ACAD_REACTORS
330
301
102
}
330
301
100
AcDbPlotSettings
  1

  2
Lexmark Optra PS2
  4

  6

 40
0.0
 41
0.0
 42
0.0
 43
0.0
 44
0.0
 45
0.0
 46
0.0
 47
0.0
 48
0.0
 49
0.0
140
0.0
141
0.0
142
1.0
143
1.0
 70
   688
 72
     0
 73
     0
 74
     5
  7
monochrome.ctb
 75
    16
147
1.0
148
0.0
149
0.0
100
AcDbLayout
  1
Layout1
 70
     1
 71
     1
 10
0.0
 20
0.0
 11
12.0
 21
9.0
 12
0.0
 22
0.0
 32
0.0
 14
0.0
 24
0.0
 34
0.0
 15
0.0
 25
0.0
 35
0.0
146
0.0
 13
0.0
 23
0.0
 33
0.0
 16
1.0
 26
0.0
 36
0.0
 17
0.0
 27
1.0
 37
0.0
 76
     0
330
338
  0
LAYOUT
  5
303
102
{ACAD_REACTORS
330
301
102
}
330
301
100
AcDbPlotSettings
  1

  2
Lexmark Optra Rx
  4
A4
  6

 40
6.805083274841307
 41
5.535083293914794
 42
6.974411010742187
 43
7.14373779296875
 44
209.9733276367186
 45
296.9259948730469
 46
0.0
 47
0.0
 48
0.0
 49
0.0
140
0.0
141
0.0
142
1.0
143
2.976565420630886
 70
 11952
 72
     1
 73
     1
 74
     0
  7
monochrome.ctb
 75
     0
147
0.335957675604539
148
204.1199660668592
149
172.3933209647495
100
AcDbLayout
  1
Model
 70
     1
 71
     0
 10
0.0
 20
0.0
 11
12.0
 21
9.0
 12
0.0
 22
0.0
 32
0.0
 14
0.0
 24
0.0
 34
0.0
 15
0.0
 25
0.0
 35
0.0
146
0.0
 13
0.0
 23
0.0
 33
0.0
 16
1.0
 26
0.0
 36
0.0
 17
0.0
 27
1.0
 37
0.0
 76
     0
330
18
331
39A
  0
MATERIAL
  5
3DC
102
{ACAD_REACTORS
330
386
102
}
102
{ACAD_XDICTIONARY
360
668
102
}
330
386
100
AcDbMaterial
  1
ByBlock
  0
MATERIAL
  5
3DB
102
{ACAD_REACTORS
330
386
102
}
102
{ACAD_XDICTIONARY
360
666
102
}
330
386
100
AcDbMaterial
  1
ByLayer
  0
MATERIAL
  5
3DD
102
{ACAD_REACTORS
330
386
102
}
102
{ACAD_XDICTIONARY
360
66A
102
}
330
386
100
AcDbMaterial
  1
Global
  0
MLEADERSTYLE
  5
3DF
102
{ACAD_REACTORS
330
3DE
102
}
102
{ACAD_XDICTIONARY
360
69D
102
}
330
3DE
100
AcDbMLeaderStyle
170
     2
171
     1
172
     0
 90
        2
 40
0.0
 41
0.0
173
     1
 91
-1056964608
340
12
 92
       -2
290
     1
 42
2.0
291
     1
 43
8.0
  3
Standard
341
0
 44
4.0
300

342
10
174
     1
178
     6
175
     1
176
     0
 93
-1056964608
 45
4.0
292
     0
297
     0
 46
4.0
343
0
 94
-1056964608
 47
1.0
 49
1.0
140
1.0
293
     1
141
0.0
294
     1
177
     0
142
1.0
295
     0
296
     0
143
3.75
1001
ACAD_MLEADERVER
1070
     2
  0
MLINESTYLE
  5
1B
102
{ACAD_REACTORS
330
E
102
}
330
E
100
AcDbMlineStyle
  2
STANDARD
 70
     0
  3

 62
     0
 51
90.0
 52
90.0
 71
     2
 49
0.5
 62
   256
  6
BYLAYER
 49
-0.5
 62
   256
  6
BYLAYER
  0
ACDBPLACEHOLDER
  5
300
102
{ACAD_REACTORS
330
2FF
102
}
330
2FF
  0
SCALE
  5
3A1
102
{ACAD_REACTORS
330
3A0
102
}
330
3A0
100
AcDbScale
 70
     0
300
1:1
140
1.0
141
1.0
290
     1
  0
SCALE
  5
3A2
102
{ACAD_REACTORS
330
3A0
102
}
330
3A0
100
AcDbScale
 70
     0
300
1:2
140
1.0
141
2.0
290
     0
  0
SCALE
  5
3A3
102
{ACAD_REACTORS
330
3A0
102
}
330
3A0
100
AcDbScale
 70
     0
300
1:4
140
1.0
141
4.0
290
     0
  0
SCALE
  5
3A4
102
{ACAD_REACTORS
330
3A0
102
}
330
3A0
100
AcDbScale
 70
     0
300
1:5
140
1.0
141
5.0
290
     0
  0
SCALE
  5
3A5
102
{ACAD_REACTORS
330
3A0
102
}
330
3A0
100
AcDbScale
 70
     0
300
1:8
140
1.0
141
8.0
290
     0
  0
SCALE
  5
3A6
102
{ACAD_REACTORS
330
3A0
102
}
330
3A0
100
AcDbScale
 70
     0
300
1:10
140
1.0
141
10.0
290
     0
  0
SCALE
  5
3A7
102
{ACAD_REACTORS
330
3A0
102
}
330
3A0
100
AcDbScale
 70
     0
300
1:16
140
1.0
141
16.0
290
     0
  0
SCALE
  5
3A8
102
{ACAD_REACTORS
330
3A0
102
}
330
3A0
100
AcDbScale
 70
     0
300
1:20
140
1.0
141
20.0
290
     0
  0
SCALE
  5
3A9
102
{ACAD_REACTORS
330
3A0
102
}
330
3A0
100
AcDbScale
 70
     0
300
1:30
140
1.0
141
30.0
290
     0
  0
SCALE
  5
3AA
102
{ACAD_REACTORS
330
3A0
102
}
330
3A0
100
AcDbScale
 70
     0
300
1:40
140
1.0
141
40.0
290
     0
  0
SCALE
  5
3AB
102
{ACAD_REACTORS
330
3A0
102
}
330
3A0
100
AcDbScale
 70
     0
300
1:50
140
1.0
141
50.0
290
     0
  0
SCALE
  5
3AC
102
{ACAD_REACTORS
330
3A0
102
}
330
3A0
100
AcDbScale
 70
     0
300
1:100
140
1.0
141
100.0
290
     0
  0
SCALE
  5
3AD
102
{ACAD_REACTORS
330
3A0
102
}
330
3A0
100
AcDbScale
 70
     0
300
2:1
140
2.0
141
1.0
290
     0
  0
SCALE
  5
3AE
102
{ACAD_REACTORS
330
3A0
102
}
330
3A0
100
AcDbScale
 70
     0
300
4:1
140
4.0
141
1.0
290
     0
  0
SCALE
  5
3AF
102
{ACAD_REACTORS
330
3A0
102
}
330
3A0
100
AcDbScale
 70
     0
300
8:1
140
8.0
141
1.0
290
     0
  0
SCALE
  5
3B0
102
{ACAD_REACTORS
330
3A0
102
}
330
3A0
100
AcDbScale
 70
     0
300
10:1
140
10.0
141
1.0
290
     0
  0
SCALE
  5
3B1
102
{ACAD_REACTORS
330
3A0
102
}
330
3A0
100
AcDbScale
 70
     0
300
100:1
140
100.0
141
1.0
290
     0
  0
SCALE
  5
3B2
102
{ACAD_REACTORS
330
3A0
102
}
330
3A0
100
AcDbScale
 70
     0
300
1/128" = 1'-0"
140
0.0078125
141
12.0
290
     0
  0
SCALE
  5
3B3
102
{ACAD_REACTORS
330
3A0
102
}
330
3A0
100
AcDbScale
 70
     0
300
1/64" = 1'-0"
140
0.015625
141
12.0
290
     0
  0
SCALE
  5
3B4
102
{ACAD_REACTORS
330
3A0
102
}
330
3A0
100
AcDbScale
 70
     0
300
1/32" = 1'-0"
140
0.03125
141
12.0
290
     0
  0
SCALE
  5
3B5
102
{ACAD_REACTORS
330
3A0
102
}
330
3A0
100
AcDbScale
 70
     0
300
1/16" = 1'-0"
140
0.0625
141
12.0
290
     0
  0
SCALE
  5
3B6
102
{ACAD_REACTORS
330
3A0
102
}
330
3A0
100
AcDbScale
 70
     0
300
3/32" = 1'-0"
140
0.09375
141
12.0
290
     0
  0
SCALE
  5
3B7
102
{ACAD_REACTORS
330
3A0
102
}
330
3A0
100
AcDbScale
 70
     0
300
1/8" = 1'-0"
140
0.125
141
12.0
290
     0
  0
SCALE
  5
3B8
102
{ACAD_REACTORS
330
3A0
102
}
330
3A0
100
AcDbScale
 70
     0
300
3/16" = 1'-0"
140
0.1875
141
12.0
290
     0
  0
SCALE
  5
3B9
102
{ACAD_REACTORS
330
3A0
102
}
330
3A0
100
AcDbScale
 70
     0
300
1/4" = 1'-0"
140
0.25
141
12.0
290
     0
  0
SCALE
  5
3BA
102
{ACAD_REACTORS
330
3A0
102
}
330
3A0
100
AcDbScale
 70
     0
300
3/8" = 1'-0"
140
0.375
141
12.0
290
     0
  0
SCALE
  5
3BB
102
{ACAD_REACTORS
330
3A0
102
}
330
3A0
100
AcDbScale
 70
     0
300
1/2" = 1'-0"
140
0.5
141
12.0
290
     0
  0
SCALE
  5
3BC
102
{ACAD_REACTORS
330
3A0
102
}
330
3A0
100
AcDbScale
 70
     0
300
3/4" = 1'-0"
140
0.75
141
12.0
290
     0
  0
SCALE
  5
3BD
102
{ACAD_REACTORS
330
3A0
102
}
330
3A0
100
AcDbScale
 70
     0
300
1" = 1'-0"
140
1.0
141
12.0
290
     0
  0
SCALE
  5
3BE
102
{ACAD_REACTORS
330
3A0
102
}
330
3A0
100
AcDbScale
 70
     0
300
1-1/2" = 1'-0"
140
1.5
141
12.0
290
     0
  0
SCALE
  5
3BF
102
{ACAD_REACTORS
330
3A0
102
}
330
3A0
100
AcDbScale
 70
     0
300
3" = 1'-0"
140
3.0
141
12.0
290
     0
  0
SCALE
  5
3C0
102
{ACAD_REACTORS
330
3A0
102
}
330
3A0
100
AcDbScale
 70
     0
300
6" = 1'-0"
140
6.0
141
12.0
290
     0
  0
SCALE
  5
3C1
102
{ACAD_REACTORS
330
3A0
102
}
330
3A0
100
AcDbScale
 70
     0
300
1'-0" = 1'-0"
140
12.0
141
12.0
290
     0
  0
TABLESTYLE
  5
389
102
{ACAD_REACTORS
330
388
102
}
330
388
100
AcDbTableStyle
  3
Standard
 70
     0
 71
     0
 40
1.5
 41
1.5
280
     0
281
     0
  7
STANDARD
140
4.5
170
     2
 62
     0
 63
   257
283
     0
274
    -2
284
     1
 64
     0
275
    -2
285
     1
 65
     0
276
    -2
286
     1
 66
     0
277
    -2
287
     1
 67
     0
278
    -2
288
     1
 68
     0
279
    -2
289
     1
 69
     0
  7
STANDARD
140
6.0
170
     5
 62
     0
 63
   257
283
     0
274
    -2
284
     1
 64
     0
275
    -2
285
     1
 65
     0
276
    -2
286
     1
 66
     0
277
    -2
287
     1
 67
     0
278
    -2
288
     1
 68
     0
279
    -2
289
     1
 69
     0
  7
STANDARD
140
4.5
170
     5
 62
     0
 63
   257
283
     0
274
    -2
284
     1
 64
     0
275
    -2
285
     1
 65
     0
276
    -2
286
     1
 66
     0
277
    -2
287
     1
 67
     0
278
    -2
288
     1
 68
     0
279
    -2
289
     1
 69
     0
  0
VISUALSTYLE
  5
3C7
102
{ACAD_REACTORS
330
3C2
102
}
102
{ACAD_XDICTIONARY
360
674
102
}
330
3C2
100
AcDbVisualStyle
  2
2dWireframe
 70
     4
 71
     0
 72
     2
 73
     0
 90
        0
 40
0.6
 41
30.0
 62
     5
 63
     7
 74
     1
 91
        4
 64
     7
 65
   257
 75
     1
175
     1
 42
1.0
 92
        0
 66
   257
 43
1.0
 76
     1
 77
     6
 78
     2
 67
     7
 79
     5
170
     0
171
     0
290
     0
174
     0
 93
        1
 44
0.0
173
     0
291
     0
 45
0.0
1001
ACAD
1000
AcDbSavedByObjectVersion
1070
     0
  0
VISUALSTYLE
  5
3CA
102
{ACAD_REACTORS
330
3C2
102
}
102
{ACAD_XDICTIONARY
360
67A
102
}
330
3C2
100
AcDbVisualStyle
  2
Basic
 70
     7
 71
     1
 72
     0
 73
     1
 90
        0
 40
0.6
 41
30.0
 62
     5
 63
     7
 74
     0
 91
        4
 64
     7
 65
   257
 75
     1
175
     1
 42
1.0
 92
        8
 66
     7
 43
1.0
 76
     1
 77
     6
 78
     2
 67
     7
 79
     5
170
     0
171
     0
290
     0
174
     0
 93
        1
 44
0.0
173
     0
291
     1
 45
0.0
1001
ACAD
1000
AcDbSavedByObjectVersion
1070
     0
  0
VISUALSTYLE
  5
3CE
102
{ACAD_REACTORS
330
3C2
102
}
102
{ACAD_XDICTIONARY
360
682
102
}
330
3C2
100
AcDbVisualStyle
  2
Brighten
 70
    12
 71
     2
 72
     2
 73
     0
 90
        0
 40
0.6
 41
30.0
 62
     5
 63
     7
 74
     1
 91
        4
 64
     7
 65
   257
 75
     1
175
     1
 42
1.0
 92
        8
 66
     7
 43
1.0
 76
     1
 77
     6
 78
     2
 67
     7
 79
     5
170
     0
171
     0
290
     0
174
     0
 93
        1
 44
50.0
173
     0
291
     1
 45
0.0
1001
ACAD
1000
AcDbSavedByObjectVersion
1070
     0
  0
VISUALSTYLE
  5
3D2
102
{ACAD_REACTORS
330
3C2
102
}
102
{ACAD_XDICTIONARY
360
68A
102
}
330
3C2
100
AcDbVisualStyle
  2
ColorChange
 70
    16
 71
     2
 72
     2
 73
     3
 90
        0
 40
0.6
 41
30.0
 62
     5
 63
     8
 74
     1
 91
        4
 64
     7
 65
   257
 75
     1
175
     1
 42
1.0
 92
        8
 66
     8
 43
1.0
 76
     1
 77
     6
 78
     2
 67
     7
 79
     5
170
     0
171
     0
290
     0
174
     0
 93
        1
 44
0.0
173
     0
291
     1
 45
0.0
1001
ACAD
1000
AcDbSavedByObjectVersion
1070
     0
  0
VISUALSTYLE
  5
3CC
102
{ACAD_REACTORS
330
3C2
102
}
102
{ACAD_XDICTIONARY
360
67E
102
}
330
3C2
100
AcDbVisualStyle
  2
Conceptual
 70
     9
 71
     3
 72
     2
 73
     0
 90
        0
 40
0.6
 41
30.0
 62
     5
 63
     7
 74
     2
 91
        2
 64
     7
 65
   257
 75
     1
175
     1
 42
179.0
 92
        8
 66
     7
 43
1.0
 76
     1
 77
     6
 78
     2
 67
     7
 79
     3
170
     0
171
     0
290
     0
174
     0
 93
        1
 44
0.0
173
     0
291
     0
 45
0.0
1001
ACAD
1000
AcDbSavedByObjectVersion
1070
     0
  0
VISUALSTYLE
  5
3CD
102
{ACAD_REACTORS
330
3C2
102
}
102
{ACAD_XDICTIONARY
360
680
102
}
330
3C2
100
AcDbVisualStyle
  2
Dim
 70
    11
 71
     2
 72
     2
 73
     0
 90
        0
 40
0.6
 41
30.0
 62
     5
 63
     7
 74
     1
 91
        4
 64
     7
 65
   257
 75
     1
175
     1
 42
1.0
 92
        8
 66
     7
 43
1.0
 76
     1
 77
     6
 78
     2
 67
     7
 79
     5
170
     0
171
     0
290
     0
174
     0
 93
        1
 44
-50.0
173
     0
291
     1
 45
0.0
1001
ACAD
1000
AcDbSavedByObjectVersion
1070
     0
  0
VISUALSTYLE
  5
3D5
102
{ACAD_REACTORS
330
3C2
102
}
102
{ACAD_XDICTIONARY
360
690
102
}
330
3C2
100
AcDbVisualStyle
  2
EdgeColorOff
 70
    22
 71
     2
 72
     2
 73
     0
 90
        0
 40
0.6
 41
30.0
 62
     5
 63
     7
 74
     1
 91
        4
 64
     7
 65
   257
 75
     1
175
     1
 42
1.0
 92
        8
 66
     7
 43
1.0
 76
     1
 77
     6
 78
     2
 67
     7
 79
     5
170
     0
171
     0
290
     0
174
     0
 93
        1
 44
0.0
173
     0
291
     1
 45
0.0
1001
ACAD
1000
AcDbSavedByObjectVersion
1070
     0
  0
VISUALSTYLE
  5
3D1
102
{ACAD_REACTORS
330
3C2
102
}
102
{ACAD_XDICTIONARY
360
688
102
}
330
3C2
100
AcDbVisualStyle
  2
Facepattern
 70
    15
 71
     2
 72
     2
 73
     0
 90
        0
 40
0.6
 41
30.0
 62
     5
 63
     7
 74
     1
 91
        4
 64
     7
 65
   257
 75
     1
175
     1
 42
1.0
 92
        8
 66
     7
 43
1.0
 76
     1
 77
     6
 78
     2
 67
     7
 79
     5
170
     0
171
     0
290
     0
174
     0
 93
        1
 44
0.0
173
     0
291
     1
 45
0.0
1001
ACAD
1000
AcDbSavedByObjectVersion
1070
     0
  0
VISUALSTYLE
  5
3C3
102
{ACAD_REACTORS
330
3C2
102
}
102
{ACAD_XDICTIONARY
360
66C
102
}
330
3C2
100
AcDbVisualStyle
  2
Flat
 70
     0
 71
     2
 72
     1
 73
     1
 90
        2
 40
0.6
 41
30.0
 62
     5
 63
     7
 74
     0
 91
        0
 64
     7
 65
   257
 75
     1
175
     1
 42
1.0
 92
        8
 66
     7
 43
1.0
 76
     1
 77
     6
 78
     2
 67
     7
 79
     5
170
     0
171
     0
290
     0
174
     0
 93
       13
 44
0.0
173
     0
291
     1
 45
0.0
1001
ACAD
1000
AcDbSavedByObjectVersion
1070
     0
  0
VISUALSTYLE
  5
3C4
102
{ACAD_REACTORS
330
3C2
102
}
102
{ACAD_XDICTIONARY
360
66E
102
}
330
3C2
100
AcDbVisualStyle
  2
FlatWithEdges
 70
     1
 71
     2
 72
     1
 73
     1
 90
        2
 40
0.6
 41
30.0
 62
     5
 63
     7
 74
     1
 91
        0
 64
     7
 65
   257
 75
     1
175
     1
 42
1.0
 92
        0
 66
   257
 43
1.0
 76
     1
 77
     6
 78
     2
 67
     7
 79
     5
170
     0
171
     0
290
     0
174
     0
 93
       13
 44
0.0
173
     0
291
     1
 45
0.0
1001
ACAD
1000
AcDbSavedByObjectVersion
1070
     0
  0
VISUALSTYLE
  5
3C5
102
{ACAD_REACTORS
330
3C2
102
}
102
{ACAD_XDICTIONARY
360
670
102
}
330
3C2
100
AcDbVisualStyle
  2
Gouraud
 70
     2
 71
     2
 72
     2
 73
     1
 90
        2
 40
0.6
 41
30.0
 62
     5
 63
     7
 74
     0
 91
        0
 64
     7
 65
   257
 75
     1
175
     1
 42
1.0
 92
        0
 66
     7
 43
1.0
 76
     1
 77
     6
 78
     2
 67
     7
 79
     5
170
     0
171
     0
290
     0
174
     0
 93
       13
 44
0.0
173
     0
291
     1
 45
0.0
1001
ACAD
1000
AcDbSavedByObjectVersion
1070
     0
  0
VISUALSTYLE
  5
3C6
102
{ACAD_REACTORS
330
3C2
102
}
102
{ACAD_XDICTIONARY
360
672
102
}
330
3C2
100
AcDbVisualStyle
  2
GouraudWithEdges
 70
     3
 71
     2
 72
     2
 73
     1
 90
        2
 40
0.6
 41
30.0
 62
     5
 63
     7
 74
     1
 91
        0
 64
     7
 65
   257
 75
     1
175
     1
 42
1.0
 92
        0
 66
   257
 43
1.0
 76
     1
 77
     6
 78
     2
 67
     7
 79
     5
170
     0
171
     0
290
     0
174
     0
 93
       13
 44
0.0
173
     0
291
     1
 45
0.0
1001
ACAD
1000
AcDbSavedByObjectVersion
1070
     0
  0
VISUALSTYLE
  5
3C9
102
{ACAD_REACTORS
330
3C2
102
}
102
{ACAD_XDICTIONARY
360
678
102
}
330
3C2
100
AcDbVisualStyle
  2
Hidden
 70
     6
 71
     1
 72
     2
 73
     2
 90
        0
 40
0.6
 41
30.0
 62
     5
 63
     7
 74
     2
 91
        2
 64
     7
 65
   257
 75
     2
175
     1
 42
40.0
 92
        0
 66
   257
 43
1.0
 76
     1
 77
     6
 78
     2
 67
     7
 79
     3
170
     0
171
     0
290
     0
174
     0
 93
        1
 44
0.0
173
     0
291
     0
 45
0.0
1001
ACAD
1000
AcDbSavedByObjectVersion
1070
     0
  0
VISUALSTYLE
  5
3D3
102
{ACAD_REACTORS
330
3C2
102
}
102
{ACAD_XDICTIONARY
360
68C
102
}
330
3C2
100
AcDbVisualStyle
  2
JitterOff
 70
    20
 71
     2
 72
     2
 73
     0
 90
        0
 40
0.6
 41
30.0
 62
     5
 63
     7
 74
     1
 91
        4
 64
     7
 65
   257
 75
     1
175
     1
 42
1.0
 92
       10
 66
     7
 43
1.0
 76
     1
 77
     6
 78
     2
 67
     7
 79
     5
170
     0
171
     0
290
     0
174
     0
 93
        1
 44
0.0
173
     0
291
     1
 45
0.0
1001
ACAD
1000
AcDbSavedByObjectVersion
1070
     0
  0
VISUALSTYLE
  5
3D0
102
{ACAD_REACTORS
330
3C2
102
}
102
{ACAD_XDICTIONARY
360
686
102
}
330
3C2
100
AcDbVisualStyle
  2
Linepattern
 70
    14
 71
     2
 72
     2
 73
     0
 90
        0
 40
0.6
 41
30.0
 62
     5
 63
     7
 74
     1
 91
        4
 64
     7
 65
   257
 75
     7
175
     7
 42
1.0
 92
        8
 66
     7
 43
1.0
 76
     1
 77
     6
 78
     2
 67
     7
 79
     5
170
     0
171
     0
290
     0
174
     0
 93
        1
 44
0.0
173
     0
291
     1
 45
0.0
1001
ACAD
1000
AcDbSavedByObjectVersion
1070
     0
  0
VISUALSTYLE
  5
3D4
102
{ACAD_REACTORS
330
3C2
102
}
102
{ACAD_XDICTIONARY
360
68E
102
}
330
3C2
100
AcDbVisualStyle
  2
OverhangOff
 70
    21
 71
     2
 72
     2
 73
     0
 90
        0
 40
0.6
 41
30.0
 62
     5
 63
     7
 74
     1
 91
        4
 64
     7
 65
   257
 75
     1
175
     1
 42
1.0
 92
        9
 66
     7
 43
1.0
 76
     1
 77
     6
 78
     2
 67
     7
 79
     5
170
     0
171
     0
290
     0
174
     0
 93
        1
 44
0.0
173
     0
291
     1
 45
0.0
1001
ACAD
1000
AcDbSavedByObjectVersion
1070
     0
  0
VISUALSTYLE
  5
3CB
102
{ACAD_REACTORS
330
3C2
102
}
102
{ACAD_XDICTIONARY
360
67C
102
}
330
3C2
100
AcDbVisualStyle
  2
Realistic
 70
     8
 71
     2
 72
     3
 73
     0
 90
        2
 40
0.6
 41
30.0
 62
     5
 63
     7
 74
     0
 91
        0
 64
     7
 65
   257
 75
     1
175
     1
 42
1.0
 92
        8
 66
   257
 43
1.0
 76
     1
 77
     6
 78
     2
 67
     7
 79
     3
170
     0
171
     0
290
     0
174
     0
 93
       13
 44
0.0
173
     0
291
     0
 45
0.0
1001
ACAD
1000
AcDbSavedByObjectVersion
1070
     0
  0
VISUALSTYLE
  5
3DA
102
{ACAD_REACTORS
330
3C2
102
}
102
{ACAD_XDICTIONARY
360
69A
102
}
330
3C2
100
AcDbVisualStyle
  2
Shaded
 70
    27
 71
     2
 72
     2
 73
     1
 90
        2
 40
0.6
 41
30.0
 62
     5
 63
     7
 74
     0
 91
        4
 64
     7
 65
   257
 75
     1
175
     1
 42
1.0
 92
        8
 66
   257
 43
1.0
 76
     1
 77
     6
 78
     2
 67
     8
 79
     3
170
     0
171
     0
290
     0
174
     0
 93
        5
 44
0.0
173
     0
291
     0
 45
0.0
1001
ACAD
1000
AcDbSavedByObjectVersion
1070
     0
  0
VISUALSTYLE
  5
3D9
102
{ACAD_REACTORS
330
3C2
102
}
102
{ACAD_XDICTIONARY
360
698
102
}
330
3C2
100
AcDbVisualStyle
  2
Shaded with edges
 70
    26
 71
     2
 72
     2
 73
     1
 90
        2
 40
0.6
 41
30.0
 62
     5
 63
     7
 74
     1
 91
       10
 64
     7
 65
   257
 75
     2
175
     1
 42
1.0
 92
        8
 66
   257
 43
1.0
 76
     1
 77
     6
 78
     2
 67
     7
 79
     3
170
     0
171
     0
290
     0
174
     0
 93
        5
 44
0.0
173
     0
291
     0
 45
0.0
1001
ACAD
1000
AcDbSavedByObjectVersion
1070
     0
  0
VISUALSTYLE
  5
3D6
102
{ACAD_REACTORS
330
3C2
102
}
102
{ACAD_XDICTIONARY
360
692
102
}
330
3C2
100
AcDbVisualStyle
  2
Shades of Gray
 70
    23
 71
     2
 72
     2
 73
     3
 90
        0
 40
0.6
 41
30.0
 62
     5
 63
     7
 74
     2
 91
        2
 64
     7
 65
     7
 75
     1
175
     1
 42
40.0
 92
        8
 66
     7
 43
1.0
 76
     1
 77
     6
 78
     2
 67
     7
 79
     3
170
     0
171
     0
290
     0
174
     0
 93
        1
 44
0.0
173
     0
291
     0
 45
0.0
1001
ACAD
1000
AcDbSavedByObjectVersion
1070
     0
  0
VISUALSTYLE
  5
3D7
102
{ACAD_REACTORS
330
3C2
102
}
102
{ACAD_XDICTIONARY
360
694
102
}
330
3C2
100
AcDbVisualStyle
  2
Sketchy
 70
    24
 71
     1
 72
     2
 73
     2
 90
        0
 40
0.6
 41
30.0
 62
     5
 63
     7
 74
     2
 91
        2
 64
     7
 65
     7
 75
     1
175
     1
 42
40.0
 92
       11
 66
     7
 43
1.0
 76
     1
 77
     6
 78
     2
 67
     7
 79
     6
170
     0
171
     0
290
     0
174
     0
 93
        1
 44
0.0
173
     0
291
     0
 45
0.0
1001
ACAD
1000
AcDbSavedByObjectVersion
1070
     0
  0
VISUALSTYLE
  5
3CF
102
{ACAD_REACTORS
330
3C2
102
}
102
{ACAD_XDICTIONARY
360
684
102
}
330
3C2
100
AcDbVisualStyle
  2
Thicken
 70
    13
 71
     2
 72
     2
 73
     0
 90
        0
 40
0.6
 41
30.0
 62
     5
 63
     7
 74
     1
 91
        4
 64
     7
 65
   257
 75
     1
175
     1
 42
1.0
 92
       12
 66
     7
 43
1.0
 76
     1
 77
     6
 78
     2
 67
     7
 79
     5
170
     0
171
     0
290
     0
174
     0
 93
        1
 44
0.0
173
     0
291
     1
 45
0.0
1001
ACAD
1000
AcDbSavedByObjectVersion
1070
     0
  0
VISUALSTYLE
  5
3C8
102
{ACAD_REACTORS
330
3C2
102
}
102
{ACAD_XDICTIONARY
360
676
102
}
330
3C2
100
AcDbVisualStyle
  2
Wireframe
 70
     5
 71
     0
 72
     2
 73
     0
 90
        0
 40
0.6
 41
30.0
 62
     5
 63
     7
 74
     1
 91
        4
 64
     7
 65
   257
 75
     1
175
     1
 42
1.0
 92
        0
 66
   257
 43
1.0
 76
     1
 77
     6
 78
     2
 67
     7
 79
     3
170
     0
171
     0
290
     0
174
     0
 93
        1
 44
0.0
173
     0
291
     0
 45
0.0
1001
ACAD
1000
AcDbSavedByObjectVersion
1070
     0
  0
VISUALSTYLE
  5
3D8
102
{ACAD_REACTORS
330
3C2
102
}
102
{ACAD_XDICTIONARY
360
696
102
}
330
3C2
100
AcDbVisualStyle
  2
X-Ray
 70
    25
 71
     2
 72
     2
 73
     1
 90
        1
 40
0.5
 41
30.0
 62
     5
 63
     7
 74
     1
 91
        0
 64
     7
 65
   257
 75
     1
175
     1
 42
1.0
 92
        8
 66
     7
 43
1.0
 76
     1
 77
     6
 78
     2
 67
     7
 79
     3
170
     0
171
     0
290
     0
174
     0
 93
       13
 44
0.0
173
     0
291
     0
 45
0.0
1001
ACAD
1000
AcDbSavedByObjectVersion
1070
     0
  0
XRECORD
  5
661
102
{ACAD_REACTORS
330
660
102
}
330
660
100
AcDbXrecord
280
     1
340
387
  0
XRECORD
  5
662
102
{ACAD_REACTORS
330
660
102
}
330
660
100
AcDbXrecord
280
     1
340
386
  0
DICTIONARYVAR
  5
665
102
{ACAD_REACTORS
330
357
102
}
330
357
100
DictionaryVariables
280
     0
  1
1:1
  0
DICTIONARYVAR
  5
65C
102
{ACAD_REACTORS
330
357
102
}
330
357
100
DictionaryVariables
280
     0
  1
Standard
  0
DICTIONARYVAR
  5
38D
102
{ACAD_REACTORS
330
357
102
}
330
357
100
DictionaryVariables
280
     0
  1
Standard
  0
DICTIONARYVAR
  5
359
102
{ACAD_REACTORS
330
357
102
}
330
357
100
DictionaryVariables
280
     0
  1
2
  0
DICTIONARYVAR
  5
358
102
{ACAD_REACTORS
330
357
102
}
330
357
100
DictionaryVariables
280
     0
  1
1
  0
DICTIONARYVAR
  5
65D
102
{ACAD_REACTORS
330
357
102
}
330
357
100
DictionaryVariables
280
     0
  1
0
  0
DICTIONARYVAR
  5
38E
102
{ACAD_REACTORS
330
357
102
}
330
357
100
DictionaryVariables
280
     0
  1

  0
DICTIONARY
  5
668
330
3DC
100
AcDbDictionary
280
     1
281
     1
  3
ACAD_XREC_ROUNDTRIP
360
669
  0
DICTIONARY
  5
666
330
3DB
100
AcDbDictionary
280
     1
281
     1
  3
ACAD_XREC_ROUNDTRIP
360
667
  0
DICTIONARY
  5
66A
330
3DD
100
AcDbDictionary
280
     1
281
     1
  3
ACAD_XREC_ROUNDTRIP
360
66B
  0
DICTIONARY
  5
69D
330
3DF
100
AcDbDictionary
280
     1
281
     1
  3
ACAD_XREC_ROUNDTRIP
360
69E
  0
DICTIONARY
  5
674
330
3C7
100
AcDbDictionary
280
     1
281
     1
  3
ACAD_XREC_ROUNDTRIP
360
675
  0
DICTIONARY
  5
67A
330
3CA
100
AcDbDictionary
280
     1
281
     1
  3
ACAD_XREC_ROUNDTRIP
360
67B
  0
DICTIONARY
  5
682
330
3CE
100
AcDbDictionary
280
     1
281
     1
  3
ACAD_XREC_ROUNDTRIP
360
683
  0
DICTIONARY
  5
68A
330
3D2
100
AcDbDictionary
280
     1
281
     1
  3
ACAD_XREC_ROUNDTRIP
360
68B
  0
DICTIONARY
  5
67E
330
3CC
100
AcDbDictionary
280
     1
281
     1
  3
ACAD_XREC_ROUNDTRIP
360
67F
  0
DICTIONARY
  5
680
330
3CD
100
AcDbDictionary
280
     1
281
     1
  3
ACAD_XREC_ROUNDTRIP
360
681
  0
DICTIONARY
  5
690
330
3D5
100
AcDbDictionary
280
     1
281
     1
  3
ACAD_XREC_ROUNDTRIP
360
691
  0
DICTIONARY
  5
688
330
3D1
100
AcDbDictionary
280
     1
281
     1
  3
ACAD_XREC_ROUNDTRIP
360
689
  0
DICTIONARY
  5
66C
330
3C3
100
AcDbDictionary
280
     1
281
     1
  3
ACAD_XREC_ROUNDTRIP
360
66D
  0
DICTIONARY
  5
66E
330
3C4
100
AcDbDictionary
280
     1
281
     1
  3
ACAD_XREC_ROUNDTRIP
360
66F
  0
DICTIONARY
  5
670
330
3C5
100
AcDbDictionary
280
     1
281
     1
  3
ACAD_XREC_ROUNDTRIP
360
671
  0
DICTIONARY
  5
672
330
3C6
100
AcDbDictionary
280
     1
281
     1
  3
ACAD_XREC_ROUNDTRIP
360
673
  0
DICTIONARY
  5
678
330
3C9
100
AcDbDictionary
280
     1
281
     1
  3
ACAD_XREC_ROUNDTRIP
360
679
  0
DICTIONARY
  5
68C
330
3D3
100
AcDbDictionary
280
     1
281
     1
  3
ACAD_XREC_ROUNDTRIP
360
68D
  0
DICTIONARY
  5
686
330
3D0
100
AcDbDictionary
280
     1
281
     1
  3
ACAD_XREC_ROUNDTRIP
360
687
  0
DICTIONARY
  5
68E
330
3D4
100
AcDbDictionary
280
     1
281
     1
  3
ACAD_XREC_ROUNDTRIP
360
68F
  0
DICTIONARY
  5
67C
330
3CB
100
AcDbDictionary
280
     1
281
     1
  3
ACAD_XREC_ROUNDTRIP
360
67D
  0
DICTIONARY
  5
69A
330
3DA
100
AcDbDictionary
280
     1
281
     1
  3
ACAD_XREC_ROUNDTRIP
360
69B
  0
DICTIONARY
  5
698
330
3D9
100
AcDbDictionary
280
     1
281
     1
  3
ACAD_XREC_ROUNDTRIP
360
699
  0
DICTIONARY
  5
692
330
3D6
100
AcDbDictionary
280
     1
281
     1
  3
ACAD_XREC_ROUNDTRIP
360
693
  0
DICTIONARY
  5
694
330
3D7
100
AcDbDictionary
280
     1
281
     1
  3
ACAD_XREC_ROUNDTRIP
360
695
  0
DICTIONARY
  5
684
330
3CF
100
AcDbDictionary
280
     1
281
     1
  3
ACAD_XREC_ROUNDTRIP
360
685
  0
DICTIONARY
  5
676
330
3C8
100
AcDbDictionary
280
     1
281
     1
  3
ACAD_XREC_ROUNDTRIP
360
677
  0
DICTIONARY
  5
696
330
3D8
100
AcDbDictionary
280
     1
281
     1
  3
ACAD_XREC_ROUNDTRIP
360
697
  0
XRECORD
  5
669
102
{ACAD_REACTORS
330
668
102
}
330
668
100
AcDbXrecord
280
     1
102
MATERIAL
148
0.0
149
0.0
149
0.0
 93
        0
 94
      127
282
     0
 72
     1
 77
     1
171
     1
175
     1
179
     1
273
     0
  0
XRECORD
  5
667
102
{ACAD_REACTORS
330
666
102
}
330
666
100
AcDbXrecord
280
     1
102
MATERIAL
148
0.0
149
0.0
149
0.0
 93
        0
 94
      127
282
     0
 72
     1
 77
     1
171
     1
175
     1
179
     1
273
     0
  0
XRECORD
  5
66B
102
{ACAD_REACTORS
330
66A
102
}
330
66A
100
AcDbXrecord
280
     1
102
MATERIAL
148
0.0
149
0.0
149
0.0
 93
        0
 94
      127
282
     0
 72
     1
 77
     1
171
     1
175
     1
179
     1
273
     0
  0
XRECORD
  5
69E
102
{ACAD_REACTORS
330
69D
102
}
330
69D
100
AcDbXrecord
280
     1
102
ACAD_ROUNDTRIP_2010_MLEADER_STYLE
  0
XRECORD
  5
675
102
{ACAD_REACTORS
330
674
102
}
330
674
100
AcDbXrecord
280
     1
102
RTVSPropertyOp0
 70
     1
102
RTVSPropertyOp1
 70
     1
102
RTVSPropertyOp2
 70
     1
102
RTVSPropertyOp3
 70
     1
102
RTVSPropertyOp4
 70
     1
102
RTVSPropertyOp5
 70
     1
102
RTVSPropertyOp6
 70
     1
102
RTVSPropertyOp7
 70
     1
102
RTVSPropertyOp8
 70
     1
102
RTVSPropertyOp9
 70
     1
102
RTVSPropertyOp10
 70
     1
102
RTVSPropertyOp11
 70
     1
102
RTVSPropertyOp12
 70
     1
102
RTVSPropertyOp13
 70
     1
102
RTVSPropertyOp14
 70
     1
102
RTVSPropertyOp15
 70
     1
102
RTVSPropertyOp16
 70
     1
102
RTVSPropertyOp17
 70
     1
102
RTVSPropertyOp18
 70
     1
102
RTVSPropertyOp19
 70
     1
102
RTVSPropertyOp20
 70
     1
102
RTVSPropertyOp21
 70
     1
102
RTVSPropertyOp22
 70
     1
102
RTVSPropertyOp23
 70
     1
102
RTVSPropertyOp24
 70
     1
102
RTVSPropertyOp25
 70
     1
102
RTVSPropertyOp26
 70
     1
102
RTVSPropertyOp27
 70
     1
102
RTVSPropertyOp28
 70
     1
102
RTVSPropertyOp29
 70
     1
102
RTVSPropertyOp30
 70
     1
102
RTVSPropertyOp31
 70
     1
102
RTVSPropertyOp32
 70
     1
102
RTVSPropertyOp33
 70
     1
102
RTVSPropertyOp34
 70
     1
102
RTVSPropertyOp35
 70
     1
102
RTVSPropertyOp36
 70
     1
102
RTVSPropertyOp37
 70
     1
102
RTVSPropertyOp38
 70
     1
102
RTVSPropertyOp39
 70
     1
102
RTVSPropertyOp40
 70
     1
102
RTVSPropertyOp41
 70
     1
102
RTVSPropertyOp42
 70
     1
102
RTVSPropertyOp43
 70
     1
102
RTVSPropertyOp44
 70
     1
102
RTVSPropertyOp45
 70
     1
102
RTVSPropertyOp46
 70
     1
102
RTVSPropertyOp47
 70
     1
102
RTVSPropertyOp48
 70
     1
102
RTVSPropertyOp49
 70
     1
102
RTVSPropertyOp50
 70
     1
102
RTVSPropertyOp51
 70
     0
102
RTVSPropertyOp52
 70
     0
102
RTVSPropertyOp53
 70
     1
102
RTVSPropertyOp54
 70
     1
102
RTVSPropertyOp55
 70
     1
102
RTVSPropertyOp56
 70
     1
102
RTVSPropertyOp57
 70
     1
102
RTVSPost2010Prop28
280
     1
102
RTVSPost2010PropOp28
 70
     1
102
RTVSPost2010Prop29
280
     1
102
RTVSPost2010PropOp29
 70
     1
102
RTVSPost2010Prop30
280
     0
102
RTVSPost2010PropOp30
 70
     1
102
RTVSPost2010Prop31
280
     0
102
RTVSPost2010PropOp31
 70
     1
102
RTVSPost2010Prop32
280
     0
102
RTVSPost2010PropOp32
 70
     1
102
RTVSPost2010Prop33
280
     0
102
RTVSPost2010PropOp33
 70
     1
102
RTVSPost2010Prop34
280
     0
102
RTVSPost2010PropOp34
 70
     1
102
RTVSPost2010Prop35
280
     0
102
RTVSPost2010PropOp35
 70
     1
102
RTVSPost2010Prop36
280
     0
102
RTVSPost2010PropOp36
 70
     1
102
RTVSPost2010Prop37
 90
       50
102
RTVSPost2010PropOp37
 70
     1
102
RTVSPost2010Prop38
140
0.0
102
RTVSPost2010PropOp38
 70
     1
102
RTVSPost2010Prop39
140
1.0
102
RTVSPost2010PropOp39
 70
     1
102
RTVSPost2010Prop40
 90
        0
102
RTVSPost2010PropOp40
 70
     1
102
RTVSPost2010Prop41ColorIndex
 90
       18
102
RTVSPost2010Prop41ColorRGB
 90
        0
102
RTVSPost2010PropOp41
 70
     1
102
RTVSPost2010Prop42
 90
       50
102
RTVSPost2010PropOp42
 70
     1
102
RTVSPost2010Prop43
 90
        3
102
RTVSPost2010PropOp43
 70
     1
102
RTVSPost2010Prop44ColorIndex
 90
        5
102
RTVSPost2010Prop44ColorRGB
 90
      255
102
RTVSPost2010PropOp44
 70
     1
102
RTVSPost2010Prop45
280
     0
102
RTVSPost2010PropOp45
 70
     1
102
RTVSPost2010Prop46
 90
       50
102
RTVSPost2010PropOp46
 70
     1
102
RTVSPost2010Prop47
 90
       50
102
RTVSPost2010PropOp47
 70
     1
102
RTVSPost2010Prop48
 90
       50
102
RTVSPost2010PropOp48
 70
     1
102
RTVSPost2010Prop49
280
     0
102
RTVSPost2010PropOp49
 70
     1
102
RTVSPost2010Prop50
 90
       50
102
RTVSPost2010PropOp50
 70
     1
102
RTVSPost2010Prop51ColorIndex
 90
      256
102
RTVSPost2010Prop51ColorRGB
 90
-16777216
102
RTVSPost2010PropOp51
 70
     0
102
RTVSPost2010Prop52
140
1.0
102
RTVSPost2010PropOp52
 70
     0
102
RTVSPost2010Prop53
 90
        2
102
RTVSPost2010PropOp53
 70
     1
102
RTVSPost2010Prop54
  1
strokes_ogs.tif
102
RTVSPost2010PropOp54
 70
     1
102
RTVSPost2010Prop55
280
     0
102
RTVSPost2010PropOp55
 70
     1
102
RTVSPost2010Prop56
140
1.0
102
RTVSPost2010PropOp56
 70
     1
102
RTVSPost2010Prop57
140
1.0
102
RTVSPost2010PropOp57
 70
     1
  0
XRECORD
  5
67B
102
{ACAD_REACTORS
330
67A
102
}
330
67A
100
AcDbXrecord
280
     1
102
RTVSPropertyOp0
 70
     1
102
RTVSPropertyOp1
 70
     1
102
RTVSPropertyOp2
 70
     1
102
RTVSPropertyOp3
 70
     1
102
RTVSPropertyOp4
 70
     1
102
RTVSPropertyOp5
 70
     1
102
RTVSPropertyOp6
 70
     1
102
RTVSPropertyOp7
 70
     1
102
RTVSPropertyOp8
 70
     1
102
RTVSPropertyOp9
 70
     1
102
RTVSPropertyOp10
 70
     1
102
RTVSPropertyOp11
 70
     1
102
RTVSPropertyOp12
 70
     1
102
RTVSPropertyOp13
 70
     1
102
RTVSPropertyOp14
 70
     1
102
RTVSPropertyOp15
 70
     1
102
RTVSPropertyOp16
 70
     1
102
RTVSPropertyOp17
 70
     1
102
RTVSPropertyOp18
 70
     1
102
RTVSPropertyOp19
 70
     1
102
RTVSPropertyOp20
 70
     1
102
RTVSPropertyOp21
 70
     1
102
RTVSPropertyOp22
 70
     1
102
RTVSPropertyOp23
 70
     1
102
RTVSPropertyOp24
 70
     1
102
RTVSPropertyOp25
 70
     1
102
RTVSPropertyOp26
 70
     1
102
RTVSPropertyOp27
 70
     1
102
RTVSPropertyOp28
 70
     1
102
RTVSPropertyOp29
 70
     1
102
RTVSPropertyOp30
 70
     1
102
RTVSPropertyOp31
 70
     1
102
RTVSPropertyOp32
 70
     1
102
RTVSPropertyOp33
 70
     1
102
RTVSPropertyOp34
 70
     1
102
RTVSPropertyOp35
 70
     1
102
RTVSPropertyOp36
 70
     1
102
RTVSPropertyOp37
 70
     1
102
RTVSPropertyOp38
 70
     1
102
RTVSPropertyOp39
 70
     1
102
RTVSPropertyOp40
 70
     1
102
RTVSPropertyOp41
 70
     1
102
RTVSPropertyOp42
 70
     1
102
RTVSPropertyOp43
 70
     1
102
RTVSPropertyOp44
 70
     1
102
RTVSPropertyOp45
 70
     1
102
RTVSPropertyOp46
 70
     1
102
RTVSPropertyOp47
 70
     1
102
RTVSPropertyOp48
 70
     1
102
RTVSPropertyOp49
 70
     1
102
RTVSPropertyOp50
 70
     1
102
RTVSPropertyOp51
 70
     0
102
RTVSPropertyOp52
 70
     0
102
RTVSPropertyOp53
 70
     1
102
RTVSPropertyOp54
 70
     1
102
RTVSPropertyOp55
 70
     1
102
RTVSPropertyOp56
 70
     1
102
RTVSPropertyOp57
 70
     1
102
RTVSPost2010Prop28
280
     0
102
RTVSPost2010PropOp28
 70
     1
102
RTVSPost2010Prop29
280
     1
102
RTVSPost2010PropOp29
 70
     1
102
RTVSPost2010Prop30
280
     1
102
RTVSPost2010PropOp30
 70
     1
102
RTVSPost2010Prop31
280
     0
102
RTVSPost2010PropOp31
 70
     1
102
RTVSPost2010Prop32
280
     0
102
RTVSPost2010PropOp32
 70
     1
102
RTVSPost2010Prop33
280
     0
102
RTVSPost2010PropOp33
 70
     1
102
RTVSPost2010Prop34
280
     0
102
RTVSPost2010PropOp34
 70
     1
102
RTVSPost2010Prop35
280
     0
102
RTVSPost2010PropOp35
 70
     1
102
RTVSPost2010Prop36
280
     0
102
RTVSPost2010PropOp36
 70
     1
102
RTVSPost2010Prop37
 90
       50
102
RTVSPost2010PropOp37
 70
     1
102
RTVSPost2010Prop38
140
0.0
102
RTVSPost2010PropOp38
 70
     1
102
RTVSPost2010Prop39
140
1.0
102
RTVSPost2010PropOp39
 70
     1
102
RTVSPost2010Prop40
 90
        0
102
RTVSPost2010PropOp40
 70
     1
102
RTVSPost2010Prop41ColorIndex
 90
       18
102
RTVSPost2010Prop41ColorRGB
 90
        0
102
RTVSPost2010PropOp41
 70
     1
102
RTVSPost2010Prop42
 90
       50
102
RTVSPost2010PropOp42
 70
     1
102
RTVSPost2010Prop43
 90
        3
102
RTVSPost2010PropOp43
 70
     1
102
RTVSPost2010Prop44ColorIndex
 90
        5
102
RTVSPost2010Prop44ColorRGB
 90
      255
102
RTVSPost2010PropOp44
 70
     1
102
RTVSPost2010Prop45
280
     0
102
RTVSPost2010PropOp45
 70
     1
102
RTVSPost2010Prop46
 90
       50
102
RTVSPost2010PropOp46
 70
     1
102
RTVSPost2010Prop47
 90
       50
102
RTVSPost2010PropOp47
 70
     1
102
RTVSPost2010Prop48
 90
       50
102
RTVSPost2010PropOp48
 70
     1
102
RTVSPost2010Prop49
280
     0
102
RTVSPost2010PropOp49
 70
     1
102
RTVSPost2010Prop50
 90
       50
102
RTVSPost2010PropOp50
 70
     1
102
RTVSPost2010Prop51ColorIndex
 90
      256
102
RTVSPost2010Prop51ColorRGB
 90
-16777216
102
RTVSPost2010PropOp51
 70
     0
102
RTVSPost2010Prop52
140
1.0
102
RTVSPost2010PropOp52
 70
     0
102
RTVSPost2010Prop53
 90
        2
102
RTVSPost2010PropOp53
 70
     1
102
RTVSPost2010Prop54
  1
strokes_ogs.tif
102
RTVSPost2010PropOp54
 70
     1
102
RTVSPost2010Prop55
280
     0
102
RTVSPost2010PropOp55
 70
     1
102
RTVSPost2010Prop56
140
1.0
102
RTVSPost2010PropOp56
 70
     1
102
RTVSPost2010Prop57
140
1.0
102
RTVSPost2010PropOp57
 70
     1
  0
XRECORD
  5
683
102
{ACAD_REACTORS
330
682
102
}
330
682
100
AcDbXrecord
280
     1
102
RTVSPropertyOp0
 70
     1
102
RTVSPropertyOp1
 70
     1
102
RTVSPropertyOp2
 70
     1
102
RTVSPropertyOp3
 70
     1
102
RTVSPropertyOp4
 70
     1
102
RTVSPropertyOp5
 70
     1
102
RTVSPropertyOp6
 70
     1
102
RTVSPropertyOp7
 70
     1
102
RTVSPropertyOp8
 70
     1
102
RTVSPropertyOp9
 70
     1
102
RTVSPropertyOp10
 70
     1
102
RTVSPropertyOp11
 70
     1
102
RTVSPropertyOp12
 70
     1
102
RTVSPropertyOp13
 70
     1
102
RTVSPropertyOp14
 70
     1
102
RTVSPropertyOp15
 70
     1
102
RTVSPropertyOp16
 70
     1
102
RTVSPropertyOp17
 70
     1
102
RTVSPropertyOp18
 70
     1
102
RTVSPropertyOp19
 70
     1
102
RTVSPropertyOp20
 70
     1
102
RTVSPropertyOp21
 70
     1
102
RTVSPropertyOp22
 70
     1
102
RTVSPropertyOp23
 70
     1
102
RTVSPropertyOp24
 70
     1
102
RTVSPropertyOp25
 70
     1
102
RTVSPropertyOp26
 70
     1
102
RTVSPropertyOp27
 70
     1
102
RTVSPropertyOp28
 70
     1
102
RTVSPropertyOp29
 70
     1
102
RTVSPropertyOp30
 70
     1
102
RTVSPropertyOp31
 70
     1
102
RTVSPropertyOp32
 70
     1
102
RTVSPropertyOp33
 70
     1
102
RTVSPropertyOp34
 70
     1
102
RTVSPropertyOp35
 70
     1
102
RTVSPropertyOp36
 70
     1
102
RTVSPropertyOp37
 70
     1
102
RTVSPropertyOp38
 70
     1
102
RTVSPropertyOp39
 70
     1
102
RTVSPropertyOp40
 70
     1
102
RTVSPropertyOp41
 70
     1
102
RTVSPropertyOp42
 70
     1
102
RTVSPropertyOp43
 70
     1
102
RTVSPropertyOp44
 70
     1
102
RTVSPropertyOp45
 70
     1
102
RTVSPropertyOp46
 70
     1
102
RTVSPropertyOp47
 70
     1
102
RTVSPropertyOp48
 70
     1
102
RTVSPropertyOp49
 70
     1
102
RTVSPropertyOp50
 70
     1
102
RTVSPropertyOp51
 70
     0
102
RTVSPropertyOp52
 70
     0
102
RTVSPropertyOp53
 70
     1
102
RTVSPropertyOp54
 70
     1
102
RTVSPropertyOp55
 70
     1
102
RTVSPropertyOp56
 70
     1
102
RTVSPropertyOp57
 70
     1
102
RTVSPost2010Prop28
280
     0
102
RTVSPost2010PropOp28
 70
     1
102
RTVSPost2010Prop29
280
     1
102
RTVSPost2010PropOp29
 70
     1
102
RTVSPost2010Prop30
280
     1
102
RTVSPost2010PropOp30
 70
     1
102
RTVSPost2010Prop31
280
     0
102
RTVSPost2010PropOp31
 70
     1
102
RTVSPost2010Prop32
280
     0
102
RTVSPost2010PropOp32
 70
     1
102
RTVSPost2010Prop33
280
     0
102
RTVSPost2010PropOp33
 70
     1
102
RTVSPost2010Prop34
280
     0
102
RTVSPost2010PropOp34
 70
     1
102
RTVSPost2010Prop35
280
     0
102
RTVSPost2010PropOp35
 70
     1
102
RTVSPost2010Prop36
280
     0
102
RTVSPost2010PropOp36
 70
     1
102
RTVSPost2010Prop37
 90
       50
102
RTVSPost2010PropOp37
 70
     1
102
RTVSPost2010Prop38
140
0.0
102
RTVSPost2010PropOp38
 70
     1
102
RTVSPost2010Prop39
140
1.0
102
RTVSPost2010PropOp39
 70
     1
102
RTVSPost2010Prop40
 90
        0
102
RTVSPost2010PropOp40
 70
     1
102
RTVSPost2010Prop41ColorIndex
 90
       18
102
RTVSPost2010Prop41ColorRGB
 90
        0
102
RTVSPost2010PropOp41
 70
     1
102
RTVSPost2010Prop42
 90
       50
102
RTVSPost2010PropOp42
 70
     1
102
RTVSPost2010Prop43
 90
        3
102
RTVSPost2010PropOp43
 70
     1
102
RTVSPost2010Prop44ColorIndex
 90
        5
102
RTVSPost2010Prop44ColorRGB
 90
      255
102
RTVSPost2010PropOp44
 70
     1
102
RTVSPost2010Prop45
280
     0
102
RTVSPost2010PropOp45
 70
     1
102
RTVSPost2010Prop46
 90
       50
102
RTVSPost2010PropOp46
 70
     1
102
RTVSPost2010Prop47
 90
       50
102
RTVSPost2010PropOp47
 70
     1
102
RTVSPost2010Prop48
 90
       50
102
RTVSPost2010PropOp48
 70
     1
102
RTVSPost2010Prop49
280
     0
102
RTVSPost2010PropOp49
 70
     1
102
RTVSPost2010Prop50
 90
       50
102
RTVSPost2010PropOp50
 70
     1
102
RTVSPost2010Prop51ColorIndex
 90
      256
102
RTVSPost2010Prop51ColorRGB
 90
-16777216
102
RTVSPost2010PropOp51
 70
     0
102
RTVSPost2010Prop52
140
1.0
102
RTVSPost2010PropOp52
 70
     0
102
RTVSPost2010Prop53
 90
        2
102
RTVSPost2010PropOp53
 70
     1
102
RTVSPost2010Prop54
  1
strokes_ogs.tif
102
RTVSPost2010PropOp54
 70
     1
102
RTVSPost2010Prop55
280
     0
102
RTVSPost2010PropOp55
 70
     1
102
RTVSPost2010Prop56
140
1.0
102
RTVSPost2010PropOp56
 70
     1
102
RTVSPost2010Prop57
140
1.0
102
RTVSPost2010PropOp57
 70
     1
  0
XRECORD
  5
68B
102
{ACAD_REACTORS
330
68A
102
}
330
68A
100
AcDbXrecord
280
     1
102
RTVSPropertyOp0
 70
     1
102
RTVSPropertyOp1
 70
     1
102
RTVSPropertyOp2
 70
     1
102
RTVSPropertyOp3
 70
     1
102
RTVSPropertyOp4
 70
     1
102
RTVSPropertyOp5
 70
     1
102
RTVSPropertyOp6
 70
     1
102
RTVSPropertyOp7
 70
     1
102
RTVSPropertyOp8
 70
     1
102
RTVSPropertyOp9
 70
     1
102
RTVSPropertyOp10
 70
     1
102
RTVSPropertyOp11
 70
     1
102
RTVSPropertyOp12
 70
     1
102
RTVSPropertyOp13
 70
     1
102
RTVSPropertyOp14
 70
     1
102
RTVSPropertyOp15
 70
     1
102
RTVSPropertyOp16
 70
     1
102
RTVSPropertyOp17
 70
     1
102
RTVSPropertyOp18
 70
     1
102
RTVSPropertyOp19
 70
     1
102
RTVSPropertyOp20
 70
     1
102
RTVSPropertyOp21
 70
     1
102
RTVSPropertyOp22
 70
     1
102
RTVSPropertyOp23
 70
     1
102
RTVSPropertyOp24
 70
     1
102
RTVSPropertyOp25
 70
     1
102
RTVSPropertyOp26
 70
     1
102
RTVSPropertyOp27
 70
     1
102
RTVSPropertyOp28
 70
     1
102
RTVSPropertyOp29
 70
     1
102
RTVSPropertyOp30
 70
     1
102
RTVSPropertyOp31
 70
     1
102
RTVSPropertyOp32
 70
     1
102
RTVSPropertyOp33
 70
     1
102
RTVSPropertyOp34
 70
     1
102
RTVSPropertyOp35
 70
     1
102
RTVSPropertyOp36
 70
     1
102
RTVSPropertyOp37
 70
     1
102
RTVSPropertyOp38
 70
     1
102
RTVSPropertyOp39
 70
     1
102
RTVSPropertyOp40
 70
     1
102
RTVSPropertyOp41
 70
     1
102
RTVSPropertyOp42
 70
     1
102
RTVSPropertyOp43
 70
     1
102
RTVSPropertyOp44
 70
     1
102
RTVSPropertyOp45
 70
     1
102
RTVSPropertyOp46
 70
     1
102
RTVSPropertyOp47
 70
     1
102
RTVSPropertyOp48
 70
     1
102
RTVSPropertyOp49
 70
     1
102
RTVSPropertyOp50
 70
     1
102
RTVSPropertyOp51
 70
     0
102
RTVSPropertyOp52
 70
     0
102
RTVSPropertyOp53
 70
     1
102
RTVSPropertyOp54
 70
     1
102
RTVSPropertyOp55
 70
     1
102
RTVSPropertyOp56
 70
     1
102
RTVSPropertyOp57
 70
     1
102
RTVSPost2010Prop28
280
     0
102
RTVSPost2010PropOp28
 70
     1
102
RTVSPost2010Prop29
280
     1
102
RTVSPost2010PropOp29
 70
     1
102
RTVSPost2010Prop30
280
     1
102
RTVSPost2010PropOp30
 70
     1
102
RTVSPost2010Prop31
280
     0
102
RTVSPost2010PropOp31
 70
     1
102
RTVSPost2010Prop32
280
     0
102
RTVSPost2010PropOp32
 70
     1
102
RTVSPost2010Prop33
280
     0
102
RTVSPost2010PropOp33
 70
     1
102
RTVSPost2010Prop34
280
     0
102
RTVSPost2010PropOp34
 70
     1
102
RTVSPost2010Prop35
280
     0
102
RTVSPost2010PropOp35
 70
     1
102
RTVSPost2010Prop36
280
     0
102
RTVSPost2010PropOp36
 70
     1
102
RTVSPost2010Prop37
 90
       50
102
RTVSPost2010PropOp37
 70
     1
102
RTVSPost2010Prop38
140
0.0
102
RTVSPost2010PropOp38
 70
     1
102
RTVSPost2010Prop39
140
1.0
102
RTVSPost2010PropOp39
 70
     1
102
RTVSPost2010Prop40
 90
        0
102
RTVSPost2010PropOp40
 70
     1
102
RTVSPost2010Prop41ColorIndex
 90
       18
102
RTVSPost2010Prop41ColorRGB
 90
        0
102
RTVSPost2010PropOp41
 70
     1
102
RTVSPost2010Prop42
 90
       50
102
RTVSPost2010PropOp42
 70
     1
102
RTVSPost2010Prop43
 90
        3
102
RTVSPost2010PropOp43
 70
     1
102
RTVSPost2010Prop44ColorIndex
 90
        5
102
RTVSPost2010Prop44ColorRGB
 90
      255
102
RTVSPost2010PropOp44
 70
     1
102
RTVSPost2010Prop45
280
     0
102
RTVSPost2010PropOp45
 70
     1
102
RTVSPost2010Prop46
 90
       50
102
RTVSPost2010PropOp46
 70
     1
102
RTVSPost2010Prop47
 90
       50
102
RTVSPost2010PropOp47
 70
     1
102
RTVSPost2010Prop48
 90
       50
102
RTVSPost2010PropOp48
 70
     1
102
RTVSPost2010Prop49
280
     0
102
RTVSPost2010PropOp49
 70
     1
102
RTVSPost2010Prop50
 90
       50
102
RTVSPost2010PropOp50
 70
     1
102
RTVSPost2010Prop51ColorIndex
 90
      256
102
RTVSPost2010Prop51ColorRGB
 90
-16777216
102
RTVSPost2010PropOp51
 70
     0
102
RTVSPost2010Prop52
140
1.0
102
RTVSPost2010PropOp52
 70
     0
102
RTVSPost2010Prop53
 90
        2
102
RTVSPost2010PropOp53
 70
     1
102
RTVSPost2010Prop54
  1
strokes_ogs.tif
102
RTVSPost2010PropOp54
 70
     1
102
RTVSPost2010Prop55
280
     0
102
RTVSPost2010PropOp55
 70
     1
102
RTVSPost2010Prop56
140
1.0
102
RTVSPost2010PropOp56
 70
     1
102
RTVSPost2010Prop57
140
1.0
102
RTVSPost2010PropOp57
 70
     1
  0
XRECORD
  5
67F
102
{ACAD_REACTORS
330
67E
102
}
330
67E
100
AcDbXrecord
280
     1
102
RTVSPropertyOp0
 70
     1
102
RTVSPropertyOp1
 70
     1
102
RTVSPropertyOp2
 70
     1
102
RTVSPropertyOp3
 70
     1
102
RTVSPropertyOp4
 70
     1
102
RTVSPropertyOp5
 70
     1
102
RTVSPropertyOp6
 70
     1
102
RTVSPropertyOp7
 70
     1
102
RTVSPropertyOp8
 70
     1
102
RTVSPropertyOp9
 70
     1
102
RTVSPropertyOp10
 70
     1
102
RTVSPropertyOp11
 70
     1
102
RTVSPropertyOp12
 70
     1
102
RTVSPropertyOp13
 70
     1
102
RTVSPropertyOp14
 70
     1
102
RTVSPropertyOp15
 70
     1
102
RTVSPropertyOp16
 70
     1
102
RTVSPropertyOp17
 70
     1
102
RTVSPropertyOp18
 70
     1
102
RTVSPropertyOp19
 70
     1
102
RTVSPropertyOp20
 70
     1
102
RTVSPropertyOp21
 70
     1
102
RTVSPropertyOp22
 70
     1
102
RTVSPropertyOp23
 70
     1
102
RTVSPropertyOp24
 70
     1
102
RTVSPropertyOp25
 70
     1
102
RTVSPropertyOp26
 70
     1
102
RTVSPropertyOp27
 70
     1
102
RTVSPropertyOp28
 70
     1
102
RTVSPropertyOp29
 70
     1
102
RTVSPropertyOp30
 70
     1
102
RTVSPropertyOp31
 70
     1
102
RTVSPropertyOp32
 70
     1
102
RTVSPropertyOp33
 70
     1
102
RTVSPropertyOp34
 70
     1
102
RTVSPropertyOp35
 70
     1
102
RTVSPropertyOp36
 70
     1
102
RTVSPropertyOp37
 70
     1
102
RTVSPropertyOp38
 70
     1
102
RTVSPropertyOp39
 70
     1
102
RTVSPropertyOp40
 70
     1
102
RTVSPropertyOp41
 70
     1
102
RTVSPropertyOp42
 70
     1
102
RTVSPropertyOp43
 70
     1
102
RTVSPropertyOp44
 70
     1
102
RTVSPropertyOp45
 70
     1
102
RTVSPropertyOp46
 70
     1
102
RTVSPropertyOp47
 70
     1
102
RTVSPropertyOp48
 70
     1
102
RTVSPropertyOp49
 70
     1
102
RTVSPropertyOp50
 70
     1
102
RTVSPropertyOp51
 70
     0
102
RTVSPropertyOp52
 70
     0
102
RTVSPropertyOp53
 70
     1
102
RTVSPropertyOp54
 70
     1
102
RTVSPropertyOp55
 70
     1
102
RTVSPropertyOp56
 70
     1
102
RTVSPropertyOp57
 70
     1
102
RTVSPost2010Prop28
280
     0
102
RTVSPost2010PropOp28
 70
     1
102
RTVSPost2010Prop29
280
     1
102
RTVSPost2010PropOp29
 70
     1
102
RTVSPost2010Prop30
280
     1
102
RTVSPost2010PropOp30
 70
     1
102
RTVSPost2010Prop31
280
     0
102
RTVSPost2010PropOp31
 70
     1
102
RTVSPost2010Prop32
280
     0
102
RTVSPost2010PropOp32
 70
     1
102
RTVSPost2010Prop33
280
     0
102
RTVSPost2010PropOp33
 70
     1
102
RTVSPost2010Prop34
280
     0
102
RTVSPost2010PropOp34
 70
     1
102
RTVSPost2010Prop35
280
     0
102
RTVSPost2010PropOp35
 70
     1
102
RTVSPost2010Prop36
280
     0
102
RTVSPost2010PropOp36
 70
     1
102
RTVSPost2010Prop37
 90
       50
102
RTVSPost2010PropOp37
 70
     1
102
RTVSPost2010Prop38
140
0.0
102
RTVSPost2010PropOp38
 70
     1
102
RTVSPost2010Prop39
140
1.0
102
RTVSPost2010PropOp39
 70
     1
102
RTVSPost2010Prop40
 90
        0
102
RTVSPost2010PropOp40
 70
     1
102
RTVSPost2010Prop41ColorIndex
 90
       18
102
RTVSPost2010Prop41ColorRGB
 90
        0
102
RTVSPost2010PropOp41
 70
     1
102
RTVSPost2010Prop42
 90
       50
102
RTVSPost2010PropOp42
 70
     1
102
RTVSPost2010Prop43
 90
        3
102
RTVSPost2010PropOp43
 70
     1
102
RTVSPost2010Prop44ColorIndex
 90
        5
102
RTVSPost2010Prop44ColorRGB
 90
      255
102
RTVSPost2010PropOp44
 70
     1
102
RTVSPost2010Prop45
280
     0
102
RTVSPost2010PropOp45
 70
     1
102
RTVSPost2010Prop46
 90
       50
102
RTVSPost2010PropOp46
 70
     1
102
RTVSPost2010Prop47
 90
       50
102
RTVSPost2010PropOp47
 70
     1
102
RTVSPost2010Prop48
 90
       50
102
RTVSPost2010PropOp48
 70
     1
102
RTVSPost2010Prop49
280
     0
102
RTVSPost2010PropOp49
 70
     1
102
RTVSPost2010Prop50
 90
       50
102
RTVSPost2010PropOp50
 70
     1
102
RTVSPost2010Prop51ColorIndex
 90
      256
102
RTVSPost2010Prop51ColorRGB
 90
-16777216
102
RTVSPost2010PropOp51
 70
     0
102
RTVSPost2010Prop52
140
1.0
102
RTVSPost2010PropOp52
 70
     0
102
RTVSPost2010Prop53
 90
        2
102
RTVSPost2010PropOp53
 70
     1
102
RTVSPost2010Prop54
  1
strokes_ogs.tif
102
RTVSPost2010PropOp54
 70
     1
102
RTVSPost2010Prop55
280
     0
102
RTVSPost2010PropOp55
 70
     1
102
RTVSPost2010Prop56
140
1.0
102
RTVSPost2010PropOp56
 70
     1
102
RTVSPost2010Prop57
140
1.0
102
RTVSPost2010PropOp57
 70
     1
  0
XRECORD
  5
681
102
{ACAD_REACTORS
330
680
102
}
330
680
100
AcDbXrecord
280
     1
102
RTVSPropertyOp0
 70
     1
102
RTVSPropertyOp1
 70
     1
102
RTVSPropertyOp2
 70
     1
102
RTVSPropertyOp3
 70
     1
102
RTVSPropertyOp4
 70
     1
102
RTVSPropertyOp5
 70
     1
102
RTVSPropertyOp6
 70
     1
102
RTVSPropertyOp7
 70
     1
102
RTVSPropertyOp8
 70
     1
102
RTVSPropertyOp9
 70
     1
102
RTVSPropertyOp10
 70
     1
102
RTVSPropertyOp11
 70
     1
102
RTVSPropertyOp12
 70
     1
102
RTVSPropertyOp13
 70
     1
102
RTVSPropertyOp14
 70
     1
102
RTVSPropertyOp15
 70
     1
102
RTVSPropertyOp16
 70
     1
102
RTVSPropertyOp17
 70
     1
102
RTVSPropertyOp18
 70
     1
102
RTVSPropertyOp19
 70
     1
102
RTVSPropertyOp20
 70
     1
102
RTVSPropertyOp21
 70
     1
102
RTVSPropertyOp22
 70
     1
102
RTVSPropertyOp23
 70
     1
102
RTVSPropertyOp24
 70
     1
102
RTVSPropertyOp25
 70
     1
102
RTVSPropertyOp26
 70
     1
102
RTVSPropertyOp27
 70
     1
102
RTVSPropertyOp28
 70
     1
102
RTVSPropertyOp29
 70
     1
102
RTVSPropertyOp30
 70
     1
102
RTVSPropertyOp31
 70
     1
102
RTVSPropertyOp32
 70
     1
102
RTVSPropertyOp33
 70
     1
102
RTVSPropertyOp34
 70
     1
102
RTVSPropertyOp35
 70
     1
102
RTVSPropertyOp36
 70
     1
102
RTVSPropertyOp37
 70
     1
102
RTVSPropertyOp38
 70
     1
102
RTVSPropertyOp39
 70
     1
102
RTVSPropertyOp40
 70
     1
102
RTVSPropertyOp41
 70
     1
102
RTVSPropertyOp42
 70
     1
102
RTVSPropertyOp43
 70
     1
102
RTVSPropertyOp44
 70
     1
102
RTVSPropertyOp45
 70
     1
102
RTVSPropertyOp46
 70
     1
102
RTVSPropertyOp47
 70
     1
102
RTVSPropertyOp48
 70
     1
102
RTVSPropertyOp49
 70
     1
102
RTVSPropertyOp50
 70
     1
102
RTVSPropertyOp51
 70
     0
102
RTVSPropertyOp52
 70
     0
102
RTVSPropertyOp53
 70
     1
102
RTVSPropertyOp54
 70
     1
102
RTVSPropertyOp55
 70
     1
102
RTVSPropertyOp56
 70
     1
102
RTVSPropertyOp57
 70
     1
102
RTVSPost2010Prop28
280
     0
102
RTVSPost2010PropOp28
 70
     1
102
RTVSPost2010Prop29
280
     1
102
RTVSPost2010PropOp29
 70
     1
102
RTVSPost2010Prop30
280
     1
102
RTVSPost2010PropOp30
 70
     1
102
RTVSPost2010Prop31
280
     0
102
RTVSPost2010PropOp31
 70
     1
102
RTVSPost2010Prop32
280
     0
102
RTVSPost2010PropOp32
 70
     1
102
RTVSPost2010Prop33
280
     0
102
RTVSPost2010PropOp33
 70
     1
102
RTVSPost2010Prop34
280
     0
102
RTVSPost2010PropOp34
 70
     1
102
RTVSPost2010Prop35
280
     0
102
RTVSPost2010PropOp35
 70
     1
102
RTVSPost2010Prop36
280
     0
102
RTVSPost2010PropOp36
 70
     1
102
RTVSPost2010Prop37
 90
       50
102
RTVSPost2010PropOp37
 70
     1
102
RTVSPost2010Prop38
140
0.0
102
RTVSPost2010PropOp38
 70
     1
102
RTVSPost2010Prop39
140
1.0
102
RTVSPost2010PropOp39
 70
     1
102
RTVSPost2010Prop40
 90
        0
102
RTVSPost2010PropOp40
 70
     1
102
RTVSPost2010Prop41ColorIndex
 90
       18
102
RTVSPost2010Prop41ColorRGB
 90
        0
102
RTVSPost2010PropOp41
 70
     1
102
RTVSPost2010Prop42
 90
       50
102
RTVSPost2010PropOp42
 70
     1
102
RTVSPost2010Prop43
 90
        3
102
RTVSPost2010PropOp43
 70
     1
102
RTVSPost2010Prop44ColorIndex
 90
        5
102
RTVSPost2010Prop44ColorRGB
 90
      255
102
RTVSPost2010PropOp44
 70
     1
102
RTVSPost2010Prop45
280
     0
102
RTVSPost2010PropOp45
 70
     1
102
RTVSPost2010Prop46
 90
       50
102
RTVSPost2010PropOp46
 70
     1
102
RTVSPost2010Prop47
 90
       50
102
RTVSPost2010PropOp47
 70
     1
102
RTVSPost2010Prop48
 90
       50
102
RTVSPost2010PropOp48
 70
     1
102
RTVSPost2010Prop49
280
     0
102
RTVSPost2010PropOp49
 70
     1
102
RTVSPost2010Prop50
 90
       50
102
RTVSPost2010PropOp50
 70
     1
102
RTVSPost2010Prop51ColorIndex
 90
      256
102
RTVSPost2010Prop51ColorRGB
 90
-16777216
102
RTVSPost2010PropOp51
 70
     0
102
RTVSPost2010Prop52
140
1.0
102
RTVSPost2010PropOp52
 70
     0
102
RTVSPost2010Prop53
 90
        2
102
RTVSPost2010PropOp53
 70
     1
102
RTVSPost2010Prop54
  1
strokes_ogs.tif
102
RTVSPost2010PropOp54
 70
     1
102
RTVSPost2010Prop55
280
     0
102
RTVSPost2010PropOp55
 70
     1
102
RTVSPost2010Prop56
140
1.0
102
RTVSPost2010PropOp56
 70
     1
102
RTVSPost2010Prop57
140
1.0
102
RTVSPost2010PropOp57
 70
     1
  0
XRECORD
  5
691
102
{ACAD_REACTORS
330
690
102
}
330
690
100
AcDbXrecord
280
     1
102
RTVSPropertyOp0
 70
     0
102
RTVSPropertyOp1
 70
     0
102
RTVSPropertyOp2
 70
     0
102
RTVSPropertyOp3
 70
     0
102
RTVSPropertyOp4
 70
     0
102
RTVSPropertyOp5
 70
     0
102
RTVSPropertyOp6
 70
     0
102
RTVSPropertyOp7
 70
     0
102
RTVSPropertyOp8
 70
     0
102
RTVSPropertyOp9
 70
     0
102
RTVSPropertyOp10
 70
     0
102
RTVSPropertyOp11
 70
     0
102
RTVSPropertyOp12
 70
     0
102
RTVSPropertyOp13
 70
     0
102
RTVSPropertyOp14
 70
     2
102
RTVSPropertyOp15
 70
     0
102
RTVSPropertyOp16
 70
     0
102
RTVSPropertyOp17
 70
     0
102
RTVSPropertyOp18
 70
     0
102
RTVSPropertyOp19
 70
     0
102
RTVSPropertyOp20
 70
     0
102
RTVSPropertyOp21
 70
     0
102
RTVSPropertyOp22
 70
     0
102
RTVSPropertyOp23
 70
     0
102
RTVSPropertyOp24
 70
     0
102
RTVSPropertyOp25
 70
     0
102
RTVSPropertyOp26
 70
     0
102
RTVSPropertyOp27
 70
     0
102
RTVSPropertyOp28
 70
     0
102
RTVSPropertyOp29
 70
     0
102
RTVSPropertyOp30
 70
     0
102
RTVSPropertyOp31
 70
     0
102
RTVSPropertyOp32
 70
     0
102
RTVSPropertyOp33
 70
     0
102
RTVSPropertyOp34
 70
     0
102
RTVSPropertyOp35
 70
     0
102
RTVSPropertyOp36
 70
     0
102
RTVSPropertyOp37
 70
     0
102
RTVSPropertyOp38
 70
     0
102
RTVSPropertyOp39
 70
     0
102
RTVSPropertyOp40
 70
     0
102
RTVSPropertyOp41
 70
     0
102
RTVSPropertyOp42
 70
     0
102
RTVSPropertyOp43
 70
     0
102
RTVSPropertyOp44
 70
     0
102
RTVSPropertyOp45
 70
     0
102
RTVSPropertyOp46
 70
     0
102
RTVSPropertyOp47
 70
     0
102
RTVSPropertyOp48
 70
     0
102
RTVSPropertyOp49
 70
     0
102
RTVSPropertyOp50
 70
     0
102
RTVSPropertyOp51
 70
     0
102
RTVSPropertyOp52
 70
     0
102
RTVSPropertyOp53
 70
     0
102
RTVSPropertyOp54
 70
     0
102
RTVSPropertyOp55
 70
     0
102
RTVSPropertyOp56
 70
     0
102
RTVSPropertyOp57
 70
     0
102
RTVSPost2010Prop28
280
     0
102
RTVSPost2010PropOp28
 70
     0
102
RTVSPost2010Prop29
280
     1
102
RTVSPost2010PropOp29
 70
     0
102
RTVSPost2010Prop30
280
     1
102
RTVSPost2010PropOp30
 70
     0
102
RTVSPost2010Prop31
280
     0
102
RTVSPost2010PropOp31
 70
     0
102
RTVSPost2010Prop32
280
     0
102
RTVSPost2010PropOp32
 70
     0
102
RTVSPost2010Prop33
280
     0
102
RTVSPost2010PropOp33
 70
     0
102
RTVSPost2010Prop34
280
     0
102
RTVSPost2010PropOp34
 70
     0
102
RTVSPost2010Prop35
280
     0
102
RTVSPost2010PropOp35
 70
     0
102
RTVSPost2010Prop36
280
     0
102
RTVSPost2010PropOp36
 70
     0
102
RTVSPost2010Prop37
 90
       50
102
RTVSPost2010PropOp37
 70
     0
102
RTVSPost2010Prop38
140
0.0
102
RTVSPost2010PropOp38
 70
     0
102
RTVSPost2010Prop39
140
1.0
102
RTVSPost2010PropOp39
 70
     0
102
RTVSPost2010Prop40
 90
        0
102
RTVSPost2010PropOp40
 70
     0
102
RTVSPost2010Prop41ColorIndex
 90
       18
102
RTVSPost2010Prop41ColorRGB
 90
        0
102
RTVSPost2010PropOp41
 70
     0
102
RTVSPost2010Prop42
 90
       50
102
RTVSPost2010PropOp42
 70
     0
102
RTVSPost2010Prop43
 90
        3
102
RTVSPost2010PropOp43
 70
     0
102
RTVSPost2010Prop44ColorIndex
 90
        5
102
RTVSPost2010Prop44ColorRGB
 90
      255
102
RTVSPost2010PropOp44
 70
     0
102
RTVSPost2010Prop45
280
     0
102
RTVSPost2010PropOp45
 70
     0
102
RTVSPost2010Prop46
 90
       50
102
RTVSPost2010PropOp46
 70
     0
102
RTVSPost2010Prop47
 90
       50
102
RTVSPost2010PropOp47
 70
     0
102
RTVSPost2010Prop48
 90
       50
102
RTVSPost2010PropOp48
 70
     0
102
RTVSPost2010Prop49
280
     0
102
RTVSPost2010PropOp49
 70
     0
102
RTVSPost2010Prop50
 90
       50
102
RTVSPost2010PropOp50
 70
     0
102
RTVSPost2010Prop51ColorIndex
 90
      256
102
RTVSPost2010Prop51ColorRGB
 90
-16777216
102
RTVSPost2010PropOp51
 70
     0
102
RTVSPost2010Prop52
140
1.0
102
RTVSPost2010PropOp52
 70
     0
102
RTVSPost2010Prop53
 90
        2
102
RTVSPost2010PropOp53
 70
     0
102
RTVSPost2010Prop54
  1
strokes_ogs.tif
102
RTVSPost2010PropOp54
 70
     0
102
RTVSPost2010Prop55
280
     0
102
RTVSPost2010PropOp55
 70
     0
102
RTVSPost2010Prop56
140
1.0
102
RTVSPost2010PropOp56
 70
     0
102
RTVSPost2010Prop57
140
1.0
102
RTVSPost2010PropOp57
 70
     0
  0
XRECORD
  5
689
102
{ACAD_REACTORS
330
688
102
}
330
688
100
AcDbXrecord
280
     1
102
RTVSPropertyOp0
 70
     1
102
RTVSPropertyOp1
 70
     1
102
RTVSPropertyOp2
 70
     1
102
RTVSPropertyOp3
 70
     1
102
RTVSPropertyOp4
 70
     1
102
RTVSPropertyOp5
 70
     1
102
RTVSPropertyOp6
 70
     1
102
RTVSPropertyOp7
 70
     1
102
RTVSPropertyOp8
 70
     1
102
RTVSPropertyOp9
 70
     1
102
RTVSPropertyOp10
 70
     1
102
RTVSPropertyOp11
 70
     1
102
RTVSPropertyOp12
 70
     1
102
RTVSPropertyOp13
 70
     1
102
RTVSPropertyOp14
 70
     1
102
RTVSPropertyOp15
 70
     1
102
RTVSPropertyOp16
 70
     1
102
RTVSPropertyOp17
 70
     1
102
RTVSPropertyOp18
 70
     1
102
RTVSPropertyOp19
 70
     1
102
RTVSPropertyOp20
 70
     1
102
RTVSPropertyOp21
 70
     1
102
RTVSPropertyOp22
 70
     1
102
RTVSPropertyOp23
 70
     1
102
RTVSPropertyOp24
 70
     1
102
RTVSPropertyOp25
 70
     1
102
RTVSPropertyOp26
 70
     1
102
RTVSPropertyOp27
 70
     1
102
RTVSPropertyOp28
 70
     1
102
RTVSPropertyOp29
 70
     1
102
RTVSPropertyOp30
 70
     1
102
RTVSPropertyOp31
 70
     1
102
RTVSPropertyOp32
 70
     1
102
RTVSPropertyOp33
 70
     1
102
RTVSPropertyOp34
 70
     1
102
RTVSPropertyOp35
 70
     1
102
RTVSPropertyOp36
 70
     1
102
RTVSPropertyOp37
 70
     1
102
RTVSPropertyOp38
 70
     1
102
RTVSPropertyOp39
 70
     1
102
RTVSPropertyOp40
 70
     1
102
RTVSPropertyOp41
 70
     1
102
RTVSPropertyOp42
 70
     1
102
RTVSPropertyOp43
 70
     1
102
RTVSPropertyOp44
 70
     1
102
RTVSPropertyOp45
 70
     1
102
RTVSPropertyOp46
 70
     1
102
RTVSPropertyOp47
 70
     1
102
RTVSPropertyOp48
 70
     1
102
RTVSPropertyOp49
 70
     1
102
RTVSPropertyOp50
 70
     1
102
RTVSPropertyOp51
 70
     0
102
RTVSPropertyOp52
 70
     0
102
RTVSPropertyOp53
 70
     1
102
RTVSPropertyOp54
 70
     1
102
RTVSPropertyOp55
 70
     1
102
RTVSPropertyOp56
 70
     1
102
RTVSPropertyOp57
 70
     1
102
RTVSPost2010Prop28
280
     0
102
RTVSPost2010PropOp28
 70
     1
102
RTVSPost2010Prop29
280
     1
102
RTVSPost2010PropOp29
 70
     1
102
RTVSPost2010Prop30
280
     1
102
RTVSPost2010PropOp30
 70
     1
102
RTVSPost2010Prop31
280
     0
102
RTVSPost2010PropOp31
 70
     1
102
RTVSPost2010Prop32
280
     0
102
RTVSPost2010PropOp32
 70
     1
102
RTVSPost2010Prop33
280
     0
102
RTVSPost2010PropOp33
 70
     1
102
RTVSPost2010Prop34
280
     0
102
RTVSPost2010PropOp34
 70
     1
102
RTVSPost2010Prop35
280
     0
102
RTVSPost2010PropOp35
 70
     1
102
RTVSPost2010Prop36
280
     0
102
RTVSPost2010PropOp36
 70
     1
102
RTVSPost2010Prop37
 90
       50
102
RTVSPost2010PropOp37
 70
     1
102
RTVSPost2010Prop38
140
0.0
102
RTVSPost2010PropOp38
 70
     1
102
RTVSPost2010Prop39
140
1.0
102
RTVSPost2010PropOp39
 70
     1
102
RTVSPost2010Prop40
 90
        0
102
RTVSPost2010PropOp40
 70
     1
102
RTVSPost2010Prop41ColorIndex
 90
       18
102
RTVSPost2010Prop41ColorRGB
 90
        0
102
RTVSPost2010PropOp41
 70
     1
102
RTVSPost2010Prop42
 90
       50
102
RTVSPost2010PropOp42
 70
     1
102
RTVSPost2010Prop43
 90
        3
102
RTVSPost2010PropOp43
 70
     1
102
RTVSPost2010Prop44ColorIndex
 90
        5
102
RTVSPost2010Prop44ColorRGB
 90
      255
102
RTVSPost2010PropOp44
 70
     1
102
RTVSPost2010Prop45
280
     0
102
RTVSPost2010PropOp45
 70
     1
102
RTVSPost2010Prop46
 90
       50
102
RTVSPost2010PropOp46
 70
     1
102
RTVSPost2010Prop47
 90
       50
102
RTVSPost2010PropOp47
 70
     1
102
RTVSPost2010Prop48
 90
       50
102
RTVSPost2010PropOp48
 70
     1
102
RTVSPost2010Prop49
280
     0
102
RTVSPost2010PropOp49
 70
     1
102
RTVSPost2010Prop50
 90
       50
102
RTVSPost2010PropOp50
 70
     1
102
RTVSPost2010Prop51ColorIndex
 90
      256
102
RTVSPost2010Prop51ColorRGB
 90
-16777216
102
RTVSPost2010PropOp51
 70
     0
102
RTVSPost2010Prop52
140
1.0
102
RTVSPost2010PropOp52
 70
     0
102
RTVSPost2010Prop53
 90
        2
102
RTVSPost2010PropOp53
 70
     1
102
RTVSPost2010Prop54
  1
strokes_ogs.tif
102
RTVSPost2010PropOp54
 70
     1
102
RTVSPost2010Prop55
280
     0
102
RTVSPost2010PropOp55
 70
     1
102
RTVSPost2010Prop56
140
1.0
102
RTVSPost2010PropOp56
 70
     1
102
RTVSPost2010Prop57
140
1.0
102
RTVSPost2010PropOp57
 70
     1
  0
XRECORD
  5
66D
102
{ACAD_REACTORS
330
66C
102
}
330
66C
100
AcDbXrecord
280
     1
102
RTVSPropertyOp0
 70
     1
102
RTVSPropertyOp1
 70
     1
102
RTVSPropertyOp2
 70
     1
102
RTVSPropertyOp3
 70
     1
102
RTVSPropertyOp4
 70
     1
102
RTVSPropertyOp5
 70
     1
102
RTVSPropertyOp6
 70
     1
102
RTVSPropertyOp7
 70
     1
102
RTVSPropertyOp8
 70
     1
102
RTVSPropertyOp9
 70
     1
102
RTVSPropertyOp10
 70
     1
102
RTVSPropertyOp11
 70
     1
102
RTVSPropertyOp12
 70
     1
102
RTVSPropertyOp13
 70
     1
102
RTVSPropertyOp14
 70
     1
102
RTVSPropertyOp15
 70
     1
102
RTVSPropertyOp16
 70
     1
102
RTVSPropertyOp17
 70
     1
102
RTVSPropertyOp18
 70
     1
102
RTVSPropertyOp19
 70
     1
102
RTVSPropertyOp20
 70
     1
102
RTVSPropertyOp21
 70
     1
102
RTVSPropertyOp22
 70
     1
102
RTVSPropertyOp23
 70
     1
102
RTVSPropertyOp24
 70
     1
102
RTVSPropertyOp25
 70
     1
102
RTVSPropertyOp26
 70
     1
102
RTVSPropertyOp27
 70
     1
102
RTVSPropertyOp28
 70
     1
102
RTVSPropertyOp29
 70
     1
102
RTVSPropertyOp30
 70
     1
102
RTVSPropertyOp31
 70
     1
102
RTVSPropertyOp32
 70
     1
102
RTVSPropertyOp33
 70
     1
102
RTVSPropertyOp34
 70
     1
102
RTVSPropertyOp35
 70
     1
102
RTVSPropertyOp36
 70
     1
102
RTVSPropertyOp37
 70
     1
102
RTVSPropertyOp38
 70
     1
102
RTVSPropertyOp39
 70
     1
102
RTVSPropertyOp40
 70
     1
102
RTVSPropertyOp41
 70
     1
102
RTVSPropertyOp42
 70
     1
102
RTVSPropertyOp43
 70
     1
102
RTVSPropertyOp44
 70
     1
102
RTVSPropertyOp45
 70
     1
102
RTVSPropertyOp46
 70
     1
102
RTVSPropertyOp47
 70
     1
102
RTVSPropertyOp48
 70
     1
102
RTVSPropertyOp49
 70
     1
102
RTVSPropertyOp50
 70
     1
102
RTVSPropertyOp51
 70
     0
102
RTVSPropertyOp52
 70
     0
102
RTVSPropertyOp53
 70
     1
102
RTVSPropertyOp54
 70
     1
102
RTVSPropertyOp55
 70
     1
102
RTVSPropertyOp56
 70
     1
102
RTVSPropertyOp57
 70
     1
102
RTVSPost2010Prop28
280
     0
102
RTVSPost2010PropOp28
 70
     1
102
RTVSPost2010Prop29
280
     1
102
RTVSPost2010PropOp29
 70
     1
102
RTVSPost2010Prop30
280
     1
102
RTVSPost2010PropOp30
 70
     1
102
RTVSPost2010Prop31
280
     0
102
RTVSPost2010PropOp31
 70
     1
102
RTVSPost2010Prop32
280
     0
102
RTVSPost2010PropOp32
 70
     1
102
RTVSPost2010Prop33
280
     0
102
RTVSPost2010PropOp33
 70
     1
102
RTVSPost2010Prop34
280
     0
102
RTVSPost2010PropOp34
 70
     1
102
RTVSPost2010Prop35
280
     0
102
RTVSPost2010PropOp35
 70
     1
102
RTVSPost2010Prop36
280
     0
102
RTVSPost2010PropOp36
 70
     1
102
RTVSPost2010Prop37
 90
       50
102
RTVSPost2010PropOp37
 70
     1
102
RTVSPost2010Prop38
140
0.0
102
RTVSPost2010PropOp38
 70
     1
102
RTVSPost2010Prop39
140
1.0
102
RTVSPost2010PropOp39
 70
     1
102
RTVSPost2010Prop40
 90
        0
102
RTVSPost2010PropOp40
 70
     1
102
RTVSPost2010Prop41ColorIndex
 90
       18
102
RTVSPost2010Prop41ColorRGB
 90
        0
102
RTVSPost2010PropOp41
 70
     1
102
RTVSPost2010Prop42
 90
       50
102
RTVSPost2010PropOp42
 70
     1
102
RTVSPost2010Prop43
 90
        3
102
RTVSPost2010PropOp43
 70
     1
102
RTVSPost2010Prop44ColorIndex
 90
        5
102
RTVSPost2010Prop44ColorRGB
 90
      255
102
RTVSPost2010PropOp44
 70
     1
102
RTVSPost2010Prop45
280
     0
102
RTVSPost2010PropOp45
 70
     1
102
RTVSPost2010Prop46
 90
       50
102
RTVSPost2010PropOp46
 70
     1
102
RTVSPost2010Prop47
 90
       50
102
RTVSPost2010PropOp47
 70
     1
102
RTVSPost2010Prop48
 90
       50
102
RTVSPost2010PropOp48
 70
     1
102
RTVSPost2010Prop49
280
     0
102
RTVSPost2010PropOp49
 70
     1
102
RTVSPost2010Prop50
 90
       50
102
RTVSPost2010PropOp50
 70
     1
102
RTVSPost2010Prop51ColorIndex
 90
      256
102
RTVSPost2010Prop51ColorRGB
 90
-16777216
102
RTVSPost2010PropOp51
 70
     0
102
RTVSPost2010Prop52
140
1.0
102
RTVSPost2010PropOp52
 70
     0
102
RTVSPost2010Prop53
 90
        2
102
RTVSPost2010PropOp53
 70
     1
102
RTVSPost2010Prop54
  1
strokes_ogs.tif
102
RTVSPost2010PropOp54
 70
     1
102
RTVSPost2010Prop55
280
     0
102
RTVSPost2010PropOp55
 70
     1
102
RTVSPost2010Prop56
140
1.0
102
RTVSPost2010PropOp56
 70
     1
102
RTVSPost2010Prop57
140
1.0
102
RTVSPost2010PropOp57
 70
     1
  0
XRECORD
  5
66F
102
{ACAD_REACTORS
330
66E
102
}
330
66E
100
AcDbXrecord
280
     1
102
RTVSPropertyOp0
 70
     1
102
RTVSPropertyOp1
 70
     1
102
RTVSPropertyOp2
 70
     1
102
RTVSPropertyOp3
 70
     1
102
RTVSPropertyOp4
 70
     1
102
RTVSPropertyOp5
 70
     1
102
RTVSPropertyOp6
 70
     1
102
RTVSPropertyOp7
 70
     1
102
RTVSPropertyOp8
 70
     1
102
RTVSPropertyOp9
 70
     1
102
RTVSPropertyOp10
 70
     1
102
RTVSPropertyOp11
 70
     1
102
RTVSPropertyOp12
 70
     1
102
RTVSPropertyOp13
 70
     1
102
RTVSPropertyOp14
 70
     1
102
RTVSPropertyOp15
 70
     1
102
RTVSPropertyOp16
 70
     1
102
RTVSPropertyOp17
 70
     1
102
RTVSPropertyOp18
 70
     1
102
RTVSPropertyOp19
 70
     1
102
RTVSPropertyOp20
 70
     1
102
RTVSPropertyOp21
 70
     1
102
RTVSPropertyOp22
 70
     1
102
RTVSPropertyOp23
 70
     1
102
RTVSPropertyOp24
 70
     1
102
RTVSPropertyOp25
 70
     1
102
RTVSPropertyOp26
 70
     1
102
RTVSPropertyOp27
 70
     1
102
RTVSPropertyOp28
 70
     1
102
RTVSPropertyOp29
 70
     1
102
RTVSPropertyOp30
 70
     1
102
RTVSPropertyOp31
 70
     1
102
RTVSPropertyOp32
 70
     1
102
RTVSPropertyOp33
 70
     1
102
RTVSPropertyOp34
 70
     1
102
RTVSPropertyOp35
 70
     1
102
RTVSPropertyOp36
 70
     1
102
RTVSPropertyOp37
 70
     1
102
RTVSPropertyOp38
 70
     1
102
RTVSPropertyOp39
 70
     1
102
RTVSPropertyOp40
 70
     1
102
RTVSPropertyOp41
 70
     1
102
RTVSPropertyOp42
 70
     1
102
RTVSPropertyOp43
 70
     1
102
RTVSPropertyOp44
 70
     1
102
RTVSPropertyOp45
 70
     1
102
RTVSPropertyOp46
 70
     1
102
RTVSPropertyOp47
 70
     1
102
RTVSPropertyOp48
 70
     1
102
RTVSPropertyOp49
 70
     1
102
RTVSPropertyOp50
 70
     1
102
RTVSPropertyOp51
 70
     0
102
RTVSPropertyOp52
 70
     0
102
RTVSPropertyOp53
 70
     1
102
RTVSPropertyOp54
 70
     1
102
RTVSPropertyOp55
 70
     1
102
RTVSPropertyOp56
 70
     1
102
RTVSPropertyOp57
 70
     1
102
RTVSPost2010Prop28
280
     0
102
RTVSPost2010PropOp28
 70
     1
102
RTVSPost2010Prop29
280
     1
102
RTVSPost2010PropOp29
 70
     1
102
RTVSPost2010Prop30
280
     1
102
RTVSPost2010PropOp30
 70
     1
102
RTVSPost2010Prop31
280
     0
102
RTVSPost2010PropOp31
 70
     1
102
RTVSPost2010Prop32
280
     0
102
RTVSPost2010PropOp32
 70
     1
102
RTVSPost2010Prop33
280
     0
102
RTVSPost2010PropOp33
 70
     1
102
RTVSPost2010Prop34
280
     0
102
RTVSPost2010PropOp34
 70
     1
102
RTVSPost2010Prop35
280
     0
102
RTVSPost2010PropOp35
 70
     1
102
RTVSPost2010Prop36
280
     0
102
RTVSPost2010PropOp36
 70
     1
102
RTVSPost2010Prop37
 90
       50
102
RTVSPost2010PropOp37
 70
     1
102
RTVSPost2010Prop38
140
0.0
102
RTVSPost2010PropOp38
 70
     1
102
RTVSPost2010Prop39
140
1.0
102
RTVSPost2010PropOp39
 70
     1
102
RTVSPost2010Prop40
 90
        0
102
RTVSPost2010PropOp40
 70
     1
102
RTVSPost2010Prop41ColorIndex
 90
       18
102
RTVSPost2010Prop41ColorRGB
 90
        0
102
RTVSPost2010PropOp41
 70
     1
102
RTVSPost2010Prop42
 90
       50
102
RTVSPost2010PropOp42
 70
     1
102
RTVSPost2010Prop43
 90
        3
102
RTVSPost2010PropOp43
 70
     1
102
RTVSPost2010Prop44ColorIndex
 90
        5
102
RTVSPost2010Prop44ColorRGB
 90
      255
102
RTVSPost2010PropOp44
 70
     1
102
RTVSPost2010Prop45
280
     0
102
RTVSPost2010PropOp45
 70
     1
102
RTVSPost2010Prop46
 90
       50
102
RTVSPost2010PropOp46
 70
     1
102
RTVSPost2010Prop47
 90
       50
102
RTVSPost2010PropOp47
 70
     1
102
RTVSPost2010Prop48
 90
       50
102
RTVSPost2010PropOp48
 70
     1
102
RTVSPost2010Prop49
280
     0
102
RTVSPost2010PropOp49
 70
     1
102
RTVSPost2010Prop50
 90
       50
102
RTVSPost2010PropOp50
 70
     1
102
RTVSPost2010Prop51ColorIndex
 90
      256
102
RTVSPost2010Prop51ColorRGB
 90
-16777216
102
RTVSPost2010PropOp51
 70
     0
102
RTVSPost2010Prop52
140
1.0
102
RTVSPost2010PropOp52
 70
     0
102
RTVSPost2010Prop53
 90
        2
102
RTVSPost2010PropOp53
 70
     1
102
RTVSPost2010Prop54
  1
strokes_ogs.tif
102
RTVSPost2010PropOp54
 70
     1
102
RTVSPost2010Prop55
280
     0
102
RTVSPost2010PropOp55
 70
     1
102
RTVSPost2010Prop56
140
1.0
102
RTVSPost2010PropOp56
 70
     1
102
RTVSPost2010Prop57
140
1.0
102
RTVSPost2010PropOp57
 70
     1
  0
XRECORD
  5
671
102
{ACAD_REACTORS
330
670
102
}
330
670
100
AcDbXrecord
280
     1
102
RTVSPropertyOp0
 70
     1
102
RTVSPropertyOp1
 70
     1
102
RTVSPropertyOp2
 70
     1
102
RTVSPropertyOp3
 70
     1
102
RTVSPropertyOp4
 70
     1
102
RTVSPropertyOp5
 70
     1
102
RTVSPropertyOp6
 70
     1
102
RTVSPropertyOp7
 70
     1
102
RTVSPropertyOp8
 70
     1
102
RTVSPropertyOp9
 70
     1
102
RTVSPropertyOp10
 70
     1
102
RTVSPropertyOp11
 70
     1
102
RTVSPropertyOp12
 70
     1
102
RTVSPropertyOp13
 70
     1
102
RTVSPropertyOp14
 70
     1
102
RTVSPropertyOp15
 70
     1
102
RTVSPropertyOp16
 70
     1
102
RTVSPropertyOp17
 70
     1
102
RTVSPropertyOp18
 70
     1
102
RTVSPropertyOp19
 70
     1
102
RTVSPropertyOp20
 70
     1
102
RTVSPropertyOp21
 70
     1
102
RTVSPropertyOp22
 70
     1
102
RTVSPropertyOp23
 70
     1
102
RTVSPropertyOp24
 70
     1
102
RTVSPropertyOp25
 70
     1
102
RTVSPropertyOp26
 70
     1
102
RTVSPropertyOp27
 70
     1
102
RTVSPropertyOp28
 70
     1
102
RTVSPropertyOp29
 70
     1
102
RTVSPropertyOp30
 70
     1
102
RTVSPropertyOp31
 70
     1
102
RTVSPropertyOp32
 70
     1
102
RTVSPropertyOp33
 70
     1
102
RTVSPropertyOp34
 70
     1
102
RTVSPropertyOp35
 70
     1
102
RTVSPropertyOp36
 70
     1
102
RTVSPropertyOp37
 70
     1
102
RTVSPropertyOp38
 70
     1
102
RTVSPropertyOp39
 70
     1
102
RTVSPropertyOp40
 70
     1
102
RTVSPropertyOp41
 70
     1
102
RTVSPropertyOp42
 70
     1
102
RTVSPropertyOp43
 70
     1
102
RTVSPropertyOp44
 70
     1
102
RTVSPropertyOp45
 70
     1
102
RTVSPropertyOp46
 70
     1
102
RTVSPropertyOp47
 70
     1
102
RTVSPropertyOp48
 70
     1
102
RTVSPropertyOp49
 70
     1
102
RTVSPropertyOp50
 70
     1
102
RTVSPropertyOp51
 70
     0
102
RTVSPropertyOp52
 70
     0
102
RTVSPropertyOp53
 70
     1
102
RTVSPropertyOp54
 70
     1
102
RTVSPropertyOp55
 70
     1
102
RTVSPropertyOp56
 70
     1
102
RTVSPropertyOp57
 70
     1
102
RTVSPost2010Prop28
280
     0
102
RTVSPost2010PropOp28
 70
     1
102
RTVSPost2010Prop29
280
     1
102
RTVSPost2010PropOp29
 70
     1
102
RTVSPost2010Prop30
280
     1
102
RTVSPost2010PropOp30
 70
     1
102
RTVSPost2010Prop31
280
     0
102
RTVSPost2010PropOp31
 70
     1
102
RTVSPost2010Prop32
280
     0
102
RTVSPost2010PropOp32
 70
     1
102
RTVSPost2010Prop33
280
     0
102
RTVSPost2010PropOp33
 70
     1
102
RTVSPost2010Prop34
280
     0
102
RTVSPost2010PropOp34
 70
     1
102
RTVSPost2010Prop35
280
     0
102
RTVSPost2010PropOp35
 70
     1
102
RTVSPost2010Prop36
280
     0
102
RTVSPost2010PropOp36
 70
     1
102
RTVSPost2010Prop37
 90
       50
102
RTVSPost2010PropOp37
 70
     1
102
RTVSPost2010Prop38
140
0.0
102
RTVSPost2010PropOp38
 70
     1
102
RTVSPost2010Prop39
140
1.0
102
RTVSPost2010PropOp39
 70
     1
102
RTVSPost2010Prop40
 90
        0
102
RTVSPost2010PropOp40
 70
     1
102
RTVSPost2010Prop41ColorIndex
 90
       18
102
RTVSPost2010Prop41ColorRGB
 90
        0
102
RTVSPost2010PropOp41
 70
     1
102
RTVSPost2010Prop42
 90
       50
102
RTVSPost2010PropOp42
 70
     1
102
RTVSPost2010Prop43
 90
        3
102
RTVSPost2010PropOp43
 70
     1
102
RTVSPost2010Prop44ColorIndex
 90
        5
102
RTVSPost2010Prop44ColorRGB
 90
      255
102
RTVSPost2010PropOp44
 70
     1
102
RTVSPost2010Prop45
280
     0
102
RTVSPost2010PropOp45
 70
     1
102
RTVSPost2010Prop46
 90
       50
102
RTVSPost2010PropOp46
 70
     1
102
RTVSPost2010Prop47
 90
       50
102
RTVSPost2010PropOp47
 70
     1
102
RTVSPost2010Prop48
 90
       50
102
RTVSPost2010PropOp48
 70
     1
102
RTVSPost2010Prop49
280
     0
102
RTVSPost2010PropOp49
 70
     1
102
RTVSPost2010Prop50
 90
       50
102
RTVSPost2010PropOp50
 70
     1
102
RTVSPost2010Prop51ColorIndex
 90
      256
102
RTVSPost2010Prop51ColorRGB
 90
-16777216
102
RTVSPost2010PropOp51
 70
     0
102
RTVSPost2010Prop52
140
1.0
102
RTVSPost2010PropOp52
 70
     0
102
RTVSPost2010Prop53
 90
        2
102
RTVSPost2010PropOp53
 70
     1
102
RTVSPost2010Prop54
  1
strokes_ogs.tif
102
RTVSPost2010PropOp54
 70
     1
102
RTVSPost2010Prop55
280
     0
102
RTVSPost2010PropOp55
 70
     1
102
RTVSPost2010Prop56
140
1.0
102
RTVSPost2010PropOp56
 70
     1
102
RTVSPost2010Prop57
140
1.0
102
RTVSPost2010PropOp57
 70
     1
  0
XRECORD
  5
673
102
{ACAD_REACTORS
330
672
102
}
330
672
100
AcDbXrecord
280
     1
102
RTVSPropertyOp0
 70
     1
102
RTVSPropertyOp1
 70
     1
102
RTVSPropertyOp2
 70
     1
102
RTVSPropertyOp3
 70
     1
102
RTVSPropertyOp4
 70
     1
102
RTVSPropertyOp5
 70
     1
102
RTVSPropertyOp6
 70
     1
102
RTVSPropertyOp7
 70
     1
102
RTVSPropertyOp8
 70
     1
102
RTVSPropertyOp9
 70
     1
102
RTVSPropertyOp10
 70
     1
102
RTVSPropertyOp11
 70
     1
102
RTVSPropertyOp12
 70
     1
102
RTVSPropertyOp13
 70
     1
102
RTVSPropertyOp14
 70
     1
102
RTVSPropertyOp15
 70
     1
102
RTVSPropertyOp16
 70
     1
102
RTVSPropertyOp17
 70
     1
102
RTVSPropertyOp18
 70
     1
102
RTVSPropertyOp19
 70
     1
102
RTVSPropertyOp20
 70
     1
102
RTVSPropertyOp21
 70
     1
102
RTVSPropertyOp22
 70
     1
102
RTVSPropertyOp23
 70
     1
102
RTVSPropertyOp24
 70
     1
102
RTVSPropertyOp25
 70
     1
102
RTVSPropertyOp26
 70
     1
102
RTVSPropertyOp27
 70
     1
102
RTVSPropertyOp28
 70
     1
102
RTVSPropertyOp29
 70
     1
102
RTVSPropertyOp30
 70
     1
102
RTVSPropertyOp31
 70
     1
102
RTVSPropertyOp32
 70
     1
102
RTVSPropertyOp33
 70
     1
102
RTVSPropertyOp34
 70
     1
102
RTVSPropertyOp35
 70
     1
102
RTVSPropertyOp36
 70
     1
102
RTVSPropertyOp37
 70
     1
102
RTVSPropertyOp38
 70
     1
102
RTVSPropertyOp39
 70
     1
102
RTVSPropertyOp40
 70
     1
102
RTVSPropertyOp41
 70
     1
102
RTVSPropertyOp42
 70
     1
102
RTVSPropertyOp43
 70
     1
102
RTVSPropertyOp44
 70
     1
102
RTVSPropertyOp45
 70
     1
102
RTVSPropertyOp46
 70
     1
102
RTVSPropertyOp47
 70
     1
102
RTVSPropertyOp48
 70
     1
102
RTVSPropertyOp49
 70
     1
102
RTVSPropertyOp50
 70
     1
102
RTVSPropertyOp51
 70
     0
102
RTVSPropertyOp52
 70
     0
102
RTVSPropertyOp53
 70
     1
102
RTVSPropertyOp54
 70
     1
102
RTVSPropertyOp55
 70
     1
102
RTVSPropertyOp56
 70
     1
102
RTVSPropertyOp57
 70
     1
102
RTVSPost2010Prop28
280
     0
102
RTVSPost2010PropOp28
 70
     1
102
RTVSPost2010Prop29
280
     1
102
RTVSPost2010PropOp29
 70
     1
102
RTVSPost2010Prop30
280
     1
102
RTVSPost2010PropOp30
 70
     1
102
RTVSPost2010Prop31
280
     0
102
RTVSPost2010PropOp31
 70
     1
102
RTVSPost2010Prop32
280
     0
102
RTVSPost2010PropOp32
 70
     1
102
RTVSPost2010Prop33
280
     0
102
RTVSPost2010PropOp33
 70
     1
102
RTVSPost2010Prop34
280
     0
102
RTVSPost2010PropOp34
 70
     1
102
RTVSPost2010Prop35
280
     0
102
RTVSPost2010PropOp35
 70
     1
102
RTVSPost2010Prop36
280
     0
102
RTVSPost2010PropOp36
 70
     1
102
RTVSPost2010Prop37
 90
       50
102
RTVSPost2010PropOp37
 70
     1
102
RTVSPost2010Prop38
140
0.0
102
RTVSPost2010PropOp38
 70
     1
102
RTVSPost2010Prop39
140
1.0
102
RTVSPost2010PropOp39
 70
     1
102
RTVSPost2010Prop40
 90
        0
102
RTVSPost2010PropOp40
 70
     1
102
RTVSPost2010Prop41ColorIndex
 90
       18
102
RTVSPost2010Prop41ColorRGB
 90
        0
102
RTVSPost2010PropOp41
 70
     1
102
RTVSPost2010Prop42
 90
       50
102
RTVSPost2010PropOp42
 70
     1
102
RTVSPost2010Prop43
 90
        3
102
RTVSPost2010PropOp43
 70
     1
102
RTVSPost2010Prop44ColorIndex
 90
        5
102
RTVSPost2010Prop44ColorRGB
 90
      255
102
RTVSPost2010PropOp44
 70
     1
102
RTVSPost2010Prop45
280
     0
102
RTVSPost2010PropOp45
 70
     1
102
RTVSPost2010Prop46
 90
       50
102
RTVSPost2010PropOp46
 70
     1
102
RTVSPost2010Prop47
 90
       50
102
RTVSPost2010PropOp47
 70
     1
102
RTVSPost2010Prop48
 90
       50
102
RTVSPost2010PropOp48
 70
     1
102
RTVSPost2010Prop49
280
     0
102
RTVSPost2010PropOp49
 70
     1
102
RTVSPost2010Prop50
 90
       50
102
RTVSPost2010PropOp50
 70
     1
102
RTVSPost2010Prop51ColorIndex
 90
      256
102
RTVSPost2010Prop51ColorRGB
 90
-16777216
102
RTVSPost2010PropOp51
 70
     0
102
RTVSPost2010Prop52
140
1.0
102
RTVSPost2010PropOp52
 70
     0
102
RTVSPost2010Prop53
 90
        2
102
RTVSPost2010PropOp53
 70
     1
102
RTVSPost2010Prop54
  1
strokes_ogs.tif
102
RTVSPost2010PropOp54
 70
     1
102
RTVSPost2010Prop55
280
     0
102
RTVSPost2010PropOp55
 70
     1
102
RTVSPost2010Prop56
140
1.0
102
RTVSPost2010PropOp56
 70
     1
102
RTVSPost2010Prop57
140
1.0
102
RTVSPost2010PropOp57
 70
     1
  0
XRECORD
  5
679
102
{ACAD_REACTORS
330
678
102
}
330
678
100
AcDbXrecord
280
     1
102
RTVSPropertyOp0
 70
     1
102
RTVSPropertyOp1
 70
     1
102
RTVSPropertyOp2
 70
     1
102
RTVSPropertyOp3
 70
     1
102
RTVSPropertyOp4
 70
     1
102
RTVSPropertyOp5
 70
     1
102
RTVSPropertyOp6
 70
     1
102
RTVSPropertyOp7
 70
     1
102
RTVSPropertyOp8
 70
     1
102
RTVSPropertyOp9
 70
     1
102
RTVSPropertyOp10
 70
     1
102
RTVSPropertyOp11
 70
     1
102
RTVSPropertyOp12
 70
     1
102
RTVSPropertyOp13
 70
     1
102
RTVSPropertyOp14
 70
     1
102
RTVSPropertyOp15
 70
     1
102
RTVSPropertyOp16
 70
     1
102
RTVSPropertyOp17
 70
     1
102
RTVSPropertyOp18
 70
     1
102
RTVSPropertyOp19
 70
     1
102
RTVSPropertyOp20
 70
     1
102
RTVSPropertyOp21
 70
     1
102
RTVSPropertyOp22
 70
     1
102
RTVSPropertyOp23
 70
     1
102
RTVSPropertyOp24
 70
     1
102
RTVSPropertyOp25
 70
     1
102
RTVSPropertyOp26
 70
     1
102
RTVSPropertyOp27
 70
     1
102
RTVSPropertyOp28
 70
     1
102
RTVSPropertyOp29
 70
     1
102
RTVSPropertyOp30
 70
     1
102
RTVSPropertyOp31
 70
     1
102
RTVSPropertyOp32
 70
     1
102
RTVSPropertyOp33
 70
     1
102
RTVSPropertyOp34
 70
     1
102
RTVSPropertyOp35
 70
     1
102
RTVSPropertyOp36
 70
     1
102
RTVSPropertyOp37
 70
     1
102
RTVSPropertyOp38
 70
     1
102
RTVSPropertyOp39
 70
     1
102
RTVSPropertyOp40
 70
     1
102
RTVSPropertyOp41
 70
     1
102
RTVSPropertyOp42
 70
     1
102
RTVSPropertyOp43
 70
     1
102
RTVSPropertyOp44
 70
     1
102
RTVSPropertyOp45
 70
     1
102
RTVSPropertyOp46
 70
     1
102
RTVSPropertyOp47
 70
     1
102
RTVSPropertyOp48
 70
     1
102
RTVSPropertyOp49
 70
     1
102
RTVSPropertyOp50
 70
     1
102
RTVSPropertyOp51
 70
     0
102
RTVSPropertyOp52
 70
     0
102
RTVSPropertyOp53
 70
     1
102
RTVSPropertyOp54
 70
     1
102
RTVSPropertyOp55
 70
     1
102
RTVSPropertyOp56
 70
     1
102
RTVSPropertyOp57
 70
     1
102
RTVSPost2010Prop28
280
     0
102
RTVSPost2010PropOp28
 70
     1
102
RTVSPost2010Prop29
280
     1
102
RTVSPost2010PropOp29
 70
     1
102
RTVSPost2010Prop30
280
     1
102
RTVSPost2010PropOp30
 70
     1
102
RTVSPost2010Prop31
280
     0
102
RTVSPost2010PropOp31
 70
     1
102
RTVSPost2010Prop32
280
     0
102
RTVSPost2010PropOp32
 70
     1
102
RTVSPost2010Prop33
280
     0
102
RTVSPost2010PropOp33
 70
     1
102
RTVSPost2010Prop34
280
     0
102
RTVSPost2010PropOp34
 70
     1
102
RTVSPost2010Prop35
280
     0
102
RTVSPost2010PropOp35
 70
     1
102
RTVSPost2010Prop36
280
     0
102
RTVSPost2010PropOp36
 70
     1
102
RTVSPost2010Prop37
 90
       50
102
RTVSPost2010PropOp37
 70
     1
102
RTVSPost2010Prop38
140
0.0
102
RTVSPost2010PropOp38
 70
     1
102
RTVSPost2010Prop39
140
1.0
102
RTVSPost2010PropOp39
 70
     1
102
RTVSPost2010Prop40
 90
        0
102
RTVSPost2010PropOp40
 70
     1
102
RTVSPost2010Prop41ColorIndex
 90
       18
102
RTVSPost2010Prop41ColorRGB
 90
        0
102
RTVSPost2010PropOp41
 70
     1
102
RTVSPost2010Prop42
 90
       50
102
RTVSPost2010PropOp42
 70
     1
102
RTVSPost2010Prop43
 90
        3
102
RTVSPost2010PropOp43
 70
     1
102
RTVSPost2010Prop44ColorIndex
 90
        5
102
RTVSPost2010Prop44ColorRGB
 90
      255
102
RTVSPost2010PropOp44
 70
     1
102
RTVSPost2010Prop45
280
     0
102
RTVSPost2010PropOp45
 70
     1
102
RTVSPost2010Prop46
 90
       50
102
RTVSPost2010PropOp46
 70
     1
102
RTVSPost2010Prop47
 90
       50
102
RTVSPost2010PropOp47
 70
     1
102
RTVSPost2010Prop48
 90
       50
102
RTVSPost2010PropOp48
 70
     1
102
RTVSPost2010Prop49
280
     0
102
RTVSPost2010PropOp49
 70
     1
102
RTVSPost2010Prop50
 90
       50
102
RTVSPost2010PropOp50
 70
     1
102
RTVSPost2010Prop51ColorIndex
 90
      256
102
RTVSPost2010Prop51ColorRGB
 90
-16777216
102
RTVSPost2010PropOp51
 70
     0
102
RTVSPost2010Prop52
140
1.0
102
RTVSPost2010PropOp52
 70
     0
102
RTVSPost2010Prop53
 90
        2
102
RTVSPost2010PropOp53
 70
     1
102
RTVSPost2010Prop54
  1
strokes_ogs.tif
102
RTVSPost2010PropOp54
 70
     1
102
RTVSPost2010Prop55
280
     0
102
RTVSPost2010PropOp55
 70
     1
102
RTVSPost2010Prop56
140
1.0
102
RTVSPost2010PropOp56
 70
     1
102
RTVSPost2010Prop57
140
1.0
102
RTVSPost2010PropOp57
 70
     1
  0
XRECORD
  5
68D
102
{ACAD_REACTORS
330
68C
102
}
330
68C
100
AcDbXrecord
280
     1
102
RTVSPropertyOp0
 70
     0
102
RTVSPropertyOp1
 70
     0
102
RTVSPropertyOp2
 70
     0
102
RTVSPropertyOp3
 70
     0
102
RTVSPropertyOp4
 70
     0
102
RTVSPropertyOp5
 70
     0
102
RTVSPropertyOp6
 70
     0
102
RTVSPropertyOp7
 70
     0
102
RTVSPropertyOp8
 70
     0
102
RTVSPropertyOp9
 70
     0
102
RTVSPropertyOp10
 70
     0
102
RTVSPropertyOp11
 70
     0
102
RTVSPropertyOp12
 70
     0
102
RTVSPropertyOp13
 70
     0
102
RTVSPropertyOp14
 70
     2
102
RTVSPropertyOp15
 70
     0
102
RTVSPropertyOp16
 70
     0
102
RTVSPropertyOp17
 70
     0
102
RTVSPropertyOp18
 70
     0
102
RTVSPropertyOp19
 70
     0
102
RTVSPropertyOp20
 70
     0
102
RTVSPropertyOp21
 70
     0
102
RTVSPropertyOp22
 70
     0
102
RTVSPropertyOp23
 70
     0
102
RTVSPropertyOp24
 70
     0
102
RTVSPropertyOp25
 70
     0
102
RTVSPropertyOp26
 70
     0
102
RTVSPropertyOp27
 70
     0
102
RTVSPropertyOp28
 70
     0
102
RTVSPropertyOp29
 70
     0
102
RTVSPropertyOp30
 70
     0
102
RTVSPropertyOp31
 70
     0
102
RTVSPropertyOp32
 70
     0
102
RTVSPropertyOp33
 70
     0
102
RTVSPropertyOp34
 70
     0
102
RTVSPropertyOp35
 70
     0
102
RTVSPropertyOp36
 70
     0
102
RTVSPropertyOp37
 70
     0
102
RTVSPropertyOp38
 70
     0
102
RTVSPropertyOp39
 70
     0
102
RTVSPropertyOp40
 70
     0
102
RTVSPropertyOp41
 70
     0
102
RTVSPropertyOp42
 70
     0
102
RTVSPropertyOp43
 70
     0
102
RTVSPropertyOp44
 70
     0
102
RTVSPropertyOp45
 70
     0
102
RTVSPropertyOp46
 70
     0
102
RTVSPropertyOp47
 70
     0
102
RTVSPropertyOp48
 70
     0
102
RTVSPropertyOp49
 70
     0
102
RTVSPropertyOp50
 70
     0
102
RTVSPropertyOp51
 70
     0
102
RTVSPropertyOp52
 70
     0
102
RTVSPropertyOp53
 70
     0
102
RTVSPropertyOp54
 70
     0
102
RTVSPropertyOp55
 70
     0
102
RTVSPropertyOp56
 70
     0
102
RTVSPropertyOp57
 70
     0
102
RTVSPost2010Prop28
280
     0
102
RTVSPost2010PropOp28
 70
     0
102
RTVSPost2010Prop29
280
     1
102
RTVSPost2010PropOp29
 70
     0
102
RTVSPost2010Prop30
280
     1
102
RTVSPost2010PropOp30
 70
     0
102
RTVSPost2010Prop31
280
     0
102
RTVSPost2010PropOp31
 70
     0
102
RTVSPost2010Prop32
280
     0
102
RTVSPost2010PropOp32
 70
     0
102
RTVSPost2010Prop33
280
     0
102
RTVSPost2010PropOp33
 70
     0
102
RTVSPost2010Prop34
280
     0
102
RTVSPost2010PropOp34
 70
     0
102
RTVSPost2010Prop35
280
     0
102
RTVSPost2010PropOp35
 70
     0
102
RTVSPost2010Prop36
280
     0
102
RTVSPost2010PropOp36
 70
     0
102
RTVSPost2010Prop37
 90
       50
102
RTVSPost2010PropOp37
 70
     0
102
RTVSPost2010Prop38
140
0.0
102
RTVSPost2010PropOp38
 70
     0
102
RTVSPost2010Prop39
140
1.0
102
RTVSPost2010PropOp39
 70
     0
102
RTVSPost2010Prop40
 90
        0
102
RTVSPost2010PropOp40
 70
     0
102
RTVSPost2010Prop41ColorIndex
 90
       18
102
RTVSPost2010Prop41ColorRGB
 90
        0
102
RTVSPost2010PropOp41
 70
     0
102
RTVSPost2010Prop42
 90
       50
102
RTVSPost2010PropOp42
 70
     0
102
RTVSPost2010Prop43
 90
        3
102
RTVSPost2010PropOp43
 70
     0
102
RTVSPost2010Prop44ColorIndex
 90
        5
102
RTVSPost2010Prop44ColorRGB
 90
      255
102
RTVSPost2010PropOp44
 70
     0
102
RTVSPost2010Prop45
280
     0
102
RTVSPost2010PropOp45
 70
     0
102
RTVSPost2010Prop46
 90
       50
102
RTVSPost2010PropOp46
 70
     0
102
RTVSPost2010Prop47
 90
       50
102
RTVSPost2010PropOp47
 70
     0
102
RTVSPost2010Prop48
 90
       50
102
RTVSPost2010PropOp48
 70
     0
102
RTVSPost2010Prop49
280
     0
102
RTVSPost2010PropOp49
 70
     0
102
RTVSPost2010Prop50
 90
       50
102
RTVSPost2010PropOp50
 70
     0
102
RTVSPost2010Prop51ColorIndex
 90
      256
102
RTVSPost2010Prop51ColorRGB
 90
-16777216
102
RTVSPost2010PropOp51
 70
     0
102
RTVSPost2010Prop52
140
1.0
102
RTVSPost2010PropOp52
 70
     0
102
RTVSPost2010Prop53
 90
        2
102
RTVSPost2010PropOp53
 70
     0
102
RTVSPost2010Prop54
  1
strokes_ogs.tif
102
RTVSPost2010PropOp54
 70
     0
102
RTVSPost2010Prop55
280
     0
102
RTVSPost2010PropOp55
 70
     0
102
RTVSPost2010Prop56
140
1.0
102
RTVSPost2010PropOp56
 70
     0
102
RTVSPost2010Prop57
140
1.0
102
RTVSPost2010PropOp57
 70
     0
  0
XRECORD
  5
687
102
{ACAD_REACTORS
330
686
102
}
330
686
100
AcDbXrecord
280
     1
102
RTVSPropertyOp0
 70
     1
102
RTVSPropertyOp1
 70
     1
102
RTVSPropertyOp2
 70
     1
102
RTVSPropertyOp3
 70
     1
102
RTVSPropertyOp4
 70
     1
102
RTVSPropertyOp5
 70
     1
102
RTVSPropertyOp6
 70
     1
102
RTVSPropertyOp7
 70
     1
102
RTVSPropertyOp8
 70
     1
102
RTVSPropertyOp9
 70
     1
102
RTVSPropertyOp10
 70
     1
102
RTVSPropertyOp11
 70
     1
102
RTVSPropertyOp12
 70
     1
102
RTVSPropertyOp13
 70
     1
102
RTVSPropertyOp14
 70
     1
102
RTVSPropertyOp15
 70
     1
102
RTVSPropertyOp16
 70
     1
102
RTVSPropertyOp17
 70
     1
102
RTVSPropertyOp18
 70
     1
102
RTVSPropertyOp19
 70
     1
102
RTVSPropertyOp20
 70
     1
102
RTVSPropertyOp21
 70
     1
102
RTVSPropertyOp22
 70
     1
102
RTVSPropertyOp23
 70
     1
102
RTVSPropertyOp24
 70
     1
102
RTVSPropertyOp25
 70
     1
102
RTVSPropertyOp26
 70
     1
102
RTVSPropertyOp27
 70
     1
102
RTVSPropertyOp28
 70
     1
102
RTVSPropertyOp29
 70
     1
102
RTVSPropertyOp30
 70
     1
102
RTVSPropertyOp31
 70
     1
102
RTVSPropertyOp32
 70
     1
102
RTVSPropertyOp33
 70
     1
102
RTVSPropertyOp34
 70
     1
102
RTVSPropertyOp35
 70
     1
102
RTVSPropertyOp36
 70
     1
102
RTVSPropertyOp37
 70
     1
102
RTVSPropertyOp38
 70
     1
102
RTVSPropertyOp39
 70
     1
102
RTVSPropertyOp40
 70
     1
102
RTVSPropertyOp41
 70
     1
102
RTVSPropertyOp42
 70
     1
102
RTVSPropertyOp43
 70
     1
102
RTVSPropertyOp44
 70
     1
102
RTVSPropertyOp45
 70
     1
102
RTVSPropertyOp46
 70
     1
102
RTVSPropertyOp47
 70
     1
102
RTVSPropertyOp48
 70
     1
102
RTVSPropertyOp49
 70
     1
102
RTVSPropertyOp50
 70
     1
102
RTVSPropertyOp51
 70
     0
102
RTVSPropertyOp52
 70
     0
102
RTVSPropertyOp53
 70
     1
102
RTVSPropertyOp54
 70
     1
102
RTVSPropertyOp55
 70
     1
102
RTVSPropertyOp56
 70
     1
102
RTVSPropertyOp57
 70
     1
102
RTVSPost2010Prop28
280
     0
102
RTVSPost2010PropOp28
 70
     1
102
RTVSPost2010Prop29
280
     1
102
RTVSPost2010PropOp29
 70
     1
102
RTVSPost2010Prop30
280
     1
102
RTVSPost2010PropOp30
 70
     1
102
RTVSPost2010Prop31
280
     0
102
RTVSPost2010PropOp31
 70
     1
102
RTVSPost2010Prop32
280
     0
102
RTVSPost2010PropOp32
 70
     1
102
RTVSPost2010Prop33
280
     0
102
RTVSPost2010PropOp33
 70
     1
102
RTVSPost2010Prop34
280
     0
102
RTVSPost2010PropOp34
 70
     1
102
RTVSPost2010Prop35
280
     0
102
RTVSPost2010PropOp35
 70
     1
102
RTVSPost2010Prop36
280
     0
102
RTVSPost2010PropOp36
 70
     1
102
RTVSPost2010Prop37
 90
       50
102
RTVSPost2010PropOp37
 70
     1
102
RTVSPost2010Prop38
140
0.0
102
RTVSPost2010PropOp38
 70
     1
102
RTVSPost2010Prop39
140
1.0
102
RTVSPost2010PropOp39
 70
     1
102
RTVSPost2010Prop40
 90
        0
102
RTVSPost2010PropOp40
 70
     1
102
RTVSPost2010Prop41ColorIndex
 90
       18
102
RTVSPost2010Prop41ColorRGB
 90
        0
102
RTVSPost2010PropOp41
 70
     1
102
RTVSPost2010Prop42
 90
       50
102
RTVSPost2010PropOp42
 70
     1
102
RTVSPost2010Prop43
 90
        3
102
RTVSPost2010PropOp43
 70
     1
102
RTVSPost2010Prop44ColorIndex
 90
        5
102
RTVSPost2010Prop44ColorRGB
 90
      255
102
RTVSPost2010PropOp44
 70
     1
102
RTVSPost2010Prop45
280
     0
102
RTVSPost2010PropOp45
 70
     1
102
RTVSPost2010Prop46
 90
       50
102
RTVSPost2010PropOp46
 70
     1
102
RTVSPost2010Prop47
 90
       50
102
RTVSPost2010PropOp47
 70
     1
102
RTVSPost2010Prop48
 90
       50
102
RTVSPost2010PropOp48
 70
     1
102
RTVSPost2010Prop49
280
     0
102
RTVSPost2010PropOp49
 70
     1
102
RTVSPost2010Prop50
 90
       50
102
RTVSPost2010PropOp50
 70
     1
102
RTVSPost2010Prop51ColorIndex
 90
      256
102
RTVSPost2010Prop51ColorRGB
 90
-16777216
102
RTVSPost2010PropOp51
 70
     0
102
RTVSPost2010Prop52
140
1.0
102
RTVSPost2010PropOp52
 70
     0
102
RTVSPost2010Prop53
 90
        2
102
RTVSPost2010PropOp53
 70
     1
102
RTVSPost2010Prop54
  1
strokes_ogs.tif
102
RTVSPost2010PropOp54
 70
     1
102
RTVSPost2010Prop55
280
     0
102
RTVSPost2010PropOp55
 70
     1
102
RTVSPost2010Prop56
140
1.0
102
RTVSPost2010PropOp56
 70
     1
102
RTVSPost2010Prop57
140
1.0
102
RTVSPost2010PropOp57
 70
     1
  0
XRECORD
  5
68F
102
{ACAD_REACTORS
330
68E
102
}
330
68E
100
AcDbXrecord
280
     1
102
RTVSPropertyOp0
 70
     0
102
RTVSPropertyOp1
 70
     0
102
RTVSPropertyOp2
 70
     0
102
RTVSPropertyOp3
 70
     0
102
RTVSPropertyOp4
 70
     0
102
RTVSPropertyOp5
 70
     0
102
RTVSPropertyOp6
 70
     0
102
RTVSPropertyOp7
 70
     0
102
RTVSPropertyOp8
 70
     0
102
RTVSPropertyOp9
 70
     0
102
RTVSPropertyOp10
 70
     0
102
RTVSPropertyOp11
 70
     0
102
RTVSPropertyOp12
 70
     0
102
RTVSPropertyOp13
 70
     0
102
RTVSPropertyOp14
 70
     2
102
RTVSPropertyOp15
 70
     0
102
RTVSPropertyOp16
 70
     0
102
RTVSPropertyOp17
 70
     0
102
RTVSPropertyOp18
 70
     0
102
RTVSPropertyOp19
 70
     0
102
RTVSPropertyOp20
 70
     0
102
RTVSPropertyOp21
 70
     0
102
RTVSPropertyOp22
 70
     0
102
RTVSPropertyOp23
 70
     0
102
RTVSPropertyOp24
 70
     0
102
RTVSPropertyOp25
 70
     0
102
RTVSPropertyOp26
 70
     0
102
RTVSPropertyOp27
 70
     0
102
RTVSPropertyOp28
 70
     0
102
RTVSPropertyOp29
 70
     0
102
RTVSPropertyOp30
 70
     0
102
RTVSPropertyOp31
 70
     0
102
RTVSPropertyOp32
 70
     0
102
RTVSPropertyOp33
 70
     0
102
RTVSPropertyOp34
 70
     0
102
RTVSPropertyOp35
 70
     0
102
RTVSPropertyOp36
 70
     0
102
RTVSPropertyOp37
 70
     0
102
RTVSPropertyOp38
 70
     0
102
RTVSPropertyOp39
 70
     0
102
RTVSPropertyOp40
 70
     0
102
RTVSPropertyOp41
 70
     0
102
RTVSPropertyOp42
 70
     0
102
RTVSPropertyOp43
 70
     0
102
RTVSPropertyOp44
 70
     0
102
RTVSPropertyOp45
 70
     0
102
RTVSPropertyOp46
 70
     0
102
RTVSPropertyOp47
 70
     0
102
RTVSPropertyOp48
 70
     0
102
RTVSPropertyOp49
 70
     0
102
RTVSPropertyOp50
 70
     0
102
RTVSPropertyOp51
 70
     0
102
RTVSPropertyOp52
 70
     0
102
RTVSPropertyOp53
 70
     0
102
RTVSPropertyOp54
 70
     0
102
RTVSPropertyOp55
 70
     0
102
RTVSPropertyOp56
 70
     0
102
RTVSPropertyOp57
 70
     0
102
RTVSPost2010Prop28
280
     0
102
RTVSPost2010PropOp28
 70
     0
102
RTVSPost2010Prop29
280
     1
102
RTVSPost2010PropOp29
 70
     0
102
RTVSPost2010Prop30
280
     1
102
RTVSPost2010PropOp30
 70
     0
102
RTVSPost2010Prop31
280
     0
102
RTVSPost2010PropOp31
 70
     0
102
RTVSPost2010Prop32
280
     0
102
RTVSPost2010PropOp32
 70
     0
102
RTVSPost2010Prop33
280
     0
102
RTVSPost2010PropOp33
 70
     0
102
RTVSPost2010Prop34
280
     0
102
RTVSPost2010PropOp34
 70
     0
102
RTVSPost2010Prop35
280
     0
102
RTVSPost2010PropOp35
 70
     0
102
RTVSPost2010Prop36
280
     0
102
RTVSPost2010PropOp36
 70
     0
102
RTVSPost2010Prop37
 90
       50
102
RTVSPost2010PropOp37
 70
     0
102
RTVSPost2010Prop38
140
0.0
102
RTVSPost2010PropOp38
 70
     0
102
RTVSPost2010Prop39
140
1.0
102
RTVSPost2010PropOp39
 70
     0
102
RTVSPost2010Prop40
 90
        0
102
RTVSPost2010PropOp40
 70
     0
102
RTVSPost2010Prop41ColorIndex
 90
       18
102
RTVSPost2010Prop41ColorRGB
 90
        0
102
RTVSPost2010PropOp41
 70
     0
102
RTVSPost2010Prop42
 90
       50
102
RTVSPost2010PropOp42
 70
     0
102
RTVSPost2010Prop43
 90
        3
102
RTVSPost2010PropOp43
 70
     0
102
RTVSPost2010Prop44ColorIndex
 90
        5
102
RTVSPost2010Prop44ColorRGB
 90
      255
102
RTVSPost2010PropOp44
 70
     0
102
RTVSPost2010Prop45
280
     0
102
RTVSPost2010PropOp45
 70
     0
102
RTVSPost2010Prop46
 90
       50
102
RTVSPost2010PropOp46
 70
     0
102
RTVSPost2010Prop47
 90
       50
102
RTVSPost2010PropOp47
 70
     0
102
RTVSPost2010Prop48
 90
       50
102
RTVSPost2010PropOp48
 70
     0
102
RTVSPost2010Prop49
280
     0
102
RTVSPost2010PropOp49
 70
     0
102
RTVSPost2010Prop50
 90
       50
102
RTVSPost2010PropOp50
 70
     0
102
RTVSPost2010Prop51ColorIndex
 90
      256
102
RTVSPost2010Prop51ColorRGB
 90
-16777216
102
RTVSPost2010PropOp51
 70
     0
102
RTVSPost2010Prop52
140
1.0
102
RTVSPost2010PropOp52
 70
     0
102
RTVSPost2010Prop53
 90
        2
102
RTVSPost2010PropOp53
 70
     0
102
RTVSPost2010Prop54
  1
strokes_ogs.tif
102
RTVSPost2010PropOp54
 70
     0
102
RTVSPost2010Prop55
280
     0
102
RTVSPost2010PropOp55
 70
     0
102
RTVSPost2010Prop56
140
1.0
102
RTVSPost2010PropOp56
 70
     0
102
RTVSPost2010Prop57
140
1.0
102
RTVSPost2010PropOp57
 70
     0
  0
XRECORD
  5
67D
102
{ACAD_REACTORS
330
67C
102
}
330
67C
100
AcDbXrecord
280
     1
102
RTVSPropertyOp0
 70
     1
102
RTVSPropertyOp1
 70
     1
102
RTVSPropertyOp2
 70
     1
102
RTVSPropertyOp3
 70
     1
102
RTVSPropertyOp4
 70
     1
102
RTVSPropertyOp5
 70
     1
102
RTVSPropertyOp6
 70
     1
102
RTVSPropertyOp7
 70
     1
102
RTVSPropertyOp8
 70
     1
102
RTVSPropertyOp9
 70
     1
102
RTVSPropertyOp10
 70
     1
102
RTVSPropertyOp11
 70
     1
102
RTVSPropertyOp12
 70
     1
102
RTVSPropertyOp13
 70
     1
102
RTVSPropertyOp14
 70
     1
102
RTVSPropertyOp15
 70
     1
102
RTVSPropertyOp16
 70
     1
102
RTVSPropertyOp17
 70
     1
102
RTVSPropertyOp18
 70
     1
102
RTVSPropertyOp19
 70
     1
102
RTVSPropertyOp20
 70
     1
102
RTVSPropertyOp21
 70
     1
102
RTVSPropertyOp22
 70
     1
102
RTVSPropertyOp23
 70
     1
102
RTVSPropertyOp24
 70
     1
102
RTVSPropertyOp25
 70
     1
102
RTVSPropertyOp26
 70
     1
102
RTVSPropertyOp27
 70
     1
102
RTVSPropertyOp28
 70
     1
102
RTVSPropertyOp29
 70
     1
102
RTVSPropertyOp30
 70
     1
102
RTVSPropertyOp31
 70
     1
102
RTVSPropertyOp32
 70
     1
102
RTVSPropertyOp33
 70
     1
102
RTVSPropertyOp34
 70
     1
102
RTVSPropertyOp35
 70
     1
102
RTVSPropertyOp36
 70
     1
102
RTVSPropertyOp37
 70
     1
102
RTVSPropertyOp38
 70
     1
102
RTVSPropertyOp39
 70
     1
102
RTVSPropertyOp40
 70
     1
102
RTVSPropertyOp41
 70
     1
102
RTVSPropertyOp42
 70
     1
102
RTVSPropertyOp43
 70
     1
102
RTVSPropertyOp44
 70
     1
102
RTVSPropertyOp45
 70
     1
102
RTVSPropertyOp46
 70
     1
102
RTVSPropertyOp47
 70
     1
102
RTVSPropertyOp48
 70
     1
102
RTVSPropertyOp49
 70
     1
102
RTVSPropertyOp50
 70
     1
102
RTVSPropertyOp51
 70
     0
102
RTVSPropertyOp52
 70
     0
102
RTVSPropertyOp53
 70
     1
102
RTVSPropertyOp54
 70
     1
102
RTVSPropertyOp55
 70
     1
102
RTVSPropertyOp56
 70
     1
102
RTVSPropertyOp57
 70
     1
102
RTVSPost2010Prop28
280
     0
102
RTVSPost2010PropOp28
 70
     1
102
RTVSPost2010Prop29
280
     1
102
RTVSPost2010PropOp29
 70
     1
102
RTVSPost2010Prop30
280
     1
102
RTVSPost2010PropOp30
 70
     1
102
RTVSPost2010Prop31
280
     0
102
RTVSPost2010PropOp31
 70
     1
102
RTVSPost2010Prop32
280
     0
102
RTVSPost2010PropOp32
 70
     1
102
RTVSPost2010Prop33
280
     0
102
RTVSPost2010PropOp33
 70
     1
102
RTVSPost2010Prop34
280
     0
102
RTVSPost2010PropOp34
 70
     1
102
RTVSPost2010Prop35
280
     0
102
RTVSPost2010PropOp35
 70
     1
102
RTVSPost2010Prop36
280
     0
102
RTVSPost2010PropOp36
 70
     1
102
RTVSPost2010Prop37
 90
       50
102
RTVSPost2010PropOp37
 70
     1
102
RTVSPost2010Prop38
140
0.0
102
RTVSPost2010PropOp38
 70
     1
102
RTVSPost2010Prop39
140
1.0
102
RTVSPost2010PropOp39
 70
     1
102
RTVSPost2010Prop40
 90
        0
102
RTVSPost2010PropOp40
 70
     1
102
RTVSPost2010Prop41ColorIndex
 90
       18
102
RTVSPost2010Prop41ColorRGB
 90
        0
102
RTVSPost2010PropOp41
 70
     1
102
RTVSPost2010Prop42
 90
       50
102
RTVSPost2010PropOp42
 70
     1
102
RTVSPost2010Prop43
 90
        3
102
RTVSPost2010PropOp43
 70
     1
102
RTVSPost2010Prop44ColorIndex
 90
        5
102
RTVSPost2010Prop44ColorRGB
 90
      255
102
RTVSPost2010PropOp44
 70
     1
102
RTVSPost2010Prop45
280
     0
102
RTVSPost2010PropOp45
 70
     1
102
RTVSPost2010Prop46
 90
       50
102
RTVSPost2010PropOp46
 70
     1
102
RTVSPost2010Prop47
 90
       50
102
RTVSPost2010PropOp47
 70
     1
102
RTVSPost2010Prop48
 90
       50
102
RTVSPost2010PropOp48
 70
     1
102
RTVSPost2010Prop49
280
     0
102
RTVSPost2010PropOp49
 70
     1
102
RTVSPost2010Prop50
 90
       50
102
RTVSPost2010PropOp50
 70
     1
102
RTVSPost2010Prop51ColorIndex
 90
      256
102
RTVSPost2010Prop51ColorRGB
 90
-16777216
102
RTVSPost2010PropOp51
 70
     0
102
RTVSPost2010Prop52
140
1.0
102
RTVSPost2010PropOp52
 70
     0
102
RTVSPost2010Prop53
 90
        2
102
RTVSPost2010PropOp53
 70
     1
102
RTVSPost2010Prop54
  1
strokes_ogs.tif
102
RTVSPost2010PropOp54
 70
     1
102
RTVSPost2010Prop55
280
     0
102
RTVSPost2010PropOp55
 70
     1
102
RTVSPost2010Prop56
140
1.0
102
RTVSPost2010PropOp56
 70
     1
102
RTVSPost2010Prop57
140
1.0
102
RTVSPost2010PropOp57
 70
     1
  0
XRECORD
  5
69B
102
{ACAD_REACTORS
330
69A
102
}
330
69A
100
AcDbXrecord
280
     1
102
RTVSPropertyOp0
 70
     1
102
RTVSPropertyOp1
 70
     1
102
RTVSPropertyOp2
 70
     1
102
RTVSPropertyOp3
 70
     1
102
RTVSPropertyOp4
 70
     1
102
RTVSPropertyOp5
 70
     1
102
RTVSPropertyOp6
 70
     1
102
RTVSPropertyOp7
 70
     1
102
RTVSPropertyOp8
 70
     1
102
RTVSPropertyOp9
 70
     1
102
RTVSPropertyOp10
 70
     1
102
RTVSPropertyOp11
 70
     1
102
RTVSPropertyOp12
 70
     1
102
RTVSPropertyOp13
 70
     1
102
RTVSPropertyOp14
 70
     1
102
RTVSPropertyOp15
 70
     1
102
RTVSPropertyOp16
 70
     1
102
RTVSPropertyOp17
 70
     1
102
RTVSPropertyOp18
 70
     1
102
RTVSPropertyOp19
 70
     1
102
RTVSPropertyOp20
 70
     1
102
RTVSPropertyOp21
 70
     1
102
RTVSPropertyOp22
 70
     1
102
RTVSPropertyOp23
 70
     1
102
RTVSPropertyOp24
 70
     1
102
RTVSPropertyOp25
 70
     1
102
RTVSPropertyOp26
 70
     1
102
RTVSPropertyOp27
 70
     1
102
RTVSPropertyOp28
 70
     1
102
RTVSPropertyOp29
 70
     1
102
RTVSPropertyOp30
 70
     1
102
RTVSPropertyOp31
 70
     1
102
RTVSPropertyOp32
 70
     1
102
RTVSPropertyOp33
 70
     1
102
RTVSPropertyOp34
 70
     1
102
RTVSPropertyOp35
 70
     1
102
RTVSPropertyOp36
 70
     1
102
RTVSPropertyOp37
 70
     1
102
RTVSPropertyOp38
 70
     1
102
RTVSPropertyOp39
 70
     1
102
RTVSPropertyOp40
 70
     1
102
RTVSPropertyOp41
 70
     1
102
RTVSPropertyOp42
 70
     1
102
RTVSPropertyOp43
 70
     1
102
RTVSPropertyOp44
 70
     1
102
RTVSPropertyOp45
 70
     1
102
RTVSPropertyOp46
 70
     1
102
RTVSPropertyOp47
 70
     1
102
RTVSPropertyOp48
 70
     1
102
RTVSPropertyOp49
 70
     1
102
RTVSPropertyOp50
 70
     1
102
RTVSPropertyOp51
 70
     0
102
RTVSPropertyOp52
 70
     0
102
RTVSPropertyOp53
 70
     1
102
RTVSPropertyOp54
 70
     1
102
RTVSPropertyOp55
 70
     1
102
RTVSPropertyOp56
 70
     1
102
RTVSPropertyOp57
 70
     1
102
RTVSPost2010Prop28
280
     0
102
RTVSPost2010PropOp28
 70
     1
102
RTVSPost2010Prop29
280
     1
102
RTVSPost2010PropOp29
 70
     1
102
RTVSPost2010Prop30
280
     1
102
RTVSPost2010PropOp30
 70
     1
102
RTVSPost2010Prop31
280
     0
102
RTVSPost2010PropOp31
 70
     1
102
RTVSPost2010Prop32
280
     0
102
RTVSPost2010PropOp32
 70
     1
102
RTVSPost2010Prop33
280
     0
102
RTVSPost2010PropOp33
 70
     1
102
RTVSPost2010Prop34
280
     0
102
RTVSPost2010PropOp34
 70
     1
102
RTVSPost2010Prop35
280
     0
102
RTVSPost2010PropOp35
 70
     1
102
RTVSPost2010Prop36
280
     0
102
RTVSPost2010PropOp36
 70
     1
102
RTVSPost2010Prop37
 90
       50
102
RTVSPost2010PropOp37
 70
     1
102
RTVSPost2010Prop38
140
0.0
102
RTVSPost2010PropOp38
 70
     1
102
RTVSPost2010Prop39
140
1.0
102
RTVSPost2010PropOp39
 70
     1
102
RTVSPost2010Prop40
 90
        0
102
RTVSPost2010PropOp40
 70
     1
102
RTVSPost2010Prop41ColorIndex
 90
       18
102
RTVSPost2010Prop41ColorRGB
 90
        0
102
RTVSPost2010PropOp41
 70
     1
102
RTVSPost2010Prop42
 90
       50
102
RTVSPost2010PropOp42
 70
     1
102
RTVSPost2010Prop43
 90
        3
102
RTVSPost2010PropOp43
 70
     1
102
RTVSPost2010Prop44ColorIndex
 90
        5
102
RTVSPost2010Prop44ColorRGB
 90
      255
102
RTVSPost2010PropOp44
 70
     1
102
RTVSPost2010Prop45
280
     0
102
RTVSPost2010PropOp45
 70
     1
102
RTVSPost2010Prop46
 90
       50
102
RTVSPost2010PropOp46
 70
     1
102
RTVSPost2010Prop47
 90
       50
102
RTVSPost2010PropOp47
 70
     1
102
RTVSPost2010Prop48
 90
       50
102
RTVSPost2010PropOp48
 70
     1
102
RTVSPost2010Prop49
280
     0
102
RTVSPost2010PropOp49
 70
     1
102
RTVSPost2010Prop50
 90
       50
102
RTVSPost2010PropOp50
 70
     1
102
RTVSPost2010Prop51ColorIndex
 90
      256
102
RTVSPost2010Prop51ColorRGB
 90
-16777216
102
RTVSPost2010PropOp51
 70
     0
102
RTVSPost2010Prop52
140
1.0
102
RTVSPost2010PropOp52
 70
     0
102
RTVSPost2010Prop53
 90
        2
102
RTVSPost2010PropOp53
 70
     1
102
RTVSPost2010Prop54
  1
strokes_ogs.tif
102
RTVSPost2010PropOp54
 70
     1
102
RTVSPost2010Prop55
280
     0
102
RTVSPost2010PropOp55
 70
     1
102
RTVSPost2010Prop56
140
1.0
102
RTVSPost2010PropOp56
 70
     1
102
RTVSPost2010Prop57
140
1.0
102
RTVSPost2010PropOp57
 70
     1
  0
XRECORD
  5
699
102
{ACAD_REACTORS
330
698
102
}
330
698
100
AcDbXrecord
280
     1
102
RTVSPropertyOp0
 70
     1
102
RTVSPropertyOp1
 70
     1
102
RTVSPropertyOp2
 70
     1
102
RTVSPropertyOp3
 70
     1
102
RTVSPropertyOp4
 70
     1
102
RTVSPropertyOp5
 70
     1
102
RTVSPropertyOp6
 70
     1
102
RTVSPropertyOp7
 70
     1
102
RTVSPropertyOp8
 70
     1
102
RTVSPropertyOp9
 70
     1
102
RTVSPropertyOp10
 70
     1
102
RTVSPropertyOp11
 70
     1
102
RTVSPropertyOp12
 70
     1
102
RTVSPropertyOp13
 70
     1
102
RTVSPropertyOp14
 70
     1
102
RTVSPropertyOp15
 70
     1
102
RTVSPropertyOp16
 70
     1
102
RTVSPropertyOp17
 70
     1
102
RTVSPropertyOp18
 70
     1
102
RTVSPropertyOp19
 70
     1
102
RTVSPropertyOp20
 70
     1
102
RTVSPropertyOp21
 70
     1
102
RTVSPropertyOp22
 70
     1
102
RTVSPropertyOp23
 70
     1
102
RTVSPropertyOp24
 70
     1
102
RTVSPropertyOp25
 70
     1
102
RTVSPropertyOp26
 70
     1
102
RTVSPropertyOp27
 70
     1
102
RTVSPropertyOp28
 70
     1
102
RTVSPropertyOp29
 70
     1
102
RTVSPropertyOp30
 70
     1
102
RTVSPropertyOp31
 70
     1
102
RTVSPropertyOp32
 70
     1
102
RTVSPropertyOp33
 70
     1
102
RTVSPropertyOp34
 70
     1
102
RTVSPropertyOp35
 70
     1
102
RTVSPropertyOp36
 70
     1
102
RTVSPropertyOp37
 70
     1
102
RTVSPropertyOp38
 70
     1
102
RTVSPropertyOp39
 70
     1
102
RTVSPropertyOp40
 70
     1
102
RTVSPropertyOp41
 70
     1
102
RTVSPropertyOp42
 70
     1
102
RTVSPropertyOp43
 70
     1
102
RTVSPropertyOp44
 70
     1
102
RTVSPropertyOp45
 70
     1
102
RTVSPropertyOp46
 70
     1
102
RTVSPropertyOp47
 70
     1
102
RTVSPropertyOp48
 70
     1
102
RTVSPropertyOp49
 70
     1
102
RTVSPropertyOp50
 70
     1
102
RTVSPropertyOp51
 70
     0
102
RTVSPropertyOp52
 70
     0
102
RTVSPropertyOp53
 70
     1
102
RTVSPropertyOp54
 70
     1
102
RTVSPropertyOp55
 70
     1
102
RTVSPropertyOp56
 70
     1
102
RTVSPropertyOp57
 70
     1
102
RTVSPost2010Prop28
280
     0
102
RTVSPost2010PropOp28
 70
     1
102
RTVSPost2010Prop29
280
     1
102
RTVSPost2010PropOp29
 70
     1
102
RTVSPost2010Prop30
280
     1
102
RTVSPost2010PropOp30
 70
     1
102
RTVSPost2010Prop31
280
     0
102
RTVSPost2010PropOp31
 70
     1
102
RTVSPost2010Prop32
280
     0
102
RTVSPost2010PropOp32
 70
     1
102
RTVSPost2010Prop33
280
     0
102
RTVSPost2010PropOp33
 70
     1
102
RTVSPost2010Prop34
280
     0
102
RTVSPost2010PropOp34
 70
     1
102
RTVSPost2010Prop35
280
     0
102
RTVSPost2010PropOp35
 70
     1
102
RTVSPost2010Prop36
280
     0
102
RTVSPost2010PropOp36
 70
     1
102
RTVSPost2010Prop37
 90
       50
102
RTVSPost2010PropOp37
 70
     1
102
RTVSPost2010Prop38
140
0.0
102
RTVSPost2010PropOp38
 70
     1
102
RTVSPost2010Prop39
140
1.0
102
RTVSPost2010PropOp39
 70
     1
102
RTVSPost2010Prop40
 90
        0
102
RTVSPost2010PropOp40
 70
     1
102
RTVSPost2010Prop41ColorIndex
 90
       18
102
RTVSPost2010Prop41ColorRGB
 90
        0
102
RTVSPost2010PropOp41
 70
     1
102
RTVSPost2010Prop42
 90
       50
102
RTVSPost2010PropOp42
 70
     1
102
RTVSPost2010Prop43
 90
        3
102
RTVSPost2010PropOp43
 70
     1
102
RTVSPost2010Prop44ColorIndex
 90
        5
102
RTVSPost2010Prop44ColorRGB
 90
      255
102
RTVSPost2010PropOp44
 70
     1
102
RTVSPost2010Prop45
280
     0
102
RTVSPost2010PropOp45
 70
     1
102
RTVSPost2010Prop46
 90
       50
102
RTVSPost2010PropOp46
 70
     1
102
RTVSPost2010Prop47
 90
       50
102
RTVSPost2010PropOp47
 70
     1
102
RTVSPost2010Prop48
 90
       50
102
RTVSPost2010PropOp48
 70
     1
102
RTVSPost2010Prop49
280
     0
102
RTVSPost2010PropOp49
 70
     1
102
RTVSPost2010Prop50
 90
       50
102
RTVSPost2010PropOp50
 70
     1
102
RTVSPost2010Prop51ColorIndex
 90
      256
102
RTVSPost2010Prop51ColorRGB
 90
-16777216
102
RTVSPost2010PropOp51
 70
     0
102
RTVSPost2010Prop52
140
1.0
102
RTVSPost2010PropOp52
 70
     0
102
RTVSPost2010Prop53
 90
        2
102
RTVSPost2010PropOp53
 70
     1
102
RTVSPost2010Prop54
  1
strokes_ogs.tif
102
RTVSPost2010PropOp54
 70
     1
102
RTVSPost2010Prop55
280
     0
102
RTVSPost2010PropOp55
 70
     1
102
RTVSPost2010Prop56
140
1.0
102
RTVSPost2010PropOp56
 70
     1
102
RTVSPost2010Prop57
140
1.0
102
RTVSPost2010PropOp57
 70
     1
  0
XRECORD
  5
693
102
{ACAD_REACTORS
330
692
102
}
330
692
100
AcDbXrecord
280
     1
102
RTVSPropertyOp0
 70
     1
102
RTVSPropertyOp1
 70
     1
102
RTVSPropertyOp2
 70
     1
102
RTVSPropertyOp3
 70
     1
102
RTVSPropertyOp4
 70
     1
102
RTVSPropertyOp5
 70
     1
102
RTVSPropertyOp6
 70
     1
102
RTVSPropertyOp7
 70
     1
102
RTVSPropertyOp8
 70
     1
102
RTVSPropertyOp9
 70
     1
102
RTVSPropertyOp10
 70
     1
102
RTVSPropertyOp11
 70
     1
102
RTVSPropertyOp12
 70
     1
102
RTVSPropertyOp13
 70
     1
102
RTVSPropertyOp14
 70
     1
102
RTVSPropertyOp15
 70
     1
102
RTVSPropertyOp16
 70
     1
102
RTVSPropertyOp17
 70
     1
102
RTVSPropertyOp18
 70
     1
102
RTVSPropertyOp19
 70
     1
102
RTVSPropertyOp20
 70
     1
102
RTVSPropertyOp21
 70
     1
102
RTVSPropertyOp22
 70
     1
102
RTVSPropertyOp23
 70
     1
102
RTVSPropertyOp24
 70
     1
102
RTVSPropertyOp25
 70
     1
102
RTVSPropertyOp26
 70
     1
102
RTVSPropertyOp27
 70
     1
102
RTVSPropertyOp28
 70
     1
102
RTVSPropertyOp29
 70
     1
102
RTVSPropertyOp30
 70
     1
102
RTVSPropertyOp31
 70
     1
102
RTVSPropertyOp32
 70
     1
102
RTVSPropertyOp33
 70
     1
102
RTVSPropertyOp34
 70
     1
102
RTVSPropertyOp35
 70
     1
102
RTVSPropertyOp36
 70
     1
102
RTVSPropertyOp37
 70
     1
102
RTVSPropertyOp38
 70
     1
102
RTVSPropertyOp39
 70
     1
102
RTVSPropertyOp40
 70
     1
102
RTVSPropertyOp41
 70
     1
102
RTVSPropertyOp42
 70
     1
102
RTVSPropertyOp43
 70
     1
102
RTVSPropertyOp44
 70
     1
102
RTVSPropertyOp45
 70
     1
102
RTVSPropertyOp46
 70
     1
102
RTVSPropertyOp47
 70
     1
102
RTVSPropertyOp48
 70
     1
102
RTVSPropertyOp49
 70
     1
102
RTVSPropertyOp50
 70
     1
102
RTVSPropertyOp51
 70
     0
102
RTVSPropertyOp52
 70
     0
102
RTVSPropertyOp53
 70
     1
102
RTVSPropertyOp54
 70
     1
102
RTVSPropertyOp55
 70
     1
102
RTVSPropertyOp56
 70
     1
102
RTVSPropertyOp57
 70
     1
102
RTVSPost2010Prop28
280
     0
102
RTVSPost2010PropOp28
 70
     1
102
RTVSPost2010Prop29
280
     1
102
RTVSPost2010PropOp29
 70
     1
102
RTVSPost2010Prop30
280
     1
102
RTVSPost2010PropOp30
 70
     1
102
RTVSPost2010Prop31
280
     0
102
RTVSPost2010PropOp31
 70
     1
102
RTVSPost2010Prop32
280
     0
102
RTVSPost2010PropOp32
 70
     1
102
RTVSPost2010Prop33
280
     0
102
RTVSPost2010PropOp33
 70
     1
102
RTVSPost2010Prop34
280
     0
102
RTVSPost2010PropOp34
 70
     1
102
RTVSPost2010Prop35
280
     0
102
RTVSPost2010PropOp35
 70
     1
102
RTVSPost2010Prop36
280
     0
102
RTVSPost2010PropOp36
 70
     1
102
RTVSPost2010Prop37
 90
       50
102
RTVSPost2010PropOp37
 70
     1
102
RTVSPost2010Prop38
140
0.0
102
RTVSPost2010PropOp38
 70
     1
102
RTVSPost2010Prop39
140
1.0
102
RTVSPost2010PropOp39
 70
     1
102
RTVSPost2010Prop40
 90
        0
102
RTVSPost2010PropOp40
 70
     1
102
RTVSPost2010Prop41ColorIndex
 90
       18
102
RTVSPost2010Prop41ColorRGB
 90
        0
102
RTVSPost2010PropOp41
 70
     1
102
RTVSPost2010Prop42
 90
       50
102
RTVSPost2010PropOp42
 70
     1
102
RTVSPost2010Prop43
 90
        3
102
RTVSPost2010PropOp43
 70
     1
102
RTVSPost2010Prop44ColorIndex
 90
        5
102
RTVSPost2010Prop44ColorRGB
 90
      255
102
RTVSPost2010PropOp44
 70
     1
102
RTVSPost2010Prop45
280
     0
102
RTVSPost2010PropOp45
 70
     1
102
RTVSPost2010Prop46
 90
       50
102
RTVSPost2010PropOp46
 70
     1
102
RTVSPost2010Prop47
 90
       50
102
RTVSPost2010PropOp47
 70
     1
102
RTVSPost2010Prop48
 90
       50
102
RTVSPost2010PropOp48
 70
     1
102
RTVSPost2010Prop49
280
     0
102
RTVSPost2010PropOp49
 70
     1
102
RTVSPost2010Prop50
 90
       50
102
RTVSPost2010PropOp50
 70
     1
102
RTVSPost2010Prop51ColorIndex
 90
      256
102
RTVSPost2010Prop51ColorRGB
 90
-16777216
102
RTVSPost2010PropOp51
 70
     0
102
RTVSPost2010Prop52
140
1.0
102
RTVSPost2010PropOp52
 70
     0
102
RTVSPost2010Prop53
 90
        2
102
RTVSPost2010PropOp53
 70
     1
102
RTVSPost2010Prop54
  1
strokes_ogs.tif
102
RTVSPost2010PropOp54
 70
     1
102
RTVSPost2010Prop55
280
     0
102
RTVSPost2010PropOp55
 70
     1
102
RTVSPost2010Prop56
140
1.0
102
RTVSPost2010PropOp56
 70
     1
102
RTVSPost2010Prop57
140
1.0
102
RTVSPost2010PropOp57
 70
     1
  0
XRECORD
  5
695
102
{ACAD_REACTORS
330
694
102
}
330
694
100
AcDbXrecord
280
     1
102
RTVSPropertyOp0
 70
     1
102
RTVSPropertyOp1
 70
     1
102
RTVSPropertyOp2
 70
     1
102
RTVSPropertyOp3
 70
     1
102
RTVSPropertyOp4
 70
     1
102
RTVSPropertyOp5
 70
     1
102
RTVSPropertyOp6
 70
     1
102
RTVSPropertyOp7
 70
     1
102
RTVSPropertyOp8
 70
     1
102
RTVSPropertyOp9
 70
     1
102
RTVSPropertyOp10
 70
     1
102
RTVSPropertyOp11
 70
     1
102
RTVSPropertyOp12
 70
     1
102
RTVSPropertyOp13
 70
     1
102
RTVSPropertyOp14
 70
     1
102
RTVSPropertyOp15
 70
     1
102
RTVSPropertyOp16
 70
     1
102
RTVSPropertyOp17
 70
     1
102
RTVSPropertyOp18
 70
     1
102
RTVSPropertyOp19
 70
     1
102
RTVSPropertyOp20
 70
     1
102
RTVSPropertyOp21
 70
     1
102
RTVSPropertyOp22
 70
     1
102
RTVSPropertyOp23
 70
     1
102
RTVSPropertyOp24
 70
     1
102
RTVSPropertyOp25
 70
     1
102
RTVSPropertyOp26
 70
     1
102
RTVSPropertyOp27
 70
     1
102
RTVSPropertyOp28
 70
     1
102
RTVSPropertyOp29
 70
     1
102
RTVSPropertyOp30
 70
     1
102
RTVSPropertyOp31
 70
     1
102
RTVSPropertyOp32
 70
     1
102
RTVSPropertyOp33
 70
     1
102
RTVSPropertyOp34
 70
     1
102
RTVSPropertyOp35
 70
     1
102
RTVSPropertyOp36
 70
     1
102
RTVSPropertyOp37
 70
     1
102
RTVSPropertyOp38
 70
     1
102
RTVSPropertyOp39
 70
     1
102
RTVSPropertyOp40
 70
     1
102
RTVSPropertyOp41
 70
     1
102
RTVSPropertyOp42
 70
     1
102
RTVSPropertyOp43
 70
     1
102
RTVSPropertyOp44
 70
     1
102
RTVSPropertyOp45
 70
     1
102
RTVSPropertyOp46
 70
     1
102
RTVSPropertyOp47
 70
     1
102
RTVSPropertyOp48
 70
     1
102
RTVSPropertyOp49
 70
     1
102
RTVSPropertyOp50
 70
     1
102
RTVSPropertyOp51
 70
     0
102
RTVSPropertyOp52
 70
     0
102
RTVSPropertyOp53
 70
     1
102
RTVSPropertyOp54
 70
     1
102
RTVSPropertyOp55
 70
     1
102
RTVSPropertyOp56
 70
     1
102
RTVSPropertyOp57
 70
     1
102
RTVSPost2010Prop28
280
     0
102
RTVSPost2010PropOp28
 70
     1
102
RTVSPost2010Prop29
280
     1
102
RTVSPost2010PropOp29
 70
     1
102
RTVSPost2010Prop30
280
     1
102
RTVSPost2010PropOp30
 70
     1
102
RTVSPost2010Prop31
280
     0
102
RTVSPost2010PropOp31
 70
     1
102
RTVSPost2010Prop32
280
     0
102
RTVSPost2010PropOp32
 70
     1
102
RTVSPost2010Prop33
280
     0
102
RTVSPost2010PropOp33
 70
     1
102
RTVSPost2010Prop34
280
     0
102
RTVSPost2010PropOp34
 70
     1
102
RTVSPost2010Prop35
280
     0
102
RTVSPost2010PropOp35
 70
     1
102
RTVSPost2010Prop36
280
     0
102
RTVSPost2010PropOp36
 70
     1
102
RTVSPost2010Prop37
 90
       50
102
RTVSPost2010PropOp37
 70
     1
102
RTVSPost2010Prop38
140
0.0
102
RTVSPost2010PropOp38
 70
     1
102
RTVSPost2010Prop39
140
1.0
102
RTVSPost2010PropOp39
 70
     1
102
RTVSPost2010Prop40
 90
        0
102
RTVSPost2010PropOp40
 70
     1
102
RTVSPost2010Prop41ColorIndex
 90
       18
102
RTVSPost2010Prop41ColorRGB
 90
        0
102
RTVSPost2010PropOp41
 70
     1
102
RTVSPost2010Prop42
 90
       50
102
RTVSPost2010PropOp42
 70
     1
102
RTVSPost2010Prop43
 90
        3
102
RTVSPost2010PropOp43
 70
     1
102
RTVSPost2010Prop44ColorIndex
 90
        5
102
RTVSPost2010Prop44ColorRGB
 90
      255
102
RTVSPost2010PropOp44
 70
     1
102
RTVSPost2010Prop45
280
     0
102
RTVSPost2010PropOp45
 70
     1
102
RTVSPost2010Prop46
 90
       50
102
RTVSPost2010PropOp46
 70
     1
102
RTVSPost2010Prop47
 90
       50
102
RTVSPost2010PropOp47
 70
     1
102
RTVSPost2010Prop48
 90
       50
102
RTVSPost2010PropOp48
 70
     1
102
RTVSPost2010Prop49
280
     0
102
RTVSPost2010PropOp49
 70
     1
102
RTVSPost2010Prop50
 90
       50
102
RTVSPost2010PropOp50
 70
     1
102
RTVSPost2010Prop51ColorIndex
 90
      256
102
RTVSPost2010Prop51ColorRGB
 90
-16777216
102
RTVSPost2010PropOp51
 70
     0
102
RTVSPost2010Prop52
140
1.0
102
RTVSPost2010PropOp52
 70
     0
102
RTVSPost2010Prop53
 90
        2
102
RTVSPost2010PropOp53
 70
     1
102
RTVSPost2010Prop54
  1
strokes_ogs.tif
102
RTVSPost2010PropOp54
 70
     1
102
RTVSPost2010Prop55
280
     0
102
RTVSPost2010PropOp55
 70
     1
102
RTVSPost2010Prop56
140
1.0
102
RTVSPost2010PropOp56
 70
     1
102
RTVSPost2010Prop57
140
1.0
102
RTVSPost2010PropOp57
 70
     1
  0
XRECORD
  5
685
102
{ACAD_REACTORS
330
684
102
}
330
684
100
AcDbXrecord
280
     1
102
RTVSPropertyOp0
 70
     1
102
RTVSPropertyOp1
 70
     1
102
RTVSPropertyOp2
 70
     1
102
RTVSPropertyOp3
 70
     1
102
RTVSPropertyOp4
 70
     1
102
RTVSPropertyOp5
 70
     1
102
RTVSPropertyOp6
 70
     1
102
RTVSPropertyOp7
 70
     1
102
RTVSPropertyOp8
 70
     1
102
RTVSPropertyOp9
 70
     1
102
RTVSPropertyOp10
 70
     1
102
RTVSPropertyOp11
 70
     1
102
RTVSPropertyOp12
 70
     1
102
RTVSPropertyOp13
 70
     1
102
RTVSPropertyOp14
 70
     1
102
RTVSPropertyOp15
 70
     1
102
RTVSPropertyOp16
 70
     1
102
RTVSPropertyOp17
 70
     1
102
RTVSPropertyOp18
 70
     1
102
RTVSPropertyOp19
 70
     1
102
RTVSPropertyOp20
 70
     1
102
RTVSPropertyOp21
 70
     1
102
RTVSPropertyOp22
 70
     1
102
RTVSPropertyOp23
 70
     1
102
RTVSPropertyOp24
 70
     1
102
RTVSPropertyOp25
 70
     1
102
RTVSPropertyOp26
 70
     1
102
RTVSPropertyOp27
 70
     1
102
RTVSPropertyOp28
 70
     1
102
RTVSPropertyOp29
 70
     1
102
RTVSPropertyOp30
 70
     1
102
RTVSPropertyOp31
 70
     1
102
RTVSPropertyOp32
 70
     1
102
RTVSPropertyOp33
 70
     1
102
RTVSPropertyOp34
 70
     1
102
RTVSPropertyOp35
 70
     1
102
RTVSPropertyOp36
 70
     1
102
RTVSPropertyOp37
 70
     1
102
RTVSPropertyOp38
 70
     1
102
RTVSPropertyOp39
 70
     1
102
RTVSPropertyOp40
 70
     1
102
RTVSPropertyOp41
 70
     1
102
RTVSPropertyOp42
 70
     1
102
RTVSPropertyOp43
 70
     1
102
RTVSPropertyOp44
 70
     1
102
RTVSPropertyOp45
 70
     1
102
RTVSPropertyOp46
 70
     1
102
RTVSPropertyOp47
 70
     1
102
RTVSPropertyOp48
 70
     1
102
RTVSPropertyOp49
 70
     1
102
RTVSPropertyOp50
 70
     1
102
RTVSPropertyOp51
 70
     0
102
RTVSPropertyOp52
 70
     0
102
RTVSPropertyOp53
 70
     1
102
RTVSPropertyOp54
 70
     1
102
RTVSPropertyOp55
 70
     1
102
RTVSPropertyOp56
 70
     1
102
RTVSPropertyOp57
 70
     1
102
RTVSPost2010Prop28
280
     0
102
RTVSPost2010PropOp28
 70
     1
102
RTVSPost2010Prop29
280
     1
102
RTVSPost2010PropOp29
 70
     1
102
RTVSPost2010Prop30
280
     1
102
RTVSPost2010PropOp30
 70
     1
102
RTVSPost2010Prop31
280
     0
102
RTVSPost2010PropOp31
 70
     1
102
RTVSPost2010Prop32
280
     0
102
RTVSPost2010PropOp32
 70
     1
102
RTVSPost2010Prop33
280
     0
102
RTVSPost2010PropOp33
 70
     1
102
RTVSPost2010Prop34
280
     0
102
RTVSPost2010PropOp34
 70
     1
102
RTVSPost2010Prop35
280
     0
102
RTVSPost2010PropOp35
 70
     1
102
RTVSPost2010Prop36
280
     0
102
RTVSPost2010PropOp36
 70
     1
102
RTVSPost2010Prop37
 90
       50
102
RTVSPost2010PropOp37
 70
     1
102
RTVSPost2010Prop38
140
0.0
102
RTVSPost2010PropOp38
 70
     1
102
RTVSPost2010Prop39
140
1.0
102
RTVSPost2010PropOp39
 70
     1
102
RTVSPost2010Prop40
 90
        0
102
RTVSPost2010PropOp40
 70
     1
102
RTVSPost2010Prop41ColorIndex
 90
       18
102
RTVSPost2010Prop41ColorRGB
 90
        0
102
RTVSPost2010PropOp41
 70
     1
102
RTVSPost2010Prop42
 90
       50
102
RTVSPost2010PropOp42
 70
     1
102
RTVSPost2010Prop43
 90
        3
102
RTVSPost2010PropOp43
 70
     1
102
RTVSPost2010Prop44ColorIndex
 90
        5
102
RTVSPost2010Prop44ColorRGB
 90
      255
102
RTVSPost2010PropOp44
 70
     1
102
RTVSPost2010Prop45
280
     0
102
RTVSPost2010PropOp45
 70
     1
102
RTVSPost2010Prop46
 90
       50
102
RTVSPost2010PropOp46
 70
     1
102
RTVSPost2010Prop47
 90
       50
102
RTVSPost2010PropOp47
 70
     1
102
RTVSPost2010Prop48
 90
       50
102
RTVSPost2010PropOp48
 70
     1
102
RTVSPost2010Prop49
280
     0
102
RTVSPost2010PropOp49
 70
     1
102
RTVSPost2010Prop50
 90
       50
102
RTVSPost2010PropOp50
 70
     1
102
RTVSPost2010Prop51ColorIndex
 90
      256
102
RTVSPost2010Prop51ColorRGB
 90
-16777216
102
RTVSPost2010PropOp51
 70
     0
102
RTVSPost2010Prop52
140
1.0
102
RTVSPost2010PropOp52
 70
     0
102
RTVSPost2010Prop53
 90
        2
102
RTVSPost2010PropOp53
 70
     1
102
RTVSPost2010Prop54
  1
strokes_ogs.tif
102
RTVSPost2010PropOp54
 70
     1
102
RTVSPost2010Prop55
280
     0
102
RTVSPost2010PropOp55
 70
     1
102
RTVSPost2010Prop56
140
1.0
102
RTVSPost2010PropOp56
 70
     1
102
RTVSPost2010Prop57
140
1.0
102
RTVSPost2010PropOp57
 70
     1
  0
XRECORD
  5
677
102
{ACAD_REACTORS
330
676
102
}
330
676
100
AcDbXrecord
280
     1
102
RTVSPropertyOp0
 70
     1
102
RTVSPropertyOp1
 70
     1
102
RTVSPropertyOp2
 70
     1
102
RTVSPropertyOp3
 70
     1
102
RTVSPropertyOp4
 70
     1
102
RTVSPropertyOp5
 70
     1
102
RTVSPropertyOp6
 70
     1
102
RTVSPropertyOp7
 70
     1
102
RTVSPropertyOp8
 70
     1
102
RTVSPropertyOp9
 70
     1
102
RTVSPropertyOp10
 70
     1
102
RTVSPropertyOp11
 70
     1
102
RTVSPropertyOp12
 70
     1
102
RTVSPropertyOp13
 70
     1
102
RTVSPropertyOp14
 70
     1
102
RTVSPropertyOp15
 70
     1
102
RTVSPropertyOp16
 70
     1
102
RTVSPropertyOp17
 70
     1
102
RTVSPropertyOp18
 70
     1
102
RTVSPropertyOp19
 70
     1
102
RTVSPropertyOp20
 70
     1
102
RTVSPropertyOp21
 70
     1
102
RTVSPropertyOp22
 70
     1
102
RTVSPropertyOp23
 70
     1
102
RTVSPropertyOp24
 70
     1
102
RTVSPropertyOp25
 70
     1
102
RTVSPropertyOp26
 70
     1
102
RTVSPropertyOp27
 70
     1
102
RTVSPropertyOp28
 70
     1
102
RTVSPropertyOp29
 70
     1
102
RTVSPropertyOp30
 70
     1
102
RTVSPropertyOp31
 70
     1
102
RTVSPropertyOp32
 70
     1
102
RTVSPropertyOp33
 70
     1
102
RTVSPropertyOp34
 70
     1
102
RTVSPropertyOp35
 70
     1
102
RTVSPropertyOp36
 70
     1
102
RTVSPropertyOp37
 70
     1
102
RTVSPropertyOp38
 70
     1
102
RTVSPropertyOp39
 70
     1
102
RTVSPropertyOp40
 70
     1
102
RTVSPropertyOp41
 70
     1
102
RTVSPropertyOp42
 70
     1
102
RTVSPropertyOp43
 70
     1
102
RTVSPropertyOp44
 70
     1
102
RTVSPropertyOp45
 70
     1
102
RTVSPropertyOp46
 70
     1
102
RTVSPropertyOp47
 70
     1
102
RTVSPropertyOp48
 70
     1
102
RTVSPropertyOp49
 70
     1
102
RTVSPropertyOp50
 70
     1
102
RTVSPropertyOp51
 70
     0
102
RTVSPropertyOp52
 70
     0
102
RTVSPropertyOp53
 70
     1
102
RTVSPropertyOp54
 70
     1
102
RTVSPropertyOp55
 70
     1
102
RTVSPropertyOp56
 70
     1
102
RTVSPropertyOp57
 70
     1
102
RTVSPost2010Prop28
280
     0
102
RTVSPost2010PropOp28
 70
     1
102
RTVSPost2010Prop29
280
     1
102
RTVSPost2010PropOp29
 70
     1
102
RTVSPost2010Prop30
280
     1
102
RTVSPost2010PropOp30
 70
     1
102
RTVSPost2010Prop31
280
     0
102
RTVSPost2010PropOp31
 70
     1
102
RTVSPost2010Prop32
280
     0
102
RTVSPost2010PropOp32
 70
     1
102
RTVSPost2010Prop33
280
     0
102
RTVSPost2010PropOp33
 70
     1
102
RTVSPost2010Prop34
280
     0
102
RTVSPost2010PropOp34
 70
     1
102
RTVSPost2010Prop35
280
     0
102
RTVSPost2010PropOp35
 70
     1
102
RTVSPost2010Prop36
280
     0
102
RTVSPost2010PropOp36
 70
     1
102
RTVSPost2010Prop37
 90
       50
102
RTVSPost2010PropOp37
 70
     1
102
RTVSPost2010Prop38
140
0.0
102
RTVSPost2010PropOp38
 70
     1
102
RTVSPost2010Prop39
140
1.0
102
RTVSPost2010PropOp39
 70
     1
102
RTVSPost2010Prop40
 90
        0
102
RTVSPost2010PropOp40
 70
     1
102
RTVSPost2010Prop41ColorIndex
 90
       18
102
RTVSPost2010Prop41ColorRGB
 90
        0
102
RTVSPost2010PropOp41
 70
     1
102
RTVSPost2010Prop42
 90
       50
102
RTVSPost2010PropOp42
 70
     1
102
RTVSPost2010Prop43
 90
        3
102
RTVSPost2010PropOp43
 70
     1
102
RTVSPost2010Prop44ColorIndex
 90
        5
102
RTVSPost2010Prop44ColorRGB
 90
      255
102
RTVSPost2010PropOp44
 70
     1
102
RTVSPost2010Prop45
280
     0
102
RTVSPost2010PropOp45
 70
     1
102
RTVSPost2010Prop46
 90
       50
102
RTVSPost2010PropOp46
 70
     1
102
RTVSPost2010Prop47
 90
       50
102
RTVSPost2010PropOp47
 70
     1
102
RTVSPost2010Prop48
 90
       50
102
RTVSPost2010PropOp48
 70
     1
102
RTVSPost2010Prop49
280
     0
102
RTVSPost2010PropOp49
 70
     1
102
RTVSPost2010Prop50
 90
       50
102
RTVSPost2010PropOp50
 70
     1
102
RTVSPost2010Prop51ColorIndex
 90
      256
102
RTVSPost2010Prop51ColorRGB
 90
-16777216
102
RTVSPost2010PropOp51
 70
     0
102
RTVSPost2010Prop52
140
1.0
102
RTVSPost2010PropOp52
 70
     0
102
RTVSPost2010Prop53
 90
        2
102
RTVSPost2010PropOp53
 70
     1
102
RTVSPost2010Prop54
  1
strokes_ogs.tif
102
RTVSPost2010PropOp54
 70
     1
102
RTVSPost2010Prop55
280
     0
102
RTVSPost2010PropOp55
 70
     1
102
RTVSPost2010Prop56
140
1.0
102
RTVSPost2010PropOp56
 70
     1
102
RTVSPost2010Prop57
140
1.0
102
RTVSPost2010PropOp57
 70
     1
  0
XRECORD
  5
697
102
{ACAD_REACTORS
330
696
102
}
330
696
100
AcDbXrecord
280
     1
102
RTVSPropertyOp0
 70
     1
102
RTVSPropertyOp1
 70
     1
102
RTVSPropertyOp2
 70
     1
102
RTVSPropertyOp3
 70
     1
102
RTVSPropertyOp4
 70
     1
102
RTVSPropertyOp5
 70
     1
102
RTVSPropertyOp6
 70
     1
102
RTVSPropertyOp7
 70
     1
102
RTVSPropertyOp8
 70
     1
102
RTVSPropertyOp9
 70
     1
102
RTVSPropertyOp10
 70
     1
102
RTVSPropertyOp11
 70
     1
102
RTVSPropertyOp12
 70
     1
102
RTVSPropertyOp13
 70
     1
102
RTVSPropertyOp14
 70
     1
102
RTVSPropertyOp15
 70
     1
102
RTVSPropertyOp16
 70
     1
102
RTVSPropertyOp17
 70
     1
102
RTVSPropertyOp18
 70
     1
102
RTVSPropertyOp19
 70
     1
102
RTVSPropertyOp20
 70
     1
102
RTVSPropertyOp21
 70
     1
102
RTVSPropertyOp22
 70
     1
102
RTVSPropertyOp23
 70
     1
102
RTVSPropertyOp24
 70
     1
102
RTVSPropertyOp25
 70
     1
102
RTVSPropertyOp26
 70
     1
102
RTVSPropertyOp27
 70
     1
102
RTVSPropertyOp28
 70
     1
102
RTVSPropertyOp29
 70
     1
102
RTVSPropertyOp30
 70
     1
102
RTVSPropertyOp31
 70
     1
102
RTVSPropertyOp32
 70
     1
102
RTVSPropertyOp33
 70
     1
102
RTVSPropertyOp34
 70
     1
102
RTVSPropertyOp35
 70
     1
102
RTVSPropertyOp36
 70
     1
102
RTVSPropertyOp37
 70
     1
102
RTVSPropertyOp38
 70
     1
102
RTVSPropertyOp39
 70
     1
102
RTVSPropertyOp40
 70
     1
102
RTVSPropertyOp41
 70
     1
102
RTVSPropertyOp42
 70
     1
102
RTVSPropertyOp43
 70
     1
102
RTVSPropertyOp44
 70
     1
102
RTVSPropertyOp45
 70
     1
102
RTVSPropertyOp46
 70
     1
102
RTVSPropertyOp47
 70
     1
102
RTVSPropertyOp48
 70
     1
102
RTVSPropertyOp49
 70
     1
102
RTVSPropertyOp50
 70
     1
102
RTVSPropertyOp51
 70
     0
102
RTVSPropertyOp52
 70
     0
102
RTVSPropertyOp53
 70
     1
102
RTVSPropertyOp54
 70
     1
102
RTVSPropertyOp55
 70
     1
102
RTVSPropertyOp56
 70
     1
102
RTVSPropertyOp57
 70
     1
102
RTVSPost2010Prop28
280
     0
102
RTVSPost2010PropOp28
 70
     1
102
RTVSPost2010Prop29
280
     1
102
RTVSPost2010PropOp29
 70
     1
102
RTVSPost2010Prop30
280
     1
102
RTVSPost2010PropOp30
 70
     1
102
RTVSPost2010Prop31
280
     0
102
RTVSPost2010PropOp31
 70
     1
102
RTVSPost2010Prop32
280
     0
102
RTVSPost2010PropOp32
 70
     1
102
RTVSPost2010Prop33
280
     0
102
RTVSPost2010PropOp33
 70
     1
102
RTVSPost2010Prop34
280
     0
102
RTVSPost2010PropOp34
 70
     1
102
RTVSPost2010Prop35
280
     0
102
RTVSPost2010PropOp35
 70
     1
102
RTVSPost2010Prop36
280
     0
102
RTVSPost2010PropOp36
 70
     1
102
RTVSPost2010Prop37
 90
       50
102
RTVSPost2010PropOp37
 70
     1
102
RTVSPost2010Prop38
140
0.0
102
RTVSPost2010PropOp38
 70
     1
102
RTVSPost2010Prop39
140
1.0
102
RTVSPost2010PropOp39
 70
     1
102
RTVSPost2010Prop40
 90
        0
102
RTVSPost2010PropOp40
 70
     1
102
RTVSPost2010Prop41ColorIndex
 90
       18
102
RTVSPost2010Prop41ColorRGB
 90
        0
102
RTVSPost2010PropOp41
 70
     1
102
RTVSPost2010Prop42
 90
       50
102
RTVSPost2010PropOp42
 70
     1
102
RTVSPost2010Prop43
 90
        3
102
RTVSPost2010PropOp43
 70
     1
102
RTVSPost2010Prop44ColorIndex
 90
        5
102
RTVSPost2010Prop44ColorRGB
 90
      255
102
RTVSPost2010PropOp44
 70
     1
102
RTVSPost2010Prop45
280
     0
102
RTVSPost2010PropOp45
 70
     1
102
RTVSPost2010Prop46
 90
       50
102
RTVSPost2010PropOp46
 70
     1
102
RTVSPost2010Prop47
 90
       50
102
RTVSPost2010PropOp47
 70
     1
102
RTVSPost2010Prop48
 90
       50
102
RTVSPost2010PropOp48
 70
     1
102
RTVSPost2010Prop49
280
     0
102
RTVSPost2010PropOp49
 70
     1
102
RTVSPost2010Prop50
 90
       50
102
RTVSPost2010PropOp50
 70
     1
102
RTVSPost2010Prop51ColorIndex
 90
      256
102
RTVSPost2010Prop51ColorRGB
 90
-16777216
102
RTVSPost2010PropOp51
 70
     0
102
RTVSPost2010Prop52
140
1.0
102
RTVSPost2010PropOp52
 70
     0
102
RTVSPost2010Prop53
 90
        2
102
RTVSPost2010PropOp53
 70
     1
102
RTVSPost2010Prop54
  1
strokes_ogs.tif
102
RTVSPost2010PropOp54
 70
     1
102
RTVSPost2010Prop55
280
     0
102
RTVSPost2010PropOp55
 70
     1
102
RTVSPost2010Prop56
140
1.0
102
RTVSPost2010PropOp56
 70
     1
102
RTVSPost2010Prop57
140
1.0
102
RTVSPost2010PropOp57
 70
     1
  0
ENDSEC
  0
EOF
