  0
SECTION
  2
HEADER
  9
$ACADVER
  1
AC1018
  9
$ACADMAINTVER
 70
   104
  9
$DWGCODEPAGE
  3
ANSI_1252
  9
$LASTSAVEDBY
  1
titadi
  9
$INSBASE
 10
0.0
 20
0.0
 30
0.0
  9
$EXTMIN
 10
-62.33786632994264
 20
-53.91863399194432
 30
-0.0015258207003583
  9
$EXTMAX
 10
81.2525832919103
 20
42.99946647430616
 30
0.0000000349246037
  9
$LIMMIN
 10
0.0
 20
0.0
  9
$LIMMAX
 10
12.0
 20
9.0
  9
$ORTHOMODE
 70
     1
  9
$REGENMODE
 70
     1
  9
$FILLMODE
 70
     1
  9
$QTEXTMODE
 70
     0
  9
$MIRRTEXT
 70
     0
  9
$LTSCALE
 40
1.0
  9
$ATTMODE
 70
     1
  9
$TEXTSIZE
 40
0.0
  9
$TRACEWID
 40
0.05
  9
$TEXTSTYLE
  7
Standard
  9
$CLAYER
  8
0
  9
$CELTYPE
  6
ByLayer
  9
$CECOLOR
 62
   256
  9
$CELTSCALE
 40
1.0
  9
$DISPSILH
 70
     0
  9
$DIMSCALE
 40
1.0
  9
$DIMASZ
 40
0.18
  9
$DIMEXO
 40
0.0625
  9
$DIMDLI
 40
0.38
  9
$DIMRND
 40
0.0
  9
$DIMDLE
 40
0.0
  9
$DIMEXE
 40
0.18
  9
$DIMTP
 40
0.0
  9
$DIMTM
 40
0.0
  9
$DIMTXT
 40
0.18
  9
$DIMCEN
 40
0.09
  9
$DIMTSZ
 40
0.0
  9
$DIMTOL
 70
     0
  9
$DIMLIM
 70
     0
  9
$DIMTIH
 70
     1
  9
$DIMTOH
 70
     1
  9
$DIMSE1
 70
     0
  9
$DIMSE2
 70
     0
  9
$DIMTAD
 70
     0
  9
$DIMZIN
 70
     0
  9
$DIMBLK
  1

  9
$DIMASO
 70
     1
  9
$DIMSHO
 70
     1
  9
$DIMPOST
  1

  9
$DIMAPOST
  1

  9
$DIMALT
 70
     0
  9
$DIMALTD
 70
     2
  9
$DIMALTF
 40
25.4
  9
$DIMLFAC
 40
1.0
  9
$DIMTOFL
 70
     0
  9
$DIMTVP
 40
0.0
  9
$DIMTIX
 70
     0
  9
$DIMSOXD
 70
     0
  9
$DIMSAH
 70
     0
  9
$DIMBLK1
  1

  9
$DIMBLK2
  1

  9
$DIMSTYLE
  2
Standard
  9
$DIMCLRD
 70
     0
  9
$DIMCLRE
 70
     0
  9
$DIMCLRT
 70
     0
  9
$DIMTFAC
 40
1.0
  9
$DIMGAP
 40
0.09
  9
$DIMJUST
 70
     0
  9
$DIMSD1
 70
     0
  9
$DIMSD2
 70
     0
  9
$DIMTOLJ
 70
     1
  9
$DIMTZIN
 70
     0
  9
$DIMALTZ
 70
     0
  9
$DIMALTTZ
 70
     0
  9
$DIMUPT
 70
     0
  9
$DIMDEC
 70
     4
  9
$DIMTDEC
 70
     4
  9
$DIMALTU
 70
     2
  9
$DIMALTTD
 70
     2
  9
$DIMTXSTY
  7
Standard
  9
$DIMAUNIT
 70
     0
  9
$DIMADEC
 70
     0
  9
$DIMALTRND
 40
0.0
  9
$DIMAZIN
 70
     0
  9
$DIMDSEP
 70
    46
  9
$DIMATFIT
 70
     3
  9
$DIMFRAC
 70
     0
  9
$DIMLDRBLK
  1

  9
$DIMLUNIT
 70
     2
  9
$DIMLWD
 70
    -2
  9
$DIMLWE
 70
    -2
  9
$DIMTMOVE
 70
     0
  9
$LUNITS
 70
     2
  9
$LUPREC
 70
     4
  9
$SKETCHINC
 40
0.1
  9
$FILLETRAD
 40
0.0
  9
$AUNITS
 70
     0
  9
$AUPREC
 70
     0
  9
$MENU
  1
.
  9
$ELEVATION
 40
0.0
  9
$PELEVATION
 40
0.0
  9
$THICKNESS
 40
0.0
  9
$LIMCHECK
 70
     0
  9
$CHAMFERA
 40
0.0
  9
$CHAMFERB
 40
0.0
  9
$CHAMFERC
 40
0.0
  9
$CHAMFERD
 40
0.0
  9
$SKPOLY
 70
     0
  9
$TDCREATE
 40
2456818.491301042
  9
$TDUCREATE
 40
2456818.449634375
  9
$TDUPDATE
 40
2457359.393760567
  9
$TDUUPDATE
 40
2457359.352093901
  9
$TDINDWG
 40
0.0050025926
  9
$TDUSRTIMER
 40
0.0050024074
  9
$USRTIMER
 70
     1
  9
$ANGBASE
 50
0.0
  9
$ANGDIR
 70
     0
  9
$PDMODE
 70
     0
  9
$PDSIZE
 40
0.0
  9
$PLINEWID
 40
0.0
  9
$SPLFRAME
 70
     0
  9
$SPLINETYPE
 70
     6
  9
$SPLINESEGS
 70
     8
  9
$HANDSEED
  5
4E5
  9
$SURFTAB1
 70
     6
  9
$SURFTAB2
 70
     6
  9
$SURFTYPE
 70
     6
  9
$SURFU
 70
     6
  9
$SURFV
 70
     6
  9
$UCSBASE
  2

  9
$UCSNAME
  2

  9
$UCSORG
 10
0.0
 20
0.0
 30
0.0
  9
$UCSXDIR
 10
1.0
 20
0.0
 30
0.0
  9
$UCSYDIR
 10
0.0
 20
1.0
 30
0.0
  9
$UCSORTHOREF
  2

  9
$UCSORTHOVIEW
 70
     0
  9
$UCSORGTOP
 10
0.0
 20
0.0
 30
0.0
  9
$UCSORGBOTTOM
 10
0.0
 20
0.0
 30
0.0
  9
$UCSORGLEFT
 10
0.0
 20
0.0
 30
0.0
  9
$UCSORGRIGHT
 10
0.0
 20
0.0
 30
0.0
  9
$UCSORGFRONT
 10
0.0
 20
0.0
 30
0.0
  9
$UCSORGBACK
 10
0.0
 20
0.0
 30
0.0
  9
$PUCSBASE
  2

  9
$PUCSNAME
  2

  9
$PUCSORG
 10
0.0
 20
0.0
 30
0.0
  9
$PUCSXDIR
 10
1.0
 20
0.0
 30
0.0
  9
$PUCSYDIR
 10
0.0
 20
1.0
 30
0.0
  9
$PUCSORTHOREF
  2

  9
$PUCSORTHOVIEW
 70
     0
  9
$PUCSORGTOP
 10
0.0
 20
0.0
 30
0.0
  9
$PUCSORGBOTTOM
 10
0.0
 20
0.0
 30
0.0
  9
$PUCSORGLEFT
 10
0.0
 20
0.0
 30
0.0
  9
$PUCSORGRIGHT
 10
0.0
 20
0.0
 30
0.0
  9
$PUCSORGFRONT
 10
0.0
 20
0.0
 30
0.0
  9
$PUCSORGBACK
 10
0.0
 20
0.0
 30
0.0
  9
$USERI1
 70
     0
  9
$USERI2
 70
     0
  9
$USERI3
 70
     0
  9
$USERI4
 70
     0
  9
$USERI5
 70
     0
  9
$USERR1
 40
0.0
  9
$USERR2
 40
0.0
  9
$USERR3
 40
0.0
  9
$USERR4
 40
0.0
  9
$USERR5
 40
0.0
  9
$WORLDVIEW
 70
     1
  9
$SHADEDGE
 70
     3
  9
$SHADEDIF
 70
    70
  9
$TILEMODE
 70
     1
  9
$MAXACTVP
 70
    64
  9
$PINSBASE
 10
0.0
 20
0.0
 30
0.0
  9
$PLIMCHECK
 70
     0
  9
$PEXTMIN
 10
1.000000000000000E+20
 20
1.000000000000000E+20
 30
1.000000000000000E+20
  9
$PEXTMAX
 10
-1.000000000000000E+20
 20
-1.000000000000000E+20
 30
-1.000000000000000E+20
  9
$PLIMMIN
 10
0.0
 20
0.0
  9
$PLIMMAX
 10
12.0
 20
9.0
  9
$UNITMODE
 70
     0
  9
$VISRETAIN
 70
     1
  9
$PLINEGEN
 70
     0
  9
$PSLTSCALE
 70
     1
  9
$TREEDEPTH
 70
  3020
  9
$CMLSTYLE
  2
Standard
  9
$CMLJUST
 70
     0
  9
$CMLSCALE
 40
1.0
  9
$PROXYGRAPHICS
 70
     1
  9
$MEASUREMENT
 70
     0
  9
$CELWEIGHT
370
    -1
  9
$ENDCAPS
280
     0
  9
$JOINSTYLE
280
     0
  9
$LWDISPLAY
290
     0
  9
$INSUNITS
 70
     4
  9
$HYPERLINKBASE
  1

  9
$STYLESHEET
  1

  9
$XEDIT
290
     1
  9
$CEPSNTYPE
380
     0
  9
$PSTYLEMODE
290
     1
  9
$FINGERPRINTGUID
  2
{915054CE-FCDB-437D-9B62-7E13F35482BD}
  9
$VERSIONGUID
  2
{B41DE4EA-69A0-4ED3-9ECC-6DB589503DFF}
  9
$EXTNAMES
290
     1
  9
$PSVPSCALE
 40
0.0
  9
$OLESTARTUP
290
     0
  9
$SORTENTS
280
   127
  9
$INDEXCTL
280
     0
  9
$HIDETEXT
280
     0
  9
$XCLIPFRAME
290
     0
  9
$HALOGAP
280
     0
  9
$OBSCOLOR
 70
   257
  9
$OBSLTYPE
280
     0
  9
$INTERSECTIONDISPLAY
280
     0
  9
$INTERSECTIONCOLOR
 70
   257
  9
$DIMASSOC
280
     1
  9
$PROJECTNAME
  1

  0
ENDSEC
  0
SECTION
  2
CLASSES
  0
CLASS
  1
RASTERVARIABLES
  2
AcDbRasterVariables
  3
ISM
 90
        0
 91
        0
280
     0
281
     0
  0
CLASS
  1
ACDBDICTIONARYWDFLT
  2
AcDbDictionaryWithDefault
  3
ObjectDBX Classes
 90
        0
 91
        1
280
     0
281
     0
  0
CLASS
  1
MATERIAL
  2
AcDbMaterial
  3
ObjectDBX Classes
 90
     1153
 91
        3
280
     0
281
     0
  0
CLASS
  1
VISUALSTYLE
  2
AcDbVisualStyle
  3
ObjectDBX Classes
 90
     4095
 91
       24
280
     0
281
     0
  0
CLASS
  1
TABLESTYLE
  2
AcDbTableStyle
  3
ObjectDBX Classes
 90
     4095
 91
        1
280
     0
281
     0
  0
CLASS
  1
SCALE
  2
AcDbScale
  3
ObjectDBX Classes
 90
     1153
 91
       17
280
     0
281
     0
  0
CLASS
  1
MLEADERSTYLE
  2
AcDbMLeaderStyle
  3
ACDB_MLEADERSTYLE_CLASS
 90
     4095
 91
        1
280
     0
281
     0
  0
CLASS
  1
ACDBSECTIONVIEWSTYLE
  2
AcDbSectionViewStyle
  3
ObjectDBX Classes
 90
     1025
 91
        1
280
     0
281
     0
  0
CLASS
  1
ACDBDETAILVIEWSTYLE
  2
AcDbDetailViewStyle
  3
ObjectDBX Classes
 90
     1025
 91
        1
280
     0
281
     0
  0
CLASS
  1
EXACXREFPANELOBJECT
  2
ExAcXREFPanelObject
  3
EXAC_ESW
 90
     1025
 91
        0
280
     0
281
     0
  0
CLASS
  1
NPOCOLLECTION
  2
AcDbImpNonPersistentObjectsCollection
  3
ObjectDBX Classes
 90
     1153
 91
        0
280
     0
281
     0
  0
CLASS
  1
DICTIONARYVAR
  2
AcDbDictionaryVar
  3
ObjectDBX Classes
 90
        0
 91
       10
280
     0
281
     0
  0
CLASS
  1
CELLSTYLEMAP
  2
AcDbCellStyleMap
  3
ObjectDBX Classes
 90
     1152
 91
        3
280
     0
281
     0
  0
CLASS
  1
MULTILEADER
  2
AcDbMLeader
  3
ACDB_MLEADER_CLASS
 90
     1025
 91
        2
280
     0
281
     1
  0
ENDSEC
  0
SECTION
  2
TABLES
  0
TABLE
  2
VPORT
  5
129
330
0
100
AcDbSymbolTable
 70
     1
  0
VPORT
  5
1
330
129
100
AcDbSymbolTableRecord
100
AcDbViewportTableRecord
  2
*Active
 70
     0
 10
0.0
 20
0.0
 11
1.0
 21
1.0
 12
9.45735848098382
 22
-5.459583758819078
 13
0.0
 23
0.0
 14
0.5
 24
0.5
 15
10.0
 25
10.0
 16
0.0
 26
0.0
 36
1.0
 17
0.0
 27
0.0
 37
0.0
 40
97.70180478268917
 41
2.584345479082321
 42
50.0
 43
0.0
 44
0.0
 50
0.0
 51
0.0
 71
     0
 72
   100
 73
     1
 74
     1
 75
     0
 76
     0
 77
     0
 78
     0
281
     0
 65
     1
110
0.0
120
0.0
130
0.0
111
1.0
121
0.0
131
0.0
112
0.0
122
1.0
132
0.0
 79
     0
146
0.0
1001
ACAD_NAV_VCDISPLAY
1070
     3
  0
ENDTAB
  0
TABLE
  2
LTYPE
  5
12A
330
0
100
AcDbSymbolTable
 70
    10
  0
LTYPE
  5
14
330
12A
100
AcDbSymbolTableRecord
100
AcDbLinetypeTableRecord
  2
ByBlock
 70
     0
  3

 72
    65
 73
     0
 40
0.0
  0
LTYPE
  5
15
330
12A
100
AcDbSymbolTableRecord
100
AcDbLinetypeTableRecord
  2
ByLayer
 70
     0
  3

 72
    65
 73
     0
 40
0.0
  0
LTYPE
  5
16
330
12A
100
AcDbSymbolTableRecord
100
AcDbLinetypeTableRecord
  2
CONTINUOUS
 70
     0
  3
Solid line
 72
    65
 73
     0
 40
0.0
  0
LTYPE
  5
3C
330
12A
100
AcDbSymbolTableRecord
100
AcDbLinetypeTableRecord
  2
DASHED
 70
     0
  3
__ __ __ __ __ __ __ __ __
 72
    65
 73
     2
 40
25.72
 49
12.86
 74
     0
 49
-12.86
 74
     0
  0
LTYPE
  5
3D
330
12A
100
AcDbSymbolTableRecord
100
AcDbLinetypeTableRecord
  2
HIDDEN
 70
     0
  3
_ _ _ _ _ _ _ _ _ _ _ _ _ _ _
 72
    65
 73
     2
 40
0.5
 49
0.25
 74
     0
 49
-0.25
 74
     0
  0
LTYPE
  5
3E
330
12A
100
AcDbSymbolTableRecord
100
AcDbLinetypeTableRecord
  2
PHANTOM
 70
     0
  3
____ _ _ ____ _ _ _____ _ _ ____
 72
    65
 73
     6
 40
50.5
 49
18.0
 74
     0
 49
-6.5
 74
     0
 49
6.5
 74
     0
 49
-6.5
 74
     0
 49
6.5
 74
     0
 49
-6.5
 74
     0
  0
LTYPE
  5
3F
330
12A
100
AcDbSymbolTableRecord
100
AcDbLinetypeTableRecord
  2
CENTER
 70
     0
  3
____ _ ____ _ ____ _ ____
 72
    65
 73
     4
 40
47.5
 49
22.0
 74
     0
 49
-8.5
 74
     0
 49
8.5
 74
     0
 49
-8.5
 74
     0
  0
LTYPE
  5
40
330
12A
100
AcDbSymbolTableRecord
100
AcDbLinetypeTableRecord
  2
DOT
 70
     0
  3
.........................
 72
    65
 73
     2
 40
10.0
 49
0.0
 74
     0
 49
-10.0
 74
     0
  0
LTYPE
  5
41
330
12A
100
AcDbSymbolTableRecord
100
AcDbLinetypeTableRecord
  2
DASHDOT
 70
     0
  3
_._._._._._._._._._._._._._._._.
 72
    65
 73
     4
 40
70.0
 49
31.0
 74
     0
 49
-13.0
 74
     0
 49
13.0
 74
     0
 49
-13.0
 74
     0
  0
LTYPE
  5
181
330
12A
100
AcDbSymbolTableRecord
100
AcDbLinetypeTableRecord
  2
PHANTOM2
 70
     0
  3
Phantom (.5x) ___ _ _ ___ _ _ ___ _ _ ___ _ _
 72
    65
 73
     6
 40
1.25
 49
0.625
 74
     0
 49
-0.125
 74
     0
 49
0.125
 74
     0
 49
-0.125
 74
     0
 49
0.125
 74
     0
 49
-0.125
 74
     0
  0
ENDTAB
  0
TABLE
  2
LAYER
  5
12B
102
{ACAD_XDICTIONARY
360
23D
102
}
330
0
100
AcDbSymbolTable
 70
    11
  0
LAYER
  5
10
102
{ACAD_XDICTIONARY
360
18F
102
}
330
12B
100
AcDbSymbolTableRecord
100
AcDbLayerTableRecord
  2
0
 70
     0
 62
     7
  6
CONTINUOUS
370
    -3
390
136
  0
LAYER
  5
43
102
{ACAD_XDICTIONARY
360
191
102
}
330
12B
100
AcDbSymbolTableRecord
100
AcDbLayerTableRecord
  2
81
 70
     0
 62
    -3
  6
CONTINUOUS
370
    -3
390
136
  0
LAYER
  5
45
102
{ACAD_XDICTIONARY
360
193
102
}
330
12B
100
AcDbSymbolTableRecord
100
AcDbLayerTableRecord
  2
80
 70
     0
 62
    -6
  6
CONTINUOUS
370
    -3
390
136
  0
LAYER
  5
47
102
{ACAD_XDICTIONARY
360
195
102
}
330
12B
100
AcDbSymbolTableRecord
100
AcDbLayerTableRecord
  2
4
 70
     0
 62
     2
  6
CENTER
370
    -3
390
136
  0
LAYER
  5
49
102
{ACAD_XDICTIONARY
360
197
102
}
330
12B
100
AcDbSymbolTableRecord
100
AcDbLayerTableRecord
  2
1
 70
     0
 62
     4
  6
CONTINUOUS
370
    -3
390
136
  0
LAYER
  5
9D
102
{ACAD_XDICTIONARY
360
199
102
}
330
12B
100
AcDbSymbolTableRecord
100
AcDbLayerTableRecord
  2
2
 70
     0
 62
     7
  6
CONTINUOUS
370
    -3
390
136
  0
LAYER
  5
115
102
{ACAD_XDICTIONARY
360
19B
102
}
330
12B
100
AcDbSymbolTableRecord
100
AcDbLayerTableRecord
  2
SK1
 70
     0
 62
     4
  6
CONTINUOUS
370
    -3
390
136
  0
LAYER
  5
116
102
{ACAD_XDICTIONARY
360
19D
102
}
330
12B
100
AcDbSymbolTableRecord
100
AcDbLayerTableRecord
  2
SK4
 70
     0
 62
     2
  6
CENTER
370
    -3
390
136
  0
LAYER
  5
117
102
{ACAD_XDICTIONARY
360
19F
102
}
330
12B
100
AcDbSymbolTableRecord
100
AcDbLayerTableRecord
  2
SK6
 70
     0
 62
     5
  6
CONTINUOUS
370
    -3
390
136
  0
LAYER
  5
118
102
{ACAD_XDICTIONARY
360
1A1
102
}
330
12B
100
AcDbSymbolTableRecord
100
AcDbLayerTableRecord
  2
SK2
 70
     0
 62
     7
  6
CONTINUOUS
370
    -3
390
136
  0
LAYER
  5
23A
330
12B
100
AcDbSymbolTableRecord
100
AcDbLayerTableRecord
  2
DEFPOINTS
 70
     0
 62
     7
  6
CONTINUOUS
290
     0
370
    -3
390
136
  0
ENDTAB
  0
TABLE
  2
STYLE
  5
12C
330
0
100
AcDbSymbolTable
 70
     4
  0
STYLE
  5
11
330
12C
100
AcDbSymbolTableRecord
100
AcDbTextStyleTableRecord
  2
Standard
 70
     0
 40
0.0
 41
1.0
 50
0.0
 71
     0
 42
0.0
  3
txt
  4

  0
STYLE
  5
8D
330
12C
100
AcDbSymbolTableRecord
100
AcDbTextStyleTableRecord
  2
DEFAULT
 70
     0
 40
0.0
 41
1.0
 50
0.0
 71
     0
 42
0.0
  3
simplex.shx
  4

  0
STYLE
  5
8E
330
12C
100
AcDbSymbolTableRecord
100
AcDbTextStyleTableRecord
  2
DWGDirectTextStyle
 70
     0
 40
0.0
 41
1.0
 50
0.0
 71
     0
 42
0.0
  3
SIMPLEX
  4

  0
STYLE
  5
23B
330
12C
100
AcDbSymbolTableRecord
100
AcDbTextStyleTableRecord
  2
SANDVIK_STYLE
 70
     0
 40
3.0
 41
1.0
 50
0.0
 71
     0
 42
3.0
  3
simplex.shx
  4

  0
ENDTAB
  0
TABLE
  2
VIEW
  5
12E
330
0
100
AcDbSymbolTable
 70
     0
  0
ENDTAB
  0
TABLE
  2
UCS
  5
12F
330
0
100
AcDbSymbolTable
 70
     0
  0
ENDTAB
  0
TABLE
  2
APPID
  5
130
330
0
100
AcDbSymbolTable
 70
     6
  0
APPID
  5
12
330
130
100
AcDbSymbolTableRecord
100
AcDbRegAppTableRecord
  2
ACAD
 70
     0
  0
APPID
  5
1A5
330
130
100
AcDbSymbolTableRecord
100
AcDbRegAppTableRecord
  2
DCO15
 70
     0
  0
APPID
  5
1B1
330
130
100
AcDbSymbolTableRecord
100
AcDbRegAppTableRecord
  2
ACAD_NAV_VCDISPLAY
 70
     0
  0
APPID
  5
1EA
330
130
100
AcDbSymbolTableRecord
100
AcDbRegAppTableRecord
  2
ACAD_MLEADERVER
 70
     0
  0
APPID
  5
2EA
330
130
100
AcDbSymbolTableRecord
100
AcDbRegAppTableRecord
  2
ACAD_EXEMPT_FROM_CAD_STANDARDS
 70
     0
  0
APPID
  5
373
330
130
100
AcDbSymbolTableRecord
100
AcDbRegAppTableRecord
  2
AcadAnnoMonitorAlertIconDisabled
 70
     0
  0
ENDTAB
  0
TABLE
  2
DIMSTYLE
  5
12D
330
0
100
AcDbSymbolTable
 70
     3
100
AcDbDimStyleTable
 71
     2
340
27
340
23C
  0
DIMSTYLE
105
27
102
{ACAD_REACTORS
330
AF
102
}
330
12D
100
AcDbSymbolTableRecord
100
AcDbDimStyleTableRecord
  2
Standard
 70
     0
  3
<>
 73
     0
 74
     0
 77
     1
271
     2
278
    52
340
11
  0
DIMSTYLE
105
23C
102
{ACAD_REACTORS
330
282
330
2C8
330
CD
330
A5
330
C3
330
416
102
}
330
12D
100
AcDbSymbolTableRecord
100
AcDbDimStyleTableRecord
  2
SANDVIK_DIM
 70
     0
  4
 
 40
0.0
 41
4.57
 42
0.0
 44
5.0
 73
     0
 74
     0
 77
     1
 78
     8
140
4.5
147
2.299999999999998
176
   256
177
   256
178
   256
271
     2
272
     2
279
     2
340
23B
  0
ENDTAB
  0
TABLE
  2
BLOCK_RECORD
  5
131
330
0
100
AcDbSymbolTable
 70
    14
  0
BLOCK_RECORD
  5
1F
330
131
100
AcDbSymbolTableRecord
100
AcDbBlockTableRecord
  2
*Model_Space
340
187
  0
BLOCK_RECORD
  5
1B
330
131
100
AcDbSymbolTableRecord
100
AcDbBlockTableRecord
  2
*Paper_Space
340
188
  0
BLOCK_RECORD
  5
23
330
131
100
AcDbSymbolTableRecord
100
AcDbBlockTableRecord
  2
*Paper_Space0
340
1F1
  0
BLOCK_RECORD
  5
90
330
131
100
AcDbSymbolTableRecord
100
AcDbBlockTableRecord
  2
LABLE3D_1
340
0
  0
BLOCK_RECORD
  5
9B
330
131
100
AcDbSymbolTableRecord
100
AcDbBlockTableRecord
  2
DimnDraft3D1
340
0
  0
BLOCK_RECORD
  5
A6
330
131
100
AcDbSymbolTableRecord
100
AcDbBlockTableRecord
  2
DimnDraft3D2
340
0
  0
BLOCK_RECORD
  5
B0
330
131
100
AcDbSymbolTableRecord
100
AcDbBlockTableRecord
  2
DimnDraft3D33
340
0
  0
BLOCK_RECORD
  5
BA
330
131
100
AcDbSymbolTableRecord
100
AcDbBlockTableRecord
  2
DimnDraft3D4
340
0
  0
BLOCK_RECORD
  5
C4
330
131
100
AcDbSymbolTableRecord
100
AcDbBlockTableRecord
  2
DimnDraft3D5
340
0
  0
BLOCK_RECORD
  5
CE
330
131
100
AcDbSymbolTableRecord
100
AcDbBlockTableRecord
  2
DimnDraft3D6
340
0
  0
BLOCK_RECORD
  5
22D
330
131
100
AcDbSymbolTableRecord
100
AcDbBlockTableRecord
  2
*D8
340
0
  0
BLOCK_RECORD
  5
2C9
330
131
100
AcDbSymbolTableRecord
100
AcDbBlockTableRecord
  2
*D10
340
0
  0
BLOCK_RECORD
  5
417
330
131
100
AcDbSymbolTableRecord
100
AcDbBlockTableRecord
  2
*D13
340
0
  0
ENDTAB
  0
ENDSEC
  0
SECTION
  2
BLOCKS
  0
BLOCK
  5
20
330
1F
100
AcDbEntity
  8
0
100
AcDbBlockBegin
  2
*Model_Space
 70
     0
 10
0.0
 20
0.0
 30
0.0
  3
*Model_Space
  1

  0
ENDBLK
  5
21
330
1F
100
AcDbEntity
  8
0
100
AcDbBlockEnd
  0
BLOCK
  5
1C
330
1B
100
AcDbEntity
 67
     1
  8
0
100
AcDbBlockBegin
  2
*Paper_Space
 70
     0
 10
0.0
 20
0.0
 30
0.0
  3
*Paper_Space
  1

  0
ENDBLK
  5
1D
330
1B
100
AcDbEntity
 67
     1
  8
0
100
AcDbBlockEnd
  0
BLOCK
  5
24
330
23
100
AcDbEntity
 67
     1
  8
0
100
AcDbBlockBegin
  2
*Paper_Space0
 70
     0
 10
0.0
 20
0.0
 30
0.0
  3
*Paper_Space0
  1

  0
ENDBLK
  5
25
330
23
100
AcDbEntity
 67
     1
  8
0
100
AcDbBlockEnd
  0
BLOCK
  5
99
330
90
100
AcDbEntity
  8
0
100
AcDbBlockBegin
  2
LABLE3D_1
 70
     0
 10
0.0
 20
0.0
 30
0.0
  3
LABLE3D_1
  1

  0
MTEXT
  5
91
330
90
100
AcDbEntity
  8
SK2
100
AcDbMText
 10
74.195816
 20
-23.113899
 30
0.0
 40
3.5
 41
0.0
 71
     7
 72
     5
  1
\W00.662;\fsimplex.shx,bigfont.shx;R 2\P 
  7
DEFAULT
 73
     1
 44
1.084337
  0
LINE
  5
93
330
90
100
AcDbEntity
  8
SK2
100
AcDbLine
 10
71.820816
 20
-16.113899
 30
0.0
 11
65.82082800000001
 21
-16.113899
 31
0.0
  0
LINE
  5
94
330
90
100
AcDbEntity
  8
SK2
100
AcDbLine
 10
53.555062
 20
-5.321176
 30
0.0
 11
65.82082800000001
 21
-16.113899
 31
0.0
  0
LINE
  5
95
330
90
100
AcDbEntity
  8
SK2
100
AcDbLine
 10
53.555062
 20
-5.321176
 30
0.0
 11
56.48706899999999
 21
-7.287300999999998
 31
0.0
  0
LINE
  5
96
330
90
100
AcDbEntity
  8
SK2
100
AcDbLine
 10
53.555062
 20
-5.321176
 30
0.0
 11
55.87829499999998
 21
-7.979169
 31
0.0
  0
LINE
  5
97
330
90
100
AcDbEntity
  8
SK2
100
AcDbLine
 10
56.48706899999999
 20
-7.287300999999998
 30
0.0
 11
55.87829499999998
 21
-7.979169
 31
0.0
  0
ENDBLK
  5
9A
330
90
100
AcDbEntity
  8
0
100
AcDbBlockEnd
  0
BLOCK
  5
A3
330
9B
100
AcDbEntity
  8
0
100
AcDbBlockBegin
  2
DimnDraft3D1
 70
     0
 10
0.0
 20
0.0
 30
0.0
  3
DimnDraft3D1
  1

  0
LINE
  5
393
330
9B
100
AcDbEntity
  8
2
440
 16777216
370
    -2
100
AcDbLine
 10
53.641065
 20
-5.993037999999998
 30
0.0
 11
81.24250747698841
 21
-5.993038000000006
 31
0.0
  0
LINE
  5
394
330
9B
100
AcDbEntity
  8
2
440
 16777216
370
    -2
100
AcDbLine
 10
53.641065
 20
5.993037999999998
 30
0.0
 11
81.24250747698841
 21
5.99303799999999
 31
0.0
  0
LINE
  5
395
330
9B
100
AcDbEntity
  8
2
440
 16777216
370
    -2
100
AcDbLine
 10
76.24250747698841
 20
-10.563038
 30
0.0
 11
76.24250747698841
 21
-15.133038
 31
0.0
  0
LINE
  5
396
330
9B
100
AcDbEntity
  8
2
440
 16777216
370
    -2
100
AcDbLine
 10
76.24250747698841
 20
10.56303799999999
 30
0.0
 11
76.24250747698841
 21
27.16160942857142
 31
0.0
  0
SOLID
  5
397
330
9B
100
AcDbEntity
  8
2
440
 16777216
100
AcDbTrace
 10
75.48084081032174
 20
-10.563038
 30
0.0
 11
77.00417414365507
 21
-10.563038
 31
0.0
 12
76.24250747698841
 22
-5.993038000000005
 32
0.0
 13
76.24250747698841
 23
-5.993038000000005
 33
0.0
  0
SOLID
  5
398
330
9B
100
AcDbEntity
  8
2
440
 16777216
100
AcDbTrace
 10
75.48084081032174
 20
10.56303799999999
 30
0.0
 11
77.00417414365507
 21
10.56303799999999
 31
0.0
 12
76.24250747698841
 22
5.993037999999991
 32
0.0
 13
76.24250747698841
 23
5.993037999999991
 33
0.0
  0
MTEXT
  5
399
330
9B
100
AcDbEntity
  8
2
440
 16777216
370
    -3
100
AcDbMText
 10
72.44250747698841
 20
21.14732371428572
 30
0.0
 40
3.0
 41
0.0
 71
     5
 72
     1
  1
\A1;Ø12
  7
SANDVIK_STYLE
 11
0.0000000000000001
 21
1.0
 31
0.0
 73
     1
 44
1.0
  0
POINT
  5
39A
330
9B
100
AcDbEntity
  8
DEFPOINTS
 62
     0
440
 16777216
100
AcDbPoint
 10
53.641065
 20
-5.993037999999998
 30
0.0
  0
POINT
  5
39B
330
9B
100
AcDbEntity
  8
DEFPOINTS
 62
     0
440
 16777216
100
AcDbPoint
 10
53.641065
 20
5.993037999999998
 30
0.0
  0
POINT
  5
39C
330
9B
100
AcDbEntity
  8
DEFPOINTS
 62
     0
440
 16777216
100
AcDbPoint
 10
76.24250747698841
 20
5.993037999999991
 30
0.0
  0
ENDBLK
  5
A4
330
9B
100
AcDbEntity
  8
0
100
AcDbBlockEnd
  0
BLOCK
  5
AD
330
A6
100
AcDbEntity
  8
0
100
AcDbBlockBegin
  2
DimnDraft3D2
 70
     0
 10
0.0
 20
0.0
 30
0.0
  3
DimnDraft3D2
  1

  0
MTEXT
  5
A7
330
A6
100
AcDbEntity
  8
SK2
440
 16777216
100
AcDbMText
 10
-58.83761299999999
 20
11.97402
 30
0.0
 40
3.5
 41
0.0
 71
     7
 72
     5
  1
\W01.000;\fsimplex.shx,bigfont.shx;12%%c 
  7
DEFAULT
 11
0.0000000000000001
 21
1.0
 31
0.0
 73
     1
 44
1.084337
  0
LINE
  5
A8
330
A6
100
AcDbEntity
  8
SK2
440
 16777216
100
AcDbLine
 10
-46.93393499999999
 20
-6.0
 30
0.0
 11
-59.087613
 21
-6.0
 31
0.0
  0
LINE
  5
A9
330
A6
100
AcDbEntity
  8
SK2
440
 16777216
100
AcDbLine
 10
-46.93393499999999
 20
6.0
 30
0.0
 11
-59.087613
 21
6.0
 31
0.0
  0
LINE
  5
AA
330
A6
100
AcDbEntity
  8
SK2
440
 16777216
100
AcDbLine
 10
-57.08761299999999
 20
-6.0
 30
0.0
 11
-57.08761299999999
 21
22.363494
 31
0.0
  0
SOLID
  5
AB
330
A6
100
AcDbEntity
  8
SK2
440
 16777216
100
AcDbTrace
 10
-57.08761299999999
 20
-6.0
 30
0.0
 11
-57.54839699999998
 21
-2.500001999999998
 31
0.0
 12
-56.62683000000001
 22
-2.499998
 32
0.0
 13
-57.08761299999999
 23
-6.0
 33
0.0
  0
SOLID
  5
AC
330
A6
100
AcDbEntity
  8
SK2
440
 16777216
100
AcDbTrace
 10
-57.08761299999999
 20
6.0
 30
0.0
 11
-56.62683000000001
 21
2.500001999999998
 31
0.0
 12
-57.54839699999998
 22
2.499998
 32
0.0
 13
-57.08761299999999
 23
6.0
 33
0.0
  0
ENDBLK
  5
AE
330
A6
100
AcDbEntity
  8
0
100
AcDbBlockEnd
  0
BLOCK
  5
B1
330
B0
100
AcDbEntity
  8
0
100
AcDbBlockBegin
  2
DimnDraft3D33
 70
     0
 10
0.0
 20
0.0
 30
0.0
  3
DimnDraft3D33
  1

  0
LINE
  5
B3
330
B0
100
AcDbEntity
  8
2
100
AcDbLine
 10
54.05356499999999
 20
-5.5875
 30
0.0
 11
54.05356499999999
 21
-16.130335
 31
0.0
  0
LINE
  5
B4
330
B0
100
AcDbEntity
  8
2
100
AcDbLine
 10
1.053564999999998
 20
-7.287499999999998
 30
0.0
 11
1.053564999999998
 21
-16.130335
 31
0.0
  0
LINE
  5
B5
330
B0
100
AcDbEntity
  8
2
100
AcDbLine
 10
54.05356499999999
 20
-14.130335
 30
0.0
 11
1.053564999999998
 21
-14.130335
 31
0.0
  0
SOLID
  5
B6
330
B0
100
AcDbEntity
  8
2
100
AcDbTrace
 10
54.05356499999999
 20
-14.130335
 30
0.0
 11
50.553567
 21
-14.591119
 31
0.0
 12
50.553564
 22
-13.669551
 32
0.0
 13
54.05356499999999
 23
-14.130335
 33
0.0
  0
SOLID
  5
B7
330
B0
100
AcDbEntity
  8
2
100
AcDbTrace
 10
1.053564999999998
 20
-14.130335
 30
0.0
 11
4.553563999999998
 21
-13.669551
 31
0.0
 12
4.553567
 22
-14.591119
 32
0.0
 13
1.053564999999998
 23
-14.130335
 33
0.0
  0
MTEXT
  5
B8
330
B0
100
AcDbEntity
  8
2
100
AcDbMText
 10
26.383829
 20
-13.255335
 30
0.0
 40
3.5
 41
0.0
 71
     7
 72
     5
  1
\W00.656;\fsimplex.shx,bigfont.shx;53 
  7
DEFAULT
 73
     1
 44
1.084337
  0
ENDBLK
  5
B2
330
B0
100
AcDbEntity
  8
0
100
AcDbBlockEnd
  0
BLOCK
  5
C1
330
BA
100
AcDbEntity
  8
0
100
AcDbBlockBegin
  2
DimnDraft3D4
 70
     0
 10
0.0
 20
0.0
 30
0.0
  3
DimnDraft3D4
  1

  0
LINE
  5
4A5
330
BA
100
AcDbEntity
  8
2
440
 16777216
370
    -2
100
AcDbLine
 10
54.05356499999999
 20
-10.2826671245539
 30
0.0
 11
54.05356499999999
 21
-22.1528342491078
 31
0.0
  0
LINE
  5
4A6
330
BA
100
AcDbEntity
  8
2
440
 16777216
370
    -2
100
AcDbLine
 10
28.053565
 20
-9.766035624553898
 30
0.0
 11
28.053565
 21
-22.1528342491078
 31
0.0
  0
LINE
  5
4A7
330
BA
100
AcDbEntity
  8
2
440
 16777216
370
    -2
100
AcDbLine
 10
49.48356499999999
 20
-17.15283424910779
 30
0.0
 11
32.623565
 21
-17.15283424910779
 31
0.0
  0
SOLID
  5
4A8
330
BA
100
AcDbEntity
  8
2
440
 16777216
100
AcDbTrace
 10
49.48356499999999
 20
-16.39116758244113
 30
0.0
 11
49.48356499999999
 21
-17.91450091577446
 31
0.0
 12
54.05356499999999
 22
-17.15283424910779
 32
0.0
 13
54.05356499999999
 23
-17.15283424910779
 33
0.0
  0
SOLID
  5
4A9
330
BA
100
AcDbEntity
  8
2
440
 16777216
100
AcDbTrace
 10
32.623565
 20
-16.39116758244113
 30
0.0
 11
32.623565
 21
-17.91450091577446
 31
0.0
 12
28.053565
 22
-17.15283424910779
 32
0.0
 13
28.053565
 23
-17.15283424910779
 33
0.0
  0
MTEXT
  5
4AA
330
BA
100
AcDbEntity
  8
2
440
 16777216
370
    -3
100
AcDbMText
 10
41.053565
 20
-13.3528342491078
 30
0.0
 40
3.0
 41
0.0
 71
     5
 72
     1
  1
\A1;26
  7
SANDVIK_STYLE
 73
     1
 44
1.0
  0
POINT
  5
4AB
330
BA
100
AcDbEntity
  8
DEFPOINTS
 62
     0
440
 16777216
100
AcDbPoint
 10
54.05356499999999
 20
-10.2826671245539
 30
0.0
  0
POINT
  5
4AC
330
BA
100
AcDbEntity
  8
DEFPOINTS
 62
     0
440
 16777216
100
AcDbPoint
 10
28.053565
 20
-9.766035624553898
 30
0.0
  0
POINT
  5
4AD
330
BA
100
AcDbEntity
  8
DEFPOINTS
 62
     0
440
 16777216
100
AcDbPoint
 10
28.053565
 20
-17.15283424910779
 30
0.0
  0
ENDBLK
  5
C2
330
BA
100
AcDbEntity
  8
0
100
AcDbBlockEnd
  0
BLOCK
  5
CB
330
C4
100
AcDbEntity
  8
0
100
AcDbBlockBegin
  2
DimnDraft3D5
 70
     0
 10
0.0
 20
0.0
 30
0.0
  3
DimnDraft3D5
  1

  0
LINE
  5
49C
330
C4
100
AcDbEntity
  8
SK2
440
 16777216
370
    -2
100
AcDbLine
 10
54.05356499999999
 20
-10.2826671245539
 30
0.0
 11
54.05356499999999
 21
-53.91533608355633
 31
0.0
  0
LINE
  5
49D
330
C4
100
AcDbEntity
  8
SK2
440
 16777216
370
    -2
100
AcDbLine
 10
-45.946435
 20
-6.987499999999998
 30
0.0
 11
-45.946435
 21
-53.91533608355633
 31
0.0
  0
LINE
  5
49E
330
C4
100
AcDbEntity
  8
SK2
440
 16777216
370
    -2
100
AcDbLine
 10
49.48356499999999
 20
-48.91533608355633
 30
0.0
 11
-41.376435
 21
-48.91533608355633
 31
0.0
  0
SOLID
  5
49F
330
C4
100
AcDbEntity
  8
SK2
440
 16777216
100
AcDbTrace
 10
49.48356499999999
 20
-48.15366941688965
 30
0.0
 11
49.48356499999999
 21
-49.67700275022299
 31
0.0
 12
54.05356499999999
 22
-48.91533608355633
 32
0.0
 13
54.05356499999999
 23
-48.91533608355633
 33
0.0
  0
SOLID
  5
4A0
330
C4
100
AcDbEntity
  8
SK2
440
 16777216
100
AcDbTrace
 10
-41.376435
 20
-48.15366941688965
 30
0.0
 11
-41.376435
 21
-49.67700275022299
 31
0.0
 12
-45.946435
 22
-48.91533608355633
 32
0.0
 13
-45.946435
 23
-48.91533608355633
 33
0.0
  0
MTEXT
  5
4A1
330
C4
100
AcDbEntity
  8
SK2
440
 16777216
370
    -3
100
AcDbMText
 10
3.188183715213427
 20
-45.11533608355633
 30
0.0
 40
3.0
 41
0.0
 71
     5
 72
     1
  1
\A1;100
  7
SANDVIK_STYLE
 73
     1
 44
1.0
  0
POINT
  5
4A2
330
C4
100
AcDbEntity
  8
DEFPOINTS
 62
     0
440
 16777216
100
AcDbPoint
 10
54.05356499999999
 20
-10.2826671245539
 30
0.0
  0
POINT
  5
4A3
330
C4
100
AcDbEntity
  8
DEFPOINTS
 62
     0
440
 16777216
100
AcDbPoint
 10
-45.946435
 20
-6.987499999999998
 30
0.0
  0
POINT
  5
4A4
330
C4
100
AcDbEntity
  8
DEFPOINTS
 62
     0
440
 16777216
100
AcDbPoint
 10
-45.946435
 20
-48.91533608355633
 30
0.0
  0
ENDBLK
  5
CC
330
C4
100
AcDbEntity
  8
0
100
AcDbBlockEnd
  0
BLOCK
  5
D5
330
CE
100
AcDbEntity
  8
0
100
AcDbBlockBegin
  2
DimnDraft3D6
 70
     0
 10
0.0
 20
0.0
 30
0.0
  3
DimnDraft3D6
  1

  0
MTEXT
  5
CF
330
CE
100
AcDbEntity
  8
SK2
440
 16777216
100
AcDbMText
 10
-26.206112
 20
-13.034606
 30
0.0
 40
3.5
 41
0.0
 71
     7
 72
     5
  1
\W01.000;\fsimplex.shx,bigfont.shx;45,9 
  7
DEFAULT
 73
     1
 44
1.084337
  0
LINE
  5
D0
330
CE
100
AcDbEntity
  8
SK2
440
 16777216
100
AcDbLine
 10
0.0
 20
-7.5875
 30
0.0
 11
0.0
 21
-15.909606
 31
0.0
  0
LINE
  5
D1
330
CE
100
AcDbEntity
  8
SK2
440
 16777216
100
AcDbLine
 10
-45.946435
 20
-6.987499999999998
 30
0.0
 11
-45.946435
 21
-15.909606
 31
0.0
  0
LINE
  5
D2
330
CE
100
AcDbEntity
  8
SK2
440
 16777216
100
AcDbLine
 10
0.0
 20
-13.909606
 30
0.0
 11
-45.946435
 21
-13.909606
 31
0.0
  0
SOLID
  5
D3
330
CE
100
AcDbEntity
  8
SK2
440
 16777216
100
AcDbTrace
 10
0.0
 20
-13.909606
 30
0.0
 11
-3.499998
 21
-14.37039
 31
0.0
 12
-3.500001999999998
 22
-13.448822
 32
0.0
 13
0.0
 23
-13.909606
 33
0.0
  0
SOLID
  5
D4
330
CE
100
AcDbEntity
  8
SK2
440
 16777216
100
AcDbTrace
 10
-45.946435
 20
-13.909606
 30
0.0
 11
-42.44643599999998
 21
-13.448822
 31
0.0
 12
-42.44643299999999
 22
-14.37039
 32
0.0
 13
-45.946435
 23
-13.909606
 33
0.0
  0
ENDBLK
  5
D6
330
CE
100
AcDbEntity
  8
0
100
AcDbBlockEnd
  0
BLOCK
  5
22E
330
22D
100
AcDbEntity
  8
0
100
AcDbBlockBegin
  2
*D8
 70
     1
 10
0.0
 20
0.0
 30
0.0
  3
*D8
  1

  0
LINE
  5
22F
330
22D
100
AcDbEntity
  8
2
440
 16777216
370
    -2
100
AcDbLine
 10
12.153565
 20
-5.7
 30
0.0
 11
10.15356499999999
 21
-5.7
 31
0.0
  0
LINE
  5
230
330
22D
100
AcDbEntity
  8
2
440
 16777216
370
    -2
100
AcDbLine
 10
12.153565
 20
5.7
 30
0.0
 11
14.153565
 21
5.699999999999999
 31
0.0
  0
LINE
  5
231
330
22D
100
AcDbEntity
  8
2
440
 16777216
370
    -2
100
AcDbLine
 10
12.15356499999999
 20
-10.27
 30
0.0
 11
12.15356499999999
 21
-14.84
 31
0.0
  0
LINE
  5
232
330
22D
100
AcDbEntity
  8
2
440
 16777216
370
    -2
100
AcDbLine
 10
12.153565
 20
10.27
 30
0.0
 11
12.153565
 21
30.72571428571428
 31
0.0
  0
SOLID
  5
233
330
22D
100
AcDbEntity
  8
2
440
 16777216
100
AcDbTrace
 10
11.39189833333333
 20
-10.27
 30
0.0
 11
12.91523166666666
 21
-10.27
 31
0.0
 12
12.15356499999999
 22
-5.7
 32
0.0
 13
12.15356499999999
 23
-5.7
 33
0.0
  0
SOLID
  5
234
330
22D
100
AcDbEntity
  8
2
440
 16777216
100
AcDbTrace
 10
11.39189833333333
 20
10.27
 30
0.0
 11
12.91523166666667
 21
10.27
 31
0.0
 12
12.153565
 22
5.7
 32
0.0
 13
12.153565
 23
5.7
 33
0.0
  0
MTEXT
  5
235
330
22D
100
AcDbEntity
  8
2
440
 16777216
100
AcDbMText
 10
8.353565000000001
 20
22.78285714285714
 30
0.0
 40
3.0
 41
0.0
 71
     5
 72
     1
  1
\A1;Ø11.4
  7
SANDVIK_STYLE
 11
0.0000000000000001
 21
1.0
 31
0.0
 73
     1
 44
1.0
  0
POINT
  5
236
330
22D
100
AcDbEntity
  8
DEFPOINTS
 62
     0
440
 16777216
100
AcDbPoint
 10
12.153565
 20
-5.7
 30
0.0
  0
POINT
  5
237
330
22D
100
AcDbEntity
  8
DEFPOINTS
 62
     0
440
 16777216
100
AcDbPoint
 10
12.153565
 20
5.7
 30
0.0
  0
POINT
  5
238
330
22D
100
AcDbEntity
  8
DEFPOINTS
 62
     0
440
 16777216
100
AcDbPoint
 10
12.153565
 20
5.7
 30
0.0
  0
ENDBLK
  5
239
330
22D
100
AcDbEntity
  8
0
100
AcDbBlockEnd
  0
BLOCK
  5
2CA
330
2C9
100
AcDbEntity
  8
0
100
AcDbBlockBegin
  2
*D10
 70
     1
 10
0.0
 20
0.0
 30
0.0
  3
*D10
  1

  0
LINE
  5
2E0
330
2C9
100
AcDbEntity
  8
2
440
 16777216
370
    -2
100
AcDbLine
 10
12.153565
 20
-5.699999999999999
 30
0.0
 11
10.15356499999999
 21
-5.699999999999999
 31
0.0
  0
LINE
  5
2E1
330
2C9
100
AcDbEntity
  8
2
440
 16777216
370
    -2
100
AcDbLine
 10
12.153565
 20
5.699999999999999
 30
0.0
 11
10.153565
 21
5.699999999999999
 31
0.0
  0
LINE
  5
2E2
330
2C9
100
AcDbEntity
  8
2
440
 16777216
370
    -2
100
AcDbLine
 10
12.15356499999999
 20
-10.27
 30
0.0
 11
12.15356499999999
 21
-14.84
 31
0.0
  0
LINE
  5
2E3
330
2C9
100
AcDbEntity
  8
2
440
 16777216
370
    -2
100
AcDbLine
 10
12.153565
 20
10.27
 30
0.0
 11
12.153565
 21
30.72571428571428
 31
0.0
  0
SOLID
  5
2E4
330
2C9
100
AcDbEntity
  8
2
440
 16777216
100
AcDbTrace
 10
11.39189833333333
 20
-10.27
 30
0.0
 11
12.91523166666666
 21
-10.27
 31
0.0
 12
12.15356499999999
 22
-5.699999999999999
 32
0.0
 13
12.15356499999999
 23
-5.699999999999999
 33
0.0
  0
SOLID
  5
2E5
330
2C9
100
AcDbEntity
  8
2
440
 16777216
100
AcDbTrace
 10
11.39189833333333
 20
10.27
 30
0.0
 11
12.91523166666667
 21
10.27
 31
0.0
 12
12.153565
 22
5.699999999999999
 32
0.0
 13
12.153565
 23
5.699999999999999
 33
0.0
  0
MTEXT
  5
2E6
330
2C9
100
AcDbEntity
  8
2
440
 16777216
100
AcDbMText
 10
8.353565000000001
 20
22.78285714285714
 30
0.0
 40
3.0
 41
0.0
 71
     5
 72
     1
  1
\A1;Ø11.4
  7
SANDVIK_STYLE
 11
0.0000000000000001
 21
1.0
 31
0.0
 73
     1
 44
1.0
  0
POINT
  5
2E7
330
2C9
100
AcDbEntity
  8
DEFPOINTS
 62
     0
440
 16777216
100
AcDbPoint
 10
12.153565
 20
-5.699999999999999
 30
0.0
  0
POINT
  5
2E8
330
2C9
100
AcDbEntity
  8
DEFPOINTS
 62
     0
440
 16777216
100
AcDbPoint
 10
12.153565
 20
5.699999999999999
 30
0.0
  0
POINT
  5
2E9
330
2C9
100
AcDbEntity
  8
DEFPOINTS
 62
     0
440
 16777216
100
AcDbPoint
 10
12.153565
 20
5.699999999999999
 30
0.0
  0
ENDBLK
  5
2CB
330
2C9
100
AcDbEntity
  8
0
100
AcDbBlockEnd
  0
BLOCK
  5
418
330
417
100
AcDbEntity
  8
0
100
AcDbBlockBegin
  2
*D13
 70
     1
 10
0.0
 20
0.0
 30
0.0
  3
*D13
  1

  0
LINE
  5
493
330
417
100
AcDbEntity
  8
2
440
 16777216
370
    -2
100
AcDbLine
 10
54.05356499999999
 20
-10.2826671245539
 30
0.0
 11
54.05356499999999
 21
-35.39534519295342
 31
0.0
  0
LINE
  5
494
330
417
100
AcDbEntity
  8
2
440
 16777216
370
    -2
100
AcDbLine
 10
1.053564999999998
 20
-5.700000000000169
 30
0.0
 11
1.053564999999997
 21
-35.39534519295342
 31
0.0
  0
LINE
  5
495
330
417
100
AcDbEntity
  8
2
440
 16777216
370
    -2
100
AcDbLine
 10
49.48356499999999
 20
-30.39534519295342
 30
0.0
 11
5.623564999999997
 21
-30.39534519295342
 31
0.0
  0
SOLID
  5
496
330
417
100
AcDbEntity
  8
2
440
 16777216
100
AcDbTrace
 10
49.48356499999999
 20
-29.63367852628675
 30
0.0
 11
49.48356499999999
 21
-31.15701185962008
 31
0.0
 12
54.05356499999999
 22
-30.39534519295342
 32
0.0
 13
54.05356499999999
 23
-30.39534519295342
 33
0.0
  0
SOLID
  5
497
330
417
100
AcDbEntity
  8
2
440
 16777216
100
AcDbTrace
 10
5.623564999999997
 20
-29.63367852628675
 30
0.0
 11
5.623564999999997
 21
-31.15701185962008
 31
0.0
 12
1.053564999999997
 22
-30.39534519295342
 32
0.0
 13
1.053564999999997
 23
-30.39534519295342
 33
0.0
  0
MTEXT
  5
498
330
417
100
AcDbEntity
  8
2
440
 16777216
100
AcDbMText
 10
27.54389085937572
 20
-26.59534519295342
 30
0.0
 40
3.0
 41
0.0
 71
     5
 72
     1
  1
\A1;53
  7
SANDVIK_STYLE
 73
     1
 44
1.0
  0
POINT
  5
499
330
417
100
AcDbEntity
  8
DEFPOINTS
 62
     0
440
 16777216
100
AcDbPoint
 10
54.05356499999999
 20
-10.2826671245539
 30
0.0
  0
POINT
  5
49A
330
417
100
AcDbEntity
  8
DEFPOINTS
 62
     0
440
 16777216
100
AcDbPoint
 10
1.053564999999998
 20
-5.700000000000169
 30
0.0
  0
POINT
  5
49B
330
417
100
AcDbEntity
  8
DEFPOINTS
 62
     0
440
 16777216
100
AcDbPoint
 10
1.053564999999997
 20
-30.39534519295342
 30
0.0
  0
ENDBLK
  5
419
330
417
100
AcDbEntity
  8
0
100
AcDbBlockEnd
  0
ENDSEC
  0
SECTION
  2
ENTITIES
  0
ARC
  5
68
330
1F
100
AcDbEntity
  8
1
100
AcDbCircle
 10
-52.053565
 20
-4.0
 30
0.0
 40
2.0
210
0.0
220
0.0
230
-1.0
100
AcDbArc
 50
180.0
 51
262.689496
  0
ARC
  5
69
330
1F
100
AcDbEntity
  8
1
100
AcDbCircle
 10
-1.053564999999998
 20
7.7
 30
0.0
 40
2.000000000001409
210
0.0
220
0.0
230
-1.0
100
AcDbArc
 50
270.0
 51
301.788331
  0
ARC
  5
6A
330
1F
100
AcDbEntity
  8
1
100
AcDbCircle
 10
-1.053564999999998
 20
-7.7
 30
0.0
 40
1.99999999999983
210
0.0
220
0.0
230
-1.0
100
AcDbArc
 50
58.21166899999997
 51
90.0
  0
ARC
  5
6B
330
1F
100
AcDbEntity
  8
1
100
AcDbCircle
 10
-52.053565
 20
4.0
 30
0.0
 40
1.99999999999998
210
0.0
220
0.0
230
-1.0
100
AcDbArc
 50
97.27069400000001
 51
180.0
  0
POINT
  5
42
330
1F
100
AcDbEntity
  8
81
100
AcDbPoint
 10
54.05356499999999
 20
0.0
 30
0.0
 50
360.0
  0
POINT
  5
44
330
1F
100
AcDbEntity
  8
80
100
AcDbPoint
 10
0.0
 20
0.0
 30
0.0
 50
360.0
  0
SPLINE
  5
6C
330
1F
100
AcDbEntity
  8
1
100
AcDbSpline
210
0.0
220
0.0
230
1.0
 70
    12
 71
     3
 72
    10
 73
     6
 74
     0
 42
0.000000001
 43
0.0000000001
 40
0.0
 40
0.0
 40
0.0
 40
0.0
 40
0.220652703368027
 40
0.220652703368027
 40
1.0
 40
1.0
 40
1.0
 40
1.0
 10
25.7947866430249
 20
4.839920972637
 30
0.0
 41
1.0
 10
25.8835072935667
 20
4.892979196817888
 30
0.0
 41
1.0
 10
25.9721057432476
 20
4.94370907914694
 30
0.0
 41
1.0
 10
26.3734012461127
 20
5.162999330881058
 30
0.0
 41
1.0
 10
26.6854935962793
 20
5.304760501733628
 30
0.0
 41
1.0
 10
26.9999999999999
 20
5.41579389599212
 30
0.0
 41
1.0
  0
SPLINE
  5
6D
330
1F
100
AcDbEntity
  8
1
100
AcDbSpline
210
0.0
220
0.0
230
1.0
 70
    12
 71
     3
 72
    21
 73
    17
 74
     0
 42
0.000000001
 43
0.0000000001
 40
0.0
 40
0.0
 40
0.0
 40
0.0
 40
0.0059770649964213
 40
0.0116506747948674
 40
0.0173175946503828
 40
0.0237010267766507
 40
0.0404259179610262
 40
0.0934795164634152
 40
0.17431358988342
 40
0.348829703902898
 40
0.4487218964506181
 40
0.537915298074963
 40
0.66279068231144
 40
0.8017649761057008
 40
0.947022470782114
 40
1.0
 40
1.0
 40
1.0
 40
1.0
 10
38.1017929930468
 20
-5.82478607943804
 30
0.0
 41
1.0
 10
38.1018331827774
 20
-5.824924398124688
 30
0.0
 41
1.0
 10
38.1032052403659
 20
-5.82488691321871
 30
0.0
 41
1.0
 10
38.1114912987206
 20
-5.823348688552869
 30
0.0
 41
1.0
 10
38.1263907319847
 20
-5.820220850730517
 30
0.0
 41
1.0
 10
38.1563278546787
 20
-5.813681673421967
 30
0.0
 41
1.0
 10
38.2430319131522
 20
-5.79421829619125
 30
0.0
 41
1.0
 10
38.4061276196007
 20
-5.75660133899086
 30
0.0
 41
1.0
 10
38.7380566947451
 20
-5.676922569543
 30
0.0
 41
1.0
 10
39.1167280727102
 20
-5.57917498026282
 30
0.0
 41
1.0
 10
39.5115444853194
 20
-5.47113299990968
 30
0.0
 41
1.0
 10
39.8560816141255
 20
-5.37363726226124
 30
0.0
 41
1.0
 10
40.241922943553
 20
-5.260398873141159
 30
0.0
 41
1.0
 10
40.6888130374904
 20
-5.12415033335549
 30
0.0
 41
1.0
 10
41.056114021308
 20
-5.008974351584468
 30
0.0
 41
1.0
 10
41.2719956927896
 20
-4.940279207528848
 30
0.0
 41
1.0
 10
41.3296871658716
 20
-4.921863192299039
 30
0.0
 41
1.0
  0
SPLINE
  5
6E
330
1F
100
AcDbEntity
  8
1
100
AcDbSpline
210
0.0
220
0.0
230
1.0
 70
    12
 71
     3
 72
    18
 73
    14
 74
     0
 42
0.000000001
 43
0.0000000001
 40
0.0
 40
0.0
 40
0.0
 40
0.0
 40
0.0039840635570053
 40
0.0039840635570053
 40
0.335989375704673
 40
0.335989375704673
 40
0.5019920317785052
 40
0.5019920317785052
 40
0.584993359815421
 40
0.584993359815421
 40
0.6679946878523381
 40
0.6679946878523381
 40
1.0
 40
1.0
 40
1.0
 40
1.0
 10
30.31347926308721
 20
-5.773247792709499
 30
0.0
 41
1.0
 10
30.3104952294773
 20
-5.774216173056519
 30
0.0
 41
1.0
 10
30.3075112935144
 20
-5.775181483216298
 30
0.0
 41
1.0
 10
30.0558739957987
 20
-5.85633043374375
 30
0.0
 41
1.0
 10
29.8079104726001
 20
-5.915208683258098
 30
0.0
 41
1.0
 10
29.43467326557
 20
-5.971093675000618
 30
0.0
 41
1.0
 10
29.3100333011039
 20
-5.98430503564998
 30
0.0
 41
1.0
 10
29.1224163309276
 20
-5.99584674859702
 30
0.0
 41
1.0
 10
29.0597696147608
 20
-5.99831423115234
 30
0.0
 41
1.0
 10
28.9342109953272
 20
-6.000456152358029
 30
0.0
 41
1.0
 10
28.8712298755312
 20
-6.000127831192458
 30
0.0
 41
1.0
 10
28.55649911436981
 20
-5.991439427128309
 30
0.0
 41
1.0
 10
28.3054905363103
 20
-5.962060024040908
 30
0.0
 41
1.0
 10
28.0535653752823
 20
-5.910360967585598
 30
0.0
 41
1.0
  0
SPLINE
  5
6F
330
1F
100
AcDbEntity
  8
1
100
AcDbSpline
210
0.0
220
0.0
230
1.0
 70
    12
 71
     3
 72
    18
 73
    14
 74
     0
 42
0.000000001
 43
0.0000000001
 40
0.0
 40
0.0
 40
0.0
 40
0.0
 40
0.25
 40
0.25
 40
0.499999999999999
 40
0.499999999999999
 40
0.5624999999999992
 40
0.5624999999999992
 40
0.625
 40
0.625
 40
0.7499999999999992
 40
0.7499999999999992
 40
1.0
 40
1.0
 40
1.0
 40
1.0
 10
23.2535653752853
 20
4.97591083607742
 30
0.0
 41
1.0
 10
23.5680734049737
 20
4.80222540693586
 30
0.0
 41
1.0
 10
23.878875408687
 20
4.601587631100128
 30
0.0
 41
1.0
 10
24.4992654942108
 20
4.151597747318248
 30
0.0
 41
1.0
 10
24.8088192630517
 20
3.9022218861721
 30
0.0
 41
1.0
 10
25.1987018606511
 20
3.561893158522248
 30
0.0
 41
1.0
 10
25.27682648607961
 20
3.49239259434245
 30
0.0
 41
1.0
 10
25.4334703471677
 20
3.350550653158788
 30
0.0
 41
1.0
 10
25.5121160679542
 20
3.278089635280938
 30
0.0
 41
1.0
 10
25.7477434609455
 20
3.057471552755488
 30
0.0
 41
1.0
 10
25.90427839815
 20
2.906231979530788
 30
0.0
 41
1.0
 10
26.3734012461127
 20
2.441068121760479
 30
0.0
 41
1.0
 10
26.6854935962793
 20
2.115728113785078
 30
0.0
 41
1.0
 10
26.9999999999999
 20
1.777407234185379
 30
0.0
 41
1.0
  0
SPLINE
  5
70
330
1F
100
AcDbEntity
  8
1
100
AcDbSpline
210
0.0
220
0.0
230
1.0
 70
    12
 71
     3
 72
    33
 73
    29
 74
     0
 42
0.000000001
 43
0.0000000001
 40
0.0
 40
0.0
 40
0.0
 40
0.0
 40
0.0019531249999999
 40
0.0019531249999999
 40
0.0039062499999998
 40
0.0078124999999994
 40
0.0078124999999994
 40
0.0156249999999991
 40
0.0156249999999991
 40
0.0312499999999992
 40
0.0312499999999992
 40
0.062499999999999
 40
0.062499999999999
 40
0.124999999999999
 40
0.124999999999999
 40
0.249999999999999
 40
0.249999999999999
 40
0.499999999999999
 40
0.499999999999999
 40
0.625
 40
0.625
 40
0.75
 40
0.75
 40
0.875000000000001
 40
0.875000000000001
 40
0.9375
 40
0.9375
 40
1.0
 40
1.0
 40
1.0
 40
1.0
 10
28.0535653752853
 20
1.03326338987873
 30
0.0
 41
1.0
 10
28.0527910925378
 20
1.034826721107809
 30
0.0
 41
1.0
 10
28.0524245998387
 20
1.03660068913968
 30
0.0
 41
1.0
 10
28.05168130818361
 20
1.04014318096068
 30
0.0
 41
1.0
 10
28.0505573172041
 20
1.04545279398772
 30
0.0
 41
1.0
 10
28.0494117216704
 20
1.05075221749931
 30
0.0
 41
1.0
 10
28.0471060891394
 20
1.061343091117979
 30
0.0
 41
1.0
 10
28.0455553576329
 20
1.06839494887484
 30
0.0
 41
1.0
 10
28.0408930505241
 20
1.08953668251539
 30
0.0
 41
1.0
 10
28.0377596776002
 20
1.10360807204094
 30
0.0
 41
1.0
 10
28.0282827547159
 20
1.14575296633805
 30
0.0
 41
1.0
 10
28.0218637919969
 20
1.173750915024529
 30
0.0
 41
1.0
 10
28.0022945167594
 20
1.257440828255169
 30
0.0
 41
1.0
 10
27.9888307183625
 20
1.31283225178981
 30
0.0
 41
1.0
 10
27.9470922608649
 20
1.477803047452769
 30
0.0
 41
1.0
 10
27.9175706333847
 20
1.585819067222159
 30
0.0
 41
1.0
 10
27.8233227443009
 20
1.90352262628852
 30
0.0
 41
1.0
 10
27.7530239003915
 20
2.1071427461834
 30
0.0
 41
1.0
 10
27.6309418925897
 20
2.40038717183171
 30
0.0
 41
1.0
 10
27.5874150491773
 20
2.496103775808308
 30
0.0
 41
1.0
 10
27.4943435500708
 20
2.681299364917259
 30
0.0
 41
1.0
 10
27.4447098283077
 20
2.771060653597798
 30
0.0
 41
1.0
 10
27.3371244739589
 20
2.94485865629522
 30
0.0
 41
1.0
 10
27.2792356525111
 20
3.028902940865008
 30
0.0
 41
1.0
 10
27.1831556704293
 20
3.150456068625258
 30
0.0
 41
1.0
 10
27.1495704363722
 20
3.190219500169209
 30
0.0
 41
1.0
 10
27.0782869063629
 20
3.26813147425693
 30
0.0
 41
1.0
 10
27.0406113828804
 20
3.3062839804812
 30
0.0
 41
1.0
 10
27.0
 20
3.34351605964414
 30
0.0
 41
1.0
  0
SPLINE
  5
71
330
1F
100
AcDbEntity
  8
1
100
AcDbSpline
210
0.0
220
0.0
230
1.0
 70
    12
 71
     3
 72
    22
 73
    18
 74
     0
 42
0.000000001
 43
0.0000000001
 40
0.0
 40
0.0
 40
0.0
 40
0.0
 40
0.125
 40
0.125
 40
0.25
 40
0.25
 40
0.375
 40
0.375
 40
0.499999999999999
 40
0.499999999999999
 40
0.75
 40
0.75
 40
0.8125
 40
0.8125
 40
0.875
 40
0.875
 40
1.0
 40
1.0
 40
1.0
 40
1.0
 10
27.0
 20
-4.616373074059509
 30
0.0
 41
1.0
 10
26.8429346155427
 20
-4.512080711151129
 30
0.0
 41
1.0
 10
26.6859310745609
 20
-4.4010410281499
 30
0.0
 41
1.0
 10
26.3723423102852
 20
-4.166784512812458
 30
0.0
 41
1.0
 10
26.21558748071401
 20
-4.043517667943349
 30
0.0
 41
1.0
 10
25.9014933474114
 20
-3.785070860840478
 30
0.0
 41
1.0
 10
25.7452422387698
 20
-3.650749769860138
 30
0.0
 41
1.0
 10
25.4340250018177
 20
-3.373155767663859
 30
0.0
 41
1.0
 10
25.27893217738161
 20
-3.22984082739242
 30
0.0
 41
1.0
 10
24.8141378409106
 20
-2.78729666071016
 30
0.0
 41
1.0
 10
24.5051050857884
 20
-2.475363787206279
 30
0.0
 41
1.0
 10
24.1157910202337
 20
-2.06721973972552
 30
0.0
 41
1.0
 10
24.0377855713782
 20
-1.98466949402859
 30
0.0
 41
1.0
 10
23.8814043170661
 20
-1.817770356353209
 30
0.0
 41
1.0
 10
23.8029472405715
 20
-1.733333071098
 30
0.0
 41
1.0
 10
23.5674552706238
 20
-1.478054615566779
 30
0.0
 41
1.0
 10
23.4106386264247
 20
-1.305649213860988
 30
0.0
 41
1.0
 10
23.2535653752853
 20
-1.13139609467859
 30
0.0
 41
1.0
  0
SPLINE
  5
72
330
1F
100
AcDbEntity
  8
1
100
AcDbSpline
210
0.0
220
0.0
230
1.0
 70
    12
 71
     3
 72
    33
 73
    29
 74
     0
 42
0.000000001
 43
0.0000000001
 40
0.0
 40
0.0
 40
0.0
 40
0.0
 40
0.0019531250000001
 40
0.0019531250000001
 40
0.0039062500000002
 40
0.0078125000000004
 40
0.0078125000000004
 40
0.0156250000000005
 40
0.0156250000000005
 40
0.0312500000000007
 40
0.0312500000000007
 40
0.0625000000000013
 40
0.0625000000000013
 40
0.125000000000002
 40
0.125000000000002
 40
0.250000000000002
 40
0.250000000000002
 40
0.5
 40
0.5
 40
0.625
 40
0.625
 40
0.7499999999999992
 40
0.7499999999999992
 40
0.8749999999999989
 40
0.8749999999999989
 40
0.9374999999999987
 40
0.9374999999999987
 40
1.0
 40
1.0
 40
1.0
 40
1.0
 10
28.0535653752853
 20
-5.910360967583638
 30
0.0
 41
1.0
 10
28.0527910925378
 20
-5.909600527224059
 30
0.0
 41
1.0
 10
28.0524245998387
 20
-5.9090595447104
 30
0.0
 41
1.0
 10
28.05168130818361
 20
-5.90797019967661
 30
0.0
 41
1.0
 10
28.0505573172041
 20
-5.906329158596348
 30
0.0
 41
1.0
 10
28.0494117216704
 20
-5.90467024356036
 30
0.0
 41
1.0
 10
28.0471060891394
 20
-5.90133673206461
 30
0.0
 41
1.0
 10
28.0455553576329
 20
-5.89909665386298
 30
0.0
 41
1.0
 10
28.0408930505241
 20
-5.89234052547445
 30
0.0
 41
1.0
 10
28.0377596776002
 20
-5.88778209208044
 30
0.0
 41
1.0
 10
28.0282827547159
 20
-5.87394471888342
 30
0.0
 41
1.0
 10
28.0218637919969
 20
-5.86450573688307
 30
0.0
 41
1.0
 10
28.0022945167594
 20
-5.835557680914579
 30
0.0
 41
1.0
 10
27.9888307183625
 20
-5.815416036427818
 30
0.0
 41
1.0
 10
27.9470922608649
 20
-5.75253137715754
 30
0.0
 41
1.0
 10
27.9175706333846
 20
-5.707465465895499
 30
0.0
 41
1.0
 10
27.8233227443009
 20
-5.56388279711274
 30
0.0
 41
1.0
 10
27.7530239003916
 20
-5.4568015841742
 30
0.0
 41
1.0
 10
27.63094189258981
 20
-5.282976878285098
 30
0.0
 41
1.0
 10
27.5874150491774
 20
-5.222824231070209
 30
0.0
 41
1.0
 10
27.4943435500708
 20
-5.10069771215407
 30
0.0
 41
1.0
 10
27.4447098283078
 20
-5.038546842882508
 30
0.0
 41
1.0
 10
27.3371244739589
 20
-4.91400500569898
 30
0.0
 41
1.0
 10
27.2792356525111
 20
-4.851565322386528
 30
0.0
 41
1.0
 10
27.1831556704293
 20
-4.76026117251183
 30
0.0
 41
1.0
 10
27.1495704363722
 20
-4.730232610397369
 30
0.0
 41
1.0
 10
27.0782869063628
 20
-4.67177963014546
 30
0.0
 41
1.0
 10
27.0406113828804
 20
-4.643339277314338
 30
0.0
 41
1.0
 10
27.0
 20
-4.616373074059509
 30
0.0
 41
1.0
  0
SPLINE
  5
73
330
1F
100
AcDbEntity
  8
1
100
AcDbSpline
210
0.0
220
0.0
230
1.0
 70
    12
 71
     3
 72
    22
 73
    18
 74
     0
 42
0.000000001
 43
0.0000000001
 40
0.0
 40
0.0
 40
0.0
 40
0.0
 40
0.0040181236346945
 40
0.0078447980466823
 40
0.0114333388896736
 40
0.0150960870670601
 40
0.0191272783903393
 40
0.0237504954843713
 40
0.0503117930434842
 40
0.14480553132485
 40
0.286315254183742
 40
0.4151260476628421
 40
0.512989171657884
 40
0.6074308839504871
 40
0.710276150166062
 40
0.8771962286183189
 40
1.0
 40
1.0
 40
1.0
 40
1.0
 10
30.1456250355848
 20
-5.83573554798019
 30
0.0
 41
1.0
 10
30.14565134906
 20
-5.835810122888489
 30
0.0
 41
1.0
 10
30.1463855222446
 20
-5.83579476198494
 30
0.0
 41
1.0
 10
30.1503942696751
 20
-5.83508724051813
 30
0.0
 41
1.0
 10
30.1576570921534
 20
-5.83361126905467
 30
0.0
 41
1.0
 10
30.1679732112932
 20
-5.83141475594334
 30
0.0
 41
1.0
 10
30.1810702895465
 20
-5.82856689698937
 30
0.0
 41
1.0
 10
30.2208361003842
 20
-5.81981592296637
 30
0.0
 41
1.0
 10
30.3645301915896
 20
-5.78759241207115
 30
0.0
 41
1.0
 10
30.6472728588764
 20
-5.72162369653807
 30
0.0
 41
1.0
 10
31.0395006433549
 20
-5.622997405214679
 30
0.0
 41
1.0
 10
31.4444646181184
 20
-5.51420844624042
 30
0.0
 41
1.0
 10
31.8075846195792
 20
-5.413617129499098
 30
0.0
 41
1.0
 10
32.1389073308209
 20
-5.317869046865179
 30
0.0
 41
1.0
 10
32.544169694068
 20
-5.19674252858349
 30
0.0
 41
1.0
 10
32.97442285982
 20
-5.06319963434365
 30
0.0
 41
1.0
 10
33.2950400810445
 20
-4.961174259993298
 30
0.0
 41
1.0
 10
33.43131394949561
 20
-4.91754981910086
 30
0.0
 41
1.0
  0
SPLINE
  5
74
330
1F
100
AcDbEntity
  8
1
100
AcDbSpline
210
0.0
220
0.0
230
1.0
 70
    12
 71
     3
 72
    74
 73
    70
 74
     0
 42
0.000000001
 43
0.0000000001
 40
0.0
 40
0.0
 40
0.0
 40
0.0
 40
0.0459168445938876
 40
0.0459168445938876
 40
0.0918336891877752
 40
0.0918336891877752
 40
0.114792111484719
 40
0.114792111484719
 40
0.126271322633191
 40
0.126271322633191
 40
0.137750533781663
 40
0.137750533781663
 40
0.183667378375551
 40
0.183667378375551
 40
0.229584222969439
 40
0.229584222969439
 40
0.252542645266382
 40
0.252542645266382
 40
0.264021856414854
 40
0.264021856414854
 40
0.275501067563326
 40
0.275501067563326
 40
0.321417912157214
 40
0.321417912157214
 40
0.367334756751101
 40
0.367334756751101
 40
0.390293179048045
 40
0.390293179048045
 40
0.4017723901965172
 40
0.4017723901965172
 40
0.413251601344989
 40
0.413251601344989
 40
0.4591684459388762
 40
0.4591684459388762
 40
0.505085290532764
 40
0.505085290532764
 40
0.528043712829708
 40
0.528043712829708
 40
0.5395229239781802
 40
0.5395229239781802
 40
0.551002135126652
 40
0.551002135126652
 40
0.596918979720539
 40
0.596918979720539
 40
0.6428358243144272
 40
0.6428358243144272
 40
0.665794246611371
 40
0.665794246611371
 40
0.6772734577598431
 40
0.6772734577598431
 40
0.688752668908315
 40
0.688752668908315
 40
0.7346695135022033
 40
0.7346695135022033
 40
0.7805863580960902
 40
0.7805863580960902
 40
0.803544780393034
 40
0.803544780393034
 40
0.8265032026899778
 40
0.8265032026899778
 40
0.8724200472838658
 40
0.8724200472838658
 40
0.918336891877754
 40
0.918336891877754
 40
0.941295314174698
 40
0.941295314174698
 40
0.9642537364716419
 40
0.9642537364716419
 40
1.0
 40
1.0
 40
1.0
 40
1.0
 10
28.0535653752838
 20
5.96832268625445
 30
0.0
 41
1.0
 10
28.3058978543507
 20
5.999182708202848
 30
0.0
 41
1.0
 10
28.5557859734243
 20
6.00731427392338
 30
0.0
 41
1.0
 10
29.0540441988031
 20
5.97975111300315
 30
0.0
 41
1.0
 10
29.3024101762317
 20
5.94405254149015
 30
0.0
 41
1.0
 10
29.676200936229
 20
5.857846456802429
 30
0.0
 41
1.0
 10
29.801005512269
 20
5.823658077781429
 30
0.0
 41
1.0
 10
29.9888360127656
 20
5.764132989159119
 30
0.0
 41
1.0
 10
30.0515502238574
 20
5.742916905994038
 30
0.0
 41
1.0
 10
30.1772401364298
 20
5.69771747809025
 30
0.0
 41
1.0
 10
30.2402911032947
 20
5.673703552822559
 30
0.0
 41
1.0
 10
30.5554627731864
 20
5.54700945940311
 30
0.0
 41
1.0
 10
30.8052213696914
 20
5.425419278258968
 30
0.0
 41
1.0
 10
31.3033659488158
 20
5.14434303639811
 30
0.0
 41
1.0
 10
31.5517323108843
 20
4.984846317326398
 30
0.0
 41
1.0
 10
31.9256286520464
 20
4.71819091989116
 30
0.0
 41
1.0
 10
32.0504864513925
 20
4.6247295522422
 30
0.0
 41
1.0
 10
32.2384213492535
 20
4.477727146712768
 30
0.0
 41
1.0
 10
32.3011743430784
 20
4.4275907104354
 30
0.0
 41
1.0
 10
32.4269492982044
 20
4.32504902187006
 30
0.0
 41
1.0
 10
32.4900738508382
 20
4.272555959191438
 30
0.0
 41
1.0
 10
32.8050034184133
 20
4.005703634855819
 30
0.0
 41
1.0
 10
33.0546452311588
 20
3.77838219158306
 30
0.0
 41
1.0
 10
33.5526664490178
 20
3.299085306839339
 30
0.0
 41
1.0
 10
33.8010285760948
 20
3.04709585005222
 30
0.0
 41
1.0
 10
34.1750215974334
 20
2.65227217331733
 30
0.0
 41
1.0
 10
34.299926637029
 20
2.517851675518898
 30
0.0
 41
1.0
 10
34.4879531392557
 20
2.312164023563409
 30
0.0
 41
1.0
 10
34.5507404687124
 20
2.242925210933068
 30
0.0
 41
1.0
 10
34.6765934015208
 20
2.103120033837568
 30
0.0
 41
1.0
 10
34.7397449500072
 20
2.03245588252327
 30
0.0
 41
1.0
 10
35.0544682063556
 20
1.67799174936331
 30
0.0
 41
1.0
 10
35.3040106261068
 20
1.389625616734919
 30
0.0
 41
1.0
 10
35.8019371757994
 20
0.806232306815929
 30
0.0
 41
1.0
 10
36.0503192340353
 20
0.511202969972572
 30
0.0
 41
1.0
 10
36.4244186070018
 20
0.0656545388527263
 30
0.0
 41
1.0
 10
36.5493716838176
 20
-0.0833645827791258
 30
0.0
 41
1.0
 10
36.7374968580775
 20
-0.307397162894375
 30
0.0
 41
1.0
 10
36.8003213343831
 20
-0.3821586244837079
 30
0.0
 41
1.0
 10
36.9262570965758
 20
-0.5318070165175472
 30
0.0
 41
1.0
 10
36.9893988699161
 20
-0.606729461747079
 30
0.0
 41
1.0
 10
37.3039240405257
 20
-0.9791373777087526
 30
0.0
 41
1.0
 10
37.5533622012366
 20
-1.27192648112012
 30
0.0
 41
1.0
 10
38.0512107573306
 20
-1.844878944967149
 30
0.0
 41
1.0
 10
38.2996119539329
 20
-2.12504916913733
 30
0.0
 41
1.0
 10
38.67382215114929
 20
-2.5338671313917
 30
0.0
 41
1.0
 10
38.7988286065141
 20
-2.66822915424166
 30
0.0
 41
1.0
 10
38.9870583204718
 20
-2.86661729980781
 30
0.0
 41
1.0
 10
39.0499216766487
 20
-2.932220572048489
 30
0.0
 41
1.0
 10
39.1759426901825
 20
-3.06232294286613
 30
0.0
 41
1.0
 10
39.239036456077
 20
-3.12675353413869
 30
0.0
 41
1.0
 10
39.5533635379141
 20
-3.44401467160418
 30
0.0
 41
1.0
 10
39.8027066259106
 20
-3.6837711880585
 30
0.0
 41
1.0
 10
40.3004882002379
 20
-4.13383683938758
 30
0.0
 41
1.0
 10
40.5489044319385
 20
-4.344158608311399
 30
0.0
 41
1.0
 10
40.9232378636983
 20
-4.63594160808572
 30
0.0
 41
1.0
 10
41.0483015763747
 20
-4.729245299471639
 30
0.0
 41
1.0
 10
41.29941642753149
 20
-4.90757269377292
 30
0.0
 41
1.0
 10
41.42582577297338
 20
-4.9928073173138
 30
0.0
 41
1.0
 10
41.8027876315523
 20
-5.2327226492387
 30
0.0
 41
1.0
 10
42.0520484488235
 20
-5.37243941665366
 30
0.0
 41
1.0
 10
42.5497614607438
 20
-5.611326641689887
 30
0.0
 41
1.0
 10
42.7982036204684
 20
-5.710497837759358
 30
0.0
 41
1.0
 10
43.1726677704934
 20
-5.827872350158629
 30
0.0
 41
1.0
 10
43.2977876228753
 20
-5.86175791036237
 30
0.0
 41
1.0
 10
43.5490450384444
 20
-5.918765630480518
 30
0.0
 41
1.0
 10
43.67546035451939
 20
-5.941896328161559
 30
0.0
 41
1.0
 10
43.9965717251599
 20
-5.986394873106919
 30
0.0
 41
1.0
 10
44.19089689392009
 20
-5.99987465650619
 30
0.0
 41
1.0
 10
44.384791523471
 20
-6.000003985643219
 30
0.0
 41
1.0
  0
SPLINE
  5
75
330
1F
100
AcDbEntity
  8
1
100
AcDbSpline
210
0.0
220
0.0
230
1.0
 70
    12
 71
     3
 72
    70
 73
    66
 74
     0
 42
0.000000001
 43
0.0000000001
 40
0.0
 40
0.0
 40
0.0
 40
0.0
 40
0.0246384310236363
 40
0.0246384310236363
 40
0.0492768620472725
 40
0.0492768620472725
 40
0.0985537240945451
 40
0.0985537240945451
 40
0.123192155118181
 40
0.123192155118181
 40
0.135511370629999
 40
0.135511370629999
 40
0.147830586141818
 40
0.147830586141818
 40
0.19710744818909
 40
0.19710744818909
 40
0.246384310236363
 40
0.246384310236363
 40
0.271022741259999
 40
0.271022741259999
 40
0.283341956771818
 40
0.283341956771818
 40
0.295661172283636
 40
0.295661172283636
 40
0.344938034330909
 40
0.344938034330909
 40
0.3942148963781811
 40
0.3942148963781811
 40
0.418853327401818
 40
0.418853327401818
 40
0.443491758425454
 40
0.443491758425454
 40
0.4927686204727272
 40
0.4927686204727272
 40
0.542045482519999
 40
0.542045482519999
 40
0.5666839135436362
 40
0.5666839135436362
 40
0.591322344567272
 40
0.591322344567272
 40
0.6405992066145451
 40
0.6405992066145451
 40
0.6898760686618171
 40
0.6898760686618171
 40
0.7145144996854543
 40
0.7145144996854543
 40
0.73915293070909
 40
0.73915293070909
 40
0.7884297927563628
 40
0.7884297927563628
 40
0.8377066548036349
 40
0.8377066548036349
 40
0.8623450858272711
 40
0.8623450858272711
 40
0.8746643013390899
 40
0.8746643013390899
 40
0.8869835168509078
 40
0.8869835168509078
 40
0.93626037889818
 40
0.93626037889818
 40
0.9608988099218171
 40
0.9608988099218171
 40
0.9855372409454542
 40
0.9855372409454542
 40
1.0
 40
1.0
 40
1.0
 40
1.0
 10
52.0535653752853
 20
-5.95795624214469
 30
0.0
 41
1.0
 10
51.92760771152389
 20
-5.94021707440675
 30
0.0
 41
1.0
 10
51.80163394661589
 20
-5.916880564285918
 30
0.0
 41
1.0
 10
51.5498074800057
 20
-5.85917317866478
 30
0.0
 41
1.0
 10
51.4237618536458
 20
-5.82474508565824
 30
0.0
 41
1.0
 10
51.0466977771672
 20
-5.705519552977708
 30
0.0
 41
1.0
 10
50.796654596589
 20
-5.60490254581524
 30
0.0
 41
1.0
 10
50.42123553052089
 20
-5.423355721531348
 30
0.0
 41
1.0
 10
50.2960380979182
 20
-5.357725457620088
 30
0.0
 41
1.0
 10
50.1078234038536
 20
-5.251668368287058
 30
0.0
 41
1.0
 10
50.0450138100251
 20
-5.21504751272195
 30
0.0
 41
1.0
 10
49.9192022740839
 20
-5.13926963401841
 30
0.0
 41
1.0
 10
49.8561786884224
 20
-5.100094221893558
 30
0.0
 41
1.0
 10
49.5421695176239
 20
-4.898994400757598
 30
0.0
 41
1.0
 10
49.2931712364754
 20
-4.720643543207098
 30
0.0
 41
1.0
 10
48.7961143272836
 20
-4.33180778499863
 30
0.0
 41
1.0
 10
48.5481094640386
 20
-4.121294231875539
 30
0.0
 41
1.0
 10
48.1745232925727
 20
-3.78263927864495
 30
0.0
 41
1.0
 10
48.0497170919528
 20
-3.665942155686618
 30
0.0
 41
1.0
 10
47.8617847686771
 20
-3.48527681065912
 30
0.0
 41
1.0
 10
47.79902149172971
 20
-3.424116997963948
 30
0.0
 41
1.0
 10
47.67320529021328
 20
-3.29993119412137
 30
0.0
 41
1.0
 10
47.61021759119048
 20
-3.23696697073899
 30
0.0
 41
1.0
 10
47.2964207306674
 20
-2.91957497942425
 30
0.0
 41
1.0
 10
47.0474892177897
 20
-2.656002228125148
 30
0.0
 41
1.0
 10
46.5505146209107
 20
-2.112537933212109
 30
0.0
 41
1.0
 10
46.3025408801069
 20
-1.83259049601284
 30
0.0
 41
1.0
 10
45.92882159289449
 20
-1.40227505501753
 30
0.0
 41
1.0
 10
45.803962251258
 20
-1.25709541909649
 30
0.0
 41
1.0
 10
45.5532796947026
 20
-0.9635054384902728
 30
0.0
 41
1.0
 10
45.42709063752099
 20
-0.8146590496893399
 30
0.0
 41
1.0
 10
45.0507394071293
 20
-0.368875784188163
 30
0.0
 41
1.0
 10
44.80184775183539
 20
-0.0716974895107967
 30
0.0
 41
1.0
 10
44.30496475619639
 20
0.520085578927649
 30
0.0
 41
1.0
 10
44.05693534417738
 20
0.8146577014622661
 30
0.0
 41
1.0
 10
43.6831111518566
 20
1.25249679450451
 30
0.0
 41
1.0
 10
43.55821577163498
 20
1.397780373215
 30
0.0
 41
1.0
 10
43.3074227489591
 20
1.686648770685389
 30
0.0
 41
1.0
 10
43.1812195406624
 20
1.830559835277169
 30
0.0
 41
1.0
 10
42.8050224415543
 20
2.25395820243474
 30
0.0
 41
1.0
 10
42.5562408899951
 20
2.526653172035509
 30
0.0
 41
1.0
 10
42.0594117795557
 20
3.050945190708288
 30
0.0
 41
1.0
 10
41.81132439719038
 20
3.3025134232079
 30
0.0
 41
1.0
 10
41.4374133628708
 20
3.662199186735878
 30
0.0
 41
1.0
 10
41.31247522287909
 20
3.779141324450478
 30
0.0
 41
1.0
 10
41.0615365710586
 20
4.00670101724694
 30
0.0
 41
1.0
 10
40.9353321009937
 20
4.1174721883709
 30
0.0
 41
1.0
 10
40.55933195581278
 20
4.43573174148719
 30
0.0
 41
1.0
 10
40.3106496696354
 20
4.630604186885538
 30
0.0
 41
1.0
 10
39.81381474121251
 20
4.984816610981768
 30
0.0
 41
1.0
 10
39.5657411205471
 20
5.14419733744015
 30
0.0
 41
1.0
 10
39.1917107509241
 20
5.35525475134244
 30
0.0
 41
1.0
 10
39.0666993194468
 20
5.420924644639258
 30
0.0
 41
1.0
 10
38.87839002352301
 20
5.512156383357018
 30
0.0
 41
1.0
 10
38.8154154723164
 20
5.54138580665401
 30
0.0
 41
1.0
 10
38.68953388161541
 20
5.59719950648991
 30
0.0
 41
1.0
 10
38.6266634910994
 20
5.623771095624759
 30
0.0
 41
1.0
 10
38.3125292478148
 20
5.74994768105449
 30
0.0
 41
1.0
 10
38.0618772149865
 20
5.829548883737828
 30
0.0
 41
1.0
 10
37.6844507336072
 20
5.916288200707378
 30
0.0
 41
1.0
 10
37.558483577669
 20
5.939709115252808
 30
0.0
 41
1.0
 10
37.30723731342261
 20
5.97528831479383
 30
0.0
 41
1.0
 10
37.1817553609606
 20
5.987494733221179
 30
0.0
 41
1.0
 10
36.9825161641025
 20
5.998005317180767
 30
0.0
 41
1.0
 10
36.9088028176744
 20
5.99996922396386
 30
0.0
 41
1.0
 10
36.8350300002016
 20
6.000000273728028
 30
0.0
 41
1.0
  0
SPLINE
  5
76
330
1F
100
AcDbEntity
  8
1
100
AcDbSpline
210
0.0
220
0.0
230
1.0
 70
    12
 71
     3
 72
    12
 73
     8
 74
     0
 42
0.000000001
 43
0.0000000001
 40
0.0
 40
0.0
 40
0.0
 40
0.0
 40
0.5
 40
0.5
 40
0.75
 40
0.75
 40
1.0
 40
1.0
 40
1.0
 40
1.0
 10
27.0
 20
1.777407234185259
 30
0.0
 41
1.0
 10
27.184446397599
 20
1.578994525456689
 30
0.0
 41
1.0
 10
27.3680444830799
 20
1.386006486111678
 30
0.0
 41
1.0
 10
27.6345463049296
 20
1.098365235119989
 30
0.0
 41
1.0
 10
27.7218576235047
 20
1.002758706614199
 30
0.0
 41
1.0
 10
27.8916986427766
 20
0.8104705009076841
 30
0.0
 41
1.0
 10
27.9741418502155
 20
0.7136887652333142
 30
0.0
 41
1.0
 10
28.0535653752853
 20
0.615730714467162
 30
0.0
 41
1.0
  0
SPLINE
  5
77
330
1F
100
AcDbEntity
  8
1
100
AcDbSpline
210
0.0
220
0.0
230
1.0
 70
    12
 71
     3
 72
    42
 73
    38
 74
     0
 42
0.000000001
 43
0.0000000001
 40
0.0
 40
0.0
 40
0.0
 40
0.0
 40
0.0890115269927453
 40
0.0890115269927453
 40
0.178023053985491
 40
0.178023053985491
 40
0.222528817481863
 40
0.222528817481863
 40
0.24478169923005
 40
0.24478169923005
 40
0.267034580978236
 40
0.267034580978236
 40
0.356046107970982
 40
0.356046107970982
 40
0.445057634963728
 40
0.445057634963728
 40
0.4895633984601011
 40
0.4895633984601011
 40
0.5118162802082871
 40
0.5118162802082871
 40
0.534069161956473
 40
0.534069161956473
 40
0.6230806889492171
 40
0.6230806889492171
 40
0.712092215941961
 40
0.712092215941961
 40
0.7565979794383332
 40
0.7565979794383332
 40
0.7788508611865193
 40
0.7788508611865193
 40
0.801103742934705
 40
0.801103742934705
 40
0.890115269927449
 40
0.890115269927449
 40
0.9791267969201918
 40
0.9791267969201918
 40
1.0
 40
1.0
 40
1.0
 40
1.0
 10
28.0535653752838
 20
0.615730714468924
 30
0.0
 41
1.0
 10
28.3058978543507
 20
0.316602272822479
 30
0.0
 41
1.0
 10
28.5557859734243
 20
0.0180767818975198
 30
0.0
 41
1.0
 10
29.0540441988031
 20
-0.575089716709385
 30
0.0
 41
1.0
 10
29.3024101762317
 20
-0.869733787207423
 30
0.0
 41
1.0
 10
29.676200936229
 20
-1.30678393687657
 30
0.0
 41
1.0
 10
29.801005512269
 20
-1.45164622703015
 30
0.0
 41
1.0
 10
29.9888360127656
 20
-1.66743468451617
 30
0.0
 41
1.0
 10
30.0515502238574
 20
-1.73911317655171
 30
0.0
 41
1.0
 10
30.1772401364298
 20
-1.88192050041241
 30
0.0
 41
1.0
 10
30.2402911032947
 20
-1.953133660543359
 30
0.0
 41
1.0
 10
30.5554627731864
 20
-2.30672401414458
 30
0.0
 41
1.0
 10
30.8052213696915
 20
-2.579328149351769
 30
0.0
 41
1.0
 10
31.3033659488158
 20
-3.10223190151939
 30
0.0
 41
1.0
 10
31.5517323108843
 20
-3.352544430297029
 30
0.0
 41
1.0
 10
31.9256286520464
 20
-3.7095466279016
 30
0.0
 41
1.0
 10
32.0504864513925
 20
-3.82546347526991
 30
0.0
 41
1.0
 10
32.2384213492535
 20
-3.994437777409128
 30
0.0
 41
1.0
 10
32.3011743430784
 20
-4.04994536242361
 30
0.0
 41
1.0
 10
32.4269492982044
 20
-4.159274924331299
 30
0.0
 41
1.0
 10
32.4900738508382
 20
-4.213181726296229
 30
0.0
 41
1.0
 10
32.8050034184133
 20
-4.47710769595733
 30
0.0
 41
1.0
 10
33.0546452311588
 20
-4.6703204197949
 30
0.0
 41
1.0
 10
33.5526664490178
 20
-5.0203686067282
 30
0.0
 41
1.0
 10
33.8010285760948
 20
-5.177209297490318
 30
0.0
 41
1.0
 10
34.1750215974334
 20
-5.384006373139159
 30
0.0
 41
1.0
 10
34.299926637029
 20
-5.44818683727885
 30
0.0
 41
1.0
 10
34.4879531392557
 20
-5.53710003039424
 30
0.0
 41
1.0
 10
34.5507404687124
 20
-5.56551080893087
 30
0.0
 41
1.0
 10
34.6765934015208
 20
-5.619831864872509
 30
0.0
 41
1.0
 10
34.7397449500072
 20
-5.64577278374153
 30
0.0
 41
1.0
 10
35.0544682063556
 20
-5.76839488330222
 30
0.0
 41
1.0
 10
35.3040106261068
 20
-5.84439692339566
 30
0.0
 41
1.0
 10
35.8019371757994
 20
-5.952984480101429
 30
0.0
 41
1.0
 10
36.0503192340353
 20
-5.985566995851508
 30
0.0
 41
1.0
 10
36.3582030179868
 20
-5.99866425368054
 30
0.0
 41
1.0
 10
36.4167429329643
 20
-5.999941641375049
 30
0.0
 41
1.0
 10
36.4753602682528
 20
-5.999998674313789
 30
0.0
 41
1.0
  0
SPLINE
  5
78
330
1F
100
AcDbEntity
  8
1
100
AcDbSpline
210
0.0
220
0.0
230
1.0
 70
    12
 71
     3
 72
    18
 73
    14
 74
     0
 42
0.000000001
 43
0.0000000001
 40
0.0
 40
0.0
 40
0.0
 40
0.0
 40
0.200000000002145
 40
0.200000000002145
 40
0.333333333335121
 40
0.333333333335121
 40
0.4000000000016092
 40
0.4000000000016092
 40
0.4666666666680971
 40
0.4666666666680971
 40
0.7333333333340492
 40
0.7333333333340492
 40
1.0
 40
1.0
 40
1.0
 40
1.0
 10
49.2353764880038
 20
4.924954621437138
 30
0.0
 41
1.0
 10
49.421951990819
 20
5.051965056386388
 30
0.0
 41
1.0
 10
49.60861770727611
 20
5.16889055775653
 30
0.0
 41
1.0
 10
49.92102030042211
 20
5.34626310744272
 30
0.0
 41
1.0
 10
50.04632674205828
 20
5.4125362804381
 30
0.0
 41
1.0
 10
50.23511974788711
 20
5.50466380617473
 30
0.0
 41
1.0
 10
50.29826397423351
 20
5.534188972882589
 30
0.0
 41
1.0
 10
50.4242031500923
 20
5.59046190818762
 30
0.0
 41
1.0
 10
50.4870623693075
 20
5.617244066997759
 30
0.0
 41
1.0
 10
50.80094102042139
 20
5.74440633829255
 30
0.0
 41
1.0
 10
51.05071668066339
 20
5.82459054338074
 30
0.0
 41
1.0
 10
51.55086417717551
 20
5.94166436432957
 30
0.0
 41
1.0
 10
51.8012310376618
 20
5.97855573559295
 30
0.0
 41
1.0
 10
52.0535653752853
 20
5.993037971977829
 30
0.0
 41
1.0
  0
SPLINE
  5
79
330
1F
100
AcDbEntity
  8
1
100
AcDbSpline
210
0.0
220
0.0
230
1.0
 70
    12
 71
     3
 72
    22
 73
    18
 74
     0
 42
0.000000001
 43
0.0000000001
 40
0.4298227262934984
 40
0.4298227262934984
 40
0.4298227262934984
 40
0.4298227262934984
 40
0.4679112209969262
 40
0.5429156888844929
 40
0.622144489136878
 40
0.6933355461589663
 40
0.74418441905619
 40
0.8011326384287059
 40
0.8685615550343149
 40
0.9242073009401428
 40
0.963555146129239
 40
0.976990023444482
 40
0.9865248303984319
 40
0.9901640046302173
 40
0.9933946975088847
 40
0.9966292043026122
 40
1.0
 40
1.0
 40
1.0
 40
1.0
 10
41.33013785945624
 20
4.921712248025131
 30
0.0
 41
1.0
 10
41.25738408702885
 20
4.944939530303373
 30
0.0
 41
1.0
 10
41.04136320267802
 20
5.013636817404655
 30
0.0
 41
1.0
 10
40.6738535230385
 20
5.128706609650098
 30
0.0
 41
1.0
 10
40.2419252518276
 20
5.260399431525708
 30
0.0
 41
1.0
 10
39.8560757847003
 20
5.37363844282353
 30
0.0
 41
1.0
 10
39.5115600886077
 20
5.47112937454725
 30
0.0
 41
1.0
 10
39.1777239751145
 20
5.56248061588599
 30
0.0
 41
1.0
 10
38.84020550162921
 20
5.650704213896799
 30
0.0
 41
1.0
 10
38.5344831950172
 20
5.726186310108058
 30
0.0
 41
1.0
 10
38.3298255981561
 20
5.774295146136008
 30
0.0
 41
1.0
 10
38.2095215914739
 20
5.80174259533345
 30
0.0
 41
1.0
 10
38.15632311173361
 20
5.81368261436617
 30
0.0
 41
1.0
 10
38.1263915461295
 20
5.82022065820041
 30
0.0
 41
1.0
 10
38.11149054314351
 20
5.82334895493767
 30
0.0
 41
1.0
 10
38.1032383669084
 20
5.82488028476507
 30
0.0
 41
1.0
 10
38.1018433747309
 20
5.82492597747668
 30
0.0
 41
1.0
 10
38.1017933714439
 20
5.824790951817758
 30
0.0
 41
1.0
  0
SPLINE
  5
7A
330
1F
100
AcDbEntity
  8
1
100
AcDbSpline
210
0.0
220
0.0
230
1.0
 70
    12
 71
     3
 72
    50
 73
    46
 74
     0
 42
0.000000001
 43
0.0000000001
 40
0.0
 40
0.0
 40
0.0
 40
0.0
 40
0.020944788303123
 40
0.020944788303123
 40
0.0908773034243286
 40
0.0908773034243286
 40
0.160809818545534
 40
0.160809818545534
 40
0.195776076106137
 40
0.195776076106137
 40
0.230742333666739
 40
0.230742333666739
 40
0.3006748487879451
 40
0.3006748487879451
 40
0.370607363909151
 40
0.370607363909151
 40
0.4055736214697532
 40
0.4055736214697532
 40
0.423056750250055
 40
0.423056750250055
 40
0.4405398790303562
 40
0.4405398790303562
 40
0.510472394151562
 40
0.510472394151562
 40
0.5804049092727671
 40
0.5804049092727671
 40
0.61537116683337
 40
0.61537116683337
 40
0.6328542956136722
 40
0.6328542956136722
 40
0.650337424393973
 40
0.650337424393973
 40
0.7202699395151779
 40
0.7202699395151779
 40
0.7902024546363841
 40
0.7902024546363841
 40
0.8251687121969871
 40
0.8251687121969871
 40
0.842651840977288
 40
0.842651840977288
 40
0.8601349697575891
 40
0.8601349697575891
 40
0.930067484878794
 40
0.930067484878794
 40
1.0
 40
1.0
 40
1.0
 40
1.0
 10
41.325211911922
 20
4.923691523958328
 30
0.0
 41
1.0
 10
41.4006752545178
 20
4.975084590800038
 30
0.0
 41
1.0
 10
41.47621300798268
 20
5.02487599995882
 30
0.0
 41
1.0
 10
41.8027876315523
 20
5.2327226492387
 30
0.0
 41
1.0
 10
42.0520484488235
 20
5.37243941665366
 30
0.0
 41
1.0
 10
42.5497614607438
 20
5.611326641689887
 30
0.0
 41
1.0
 10
42.7982036204684
 20
5.710497837759358
 30
0.0
 41
1.0
 10
43.1726677704934
 20
5.8278723501586
 30
0.0
 41
1.0
 10
43.2977876228753
 20
5.86175791036237
 30
0.0
 41
1.0
 10
43.5490450384444
 20
5.918765630480549
 30
0.0
 41
1.0
 10
43.67546035451939
 20
5.941896328161559
 30
0.0
 41
1.0
 10
44.05220423865089
 20
5.99410424165737
 30
0.0
 41
1.0
 10
44.30137873663579
 20
6.00644297414848
 30
0.0
 41
1.0
 10
44.7990340254372
 20
5.98731350154853
 30
0.0
 41
1.0
 10
45.0475130750897
 20
5.95584356991182
 30
0.0
 41
1.0
 10
45.4221066153652
 20
5.87563934344368
 30
0.0
 41
1.0
 10
45.54728428025039
 20
5.843394603213878
 30
0.0
 41
1.0
 10
45.7358407544867
 20
5.786652097915458
 30
0.0
 41
1.0
 10
45.7989091516169
 20
5.76631184437517
 30
0.0
 41
1.0
 10
45.9249588023415
 20
5.722953172501427
 30
0.0
 41
1.0
 10
45.98783539272549
 20
5.69997493453425
 30
0.0
 41
1.0
 10
46.30161237382978
 20
5.578705526917278
 30
0.0
 41
1.0
 10
46.5506993173878
 20
5.46132812001474
 30
0.0
 41
1.0
 10
47.04831247587499
 20
5.18799061371703
 30
0.0
 41
1.0
 10
47.296823218703
 20
5.03202368927424
 30
0.0
 41
1.0
 10
47.67155582103189
 20
4.769843872962097
 30
0.0
 41
1.0
 10
47.7967965485541
 20
4.67773787452933
 30
0.0
 41
1.0
 10
47.9854713337832
 20
4.53252419492486
 30
0.0
 41
1.0
 10
48.048601321483
 20
4.482859680746798
 30
0.0
 41
1.0
 10
48.1745660855092
 20
4.38167716827434
 30
0.0
 41
1.0
 10
48.23740356479529
 20
4.330161545956708
 30
0.0
 41
1.0
 10
48.5510034953555
 20
4.068094755097948
 30
0.0
 41
1.0
 10
48.80001694149409
 20
3.84411714886761
 30
0.0
 41
1.0
 10
49.29759438423549
 20
3.37026574510043
 30
0.0
 41
1.0
 10
49.5461371886499
 20
3.12037666753022
 30
0.0
 41
1.0
 10
49.92102030042211
 20
2.72757190607698
 30
0.0
 41
1.0
 10
50.04632674205828
 20
2.59363643832083
 30
0.0
 41
1.0
 10
50.23511974788711
 20
2.388367878133689
 30
0.0
 41
1.0
 10
50.29826397423351
 20
2.319134361267519
 30
0.0
 41
1.0
 10
50.4242031500923
 20
2.17999252895282
 30
0.0
 41
1.0
 10
50.4870623693075
 20
2.110015690065329
 30
0.0
 41
1.0
 10
50.80094102042139
 20
1.75822346397561
 30
0.0
 41
1.0
 10
51.05071668066339
 20
1.470702774676399
 30
0.0
 41
1.0
 10
51.55086417717551
 20
0.8862540443558659
 30
0.0
 41
1.0
 10
51.8012310376618
 20
0.589322099752309
 30
0.0
 41
1.0
 10
52.0535653752853
 20
0.288956513046656
 30
0.0
 41
1.0
  0
SPLINE
  5
7B
330
1F
100
AcDbEntity
  8
1
100
AcDbSpline
210
0.0
220
0.0
230
1.0
 70
    12
 71
     3
 72
     8
 73
     4
 74
     0
 42
0.000000001
 43
0.0000000001
 40
0.0
 40
0.0
 40
0.0
 40
0.0
 40
1.0
 40
1.0
 40
1.0
 40
1.0
 10
28.0535653752838
 20
-5.96832268625445
 30
0.0
 41
1.0
 10
28.2278009520795
 20
-5.98963153140983
 30
0.0
 41
1.0
 10
28.4008710818629
 20
-6.00010367023819
 30
0.0
 41
1.0
 10
28.5733306229305
 20
-6.000007522103571
 30
0.0
 41
1.0
  0
SPLINE
  5
7C
330
1F
100
AcDbEntity
  8
1
100
AcDbSpline
210
0.0
220
0.0
230
1.0
 70
    12
 71
     3
 72
    12
 73
     8
 74
     0
 42
0.000000001
 43
0.0000000001
 40
0.476031104907193
 40
0.476031104907193
 40
0.476031104907193
 40
0.476031104907193
 40
0.537960380782126
 40
0.622033783758641
 40
0.7215868599018222
 40
0.8622790545688291
 40
1.0
 40
1.0
 40
1.0
 40
1.0
 10
25.79008455085269
 20
4.832950377382123
 30
0.0
 41
1.0
 10
25.69909204286179
 20
4.862291799936148
 30
0.0
 41
1.0
 10
25.48426091186031
 20
4.931237047541206
 30
0.0
 41
1.0
 10
25.1209213855301
 20
5.04646840041616
 30
0.0
 41
1.0
 10
24.6396836201856
 20
5.195749202991748
 30
0.0
 41
1.0
 10
24.0785536702019
 20
5.36438877080661
 30
0.0
 41
1.0
 10
23.666035371961
 20
5.47839744225826
 30
0.0
 41
1.0
 10
23.4620897131495
 20
5.53275928650811
 30
0.0
 41
1.0
  0
SPLINE
  5
7D
330
1F
100
AcDbEntity
  8
1
100
AcDbSpline
210
0.0
220
0.0
230
1.0
 70
    12
 71
     3
 72
    12
 73
     8
 74
     0
 42
0.000000001
 43
0.0000000001
 40
0.0
 40
0.0
 40
0.0
 40
0.0
 40
0.5
 40
0.5
 40
0.75
 40
0.75
 40
1.0
 40
1.0
 40
1.0
 40
1.0
 10
27.0
 20
5.41579389599215
 30
0.0
 41
1.0
 10
27.184446397599
 20
5.480910883569798
 30
0.0
 41
1.0
 10
27.3680444830799
 20
5.55905065557437
 30
0.0
 41
1.0
 10
27.6345463049296
 20
5.697092187791838
 30
0.0
 41
1.0
 10
27.7218576235047
 20
5.746585220145449
 30
0.0
 41
1.0
 10
27.8916986427766
 20
5.852428433488168
 30
0.0
 41
1.0
 10
27.9741418502155
 20
5.9087331701929
 30
0.0
 41
1.0
 10
28.0535653752853
 20
5.96832268625462
 30
0.0
 41
1.0
  0
SPLINE
  5
7E
330
1F
100
AcDbEntity
  8
1
100
AcDbSpline
210
0.0
220
0.0
230
1.0
 70
    12
 71
     3
 72
     8
 73
     4
 74
     0
 42
0.000000001
 43
0.0000000001
 40
0.0
 40
0.0
 40
0.0
 40
0.0
 40
1.0
 40
1.0
 40
1.0
 40
1.0
 10
23.4622024336863
 20
-5.534921398430018
 30
0.0
 41
1.0
 10
23.3926819169393
 20
-5.55372832923703
 30
0.0
 41
1.0
 10
23.32314882554
 20
-5.57095261158804
 30
0.0
 41
1.0
 10
23.2535653752853
 20
-5.58658597686869
 30
0.0
 41
1.0
  0
SPLINE
  5
7F
330
1F
100
AcDbEntity
  8
1
100
AcDbSpline
210
0.0
220
0.0
230
1.0
 70
    12
 71
     3
 72
    84
 73
    80
 74
     0
 42
0.000000001
 43
0.0000000001
 40
0.0
 40
0.0
 40
0.0
 40
0.0
 40
0.0333883765094807
 40
0.0333883765094807
 40
0.053526118665534
 40
0.053526118665534
 40
0.0635949897435607
 40
0.0635949897435607
 40
0.0736638608215873
 40
0.0736638608215873
 40
0.113939345133694
 40
0.113939345133694
 40
0.1542148294458
 40
0.1542148294458
 40
0.174352571601853
 40
0.174352571601853
 40
0.184421442679879
 40
0.184421442679879
 40
0.194490313757906
 40
0.194490313757906
 40
0.234765798070011
 40
0.234765798070011
 40
0.275041282382117
 40
0.275041282382117
 40
0.295179024538169
 40
0.295179024538169
 40
0.305247895616195
 40
0.305247895616195
 40
0.315316766694222
 40
0.315316766694222
 40
0.355592251006327
 40
0.355592251006327
 40
0.395867735318431
 40
0.395867735318431
 40
0.4160054774744841
 40
0.4160054774744841
 40
0.4361432196305361
 40
0.4361432196305361
 40
0.4764187039426411
 40
0.4764187039426411
 40
0.5166941882547462
 40
0.5166941882547462
 40
0.5368319304107981
 40
0.5368319304107981
 40
0.5569696725668512
 40
0.5569696725668512
 40
0.5972451568789561
 40
0.5972451568789561
 40
0.6375206411910602
 40
0.6375206411910602
 40
0.6576583833471129
 40
0.6576583833471129
 40
0.667727254425139
 40
0.667727254425139
 40
0.677796125503165
 40
0.677796125503165
 40
0.71807160981527
 40
0.71807160981527
 40
0.758347094127374
 40
0.758347094127374
 40
0.7784848362834258
 40
0.7784848362834258
 40
0.788553707361452
 40
0.788553707361452
 40
0.798622578439478
 40
0.798622578439478
 40
0.8388980627515827
 40
0.8388980627515827
 40
0.8791735470636869
 40
0.8791735470636869
 40
0.8993112892197389
 40
0.8993112892197389
 40
0.909380160297765
 40
0.909380160297765
 40
0.9194490313757908
 40
0.9194490313757908
 40
0.9597245156878958
 40
0.9597245156878958
 40
1.0
 40
1.0
 40
1.0
 40
1.0
 10
33.4313494709421
 20
4.93353280736753
 30
0.0
 41
1.0
 10
33.637634559297
 20
5.07345324641091
 30
0.0
 41
1.0
 10
33.8436637804368
 20
5.2007841640642
 30
0.0
 41
1.0
 10
34.175021597434
 20
5.384006373139499
 30
0.0
 41
1.0
 10
34.2999266370296
 20
5.448186837279168
 30
0.0
 41
1.0
 10
34.4879531392563
 20
5.53710003039453
 30
0.0
 41
1.0
 10
34.550740468713
 20
5.56551080893112
 30
0.0
 41
1.0
 10
34.6765934015214
 20
5.619831864872769
 30
0.0
 41
1.0
 10
34.7397449500078
 20
5.64577278374176
 30
0.0
 41
1.0
 10
35.0544682063562
 20
5.76839488330242
 30
0.0
 41
1.0
 10
35.3040106261074
 20
5.84439692339581
 30
0.0
 41
1.0
 10
35.8019371758
 20
5.952984480101548
 30
0.0
 41
1.0
 10
36.0503192340359
 20
5.98556699585157
 30
0.0
 41
1.0
 10
36.4244186070024
 20
6.00148103938619
 30
0.0
 41
1.0
 10
36.5493716838181
 20
6.001282436900048
 30
0.0
 41
1.0
 10
36.7374968580781
 20
5.9925864298749
 30
0.0
 41
1.0
 10
36.8003213343837
 20
5.98828741068331
 30
0.0
 41
1.0
 10
36.9262570965763
 20
5.97685641657873
 30
0.0
 41
1.0
 10
36.9893988699166
 20
5.96971517820958
 30
0.0
 41
1.0
 10
37.30392404052621
 20
5.927158608874039
 30
0.0
 41
1.0
 10
37.5533622012371
 20
5.8711335074712
 30
0.0
 41
1.0
 10
38.0512107573311
 20
5.717029588373859
 30
0.0
 41
1.0
 10
38.2996119539334
 20
5.61894669755415
 30
0.0
 41
1.0
 10
38.6738221511498
 20
5.440736747054788
 30
0.0
 41
1.0
 10
38.79882860651461
 20
5.3761433917829
 30
0.0
 41
1.0
 10
38.9870583204722
 20
5.27144158685076
 30
0.0
 41
1.0
 10
39.04992167664911
 20
5.235238419471128
 30
0.0
 41
1.0
 10
39.175942690183
 20
5.160214819699548
 30
0.0
 41
1.0
 10
39.2390364560774
 20
5.121428058218128
 30
0.0
 41
1.0
 10
39.5533635379145
 20
4.922252659287098
 30
0.0
 41
1.0
 10
39.802706625911
 20
4.74529331889366
 30
0.0
 41
1.0
 10
40.30048820023829
 20
4.358826887320589
 30
0.0
 41
1.0
 10
40.54890443193889
 20
4.149305745562
 30
0.0
 41
1.0
 10
40.9232378636987
 20
3.81184449479483
 30
0.0
 41
1.0
 10
41.0483015763751
 20
3.69548759795387
 30
0.0
 41
1.0
 10
41.2994164275318
 20
3.45515845433172
 30
0.0
 41
1.0
 10
41.42582577297378
 20
3.330810754597709
 30
0.0
 41
1.0
 10
41.8027876315527
 20
2.95098533361593
 30
0.0
 41
1.0
 10
42.0520484488238
 20
2.68790854255971
 30
0.0
 41
1.0
 10
42.54976146074421
 20
2.14498739834085
 30
0.0
 41
1.0
 10
42.7982036204687
 20
1.86513420862087
 30
0.0
 41
1.0
 10
43.17266777049371
 20
1.434584142900519
 30
0.0
 41
1.0
 10
43.2977876228756
 20
1.28926735889971
 30
0.0
 41
1.0
 10
43.5490450384447
 20
0.9953037394999739
 30
0.0
 41
1.0
 10
43.6754603545197
 20
0.846325385206029
 30
0.0
 41
1.0
 10
44.05220423865119
 20
0.4003859003549621
 30
0.0
 41
1.0
 10
44.3013787366361
 20
0.102866803432391
 30
0.0
 41
1.0
 10
44.7990340254375
 20
-0.4899140895310551
 30
0.0
 41
1.0
 10
45.0475130750899
 20
-0.7851772494693421
 30
0.0
 41
1.0
 10
45.4221066153654
 20
-1.22433912432925
 30
0.0
 41
1.0
 10
45.54728428025059
 20
-1.37010305801272
 30
0.0
 41
1.0
 10
45.73584075448689
 20
-1.587535264900418
 30
0.0
 41
1.0
 10
45.79890915161709
 20
-1.65990636665984
 30
0.0
 41
1.0
 10
45.9249588023417
 20
-1.80373180323875
 30
0.0
 41
1.0
 10
45.9878353927257
 20
-1.875067725148799
 30
0.0
 41
1.0
 10
46.30161237382989
 20
-2.228797051179638
 30
0.0
 41
1.0
 10
46.55069931738789
 20
-2.50236213004675
 30
0.0
 41
1.0
 10
47.0483124758752
 20
-3.028642345398368
 30
0.0
 41
1.0
 10
47.29682321870309
 20
-3.281368663583609
 30
0.0
 41
1.0
 10
47.6715558210321
 20
-3.64290407594109
 30
0.0
 41
1.0
 10
47.7967965485542
 20
-3.760483823013939
 30
0.0
 41
1.0
 10
47.98547133378329
 20
-3.93215487664341
 30
0.0
 41
1.0
 10
48.04860132148309
 20
-3.988684357374379
 30
0.0
 41
1.0
 10
48.1745660855093
 20
-4.099577906693808
 30
0.0
 41
1.0
 10
48.2374035647954
 20
-4.153948501781997
 30
0.0
 41
1.0
 10
48.55100349535561
 20
-4.420407195740919
 30
0.0
 41
1.0
 10
48.8000169414942
 20
-4.61634813922436
 30
0.0
 41
1.0
 10
49.2975943842356
 20
-4.97284783641536
 30
0.0
 41
1.0
 10
49.54613718865
 20
-5.13341604782107
 30
0.0
 41
1.0
 10
49.9210203004222
 20
-5.346263107442749
 30
0.0
 41
1.0
 10
50.04632674205828
 20
-5.412536280438128
 30
0.0
 41
1.0
 10
50.23511974788711
 20
-5.504663806174758
 30
0.0
 41
1.0
 10
50.29826397423351
 20
-5.53418897288262
 30
0.0
 41
1.0
 10
50.4242031500924
 20
-5.59046190818765
 30
0.0
 41
1.0
 10
50.4870623693075
 20
-5.617244066997759
 30
0.0
 41
1.0
 10
50.80094102042139
 20
-5.74440633829255
 30
0.0
 41
1.0
 10
51.05071668066339
 20
-5.82459054338074
 30
0.0
 41
1.0
 10
51.55086417717551
 20
-5.941664364329597
 30
0.0
 41
1.0
 10
51.8012310376618
 20
-5.97855573559295
 30
0.0
 41
1.0
 10
52.0535653752853
 20
-5.993037971977798
 30
0.0
 41
1.0
  0
SPLINE
  5
80
330
1F
100
AcDbEntity
  8
1
100
AcDbSpline
210
0.0
220
0.0
230
1.0
 70
    12
 71
     3
 72
    18
 73
    14
 74
     0
 42
0.000000001
 43
0.0000000001
 40
0.0
 40
0.0
 40
0.0
 40
0.0
 40
0.25
 40
0.25
 40
0.500000000000001
 40
0.500000000000001
 40
0.562500000000001
 40
0.562500000000001
 40
0.6250000000000023
 40
0.6250000000000023
 40
0.750000000000001
 40
0.750000000000001
 40
1.0
 40
1.0
 40
1.0
 40
1.0
 10
23.2535653752853
 20
-2.780343746986568
 30
0.0
 41
1.0
 10
23.5680734049737
 20
-3.09118416370518
 30
0.0
 41
1.0
 10
23.878875408687
 20
-3.382118676466859
 30
0.0
 41
1.0
 10
24.4992654942109
 20
-3.921424691723898
 30
0.0
 41
1.0
 10
24.8088192630517
 20
-4.16981592574979
 30
0.0
 41
1.0
 10
25.1987018606512
 20
-4.450922478402079
 30
0.0
 41
1.0
 10
25.27682648607961
 20
-4.50566940772501
 30
0.0
 41
1.0
 10
25.4334703471677
 20
-4.61212241439279
 30
0.0
 41
1.0
 10
25.5121160679542
 20
-4.66390776602844
 30
0.0
 41
1.0
 10
25.7477434609456
 20
-4.81388584533511
 30
0.0
 41
1.0
 10
25.9042783981501
 20
-4.90664443358099
 30
0.0
 41
1.0
 10
26.3734012461128
 20
-5.162999330881088
 30
0.0
 41
1.0
 10
26.6854935962793
 20
-5.304760501733628
 30
0.0
 41
1.0
 10
26.9999999999999
 20
-5.41579389599212
 30
0.0
 41
1.0
  0
SPLINE
  5
81
330
1F
100
AcDbEntity
  8
1
100
AcDbSpline
210
0.0
220
0.0
230
1.0
 70
    12
 71
     3
 72
    21
 73
    17
 74
     0
 42
0.000000001
 43
0.0000000001
 40
0.0
 40
0.0
 40
0.0
 40
0.0
 40
0.0005123550252118
 40
0.0012338173167725
 40
0.0019842109945859
 40
0.0028288632175995
 40
0.0049651367585657
 40
0.0279172301281705
 40
0.179770514911786
 40
0.308294660257533
 40
0.4130314518054579
 40
0.4915047704300992
 40
0.6015111047313471
 40
0.7311768656395162
 40
0.925255071939293
 40
1.0
 40
1.0
 40
1.0
 40
1.0
 10
45.87232844012088
 20
-5.855855330508798
 30
0.0
 41
1.0
 10
45.8723445855407
 20
-5.85585579382544
 30
0.0
 41
1.0
 10
45.87245200410828
 20
-5.855841910520348
 30
0.0
 41
1.0
 10
45.8733105718506
 20
-5.855671258102889
 30
0.0
 41
1.0
 10
45.87505061766299
 20
-5.85531003161424
 30
0.0
 41
1.0
 10
45.8786414684303
 20
-5.854552791710569
 30
0.0
 41
1.0
 10
45.90793040951839
 20
-5.848298758844348
 30
0.0
 41
1.0
 10
46.11443540093938
 20
-5.803281205366547
 30
0.0
 41
1.0
 10
46.448208473429
 20
-5.725929597361267
 30
0.0
 41
1.0
 10
46.87889953937778
 20
-5.61743666550171
 30
0.0
 41
1.0
 10
47.22778211841189
 20
-5.52433392097632
 30
0.0
 41
1.0
 10
47.55822776904938
 20
-5.43260997611119
 30
0.0
 41
1.0
 10
47.91696608038729
 20
-5.32946249088269
 30
0.0
 41
1.0
 10
48.40641525222429
 20
-5.183244312927088
 30
0.0
 41
1.0
 10
48.85557285642178
 20
-5.04351945020991
 30
0.0
 41
1.0
 10
49.1584114803604
 20
-4.947273594363169
 30
0.0
 41
1.0
 10
49.2426027024008
 20
-4.920395165298908
 30
0.0
 41
1.0
  0
SPLINE
  5
82
330
1F
100
AcDbEntity
  8
1
100
AcDbSpline
210
0.0
220
0.0
230
1.0
 70
    12
 71
     3
 72
    78
 73
    74
 74
     0
 42
0.000000001
 43
0.0000000001
 40
0.0
 40
0.0
 40
0.0
 40
0.0
 40
0.0153618972225277
 40
0.0153618972225277
 40
0.0374019219061928
 40
0.0374019219061928
 40
0.0814819712735231
 40
0.0814819712735231
 40
0.125562020640854
 40
0.125562020640854
 40
0.147602045324519
 40
0.147602045324519
 40
0.169642070008184
 40
0.169642070008184
 40
0.213722119375514
 40
0.213722119375514
 40
0.257802168742845
 40
0.257802168742845
 40
0.27984219342651
 40
0.27984219342651
 40
0.301882218110175
 40
0.301882218110175
 40
0.345962267477506
 40
0.345962267477506
 40
0.390042316844836
 40
0.390042316844836
 40
0.4120823415285012
 40
0.4120823415285012
 40
0.423102353870334
 40
0.423102353870334
 40
0.434122366212166
 40
0.434122366212166
 40
0.478202415579497
 40
0.478202415579497
 40
0.500242440263163
 40
0.500242440263163
 40
0.522282464946828
 40
0.522282464946828
 40
0.5443224896304942
 40
0.5443224896304942
 40
0.566362514314159
 40
0.566362514314159
 40
0.5884025389978249
 40
0.5884025389978249
 40
0.61044256368149
 40
0.61044256368149
 40
0.6324825883651562
 40
0.6324825883651562
 40
0.654522613048821
 40
0.654522613048821
 40
0.6986026624161519
 40
0.6986026624161519
 40
0.742682711783483
 40
0.742682711783483
 40
0.7867627611508141
 40
0.7867627611508141
 40
0.830842810518145
 40
0.830842810518145
 40
0.8528828352018107
 40
0.8528828352018107
 40
0.8639028475436429
 40
0.8639028475436429
 40
0.8749228598854749
 40
0.8749228598854749
 40
0.9190029092528051
 40
0.9190029092528051
 40
0.963082958620135
 40
0.963082958620135
 40
0.985122983303799
 40
0.985122983303799
 40
0.9961429956456308
 40
0.9961429956456308
 40
1.0
 40
1.0
 40
1.0
 40
1.0
 10
45.9400734613136
 20
-5.830797580768089
 30
0.0
 41
1.0
 10
45.85311258594629
 20
-5.855234031916038
 30
0.0
 41
1.0
 10
45.7659838440425
 20
-5.87710821000545
 30
0.0
 41
1.0
 10
45.55327969470279
 20
-5.924016383294999
 30
0.0
 41
1.0
 10
45.4270906375212
 20
-5.94631704790871
 30
0.0
 41
1.0
 10
45.0507394071296
 20
-5.9961115618209
 30
0.0
 41
1.0
 10
44.80184775183579
 20
-6.00687387010103
 30
0.0
 41
1.0
 10
44.30496475619678
 20
-5.984746044060418
 30
0.0
 41
1.0
 10
44.0569353441778
 20
-5.95185132134762
 30
0.0
 41
1.0
 10
43.68311115185689
 20
-5.869693527796498
 30
0.0
 41
1.0
 10
43.5582157716352
 20
-5.836826793051608
 30
0.0
 41
1.0
 10
43.30742274895921
 20
-5.75999591216654
 30
0.0
 41
1.0
 10
43.1812195406627
 20
-5.715888426874759
 30
0.0
 41
1.0
 10
42.8050224415547
 20
-5.568571782574847
 30
0.0
 41
1.0
 10
42.5562408899956
 20
-5.450108424493691
 30
0.0
 41
1.0
 10
42.0594117795562
 20
-5.17488082314836
 30
0.0
 41
1.0
 10
41.8113243971909
 20
-5.01813405471361
 30
0.0
 41
1.0
 10
41.4374133628713
 20
-4.75503556205857
 30
0.0
 41
1.0
 10
41.3124752228794
 20
-4.662665395183579
 30
0.0
 41
1.0
 10
41.06153657105888
 20
-4.46863566382441
 30
0.0
 41
1.0
 10
40.935332100994
 20
-4.366775842150048
 30
0.0
 41
1.0
 10
40.5593319558133
 20
-4.05135999732553
 30
0.0
 41
1.0
 10
40.31064966963589
 20
-3.826896294738388
 30
0.0
 41
1.0
 10
39.8138147412131
 20
-3.35249664297589
 30
0.0
 41
1.0
 10
39.5657411205477
 20
-3.102507621288939
 30
0.0
 41
1.0
 10
39.1917107509246
 20
-2.70985728312348
 30
0.0
 41
1.0
 10
39.0666993194472
 20
-2.576034947591779
 30
0.0
 41
1.0
 10
38.8783900235234
 20
-2.37101813973146
 30
0.0
 41
1.0
 10
38.8154154723167
 20
-2.301883967410018
 30
0.0
 41
1.0
 10
38.6895338816158
 20
-2.162633612555509
 30
0.0
 41
1.0
 10
38.6266634910997
 20
-2.092559600642029
 30
0.0
 41
1.0
 10
38.3125292478153
 20
-1.74006148067636
 30
0.0
 41
1.0
 10
38.061877214987
 20
-1.451301034671419
 30
0.0
 41
1.0
 10
37.68445073360761
 20
-1.00995675474397
 30
0.0
 41
1.0
 10
37.5584835776694
 20
-0.8615528993728391
 30
0.0
 41
1.0
 10
37.3072373134231
 20
-0.5642227639178829
 30
0.0
 41
1.0
 10
37.18175536096111
 20
-0.415075952284013
 30
0.0
 41
1.0
 10
36.93066626627221
 20
-0.116162169223401
 30
0.0
 41
1.0
 10
36.8050674571856
 20
0.0336117952418533
 30
0.0
 41
1.0
 10
36.5533581342143
 20
0.333460033019662
 30
0.0
 41
1.0
 10
36.4274241653368
 20
0.483322673512106
 30
0.0
 41
1.0
 10
36.1757269126347
 20
0.7816214165223982
 30
0.0
 41
1.0
 10
36.0497445621145
 20
0.9303063246593977
 30
0.0
 41
1.0
 10
35.7979898947794
 20
1.225434846549489
 30
0.0
 41
1.0
 10
35.6721902341586
 20
1.37191297217737
 30
0.0
 41
1.0
 10
35.4203244262872
 20
1.66234704838607
 30
0.0
 41
1.0
 10
35.2948432431409
 20
1.805617758151498
 30
0.0
 41
1.0
 10
35.0448373560139
 20
2.087425758425918
 30
0.0
 41
1.0
 10
34.9202399390046
 20
2.22606697266889
 30
0.0
 41
1.0
 10
34.5470856003153
 20
2.63485520804275
 30
0.0
 41
1.0
 10
34.2991541476958
 20
2.897873881541609
 30
0.0
 41
1.0
 10
33.8016606241049
 20
3.40242604517644
 30
0.0
 41
1.0
 10
33.5521171949736
 20
3.64408482911094
 30
0.0
 41
1.0
 10
33.0483580914214
 20
4.10258414515806
 30
0.0
 41
1.0
 10
32.79887888657081
 20
4.315097924921818
 30
0.0
 41
1.0
 10
32.3014833713038
 20
4.70603072035829
 30
0.0
 41
1.0
 10
32.0535048344169
 20
4.88441186295105
 30
0.0
 41
1.0
 10
31.6803183826053
 20
5.12516286156909
 30
0.0
 41
1.0
 10
31.5557222283005
 20
5.20093554520224
 30
0.0
 41
1.0
 10
31.3682000139361
 20
5.307636053736558
 30
0.0
 41
1.0
 10
31.3055867066288
 20
5.342042143809348
 30
0.0
 41
1.0
 10
31.1800932889879
 20
5.40848621775953
 30
0.0
 41
1.0
 10
31.1171352855407
 20
5.440563008278988
 30
0.0
 41
1.0
 10
30.8024915018609
 20
5.594453046463168
 30
0.0
 41
1.0
 10
30.5531809085607
 20
5.695957013638579
 30
0.0
 41
1.0
 10
30.0558739957998
 20
5.85633043374344
 30
0.0
 41
1.0
 10
29.8079104726012
 20
5.91520868325787
 30
0.0
 41
1.0
 10
29.434673265571
 20
5.971093675000499
 30
0.0
 41
1.0
 10
29.3100333011049
 20
5.9843050356499
 30
0.0
 41
1.0
 10
29.1224163309285
 20
5.99584674859696
 30
0.0
 41
1.0
 10
29.0597696147617
 20
5.998314231152309
 30
0.0
 41
1.0
 10
28.9750175464461
 20
5.99976002796953
 30
0.0
 41
1.0
 10
28.9530200661123
 20
5.9999634521642
 30
0.0
 41
1.0
 10
28.9310080158849
 20
5.99999503225007
 30
0.0
 41
1.0
  0
SPLINE
  5
83
330
1F
100
AcDbEntity
  8
1
100
AcDbSpline
210
0.0
220
0.0
230
1.0
 70
    12
 71
     3
 72
    21
 73
    17
 74
     0
 42
0.000000001
 43
0.0000000001
 40
0.4393537248746516
 40
0.4393537248746516
 40
0.4393537248746516
 40
0.4393537248746516
 40
0.494952830052915
 40
0.587909106601236
 40
0.6717949582054971
 40
0.7631560742190123
 40
0.8670385682223649
 40
0.9496094971461127
 40
0.98480780796306
 40
0.9930601396643247
 40
0.9953959323820289
 40
0.99631264034153
 40
0.997129275468419
 40
0.9979255950966352
 40
0.9987871093475607
 40
1.0
 40
1.0
 40
1.0
 40
1.0
 10
49.2390373158951
 20
4.921529854898068
 30
0.0
 41
1.0
 10
49.12711629607233
 20
4.95725341903061
 30
0.0
 41
1.0
 10
48.82801900351307
 20
5.052155297785265
 30
0.0
 41
1.0
 10
48.3599764109893
 20
5.19735877634673
 30
0.0
 41
1.0
 10
47.81988998568301
 20
5.358443393106458
 30
0.0
 41
1.0
 10
47.25812090901309
 20
5.51768567801648
 30
0.0
 41
1.0
 10
46.696654430905
 20
5.66520158899596
 30
0.0
 41
1.0
 10
46.25355326145929
 20
5.771535571867668
 30
0.0
 41
1.0
 10
46.0005372263038
 20
5.828130448985597
 30
0.0
 41
1.0
 10
45.9097520955407
 20
5.8478753981972
 30
0.0
 41
1.0
 10
45.88569151434209
 20
5.853073580940868
 30
0.0
 41
1.0
 10
45.8774560478995
 20
5.85484599315299
 30
0.0
 41
1.0
 10
45.8729088183198
 20
5.85581974006595
 30
0.0
 41
1.0
 10
45.8696385197038
 20
5.856512009077848
 30
0.0
 41
1.0
 10
45.86756876600449
 20
5.8569355497479
 30
0.0
 41
1.0
 10
45.8672161794556
 20
5.856989435320597
 30
0.0
 41
1.0
 10
45.86724810399649
 20
5.856967903895
 30
0.0
 41
1.0
  0
SPLINE
  5
84
330
1F
100
AcDbEntity
  8
1
100
AcDbSpline
210
0.0
220
0.0
230
1.0
 70
    12
 71
     3
 72
    96
 73
    92
 74
     0
 42
0.000000001
 43
0.0000000001
 40
0.0
 40
0.0
 40
0.0
 40
0.0
 40
0.00390625
 40
0.00390625
 40
0.0078125000000001
 40
0.0078125000000001
 40
0.0156250000000002
 40
0.0156250000000002
 40
0.0234375000000003
 40
0.0234375000000003
 40
0.0312500000000004
 40
0.0312500000000004
 40
0.0390625000000005
 40
0.0390625000000005
 40
0.0468750000000005
 40
0.0468750000000005
 40
0.0546875000000006
 40
0.0546875000000006
 40
0.0625000000000007
 40
0.0625000000000007
 40
0.0703125000000008
 40
0.0703125000000008
 40
0.0781250000000009
 40
0.0781250000000009
 40
0.0937500000000011
 40
0.0937500000000011
 40
0.109375000000001
 40
0.109375000000001
 40
0.125000000000002
 40
0.125000000000002
 40
0.156250000000002
 40
0.156250000000002
 40
0.187500000000002
 40
0.187500000000002
 40
0.2031250000000019
 40
0.2031250000000019
 40
0.2187500000000019
 40
0.2187500000000019
 40
0.250000000000003
 40
0.250000000000003
 40
0.312500000000003
 40
0.312500000000003
 40
0.343750000000003
 40
0.343750000000003
 40
0.3750000000000039
 40
0.3750000000000039
 40
0.4375000000000039
 40
0.4375000000000039
 40
0.4687500000000039
 40
0.4687500000000039
 40
0.4843750000000039
 40
0.4843750000000039
 40
0.4921875000000039
 40
0.4921875000000039
 40
0.5000000000000031
 40
0.5000000000000031
 40
0.5156250000000031
 40
0.5156250000000031
 40
0.5312500000000031
 40
0.5312500000000031
 40
0.5468750000000031
 40
0.5468750000000031
 40
0.5625000000000029
 40
0.5625000000000029
 40
0.5937500000000029
 40
0.5937500000000029
 40
0.6250000000000023
 40
0.6250000000000023
 40
0.6562500000000023
 40
0.6562500000000023
 40
0.6875000000000023
 40
0.6875000000000023
 40
0.718750000000001
 40
0.718750000000001
 40
0.750000000000001
 40
0.750000000000001
 40
0.812500000000001
 40
0.812500000000001
 40
0.828125
 40
0.828125
 40
0.84375
 40
0.84375
 40
0.875
 40
0.875
 40
0.90625
 40
0.90625
 40
0.921875
 40
0.921875
 40
0.9375
 40
0.9375
 40
1.0
 40
1.0
 40
1.0
 40
1.0
 10
52.0535653752853
 20
-5.95795624214466
 30
0.0
 41
1.0
 10
52.0623420460568
 20
-5.95919229900971
 30
0.0
 41
1.0
 10
52.0711569515236
 20
-5.960340306690309
 30
0.0
 41
1.0
 10
52.0889389182329
 20
-5.96244730791685
 30
0.0
 41
1.0
 10
52.0978179540129
 20
-5.96341842707079
 30
0.0
 41
1.0
 10
52.1263797670675
 20
-5.96582461808865
 30
0.0
 41
1.0
 10
52.14618448274079
 20
-5.966954275171928
 30
0.0
 41
1.0
 10
52.18722590884659
 20
-5.968130689290967
 30
0.0
 41
1.0
 10
52.2085447784101
 20
-5.968175501400819
 30
0.0
 41
1.0
 10
52.2532855397419
 20
-5.966955437768659
 30
0.0
 41
1.0
 10
52.2769057178361
 20
-5.965675220877499
 30
0.0
 41
1.0
 10
52.3258882523636
 20
-5.961548909109348
 30
0.0
 41
1.0
 10
52.3510412844838
 20
-5.95873010901695
 30
0.0
 41
1.0
 10
52.40286530329838
 20
-5.95138673883744
 30
0.0
 41
1.0
 10
52.4298096890151
 20
-5.94679510642965
 30
0.0
 41
1.0
 10
52.4829772774901
 20
-5.936162209580938
 30
0.0
 41
1.0
 10
52.5094096057157
 20
-5.930106044025309
 30
0.0
 41
1.0
 10
52.5619762578599
 20
-5.916545786095237
 30
0.0
 41
1.0
 10
52.5879624060534
 20
-5.90906416462315
 30
0.0
 41
1.0
 10
52.63776660362221
 20
-5.89332949644532
 30
0.0
 41
1.0
 10
52.6618580928765
 20
-5.88500744534912
 30
0.0
 41
1.0
 10
52.7087194680196
 20
-5.86752249365748
 30
0.0
 41
1.0
 10
52.7315603367838
 20
-5.858322214865099
 30
0.0
 41
1.0
 10
52.79711341016462
 20
-5.830103076504168
 30
0.0
 41
1.0
 10
52.83741356366139
 20
-5.8102998130592
 30
0.0
 41
1.0
 10
52.91365673492721
 20
-5.76874677324469
 30
0.0
 41
1.0
 10
52.94969994883761
 20
-5.74689469346325
 30
0.0
 41
1.0
 10
53.0177067320961
 20
-5.701778689166159
 30
0.0
 41
1.0
 10
53.04963405464039
 20
-5.678559487093168
 30
0.0
 41
1.0
 10
53.1408345048089
 20
-5.60681466864145
 30
0.0
 41
1.0
 10
53.19565061037021
 20
-5.556174153775089
 30
0.0
 41
1.0
 10
53.297382407254
 20
-5.449014117814608
 30
0.0
 41
1.0
 10
53.34417990955
 20
-5.39252564560155
 30
0.0
 41
1.0
 10
53.4098265690212
 20
-5.303218389246668
 30
0.0
 41
1.0
 10
53.43097852170429
 20
-5.272629976651438
 30
0.0
 41
1.0
 10
53.47161407651179
 20
-5.21034344314313
 30
0.0
 41
1.0
 10
53.491126086068
 20
-5.17861096471225
 30
0.0
 41
1.0
 10
53.54748880710589
 20
-5.081655754941118
 30
0.0
 41
1.0
 10
53.5821764943086
 20
-5.01467976643073
 30
0.0
 41
1.0
 10
53.6791921154136
 20
-4.80656433410138
 30
0.0
 41
1.0
 10
53.7343888165865
 20
-4.658396797581838
 30
0.0
 41
1.0
 10
53.806266122451
 20
-4.421467527020038
 30
0.0
 41
1.0
 10
53.82837622589189
 20
-4.340041726336099
 30
0.0
 41
1.0
 10
53.869189113128
 20
-4.172171087269188
 30
0.0
 41
1.0
 10
53.88776220208701
 20
-4.08624504729599
 30
0.0
 41
1.0
 10
53.9383131000716
 20
-3.823989073349508
 30
0.0
 41
1.0
 10
53.9652547957044
 20
-3.642643409298699
 30
0.0
 41
1.0
 10
53.997319911557
 20
-3.360697496454578
 30
0.0
 41
1.0
 10
54.0065942177718
 20
-3.265080596125978
 30
0.0
 41
1.0
 10
54.0185509192586
 20
-3.11912681514491
 30
0.0
 41
1.0
 10
54.0222152550986
 20
-3.07004300746698
 30
0.0
 41
1.0
 10
54.02725661422248
 20
-2.995710527205028
 30
0.0
 41
1.0
 10
54.02886120325478
 20
-2.970814780897168
 30
0.0
 41
1.0
 10
54.03192049702759
 20
-2.920779726328558
 30
0.0
 41
1.0
 10
54.0333862507752
 20
-2.895593271328808
 30
0.0
 41
1.0
 10
54.03729322831821
 20
-2.82064570351798
 30
0.0
 41
1.0
 10
54.0391630960343
 20
-2.77195350548362
 30
0.0
 41
1.0
 10
54.041814713251
 20
-2.67784628725599
 30
0.0
 41
1.0
 10
54.0426353455761
 20
-2.632227885171769
 30
0.0
 41
1.0
 10
54.0435569774833
 20
-2.54364903660817
 30
0.0
 41
1.0
 10
54.0436561291432
 20
-2.500693382446288
 30
0.0
 41
1.0
 10
54.0431714743847
 20
-2.41738393559481
 30
0.0
 41
1.0
 10
54.0425805922276
 20
-2.376854556396069
 30
0.0
 41
1.0
 10
54.0395628124266
 20
-2.260548521547089
 30
0.0
 41
1.0
 10
54.03596829915478
 20
-2.190343872979549
 30
0.0
 41
1.0
 10
54.0231182461985
 20
-2.06179485938756
 30
0.0
 41
1.0
 10
54.0138060893495
 20
-2.003444565584998
 30
0.0
 41
1.0
 10
53.986437776955
 20
-1.894724615627749
 30
0.0
 41
1.0
 10
53.968488163349
 20
-1.845124659442918
 30
0.0
 41
1.0
 10
53.92297424154
 20
-1.75071739917752
 30
0.0
 41
1.0
 10
53.8953950794486
 20
-1.705805067292829
 30
0.0
 41
1.0
 10
53.83029625251641
 20
-1.61625978693726
 30
0.0
 41
1.0
 10
53.7928112723928
 20
-1.571570889412698
 30
0.0
 41
1.0
 10
53.7083051676312
 20
-1.4788004448248
 30
0.0
 41
1.0
 10
53.66106052501039
 20
-1.43055739230357
 30
0.0
 41
1.0
 10
53.5094662518153
 20
-1.280149883592659
 30
0.0
 41
1.0
 10
53.3947438423275
 20
-1.171243457784668
 30
0.0
 41
1.0
 10
53.2389031992661
 20
-1.017837267504889
 30
0.0
 41
1.0
 10
53.20700420368909
 20
-0.9862084771233979
 30
0.0
 41
1.0
 10
53.14247124717962
 20
-0.9216209578097791
 30
0.0
 41
1.0
 10
53.10992838808779
 20
-0.8887554230308579
 30
0.0
 41
1.0
 10
53.01158027708878
 20
-0.7884301887679041
 30
0.0
 41
1.0
 10
52.9450648029634
 20
-0.7192398899383359
 30
0.0
 41
1.0
 10
52.8104353626433
 20
-0.576281238230393
 30
0.0
 41
1.0
 10
52.7423104785987
 20
-0.502524412181344
 30
0.0
 41
1.0
 10
52.638960615746
 20
-0.388496979518465
 30
0.0
 41
1.0
 10
52.6042225324439
 20
-0.349816089640996
 30
0.0
 41
1.0
 10
52.53491902874889
 20
-0.271971319399569
 30
0.0
 41
1.0
 10
52.5003469910931
 20
-0.232802657409906
 30
0.0
 41
1.0
 10
52.32781474645289
 20
-0.0358182640513576
 30
0.0
 41
1.0
 10
52.19091997395571
 20
0.125456788812016
 30
0.0
 41
1.0
 10
52.0535653752853
 20
0.2889565130466
 30
0.0
 41
1.0
  0
SPLINE
  5
85
330
1F
100
AcDbEntity
  8
1
100
AcDbSpline
210
0.0
220
0.0
230
1.0
 70
    12
 71
     3
 72
    12
 73
     8
 74
     0
 42
0.000000001
 43
0.0000000001
 40
0.0
 40
0.0
 40
0.0
 40
0.0
 40
0.2618346954080899
 40
0.5293183219661591
 40
0.718588365729543
 40
0.87842849601156
 40
1.0
 40
1.0
 40
1.0
 40
1.0
 10
23.4620897131496
 20
-5.532759286508078
 30
0.0
 41
1.0
 10
23.6660353719611
 20
-5.47839744225826
 30
0.0
 41
1.0
 10
24.0785536359253
 20
-5.36438878233554
 30
0.0
 41
1.0
 10
24.6396837275162
 20
-5.19574916689123
 30
0.0
 41
1.0
 10
25.1209211312145
 20
-5.046468485954878
 30
0.0
 41
1.0
 10
25.4872437817632
 20
-4.93029103121046
 30
0.0
 41
1.0
 10
25.705021730027
 20
-4.860388661714348
 30
0.0
 41
1.0
 10
25.7989674245673
 20
-4.83008557172928
 30
0.0
 41
1.0
  0
SPLINE
  5
86
330
1F
100
AcDbEntity
  8
1
100
AcDbSpline
210
0.0
220
0.0
230
1.0
 70
    12
 71
     3
 72
    96
 73
    92
 74
     0
 42
0.000000001
 43
0.0000000001
 40
0.0
 40
0.0
 40
0.0
 40
0.0
 40
0.00390625
 40
0.00390625
 40
0.0078124999999999
 40
0.0078124999999999
 40
0.0156249999999999
 40
0.0156249999999999
 40
0.0234374999999998
 40
0.0234374999999998
 40
0.0312499999999997
 40
0.0312499999999997
 40
0.0390624999999996
 40
0.0390624999999996
 40
0.0468749999999995
 40
0.0468749999999995
 40
0.0546874999999995
 40
0.0546874999999995
 40
0.0624999999999994
 40
0.0624999999999994
 40
0.0703124999999993
 40
0.0703124999999993
 40
0.0781249999999992
 40
0.0781249999999992
 40
0.0937499999999991
 40
0.0937499999999991
 40
0.109374999999999
 40
0.109374999999999
 40
0.124999999999999
 40
0.124999999999999
 40
0.156249999999999
 40
0.156249999999999
 40
0.187499999999998
 40
0.187499999999998
 40
0.203124999999998
 40
0.203124999999998
 40
0.218749999999998
 40
0.218749999999998
 40
0.249999999999998
 40
0.249999999999998
 40
0.3124999999999989
 40
0.3124999999999989
 40
0.343749999999998
 40
0.343749999999998
 40
0.374999999999998
 40
0.374999999999998
 40
0.437499999999999
 40
0.437499999999999
 40
0.468749999999999
 40
0.468749999999999
 40
0.484374999999999
 40
0.484374999999999
 40
0.492187499999999
 40
0.492187499999999
 40
0.499999999999999
 40
0.499999999999999
 40
0.5156249999999992
 40
0.5156249999999992
 40
0.5312499999999992
 40
0.5312499999999992
 40
0.5468749999999992
 40
0.5468749999999992
 40
0.5624999999999992
 40
0.5624999999999992
 40
0.5937499999999992
 40
0.5937499999999992
 40
0.6249999999999992
 40
0.6249999999999992
 40
0.6562499999999992
 40
0.6562499999999992
 40
0.6874999999999992
 40
0.6874999999999992
 40
0.71875
 40
0.71875
 40
0.75
 40
0.75
 40
0.8125
 40
0.8125
 40
0.828125
 40
0.828125
 40
0.84375
 40
0.84375
 40
0.875
 40
0.875
 40
0.90625
 40
0.90625
 40
0.921875
 40
0.921875
 40
0.9375
 40
0.9375
 40
1.0
 40
1.0
 40
1.0
 40
1.0
 10
52.0535653752853
 20
0.7090538884240801
 30
0.0
 41
1.0
 10
52.0623420460568
 20
0.698667692346589
 30
0.0
 41
1.0
 10
52.0711569515236
 20
0.688301905929052
 30
0.0
 41
1.0
 10
52.0889389182329
 20
0.667691956269408
 30
0.0
 41
1.0
 10
52.0978179540129
 20
0.657368458806644
 30
0.0
 41
1.0
 10
52.1263797670675
 20
0.6280919584326059
 30
0.0
 41
1.0
 10
52.14618448274079
 20
0.609338787567026
 30
0.0
 41
1.0
 10
52.18722590884659
 20
0.5739014264039211
 30
0.0
 41
1.0
 10
52.2085447784101
 20
0.557225100826429
 30
0.0
 41
1.0
 10
52.2532855397419
 20
0.526618761035337
 30
0.0
 41
1.0
 10
52.276905717836
 20
0.512578925659454
 30
0.0
 41
1.0
 10
52.3258882523636
 20
0.488609173369525
 30
0.0
 41
1.0
 10
52.35104128448369
 20
0.4787527972406731
 30
0.0
 41
1.0
 10
52.40286530329829
 20
0.4639128814601462
 30
0.0
 41
1.0
 10
52.42980968901498
 20
0.458953027051905
 30
0.0
 41
1.0
 10
52.48297727749001
 20
0.4546331663906642
 30
0.0
 41
1.0
 10
52.5094096057156
 20
0.4551598101860752
 30
0.0
 41
1.0
 10
52.56197625785979
 20
0.4611622714964771
 30
0.0
 41
1.0
 10
52.58796240605328
 20
0.4666656826620402
 30
0.0
 41
1.0
 10
52.63776660362211
 20
0.4813737786205651
 30
0.0
 41
1.0
 10
52.6618580928765
 20
0.4906045977265022
 30
0.0
 41
1.0
 10
52.7087194680196
 20
0.512030728374754
 30
0.0
 41
1.0
 10
52.7315603367838
 20
0.524286239994467
 30
0.0
 41
1.0
 10
52.7971134101645
 20
0.5637834903893971
 30
0.0
 41
1.0
 10
52.8374135636613
 20
0.5938740010823272
 30
0.0
 41
1.0
 10
52.9136567349271
 20
0.6584202817799962
 30
0.0
 41
1.0
 10
52.9496999488375
 20
0.69309750033355
 30
0.0
 41
1.0
 10
53.017706732096
 20
0.7645772456872632
 30
0.0
 41
1.0
 10
53.04963405464029
 20
0.8013173168015159
 30
0.0
 41
1.0
 10
53.1408345048088
 20
0.9133126360360959
 30
0.0
 41
1.0
 10
53.1956506103701
 20
0.9902366785562719
 30
0.0
 41
1.0
 10
53.29738240725389
 20
1.14557709453962
 30
0.0
 41
1.0
 10
53.34417990954989
 20
1.224097672988879
 30
0.0
 41
1.0
 10
53.40982656902109
 20
1.341919788280929
 30
0.0
 41
1.0
 10
53.4309785217042
 20
1.38126044755134
 30
0.0
 41
1.0
 10
53.47161407651171
 20
1.459313936122159
 30
0.0
 41
1.0
 10
53.49112608606788
 20
1.498079544850499
 30
0.0
 41
1.0
 10
53.5474888071058
 20
1.613501911309469
 30
0.0
 41
1.0
 10
53.5821764943086
 20
1.68928451172241
 30
0.0
 41
1.0
 10
53.67919211541351
 20
1.912295353609918
 30
0.0
 41
1.0
 10
53.73438881658639
 20
2.05538217959904
 30
0.0
 41
1.0
 10
53.80626612245089
 20
2.25971743087092
 30
0.0
 41
1.0
 10
53.8283762258918
 20
2.326122431942818
 30
0.0
 41
1.0
 10
53.8691891131279
 20
2.45527720309175
 30
0.0
 41
1.0
 10
53.8877622020869
 20
2.517598676139588
 30
0.0
 41
1.0
 10
53.9383131000715
 20
2.69645653600969
 30
0.0
 41
1.0
 10
53.9652547957043
 20
2.80553842181195
 30
0.0
 41
1.0
 10
53.997319911557
 20
2.95320524294806
 30
0.0
 41
1.0
 10
54.0065942177718
 20
2.999809045195008
 30
0.0
 41
1.0
 10
54.0185509192585
 20
3.06561041790914
 30
0.0
 41
1.0
 10
54.02221525509849
 20
3.086838953398768
 30
0.0
 41
1.0
 10
54.02725661422248
 20
3.117512913048498
 30
0.0
 41
1.0
 10
54.02886120325478
 20
3.12754193325279
 30
0.0
 41
1.0
 10
54.03192049702759
 20
3.147195528847848
 30
0.0
 41
1.0
 10
54.0333862507752
 20
3.156732348624069
 30
0.0
 41
1.0
 10
54.03729322831821
 20
3.18656353591851
 30
0.0
 41
1.0
 10
54.0391630960343
 20
3.208650358427008
 30
0.0
 41
1.0
 10
54.041814713251
 20
3.257786277476748
 30
0.0
 41
1.0
 10
54.0426353455761
 20
3.284604242162258
 30
0.0
 41
1.0
 10
54.0435569774833
 20
3.34240255765727
 30
0.0
 41
1.0
 10
54.0436561291432
 20
3.37339042487994
 30
0.0
 41
1.0
 10
54.0431714743847
 20
3.439440248846068
 30
0.0
 41
1.0
 10
54.0425805922276
 20
3.474692028480208
 30
0.0
 41
1.0
 10
54.0395628124266
 20
3.585093231946898
 30
0.0
 41
1.0
 10
54.03596829915478
 20
3.66434198360872
 30
0.0
 41
1.0
 10
54.0231182461985
 20
3.8317191782449
 30
0.0
 41
1.0
 10
54.0138060893495
 20
3.91983828308887
 30
0.0
 41
1.0
 10
53.9864377769551
 20
4.101644830041778
 30
0.0
 41
1.0
 10
53.96848816334911
 20
4.194143333365158
 30
0.0
 41
1.0
 10
53.92297424154009
 20
4.37789992747082
 30
0.0
 41
1.0
 10
53.8953950794487
 20
4.469352365330018
 30
0.0
 41
1.0
 10
53.8302962525165
 20
4.649045809569
 30
0.0
 41
1.0
 10
53.79281127239298
 20
4.73726915356974
 30
0.0
 41
1.0
 10
53.70830516763129
 20
4.90871277108269
 30
0.0
 41
1.0
 10
53.66106052501039
 20
4.99219387002003
 30
0.0
 41
1.0
 10
53.50946625181539
 20
5.228000800033468
 30
0.0
 41
1.0
 10
53.39474384232762
 20
5.367512923572968
 30
0.0
 41
1.0
 10
53.2389031992662
 20
5.51840304835901
 30
0.0
 41
1.0
 10
53.20700420368909
 20
5.547487301294887
 30
0.0
 41
1.0
 10
53.1424712471797
 20
5.602859199407481
 30
0.0
 41
1.0
 10
53.1099283880879
 20
5.62908098359102
 30
0.0
 41
1.0
 10
53.0115802770889
 20
5.703512703360128
 30
0.0
 41
1.0
 10
52.94506480296349
 20
5.747501027348079
 30
0.0
 41
1.0
 10
52.81043536264339
 20
5.824776037655848
 30
0.0
 41
1.0
 10
52.7423104785987
 20
5.858064825021419
 30
0.0
 41
1.0
 10
52.638960615746
 20
5.90010483418462
 30
0.0
 41
1.0
 10
52.6042225324439
 20
5.912827399260268
 30
0.0
 41
1.0
 10
52.53491902874889
 20
5.93544515757611
 30
0.0
 41
1.0
 10
52.5003469910931
 20
5.94535278903948
 30
0.0
 41
1.0
 10
52.327814746453
 20
5.98811675369299
 30
0.0
 41
1.0
 10
52.19091997395571
 20
6.000921170853128
 30
0.0
 41
1.0
 10
52.0535653752853
 20
5.99303797197808
 30
0.0
 41
1.0
  0
SPLINE
  5
87
330
1F
100
AcDbEntity
  8
1
100
AcDbSpline
210
0.0
220
0.0
230
1.0
 70
    12
 71
     3
 72
    50
 73
    46
 74
     0
 42
0.000000001
 43
0.0000000001
 40
0.0
 40
0.0
 40
0.0
 40
0.0
 40
0.0420044214858108
 40
0.0420044214858108
 40
0.0788504052748176
 40
0.0788504052748176
 40
0.115696389063825
 40
0.115696389063825
 40
0.152542372852832
 40
0.152542372852832
 40
0.189388356641839
 40
0.189388356641839
 40
0.226234340430846
 40
0.226234340430846
 40
0.263080324219853
 40
0.263080324219853
 40
0.29992630800886
 40
0.29992630800886
 40
0.336772291797867
 40
0.336772291797867
 40
0.4104642593758812
 40
0.4104642593758812
 40
0.4841562269538951
 40
0.4841562269538951
 40
0.5578481945319089
 40
0.5578481945319089
 40
0.631540162109924
 40
0.631540162109924
 40
0.668386145898931
 40
0.668386145898931
 40
0.6868091377934351
 40
0.6868091377934351
 40
0.7052321296879379
 40
0.7052321296879379
 40
0.7789240972659543
 40
0.7789240972659543
 40
0.852616064843969
 40
0.852616064843969
 40
0.8894620486329769
 40
0.8894620486329769
 40
0.907885040527481
 40
0.907885040527481
 40
0.9263080324219847
 40
0.9263080324219847
 40
1.0
 40
1.0
 40
1.0
 40
1.0
 10
38.23988475270571
 20
-5.767348734926998
 30
0.0
 41
1.0
 10
38.09678995595171
 20
-5.814378519521968
 30
0.0
 41
1.0
 10
37.95368162354279
 20
-5.85441415462887
 30
0.0
 41
1.0
 10
37.6844507336071
 20
-5.91628820070741
 30
0.0
 41
1.0
 10
37.558483577669
 20
-5.939709115252838
 30
0.0
 41
1.0
 10
37.30723731342261
 20
-5.975288314793861
 30
0.0
 41
1.0
 10
37.1817553609606
 20
-5.987494733221179
 30
0.0
 41
1.0
 10
36.9306662662717
 20
-6.000740585707459
 30
0.0
 41
1.0
 10
36.8050674571851
 20
-6.001780447537468
 30
0.0
 41
1.0
 10
36.5533581342137
 20
-5.992603999898588
 30
0.0
 41
1.0
 10
36.42742416533621
 20
-5.98238202485632
 30
0.0
 41
1.0
 10
36.17572691263421
 20
-5.950761586493598
 30
0.0
 41
1.0
 10
36.049744562114
 20
-5.92933651652459
 30
0.0
 41
1.0
 10
35.79798989477879
 20
-5.875441329870878
 30
0.0
 41
1.0
 10
35.6721902341581
 20
-5.842977250500518
 30
0.0
 41
1.0
 10
35.42032442628662
 20
-5.767072970217838
 30
0.0
 41
1.0
 10
35.2948432431403
 20
-5.723804140883149
 30
0.0
 41
1.0
 10
35.0448373560133
 20
-5.627152302435258
 30
0.0
 41
1.0
 10
34.9202399390039
 20
-5.573741982085639
 30
0.0
 41
1.0
 10
34.5470856003147
 20
-5.398651075161518
 30
0.0
 41
1.0
 10
34.299154147695
 20
-5.262146866501669
 30
0.0
 41
1.0
 10
33.8016606241042
 20
-4.95089483680061
 30
0.0
 41
1.0
 10
33.5521171949731
 20
-4.77606034411357
 30
0.0
 41
1.0
 10
33.04835809142069
 20
-4.388497463172058
 30
0.0
 41
1.0
 10
32.7988788865701
 20
-4.17944870324305
 30
0.0
 41
1.0
 10
32.301483371303
 20
-3.7337831248947
 30
0.0
 41
1.0
 10
32.0535048344161
 20
-3.497203638857028
 30
0.0
 41
1.0
 10
31.6803183826045
 20
-3.123248915495709
 30
0.0
 41
1.0
 10
31.5557222282997
 20
-2.99540811483587
 30
0.0
 41
1.0
 10
31.3682000139353
 20
-2.79902654525671
 30
0.0
 41
1.0
 10
31.3055867066281
 20
-2.73279652223096
 30
0.0
 41
1.0
 10
31.1800932889872
 20
-2.59882048830968
 30
0.0
 41
1.0
 10
31.11713528554
 20
-2.53098745248008
 30
0.0
 41
1.0
 10
30.8024915018602
 20
-2.189079353889439
 30
0.0
 41
1.0
 10
30.5531809085599
 20
-1.90889545739805
 30
0.0
 41
1.0
 10
30.055873995799
 20
-1.33835795634221
 30
0.0
 41
1.0
 10
29.8079104726003
 20
-1.047977855478559
 30
0.0
 41
1.0
 10
29.4346732655701
 20
-0.606653247239308
 30
0.0
 41
1.0
 10
29.310033301104
 20
-0.458594102202966
 30
0.0
 41
1.0
 10
29.1224163309277
 20
-0.235320196614993
 30
0.0
 41
1.0
 10
29.0597696147609
 20
-0.160696379661999
 30
0.0
 41
1.0
 10
28.9342109953272
 20
-0.0110862847596422
 30
0.0
 41
1.0
 10
28.8712298755311
 20
0.063982434434763
 30
0.0
 41
1.0
 10
28.55649911436981
 20
0.4389732020448491
 30
0.0
 41
1.0
 10
28.3054905363103
 20
0.737540064805302
 30
0.0
 41
1.0
 10
28.0535653752823
 20
1.03326338988086
 30
0.0
 41
1.0
  0
SPLINE
  5
88
330
1F
100
AcDbEntity
  8
1
100
AcDbSpline
210
0.0
220
0.0
230
1.0
 70
    12
 71
     3
 72
    38
 73
    34
 74
     0
 42
0.000000001
 43
0.0000000001
 40
0.0
 40
0.0
 40
0.0
 40
0.0
 40
0.0512767921241832
 40
0.0512767921241832
 40
0.102553584248366
 40
0.102553584248366
 40
0.205107168496733
 40
0.205107168496733
 40
0.256383960620916
 40
0.256383960620916
 40
0.282022356683008
 40
0.282022356683008
 40
0.307660752745099
 40
0.307660752745099
 40
0.4102143369934651
 40
0.4102143369934651
 40
0.5127679212418311
 40
0.5127679212418311
 40
0.564044713366013
 40
0.564044713366013
 40
0.589683109428105
 40
0.589683109428105
 40
0.6153215054901962
 40
0.6153215054901962
 40
0.717875089738563
 40
0.717875089738563
 40
0.820428673986929
 40
0.820428673986929
 40
0.871705466111112
 40
0.871705466111112
 40
0.9229822582352952
 40
0.9229822582352952
 40
1.0
 40
1.0
 40
1.0
 40
1.0
 10
52.0535653752853
 20
0.7090538884240801
 30
0.0
 41
1.0
 10
51.92760771152389
 20
0.8581105213261819
 30
0.0
 41
1.0
 10
51.80163394661589
 20
1.006498829755029
 30
0.0
 41
1.0
 10
51.5498074800057
 20
1.30100160212737
 30
0.0
 41
1.0
 10
51.4237618536458
 20
1.44733735312576
 30
0.0
 41
1.0
 10
51.0466977771672
 20
1.880640725178689
 30
0.0
 41
1.0
 10
50.796654596589
 20
2.16195258522802
 30
0.0
 41
1.0
 10
50.42123553052089
 20
2.570886152535759
 30
0.0
 41
1.0
 10
50.2960380979182
 20
2.70502155175521
 30
0.0
 41
1.0
 10
50.1078234038537
 20
2.90268328761789
 30
0.0
 41
1.0
 10
50.0450138100252
 20
2.967978892987899
 30
0.0
 41
1.0
 10
49.919202274084
 20
3.09734190847979
 30
0.0
 41
1.0
 10
49.8561786884225
 20
3.1614300124231
 30
0.0
 41
1.0
 10
49.5421695176239
 20
3.47699102553062
 30
0.0
 41
1.0
 10
49.29317123647528
 20
3.71527105426918
 30
0.0
 41
1.0
 10
48.7961143272836
 20
4.162109535144279
 30
0.0
 41
1.0
 10
48.5481094640386
 20
4.370703526312349
 30
0.0
 41
1.0
 10
48.1745232925727
 20
4.659792801488659
 30
0.0
 41
1.0
 10
48.0497170919528
 20
4.752174028185348
 30
0.0
 41
1.0
 10
47.8617847686772
 20
4.88450796128265
 30
0.0
 41
1.0
 10
47.79902149172971
 20
4.927579822535339
 30
0.0
 41
1.0
 10
47.67320529021339
 20
5.01159398168562
 30
0.0
 41
1.0
 10
47.61021759119048
 20
5.05248843954675
 30
0.0
 41
1.0
 10
47.2964207306674
 20
5.25029480715699
 30
0.0
 41
1.0
 10
47.0474892177896
 20
5.38825915853758
 30
0.0
 41
1.0
 10
46.55051462091059
 20
5.62359921012421
 30
0.0
 41
1.0
 10
46.3025408801069
 20
5.720992979518598
 30
0.0
 41
1.0
 10
45.92882159289449
 20
5.83572290491983
 30
0.0
 41
1.0
 10
45.803962251258
 20
5.868732737724088
 30
0.0
 41
1.0
 10
45.5532796947027
 20
5.924016383294999
 30
0.0
 41
1.0
 10
45.4270906375211
 20
5.946317047908738
 30
0.0
 41
1.0
 10
45.11321371138859
 20
5.98784567250962
 30
0.0
 41
1.0
 10
44.9259203664372
 20
6.000123308013307
 30
0.0
 41
1.0
 10
44.7390998519159
 20
6.000005573897507
 30
0.0
 41
1.0
  0
SPLINE
  5
89
330
1F
100
AcDbEntity
  8
1
100
AcDbSpline
210
0.0
220
0.0
230
1.0
 70
    12
 71
     3
 72
    12
 73
     8
 74
     0
 42
0.000000001
 43
0.0000000001
 40
0.0
 40
0.0
 40
0.0
 40
0.0
 40
0.5
 40
0.5
 40
0.75
 40
0.75
 40
1.0
 40
1.0
 40
1.0
 40
1.0
 10
27.0
 20
-5.41579389599215
 30
0.0
 41
1.0
 10
27.184446397599
 20
-5.480910883569798
 30
0.0
 41
1.0
 10
27.3680444830799
 20
-5.559050655574338
 30
0.0
 41
1.0
 10
27.6345463049295
 20
-5.697092187791838
 30
0.0
 41
1.0
 10
27.7218576235047
 20
-5.746585220145449
 30
0.0
 41
1.0
 10
27.8916986427766
 20
-5.852428433488168
 30
0.0
 41
1.0
 10
27.9741418502155
 20
-5.9087331701929
 30
0.0
 41
1.0
 10
28.0535653752853
 20
-5.96832268625462
 30
0.0
 41
1.0
  0
SPLINE
  5
8A
330
1F
100
AcDbEntity
  8
1
100
AcDbSpline
210
0.0
220
0.0
230
1.0
 70
    12
 71
     3
 72
    22
 73
    18
 74
     0
 42
0.000000001
 43
0.0000000001
 40
0.0
 40
0.0
 40
0.0
 40
0.0
 40
0.125000000000001
 40
0.125000000000001
 40
0.250000000000001
 40
0.250000000000001
 40
0.3750000000000011
 40
0.3750000000000011
 40
0.500000000000002
 40
0.500000000000002
 40
0.7500000000000023
 40
0.7500000000000023
 40
0.812500000000001
 40
0.812500000000001
 40
0.875000000000001
 40
0.875000000000001
 40
1.0
 40
1.0
 40
1.0
 40
1.0
 10
27.0
 20
3.34351605964414
 30
0.0
 41
1.0
 10
26.8429346155427
 20
3.48751191531579
 30
0.0
 41
1.0
 10
26.6859310745609
 20
3.62661892716554
 30
0.0
 41
1.0
 10
26.3723423102852
 20
3.89351175651498
 30
0.0
 41
1.0
 10
26.21558748071401
 20
4.02138858544851
 30
0.0
 41
1.0
 10
25.9014933474114
 20
4.265540981465528
 30
0.0
 41
1.0
 10
25.7452422387698
 20
4.38099063786089
 30
0.0
 41
1.0
 10
25.4340250018177
 20
4.59813799469248
 30
0.0
 41
1.0
 10
25.27893217738161
 20
4.699881039540628
 30
0.0
 41
1.0
 10
24.8141378409106
 20
4.98437474009444
 30
0.0
 41
1.0
 10
24.5051050857883
 20
5.146537521860299
 30
0.0
 41
1.0
 10
24.1157910202337
 20
5.31266126288153
 30
0.0
 41
1.0
 10
24.0377855713782
 20
5.344054880609888
 30
0.0
 41
1.0
 10
23.8814043170661
 20
5.403105264480927
 30
0.0
 41
1.0
 10
23.8029472405714
 20
5.43078796728153
 30
0.0
 41
1.0
 10
23.5674552706238
 20
5.50789982453654
 30
0.0
 41
1.0
 10
23.4106386264247
 20
5.551296213255509
 30
0.0
 41
1.0
 10
23.2535653752853
 20
5.58658597686869
 30
0.0
 41
1.0
  0
SPLINE
  5
8B
330
1F
100
AcDbEntity
  8
1
100
AcDbSpline
210
0.0
220
0.0
230
1.0
 70
    12
 71
     3
 72
    21
 73
    17
 74
     0
 42
0.000000001
 43
0.0000000001
 40
0.4143432534229859
 40
0.4143432534229859
 40
0.4143432534229859
 40
0.4143432534229859
 40
0.453888662869168
 40
0.562235217343758
 40
0.6972943866756422
 40
0.8265735653287558
 40
0.8930185040449007
 40
0.9435680313266502
 40
0.9777181955152439
 40
0.9832795379123588
 40
0.9877740276040839
 40
0.991549513731473
 40
0.993348763145372
 40
0.9951918452784052
 40
0.999292601519568
 40
1.0
 40
1.0
 40
1.0
 40
1.0
 10
33.45958979623612
 20
4.909489755847024
 30
0.0
 41
1.0
 10
33.38607885253277
 20
4.932960912949185
 30
0.0
 41
1.0
 10
33.11116768916284
 20
5.020410839482591
 30
0.0
 41
1.0
 10
32.5848601160025
 20
5.184929880997058
 30
0.0
 41
1.0
 10
31.8972087619761
 20
5.3904524532725
 30
0.0
 41
1.0
 10
31.2855447594054
 20
5.559678614308718
 30
0.0
 41
1.0
 10
30.828235298855
 20
5.676804016496988
 30
0.0
 41
1.0
 10
30.5474196011422
 20
5.74491403473976
 30
0.0
 41
1.0
 10
30.3811893800704
 20
5.783557729561098
 30
0.0
 41
1.0
 10
30.2966685078026
 20
5.80272793646566
 30
0.0
 41
1.0
 10
30.2706024161473
 20
5.80857190148913
 30
0.0
 41
1.0
 10
30.2537686562358
 20
5.812258539983758
 30
0.0
 41
1.0
 10
30.2447645897443
 20
5.81414321745899
 30
0.0
 41
1.0
 10
30.2380466129316
 20
5.815462281618858
 30
0.0
 41
1.0
 10
30.2359249251051
 20
5.81571756905305
 30
0.0
 41
1.0
 10
30.2357304191823
 20
5.815579400304669
 30
0.0
 41
1.0
 10
30.2357283913065
 20
5.815552639381278
 30
0.0
 41
1.0
  0
LINE
  5
46
330
1F
100
AcDbEntity
  8
4
 48
0.05
100
AcDbLine
 10
0.0
 20
0.0
 30
0.0
 11
63.60783966522223
 21
0.0
 31
0.0
  0
LINE
  5
48
330
1F
100
AcDbEntity
  8
1
100
AcDbLine
 10
23.253565
 20
-1.131395999999998
 30
0.0
 11
23.253565
 21
4.975910999999999
 31
0.0
  0
LINE
  5
4A
330
1F
100
AcDbEntity
  8
SK1
100
AcDbLine
 10
-45.946435
 20
-5.4
 30
0.0
 11
-45.946435
 21
5.4
 31
0.0
  0
LINE
  5
4C
330
1F
100
AcDbEntity
  8
1
100
AcDbLine
 10
23.253565
 20
5.586586
 30
0.0
 11
23.253565
 21
5.7
 31
0.0
  0
LINE
  5
4D
330
1F
100
AcDbEntity
  8
SK1
100
AcDbLine
 10
-45.946435
 20
-5.4
 30
0.0
 11
-45.346435
 21
-6.0
 31
0.0
  0
LINE
  5
4E
330
1F
100
AcDbEntity
  8
1
100
AcDbLine
 10
27.0
 20
-5.415793999999999
 30
0.0
 11
27.0
 21
-4.616373
 31
0.0
  0
LINE
  5
4F
330
1F
100
AcDbEntity
  8
1
100
AcDbLine
 10
28.053565
 20
0.6157310000000002
 30
0.0
 11
28.053565
 21
1.033262999999998
 31
0.0
  0
LINE
  5
50
330
1F
100
AcDbEntity
  8
1
100
AcDbLine
 10
27.0
 20
1.777407
 30
0.0
 11
27.0
 21
3.343516
 31
0.0
  0
LINE
  5
51
330
1F
100
AcDbEntity
  8
1
100
AcDbLine
 10
0.0
 20
-6.0
 30
0.0
 11
0.0
 21
6.0
 31
0.0
  0
LINE
  5
52
330
1F
100
AcDbEntity
  8
1
100
AcDbLine
 10
44.741224
 20
6.0
 30
0.0
 11
44.388233
 21
6.0
 31
0.0
  0
LINE
  5
53
330
1F
100
AcDbEntity
  8
SK1
100
AcDbLine
 10
0.0
 20
6.0
 30
0.0
 11
-45.346435
 21
6.0
 31
0.0
  0
LINE
  5
54
330
1F
100
AcDbEntity
  8
1
100
AcDbLine
 10
28.053565
 20
-5.968323
 30
0.0
 11
28.053565
 21
-5.910360999999999
 31
0.0
  0
LINE
  5
55
330
1F
100
AcDbEntity
  8
1
100
AcDbLine
 10
1.053564999999998
 20
-5.7
 30
0.0
 11
1.053564999999998
 21
5.7
 31
0.0
  0
LINE
  5
56
330
1F
100
AcDbEntity
  8
1
100
AcDbLine
 10
23.253565
 20
-5.7
 30
0.0
 11
23.253565
 21
-2.780343999999998
 31
0.0
  0
LINE
  5
57
330
1F
100
AcDbEntity
  8
1
100
AcDbLine
 10
52.053565
 20
0.288957
 30
0.0
 11
52.053565
 21
0.709054
 31
0.0
  0
LINE
  5
58
330
1F
100
AcDbEntity
  8
1
100
AcDbLine
 10
54.05356499999999
 20
-4.0
 30
0.0
 11
54.05356499999999
 21
4.0
 31
0.0
  0
LINE
  5
59
330
1F
100
AcDbEntity
  8
SK1
100
AcDbLine
 10
-45.346435
 20
-6.0
 30
0.0
 11
-45.346435
 21
6.0
 31
0.0
  0
LINE
  5
5A
330
1F
100
AcDbEntity
  8
SK1
100
AcDbLine
 10
-45.346435
 20
6.0
 30
0.0
 11
-45.946435
 21
5.4
 31
0.0
  0
LINE
  5
5B
330
1F
100
AcDbEntity
  8
SK1
100
AcDbLine
 10
-45.346435
 20
-6.0
 30
0.0
 11
0.0
 21
-6.0
 31
0.0
  0
LINE
  5
5C
330
1F
100
AcDbEntity
  8
1
100
AcDbLine
 10
1.053564999999998
 20
-5.7
 30
0.0
 11
23.253565
 21
-5.7
 31
0.0
  0
LINE
  5
5D
330
1F
100
AcDbEntity
  8
1
100
AcDbLine
 10
52.053565
 20
-5.993037999999998
 30
0.0
 11
52.053565
 21
-5.957955999999998
 31
0.0
  0
LINE
  5
5E
330
1F
100
AcDbEntity
  8
1
100
AcDbLine
 10
36.479636
 20
-6.0
 30
0.0
 11
36.832831
 21
-6.0
 31
0.0
  0
LINE
  5
5F
330
1F
100
AcDbEntity
  8
1
100
AcDbLine
 10
23.253565
 20
5.7
 30
0.0
 11
1.053564999999998
 21
5.7
 31
0.0
  0
LINE
  5
60
330
1F
100
AcDbEntity
  8
1
100
AcDbLine
 10
36.832831
 20
6.0
 30
0.0
 11
36.479636
 21
6.0
 31
0.0
  0
LINE
  5
61
330
1F
100
AcDbEntity
  8
1
100
AcDbLine
 10
28.571086
 20
-6.0
 30
0.0
 11
28.924706
 21
-6.0
 31
0.0
  0
LINE
  5
62
330
1F
100
AcDbEntity
  8
1
100
AcDbLine
 10
44.388233
 20
-6.0
 30
0.0
 11
44.741224
 21
-6.0
 31
0.0
  0
LINE
  5
63
330
1F
100
AcDbEntity
  8
1
100
AcDbLine
 10
28.924706
 20
6.0
 30
0.0
 11
28.571086
 21
6.0
 31
0.0
  0
LINE
  5
64
330
1F
100
AcDbEntity
  8
80
100
AcDbLine
 10
0.0
 20
0.0
 30
0.0
 11
-9.157871
 21
0.0
 31
0.0
  0
LINE
  5
65
330
1F
100
AcDbEntity
  8
81
100
AcDbLine
 10
54.05356499999999
 20
0.0
 30
0.0
 11
64.19654
 21
0.0
 31
0.0
  0
LINE
  5
66
330
1F
100
AcDbEntity
  8
SK4
 48
0.05
100
AcDbLine
 10
0.0
 20
0.0000000000000001
 30
0.0
 11
-54.5820157511169
 21
0.0
 31
0.0
  0
MTEXT
  5
8C
330
1F
100
AcDbEntity
  8
SK6
100
AcDbMText
 10
-21.81888841046503
 20
39.99808156905126
 30
0.0
 40
3.0
 41
0.0
 71
     7
 72
     5
  1
\W00.757;\fsimplex.shx,bigfont.shx;R216.24-12050EYK26P 
  7
DEFAULT
 73
     1
 44
1.084337
  0
DIMENSION
  5
A5
330
1F
100
AcDbEntity
  8
2
370
    -3
100
AcDbDimension
  2
DimnDraft3D1
 10
76.24250747698841
 20
5.993037999999991
 30
0.0
 11
72.44250747698841
 21
21.14732371428572
 31
0.0
 70
    32
  1
Ø12
 71
     5
 42
11.98607599999999
  3
SANDVIK_DIM
100
AcDbAlignedDimension
 13
53.641065
 23
-5.993037999999998
 33
0.0
 14
53.641065
 24
5.993037999999998
 34
0.0
 50
90.0
100
AcDbRotatedDimension
1001
ACAD
1000
DSTYLE
1002
{
1070
   279
1070
     0
1070
   140
1040
3.0
1070
    40
1040
1.0
1002
}
  0
DIMENSION
  5
AF
330
1F
100
AcDbEntity
  8
SK2
370
    -3
100
AcDbDimension
  2
DimnDraft3D2
 10
-57.08761299999999
 20
6.0
 30
0.0
 11
-57.08761299999999
 21
11.09902
 31
0.0
 70
    32
 71
     5
 42
-1.0
  3
Standard
100
AcDbAlignedDimension
 13
-46.93393499999999
 23
-6.0
 33
0.0
 14
-46.93393499999999
 24
6.0
 34
0.0
 50
90.0
100
AcDbRotatedDimension
1001
ACAD
1000
DSTYLE
1002
{
1070
    74
1070
     0
1070
   279
1070
     0
1070
   172
1070
     1
1070
   173
1070
     1
1070
   340
1005
8D
1070
   271
1070
     1
1070
   272
1070
     2
1070
    77
1070
     1
1070
    73
1070
     0
1070
   171
1070
     3
1070
   274
1070
     4
1070
   177
1070
     7
1070
   176
1070
     7
1070
   178
1070
     7
1070
    78
1070
     8
1070
    48
1040
-0.005
1070
    41
1041
3.5
1070
   147
1041
1.75
1070
    42
1041
1.587499999999999
1070
    44
1041
2.0
1070
   140
1041
3.5
1070
   343
1005
0
1070
   344
1005
0
1002
}
  0
DIMENSION
  5
C3
330
1F
100
AcDbEntity
  8
2
370
    -3
100
AcDbDimension
  2
DimnDraft3D4
 10
28.053565
 20
-17.15283424910779
 30
0.0
 11
41.053565
 21
-17.15283424910779
 31
0.0
 70
   160
 71
     5
 42
25.99999999999999
  3
SANDVIK_DIM
100
AcDbAlignedDimension
 13
54.05356499999999
 23
-10.2826671245539
 33
0.0
 14
28.053565
 24
-9.766035624553898
 34
0.0
100
AcDbRotatedDimension
1001
ACAD
1000
DSTYLE
1002
{
1070
   279
1070
     0
1070
   140
1040
3.0
1070
    40
1040
1.0
1002
}
  0
DIMENSION
  5
CD
330
1F
100
AcDbEntity
  8
SK2
370
    -3
100
AcDbDimension
  2
DimnDraft3D5
 10
-45.946435
 20
-48.91533608355633
 30
0.0
 11
3.188183715213426
 21
-48.91533608355633
 31
0.0
 70
   160
 71
     5
 42
100.0
  3
SANDVIK_DIM
100
AcDbAlignedDimension
 13
54.05356499999999
 23
-10.2826671245539
 33
0.0
 14
-45.946435
 24
-6.987499999999998
 34
0.0
100
AcDbRotatedDimension
1001
ACAD
1000
DSTYLE
1002
{
1070
    40
1040
1.0
1070
   140
1040
3.0
1070
   279
1070
     0
1002
}
  0
DIMENSION
  5
2C8
330
1F
100
AcDbEntity
  8
2
100
AcDbDimension
  2
*D10
 10
12.153565
 20
5.699999999999999
 30
0.0
 11
8.353565000000001
 21
22.78285714285714
 31
0.0
 70
    32
  1
Ø<>
 71
     5
 42
11.4
  3
SANDVIK_DIM
100
AcDbAlignedDimension
 13
12.153565
 23
-5.699999999999999
 33
0.0
 14
12.153565
 24
5.699999999999999
 34
0.0
 50
90.0
100
AcDbRotatedDimension
1001
ACAD
1000
DSTYLE
1002
{
1070
   279
1070
     0
1070
   140
1040
3.0
1070
    44
1040
2.0
1070
    40
1040
1.0
1002
}
  0
SPLINE
  5
305
330
1F
100
AcDbEntity
  8
1
100
AcDbSpline
210
0.0
220
0.0
230
1.0
 70
    12
 71
     3
 72
    37
 73
    33
 74
     0
 42
0.000000001
 43
0.0000000001
 40
0.4261702119724682
 40
0.4261702119724682
 40
0.4261702119724682
 40
0.4261702119724682
 40
0.4380300399578723
 40
0.4380300399578723
 40
0.4550594326864223
 40
0.4550594326864223
 40
0.523177003600619
 40
0.523177003600619
 40
0.5912945745148172
 40
0.5912945745148172
 40
0.625353359971916
 40
0.625353359971916
 40
0.642382752700465
 40
0.642382752700465
 40
0.6594121454290151
 40
0.6594121454290151
 40
0.7275297163432131
 40
0.7275297163432131
 40
0.7956472872574109
 40
0.7956472872574109
 40
0.829706072714509
 40
0.829706072714509
 40
0.8467354654430579
 40
0.8467354654430579
 40
0.8637648581716078
 40
0.8637648581716078
 40
0.931882429085804
 40
0.931882429085804
 40
1.0
 40
1.0
 40
1.0
 40
1.008861673758419
 40
1.008861673758419
 40
1.008861673758419
 40
1.008861673758419
 10
35.76144964672947
 20
-5.93736144865831
 30
0.0
 41
1.0
 10
35.70153821842207
 20
-5.894215636519713
 30
0.0
 41
1.0
 10
35.64155195839076
 20
-5.850253889387615
 30
0.0
 41
1.0
 10
35.49521599363605
 20
-5.741181692662435
 30
0.0
 41
1.0
 10
35.40868633169187
 20
-5.675139019988484
 30
0.0
 41
1.0
 10
34.97585529130187
 20
-5.337252959822577
 30
0.0
 41
1.0
 10
34.63296830505816
 20
-5.045542896919797
 30
0.0
 41
1.0
 10
33.94909485667689
 20
-4.423690638973915
 30
0.0
 41
1.0
 10
33.60806187267169
 20
-4.093577008738818
 30
0.0
 41
1.0
 10
33.09449561375386
 20
-3.571830173696425
 30
0.0
 41
1.0
 10
32.92296768730095
 20
-3.393477567398387
 30
0.0
 41
1.0
 10
32.66468156120355
 20
-3.119531259245582
 30
0.0
 41
1.0
 10
32.57842035247886
 20
-3.027145833348334
 30
0.0
 41
1.0
 10
32.40549447219486
 20
-2.840260129956518
 30
0.0
 41
1.0
 10
32.31879809534395
 20
-2.745721913062296
 30
0.0
 41
1.0
 10
31.88700221802084
 20
-2.271016726841263
 30
0.0
 41
1.0
 10
31.54465809434557
 20
-1.882377443148704
 30
0.0
 41
1.0
 10
30.86116552612505
 20
-1.091790567011893
 30
0.0
 41
1.0
 10
30.52011137268555
 20
-0.6897649987959467
 30
0.0
 41
1.0
 10
30.00598838812106
 20
-0.0795327133590282
 30
0.0
 41
1.0
 10
29.83417934166208
 20
0.1250704265950882
 30
0.0
 41
1.0
 10
29.57538706116047
 20
0.4334465488364723
 30
0.0
 41
1.0
 10
29.48886772688537
 20
0.5365725712025134
 30
0.0
 41
1.0
 10
29.31571853103894
 20
0.7428626379613812
 30
0.0
 41
1.0
 10
29.22931384149767
 20
0.8457581802097005
 30
0.0
 41
1.0
 10
28.79793768114557
 20
1.358836170958242
 30
0.0
 41
1.0
 10
28.45485293660248
 20
1.76478885735936
 30
0.0
 41
1.0
 10
27.76806851394646
 20
2.563973083074167
 30
0.0
 41
1.0
 10
27.42436592203815
 20
2.95720177844494
 30
0.0
 41
1.0
 10
26.27645112092118
 20
4.274678580736499
 30
0.0
 41
1.0
 10
26.12711452048991
 20
4.44607414651356
 30
0.0
 41
1.0
 10
25.96416711317754
 20
4.633112054385727
 30
0.0
 41
1.0
 10
25.78760897511789
 20
4.835792216855545
 30
0.0
 41
1.0
  0
ARC
  5
306
330
1F
100
AcDbEntity
  8
1
100
AcDbCircle
 10
-2.651197921414265
 20
-33.64033516720349
 30
0.0
 40
52.82118884677868
100
AcDbArc
 50
37.65565237789505
 51
46.91086059342596
  0
ARC
  5
307
330
1F
100
AcDbEntity
  8
1
100
AcDbCircle
 10
51.69385395526934
 20
8.051425642452635
 30
0.0
 40
15.67489166130721
100
AcDbArc
 50
216.9503501455722
 51
243.6811144928416
  0
ARC
  5
308
330
1F
100
AcDbEntity
  8
1
100
AcDbCircle
 10
5.242810674707939
 20
-33.65007547108354
 30
0.0
 40
52.82118884677868
100
AcDbArc
 50
37.65565237789505
 51
46.91086059342596
  0
ARC
  5
309
330
1F
100
AcDbEntity
  8
1
100
AcDbCircle
 10
62.95922523094732
 20
10.08796679703435
 30
0.0
 40
19.60311094171899
100
AcDbArc
 50
215.8065770638607
 51
234.4280134003069
  0
ARC
  5
30A
330
1F
100
AcDbEntity
  8
1
100
AcDbCircle
 10
13.15135479469178
 20
-33.64992541238338
 30
0.0
 40
52.82118884677868
100
AcDbArc
 50
39.74592238955178
 51
46.91086059342596
  0
MULTILEADER
  5
39D
330
1F
100
AcDbEntity
  8
2
 92
      660
310
94020000180000000C00000016000000000000C00C00000033000000000000000C00000013000000993A0000A00000000B000000018B5F0EAC2651402E7340833E3B37C0000000000000000000000000000000000000000000000000000000000000F03F000000000000F03F00000000000000000000000000000000523200
310
AB02000000010000000000000000000840000000000000F03F0000000000000000000000000000F03F000000000000000000000000000000000000000073696D706C65782E736878000000F03F0C00000033000000000000000C00000010000000050000000C00000016000000000000C00C00000012000000FF7F00000C00
310
000013000000010000000C000000140000000100000054000000070000000300000066EEA9CBBFE44B40AA4C065220C322C00000000000000000D09194440CC74A40B758DD77E24815C0000000000000000049AA570BD97D4C404BA9201E20E020C000000000000000000C00000013000000891300003C0000000600000002
310
00000058CC806B4C314C40FB7A1338A0D121C0000000000000000034BE9241DF095140C80CDA1CD8D437C000000000000000000C00000013000000112700003C000000060000000200000034BE9241DF095140C80CDA1CD8D437C000000000000000000B62037FE9205140C80CDA1CD8D437C000000000000000000C000000
310
16000000000000C00C00000012000000FF7F00000C00000017000000000000000C000000130000009A3A00003C00000006000000020000000B62037FE9205140C80CDA1CD8D437C00000000000000000018B5F0EAC665240C80CDA1CD8D437C000000000000000000C00000016000000000000C00C00000012000000FF7F00
310
000C00000017000000FFFFFFFF0C0000003300000000000000
100
AcDbMLeader
300
CONTEXT_DATA{
 40
1.0
 10
68.51425147371644
 20
-23.83142261813626
 30
0.0
 41
3.0
140
4.57
145
0.09
174
     6
175
     6
176
     0
177
     0
290
     1
304
R2
 11
0.0
 21
0.0
 31
1.0
340
23B
 12
68.60425147371644
 22
-20.23142261813626
 32
0.0
 13
1.0
 23
0.0
 33
0.0
 42
0.0
 43
0.0
 44
0.0
 45
1.0
170
     1
 90
-1073741824
171
     1
172
     5
 91
-1073741824
141
0.0
 92
        0
291
     0
292
     0
173
     0
293
     0
142
0.0
143
0.0
294
     0
295
     0
296
     0
110
53.55506188635229
120
-5.321176407704277
130
0.0
111
1.0
121
0.0
131
0.0
112
0.0
122
1.0
132
0.0
297
     0
302
LEADER{
290
     1
291
     1
 10
68.15425147371644
 20
-23.83142261813626
 30
0.0
 11
1.0
 21
0.0
 31
0.0
 90
        0
 40
0.36
304
LEADER_LINE{
 10
53.55506188635229
 20
-5.321176407704277
 30
0.0
 91
        0
305
}
303
}
301
}
340
17F
 90
   351744
170
     1
 91
-1056964608
341
14
171
    -2
290
     1
291
     1
 41
0.36
 42
4.57
172
     2
343
23B
173
     6
 95
        6
174
     1
175
     0
 92
-1056964608
292
     0
 93
-1056964608
 10
1.0
 20
1.0
 30
1.0
 43
0.0
176
     0
293
     0
294
     0
178
     0
179
     1
 45
1.0
1001
ACAD_MLEADERVER
1070
     2
  0
DIMENSION
  5
416
330
1F
100
AcDbEntity
  8
2
100
AcDbDimension
  2
*D13
 10
1.053564999999997
 20
-30.39534519295342
 30
0.0
 11
27.54389085937572
 21
-30.39534519295342
 31
0.0
 70
   160
 71
     5
 42
52.99999999999999
  3
SANDVIK_DIM
100
AcDbAlignedDimension
 13
54.05356499999999
 23
-10.2826671245539
 33
0.0
 14
1.053564999999998
 24
-5.700000000000169
 34
0.0
100
AcDbRotatedDimension
1001
ACAD
1000
DSTYLE
1002
{
1070
    40
1040
1.0
1070
   140
1040
3.0
1070
   279
1070
     0
1002
}
  0
ENDSEC
  0
SECTION
  2
OBJECTS
  0
DICTIONARY
  5
126
330
0
100
AcDbDictionary
281
     1
  3
ACAD_CIP_PREVIOUS_PRODUCT_INFO
350
18C
  3
ACAD_COLOR
350
169
  3
ACAD_DETAILVIEWSTYLE
350
183
  3
ACAD_GROUP
350
127
  3
ACAD_LAYOUT
350
185
  3
ACAD_MATERIAL
350
137
  3
ACAD_MLEADERSTYLE
350
17E
  3
ACAD_MLINESTYLE
350
128
  3
ACAD_PLOTSETTINGS
350
186
  3
ACAD_PLOTSTYLENAME
350
135
  3
ACAD_SCALELIST
350
16C
  3
ACAD_SECTIONVIEWSTYLE
350
180
  3
ACAD_TABLESTYLE
350
16A
  3
ACAD_VISUALSTYLE
350
150
  3
ACDB_RECOMPOSE_DATA
350
4AF
  3
AcDbVariableDictionary
350
1A7
  3
ASE_INDEX_DICTIONARY
350
1A4
  0
DICTIONARY
  5
23D
330
12B
100
AcDbDictionary
280
     1
281
     1
  3
ACAD_LAYERSTATES
360
23E
  0
DICTIONARY
  5
18F
330
10
100
AcDbDictionary
280
     1
281
     1
  3
ADSK_XREC_LAYER_RECONCILED
360
190
  0
DICTIONARY
  5
191
330
43
100
AcDbDictionary
280
     1
281
     1
  3
ADSK_XREC_LAYER_RECONCILED
360
192
  0
DICTIONARY
  5
193
330
45
100
AcDbDictionary
280
     1
281
     1
  3
ADSK_XREC_LAYER_RECONCILED
360
194
  0
DICTIONARY
  5
195
330
47
100
AcDbDictionary
280
     1
281
     1
  3
ADSK_XREC_LAYER_RECONCILED
360
196
  0
DICTIONARY
  5
197
330
49
100
AcDbDictionary
280
     1
281
     1
  3
ADSK_XREC_LAYER_RECONCILED
360
198
  0
DICTIONARY
  5
199
330
9D
100
AcDbDictionary
280
     1
281
     1
  3
ADSK_XREC_LAYER_RECONCILED
360
19A
  0
DICTIONARY
  5
19B
330
115
100
AcDbDictionary
280
     1
281
     1
  3
ADSK_XREC_LAYER_RECONCILED
360
19C
  0
DICTIONARY
  5
19D
330
116
100
AcDbDictionary
280
     1
281
     1
  3
ADSK_XREC_LAYER_RECONCILED
360
19E
  0
DICTIONARY
  5
19F
330
117
100
AcDbDictionary
280
     1
281
     1
  3
ADSK_XREC_LAYER_RECONCILED
360
1A0
  0
DICTIONARY
  5
1A1
330
118
100
AcDbDictionary
280
     1
281
     1
  3
ADSK_XREC_LAYER_RECONCILED
360
1A2
  0
XRECORD
  5
18C
102
{ACAD_REACTORS
330
126
102
}
330
126
100
AcDbXrecord
280
     1
300
AMECH_PP
300
2014
300
86132PDSS_2014_0F
  0
DICTIONARY
  5
169
102
{ACAD_REACTORS
330
126
102
}
330
126
100
AcDbDictionary
281
     1
  0
DICTIONARY
  5
183
102
{ACAD_REACTORS
330
126
102
}
330
126
100
AcDbDictionary
281
     1
  3
Imperial24
350
184
  0
DICTIONARY
  5
127
330
126
100
AcDbDictionary
281
     1
  0
DICTIONARY
  5
185
102
{ACAD_REACTORS
330
126
102
}
330
126
100
AcDbDictionary
281
     1
  3
Layout1
350
188
  3
Layout2
350
1F1
  3
Model
350
187
  0
DICTIONARY
  5
137
102
{ACAD_REACTORS
330
126
102
}
330
126
100
AcDbDictionary
281
     1
  3
ByBlock
350
140
  3
ByLayer
350
138
  3
Global
350
148
  0
DICTIONARY
  5
17E
102
{ACAD_REACTORS
330
126
102
}
330
126
100
AcDbDictionary
281
     1
  3
Standard
350
17F
  0
DICTIONARY
  5
128
330
126
100
AcDbDictionary
281
     1
  3
Standard
350
18
  0
DICTIONARY
  5
186
102
{ACAD_REACTORS
330
126
102
}
330
126
100
AcDbDictionary
281
     1
  0
ACDBDICTIONARYWDFLT
  5
135
102
{ACAD_REACTORS
330
126
102
}
330
126
100
AcDbDictionary
281
     1
  3
Normal
350
136
100
AcDbDictionaryWithDefault
340
136
  0
DICTIONARY
  5
16C
102
{ACAD_REACTORS
330
126
102
}
330
126
100
AcDbDictionary
281
     1
  3
A0
350
16D
  3
A1
350
16E
  3
A2
350
16F
  3
A3
350
170
  3
A4
350
171
  3
A5
350
172
  3
A6
350
173
  3
A7
350
174
  3
A8
350
175
  3
A9
350
176
  3
B0
350
177
  3
B1
350
178
  3
B2
350
179
  3
B3
350
17A
  3
B4
350
17B
  3
B5
350
17C
  3
B6
350
17D
  0
DICTIONARY
  5
180
102
{ACAD_REACTORS
330
126
102
}
330
126
100
AcDbDictionary
281
     1
  3
Imperial24
350
182
  0
DICTIONARY
  5
16A
102
{ACAD_REACTORS
330
126
102
}
330
126
100
AcDbDictionary
281
     1
  3
Standard
350
16B
  0
DICTIONARY
  5
150
102
{ACAD_REACTORS
330
126
102
}
330
126
100
AcDbDictionary
281
     1
  3
2dWireframe
350
156
  3
Basic
350
155
  3
Brighten
350
15C
  3
ColorChange
350
160
  3
Conceptual
350
159
  3
Dim
350
15B
  3
EdgeColorOff
350
168
  3
Facepattern
350
15F
  3
Flat
350
151
  3
FlatWithEdges
350
152
  3
Gouraud
350
153
  3
GouraudWithEdges
350
154
  3
Hidden
350
158
  3
JitterOff
350
166
  3
Linepattern
350
15E
  3
OverhangOff
350
167
  3
Realistic
350
15A
  3
Shaded
350
165
  3
Shaded with edges
350
164
  3
Shades of Gray
350
161
  3
Sketchy
350
162
  3
Thicken
350
15D
  3
Wireframe
350
157
  3
X-Ray
350
163
  0
XRECORD
  5
4AF
102
{ACAD_REACTORS
330
126
102
}
330
126
100
AcDbXrecord
280
     1
 90
        1
330
16B
  0
DICTIONARY
  5
1A7
102
{ACAD_REACTORS
330
126
102
}
330
126
100
AcDbDictionary
281
     1
  3
CANNOSCALE
350
1AC
  3
CMLEADERSTYLE
350
1A9
  3
CTABLESTYLE
350
1A8
  3
CVIEWDETAILSTYLE
350
1AA
  3
CVIEWSECTIONSTYLE
350
1AB
  3
DIMASSOC
350
1AF
  3
INDEXCTL
350
1AE
  3
SORTENTS
350
1AD
  3
XCLIPFRAME
350
1F5
  0
DICTIONARY
  5
1A4
102
{ACAD_REACTORS
330
126
102
}
330
126
100
AcDbDictionary
281
     1
  3
ASEBlockHierarchyIndexRecord
350
1A6
1001
DCO15
1040
1815723745.101
  0
DICTIONARY
  5
23E
102
{ACAD_REACTORS
330
23D
102
}
330
23D
100
AcDbDictionary
281
     1
  0
XRECORD
  5
190
102
{ACAD_REACTORS
330
18F
102
}
330
18F
100
AcDbXrecord
280
     1
290
     1
  0
XRECORD
  5
192
102
{ACAD_REACTORS
330
191
102
}
330
191
100
AcDbXrecord
280
     1
290
     1
  0
XRECORD
  5
194
102
{ACAD_REACTORS
330
193
102
}
330
193
100
AcDbXrecord
280
     1
290
     1
  0
XRECORD
  5
196
102
{ACAD_REACTORS
330
195
102
}
330
195
100
AcDbXrecord
280
     1
290
     1
  0
XRECORD
  5
198
102
{ACAD_REACTORS
330
197
102
}
330
197
100
AcDbXrecord
280
     1
290
     1
  0
XRECORD
  5
19A
102
{ACAD_REACTORS
330
199
102
}
330
199
100
AcDbXrecord
280
     1
290
     1
  0
XRECORD
  5
19C
102
{ACAD_REACTORS
330
19B
102
}
330
19B
100
AcDbXrecord
280
     1
290
     1
  0
XRECORD
  5
19E
102
{ACAD_REACTORS
330
19D
102
}
330
19D
100
AcDbXrecord
280
     1
290
     1
  0
XRECORD
  5
1A0
102
{ACAD_REACTORS
330
19F
102
}
330
19F
100
AcDbXrecord
280
     1
290
     1
  0
XRECORD
  5
1A2
102
{ACAD_REACTORS
330
1A1
102
}
330
1A1
100
AcDbXrecord
280
     1
290
     1
  0
ACDBDETAILVIEWSTYLE
  5
184
102
{ACAD_XDICTIONARY
360
4E3
102
}
102
{ACAD_REACTORS
330
183
102
}
330
183
100
AcDbModelDocViewStyle
 70
     0
  3
Imperial24
290
     0
100
AcDbDetailViewStyle
 70
     0
 71
     0
 90
        3
 71
     1
340
11
 62
   256
 40
0.24
340
0
 62
   256
 40
0.24
300

 40
0.36
280
     3
 71
     2
340
16
 90
       25
 62
   256
 71
     3
340
11
 62
   256
 40
0.24
 90
        1
 40
0.75
 90
        1
300
%<\AcVar ViewType \f "%tc1">% %<\AcVar ViewDetailId>%\PSCALE %<\AcVar ViewScale \f "%sn">%
 71
     4
340
16
 90
       25
 62
   256
340
16
 90
       25
 62
   256
280
     0
  0
LAYOUT
  5
188
102
{ACAD_REACTORS
330
185
102
}
330
185
100
AcDbPlotSettings
  1

  2
Brother DCP-9020CDW Printer
  4

  6

 40
0.0
 41
0.0
 42
0.0
 43
0.0
 44
0.0
 45
0.0
 46
0.0
 47
0.0
 48
0.0
 49
0.0
140
0.0
141
0.0
142
1.0
143
1.0
 70
   688
 72
     0
 73
     0
 74
     5
  7

 75
    16
147
1.0
 76
     0
 77
     2
 78
   300
148
0.0
149
0.0
100
AcDbLayout
  1
Layout1
 70
     1
 71
     1
 10
0.0
 20
0.0
 11
12.0
 21
9.0
 12
0.0
 22
0.0
 32
0.0
 14
1.000000000000000E+20
 24
1.000000000000000E+20
 34
1.000000000000000E+20
 15
-1.000000000000000E+20
 25
-1.000000000000000E+20
 35
-1.000000000000000E+20
146
0.0
 13
0.0
 23
0.0
 33
0.0
 16
1.0
 26
0.0
 36
0.0
 17
0.0
 27
1.0
 37
0.0
 76
     0
330
1B
  0
LAYOUT
  5
1F1
102
{ACAD_REACTORS
330
185
102
}
330
185
100
AcDbPlotSettings
  1

  2
\\itdnt33\ITTPR40
  4

  6

 40
0.0
 41
0.0
 42
0.0
 43
0.0
 44
0.0
 45
0.0
 46
0.0
 47
0.0
 48
0.0
 49
0.0
140
0.0
141
0.0
142
1.0
143
1.0
 70
   688
 72
     0
 73
     0
 74
     5
  7

 75
    16
147
1.0
 76
     0
 77
     2
 78
   300
148
0.0
149
0.0
100
AcDbLayout
  1
Layout2
 70
     1
 71
     2
 10
0.0
 20
0.0
 11
12.0
 21
9.0
 12
0.0
 22
0.0
 32
0.0
 14
0.0
 24
0.0
 34
0.0
 15
0.0
 25
0.0
 35
0.0
146
0.0
 13
0.0
 23
0.0
 33
0.0
 16
1.0
 26
0.0
 36
0.0
 17
0.0
 27
1.0
 37
0.0
 76
     0
330
23
  0
LAYOUT
  5
187
102
{ACAD_REACTORS
330
185
102
}
330
185
100
AcDbPlotSettings
  1

  2
Brother DCP-9020CDW Printer
  4

  6

 40
0.0
 41
0.0
 42
0.0
 43
0.0
 44
0.0
 45
0.0
 46
0.0
 47
0.0
 48
0.0
 49
0.0
140
0.0
141
0.0
142
1.0
143
1.0
 70
  1712
 72
     0
 73
     0
 74
     0
  7

 75
     0
147
1.0
 76
     0
 77
     2
 78
   300
148
0.0
149
0.0
100
AcDbLayout
  1
Model
 70
     1
 71
     0
 10
0.0
 20
0.0
 11
12.0
 21
9.0
 12
0.0
 22
0.0
 32
0.0
 14
0.0
 24
0.0
 34
0.0
 15
0.0
 25
0.0
 35
0.0
146
0.0
 13
0.0
 23
0.0
 33
0.0
 16
1.0
 26
0.0
 36
0.0
 17
0.0
 27
1.0
 37
0.0
 76
     0
330
1F
331
1
  0
MATERIAL
  5
140
102
{ACAD_XDICTIONARY
360
141
102
}
102
{ACAD_REACTORS
330
137
102
}
330
137
100
AcDbMaterial
  1
ByBlock
 72
     0
 43
0.0008202099737533
 43
0.0
 43
0.0
 43
0.0
 43
0.0
 43
0.0008202099737533
 43
0.0
 43
0.0
 43
0.0
 43
0.0
 43
1.0
 43
0.0
 43
0.0
 43
0.0
 43
0.0
 43
1.0
 77
     0
 47
0.0008202099737533
 47
0.0
 47
0.0
 47
0.0
 47
0.0
 47
0.0008202099737533
 47
0.0
 47
0.0
 47
0.0
 47
0.0
 47
1.0
 47
0.0
 47
0.0
 47
0.0
 47
0.0
 47
1.0
171
     0
 49
0.0008202099737533
 49
0.0
 49
0.0
 49
0.0
 49
0.0
 49
0.0008202099737533
 49
0.0
 49
0.0
 49
0.0
 49
0.0
 49
1.0
 49
0.0
 49
0.0
 49
0.0
 49
0.0
 49
1.0
175
     0
142
0.0008202099737533
142
0.0
142
0.0
142
0.0
142
0.0
142
0.0008202099737533
142
0.0
142
0.0
142
0.0
142
0.0
142
1.0
142
0.0
142
0.0
142
0.0
142
0.0
142
1.0
179
     0
144
0.0008202099737533
144
0.0
144
0.0
144
0.0
144
0.0
144
0.0008202099737533
144
0.0
144
0.0
144
0.0
144
0.0
144
1.0
144
0.0
144
0.0
144
0.0
144
0.0
144
1.0
147
0.0008202099737533
147
0.0
147
0.0
147
0.0
147
0.0
147
0.0008202099737533
147
0.0
147
0.0
147
0.0
147
0.0
147
1.0
147
0.0
147
0.0
147
0.0
147
0.0
147
1.0
  0
MATERIAL
  5
138
102
{ACAD_XDICTIONARY
360
139
102
}
102
{ACAD_REACTORS
330
137
102
}
330
137
100
AcDbMaterial
  1
ByLayer
 72
     0
 43
0.0008202099737533
 43
0.0
 43
0.0
 43
0.0
 43
0.0
 43
0.0008202099737533
 43
0.0
 43
0.0
 43
0.0
 43
0.0
 43
1.0
 43
0.0
 43
0.0
 43
0.0
 43
0.0
 43
1.0
 77
     0
 47
0.0008202099737533
 47
0.0
 47
0.0
 47
0.0
 47
0.0
 47
0.0008202099737533
 47
0.0
 47
0.0
 47
0.0
 47
0.0
 47
1.0
 47
0.0
 47
0.0
 47
0.0
 47
0.0
 47
1.0
171
     0
 49
0.0008202099737533
 49
0.0
 49
0.0
 49
0.0
 49
0.0
 49
0.0008202099737533
 49
0.0
 49
0.0
 49
0.0
 49
0.0
 49
1.0
 49
0.0
 49
0.0
 49
0.0
 49
0.0
 49
1.0
175
     0
142
0.0008202099737533
142
0.0
142
0.0
142
0.0
142
0.0
142
0.0008202099737533
142
0.0
142
0.0
142
0.0
142
0.0
142
1.0
142
0.0
142
0.0
142
0.0
142
0.0
142
1.0
179
     0
144
0.0008202099737533
144
0.0
144
0.0
144
0.0
144
0.0
144
0.0008202099737533
144
0.0
144
0.0
144
0.0
144
0.0
144
1.0
144
0.0
144
0.0
144
0.0
144
0.0
144
1.0
147
0.0008202099737533
147
0.0
147
0.0
147
0.0
147
0.0
147
0.0008202099737533
147
0.0
147
0.0
147
0.0
147
0.0
147
1.0
147
0.0
147
0.0
147
0.0
147
0.0
147
1.0
  0
MATERIAL
  5
148
102
{ACAD_XDICTIONARY
360
149
102
}
102
{ACAD_REACTORS
330
137
102
}
330
137
100
AcDbMaterial
  1
Global
 72
     0
 43
0.0008202099737533
 43
0.0
 43
0.0
 43
0.0
 43
0.0
 43
0.0008202099737533
 43
0.0
 43
0.0
 43
0.0
 43
0.0
 43
1.0
 43
0.0
 43
0.0
 43
0.0
 43
0.0
 43
1.0
 77
     0
 47
0.0008202099737533
 47
0.0
 47
0.0
 47
0.0
 47
0.0
 47
0.0008202099737533
 47
0.0
 47
0.0
 47
0.0
 47
0.0
 47
1.0
 47
0.0
 47
0.0
 47
0.0
 47
0.0
 47
1.0
171
     0
 49
0.0008202099737533
 49
0.0
 49
0.0
 49
0.0
 49
0.0
 49
0.0008202099737533
 49
0.0
 49
0.0
 49
0.0
 49
0.0
 49
1.0
 49
0.0
 49
0.0
 49
0.0
 49
0.0
 49
1.0
175
     0
142
0.0008202099737533
142
0.0
142
0.0
142
0.0
142
0.0
142
0.0008202099737533
142
0.0
142
0.0
142
0.0
142
0.0
142
1.0
142
0.0
142
0.0
142
0.0
142
0.0
142
1.0
179
     0
144
0.0008202099737533
144
0.0
144
0.0
144
0.0
144
0.0
144
0.0008202099737533
144
0.0
144
0.0
144
0.0
144
0.0
144
1.0
144
0.0
144
0.0
144
0.0
144
0.0
144
1.0
147
0.0008202099737533
147
0.0
147
0.0
147
0.0
147
0.0
147
0.0008202099737533
147
0.0
147
0.0
147
0.0
147
0.0
147
1.0
147
0.0
147
0.0
147
0.0
147
0.0
147
1.0
  0
MLEADERSTYLE
  5
17F
102
{ACAD_REACTORS
330
17E
330
39D
102
}
330
17E
100
AcDbMLeaderStyle
170
     2
171
     1
172
     0
 90
        2
 40
0.0
 41
0.0
173
     1
 91
-1056964608
340
14
 92
       -2
290
     1
 42
0.09
291
     1
 43
0.36
  3
Standard
 44
0.18
300

342
11
174
     1
178
     6
175
     1
176
     0
 93
-1056964608
 45
0.18
292
     0
297
     0
 46
0.18
 94
-1056964608
 47
1.0
 49
1.0
140
1.0
293
     1
141
0.0
294
     1
177
     0
142
1.0
295
     0
296
     0
143
0.125
1001
ACAD_MLEADERVER
1070
     2
  0
MLINESTYLE
  5
18
330
128
100
AcDbMlineStyle
  2
STANDARD
 70
     0
  3

 62
   256
 51
90.0
 52
90.0
 71
     2
 49
0.5
 62
   256
  6
BYLAYER
 49
-0.5
 62
   256
  6
BYLAYER
  0
ACDBPLACEHOLDER
  5
136
102
{ACAD_REACTORS
330
135
102
}
330
135
  0
SCALE
  5
16D
102
{ACAD_REACTORS
330
16C
102
}
330
16C
100
AcDbScale
 70
     0
300
1:1
140
1.0
141
1.0
290
     1
  0
SCALE
  5
16E
102
{ACAD_REACTORS
330
16C
102
}
330
16C
100
AcDbScale
 70
     0
300
1/128" = 1'-0"
140
0.0078125
141
12.0
290
     0
  0
SCALE
  5
16F
102
{ACAD_REACTORS
330
16C
102
}
330
16C
100
AcDbScale
 70
     0
300
1/64" = 1'-0"
140
0.015625
141
12.0
290
     0
  0
SCALE
  5
170
102
{ACAD_REACTORS
330
16C
102
}
330
16C
100
AcDbScale
 70
     0
300
1/32" = 1'-0"
140
0.03125
141
12.0
290
     0
  0
SCALE
  5
171
102
{ACAD_REACTORS
330
16C
102
}
330
16C
100
AcDbScale
 70
     0
300
1/16" = 1'-0"
140
0.0625
141
12.0
290
     0
  0
SCALE
  5
172
102
{ACAD_REACTORS
330
16C
102
}
330
16C
100
AcDbScale
 70
     0
300
3/32" = 1'-0"
140
0.09375
141
12.0
290
     0
  0
SCALE
  5
173
102
{ACAD_REACTORS
330
16C
102
}
330
16C
100
AcDbScale
 70
     0
300
1/8" = 1'-0"
140
0.125
141
12.0
290
     0
  0
SCALE
  5
174
102
{ACAD_REACTORS
330
16C
102
}
330
16C
100
AcDbScale
 70
     0
300
3/16" = 1'-0"
140
0.1875
141
12.0
290
     0
  0
SCALE
  5
175
102
{ACAD_REACTORS
330
16C
102
}
330
16C
100
AcDbScale
 70
     0
300
1/4" = 1'-0"
140
0.25
141
12.0
290
     0
  0
SCALE
  5
176
102
{ACAD_REACTORS
330
16C
102
}
330
16C
100
AcDbScale
 70
     0
300
3/8" = 1'-0"
140
0.375
141
12.0
290
     0
  0
SCALE
  5
177
102
{ACAD_REACTORS
330
16C
102
}
330
16C
100
AcDbScale
 70
     0
300
1/2" = 1'-0"
140
0.5
141
12.0
290
     0
  0
SCALE
  5
178
102
{ACAD_REACTORS
330
16C
102
}
330
16C
100
AcDbScale
 70
     0
300
3/4" = 1'-0"
140
0.75
141
12.0
290
     0
  0
SCALE
  5
179
102
{ACAD_REACTORS
330
16C
102
}
330
16C
100
AcDbScale
 70
     0
300
1" = 1'-0"
140
1.0
141
12.0
290
     0
  0
SCALE
  5
17A
102
{ACAD_REACTORS
330
16C
102
}
330
16C
100
AcDbScale
 70
     0
300
1-1/2" = 1'-0"
140
1.5
141
12.0
290
     0
  0
SCALE
  5
17B
102
{ACAD_REACTORS
330
16C
102
}
330
16C
100
AcDbScale
 70
     0
300
3" = 1'-0"
140
3.0
141
12.0
290
     0
  0
SCALE
  5
17C
102
{ACAD_REACTORS
330
16C
102
}
330
16C
100
AcDbScale
 70
     0
300
6" = 1'-0"
140
6.0
141
12.0
290
     0
  0
SCALE
  5
17D
102
{ACAD_REACTORS
330
16C
102
}
330
16C
100
AcDbScale
 70
     0
300
1'-0" = 1'-0"
140
12.0
141
12.0
290
     0
  0
ACDBSECTIONVIEWSTYLE
  5
182
102
{ACAD_XDICTIONARY
360
4E1
102
}
102
{ACAD_REACTORS
330
180
102
}
330
180
100
AcDbModelDocViewStyle
 70
     0
  3
Imperial24
290
     0
100
AcDbSectionViewStyle
 70
     0
 71
     0
 90
       78
 71
     1
340
11
 62
   256
 40
0.24
340
0
340
0
 62
   256
 40
0.24
300
I, O, Q, S, X, Z
 40
0.48
 90
        3
 40
0.18
 90
        1
 71
     2
340
181
 90
       25
 62
   256
340
16
 90
       50
 62
   256
 40
0.24
 40
0.0
 40
0.24
 71
     3
340
11
 62
   256
 40
0.24
 90
        1
 40
0.75
 90
        1
300
%<\AcVar ViewType \f "%tc1">% %<\AcVar ViewSectionStartId>%-%<\AcVar ViewSectionEndId>%\PSCALE %<\AcVar ViewScale \f "%sn">%
 71
     4
 62
   256
 62
   257
300
ANSI31
 40
1.0
 90
        0
290
     0
290
     0
 90
        6
 40
0.0
 40
1.570796326794896
 40
0.2617993877991494
 40
1.308996938995747
 40
-0.2617993877991494
 40
1.832595714594045
  0
TABLESTYLE
  5
16B
102
{ACAD_XDICTIONARY
360
1B2
102
}
102
{ACAD_REACTORS
330
16A
102
}
330
16A
100
AcDbTableStyle
  3
Standard
 70
     0
 71
     0
 40
0.06
 41
0.06
280
     0
281
     0
  7
Standard
140
0.18
170
     2
 62
     0
 63
     7
283
     0
274
    -2
284
     1
 64
     0
275
    -2
285
     1
 65
     0
276
    -2
286
     1
 66
     0
277
    -2
287
     1
 67
     0
278
    -2
288
     1
 68
     0
279
    -2
289
     1
 69
     0
  7
Standard
140
0.25
170
     5
 62
     0
 63
     7
283
     0
274
    -2
284
     1
 64
     0
275
    -2
285
     1
 65
     0
276
    -2
286
     1
 66
     0
277
    -2
287
     1
 67
     0
278
    -2
288
     1
 68
     0
279
    -2
289
     1
 69
     0
  7
Standard
140
0.18
170
     5
 62
     0
 63
     7
283
     0
274
    -2
284
     1
 64
     0
275
    -2
285
     1
 65
     0
276
    -2
286
     1
 66
     0
277
    -2
287
     1
 67
     0
278
    -2
288
     1
 68
     0
279
    -2
289
     1
 69
     0
  0
VISUALSTYLE
  5
156
102
{ACAD_XDICTIONARY
360
4BA
102
}
102
{ACAD_REACTORS
330
150
102
}
330
150
100
AcDbVisualStyle
  2

 70
     4
 71
     0
 72
     2
 73
     0
 90
        0
 40
-0.6
 41
-30.0
 62
     5
 63
     7
 74
     1
 91
        4
 64
     7
 65
   257
 75
     1
175
     1
 42
1.0
 92
        0
 66
   257
 43
1.0
 76
     1
 77
     6
 78
     2
 67
     7
 79
     5
170
     0
171
     0
290
     0
174
     0
 93
        1
 44
0.0
173
     0
291
     0
 45
0.0
1001
ACAD
1000
AcDbSavedByObjectVersion
1070
     0
  0
VISUALSTYLE
  5
155
102
{ACAD_XDICTIONARY
360
4B8
102
}
102
{ACAD_REACTORS
330
150
102
}
330
150
100
AcDbVisualStyle
  2

 70
     7
 71
     1
 72
     0
 73
     1
 90
        0
 40
-0.6
 41
-30.0
 62
     5
 63
     7
 74
     0
 91
        4
 64
     7
 65
   257
 75
     1
175
     1
 42
1.0
 92
        8
 66
     7
 43
1.0
 76
     1
 77
     6
 78
     2
 67
     7
 79
     5
170
     0
171
     0
290
     0
174
     0
 93
        1
 44
0.0
173
     0
291
     1
 45
0.0
1001
ACAD
1000
AcDbSavedByObjectVersion
1070
     0
  0
VISUALSTYLE
  5
15C
102
{ACAD_XDICTIONARY
360
4C6
102
}
102
{ACAD_REACTORS
330
150
102
}
330
150
100
AcDbVisualStyle
  2

 70
    12
 71
     2
 72
     2
 73
     0
 90
        0
 40
-0.6
 41
-30.0
 62
     5
 63
     7
 74
     1
 91
        4
 64
     7
 65
   257
 75
     1
175
     1
 42
1.0
 92
        8
 66
     7
 43
1.0
 76
     1
 77
     6
 78
     2
 67
     7
 79
     5
170
     0
171
     0
290
     0
174
     0
 93
        1
 44
50.0
173
     0
291
     1
 45
0.0
1001
ACAD
1000
AcDbSavedByObjectVersion
1070
     0
  0
VISUALSTYLE
  5
160
102
{ACAD_XDICTIONARY
360
4CE
102
}
102
{ACAD_REACTORS
330
150
102
}
330
150
100
AcDbVisualStyle
  2

 70
    16
 71
     2
 72
     2
 73
     3
 90
        0
 40
-0.6
 41
-30.0
 62
     5
 63
     8
 74
     1
 91
        4
 64
     7
 65
   257
 75
     1
175
     1
 42
1.0
 92
        8
 66
     8
 43
1.0
 76
     1
 77
     6
 78
     2
 67
     7
 79
     5
170
     0
171
     0
290
     0
174
     0
 93
        1
 44
0.0
173
     0
291
     1
 45
0.0
1001
ACAD
1000
AcDbSavedByObjectVersion
1070
     0
  0
VISUALSTYLE
  5
159
102
{ACAD_XDICTIONARY
360
4C0
102
}
102
{ACAD_REACTORS
330
150
102
}
330
150
100
AcDbVisualStyle
  2

 70
     9
 71
     3
 72
     2
 73
     0
 90
        0
 40
-0.6
 41
-30.0
 62
     5
 63
     7
 74
     2
 91
        2
 64
     7
 65
   257
 75
     1
175
     1
 42
179.0
 92
        8
 66
     7
 43
1.0
 76
     1
 77
     6
 78
     2
 67
     7
 79
     3
170
     0
171
     0
290
     0
174
     0
 93
        1
 44
0.0
173
     0
291
     0
 45
0.0
1001
ACAD
1000
AcDbSavedByObjectVersion
1070
     0
  0
VISUALSTYLE
  5
15B
102
{ACAD_XDICTIONARY
360
4C4
102
}
102
{ACAD_REACTORS
330
150
102
}
330
150
100
AcDbVisualStyle
  2

 70
    11
 71
     2
 72
     2
 73
     0
 90
        0
 40
-0.6
 41
-30.0
 62
     5
 63
     7
 74
     1
 91
        4
 64
     7
 65
   257
 75
     1
175
     1
 42
1.0
 92
        8
 66
     7
 43
1.0
 76
     1
 77
     6
 78
     2
 67
     7
 79
     5
170
     0
171
     0
290
     0
174
     0
 93
        1
 44
-50.0
173
     0
291
     1
 45
0.0
1001
ACAD
1000
AcDbSavedByObjectVersion
1070
     0
  0
VISUALSTYLE
  5
168
102
{ACAD_XDICTIONARY
360
4DE
102
}
102
{ACAD_REACTORS
330
150
102
}
330
150
100
AcDbVisualStyle
  2

 70
    22
 71
     2
 72
     2
 73
     0
 90
        0
 40
-0.6
 41
-30.0
 62
     5
 63
     7
 74
     1
 91
        4
 64
     7
 65
   257
 75
     1
175
     1
 42
1.0
 92
        8
 66
     7
 43
1.0
 76
     1
 77
     6
 78
     2
 67
     7
 79
     5
170
     0
171
     0
290
     0
174
     0
 93
        1
 44
0.0
173
     0
291
     1
 45
0.0
1001
ACAD
1000
AcDbSavedByObjectVersion
1070
     0
  0
VISUALSTYLE
  5
15F
102
{ACAD_XDICTIONARY
360
4CC
102
}
102
{ACAD_REACTORS
330
150
102
}
330
150
100
AcDbVisualStyle
  2

 70
    15
 71
     2
 72
     2
 73
     0
 90
        0
 40
-0.6
 41
-30.0
 62
     5
 63
     7
 74
     1
 91
        4
 64
     7
 65
   257
 75
     1
175
     1
 42
1.0
 92
        8
 66
     7
 43
1.0
 76
     1
 77
     6
 78
     2
 67
     7
 79
     5
170
     0
171
     0
290
     0
174
     0
 93
        1
 44
0.0
173
     0
291
     1
 45
0.0
1001
ACAD
1000
AcDbSavedByObjectVersion
1070
     0
  0
VISUALSTYLE
  5
151
102
{ACAD_XDICTIONARY
360
4B0
102
}
102
{ACAD_REACTORS
330
150
102
}
330
150
100
AcDbVisualStyle
  2

 70
     0
 71
     2
 72
     1
 73
     1
 90
        2
 40
-0.6
 41
30.0
 62
     5
 63
     7
 74
     0
 91
        0
 64
     7
 65
   257
 75
     1
175
     1
 42
1.0
 92
        8
 66
     7
 43
1.0
 76
     1
 77
     6
 78
     2
 67
     7
 79
     5
170
     0
171
     0
290
     0
174
     0
 93
       13
 44
0.0
173
     0
291
     1
 45
0.0
1001
ACAD
1000
AcDbSavedByObjectVersion
1070
     0
  0
VISUALSTYLE
  5
152
102
{ACAD_XDICTIONARY
360
4B2
102
}
102
{ACAD_REACTORS
330
150
102
}
330
150
100
AcDbVisualStyle
  2

 70
     1
 71
     2
 72
     1
 73
     1
 90
        2
 40
-0.6
 41
30.0
 62
     5
 63
     7
 74
     1
 91
        0
 64
     7
 65
   257
 75
     1
175
     1
 42
1.0
 92
        0
 66
   257
 43
1.0
 76
     1
 77
     6
 78
     2
 67
     7
 79
     5
170
     0
171
     0
290
     0
174
     0
 93
       13
 44
0.0
173
     0
291
     1
 45
0.0
1001
ACAD
1000
AcDbSavedByObjectVersion
1070
     0
  0
VISUALSTYLE
  5
153
102
{ACAD_XDICTIONARY
360
4B4
102
}
102
{ACAD_REACTORS
330
150
102
}
330
150
100
AcDbVisualStyle
  2

 70
     2
 71
     2
 72
     2
 73
     1
 90
        2
 40
-0.6
 41
30.0
 62
     5
 63
     7
 74
     0
 91
        0
 64
     7
 65
   257
 75
     1
175
     1
 42
1.0
 92
        0
 66
     7
 43
1.0
 76
     1
 77
     6
 78
     2
 67
     7
 79
     5
170
     0
171
     0
290
     0
174
     0
 93
       13
 44
0.0
173
     0
291
     1
 45
0.0
1001
ACAD
1000
AcDbSavedByObjectVersion
1070
     0
  0
VISUALSTYLE
  5
154
102
{ACAD_XDICTIONARY
360
4B6
102
}
102
{ACAD_REACTORS
330
150
102
}
330
150
100
AcDbVisualStyle
  2

 70
     3
 71
     2
 72
     2
 73
     1
 90
        2
 40
-0.6
 41
30.0
 62
     5
 63
     7
 74
     1
 91
        0
 64
     7
 65
   257
 75
     1
175
     1
 42
1.0
 92
        0
 66
   257
 43
1.0
 76
     1
 77
     6
 78
     2
 67
     7
 79
     5
170
     0
171
     0
290
     0
174
     0
 93
       13
 44
0.0
173
     0
291
     1
 45
0.0
1001
ACAD
1000
AcDbSavedByObjectVersion
1070
     0
  0
VISUALSTYLE
  5
158
102
{ACAD_XDICTIONARY
360
4BE
102
}
102
{ACAD_REACTORS
330
150
102
}
330
150
100
AcDbVisualStyle
  2

 70
     6
 71
     1
 72
     2
 73
     2
 90
        0
 40
-0.6
 41
-30.0
 62
     5
 63
     7
 74
     2
 91
        2
 64
     7
 65
   257
 75
     2
175
     1
 42
40.0
 92
        0
 66
   257
 43
1.0
 76
     1
 77
     6
 78
     2
 67
     7
 79
     3
170
     0
171
     0
290
     0
174
     0
 93
        1
 44
0.0
173
     0
291
     0
 45
0.0
1001
ACAD
1000
AcDbSavedByObjectVersion
1070
     0
  0
VISUALSTYLE
  5
166
102
{ACAD_XDICTIONARY
360
4DA
102
}
102
{ACAD_REACTORS
330
150
102
}
330
150
100
AcDbVisualStyle
  2

 70
    20
 71
     2
 72
     2
 73
     0
 90
        0
 40
-0.6
 41
-30.0
 62
     5
 63
     7
 74
     1
 91
        4
 64
     7
 65
   257
 75
     1
175
     1
 42
1.0
 92
       10
 66
     7
 43
1.0
 76
     1
 77
     6
 78
     2
 67
     7
 79
     5
170
     0
171
     0
290
     0
174
     0
 93
        1
 44
0.0
173
     0
291
     1
 45
0.0
1001
ACAD
1000
AcDbSavedByObjectVersion
1070
     0
  0
VISUALSTYLE
  5
15E
102
{ACAD_XDICTIONARY
360
4CA
102
}
102
{ACAD_REACTORS
330
150
102
}
330
150
100
AcDbVisualStyle
  2

 70
    14
 71
     2
 72
     2
 73
     0
 90
        0
 40
-0.6
 41
-30.0
 62
     5
 63
     7
 74
     1
 91
        4
 64
     7
 65
   257
 75
     7
175
     7
 42
1.0
 92
        8
 66
     7
 43
1.0
 76
     1
 77
     6
 78
     2
 67
     7
 79
     5
170
     0
171
     0
290
     0
174
     0
 93
        1
 44
0.0
173
     0
291
     1
 45
0.0
1001
ACAD
1000
AcDbSavedByObjectVersion
1070
     0
  0
VISUALSTYLE
  5
167
102
{ACAD_XDICTIONARY
360
4DC
102
}
102
{ACAD_REACTORS
330
150
102
}
330
150
100
AcDbVisualStyle
  2

 70
    21
 71
     2
 72
     2
 73
     0
 90
        0
 40
-0.6
 41
-30.0
 62
     5
 63
     7
 74
     1
 91
        4
 64
     7
 65
   257
 75
     1
175
     1
 42
1.0
 92
        9
 66
     7
 43
1.0
 76
     1
 77
     6
 78
     2
 67
     7
 79
     5
170
     0
171
     0
290
     0
174
     0
 93
        1
 44
0.0
173
     0
291
     1
 45
0.0
1001
ACAD
1000
AcDbSavedByObjectVersion
1070
     0
  0
VISUALSTYLE
  5
15A
102
{ACAD_XDICTIONARY
360
4C2
102
}
102
{ACAD_REACTORS
330
150
102
}
330
150
100
AcDbVisualStyle
  2

 70
     8
 71
     2
 72
     3
 73
     0
 90
        2
 40
-0.6
 41
30.0
 62
     5
 63
     7
 74
     0
 91
        0
 64
     7
 65
   257
 75
     1
175
     1
 42
1.0
 92
        8
 66
   257
 43
1.0
 76
     1
 77
     6
 78
     2
 67
     7
 79
     3
170
     0
171
     0
290
     0
174
     0
 93
       13
 44
0.0
173
     0
291
     0
 45
0.0
1001
ACAD
1000
AcDbSavedByObjectVersion
1070
     0
  0
VISUALSTYLE
  5
165
102
{ACAD_XDICTIONARY
360
4D8
102
}
102
{ACAD_REACTORS
330
150
102
}
330
150
100
AcDbVisualStyle
  2

 70
    27
 71
     2
 72
     2
 73
     1
 90
        2
 40
-0.6
 41
30.0
 62
     5
 63
     7
 74
     0
 91
        4
 64
     7
 65
   257
 75
     1
175
     1
 42
1.0
 92
        8
 66
   257
 43
1.0
 76
     1
 77
     6
 78
     2
 67
     8
 79
     3
170
     0
171
     0
290
     0
174
     0
 93
        5
 44
0.0
173
     0
291
     0
 45
0.0
1001
ACAD
1000
AcDbSavedByObjectVersion
1070
     0
  0
VISUALSTYLE
  5
164
102
{ACAD_XDICTIONARY
360
4D6
102
}
102
{ACAD_REACTORS
330
150
102
}
330
150
100
AcDbVisualStyle
  2

 70
    26
 71
     2
 72
     2
 73
     1
 90
        2
 40
-0.6
 41
30.0
 62
     5
 63
     7
 74
     1
 91
       10
 64
     7
 65
   257
 75
     2
175
     1
 42
1.0
 92
        8
 66
   257
 43
1.0
 76
     1
 77
     6
 78
     2
 67
     7
 79
     3
170
     0
171
     0
290
     0
174
     0
 93
        5
 44
0.0
173
     0
291
     0
 45
0.0
1001
ACAD
1000
AcDbSavedByObjectVersion
1070
     0
  0
VISUALSTYLE
  5
161
102
{ACAD_XDICTIONARY
360
4D0
102
}
102
{ACAD_REACTORS
330
150
102
}
330
150
100
AcDbVisualStyle
  2

 70
    23
 71
     2
 72
     2
 73
     3
 90
        0
 40
-0.6
 41
-30.0
 62
     5
 63
     7
 74
     2
 91
        2
 64
     7
 65
     7
 75
     1
175
     1
 42
40.0
 92
        8
 66
     7
 43
1.0
 76
     1
 77
     6
 78
     2
 67
     7
 79
     3
170
     0
171
     0
290
     0
174
     0
 93
        1
 44
0.0
173
     0
291
     0
 45
0.0
1001
ACAD
1000
AcDbSavedByObjectVersion
1070
     0
  0
VISUALSTYLE
  5
162
102
{ACAD_XDICTIONARY
360
4D2
102
}
102
{ACAD_REACTORS
330
150
102
}
330
150
100
AcDbVisualStyle
  2

 70
    24
 71
     1
 72
     2
 73
     2
 90
        0
 40
-0.6
 41
-30.0
 62
     5
 63
     7
 74
     2
 91
        2
 64
     7
 65
     7
 75
     1
175
     1
 42
40.0
 92
       11
 66
     7
 43
1.0
 76
     1
 77
     6
 78
     2
 67
     7
 79
     6
170
     0
171
     0
290
     0
174
     0
 93
        1
 44
0.0
173
     0
291
     0
 45
0.0
1001
ACAD
1000
AcDbSavedByObjectVersion
1070
     0
  0
VISUALSTYLE
  5
15D
102
{ACAD_XDICTIONARY
360
4C8
102
}
102
{ACAD_REACTORS
330
150
102
}
330
150
100
AcDbVisualStyle
  2

 70
    13
 71
     2
 72
     2
 73
     0
 90
        0
 40
-0.6
 41
-30.0
 62
     5
 63
     7
 74
     1
 91
        4
 64
     7
 65
   257
 75
     1
175
     1
 42
1.0
 92
       12
 66
     7
 43
1.0
 76
     1
 77
     6
 78
     2
 67
     7
 79
     5
170
     0
171
     0
290
     0
174
     0
 93
        1
 44
0.0
173
     0
291
     1
 45
0.0
1001
ACAD
1000
AcDbSavedByObjectVersion
1070
     0
  0
VISUALSTYLE
  5
157
102
{ACAD_XDICTIONARY
360
4BC
102
}
102
{ACAD_REACTORS
330
150
102
}
330
150
100
AcDbVisualStyle
  2

 70
     5
 71
     0
 72
     2
 73
     0
 90
        0
 40
-0.6
 41
-30.0
 62
     5
 63
     7
 74
     1
 91
        4
 64
     7
 65
   257
 75
     1
175
     1
 42
1.0
 92
        0
 66
   257
 43
1.0
 76
     1
 77
     6
 78
     2
 67
     7
 79
     3
170
     0
171
     0
290
     0
174
     0
 93
        1
 44
0.0
173
     0
291
     0
 45
0.0
1001
ACAD
1000
AcDbSavedByObjectVersion
1070
     0
  0
VISUALSTYLE
  5
163
102
{ACAD_XDICTIONARY
360
4D4
102
}
102
{ACAD_REACTORS
330
150
102
}
330
150
100
AcDbVisualStyle
  2

 70
    25
 71
     2
 72
     2
 73
     1
 90
        1
 40
0.5
 41
-30.0
 62
     5
 63
     7
 74
     1
 91
        0
 64
     7
 65
   257
 75
     1
175
     1
 42
1.0
 92
        8
 66
     7
 43
1.0
 76
     1
 77
     6
 78
     2
 67
     7
 79
     3
170
     0
171
     0
290
     0
174
     0
 93
       13
 44
0.0
173
     0
291
     0
 45
0.0
1001
ACAD
1000
AcDbSavedByObjectVersion
1070
     0
  0
DICTIONARYVAR
  5
1AC
102
{ACAD_REACTORS
330
1A7
102
}
330
1A7
100
DictionaryVariables
280
     0
  1
1:1
  0
DICTIONARYVAR
  5
1A9
102
{ACAD_REACTORS
330
1A7
102
}
330
1A7
100
DictionaryVariables
280
     0
  1
STANDARD
  0
DICTIONARYVAR
  5
1A8
102
{ACAD_REACTORS
330
1A7
102
}
330
1A7
100
DictionaryVariables
280
     0
  1
STANDARD
  0
DICTIONARYVAR
  5
1AA
102
{ACAD_REACTORS
330
1A7
102
}
330
1A7
100
DictionaryVariables
280
     0
  1
Imperial24
  0
DICTIONARYVAR
  5
1AB
102
{ACAD_REACTORS
330
1A7
102
}
330
1A7
100
DictionaryVariables
280
     0
  1
Imperial24
  0
DICTIONARYVAR
  5
1AF
102
{ACAD_REACTORS
330
1A7
102
}
330
1A7
100
DictionaryVariables
280
     0
  1
1
  0
DICTIONARYVAR
  5
1AE
102
{ACAD_REACTORS
330
1A7
102
}
330
1A7
100
DictionaryVariables
280
     0
  1
0
  0
DICTIONARYVAR
  5
1AD
102
{ACAD_REACTORS
330
1A7
102
}
330
1A7
100
DictionaryVariables
280
     0
  1
127
  0
DICTIONARYVAR
  5
1F5
102
{ACAD_REACTORS
330
1A7
102
}
330
1A7
100
DictionaryVariables
280
     0
  1
2
  0
XRECORD
  5
1A6
102
{ACAD_REACTORS
330
1A4
102
}
330
1A4
100
AcDbXrecord
280
     1
330
98
330
B9
  0
DICTIONARY
  5
4E3
330
184
100
AcDbDictionary
280
     1
281
     1
  3
ACAD_XREC_ROUNDTRIP
360
4E4
  0
DICTIONARY
  5
141
330
140
100
AcDbDictionary
280
     1
281
     1
  3
ACAD_XREC_ROUNDTRIP
360
1B7
  3
BUMPTILE
360
143
  3
DIFFUSETILE
360
142
  3
OPACITYTILE
360
146
  3
REFLECTIONTILE
360
145
  3
REFRACTIONTILE
360
147
  3
SPECULARTILE
360
144
  0
DICTIONARY
  5
139
330
138
100
AcDbDictionary
280
     1
281
     1
  3
ACAD_XREC_ROUNDTRIP
360
1B6
  3
BUMPTILE
360
13B
  3
DIFFUSETILE
360
13A
  3
OPACITYTILE
360
13E
  3
REFLECTIONTILE
360
13D
  3
REFRACTIONTILE
360
13F
  3
SPECULARTILE
360
13C
  0
DICTIONARY
  5
149
330
148
100
AcDbDictionary
280
     1
281
     1
  3
ACAD_XREC_ROUNDTRIP
360
1B8
  3
BUMPTILE
360
14B
  3
DIFFUSETILE
360
14A
  3
OPACITYTILE
360
14E
  3
REFLECTIONTILE
360
14D
  3
REFRACTIONTILE
360
14F
  3
SPECULARTILE
360
14C
  0
DICTIONARY
  5
4E1
330
182
100
AcDbDictionary
280
     1
281
     1
  3
ACAD_XREC_ROUNDTRIP
360
4E2
  0
DICTIONARY
  5
1B2
330
16B
100
AcDbDictionary
280
     1
281
     1
  3
ACAD_ROUNDTRIP_2008_TABLESTYLE_CELLSTYLEMAP
360
4AE
  3
ACAD_XREC_ROUNDTRIP
360
4E0
  0
DICTIONARY
  5
4BA
330
156
100
AcDbDictionary
280
     1
281
     1
  3
ACAD_XREC_ROUNDTRIP
360
4BB
  0
DICTIONARY
  5
4B8
330
155
100
AcDbDictionary
280
     1
281
     1
  3
ACAD_XREC_ROUNDTRIP
360
4B9
  0
DICTIONARY
  5
4C6
330
15C
100
AcDbDictionary
280
     1
281
     1
  3
ACAD_XREC_ROUNDTRIP
360
4C7
  0
DICTIONARY
  5
4CE
330
160
100
AcDbDictionary
280
     1
281
     1
  3
ACAD_XREC_ROUNDTRIP
360
4CF
  0
DICTIONARY
  5
4C0
330
159
100
AcDbDictionary
280
     1
281
     1
  3
ACAD_XREC_ROUNDTRIP
360
4C1
  0
DICTIONARY
  5
4C4
330
15B
100
AcDbDictionary
280
     1
281
     1
  3
ACAD_XREC_ROUNDTRIP
360
4C5
  0
DICTIONARY
  5
4DE
330
168
100
AcDbDictionary
280
     1
281
     1
  3
ACAD_XREC_ROUNDTRIP
360
4DF
  0
DICTIONARY
  5
4CC
330
15F
100
AcDbDictionary
280
     1
281
     1
  3
ACAD_XREC_ROUNDTRIP
360
4CD
  0
DICTIONARY
  5
4B0
330
151
100
AcDbDictionary
280
     1
281
     1
  3
ACAD_XREC_ROUNDTRIP
360
4B1
  0
DICTIONARY
  5
4B2
330
152
100
AcDbDictionary
280
     1
281
     1
  3
ACAD_XREC_ROUNDTRIP
360
4B3
  0
DICTIONARY
  5
4B4
330
153
100
AcDbDictionary
280
     1
281
     1
  3
ACAD_XREC_ROUNDTRIP
360
4B5
  0
DICTIONARY
  5
4B6
330
154
100
AcDbDictionary
280
     1
281
     1
  3
ACAD_XREC_ROUNDTRIP
360
4B7
  0
DICTIONARY
  5
4BE
330
158
100
AcDbDictionary
280
     1
281
     1
  3
ACAD_XREC_ROUNDTRIP
360
4BF
  0
DICTIONARY
  5
4DA
330
166
100
AcDbDictionary
280
     1
281
     1
  3
ACAD_XREC_ROUNDTRIP
360
4DB
  0
DICTIONARY
  5
4CA
330
15E
100
AcDbDictionary
280
     1
281
     1
  3
ACAD_XREC_ROUNDTRIP
360
4CB
  0
DICTIONARY
  5
4DC
330
167
100
AcDbDictionary
280
     1
281
     1
  3
ACAD_XREC_ROUNDTRIP
360
4DD
  0
DICTIONARY
  5
4C2
330
15A
100
AcDbDictionary
280
     1
281
     1
  3
ACAD_XREC_ROUNDTRIP
360
4C3
  0
DICTIONARY
  5
4D8
330
165
100
AcDbDictionary
280
     1
281
     1
  3
ACAD_XREC_ROUNDTRIP
360
4D9
  0
DICTIONARY
  5
4D6
330
164
100
AcDbDictionary
280
     1
281
     1
  3
ACAD_XREC_ROUNDTRIP
360
4D7
  0
DICTIONARY
  5
4D0
330
161
100
AcDbDictionary
280
     1
281
     1
  3
ACAD_XREC_ROUNDTRIP
360
4D1
  0
DICTIONARY
  5
4D2
330
162
100
AcDbDictionary
280
     1
281
     1
  3
ACAD_XREC_ROUNDTRIP
360
4D3
  0
DICTIONARY
  5
4C8
330
15D
100
AcDbDictionary
280
     1
281
     1
  3
ACAD_XREC_ROUNDTRIP
360
4C9
  0
DICTIONARY
  5
4BC
330
157
100
AcDbDictionary
280
     1
281
     1
  3
ACAD_XREC_ROUNDTRIP
360
4BD
  0
DICTIONARY
  5
4D4
330
163
100
AcDbDictionary
280
     1
281
     1
  3
ACAD_XREC_ROUNDTRIP
360
4D5
  0
XRECORD
  5
4E4
102
{ACAD_REACTORS
330
4E3
102
}
330
4E3
100
AcDbXrecord
280
     1
102
DISPLAYNAME
  1
Imperial24
102
FLAGS
 90
        0
  0
XRECORD
  5
1B7
102
{ACAD_REACTORS
330
141
102
}
330
141
100
AcDbXrecord
280
     1
102
MATERIAL
148
0.0
149
0.0
149
0.0
 93
        0
 94
      127
282
     0
 72
     0
 77
     0
171
     0
175
     0
179
     0
273
     0
  0
XRECORD
  5
143
102
{ACAD_REACTORS
330
141
102
}
330
141
100
AcDbXrecord
280
     1
270
     1
271
     1
  0
XRECORD
  5
142
102
{ACAD_REACTORS
330
141
102
}
330
141
100
AcDbXrecord
280
     1
270
     1
271
     1
  0
XRECORD
  5
146
102
{ACAD_REACTORS
330
141
102
}
330
141
100
AcDbXrecord
280
     1
270
     1
271
     1
  0
XRECORD
  5
145
102
{ACAD_REACTORS
330
141
102
}
330
141
100
AcDbXrecord
280
     1
270
     1
271
     1
  0
XRECORD
  5
147
102
{ACAD_REACTORS
330
141
102
}
330
141
100
AcDbXrecord
280
     1
270
     1
271
     1
  0
XRECORD
  5
144
102
{ACAD_REACTORS
330
141
102
}
330
141
100
AcDbXrecord
280
     1
270
     1
271
     1
  0
XRECORD
  5
1B6
102
{ACAD_REACTORS
330
139
102
}
330
139
100
AcDbXrecord
280
     1
102
MATERIAL
148
0.0
149
0.0
149
0.0
 93
        0
 94
      127
282
     0
 72
     0
 77
     0
171
     0
175
     0
179
     0
273
     0
  0
XRECORD
  5
13B
102
{ACAD_REACTORS
330
139
102
}
330
139
100
AcDbXrecord
280
     1
270
     1
271
     1
  0
XRECORD
  5
13A
102
{ACAD_REACTORS
330
139
102
}
330
139
100
AcDbXrecord
280
     1
270
     1
271
     1
  0
XRECORD
  5
13E
102
{ACAD_REACTORS
330
139
102
}
330
139
100
AcDbXrecord
280
     1
270
     1
271
     1
  0
XRECORD
  5
13D
102
{ACAD_REACTORS
330
139
102
}
330
139
100
AcDbXrecord
280
     1
270
     1
271
     1
  0
XRECORD
  5
13F
102
{ACAD_REACTORS
330
139
102
}
330
139
100
AcDbXrecord
280
     1
270
     1
271
     1
  0
XRECORD
  5
13C
102
{ACAD_REACTORS
330
139
102
}
330
139
100
AcDbXrecord
280
     1
270
     1
271
     1
  0
XRECORD
  5
1B8
102
{ACAD_REACTORS
330
149
102
}
330
149
100
AcDbXrecord
280
     1
102
MATERIAL
148
0.0
149
0.0
149
0.0
 93
        0
 94
      127
282
     0
 72
     0
 77
     0
171
     0
175
     0
179
     0
273
     0
  0
XRECORD
  5
14B
102
{ACAD_REACTORS
330
149
102
}
330
149
100
AcDbXrecord
280
     1
270
     1
271
     1
  0
XRECORD
  5
14A
102
{ACAD_REACTORS
330
149
102
}
330
149
100
AcDbXrecord
280
     1
270
     1
271
     1
  0
XRECORD
  5
14E
102
{ACAD_REACTORS
330
149
102
}
330
149
100
AcDbXrecord
280
     1
270
     1
271
     1
  0
XRECORD
  5
14D
102
{ACAD_REACTORS
330
149
102
}
330
149
100
AcDbXrecord
280
     1
270
     1
271
     1
  0
XRECORD
  5
14F
102
{ACAD_REACTORS
330
149
102
}
330
149
100
AcDbXrecord
280
     1
270
     1
271
     1
  0
XRECORD
  5
14C
102
{ACAD_REACTORS
330
149
102
}
330
149
100
AcDbXrecord
280
     1
270
     1
271
     1
  0
XRECORD
  5
4E2
102
{ACAD_REACTORS
330
4E1
102
}
330
4E1
100
AcDbXrecord
280
     1
102
DISPLAYNAME
  1
Imperial24
102
FLAGS
 90
        0
  0
CELLSTYLEMAP
  5
4AE
102
{ACAD_REACTORS
330
1B2
102
}
330
1B2
100
AcDbCellStyleMap
 90
        3
300
CELLSTYLE
  1
TABLEFORMAT_BEGIN
 90
        5
170
     1
 91
        0
 92
    32768
 62
   257
 93
        1
300
CONTENTFORMAT
  1
CONTENTFORMAT_BEGIN
 90
        0
 91
        0
 92
      512
 93
        0
300

 40
0.0
140
1.0
 94
        5
 62
     0
340
11
144
0.25
309
CONTENTFORMAT_END
171
     1
301
MARGIN
  1
CELLMARGIN_BEGIN
 40
0.06
 40
0.06
 40
0.06
 40
0.06
 40
0.18
 40
0.18
309
CELLMARGIN_END
 94
        6
 95
        1
302
GRIDFORMAT
  1
GRIDFORMAT_BEGIN
 90
        0
 91
        1
 62
     0
 92
       -2
340
0
 93
        0
 40
0.045
309
GRIDFORMAT_END
 95
        2
302
GRIDFORMAT
  1
GRIDFORMAT_BEGIN
 90
        0
 91
        1
 62
     0
 92
       -2
340
0
 93
        0
 40
0.045
309
GRIDFORMAT_END
 95
        4
302
GRIDFORMAT
  1
GRIDFORMAT_BEGIN
 90
        0
 91
        1
 62
     0
 92
       -2
340
0
 93
        0
 40
0.045
309
GRIDFORMAT_END
 95
        8
302
GRIDFORMAT
  1
GRIDFORMAT_BEGIN
 90
        0
 91
        1
 62
     0
 92
       -2
340
0
 93
        0
 40
0.045
309
GRIDFORMAT_END
 95
       16
302
GRIDFORMAT
  1
GRIDFORMAT_BEGIN
 90
        0
 91
        1
 62
     0
 92
       -2
340
0
 93
        0
 40
0.045
309
GRIDFORMAT_END
 95
       32
302
GRIDFORMAT
  1
GRIDFORMAT_BEGIN
 90
        0
 91
        1
 62
     0
 92
       -2
340
0
 93
        0
 40
0.045
309
GRIDFORMAT_END
309
TABLEFORMAT_END
  1
CELLSTYLE_BEGIN
 90
        1
 91
        1
300
_TITLE
309
CELLSTYLE_END
300
CELLSTYLE
  1
TABLEFORMAT_BEGIN
 90
        5
170
     1
 91
        0
 92
        0
 62
   257
 93
        1
300
CONTENTFORMAT
  1
CONTENTFORMAT_BEGIN
 90
        0
 91
        0
 92
      512
 93
        0
300

 40
0.0
140
1.0
 94
        5
 62
     0
340
11
144
0.18
309
CONTENTFORMAT_END
171
     1
301
MARGIN
  1
CELLMARGIN_BEGIN
 40
0.06
 40
0.06
 40
0.06
 40
0.06
 40
0.18
 40
0.18
309
CELLMARGIN_END
 94
        6
 95
        1
302
GRIDFORMAT
  1
GRIDFORMAT_BEGIN
 90
        0
 91
        1
 62
     0
 92
       -2
340
0
 93
        0
 40
0.045
309
GRIDFORMAT_END
 95
        2
302
GRIDFORMAT
  1
GRIDFORMAT_BEGIN
 90
        0
 91
        1
 62
     0
 92
       -2
340
0
 93
        0
 40
0.045
309
GRIDFORMAT_END
 95
        4
302
GRIDFORMAT
  1
GRIDFORMAT_BEGIN
 90
        0
 91
        1
 62
     0
 92
       -2
340
0
 93
        0
 40
0.045
309
GRIDFORMAT_END
 95
        8
302
GRIDFORMAT
  1
GRIDFORMAT_BEGIN
 90
        0
 91
        1
 62
     0
 92
       -2
340
0
 93
        0
 40
0.045
309
GRIDFORMAT_END
 95
       16
302
GRIDFORMAT
  1
GRIDFORMAT_BEGIN
 90
        0
 91
        1
 62
     0
 92
       -2
340
0
 93
        0
 40
0.045
309
GRIDFORMAT_END
 95
       32
302
GRIDFORMAT
  1
GRIDFORMAT_BEGIN
 90
        0
 91
        1
 62
     0
 92
       -2
340
0
 93
        0
 40
0.045
309
GRIDFORMAT_END
309
TABLEFORMAT_END
  1
CELLSTYLE_BEGIN
 90
        2
 91
        1
300
_HEADER
309
CELLSTYLE_END
300
CELLSTYLE
  1
TABLEFORMAT_BEGIN
 90
        5
170
     1
 91
        0
 92
        0
 62
   257
 93
        1
300
CONTENTFORMAT
  1
CONTENTFORMAT_BEGIN
 90
        0
 91
        0
 92
      512
 93
        0
300

 40
0.0
140
1.0
 94
        2
 62
     0
340
11
144
0.18
309
CONTENTFORMAT_END
171
     1
301
MARGIN
  1
CELLMARGIN_BEGIN
 40
0.06
 40
0.06
 40
0.06
 40
0.06
 40
0.18
 40
0.18
309
CELLMARGIN_END
 94
        6
 95
        1
302
GRIDFORMAT
  1
GRIDFORMAT_BEGIN
 90
        0
 91
        1
 62
     0
 92
       -2
340
0
 93
        0
 40
0.045
309
GRIDFORMAT_END
 95
        2
302
GRIDFORMAT
  1
GRIDFORMAT_BEGIN
 90
        0
 91
        1
 62
     0
 92
       -2
340
0
 93
        0
 40
0.045
309
GRIDFORMAT_END
 95
        4
302
GRIDFORMAT
  1
GRIDFORMAT_BEGIN
 90
        0
 91
        1
 62
     0
 92
       -2
340
0
 93
        0
 40
0.045
309
GRIDFORMAT_END
 95
        8
302
GRIDFORMAT
  1
GRIDFORMAT_BEGIN
 90
        0
 91
        1
 62
     0
 92
       -2
340
0
 93
        0
 40
0.045
309
GRIDFORMAT_END
 95
       16
302
GRIDFORMAT
  1
GRIDFORMAT_BEGIN
 90
        0
 91
        1
 62
     0
 92
       -2
340
0
 93
        0
 40
0.045
309
GRIDFORMAT_END
 95
       32
302
GRIDFORMAT
  1
GRIDFORMAT_BEGIN
 90
        0
 91
        1
 62
     0
 92
       -2
340
0
 93
        0
 40
0.045
309
GRIDFORMAT_END
309
TABLEFORMAT_END
  1
CELLSTYLE_BEGIN
 90
        3
 91
        2
300
_DATA
309
CELLSTYLE_END
  0
XRECORD
  5
4E0
102
{ACAD_REACTORS
330
1B2
102
}
330
1B2
100
AcDbXrecord
280
     1
102
ACAD_ROUNDTRIP_PRE2007_TABLESTYLE
 90
      512
 91
        0
  1

 92
      512
 93
        0
  2

 94
      512
 95
        0
  3

  0
XRECORD
  5
4BB
102
{ACAD_REACTORS
330
4BA
102
}
330
4BA
100
AcDbXrecord
280
     1
102
RTVSPost2010Prop28
280
     1
102
RTVSPost2010PropOp28
 70
     1
102
RTVSPost2010Prop29
280
     1
102
RTVSPost2010PropOp29
 70
     1
102
RTVSPost2010Prop30
280
     0
102
RTVSPost2010PropOp30
 70
     1
102
RTVSPost2010Prop31
280
     0
102
RTVSPost2010PropOp31
 70
     1
102
RTVSPost2010Prop32
280
     0
102
RTVSPost2010PropOp32
 70
     1
102
RTVSPost2010Prop33
280
     0
102
RTVSPost2010PropOp33
 70
     1
102
RTVSPost2010Prop34
280
     0
102
RTVSPost2010PropOp34
 70
     1
102
RTVSPost2010Prop35
280
     0
102
RTVSPost2010PropOp35
 70
     1
102
RTVSPost2010Prop36
280
     0
102
RTVSPost2010PropOp36
 70
     1
102
RTVSPost2010Prop37
 90
       50
102
RTVSPost2010PropOp37
 70
     1
102
RTVSPost2010Prop38
140
0.0
102
RTVSPost2010PropOp38
 70
     1
102
RTVSPost2010Prop39
140
1.0
102
RTVSPost2010PropOp39
 70
     1
102
RTVSPost2010Prop40
 90
        0
102
RTVSPost2010PropOp40
 70
     1
102
RTVSPost2010Prop41ColorIndex
 90
       18
102
RTVSPost2010Prop41ColorRGB
 90
        0
102
RTVSPost2010PropOp41
 70
     1
102
RTVSPost2010Prop42
 90
       50
102
RTVSPost2010PropOp42
 70
     1
102
RTVSPost2010Prop43
 90
        3
102
RTVSPost2010PropOp43
 70
     1
102
RTVSPost2010Prop44ColorIndex
 90
        5
102
RTVSPost2010Prop44ColorRGB
 90
      255
102
RTVSPost2010PropOp44
 70
     1
102
RTVSPost2010Prop45
280
     0
102
RTVSPost2010PropOp45
 70
     1
102
RTVSPost2010Prop46
 90
       50
102
RTVSPost2010PropOp46
 70
     1
102
RTVSPost2010Prop47
 90
       50
102
RTVSPost2010PropOp47
 70
     1
102
RTVSPost2010Prop48
 90
       50
102
RTVSPost2010PropOp48
 70
     1
102
RTVSPost2010Prop49
280
     0
102
RTVSPost2010PropOp49
 70
     1
102
RTVSPost2010Prop50
 90
       50
102
RTVSPost2010PropOp50
 70
     1
102
RTVSPost2010Prop51ColorIndex
 90
      256
102
RTVSPost2010Prop51ColorRGB
 90
-16777216
102
RTVSPost2010PropOp51
 70
     0
102
RTVSPost2010Prop52
140
1.0
102
RTVSPost2010PropOp52
 70
     0
102
RTVSPost2010Prop53
 90
        2
102
RTVSPost2010PropOp53
 70
     1
102
RTVSPost2010Prop54
  1
strokes_ogs.tif
102
RTVSPost2010PropOp54
 70
     1
102
RTVSPost2010Prop55
280
     0
102
RTVSPost2010PropOp55
 70
     1
102
RTVSPost2010Prop56
140
1.0
102
RTVSPost2010PropOp56
 70
     1
102
RTVSPost2010Prop57
140
1.0
102
RTVSPost2010PropOp57
 70
     1
102
RTVSPropertyOp0
 70
     1
102
RTVSPropertyOp1
 70
     1
102
RTVSPropertyOp2
 70
     1
102
RTVSPropertyOp3
 70
     1
102
RTVSPropertyOp4
 70
     1
102
RTVSPropertyOp5
 70
     1
102
RTVSPropertyOp6
 70
     1
102
RTVSPropertyOp7
 70
     1
102
RTVSPropertyOp8
 70
     1
102
RTVSPropertyOp9
 70
     1
102
RTVSPropertyOp10
 70
     1
102
RTVSPropertyOp11
 70
     1
102
RTVSPropertyOp12
 70
     1
102
RTVSPropertyOp13
 70
     1
102
RTVSPropertyOp14
 70
     1
102
RTVSPropertyOp15
 70
     1
102
RTVSPropertyOp16
 70
     1
102
RTVSPropertyOp17
 70
     1
102
RTVSPropertyOp18
 70
     1
102
RTVSPropertyOp19
 70
     1
102
RTVSPropertyOp20
 70
     1
102
RTVSPropertyOp21
 70
     1
102
RTVSPropertyOp22
 70
     1
102
RTVSPropertyOp23
 70
     1
102
RTVSPropertyOp24
 70
     1
102
RTVSPropertyOp25
 70
     1
102
RTVSPropertyOp26
 70
     1
102
RTVSPropertyOp27
 70
     1
102
RTVSPropertyOp28
 70
     1
102
RTVSPropertyOp29
 70
     1
102
RTVSPropertyOp30
 70
     1
102
RTVSPropertyOp31
 70
     1
102
RTVSPropertyOp32
 70
     1
102
RTVSPropertyOp33
 70
     1
102
RTVSPropertyOp34
 70
     1
102
RTVSPropertyOp35
 70
     1
102
RTVSPropertyOp36
 70
     1
102
RTVSPropertyOp37
 70
     1
102
RTVSPropertyOp38
 70
     1
102
RTVSPropertyOp39
 70
     1
102
RTVSPropertyOp40
 70
     1
102
RTVSPropertyOp41
 70
     1
102
RTVSPropertyOp42
 70
     1
102
RTVSPropertyOp43
 70
     1
102
RTVSPropertyOp44
 70
     1
102
RTVSPropertyOp45
 70
     1
102
RTVSPropertyOp46
 70
     1
102
RTVSPropertyOp47
 70
     1
102
RTVSPropertyOp48
 70
     1
102
RTVSPropertyOp49
 70
     1
102
RTVSPropertyOp50
 70
     1
102
RTVSPropertyOp51
 70
     0
102
RTVSPropertyOp52
 70
     0
102
RTVSPropertyOp53
 70
     1
102
RTVSPropertyOp54
 70
     1
102
RTVSPropertyOp55
 70
     1
102
RTVSPropertyOp56
 70
     1
102
RTVSPropertyOp57
 70
     1
102
RTVSPropertyOp58
 70
     1
102
RTVSPropertyOp59
 70
     1
102
RTVSPropertyOp60
 70
     1
102
RTVSPropertyOp61
 70
     1
102
RTVSPropertyOp62
 70
     1
  0
XRECORD
  5
4B9
102
{ACAD_REACTORS
330
4B8
102
}
330
4B8
100
AcDbXrecord
280
     1
102
RTVSPost2010Prop28
280
     0
102
RTVSPost2010PropOp28
 70
     1
102
RTVSPost2010Prop29
280
     1
102
RTVSPost2010PropOp29
 70
     1
102
RTVSPost2010Prop30
280
     1
102
RTVSPost2010PropOp30
 70
     1
102
RTVSPost2010Prop31
280
     0
102
RTVSPost2010PropOp31
 70
     1
102
RTVSPost2010Prop32
280
     0
102
RTVSPost2010PropOp32
 70
     1
102
RTVSPost2010Prop33
280
     0
102
RTVSPost2010PropOp33
 70
     1
102
RTVSPost2010Prop34
280
     0
102
RTVSPost2010PropOp34
 70
     1
102
RTVSPost2010Prop35
280
     0
102
RTVSPost2010PropOp35
 70
     1
102
RTVSPost2010Prop36
280
     0
102
RTVSPost2010PropOp36
 70
     1
102
RTVSPost2010Prop37
 90
       50
102
RTVSPost2010PropOp37
 70
     1
102
RTVSPost2010Prop38
140
0.0
102
RTVSPost2010PropOp38
 70
     1
102
RTVSPost2010Prop39
140
1.0
102
RTVSPost2010PropOp39
 70
     1
102
RTVSPost2010Prop40
 90
        0
102
RTVSPost2010PropOp40
 70
     1
102
RTVSPost2010Prop41ColorIndex
 90
       18
102
RTVSPost2010Prop41ColorRGB
 90
        0
102
RTVSPost2010PropOp41
 70
     1
102
RTVSPost2010Prop42
 90
       50
102
RTVSPost2010PropOp42
 70
     1
102
RTVSPost2010Prop43
 90
        3
102
RTVSPost2010PropOp43
 70
     1
102
RTVSPost2010Prop44ColorIndex
 90
        5
102
RTVSPost2010Prop44ColorRGB
 90
      255
102
RTVSPost2010PropOp44
 70
     1
102
RTVSPost2010Prop45
280
     0
102
RTVSPost2010PropOp45
 70
     1
102
RTVSPost2010Prop46
 90
       50
102
RTVSPost2010PropOp46
 70
     1
102
RTVSPost2010Prop47
 90
       50
102
RTVSPost2010PropOp47
 70
     1
102
RTVSPost2010Prop48
 90
       50
102
RTVSPost2010PropOp48
 70
     1
102
RTVSPost2010Prop49
280
     0
102
RTVSPost2010PropOp49
 70
     1
102
RTVSPost2010Prop50
 90
       50
102
RTVSPost2010PropOp50
 70
     1
102
RTVSPost2010Prop51ColorIndex
 90
      256
102
RTVSPost2010Prop51ColorRGB
 90
-16777216
102
RTVSPost2010PropOp51
 70
     0
102
RTVSPost2010Prop52
140
1.0
102
RTVSPost2010PropOp52
 70
     0
102
RTVSPost2010Prop53
 90
        2
102
RTVSPost2010PropOp53
 70
     1
102
RTVSPost2010Prop54
  1
strokes_ogs.tif
102
RTVSPost2010PropOp54
 70
     1
102
RTVSPost2010Prop55
280
     0
102
RTVSPost2010PropOp55
 70
     1
102
RTVSPost2010Prop56
140
1.0
102
RTVSPost2010PropOp56
 70
     1
102
RTVSPost2010Prop57
140
1.0
102
RTVSPost2010PropOp57
 70
     1
102
RTVSPropertyOp0
 70
     1
102
RTVSPropertyOp1
 70
     1
102
RTVSPropertyOp2
 70
     1
102
RTVSPropertyOp3
 70
     1
102
RTVSPropertyOp4
 70
     1
102
RTVSPropertyOp5
 70
     1
102
RTVSPropertyOp6
 70
     1
102
RTVSPropertyOp7
 70
     1
102
RTVSPropertyOp8
 70
     1
102
RTVSPropertyOp9
 70
     1
102
RTVSPropertyOp10
 70
     1
102
RTVSPropertyOp11
 70
     1
102
RTVSPropertyOp12
 70
     1
102
RTVSPropertyOp13
 70
     1
102
RTVSPropertyOp14
 70
     1
102
RTVSPropertyOp15
 70
     1
102
RTVSPropertyOp16
 70
     1
102
RTVSPropertyOp17
 70
     1
102
RTVSPropertyOp18
 70
     1
102
RTVSPropertyOp19
 70
     1
102
RTVSPropertyOp20
 70
     1
102
RTVSPropertyOp21
 70
     1
102
RTVSPropertyOp22
 70
     1
102
RTVSPropertyOp23
 70
     1
102
RTVSPropertyOp24
 70
     1
102
RTVSPropertyOp25
 70
     1
102
RTVSPropertyOp26
 70
     1
102
RTVSPropertyOp27
 70
     1
102
RTVSPropertyOp28
 70
     1
102
RTVSPropertyOp29
 70
     1
102
RTVSPropertyOp30
 70
     1
102
RTVSPropertyOp31
 70
     1
102
RTVSPropertyOp32
 70
     1
102
RTVSPropertyOp33
 70
     1
102
RTVSPropertyOp34
 70
     1
102
RTVSPropertyOp35
 70
     1
102
RTVSPropertyOp36
 70
     1
102
RTVSPropertyOp37
 70
     1
102
RTVSPropertyOp38
 70
     1
102
RTVSPropertyOp39
 70
     1
102
RTVSPropertyOp40
 70
     1
102
RTVSPropertyOp41
 70
     1
102
RTVSPropertyOp42
 70
     1
102
RTVSPropertyOp43
 70
     1
102
RTVSPropertyOp44
 70
     1
102
RTVSPropertyOp45
 70
     1
102
RTVSPropertyOp46
 70
     1
102
RTVSPropertyOp47
 70
     1
102
RTVSPropertyOp48
 70
     1
102
RTVSPropertyOp49
 70
     1
102
RTVSPropertyOp50
 70
     1
102
RTVSPropertyOp51
 70
     0
102
RTVSPropertyOp52
 70
     0
102
RTVSPropertyOp53
 70
     1
102
RTVSPropertyOp54
 70
     1
102
RTVSPropertyOp55
 70
     1
102
RTVSPropertyOp56
 70
     1
102
RTVSPropertyOp57
 70
     1
102
RTVSPropertyOp58
 70
     1
102
RTVSPropertyOp59
 70
     1
102
RTVSPropertyOp60
 70
     1
102
RTVSPropertyOp61
 70
     1
102
RTVSPropertyOp62
 70
     1
  0
XRECORD
  5
4C7
102
{ACAD_REACTORS
330
4C6
102
}
330
4C6
100
AcDbXrecord
280
     1
102
RTVSPost2010Prop28
280
     0
102
RTVSPost2010PropOp28
 70
     1
102
RTVSPost2010Prop29
280
     1
102
RTVSPost2010PropOp29
 70
     1
102
RTVSPost2010Prop30
280
     1
102
RTVSPost2010PropOp30
 70
     1
102
RTVSPost2010Prop31
280
     0
102
RTVSPost2010PropOp31
 70
     1
102
RTVSPost2010Prop32
280
     0
102
RTVSPost2010PropOp32
 70
     1
102
RTVSPost2010Prop33
280
     0
102
RTVSPost2010PropOp33
 70
     1
102
RTVSPost2010Prop34
280
     0
102
RTVSPost2010PropOp34
 70
     1
102
RTVSPost2010Prop35
280
     0
102
RTVSPost2010PropOp35
 70
     1
102
RTVSPost2010Prop36
280
     0
102
RTVSPost2010PropOp36
 70
     1
102
RTVSPost2010Prop37
 90
       50
102
RTVSPost2010PropOp37
 70
     1
102
RTVSPost2010Prop38
140
0.0
102
RTVSPost2010PropOp38
 70
     1
102
RTVSPost2010Prop39
140
1.0
102
RTVSPost2010PropOp39
 70
     1
102
RTVSPost2010Prop40
 90
        0
102
RTVSPost2010PropOp40
 70
     1
102
RTVSPost2010Prop41ColorIndex
 90
       18
102
RTVSPost2010Prop41ColorRGB
 90
        0
102
RTVSPost2010PropOp41
 70
     1
102
RTVSPost2010Prop42
 90
       50
102
RTVSPost2010PropOp42
 70
     1
102
RTVSPost2010Prop43
 90
        3
102
RTVSPost2010PropOp43
 70
     1
102
RTVSPost2010Prop44ColorIndex
 90
        5
102
RTVSPost2010Prop44ColorRGB
 90
      255
102
RTVSPost2010PropOp44
 70
     1
102
RTVSPost2010Prop45
280
     0
102
RTVSPost2010PropOp45
 70
     1
102
RTVSPost2010Prop46
 90
       50
102
RTVSPost2010PropOp46
 70
     1
102
RTVSPost2010Prop47
 90
       50
102
RTVSPost2010PropOp47
 70
     1
102
RTVSPost2010Prop48
 90
       50
102
RTVSPost2010PropOp48
 70
     1
102
RTVSPost2010Prop49
280
     0
102
RTVSPost2010PropOp49
 70
     1
102
RTVSPost2010Prop50
 90
       50
102
RTVSPost2010PropOp50
 70
     1
102
RTVSPost2010Prop51ColorIndex
 90
      256
102
RTVSPost2010Prop51ColorRGB
 90
-16777216
102
RTVSPost2010PropOp51
 70
     0
102
RTVSPost2010Prop52
140
1.0
102
RTVSPost2010PropOp52
 70
     0
102
RTVSPost2010Prop53
 90
        2
102
RTVSPost2010PropOp53
 70
     1
102
RTVSPost2010Prop54
  1
strokes_ogs.tif
102
RTVSPost2010PropOp54
 70
     1
102
RTVSPost2010Prop55
280
     0
102
RTVSPost2010PropOp55
 70
     1
102
RTVSPost2010Prop56
140
1.0
102
RTVSPost2010PropOp56
 70
     1
102
RTVSPost2010Prop57
140
1.0
102
RTVSPost2010PropOp57
 70
     1
102
RTVSPropertyOp0
 70
     1
102
RTVSPropertyOp1
 70
     1
102
RTVSPropertyOp2
 70
     1
102
RTVSPropertyOp3
 70
     1
102
RTVSPropertyOp4
 70
     1
102
RTVSPropertyOp5
 70
     1
102
RTVSPropertyOp6
 70
     1
102
RTVSPropertyOp7
 70
     1
102
RTVSPropertyOp8
 70
     1
102
RTVSPropertyOp9
 70
     1
102
RTVSPropertyOp10
 70
     1
102
RTVSPropertyOp11
 70
     1
102
RTVSPropertyOp12
 70
     1
102
RTVSPropertyOp13
 70
     1
102
RTVSPropertyOp14
 70
     1
102
RTVSPropertyOp15
 70
     1
102
RTVSPropertyOp16
 70
     1
102
RTVSPropertyOp17
 70
     1
102
RTVSPropertyOp18
 70
     1
102
RTVSPropertyOp19
 70
     1
102
RTVSPropertyOp20
 70
     1
102
RTVSPropertyOp21
 70
     1
102
RTVSPropertyOp22
 70
     1
102
RTVSPropertyOp23
 70
     1
102
RTVSPropertyOp24
 70
     1
102
RTVSPropertyOp25
 70
     1
102
RTVSPropertyOp26
 70
     1
102
RTVSPropertyOp27
 70
     1
102
RTVSPropertyOp28
 70
     1
102
RTVSPropertyOp29
 70
     1
102
RTVSPropertyOp30
 70
     1
102
RTVSPropertyOp31
 70
     1
102
RTVSPropertyOp32
 70
     1
102
RTVSPropertyOp33
 70
     1
102
RTVSPropertyOp34
 70
     1
102
RTVSPropertyOp35
 70
     1
102
RTVSPropertyOp36
 70
     1
102
RTVSPropertyOp37
 70
     1
102
RTVSPropertyOp38
 70
     1
102
RTVSPropertyOp39
 70
     1
102
RTVSPropertyOp40
 70
     1
102
RTVSPropertyOp41
 70
     1
102
RTVSPropertyOp42
 70
     1
102
RTVSPropertyOp43
 70
     1
102
RTVSPropertyOp44
 70
     1
102
RTVSPropertyOp45
 70
     1
102
RTVSPropertyOp46
 70
     1
102
RTVSPropertyOp47
 70
     1
102
RTVSPropertyOp48
 70
     1
102
RTVSPropertyOp49
 70
     1
102
RTVSPropertyOp50
 70
     1
102
RTVSPropertyOp51
 70
     0
102
RTVSPropertyOp52
 70
     0
102
RTVSPropertyOp53
 70
     1
102
RTVSPropertyOp54
 70
     1
102
RTVSPropertyOp55
 70
     1
102
RTVSPropertyOp56
 70
     1
102
RTVSPropertyOp57
 70
     1
102
RTVSPropertyOp58
 70
     1
102
RTVSPropertyOp59
 70
     1
102
RTVSPropertyOp60
 70
     1
102
RTVSPropertyOp61
 70
     1
102
RTVSPropertyOp62
 70
     1
  0
XRECORD
  5
4CF
102
{ACAD_REACTORS
330
4CE
102
}
330
4CE
100
AcDbXrecord
280
     1
102
RTVSPost2010Prop28
280
     0
102
RTVSPost2010PropOp28
 70
     1
102
RTVSPost2010Prop29
280
     1
102
RTVSPost2010PropOp29
 70
     1
102
RTVSPost2010Prop30
280
     1
102
RTVSPost2010PropOp30
 70
     1
102
RTVSPost2010Prop31
280
     0
102
RTVSPost2010PropOp31
 70
     1
102
RTVSPost2010Prop32
280
     0
102
RTVSPost2010PropOp32
 70
     1
102
RTVSPost2010Prop33
280
     0
102
RTVSPost2010PropOp33
 70
     1
102
RTVSPost2010Prop34
280
     0
102
RTVSPost2010PropOp34
 70
     1
102
RTVSPost2010Prop35
280
     0
102
RTVSPost2010PropOp35
 70
     1
102
RTVSPost2010Prop36
280
     0
102
RTVSPost2010PropOp36
 70
     1
102
RTVSPost2010Prop37
 90
       50
102
RTVSPost2010PropOp37
 70
     1
102
RTVSPost2010Prop38
140
0.0
102
RTVSPost2010PropOp38
 70
     1
102
RTVSPost2010Prop39
140
1.0
102
RTVSPost2010PropOp39
 70
     1
102
RTVSPost2010Prop40
 90
        0
102
RTVSPost2010PropOp40
 70
     1
102
RTVSPost2010Prop41ColorIndex
 90
       18
102
RTVSPost2010Prop41ColorRGB
 90
        0
102
RTVSPost2010PropOp41
 70
     1
102
RTVSPost2010Prop42
 90
       50
102
RTVSPost2010PropOp42
 70
     1
102
RTVSPost2010Prop43
 90
        3
102
RTVSPost2010PropOp43
 70
     1
102
RTVSPost2010Prop44ColorIndex
 90
        5
102
RTVSPost2010Prop44ColorRGB
 90
      255
102
RTVSPost2010PropOp44
 70
     1
102
RTVSPost2010Prop45
280
     0
102
RTVSPost2010PropOp45
 70
     1
102
RTVSPost2010Prop46
 90
       50
102
RTVSPost2010PropOp46
 70
     1
102
RTVSPost2010Prop47
 90
       50
102
RTVSPost2010PropOp47
 70
     1
102
RTVSPost2010Prop48
 90
       50
102
RTVSPost2010PropOp48
 70
     1
102
RTVSPost2010Prop49
280
     0
102
RTVSPost2010PropOp49
 70
     1
102
RTVSPost2010Prop50
 90
       50
102
RTVSPost2010PropOp50
 70
     1
102
RTVSPost2010Prop51ColorIndex
 90
      256
102
RTVSPost2010Prop51ColorRGB
 90
-16777216
102
RTVSPost2010PropOp51
 70
     0
102
RTVSPost2010Prop52
140
1.0
102
RTVSPost2010PropOp52
 70
     0
102
RTVSPost2010Prop53
 90
        2
102
RTVSPost2010PropOp53
 70
     1
102
RTVSPost2010Prop54
  1
strokes_ogs.tif
102
RTVSPost2010PropOp54
 70
     1
102
RTVSPost2010Prop55
280
     0
102
RTVSPost2010PropOp55
 70
     1
102
RTVSPost2010Prop56
140
1.0
102
RTVSPost2010PropOp56
 70
     1
102
RTVSPost2010Prop57
140
1.0
102
RTVSPost2010PropOp57
 70
     1
102
RTVSPropertyOp0
 70
     1
102
RTVSPropertyOp1
 70
     1
102
RTVSPropertyOp2
 70
     1
102
RTVSPropertyOp3
 70
     1
102
RTVSPropertyOp4
 70
     1
102
RTVSPropertyOp5
 70
     1
102
RTVSPropertyOp6
 70
     1
102
RTVSPropertyOp7
 70
     1
102
RTVSPropertyOp8
 70
     1
102
RTVSPropertyOp9
 70
     1
102
RTVSPropertyOp10
 70
     1
102
RTVSPropertyOp11
 70
     1
102
RTVSPropertyOp12
 70
     1
102
RTVSPropertyOp13
 70
     1
102
RTVSPropertyOp14
 70
     1
102
RTVSPropertyOp15
 70
     1
102
RTVSPropertyOp16
 70
     1
102
RTVSPropertyOp17
 70
     1
102
RTVSPropertyOp18
 70
     1
102
RTVSPropertyOp19
 70
     1
102
RTVSPropertyOp20
 70
     1
102
RTVSPropertyOp21
 70
     1
102
RTVSPropertyOp22
 70
     1
102
RTVSPropertyOp23
 70
     1
102
RTVSPropertyOp24
 70
     1
102
RTVSPropertyOp25
 70
     1
102
RTVSPropertyOp26
 70
     1
102
RTVSPropertyOp27
 70
     1
102
RTVSPropertyOp28
 70
     1
102
RTVSPropertyOp29
 70
     1
102
RTVSPropertyOp30
 70
     1
102
RTVSPropertyOp31
 70
     1
102
RTVSPropertyOp32
 70
     1
102
RTVSPropertyOp33
 70
     1
102
RTVSPropertyOp34
 70
     1
102
RTVSPropertyOp35
 70
     1
102
RTVSPropertyOp36
 70
     1
102
RTVSPropertyOp37
 70
     1
102
RTVSPropertyOp38
 70
     1
102
RTVSPropertyOp39
 70
     1
102
RTVSPropertyOp40
 70
     1
102
RTVSPropertyOp41
 70
     1
102
RTVSPropertyOp42
 70
     1
102
RTVSPropertyOp43
 70
     1
102
RTVSPropertyOp44
 70
     1
102
RTVSPropertyOp45
 70
     1
102
RTVSPropertyOp46
 70
     1
102
RTVSPropertyOp47
 70
     1
102
RTVSPropertyOp48
 70
     1
102
RTVSPropertyOp49
 70
     1
102
RTVSPropertyOp50
 70
     1
102
RTVSPropertyOp51
 70
     0
102
RTVSPropertyOp52
 70
     0
102
RTVSPropertyOp53
 70
     1
102
RTVSPropertyOp54
 70
     1
102
RTVSPropertyOp55
 70
     1
102
RTVSPropertyOp56
 70
     1
102
RTVSPropertyOp57
 70
     1
102
RTVSPropertyOp58
 70
     1
102
RTVSPropertyOp59
 70
     1
102
RTVSPropertyOp60
 70
     1
102
RTVSPropertyOp61
 70
     1
102
RTVSPropertyOp62
 70
     1
  0
XRECORD
  5
4C1
102
{ACAD_REACTORS
330
4C0
102
}
330
4C0
100
AcDbXrecord
280
     1
102
RTVSPost2010Prop28
280
     0
102
RTVSPost2010PropOp28
 70
     1
102
RTVSPost2010Prop29
280
     1
102
RTVSPost2010PropOp29
 70
     1
102
RTVSPost2010Prop30
280
     1
102
RTVSPost2010PropOp30
 70
     1
102
RTVSPost2010Prop31
280
     0
102
RTVSPost2010PropOp31
 70
     1
102
RTVSPost2010Prop32
280
     0
102
RTVSPost2010PropOp32
 70
     1
102
RTVSPost2010Prop33
280
     0
102
RTVSPost2010PropOp33
 70
     1
102
RTVSPost2010Prop34
280
     0
102
RTVSPost2010PropOp34
 70
     1
102
RTVSPost2010Prop35
280
     0
102
RTVSPost2010PropOp35
 70
     1
102
RTVSPost2010Prop36
280
     0
102
RTVSPost2010PropOp36
 70
     1
102
RTVSPost2010Prop37
 90
       50
102
RTVSPost2010PropOp37
 70
     1
102
RTVSPost2010Prop38
140
0.0
102
RTVSPost2010PropOp38
 70
     1
102
RTVSPost2010Prop39
140
1.0
102
RTVSPost2010PropOp39
 70
     1
102
RTVSPost2010Prop40
 90
        0
102
RTVSPost2010PropOp40
 70
     1
102
RTVSPost2010Prop41ColorIndex
 90
       18
102
RTVSPost2010Prop41ColorRGB
 90
        0
102
RTVSPost2010PropOp41
 70
     1
102
RTVSPost2010Prop42
 90
       50
102
RTVSPost2010PropOp42
 70
     1
102
RTVSPost2010Prop43
 90
        3
102
RTVSPost2010PropOp43
 70
     1
102
RTVSPost2010Prop44ColorIndex
 90
        5
102
RTVSPost2010Prop44ColorRGB
 90
      255
102
RTVSPost2010PropOp44
 70
     1
102
RTVSPost2010Prop45
280
     0
102
RTVSPost2010PropOp45
 70
     1
102
RTVSPost2010Prop46
 90
       50
102
RTVSPost2010PropOp46
 70
     1
102
RTVSPost2010Prop47
 90
       50
102
RTVSPost2010PropOp47
 70
     1
102
RTVSPost2010Prop48
 90
       50
102
RTVSPost2010PropOp48
 70
     1
102
RTVSPost2010Prop49
280
     0
102
RTVSPost2010PropOp49
 70
     1
102
RTVSPost2010Prop50
 90
       50
102
RTVSPost2010PropOp50
 70
     1
102
RTVSPost2010Prop51ColorIndex
 90
      256
102
RTVSPost2010Prop51ColorRGB
 90
-16777216
102
RTVSPost2010PropOp51
 70
     0
102
RTVSPost2010Prop52
140
1.0
102
RTVSPost2010PropOp52
 70
     0
102
RTVSPost2010Prop53
 90
        2
102
RTVSPost2010PropOp53
 70
     1
102
RTVSPost2010Prop54
  1
strokes_ogs.tif
102
RTVSPost2010PropOp54
 70
     1
102
RTVSPost2010Prop55
280
     0
102
RTVSPost2010PropOp55
 70
     1
102
RTVSPost2010Prop56
140
1.0
102
RTVSPost2010PropOp56
 70
     1
102
RTVSPost2010Prop57
140
1.0
102
RTVSPost2010PropOp57
 70
     1
102
RTVSPropertyOp0
 70
     1
102
RTVSPropertyOp1
 70
     1
102
RTVSPropertyOp2
 70
     1
102
RTVSPropertyOp3
 70
     1
102
RTVSPropertyOp4
 70
     1
102
RTVSPropertyOp5
 70
     1
102
RTVSPropertyOp6
 70
     1
102
RTVSPropertyOp7
 70
     1
102
RTVSPropertyOp8
 70
     1
102
RTVSPropertyOp9
 70
     1
102
RTVSPropertyOp10
 70
     1
102
RTVSPropertyOp11
 70
     1
102
RTVSPropertyOp12
 70
     1
102
RTVSPropertyOp13
 70
     1
102
RTVSPropertyOp14
 70
     1
102
RTVSPropertyOp15
 70
     1
102
RTVSPropertyOp16
 70
     1
102
RTVSPropertyOp17
 70
     1
102
RTVSPropertyOp18
 70
     1
102
RTVSPropertyOp19
 70
     1
102
RTVSPropertyOp20
 70
     1
102
RTVSPropertyOp21
 70
     1
102
RTVSPropertyOp22
 70
     1
102
RTVSPropertyOp23
 70
     1
102
RTVSPropertyOp24
 70
     1
102
RTVSPropertyOp25
 70
     1
102
RTVSPropertyOp26
 70
     1
102
RTVSPropertyOp27
 70
     1
102
RTVSPropertyOp28
 70
     1
102
RTVSPropertyOp29
 70
     1
102
RTVSPropertyOp30
 70
     1
102
RTVSPropertyOp31
 70
     1
102
RTVSPropertyOp32
 70
     1
102
RTVSPropertyOp33
 70
     1
102
RTVSPropertyOp34
 70
     1
102
RTVSPropertyOp35
 70
     1
102
RTVSPropertyOp36
 70
     1
102
RTVSPropertyOp37
 70
     1
102
RTVSPropertyOp38
 70
     1
102
RTVSPropertyOp39
 70
     1
102
RTVSPropertyOp40
 70
     1
102
RTVSPropertyOp41
 70
     1
102
RTVSPropertyOp42
 70
     1
102
RTVSPropertyOp43
 70
     1
102
RTVSPropertyOp44
 70
     1
102
RTVSPropertyOp45
 70
     1
102
RTVSPropertyOp46
 70
     1
102
RTVSPropertyOp47
 70
     1
102
RTVSPropertyOp48
 70
     1
102
RTVSPropertyOp49
 70
     1
102
RTVSPropertyOp50
 70
     1
102
RTVSPropertyOp51
 70
     0
102
RTVSPropertyOp52
 70
     0
102
RTVSPropertyOp53
 70
     1
102
RTVSPropertyOp54
 70
     1
102
RTVSPropertyOp55
 70
     1
102
RTVSPropertyOp56
 70
     1
102
RTVSPropertyOp57
 70
     1
102
RTVSPropertyOp58
 70
     1
102
RTVSPropertyOp59
 70
     1
102
RTVSPropertyOp60
 70
     1
102
RTVSPropertyOp61
 70
     1
102
RTVSPropertyOp62
 70
     1
  0
XRECORD
  5
4C5
102
{ACAD_REACTORS
330
4C4
102
}
330
4C4
100
AcDbXrecord
280
     1
102
RTVSPost2010Prop28
280
     0
102
RTVSPost2010PropOp28
 70
     1
102
RTVSPost2010Prop29
280
     1
102
RTVSPost2010PropOp29
 70
     1
102
RTVSPost2010Prop30
280
     1
102
RTVSPost2010PropOp30
 70
     1
102
RTVSPost2010Prop31
280
     0
102
RTVSPost2010PropOp31
 70
     1
102
RTVSPost2010Prop32
280
     0
102
RTVSPost2010PropOp32
 70
     1
102
RTVSPost2010Prop33
280
     0
102
RTVSPost2010PropOp33
 70
     1
102
RTVSPost2010Prop34
280
     0
102
RTVSPost2010PropOp34
 70
     1
102
RTVSPost2010Prop35
280
     0
102
RTVSPost2010PropOp35
 70
     1
102
RTVSPost2010Prop36
280
     0
102
RTVSPost2010PropOp36
 70
     1
102
RTVSPost2010Prop37
 90
       50
102
RTVSPost2010PropOp37
 70
     1
102
RTVSPost2010Prop38
140
0.0
102
RTVSPost2010PropOp38
 70
     1
102
RTVSPost2010Prop39
140
1.0
102
RTVSPost2010PropOp39
 70
     1
102
RTVSPost2010Prop40
 90
        0
102
RTVSPost2010PropOp40
 70
     1
102
RTVSPost2010Prop41ColorIndex
 90
       18
102
RTVSPost2010Prop41ColorRGB
 90
        0
102
RTVSPost2010PropOp41
 70
     1
102
RTVSPost2010Prop42
 90
       50
102
RTVSPost2010PropOp42
 70
     1
102
RTVSPost2010Prop43
 90
        3
102
RTVSPost2010PropOp43
 70
     1
102
RTVSPost2010Prop44ColorIndex
 90
        5
102
RTVSPost2010Prop44ColorRGB
 90
      255
102
RTVSPost2010PropOp44
 70
     1
102
RTVSPost2010Prop45
280
     0
102
RTVSPost2010PropOp45
 70
     1
102
RTVSPost2010Prop46
 90
       50
102
RTVSPost2010PropOp46
 70
     1
102
RTVSPost2010Prop47
 90
       50
102
RTVSPost2010PropOp47
 70
     1
102
RTVSPost2010Prop48
 90
       50
102
RTVSPost2010PropOp48
 70
     1
102
RTVSPost2010Prop49
280
     0
102
RTVSPost2010PropOp49
 70
     1
102
RTVSPost2010Prop50
 90
       50
102
RTVSPost2010PropOp50
 70
     1
102
RTVSPost2010Prop51ColorIndex
 90
      256
102
RTVSPost2010Prop51ColorRGB
 90
-16777216
102
RTVSPost2010PropOp51
 70
     0
102
RTVSPost2010Prop52
140
1.0
102
RTVSPost2010PropOp52
 70
     0
102
RTVSPost2010Prop53
 90
        2
102
RTVSPost2010PropOp53
 70
     1
102
RTVSPost2010Prop54
  1
strokes_ogs.tif
102
RTVSPost2010PropOp54
 70
     1
102
RTVSPost2010Prop55
280
     0
102
RTVSPost2010PropOp55
 70
     1
102
RTVSPost2010Prop56
140
1.0
102
RTVSPost2010PropOp56
 70
     1
102
RTVSPost2010Prop57
140
1.0
102
RTVSPost2010PropOp57
 70
     1
102
RTVSPropertyOp0
 70
     1
102
RTVSPropertyOp1
 70
     1
102
RTVSPropertyOp2
 70
     1
102
RTVSPropertyOp3
 70
     1
102
RTVSPropertyOp4
 70
     1
102
RTVSPropertyOp5
 70
     1
102
RTVSPropertyOp6
 70
     1
102
RTVSPropertyOp7
 70
     1
102
RTVSPropertyOp8
 70
     1
102
RTVSPropertyOp9
 70
     1
102
RTVSPropertyOp10
 70
     1
102
RTVSPropertyOp11
 70
     1
102
RTVSPropertyOp12
 70
     1
102
RTVSPropertyOp13
 70
     1
102
RTVSPropertyOp14
 70
     1
102
RTVSPropertyOp15
 70
     1
102
RTVSPropertyOp16
 70
     1
102
RTVSPropertyOp17
 70
     1
102
RTVSPropertyOp18
 70
     1
102
RTVSPropertyOp19
 70
     1
102
RTVSPropertyOp20
 70
     1
102
RTVSPropertyOp21
 70
     1
102
RTVSPropertyOp22
 70
     1
102
RTVSPropertyOp23
 70
     1
102
RTVSPropertyOp24
 70
     1
102
RTVSPropertyOp25
 70
     1
102
RTVSPropertyOp26
 70
     1
102
RTVSPropertyOp27
 70
     1
102
RTVSPropertyOp28
 70
     1
102
RTVSPropertyOp29
 70
     1
102
RTVSPropertyOp30
 70
     1
102
RTVSPropertyOp31
 70
     1
102
RTVSPropertyOp32
 70
     1
102
RTVSPropertyOp33
 70
     1
102
RTVSPropertyOp34
 70
     1
102
RTVSPropertyOp35
 70
     1
102
RTVSPropertyOp36
 70
     1
102
RTVSPropertyOp37
 70
     1
102
RTVSPropertyOp38
 70
     1
102
RTVSPropertyOp39
 70
     1
102
RTVSPropertyOp40
 70
     1
102
RTVSPropertyOp41
 70
     1
102
RTVSPropertyOp42
 70
     1
102
RTVSPropertyOp43
 70
     1
102
RTVSPropertyOp44
 70
     1
102
RTVSPropertyOp45
 70
     1
102
RTVSPropertyOp46
 70
     1
102
RTVSPropertyOp47
 70
     1
102
RTVSPropertyOp48
 70
     1
102
RTVSPropertyOp49
 70
     1
102
RTVSPropertyOp50
 70
     1
102
RTVSPropertyOp51
 70
     0
102
RTVSPropertyOp52
 70
     0
102
RTVSPropertyOp53
 70
     1
102
RTVSPropertyOp54
 70
     1
102
RTVSPropertyOp55
 70
     1
102
RTVSPropertyOp56
 70
     1
102
RTVSPropertyOp57
 70
     1
102
RTVSPropertyOp58
 70
     1
102
RTVSPropertyOp59
 70
     1
102
RTVSPropertyOp60
 70
     1
102
RTVSPropertyOp61
 70
     1
102
RTVSPropertyOp62
 70
     1
  0
XRECORD
  5
4DF
102
{ACAD_REACTORS
330
4DE
102
}
330
4DE
100
AcDbXrecord
280
     1
102
RTVSPost2010Prop28
280
     0
102
RTVSPost2010PropOp28
 70
     1
102
RTVSPost2010Prop29
280
     1
102
RTVSPost2010PropOp29
 70
     1
102
RTVSPost2010Prop30
280
     1
102
RTVSPost2010PropOp30
 70
     1
102
RTVSPost2010Prop31
280
     0
102
RTVSPost2010PropOp31
 70
     1
102
RTVSPost2010Prop32
280
     0
102
RTVSPost2010PropOp32
 70
     1
102
RTVSPost2010Prop33
280
     0
102
RTVSPost2010PropOp33
 70
     1
102
RTVSPost2010Prop34
280
     0
102
RTVSPost2010PropOp34
 70
     1
102
RTVSPost2010Prop35
280
     0
102
RTVSPost2010PropOp35
 70
     1
102
RTVSPost2010Prop36
280
     0
102
RTVSPost2010PropOp36
 70
     1
102
RTVSPost2010Prop37
 90
       50
102
RTVSPost2010PropOp37
 70
     0
102
RTVSPost2010Prop38
140
0.0
102
RTVSPost2010PropOp38
 70
     0
102
RTVSPost2010Prop39
140
1.0
102
RTVSPost2010PropOp39
 70
     0
102
RTVSPost2010Prop40
 90
        0
102
RTVSPost2010PropOp40
 70
     0
102
RTVSPost2010Prop41ColorIndex
 90
       18
102
RTVSPost2010Prop41ColorRGB
 90
        0
102
RTVSPost2010PropOp41
 70
     0
102
RTVSPost2010Prop42
 90
       50
102
RTVSPost2010PropOp42
 70
     0
102
RTVSPost2010Prop43
 90
        3
102
RTVSPost2010PropOp43
 70
     0
102
RTVSPost2010Prop44ColorIndex
 90
        5
102
RTVSPost2010Prop44ColorRGB
 90
      255
102
RTVSPost2010PropOp44
 70
     0
102
RTVSPost2010Prop45
280
     0
102
RTVSPost2010PropOp45
 70
     1
102
RTVSPost2010Prop46
 90
       50
102
RTVSPost2010PropOp46
 70
     0
102
RTVSPost2010Prop47
 90
       50
102
RTVSPost2010PropOp47
 70
     0
102
RTVSPost2010Prop48
 90
       50
102
RTVSPost2010PropOp48
 70
     0
102
RTVSPost2010Prop49
280
     0
102
RTVSPost2010PropOp49
 70
     1
102
RTVSPost2010Prop50
 90
       50
102
RTVSPost2010PropOp50
 70
     0
102
RTVSPost2010Prop51ColorIndex
 90
      256
102
RTVSPost2010Prop51ColorRGB
 90
-16777216
102
RTVSPost2010PropOp51
 70
     0
102
RTVSPost2010Prop52
140
1.0
102
RTVSPost2010PropOp52
 70
     0
102
RTVSPost2010Prop53
 90
        2
102
RTVSPost2010PropOp53
 70
     0
102
RTVSPost2010Prop54
  1
strokes_ogs.tif
102
RTVSPost2010PropOp54
 70
     0
102
RTVSPost2010Prop55
280
     0
102
RTVSPost2010PropOp55
 70
     1
102
RTVSPost2010Prop56
140
1.0
102
RTVSPost2010PropOp56
 70
     0
102
RTVSPost2010Prop57
140
1.0
102
RTVSPost2010PropOp57
 70
     0
102
RTVSPropertyOp0
 70
     0
102
RTVSPropertyOp1
 70
     0
102
RTVSPropertyOp2
 70
     0
102
RTVSPropertyOp3
 70
     0
102
RTVSPropertyOp4
 70
     0
102
RTVSPropertyOp5
 70
     0
102
RTVSPropertyOp6
 70
     0
102
RTVSPropertyOp7
 70
     0
102
RTVSPropertyOp8
 70
     0
102
RTVSPropertyOp9
 70
     0
102
RTVSPropertyOp10
 70
     0
102
RTVSPropertyOp11
 70
     0
102
RTVSPropertyOp12
 70
     0
102
RTVSPropertyOp13
 70
     0
102
RTVSPropertyOp14
 70
     2
102
RTVSPropertyOp15
 70
     0
102
RTVSPropertyOp16
 70
     0
102
RTVSPropertyOp17
 70
     0
102
RTVSPropertyOp18
 70
     0
102
RTVSPropertyOp19
 70
     0
102
RTVSPropertyOp20
 70
     0
102
RTVSPropertyOp21
 70
     0
102
RTVSPropertyOp22
 70
     0
102
RTVSPropertyOp23
 70
     0
102
RTVSPropertyOp24
 70
     0
102
RTVSPropertyOp25
 70
     0
102
RTVSPropertyOp26
 70
     0
102
RTVSPropertyOp27
 70
     0
102
RTVSPropertyOp28
 70
     1
102
RTVSPropertyOp29
 70
     1
102
RTVSPropertyOp30
 70
     1
102
RTVSPropertyOp31
 70
     1
102
RTVSPropertyOp32
 70
     1
102
RTVSPropertyOp33
 70
     1
102
RTVSPropertyOp34
 70
     1
102
RTVSPropertyOp35
 70
     1
102
RTVSPropertyOp36
 70
     1
102
RTVSPropertyOp37
 70
     0
102
RTVSPropertyOp38
 70
     0
102
RTVSPropertyOp39
 70
     0
102
RTVSPropertyOp40
 70
     0
102
RTVSPropertyOp41
 70
     0
102
RTVSPropertyOp42
 70
     0
102
RTVSPropertyOp43
 70
     0
102
RTVSPropertyOp44
 70
     0
102
RTVSPropertyOp45
 70
     1
102
RTVSPropertyOp46
 70
     0
102
RTVSPropertyOp47
 70
     0
102
RTVSPropertyOp48
 70
     0
102
RTVSPropertyOp49
 70
     1
102
RTVSPropertyOp50
 70
     0
102
RTVSPropertyOp51
 70
     0
102
RTVSPropertyOp52
 70
     0
102
RTVSPropertyOp53
 70
     0
102
RTVSPropertyOp54
 70
     0
102
RTVSPropertyOp55
 70
     1
102
RTVSPropertyOp56
 70
     0
102
RTVSPropertyOp57
 70
     0
102
RTVSPropertyOp58
 70
     0
102
RTVSPropertyOp59
 70
     0
102
RTVSPropertyOp60
 70
     0
102
RTVSPropertyOp61
 70
     0
102
RTVSPropertyOp62
 70
     0
  0
XRECORD
  5
4CD
102
{ACAD_REACTORS
330
4CC
102
}
330
4CC
100
AcDbXrecord
280
     1
102
RTVSPost2010Prop28
280
     0
102
RTVSPost2010PropOp28
 70
     1
102
RTVSPost2010Prop29
280
     1
102
RTVSPost2010PropOp29
 70
     1
102
RTVSPost2010Prop30
280
     1
102
RTVSPost2010PropOp30
 70
     1
102
RTVSPost2010Prop31
280
     0
102
RTVSPost2010PropOp31
 70
     1
102
RTVSPost2010Prop32
280
     0
102
RTVSPost2010PropOp32
 70
     1
102
RTVSPost2010Prop33
280
     0
102
RTVSPost2010PropOp33
 70
     1
102
RTVSPost2010Prop34
280
     0
102
RTVSPost2010PropOp34
 70
     1
102
RTVSPost2010Prop35
280
     0
102
RTVSPost2010PropOp35
 70
     1
102
RTVSPost2010Prop36
280
     0
102
RTVSPost2010PropOp36
 70
     1
102
RTVSPost2010Prop37
 90
       50
102
RTVSPost2010PropOp37
 70
     1
102
RTVSPost2010Prop38
140
0.0
102
RTVSPost2010PropOp38
 70
     1
102
RTVSPost2010Prop39
140
1.0
102
RTVSPost2010PropOp39
 70
     1
102
RTVSPost2010Prop40
 90
        0
102
RTVSPost2010PropOp40
 70
     1
102
RTVSPost2010Prop41ColorIndex
 90
       18
102
RTVSPost2010Prop41ColorRGB
 90
        0
102
RTVSPost2010PropOp41
 70
     1
102
RTVSPost2010Prop42
 90
       50
102
RTVSPost2010PropOp42
 70
     1
102
RTVSPost2010Prop43
 90
        3
102
RTVSPost2010PropOp43
 70
     1
102
RTVSPost2010Prop44ColorIndex
 90
        5
102
RTVSPost2010Prop44ColorRGB
 90
      255
102
RTVSPost2010PropOp44
 70
     1
102
RTVSPost2010Prop45
280
     0
102
RTVSPost2010PropOp45
 70
     1
102
RTVSPost2010Prop46
 90
       50
102
RTVSPost2010PropOp46
 70
     1
102
RTVSPost2010Prop47
 90
       50
102
RTVSPost2010PropOp47
 70
     1
102
RTVSPost2010Prop48
 90
       50
102
RTVSPost2010PropOp48
 70
     1
102
RTVSPost2010Prop49
280
     0
102
RTVSPost2010PropOp49
 70
     1
102
RTVSPost2010Prop50
 90
       50
102
RTVSPost2010PropOp50
 70
     1
102
RTVSPost2010Prop51ColorIndex
 90
      256
102
RTVSPost2010Prop51ColorRGB
 90
-16777216
102
RTVSPost2010PropOp51
 70
     0
102
RTVSPost2010Prop52
140
1.0
102
RTVSPost2010PropOp52
 70
     0
102
RTVSPost2010Prop53
 90
        2
102
RTVSPost2010PropOp53
 70
     1
102
RTVSPost2010Prop54
  1
strokes_ogs.tif
102
RTVSPost2010PropOp54
 70
     1
102
RTVSPost2010Prop55
280
     0
102
RTVSPost2010PropOp55
 70
     1
102
RTVSPost2010Prop56
140
1.0
102
RTVSPost2010PropOp56
 70
     1
102
RTVSPost2010Prop57
140
1.0
102
RTVSPost2010PropOp57
 70
     1
102
RTVSPropertyOp0
 70
     1
102
RTVSPropertyOp1
 70
     1
102
RTVSPropertyOp2
 70
     1
102
RTVSPropertyOp3
 70
     1
102
RTVSPropertyOp4
 70
     1
102
RTVSPropertyOp5
 70
     1
102
RTVSPropertyOp6
 70
     1
102
RTVSPropertyOp7
 70
     1
102
RTVSPropertyOp8
 70
     1
102
RTVSPropertyOp9
 70
     1
102
RTVSPropertyOp10
 70
     1
102
RTVSPropertyOp11
 70
     1
102
RTVSPropertyOp12
 70
     1
102
RTVSPropertyOp13
 70
     1
102
RTVSPropertyOp14
 70
     1
102
RTVSPropertyOp15
 70
     1
102
RTVSPropertyOp16
 70
     1
102
RTVSPropertyOp17
 70
     1
102
RTVSPropertyOp18
 70
     1
102
RTVSPropertyOp19
 70
     1
102
RTVSPropertyOp20
 70
     1
102
RTVSPropertyOp21
 70
     1
102
RTVSPropertyOp22
 70
     1
102
RTVSPropertyOp23
 70
     1
102
RTVSPropertyOp24
 70
     1
102
RTVSPropertyOp25
 70
     1
102
RTVSPropertyOp26
 70
     1
102
RTVSPropertyOp27
 70
     1
102
RTVSPropertyOp28
 70
     1
102
RTVSPropertyOp29
 70
     1
102
RTVSPropertyOp30
 70
     1
102
RTVSPropertyOp31
 70
     1
102
RTVSPropertyOp32
 70
     1
102
RTVSPropertyOp33
 70
     1
102
RTVSPropertyOp34
 70
     1
102
RTVSPropertyOp35
 70
     1
102
RTVSPropertyOp36
 70
     1
102
RTVSPropertyOp37
 70
     1
102
RTVSPropertyOp38
 70
     1
102
RTVSPropertyOp39
 70
     1
102
RTVSPropertyOp40
 70
     1
102
RTVSPropertyOp41
 70
     1
102
RTVSPropertyOp42
 70
     1
102
RTVSPropertyOp43
 70
     1
102
RTVSPropertyOp44
 70
     1
102
RTVSPropertyOp45
 70
     1
102
RTVSPropertyOp46
 70
     1
102
RTVSPropertyOp47
 70
     1
102
RTVSPropertyOp48
 70
     1
102
RTVSPropertyOp49
 70
     1
102
RTVSPropertyOp50
 70
     1
102
RTVSPropertyOp51
 70
     0
102
RTVSPropertyOp52
 70
     0
102
RTVSPropertyOp53
 70
     1
102
RTVSPropertyOp54
 70
     1
102
RTVSPropertyOp55
 70
     1
102
RTVSPropertyOp56
 70
     1
102
RTVSPropertyOp57
 70
     1
102
RTVSPropertyOp58
 70
     1
102
RTVSPropertyOp59
 70
     1
102
RTVSPropertyOp60
 70
     1
102
RTVSPropertyOp61
 70
     1
102
RTVSPropertyOp62
 70
     1
  0
XRECORD
  5
4B1
102
{ACAD_REACTORS
330
4B0
102
}
330
4B0
100
AcDbXrecord
280
     1
102
RTVSPost2010Prop28
280
     0
102
RTVSPost2010PropOp28
 70
     1
102
RTVSPost2010Prop29
280
     1
102
RTVSPost2010PropOp29
 70
     1
102
RTVSPost2010Prop30
280
     1
102
RTVSPost2010PropOp30
 70
     1
102
RTVSPost2010Prop31
280
     0
102
RTVSPost2010PropOp31
 70
     1
102
RTVSPost2010Prop32
280
     0
102
RTVSPost2010PropOp32
 70
     1
102
RTVSPost2010Prop33
280
     0
102
RTVSPost2010PropOp33
 70
     1
102
RTVSPost2010Prop34
280
     0
102
RTVSPost2010PropOp34
 70
     1
102
RTVSPost2010Prop35
280
     0
102
RTVSPost2010PropOp35
 70
     1
102
RTVSPost2010Prop36
280
     0
102
RTVSPost2010PropOp36
 70
     1
102
RTVSPost2010Prop37
 90
       50
102
RTVSPost2010PropOp37
 70
     1
102
RTVSPost2010Prop38
140
0.0
102
RTVSPost2010PropOp38
 70
     1
102
RTVSPost2010Prop39
140
1.0
102
RTVSPost2010PropOp39
 70
     1
102
RTVSPost2010Prop40
 90
        0
102
RTVSPost2010PropOp40
 70
     1
102
RTVSPost2010Prop41ColorIndex
 90
       18
102
RTVSPost2010Prop41ColorRGB
 90
        0
102
RTVSPost2010PropOp41
 70
     1
102
RTVSPost2010Prop42
 90
       50
102
RTVSPost2010PropOp42
 70
     1
102
RTVSPost2010Prop43
 90
        3
102
RTVSPost2010PropOp43
 70
     1
102
RTVSPost2010Prop44ColorIndex
 90
        5
102
RTVSPost2010Prop44ColorRGB
 90
      255
102
RTVSPost2010PropOp44
 70
     1
102
RTVSPost2010Prop45
280
     0
102
RTVSPost2010PropOp45
 70
     1
102
RTVSPost2010Prop46
 90
       50
102
RTVSPost2010PropOp46
 70
     1
102
RTVSPost2010Prop47
 90
       50
102
RTVSPost2010PropOp47
 70
     1
102
RTVSPost2010Prop48
 90
       50
102
RTVSPost2010PropOp48
 70
     1
102
RTVSPost2010Prop49
280
     0
102
RTVSPost2010PropOp49
 70
     1
102
RTVSPost2010Prop50
 90
       50
102
RTVSPost2010PropOp50
 70
     1
102
RTVSPost2010Prop51ColorIndex
 90
      256
102
RTVSPost2010Prop51ColorRGB
 90
-16777216
102
RTVSPost2010PropOp51
 70
     0
102
RTVSPost2010Prop52
140
1.0
102
RTVSPost2010PropOp52
 70
     0
102
RTVSPost2010Prop53
 90
        2
102
RTVSPost2010PropOp53
 70
     1
102
RTVSPost2010Prop54
  1
strokes_ogs.tif
102
RTVSPost2010PropOp54
 70
     1
102
RTVSPost2010Prop55
280
     0
102
RTVSPost2010PropOp55
 70
     1
102
RTVSPost2010Prop56
140
1.0
102
RTVSPost2010PropOp56
 70
     1
102
RTVSPost2010Prop57
140
1.0
102
RTVSPost2010PropOp57
 70
     1
102
RTVSPropertyOp0
 70
     1
102
RTVSPropertyOp1
 70
     1
102
RTVSPropertyOp2
 70
     1
102
RTVSPropertyOp3
 70
     1
102
RTVSPropertyOp4
 70
     1
102
RTVSPropertyOp5
 70
     1
102
RTVSPropertyOp6
 70
     1
102
RTVSPropertyOp7
 70
     1
102
RTVSPropertyOp8
 70
     1
102
RTVSPropertyOp9
 70
     1
102
RTVSPropertyOp10
 70
     1
102
RTVSPropertyOp11
 70
     1
102
RTVSPropertyOp12
 70
     1
102
RTVSPropertyOp13
 70
     1
102
RTVSPropertyOp14
 70
     1
102
RTVSPropertyOp15
 70
     1
102
RTVSPropertyOp16
 70
     1
102
RTVSPropertyOp17
 70
     1
102
RTVSPropertyOp18
 70
     1
102
RTVSPropertyOp19
 70
     1
102
RTVSPropertyOp20
 70
     1
102
RTVSPropertyOp21
 70
     1
102
RTVSPropertyOp22
 70
     1
102
RTVSPropertyOp23
 70
     1
102
RTVSPropertyOp24
 70
     1
102
RTVSPropertyOp25
 70
     1
102
RTVSPropertyOp26
 70
     1
102
RTVSPropertyOp27
 70
     1
102
RTVSPropertyOp28
 70
     1
102
RTVSPropertyOp29
 70
     1
102
RTVSPropertyOp30
 70
     1
102
RTVSPropertyOp31
 70
     1
102
RTVSPropertyOp32
 70
     1
102
RTVSPropertyOp33
 70
     1
102
RTVSPropertyOp34
 70
     1
102
RTVSPropertyOp35
 70
     1
102
RTVSPropertyOp36
 70
     1
102
RTVSPropertyOp37
 70
     1
102
RTVSPropertyOp38
 70
     1
102
RTVSPropertyOp39
 70
     1
102
RTVSPropertyOp40
 70
     1
102
RTVSPropertyOp41
 70
     1
102
RTVSPropertyOp42
 70
     1
102
RTVSPropertyOp43
 70
     1
102
RTVSPropertyOp44
 70
     1
102
RTVSPropertyOp45
 70
     1
102
RTVSPropertyOp46
 70
     1
102
RTVSPropertyOp47
 70
     1
102
RTVSPropertyOp48
 70
     1
102
RTVSPropertyOp49
 70
     1
102
RTVSPropertyOp50
 70
     1
102
RTVSPropertyOp51
 70
     0
102
RTVSPropertyOp52
 70
     0
102
RTVSPropertyOp53
 70
     1
102
RTVSPropertyOp54
 70
     1
102
RTVSPropertyOp55
 70
     1
102
RTVSPropertyOp56
 70
     1
102
RTVSPropertyOp57
 70
     1
102
RTVSPropertyOp58
 70
     1
102
RTVSPropertyOp59
 70
     1
102
RTVSPropertyOp60
 70
     1
102
RTVSPropertyOp61
 70
     1
102
RTVSPropertyOp62
 70
     1
  0
XRECORD
  5
4B3
102
{ACAD_REACTORS
330
4B2
102
}
330
4B2
100
AcDbXrecord
280
     1
102
RTVSPost2010Prop28
280
     0
102
RTVSPost2010PropOp28
 70
     1
102
RTVSPost2010Prop29
280
     1
102
RTVSPost2010PropOp29
 70
     1
102
RTVSPost2010Prop30
280
     1
102
RTVSPost2010PropOp30
 70
     1
102
RTVSPost2010Prop31
280
     0
102
RTVSPost2010PropOp31
 70
     1
102
RTVSPost2010Prop32
280
     0
102
RTVSPost2010PropOp32
 70
     1
102
RTVSPost2010Prop33
280
     0
102
RTVSPost2010PropOp33
 70
     1
102
RTVSPost2010Prop34
280
     0
102
RTVSPost2010PropOp34
 70
     1
102
RTVSPost2010Prop35
280
     0
102
RTVSPost2010PropOp35
 70
     1
102
RTVSPost2010Prop36
280
     0
102
RTVSPost2010PropOp36
 70
     1
102
RTVSPost2010Prop37
 90
       50
102
RTVSPost2010PropOp37
 70
     1
102
RTVSPost2010Prop38
140
0.0
102
RTVSPost2010PropOp38
 70
     1
102
RTVSPost2010Prop39
140
1.0
102
RTVSPost2010PropOp39
 70
     1
102
RTVSPost2010Prop40
 90
        0
102
RTVSPost2010PropOp40
 70
     1
102
RTVSPost2010Prop41ColorIndex
 90
       18
102
RTVSPost2010Prop41ColorRGB
 90
        0
102
RTVSPost2010PropOp41
 70
     1
102
RTVSPost2010Prop42
 90
       50
102
RTVSPost2010PropOp42
 70
     1
102
RTVSPost2010Prop43
 90
        3
102
RTVSPost2010PropOp43
 70
     1
102
RTVSPost2010Prop44ColorIndex
 90
        5
102
RTVSPost2010Prop44ColorRGB
 90
      255
102
RTVSPost2010PropOp44
 70
     1
102
RTVSPost2010Prop45
280
     0
102
RTVSPost2010PropOp45
 70
     1
102
RTVSPost2010Prop46
 90
       50
102
RTVSPost2010PropOp46
 70
     1
102
RTVSPost2010Prop47
 90
       50
102
RTVSPost2010PropOp47
 70
     1
102
RTVSPost2010Prop48
 90
       50
102
RTVSPost2010PropOp48
 70
     1
102
RTVSPost2010Prop49
280
     0
102
RTVSPost2010PropOp49
 70
     1
102
RTVSPost2010Prop50
 90
       50
102
RTVSPost2010PropOp50
 70
     1
102
RTVSPost2010Prop51ColorIndex
 90
      256
102
RTVSPost2010Prop51ColorRGB
 90
-16777216
102
RTVSPost2010PropOp51
 70
     0
102
RTVSPost2010Prop52
140
1.0
102
RTVSPost2010PropOp52
 70
     0
102
RTVSPost2010Prop53
 90
        2
102
RTVSPost2010PropOp53
 70
     1
102
RTVSPost2010Prop54
  1
strokes_ogs.tif
102
RTVSPost2010PropOp54
 70
     1
102
RTVSPost2010Prop55
280
     0
102
RTVSPost2010PropOp55
 70
     1
102
RTVSPost2010Prop56
140
1.0
102
RTVSPost2010PropOp56
 70
     1
102
RTVSPost2010Prop57
140
1.0
102
RTVSPost2010PropOp57
 70
     1
102
RTVSPropertyOp0
 70
     1
102
RTVSPropertyOp1
 70
     1
102
RTVSPropertyOp2
 70
     1
102
RTVSPropertyOp3
 70
     1
102
RTVSPropertyOp4
 70
     1
102
RTVSPropertyOp5
 70
     1
102
RTVSPropertyOp6
 70
     1
102
RTVSPropertyOp7
 70
     1
102
RTVSPropertyOp8
 70
     1
102
RTVSPropertyOp9
 70
     1
102
RTVSPropertyOp10
 70
     1
102
RTVSPropertyOp11
 70
     1
102
RTVSPropertyOp12
 70
     1
102
RTVSPropertyOp13
 70
     1
102
RTVSPropertyOp14
 70
     1
102
RTVSPropertyOp15
 70
     1
102
RTVSPropertyOp16
 70
     1
102
RTVSPropertyOp17
 70
     1
102
RTVSPropertyOp18
 70
     1
102
RTVSPropertyOp19
 70
     1
102
RTVSPropertyOp20
 70
     1
102
RTVSPropertyOp21
 70
     1
102
RTVSPropertyOp22
 70
     1
102
RTVSPropertyOp23
 70
     1
102
RTVSPropertyOp24
 70
     1
102
RTVSPropertyOp25
 70
     1
102
RTVSPropertyOp26
 70
     1
102
RTVSPropertyOp27
 70
     1
102
RTVSPropertyOp28
 70
     1
102
RTVSPropertyOp29
 70
     1
102
RTVSPropertyOp30
 70
     1
102
RTVSPropertyOp31
 70
     1
102
RTVSPropertyOp32
 70
     1
102
RTVSPropertyOp33
 70
     1
102
RTVSPropertyOp34
 70
     1
102
RTVSPropertyOp35
 70
     1
102
RTVSPropertyOp36
 70
     1
102
RTVSPropertyOp37
 70
     1
102
RTVSPropertyOp38
 70
     1
102
RTVSPropertyOp39
 70
     1
102
RTVSPropertyOp40
 70
     1
102
RTVSPropertyOp41
 70
     1
102
RTVSPropertyOp42
 70
     1
102
RTVSPropertyOp43
 70
     1
102
RTVSPropertyOp44
 70
     1
102
RTVSPropertyOp45
 70
     1
102
RTVSPropertyOp46
 70
     1
102
RTVSPropertyOp47
 70
     1
102
RTVSPropertyOp48
 70
     1
102
RTVSPropertyOp49
 70
     1
102
RTVSPropertyOp50
 70
     1
102
RTVSPropertyOp51
 70
     0
102
RTVSPropertyOp52
 70
     0
102
RTVSPropertyOp53
 70
     1
102
RTVSPropertyOp54
 70
     1
102
RTVSPropertyOp55
 70
     1
102
RTVSPropertyOp56
 70
     1
102
RTVSPropertyOp57
 70
     1
102
RTVSPropertyOp58
 70
     1
102
RTVSPropertyOp59
 70
     1
102
RTVSPropertyOp60
 70
     1
102
RTVSPropertyOp61
 70
     1
102
RTVSPropertyOp62
 70
     1
  0
XRECORD
  5
4B5
102
{ACAD_REACTORS
330
4B4
102
}
330
4B4
100
AcDbXrecord
280
     1
102
RTVSPost2010Prop28
280
     0
102
RTVSPost2010PropOp28
 70
     1
102
RTVSPost2010Prop29
280
     1
102
RTVSPost2010PropOp29
 70
     1
102
RTVSPost2010Prop30
280
     1
102
RTVSPost2010PropOp30
 70
     1
102
RTVSPost2010Prop31
280
     0
102
RTVSPost2010PropOp31
 70
     1
102
RTVSPost2010Prop32
280
     0
102
RTVSPost2010PropOp32
 70
     1
102
RTVSPost2010Prop33
280
     0
102
RTVSPost2010PropOp33
 70
     1
102
RTVSPost2010Prop34
280
     0
102
RTVSPost2010PropOp34
 70
     1
102
RTVSPost2010Prop35
280
     0
102
RTVSPost2010PropOp35
 70
     1
102
RTVSPost2010Prop36
280
     0
102
RTVSPost2010PropOp36
 70
     1
102
RTVSPost2010Prop37
 90
       50
102
RTVSPost2010PropOp37
 70
     1
102
RTVSPost2010Prop38
140
0.0
102
RTVSPost2010PropOp38
 70
     1
102
RTVSPost2010Prop39
140
1.0
102
RTVSPost2010PropOp39
 70
     1
102
RTVSPost2010Prop40
 90
        0
102
RTVSPost2010PropOp40
 70
     1
102
RTVSPost2010Prop41ColorIndex
 90
       18
102
RTVSPost2010Prop41ColorRGB
 90
        0
102
RTVSPost2010PropOp41
 70
     1
102
RTVSPost2010Prop42
 90
       50
102
RTVSPost2010PropOp42
 70
     1
102
RTVSPost2010Prop43
 90
        3
102
RTVSPost2010PropOp43
 70
     1
102
RTVSPost2010Prop44ColorIndex
 90
        5
102
RTVSPost2010Prop44ColorRGB
 90
      255
102
RTVSPost2010PropOp44
 70
     1
102
RTVSPost2010Prop45
280
     0
102
RTVSPost2010PropOp45
 70
     1
102
RTVSPost2010Prop46
 90
       50
102
RTVSPost2010PropOp46
 70
     1
102
RTVSPost2010Prop47
 90
       50
102
RTVSPost2010PropOp47
 70
     1
102
RTVSPost2010Prop48
 90
       50
102
RTVSPost2010PropOp48
 70
     1
102
RTVSPost2010Prop49
280
     0
102
RTVSPost2010PropOp49
 70
     1
102
RTVSPost2010Prop50
 90
       50
102
RTVSPost2010PropOp50
 70
     1
102
RTVSPost2010Prop51ColorIndex
 90
      256
102
RTVSPost2010Prop51ColorRGB
 90
-16777216
102
RTVSPost2010PropOp51
 70
     0
102
RTVSPost2010Prop52
140
1.0
102
RTVSPost2010PropOp52
 70
     0
102
RTVSPost2010Prop53
 90
        2
102
RTVSPost2010PropOp53
 70
     1
102
RTVSPost2010Prop54
  1
strokes_ogs.tif
102
RTVSPost2010PropOp54
 70
     1
102
RTVSPost2010Prop55
280
     0
102
RTVSPost2010PropOp55
 70
     1
102
RTVSPost2010Prop56
140
1.0
102
RTVSPost2010PropOp56
 70
     1
102
RTVSPost2010Prop57
140
1.0
102
RTVSPost2010PropOp57
 70
     1
102
RTVSPropertyOp0
 70
     1
102
RTVSPropertyOp1
 70
     1
102
RTVSPropertyOp2
 70
     1
102
RTVSPropertyOp3
 70
     1
102
RTVSPropertyOp4
 70
     1
102
RTVSPropertyOp5
 70
     1
102
RTVSPropertyOp6
 70
     1
102
RTVSPropertyOp7
 70
     1
102
RTVSPropertyOp8
 70
     1
102
RTVSPropertyOp9
 70
     1
102
RTVSPropertyOp10
 70
     1
102
RTVSPropertyOp11
 70
     1
102
RTVSPropertyOp12
 70
     1
102
RTVSPropertyOp13
 70
     1
102
RTVSPropertyOp14
 70
     1
102
RTVSPropertyOp15
 70
     1
102
RTVSPropertyOp16
 70
     1
102
RTVSPropertyOp17
 70
     1
102
RTVSPropertyOp18
 70
     1
102
RTVSPropertyOp19
 70
     1
102
RTVSPropertyOp20
 70
     1
102
RTVSPropertyOp21
 70
     1
102
RTVSPropertyOp22
 70
     1
102
RTVSPropertyOp23
 70
     1
102
RTVSPropertyOp24
 70
     1
102
RTVSPropertyOp25
 70
     1
102
RTVSPropertyOp26
 70
     1
102
RTVSPropertyOp27
 70
     1
102
RTVSPropertyOp28
 70
     1
102
RTVSPropertyOp29
 70
     1
102
RTVSPropertyOp30
 70
     1
102
RTVSPropertyOp31
 70
     1
102
RTVSPropertyOp32
 70
     1
102
RTVSPropertyOp33
 70
     1
102
RTVSPropertyOp34
 70
     1
102
RTVSPropertyOp35
 70
     1
102
RTVSPropertyOp36
 70
     1
102
RTVSPropertyOp37
 70
     1
102
RTVSPropertyOp38
 70
     1
102
RTVSPropertyOp39
 70
     1
102
RTVSPropertyOp40
 70
     1
102
RTVSPropertyOp41
 70
     1
102
RTVSPropertyOp42
 70
     1
102
RTVSPropertyOp43
 70
     1
102
RTVSPropertyOp44
 70
     1
102
RTVSPropertyOp45
 70
     1
102
RTVSPropertyOp46
 70
     1
102
RTVSPropertyOp47
 70
     1
102
RTVSPropertyOp48
 70
     1
102
RTVSPropertyOp49
 70
     1
102
RTVSPropertyOp50
 70
     1
102
RTVSPropertyOp51
 70
     0
102
RTVSPropertyOp52
 70
     0
102
RTVSPropertyOp53
 70
     1
102
RTVSPropertyOp54
 70
     1
102
RTVSPropertyOp55
 70
     1
102
RTVSPropertyOp56
 70
     1
102
RTVSPropertyOp57
 70
     1
102
RTVSPropertyOp58
 70
     1
102
RTVSPropertyOp59
 70
     1
102
RTVSPropertyOp60
 70
     1
102
RTVSPropertyOp61
 70
     1
102
RTVSPropertyOp62
 70
     1
  0
XRECORD
  5
4B7
102
{ACAD_REACTORS
330
4B6
102
}
330
4B6
100
AcDbXrecord
280
     1
102
RTVSPost2010Prop28
280
     0
102
RTVSPost2010PropOp28
 70
     1
102
RTVSPost2010Prop29
280
     1
102
RTVSPost2010PropOp29
 70
     1
102
RTVSPost2010Prop30
280
     1
102
RTVSPost2010PropOp30
 70
     1
102
RTVSPost2010Prop31
280
     0
102
RTVSPost2010PropOp31
 70
     1
102
RTVSPost2010Prop32
280
     0
102
RTVSPost2010PropOp32
 70
     1
102
RTVSPost2010Prop33
280
     0
102
RTVSPost2010PropOp33
 70
     1
102
RTVSPost2010Prop34
280
     0
102
RTVSPost2010PropOp34
 70
     1
102
RTVSPost2010Prop35
280
     0
102
RTVSPost2010PropOp35
 70
     1
102
RTVSPost2010Prop36
280
     0
102
RTVSPost2010PropOp36
 70
     1
102
RTVSPost2010Prop37
 90
       50
102
RTVSPost2010PropOp37
 70
     1
102
RTVSPost2010Prop38
140
0.0
102
RTVSPost2010PropOp38
 70
     1
102
RTVSPost2010Prop39
140
1.0
102
RTVSPost2010PropOp39
 70
     1
102
RTVSPost2010Prop40
 90
        0
102
RTVSPost2010PropOp40
 70
     1
102
RTVSPost2010Prop41ColorIndex
 90
       18
102
RTVSPost2010Prop41ColorRGB
 90
        0
102
RTVSPost2010PropOp41
 70
     1
102
RTVSPost2010Prop42
 90
       50
102
RTVSPost2010PropOp42
 70
     1
102
RTVSPost2010Prop43
 90
        3
102
RTVSPost2010PropOp43
 70
     1
102
RTVSPost2010Prop44ColorIndex
 90
        5
102
RTVSPost2010Prop44ColorRGB
 90
      255
102
RTVSPost2010PropOp44
 70
     1
102
RTVSPost2010Prop45
280
     0
102
RTVSPost2010PropOp45
 70
     1
102
RTVSPost2010Prop46
 90
       50
102
RTVSPost2010PropOp46
 70
     1
102
RTVSPost2010Prop47
 90
       50
102
RTVSPost2010PropOp47
 70
     1
102
RTVSPost2010Prop48
 90
       50
102
RTVSPost2010PropOp48
 70
     1
102
RTVSPost2010Prop49
280
     0
102
RTVSPost2010PropOp49
 70
     1
102
RTVSPost2010Prop50
 90
       50
102
RTVSPost2010PropOp50
 70
     1
102
RTVSPost2010Prop51ColorIndex
 90
      256
102
RTVSPost2010Prop51ColorRGB
 90
-16777216
102
RTVSPost2010PropOp51
 70
     0
102
RTVSPost2010Prop52
140
1.0
102
RTVSPost2010PropOp52
 70
     0
102
RTVSPost2010Prop53
 90
        2
102
RTVSPost2010PropOp53
 70
     1
102
RTVSPost2010Prop54
  1
strokes_ogs.tif
102
RTVSPost2010PropOp54
 70
     1
102
RTVSPost2010Prop55
280
     0
102
RTVSPost2010PropOp55
 70
     1
102
RTVSPost2010Prop56
140
1.0
102
RTVSPost2010PropOp56
 70
     1
102
RTVSPost2010Prop57
140
1.0
102
RTVSPost2010PropOp57
 70
     1
102
RTVSPropertyOp0
 70
     1
102
RTVSPropertyOp1
 70
     1
102
RTVSPropertyOp2
 70
     1
102
RTVSPropertyOp3
 70
     1
102
RTVSPropertyOp4
 70
     1
102
RTVSPropertyOp5
 70
     1
102
RTVSPropertyOp6
 70
     1
102
RTVSPropertyOp7
 70
     1
102
RTVSPropertyOp8
 70
     1
102
RTVSPropertyOp9
 70
     1
102
RTVSPropertyOp10
 70
     1
102
RTVSPropertyOp11
 70
     1
102
RTVSPropertyOp12
 70
     1
102
RTVSPropertyOp13
 70
     1
102
RTVSPropertyOp14
 70
     1
102
RTVSPropertyOp15
 70
     1
102
RTVSPropertyOp16
 70
     1
102
RTVSPropertyOp17
 70
     1
102
RTVSPropertyOp18
 70
     1
102
RTVSPropertyOp19
 70
     1
102
RTVSPropertyOp20
 70
     1
102
RTVSPropertyOp21
 70
     1
102
RTVSPropertyOp22
 70
     1
102
RTVSPropertyOp23
 70
     1
102
RTVSPropertyOp24
 70
     1
102
RTVSPropertyOp25
 70
     1
102
RTVSPropertyOp26
 70
     1
102
RTVSPropertyOp27
 70
     1
102
RTVSPropertyOp28
 70
     1
102
RTVSPropertyOp29
 70
     1
102
RTVSPropertyOp30
 70
     1
102
RTVSPropertyOp31
 70
     1
102
RTVSPropertyOp32
 70
     1
102
RTVSPropertyOp33
 70
     1
102
RTVSPropertyOp34
 70
     1
102
RTVSPropertyOp35
 70
     1
102
RTVSPropertyOp36
 70
     1
102
RTVSPropertyOp37
 70
     1
102
RTVSPropertyOp38
 70
     1
102
RTVSPropertyOp39
 70
     1
102
RTVSPropertyOp40
 70
     1
102
RTVSPropertyOp41
 70
     1
102
RTVSPropertyOp42
 70
     1
102
RTVSPropertyOp43
 70
     1
102
RTVSPropertyOp44
 70
     1
102
RTVSPropertyOp45
 70
     1
102
RTVSPropertyOp46
 70
     1
102
RTVSPropertyOp47
 70
     1
102
RTVSPropertyOp48
 70
     1
102
RTVSPropertyOp49
 70
     1
102
RTVSPropertyOp50
 70
     1
102
RTVSPropertyOp51
 70
     0
102
RTVSPropertyOp52
 70
     0
102
RTVSPropertyOp53
 70
     1
102
RTVSPropertyOp54
 70
     1
102
RTVSPropertyOp55
 70
     1
102
RTVSPropertyOp56
 70
     1
102
RTVSPropertyOp57
 70
     1
102
RTVSPropertyOp58
 70
     1
102
RTVSPropertyOp59
 70
     1
102
RTVSPropertyOp60
 70
     1
102
RTVSPropertyOp61
 70
     1
102
RTVSPropertyOp62
 70
     1
  0
XRECORD
  5
4BF
102
{ACAD_REACTORS
330
4BE
102
}
330
4BE
100
AcDbXrecord
280
     1
102
RTVSPost2010Prop28
280
     0
102
RTVSPost2010PropOp28
 70
     1
102
RTVSPost2010Prop29
280
     1
102
RTVSPost2010PropOp29
 70
     1
102
RTVSPost2010Prop30
280
     1
102
RTVSPost2010PropOp30
 70
     1
102
RTVSPost2010Prop31
280
     0
102
RTVSPost2010PropOp31
 70
     1
102
RTVSPost2010Prop32
280
     0
102
RTVSPost2010PropOp32
 70
     1
102
RTVSPost2010Prop33
280
     0
102
RTVSPost2010PropOp33
 70
     1
102
RTVSPost2010Prop34
280
     0
102
RTVSPost2010PropOp34
 70
     1
102
RTVSPost2010Prop35
280
     0
102
RTVSPost2010PropOp35
 70
     1
102
RTVSPost2010Prop36
280
     0
102
RTVSPost2010PropOp36
 70
     1
102
RTVSPost2010Prop37
 90
       50
102
RTVSPost2010PropOp37
 70
     1
102
RTVSPost2010Prop38
140
0.0
102
RTVSPost2010PropOp38
 70
     1
102
RTVSPost2010Prop39
140
1.0
102
RTVSPost2010PropOp39
 70
     1
102
RTVSPost2010Prop40
 90
        0
102
RTVSPost2010PropOp40
 70
     1
102
RTVSPost2010Prop41ColorIndex
 90
       18
102
RTVSPost2010Prop41ColorRGB
 90
        0
102
RTVSPost2010PropOp41
 70
     1
102
RTVSPost2010Prop42
 90
       50
102
RTVSPost2010PropOp42
 70
     1
102
RTVSPost2010Prop43
 90
        3
102
RTVSPost2010PropOp43
 70
     1
102
RTVSPost2010Prop44ColorIndex
 90
        5
102
RTVSPost2010Prop44ColorRGB
 90
      255
102
RTVSPost2010PropOp44
 70
     1
102
RTVSPost2010Prop45
280
     0
102
RTVSPost2010PropOp45
 70
     1
102
RTVSPost2010Prop46
 90
       50
102
RTVSPost2010PropOp46
 70
     1
102
RTVSPost2010Prop47
 90
       50
102
RTVSPost2010PropOp47
 70
     1
102
RTVSPost2010Prop48
 90
       50
102
RTVSPost2010PropOp48
 70
     1
102
RTVSPost2010Prop49
280
     0
102
RTVSPost2010PropOp49
 70
     1
102
RTVSPost2010Prop50
 90
       50
102
RTVSPost2010PropOp50
 70
     1
102
RTVSPost2010Prop51ColorIndex
 90
      256
102
RTVSPost2010Prop51ColorRGB
 90
-16777216
102
RTVSPost2010PropOp51
 70
     0
102
RTVSPost2010Prop52
140
1.0
102
RTVSPost2010PropOp52
 70
     0
102
RTVSPost2010Prop53
 90
        2
102
RTVSPost2010PropOp53
 70
     1
102
RTVSPost2010Prop54
  1
strokes_ogs.tif
102
RTVSPost2010PropOp54
 70
     1
102
RTVSPost2010Prop55
280
     0
102
RTVSPost2010PropOp55
 70
     1
102
RTVSPost2010Prop56
140
1.0
102
RTVSPost2010PropOp56
 70
     1
102
RTVSPost2010Prop57
140
1.0
102
RTVSPost2010PropOp57
 70
     1
102
RTVSPropertyOp0
 70
     1
102
RTVSPropertyOp1
 70
     1
102
RTVSPropertyOp2
 70
     1
102
RTVSPropertyOp3
 70
     1
102
RTVSPropertyOp4
 70
     1
102
RTVSPropertyOp5
 70
     1
102
RTVSPropertyOp6
 70
     1
102
RTVSPropertyOp7
 70
     1
102
RTVSPropertyOp8
 70
     1
102
RTVSPropertyOp9
 70
     1
102
RTVSPropertyOp10
 70
     1
102
RTVSPropertyOp11
 70
     1
102
RTVSPropertyOp12
 70
     1
102
RTVSPropertyOp13
 70
     1
102
RTVSPropertyOp14
 70
     1
102
RTVSPropertyOp15
 70
     1
102
RTVSPropertyOp16
 70
     1
102
RTVSPropertyOp17
 70
     1
102
RTVSPropertyOp18
 70
     1
102
RTVSPropertyOp19
 70
     1
102
RTVSPropertyOp20
 70
     1
102
RTVSPropertyOp21
 70
     1
102
RTVSPropertyOp22
 70
     1
102
RTVSPropertyOp23
 70
     1
102
RTVSPropertyOp24
 70
     1
102
RTVSPropertyOp25
 70
     1
102
RTVSPropertyOp26
 70
     1
102
RTVSPropertyOp27
 70
     1
102
RTVSPropertyOp28
 70
     1
102
RTVSPropertyOp29
 70
     1
102
RTVSPropertyOp30
 70
     1
102
RTVSPropertyOp31
 70
     1
102
RTVSPropertyOp32
 70
     1
102
RTVSPropertyOp33
 70
     1
102
RTVSPropertyOp34
 70
     1
102
RTVSPropertyOp35
 70
     1
102
RTVSPropertyOp36
 70
     1
102
RTVSPropertyOp37
 70
     1
102
RTVSPropertyOp38
 70
     1
102
RTVSPropertyOp39
 70
     1
102
RTVSPropertyOp40
 70
     1
102
RTVSPropertyOp41
 70
     1
102
RTVSPropertyOp42
 70
     1
102
RTVSPropertyOp43
 70
     1
102
RTVSPropertyOp44
 70
     1
102
RTVSPropertyOp45
 70
     1
102
RTVSPropertyOp46
 70
     1
102
RTVSPropertyOp47
 70
     1
102
RTVSPropertyOp48
 70
     1
102
RTVSPropertyOp49
 70
     1
102
RTVSPropertyOp50
 70
     1
102
RTVSPropertyOp51
 70
     0
102
RTVSPropertyOp52
 70
     0
102
RTVSPropertyOp53
 70
     1
102
RTVSPropertyOp54
 70
     1
102
RTVSPropertyOp55
 70
     1
102
RTVSPropertyOp56
 70
     1
102
RTVSPropertyOp57
 70
     1
102
RTVSPropertyOp58
 70
     1
102
RTVSPropertyOp59
 70
     1
102
RTVSPropertyOp60
 70
     1
102
RTVSPropertyOp61
 70
     1
102
RTVSPropertyOp62
 70
     1
  0
XRECORD
  5
4DB
102
{ACAD_REACTORS
330
4DA
102
}
330
4DA
100
AcDbXrecord
280
     1
102
RTVSPost2010Prop28
280
     0
102
RTVSPost2010PropOp28
 70
     1
102
RTVSPost2010Prop29
280
     1
102
RTVSPost2010PropOp29
 70
     1
102
RTVSPost2010Prop30
280
     1
102
RTVSPost2010PropOp30
 70
     1
102
RTVSPost2010Prop31
280
     0
102
RTVSPost2010PropOp31
 70
     1
102
RTVSPost2010Prop32
280
     0
102
RTVSPost2010PropOp32
 70
     1
102
RTVSPost2010Prop33
280
     0
102
RTVSPost2010PropOp33
 70
     1
102
RTVSPost2010Prop34
280
     0
102
RTVSPost2010PropOp34
 70
     1
102
RTVSPost2010Prop35
280
     0
102
RTVSPost2010PropOp35
 70
     1
102
RTVSPost2010Prop36
280
     0
102
RTVSPost2010PropOp36
 70
     1
102
RTVSPost2010Prop37
 90
       50
102
RTVSPost2010PropOp37
 70
     0
102
RTVSPost2010Prop38
140
0.0
102
RTVSPost2010PropOp38
 70
     0
102
RTVSPost2010Prop39
140
1.0
102
RTVSPost2010PropOp39
 70
     0
102
RTVSPost2010Prop40
 90
        0
102
RTVSPost2010PropOp40
 70
     0
102
RTVSPost2010Prop41ColorIndex
 90
       18
102
RTVSPost2010Prop41ColorRGB
 90
        0
102
RTVSPost2010PropOp41
 70
     0
102
RTVSPost2010Prop42
 90
       50
102
RTVSPost2010PropOp42
 70
     0
102
RTVSPost2010Prop43
 90
        3
102
RTVSPost2010PropOp43
 70
     0
102
RTVSPost2010Prop44ColorIndex
 90
        5
102
RTVSPost2010Prop44ColorRGB
 90
      255
102
RTVSPost2010PropOp44
 70
     0
102
RTVSPost2010Prop45
280
     0
102
RTVSPost2010PropOp45
 70
     1
102
RTVSPost2010Prop46
 90
       50
102
RTVSPost2010PropOp46
 70
     0
102
RTVSPost2010Prop47
 90
       50
102
RTVSPost2010PropOp47
 70
     0
102
RTVSPost2010Prop48
 90
       50
102
RTVSPost2010PropOp48
 70
     0
102
RTVSPost2010Prop49
280
     0
102
RTVSPost2010PropOp49
 70
     1
102
RTVSPost2010Prop50
 90
       50
102
RTVSPost2010PropOp50
 70
     0
102
RTVSPost2010Prop51ColorIndex
 90
      256
102
RTVSPost2010Prop51ColorRGB
 90
-16777216
102
RTVSPost2010PropOp51
 70
     0
102
RTVSPost2010Prop52
140
1.0
102
RTVSPost2010PropOp52
 70
     0
102
RTVSPost2010Prop53
 90
        2
102
RTVSPost2010PropOp53
 70
     0
102
RTVSPost2010Prop54
  1
strokes_ogs.tif
102
RTVSPost2010PropOp54
 70
     0
102
RTVSPost2010Prop55
280
     0
102
RTVSPost2010PropOp55
 70
     1
102
RTVSPost2010Prop56
140
1.0
102
RTVSPost2010PropOp56
 70
     0
102
RTVSPost2010Prop57
140
1.0
102
RTVSPost2010PropOp57
 70
     0
102
RTVSPropertyOp0
 70
     0
102
RTVSPropertyOp1
 70
     0
102
RTVSPropertyOp2
 70
     0
102
RTVSPropertyOp3
 70
     0
102
RTVSPropertyOp4
 70
     0
102
RTVSPropertyOp5
 70
     0
102
RTVSPropertyOp6
 70
     0
102
RTVSPropertyOp7
 70
     0
102
RTVSPropertyOp8
 70
     0
102
RTVSPropertyOp9
 70
     0
102
RTVSPropertyOp10
 70
     0
102
RTVSPropertyOp11
 70
     0
102
RTVSPropertyOp12
 70
     0
102
RTVSPropertyOp13
 70
     0
102
RTVSPropertyOp14
 70
     2
102
RTVSPropertyOp15
 70
     0
102
RTVSPropertyOp16
 70
     0
102
RTVSPropertyOp17
 70
     0
102
RTVSPropertyOp18
 70
     0
102
RTVSPropertyOp19
 70
     0
102
RTVSPropertyOp20
 70
     0
102
RTVSPropertyOp21
 70
     0
102
RTVSPropertyOp22
 70
     0
102
RTVSPropertyOp23
 70
     0
102
RTVSPropertyOp24
 70
     0
102
RTVSPropertyOp25
 70
     0
102
RTVSPropertyOp26
 70
     0
102
RTVSPropertyOp27
 70
     0
102
RTVSPropertyOp28
 70
     1
102
RTVSPropertyOp29
 70
     1
102
RTVSPropertyOp30
 70
     1
102
RTVSPropertyOp31
 70
     1
102
RTVSPropertyOp32
 70
     1
102
RTVSPropertyOp33
 70
     1
102
RTVSPropertyOp34
 70
     1
102
RTVSPropertyOp35
 70
     1
102
RTVSPropertyOp36
 70
     1
102
RTVSPropertyOp37
 70
     0
102
RTVSPropertyOp38
 70
     0
102
RTVSPropertyOp39
 70
     0
102
RTVSPropertyOp40
 70
     0
102
RTVSPropertyOp41
 70
     0
102
RTVSPropertyOp42
 70
     0
102
RTVSPropertyOp43
 70
     0
102
RTVSPropertyOp44
 70
     0
102
RTVSPropertyOp45
 70
     1
102
RTVSPropertyOp46
 70
     0
102
RTVSPropertyOp47
 70
     0
102
RTVSPropertyOp48
 70
     0
102
RTVSPropertyOp49
 70
     1
102
RTVSPropertyOp50
 70
     0
102
RTVSPropertyOp51
 70
     0
102
RTVSPropertyOp52
 70
     0
102
RTVSPropertyOp53
 70
     0
102
RTVSPropertyOp54
 70
     0
102
RTVSPropertyOp55
 70
     1
102
RTVSPropertyOp56
 70
     0
102
RTVSPropertyOp57
 70
     0
102
RTVSPropertyOp58
 70
     0
102
RTVSPropertyOp59
 70
     0
102
RTVSPropertyOp60
 70
     0
102
RTVSPropertyOp61
 70
     0
102
RTVSPropertyOp62
 70
     0
  0
XRECORD
  5
4CB
102
{ACAD_REACTORS
330
4CA
102
}
330
4CA
100
AcDbXrecord
280
     1
102
RTVSPost2010Prop28
280
     0
102
RTVSPost2010PropOp28
 70
     1
102
RTVSPost2010Prop29
280
     1
102
RTVSPost2010PropOp29
 70
     1
102
RTVSPost2010Prop30
280
     1
102
RTVSPost2010PropOp30
 70
     1
102
RTVSPost2010Prop31
280
     0
102
RTVSPost2010PropOp31
 70
     1
102
RTVSPost2010Prop32
280
     0
102
RTVSPost2010PropOp32
 70
     1
102
RTVSPost2010Prop33
280
     0
102
RTVSPost2010PropOp33
 70
     1
102
RTVSPost2010Prop34
280
     0
102
RTVSPost2010PropOp34
 70
     1
102
RTVSPost2010Prop35
280
     0
102
RTVSPost2010PropOp35
 70
     1
102
RTVSPost2010Prop36
280
     0
102
RTVSPost2010PropOp36
 70
     1
102
RTVSPost2010Prop37
 90
       50
102
RTVSPost2010PropOp37
 70
     1
102
RTVSPost2010Prop38
140
0.0
102
RTVSPost2010PropOp38
 70
     1
102
RTVSPost2010Prop39
140
1.0
102
RTVSPost2010PropOp39
 70
     1
102
RTVSPost2010Prop40
 90
        0
102
RTVSPost2010PropOp40
 70
     1
102
RTVSPost2010Prop41ColorIndex
 90
       18
102
RTVSPost2010Prop41ColorRGB
 90
        0
102
RTVSPost2010PropOp41
 70
     1
102
RTVSPost2010Prop42
 90
       50
102
RTVSPost2010PropOp42
 70
     1
102
RTVSPost2010Prop43
 90
        3
102
RTVSPost2010PropOp43
 70
     1
102
RTVSPost2010Prop44ColorIndex
 90
        5
102
RTVSPost2010Prop44ColorRGB
 90
      255
102
RTVSPost2010PropOp44
 70
     1
102
RTVSPost2010Prop45
280
     0
102
RTVSPost2010PropOp45
 70
     1
102
RTVSPost2010Prop46
 90
       50
102
RTVSPost2010PropOp46
 70
     1
102
RTVSPost2010Prop47
 90
       50
102
RTVSPost2010PropOp47
 70
     1
102
RTVSPost2010Prop48
 90
       50
102
RTVSPost2010PropOp48
 70
     1
102
RTVSPost2010Prop49
280
     0
102
RTVSPost2010PropOp49
 70
     1
102
RTVSPost2010Prop50
 90
       50
102
RTVSPost2010PropOp50
 70
     1
102
RTVSPost2010Prop51ColorIndex
 90
      256
102
RTVSPost2010Prop51ColorRGB
 90
-16777216
102
RTVSPost2010PropOp51
 70
     0
102
RTVSPost2010Prop52
140
1.0
102
RTVSPost2010PropOp52
 70
     0
102
RTVSPost2010Prop53
 90
        2
102
RTVSPost2010PropOp53
 70
     1
102
RTVSPost2010Prop54
  1
strokes_ogs.tif
102
RTVSPost2010PropOp54
 70
     1
102
RTVSPost2010Prop55
280
     0
102
RTVSPost2010PropOp55
 70
     1
102
RTVSPost2010Prop56
140
1.0
102
RTVSPost2010PropOp56
 70
     1
102
RTVSPost2010Prop57
140
1.0
102
RTVSPost2010PropOp57
 70
     1
102
RTVSPropertyOp0
 70
     1
102
RTVSPropertyOp1
 70
     1
102
RTVSPropertyOp2
 70
     1
102
RTVSPropertyOp3
 70
     1
102
RTVSPropertyOp4
 70
     1
102
RTVSPropertyOp5
 70
     1
102
RTVSPropertyOp6
 70
     1
102
RTVSPropertyOp7
 70
     1
102
RTVSPropertyOp8
 70
     1
102
RTVSPropertyOp9
 70
     1
102
RTVSPropertyOp10
 70
     1
102
RTVSPropertyOp11
 70
     1
102
RTVSPropertyOp12
 70
     1
102
RTVSPropertyOp13
 70
     1
102
RTVSPropertyOp14
 70
     1
102
RTVSPropertyOp15
 70
     1
102
RTVSPropertyOp16
 70
     1
102
RTVSPropertyOp17
 70
     1
102
RTVSPropertyOp18
 70
     1
102
RTVSPropertyOp19
 70
     1
102
RTVSPropertyOp20
 70
     1
102
RTVSPropertyOp21
 70
     1
102
RTVSPropertyOp22
 70
     1
102
RTVSPropertyOp23
 70
     1
102
RTVSPropertyOp24
 70
     1
102
RTVSPropertyOp25
 70
     1
102
RTVSPropertyOp26
 70
     1
102
RTVSPropertyOp27
 70
     1
102
RTVSPropertyOp28
 70
     1
102
RTVSPropertyOp29
 70
     1
102
RTVSPropertyOp30
 70
     1
102
RTVSPropertyOp31
 70
     1
102
RTVSPropertyOp32
 70
     1
102
RTVSPropertyOp33
 70
     1
102
RTVSPropertyOp34
 70
     1
102
RTVSPropertyOp35
 70
     1
102
RTVSPropertyOp36
 70
     1
102
RTVSPropertyOp37
 70
     1
102
RTVSPropertyOp38
 70
     1
102
RTVSPropertyOp39
 70
     1
102
RTVSPropertyOp40
 70
     1
102
RTVSPropertyOp41
 70
     1
102
RTVSPropertyOp42
 70
     1
102
RTVSPropertyOp43
 70
     1
102
RTVSPropertyOp44
 70
     1
102
RTVSPropertyOp45
 70
     1
102
RTVSPropertyOp46
 70
     1
102
RTVSPropertyOp47
 70
     1
102
RTVSPropertyOp48
 70
     1
102
RTVSPropertyOp49
 70
     1
102
RTVSPropertyOp50
 70
     1
102
RTVSPropertyOp51
 70
     0
102
RTVSPropertyOp52
 70
     0
102
RTVSPropertyOp53
 70
     1
102
RTVSPropertyOp54
 70
     1
102
RTVSPropertyOp55
 70
     1
102
RTVSPropertyOp56
 70
     1
102
RTVSPropertyOp57
 70
     1
102
RTVSPropertyOp58
 70
     1
102
RTVSPropertyOp59
 70
     1
102
RTVSPropertyOp60
 70
     1
102
RTVSPropertyOp61
 70
     1
102
RTVSPropertyOp62
 70
     1
  0
XRECORD
  5
4DD
102
{ACAD_REACTORS
330
4DC
102
}
330
4DC
100
AcDbXrecord
280
     1
102
RTVSPost2010Prop28
280
     0
102
RTVSPost2010PropOp28
 70
     1
102
RTVSPost2010Prop29
280
     1
102
RTVSPost2010PropOp29
 70
     1
102
RTVSPost2010Prop30
280
     1
102
RTVSPost2010PropOp30
 70
     1
102
RTVSPost2010Prop31
280
     0
102
RTVSPost2010PropOp31
 70
     1
102
RTVSPost2010Prop32
280
     0
102
RTVSPost2010PropOp32
 70
     1
102
RTVSPost2010Prop33
280
     0
102
RTVSPost2010PropOp33
 70
     1
102
RTVSPost2010Prop34
280
     0
102
RTVSPost2010PropOp34
 70
     1
102
RTVSPost2010Prop35
280
     0
102
RTVSPost2010PropOp35
 70
     1
102
RTVSPost2010Prop36
280
     0
102
RTVSPost2010PropOp36
 70
     1
102
RTVSPost2010Prop37
 90
       50
102
RTVSPost2010PropOp37
 70
     0
102
RTVSPost2010Prop38
140
0.0
102
RTVSPost2010PropOp38
 70
     0
102
RTVSPost2010Prop39
140
1.0
102
RTVSPost2010PropOp39
 70
     0
102
RTVSPost2010Prop40
 90
        0
102
RTVSPost2010PropOp40
 70
     0
102
RTVSPost2010Prop41ColorIndex
 90
       18
102
RTVSPost2010Prop41ColorRGB
 90
        0
102
RTVSPost2010PropOp41
 70
     0
102
RTVSPost2010Prop42
 90
       50
102
RTVSPost2010PropOp42
 70
     0
102
RTVSPost2010Prop43
 90
        3
102
RTVSPost2010PropOp43
 70
     0
102
RTVSPost2010Prop44ColorIndex
 90
        5
102
RTVSPost2010Prop44ColorRGB
 90
      255
102
RTVSPost2010PropOp44
 70
     0
102
RTVSPost2010Prop45
280
     0
102
RTVSPost2010PropOp45
 70
     1
102
RTVSPost2010Prop46
 90
       50
102
RTVSPost2010PropOp46
 70
     0
102
RTVSPost2010Prop47
 90
       50
102
RTVSPost2010PropOp47
 70
     0
102
RTVSPost2010Prop48
 90
       50
102
RTVSPost2010PropOp48
 70
     0
102
RTVSPost2010Prop49
280
     0
102
RTVSPost2010PropOp49
 70
     1
102
RTVSPost2010Prop50
 90
       50
102
RTVSPost2010PropOp50
 70
     0
102
RTVSPost2010Prop51ColorIndex
 90
      256
102
RTVSPost2010Prop51ColorRGB
 90
-16777216
102
RTVSPost2010PropOp51
 70
     0
102
RTVSPost2010Prop52
140
1.0
102
RTVSPost2010PropOp52
 70
     0
102
RTVSPost2010Prop53
 90
        2
102
RTVSPost2010PropOp53
 70
     0
102
RTVSPost2010Prop54
  1
strokes_ogs.tif
102
RTVSPost2010PropOp54
 70
     0
102
RTVSPost2010Prop55
280
     0
102
RTVSPost2010PropOp55
 70
     1
102
RTVSPost2010Prop56
140
1.0
102
RTVSPost2010PropOp56
 70
     0
102
RTVSPost2010Prop57
140
1.0
102
RTVSPost2010PropOp57
 70
     0
102
RTVSPropertyOp0
 70
     0
102
RTVSPropertyOp1
 70
     0
102
RTVSPropertyOp2
 70
     0
102
RTVSPropertyOp3
 70
     0
102
RTVSPropertyOp4
 70
     0
102
RTVSPropertyOp5
 70
     0
102
RTVSPropertyOp6
 70
     0
102
RTVSPropertyOp7
 70
     0
102
RTVSPropertyOp8
 70
     0
102
RTVSPropertyOp9
 70
     0
102
RTVSPropertyOp10
 70
     0
102
RTVSPropertyOp11
 70
     0
102
RTVSPropertyOp12
 70
     0
102
RTVSPropertyOp13
 70
     0
102
RTVSPropertyOp14
 70
     2
102
RTVSPropertyOp15
 70
     0
102
RTVSPropertyOp16
 70
     0
102
RTVSPropertyOp17
 70
     0
102
RTVSPropertyOp18
 70
     0
102
RTVSPropertyOp19
 70
     0
102
RTVSPropertyOp20
 70
     0
102
RTVSPropertyOp21
 70
     0
102
RTVSPropertyOp22
 70
     0
102
RTVSPropertyOp23
 70
     0
102
RTVSPropertyOp24
 70
     0
102
RTVSPropertyOp25
 70
     0
102
RTVSPropertyOp26
 70
     0
102
RTVSPropertyOp27
 70
     0
102
RTVSPropertyOp28
 70
     1
102
RTVSPropertyOp29
 70
     1
102
RTVSPropertyOp30
 70
     1
102
RTVSPropertyOp31
 70
     1
102
RTVSPropertyOp32
 70
     1
102
RTVSPropertyOp33
 70
     1
102
RTVSPropertyOp34
 70
     1
102
RTVSPropertyOp35
 70
     1
102
RTVSPropertyOp36
 70
     1
102
RTVSPropertyOp37
 70
     0
102
RTVSPropertyOp38
 70
     0
102
RTVSPropertyOp39
 70
     0
102
RTVSPropertyOp40
 70
     0
102
RTVSPropertyOp41
 70
     0
102
RTVSPropertyOp42
 70
     0
102
RTVSPropertyOp43
 70
     0
102
RTVSPropertyOp44
 70
     0
102
RTVSPropertyOp45
 70
     1
102
RTVSPropertyOp46
 70
     0
102
RTVSPropertyOp47
 70
     0
102
RTVSPropertyOp48
 70
     0
102
RTVSPropertyOp49
 70
     1
102
RTVSPropertyOp50
 70
     0
102
RTVSPropertyOp51
 70
     0
102
RTVSPropertyOp52
 70
     0
102
RTVSPropertyOp53
 70
     0
102
RTVSPropertyOp54
 70
     0
102
RTVSPropertyOp55
 70
     1
102
RTVSPropertyOp56
 70
     0
102
RTVSPropertyOp57
 70
     0
102
RTVSPropertyOp58
 70
     0
102
RTVSPropertyOp59
 70
     0
102
RTVSPropertyOp60
 70
     0
102
RTVSPropertyOp61
 70
     0
102
RTVSPropertyOp62
 70
     0
  0
XRECORD
  5
4C3
102
{ACAD_REACTORS
330
4C2
102
}
330
4C2
100
AcDbXrecord
280
     1
102
RTVSPost2010Prop28
280
     0
102
RTVSPost2010PropOp28
 70
     1
102
RTVSPost2010Prop29
280
     1
102
RTVSPost2010PropOp29
 70
     1
102
RTVSPost2010Prop30
280
     1
102
RTVSPost2010PropOp30
 70
     1
102
RTVSPost2010Prop31
280
     0
102
RTVSPost2010PropOp31
 70
     1
102
RTVSPost2010Prop32
280
     0
102
RTVSPost2010PropOp32
 70
     1
102
RTVSPost2010Prop33
280
     0
102
RTVSPost2010PropOp33
 70
     1
102
RTVSPost2010Prop34
280
     0
102
RTVSPost2010PropOp34
 70
     1
102
RTVSPost2010Prop35
280
     0
102
RTVSPost2010PropOp35
 70
     1
102
RTVSPost2010Prop36
280
     0
102
RTVSPost2010PropOp36
 70
     1
102
RTVSPost2010Prop37
 90
       50
102
RTVSPost2010PropOp37
 70
     1
102
RTVSPost2010Prop38
140
0.0
102
RTVSPost2010PropOp38
 70
     1
102
RTVSPost2010Prop39
140
1.0
102
RTVSPost2010PropOp39
 70
     1
102
RTVSPost2010Prop40
 90
        0
102
RTVSPost2010PropOp40
 70
     1
102
RTVSPost2010Prop41ColorIndex
 90
       18
102
RTVSPost2010Prop41ColorRGB
 90
        0
102
RTVSPost2010PropOp41
 70
     1
102
RTVSPost2010Prop42
 90
       50
102
RTVSPost2010PropOp42
 70
     1
102
RTVSPost2010Prop43
 90
        3
102
RTVSPost2010PropOp43
 70
     1
102
RTVSPost2010Prop44ColorIndex
 90
        5
102
RTVSPost2010Prop44ColorRGB
 90
      255
102
RTVSPost2010PropOp44
 70
     1
102
RTVSPost2010Prop45
280
     0
102
RTVSPost2010PropOp45
 70
     1
102
RTVSPost2010Prop46
 90
       50
102
RTVSPost2010PropOp46
 70
     1
102
RTVSPost2010Prop47
 90
       50
102
RTVSPost2010PropOp47
 70
     1
102
RTVSPost2010Prop48
 90
       50
102
RTVSPost2010PropOp48
 70
     1
102
RTVSPost2010Prop49
280
     0
102
RTVSPost2010PropOp49
 70
     1
102
RTVSPost2010Prop50
 90
       50
102
RTVSPost2010PropOp50
 70
     1
102
RTVSPost2010Prop51ColorIndex
 90
      256
102
RTVSPost2010Prop51ColorRGB
 90
-16777216
102
RTVSPost2010PropOp51
 70
     0
102
RTVSPost2010Prop52
140
1.0
102
RTVSPost2010PropOp52
 70
     0
102
RTVSPost2010Prop53
 90
        2
102
RTVSPost2010PropOp53
 70
     1
102
RTVSPost2010Prop54
  1
strokes_ogs.tif
102
RTVSPost2010PropOp54
 70
     1
102
RTVSPost2010Prop55
280
     0
102
RTVSPost2010PropOp55
 70
     1
102
RTVSPost2010Prop56
140
1.0
102
RTVSPost2010PropOp56
 70
     1
102
RTVSPost2010Prop57
140
1.0
102
RTVSPost2010PropOp57
 70
     1
102
RTVSPropertyOp0
 70
     1
102
RTVSPropertyOp1
 70
     1
102
RTVSPropertyOp2
 70
     1
102
RTVSPropertyOp3
 70
     1
102
RTVSPropertyOp4
 70
     1
102
RTVSPropertyOp5
 70
     1
102
RTVSPropertyOp6
 70
     1
102
RTVSPropertyOp7
 70
     1
102
RTVSPropertyOp8
 70
     1
102
RTVSPropertyOp9
 70
     1
102
RTVSPropertyOp10
 70
     1
102
RTVSPropertyOp11
 70
     1
102
RTVSPropertyOp12
 70
     1
102
RTVSPropertyOp13
 70
     1
102
RTVSPropertyOp14
 70
     1
102
RTVSPropertyOp15
 70
     1
102
RTVSPropertyOp16
 70
     1
102
RTVSPropertyOp17
 70
     1
102
RTVSPropertyOp18
 70
     1
102
RTVSPropertyOp19
 70
     1
102
RTVSPropertyOp20
 70
     1
102
RTVSPropertyOp21
 70
     1
102
RTVSPropertyOp22
 70
     1
102
RTVSPropertyOp23
 70
     1
102
RTVSPropertyOp24
 70
     1
102
RTVSPropertyOp25
 70
     1
102
RTVSPropertyOp26
 70
     1
102
RTVSPropertyOp27
 70
     1
102
RTVSPropertyOp28
 70
     1
102
RTVSPropertyOp29
 70
     1
102
RTVSPropertyOp30
 70
     1
102
RTVSPropertyOp31
 70
     1
102
RTVSPropertyOp32
 70
     1
102
RTVSPropertyOp33
 70
     1
102
RTVSPropertyOp34
 70
     1
102
RTVSPropertyOp35
 70
     1
102
RTVSPropertyOp36
 70
     1
102
RTVSPropertyOp37
 70
     1
102
RTVSPropertyOp38
 70
     1
102
RTVSPropertyOp39
 70
     1
102
RTVSPropertyOp40
 70
     1
102
RTVSPropertyOp41
 70
     1
102
RTVSPropertyOp42
 70
     1
102
RTVSPropertyOp43
 70
     1
102
RTVSPropertyOp44
 70
     1
102
RTVSPropertyOp45
 70
     1
102
RTVSPropertyOp46
 70
     1
102
RTVSPropertyOp47
 70
     1
102
RTVSPropertyOp48
 70
     1
102
RTVSPropertyOp49
 70
     1
102
RTVSPropertyOp50
 70
     1
102
RTVSPropertyOp51
 70
     0
102
RTVSPropertyOp52
 70
     0
102
RTVSPropertyOp53
 70
     1
102
RTVSPropertyOp54
 70
     1
102
RTVSPropertyOp55
 70
     1
102
RTVSPropertyOp56
 70
     1
102
RTVSPropertyOp57
 70
     1
102
RTVSPropertyOp58
 70
     1
102
RTVSPropertyOp59
 70
     1
102
RTVSPropertyOp60
 70
     1
102
RTVSPropertyOp61
 70
     1
102
RTVSPropertyOp62
 70
     1
  0
XRECORD
  5
4D9
102
{ACAD_REACTORS
330
4D8
102
}
330
4D8
100
AcDbXrecord
280
     1
102
RTVSPost2010Prop28
280
     0
102
RTVSPost2010PropOp28
 70
     1
102
RTVSPost2010Prop29
280
     1
102
RTVSPost2010PropOp29
 70
     1
102
RTVSPost2010Prop30
280
     1
102
RTVSPost2010PropOp30
 70
     1
102
RTVSPost2010Prop31
280
     0
102
RTVSPost2010PropOp31
 70
     1
102
RTVSPost2010Prop32
280
     0
102
RTVSPost2010PropOp32
 70
     1
102
RTVSPost2010Prop33
280
     0
102
RTVSPost2010PropOp33
 70
     1
102
RTVSPost2010Prop34
280
     0
102
RTVSPost2010PropOp34
 70
     1
102
RTVSPost2010Prop35
280
     0
102
RTVSPost2010PropOp35
 70
     1
102
RTVSPost2010Prop36
280
     0
102
RTVSPost2010PropOp36
 70
     1
102
RTVSPost2010Prop37
 90
       50
102
RTVSPost2010PropOp37
 70
     1
102
RTVSPost2010Prop38
140
0.0
102
RTVSPost2010PropOp38
 70
     1
102
RTVSPost2010Prop39
140
1.0
102
RTVSPost2010PropOp39
 70
     1
102
RTVSPost2010Prop40
 90
        0
102
RTVSPost2010PropOp40
 70
     1
102
RTVSPost2010Prop41ColorIndex
 90
       18
102
RTVSPost2010Prop41ColorRGB
 90
        0
102
RTVSPost2010PropOp41
 70
     1
102
RTVSPost2010Prop42
 90
       50
102
RTVSPost2010PropOp42
 70
     1
102
RTVSPost2010Prop43
 90
        3
102
RTVSPost2010PropOp43
 70
     1
102
RTVSPost2010Prop44ColorIndex
 90
        5
102
RTVSPost2010Prop44ColorRGB
 90
      255
102
RTVSPost2010PropOp44
 70
     1
102
RTVSPost2010Prop45
280
     0
102
RTVSPost2010PropOp45
 70
     1
102
RTVSPost2010Prop46
 90
       50
102
RTVSPost2010PropOp46
 70
     1
102
RTVSPost2010Prop47
 90
       50
102
RTVSPost2010PropOp47
 70
     1
102
RTVSPost2010Prop48
 90
       50
102
RTVSPost2010PropOp48
 70
     1
102
RTVSPost2010Prop49
280
     0
102
RTVSPost2010PropOp49
 70
     1
102
RTVSPost2010Prop50
 90
       50
102
RTVSPost2010PropOp50
 70
     1
102
RTVSPost2010Prop51ColorIndex
 90
      256
102
RTVSPost2010Prop51ColorRGB
 90
-16777216
102
RTVSPost2010PropOp51
 70
     0
102
RTVSPost2010Prop52
140
1.0
102
RTVSPost2010PropOp52
 70
     0
102
RTVSPost2010Prop53
 90
        2
102
RTVSPost2010PropOp53
 70
     1
102
RTVSPost2010Prop54
  1
strokes_ogs.tif
102
RTVSPost2010PropOp54
 70
     1
102
RTVSPost2010Prop55
280
     0
102
RTVSPost2010PropOp55
 70
     1
102
RTVSPost2010Prop56
140
1.0
102
RTVSPost2010PropOp56
 70
     1
102
RTVSPost2010Prop57
140
1.0
102
RTVSPost2010PropOp57
 70
     1
102
RTVSPropertyOp0
 70
     1
102
RTVSPropertyOp1
 70
     1
102
RTVSPropertyOp2
 70
     1
102
RTVSPropertyOp3
 70
     1
102
RTVSPropertyOp4
 70
     1
102
RTVSPropertyOp5
 70
     1
102
RTVSPropertyOp6
 70
     1
102
RTVSPropertyOp7
 70
     1
102
RTVSPropertyOp8
 70
     1
102
RTVSPropertyOp9
 70
     1
102
RTVSPropertyOp10
 70
     1
102
RTVSPropertyOp11
 70
     1
102
RTVSPropertyOp12
 70
     1
102
RTVSPropertyOp13
 70
     1
102
RTVSPropertyOp14
 70
     1
102
RTVSPropertyOp15
 70
     1
102
RTVSPropertyOp16
 70
     1
102
RTVSPropertyOp17
 70
     1
102
RTVSPropertyOp18
 70
     1
102
RTVSPropertyOp19
 70
     1
102
RTVSPropertyOp20
 70
     1
102
RTVSPropertyOp21
 70
     1
102
RTVSPropertyOp22
 70
     1
102
RTVSPropertyOp23
 70
     1
102
RTVSPropertyOp24
 70
     1
102
RTVSPropertyOp25
 70
     1
102
RTVSPropertyOp26
 70
     1
102
RTVSPropertyOp27
 70
     1
102
RTVSPropertyOp28
 70
     1
102
RTVSPropertyOp29
 70
     1
102
RTVSPropertyOp30
 70
     1
102
RTVSPropertyOp31
 70
     1
102
RTVSPropertyOp32
 70
     1
102
RTVSPropertyOp33
 70
     1
102
RTVSPropertyOp34
 70
     1
102
RTVSPropertyOp35
 70
     1
102
RTVSPropertyOp36
 70
     1
102
RTVSPropertyOp37
 70
     1
102
RTVSPropertyOp38
 70
     1
102
RTVSPropertyOp39
 70
     1
102
RTVSPropertyOp40
 70
     1
102
RTVSPropertyOp41
 70
     1
102
RTVSPropertyOp42
 70
     1
102
RTVSPropertyOp43
 70
     1
102
RTVSPropertyOp44
 70
     1
102
RTVSPropertyOp45
 70
     1
102
RTVSPropertyOp46
 70
     1
102
RTVSPropertyOp47
 70
     1
102
RTVSPropertyOp48
 70
     1
102
RTVSPropertyOp49
 70
     1
102
RTVSPropertyOp50
 70
     1
102
RTVSPropertyOp51
 70
     0
102
RTVSPropertyOp52
 70
     0
102
RTVSPropertyOp53
 70
     1
102
RTVSPropertyOp54
 70
     1
102
RTVSPropertyOp55
 70
     1
102
RTVSPropertyOp56
 70
     1
102
RTVSPropertyOp57
 70
     1
102
RTVSPropertyOp58
 70
     1
102
RTVSPropertyOp59
 70
     1
102
RTVSPropertyOp60
 70
     1
102
RTVSPropertyOp61
 70
     1
102
RTVSPropertyOp62
 70
     1
  0
XRECORD
  5
4D7
102
{ACAD_REACTORS
330
4D6
102
}
330
4D6
100
AcDbXrecord
280
     1
102
RTVSPost2010Prop28
280
     0
102
RTVSPost2010PropOp28
 70
     1
102
RTVSPost2010Prop29
280
     1
102
RTVSPost2010PropOp29
 70
     1
102
RTVSPost2010Prop30
280
     1
102
RTVSPost2010PropOp30
 70
     1
102
RTVSPost2010Prop31
280
     0
102
RTVSPost2010PropOp31
 70
     1
102
RTVSPost2010Prop32
280
     0
102
RTVSPost2010PropOp32
 70
     1
102
RTVSPost2010Prop33
280
     0
102
RTVSPost2010PropOp33
 70
     1
102
RTVSPost2010Prop34
280
     0
102
RTVSPost2010PropOp34
 70
     1
102
RTVSPost2010Prop35
280
     0
102
RTVSPost2010PropOp35
 70
     1
102
RTVSPost2010Prop36
280
     0
102
RTVSPost2010PropOp36
 70
     1
102
RTVSPost2010Prop37
 90
       50
102
RTVSPost2010PropOp37
 70
     1
102
RTVSPost2010Prop38
140
0.0
102
RTVSPost2010PropOp38
 70
     1
102
RTVSPost2010Prop39
140
1.0
102
RTVSPost2010PropOp39
 70
     1
102
RTVSPost2010Prop40
 90
        0
102
RTVSPost2010PropOp40
 70
     1
102
RTVSPost2010Prop41ColorIndex
 90
       18
102
RTVSPost2010Prop41ColorRGB
 90
        0
102
RTVSPost2010PropOp41
 70
     1
102
RTVSPost2010Prop42
 90
       50
102
RTVSPost2010PropOp42
 70
     1
102
RTVSPost2010Prop43
 90
        3
102
RTVSPost2010PropOp43
 70
     1
102
RTVSPost2010Prop44ColorIndex
 90
        5
102
RTVSPost2010Prop44ColorRGB
 90
      255
102
RTVSPost2010PropOp44
 70
     1
102
RTVSPost2010Prop45
280
     0
102
RTVSPost2010PropOp45
 70
     1
102
RTVSPost2010Prop46
 90
       50
102
RTVSPost2010PropOp46
 70
     1
102
RTVSPost2010Prop47
 90
       50
102
RTVSPost2010PropOp47
 70
     1
102
RTVSPost2010Prop48
 90
       50
102
RTVSPost2010PropOp48
 70
     1
102
RTVSPost2010Prop49
280
     0
102
RTVSPost2010PropOp49
 70
     1
102
RTVSPost2010Prop50
 90
       50
102
RTVSPost2010PropOp50
 70
     1
102
RTVSPost2010Prop51ColorIndex
 90
      256
102
RTVSPost2010Prop51ColorRGB
 90
-16777216
102
RTVSPost2010PropOp51
 70
     0
102
RTVSPost2010Prop52
140
1.0
102
RTVSPost2010PropOp52
 70
     0
102
RTVSPost2010Prop53
 90
        2
102
RTVSPost2010PropOp53
 70
     1
102
RTVSPost2010Prop54
  1
strokes_ogs.tif
102
RTVSPost2010PropOp54
 70
     1
102
RTVSPost2010Prop55
280
     0
102
RTVSPost2010PropOp55
 70
     1
102
RTVSPost2010Prop56
140
1.0
102
RTVSPost2010PropOp56
 70
     1
102
RTVSPost2010Prop57
140
1.0
102
RTVSPost2010PropOp57
 70
     1
102
RTVSPropertyOp0
 70
     1
102
RTVSPropertyOp1
 70
     1
102
RTVSPropertyOp2
 70
     1
102
RTVSPropertyOp3
 70
     1
102
RTVSPropertyOp4
 70
     1
102
RTVSPropertyOp5
 70
     1
102
RTVSPropertyOp6
 70
     1
102
RTVSPropertyOp7
 70
     1
102
RTVSPropertyOp8
 70
     1
102
RTVSPropertyOp9
 70
     1
102
RTVSPropertyOp10
 70
     1
102
RTVSPropertyOp11
 70
     1
102
RTVSPropertyOp12
 70
     1
102
RTVSPropertyOp13
 70
     1
102
RTVSPropertyOp14
 70
     1
102
RTVSPropertyOp15
 70
     1
102
RTVSPropertyOp16
 70
     1
102
RTVSPropertyOp17
 70
     1
102
RTVSPropertyOp18
 70
     1
102
RTVSPropertyOp19
 70
     1
102
RTVSPropertyOp20
 70
     1
102
RTVSPropertyOp21
 70
     1
102
RTVSPropertyOp22
 70
     1
102
RTVSPropertyOp23
 70
     1
102
RTVSPropertyOp24
 70
     1
102
RTVSPropertyOp25
 70
     1
102
RTVSPropertyOp26
 70
     1
102
RTVSPropertyOp27
 70
     1
102
RTVSPropertyOp28
 70
     1
102
RTVSPropertyOp29
 70
     1
102
RTVSPropertyOp30
 70
     1
102
RTVSPropertyOp31
 70
     1
102
RTVSPropertyOp32
 70
     1
102
RTVSPropertyOp33
 70
     1
102
RTVSPropertyOp34
 70
     1
102
RTVSPropertyOp35
 70
     1
102
RTVSPropertyOp36
 70
     1
102
RTVSPropertyOp37
 70
     1
102
RTVSPropertyOp38
 70
     1
102
RTVSPropertyOp39
 70
     1
102
RTVSPropertyOp40
 70
     1
102
RTVSPropertyOp41
 70
     1
102
RTVSPropertyOp42
 70
     1
102
RTVSPropertyOp43
 70
     1
102
RTVSPropertyOp44
 70
     1
102
RTVSPropertyOp45
 70
     1
102
RTVSPropertyOp46
 70
     1
102
RTVSPropertyOp47
 70
     1
102
RTVSPropertyOp48
 70
     1
102
RTVSPropertyOp49
 70
     1
102
RTVSPropertyOp50
 70
     1
102
RTVSPropertyOp51
 70
     0
102
RTVSPropertyOp52
 70
     0
102
RTVSPropertyOp53
 70
     1
102
RTVSPropertyOp54
 70
     1
102
RTVSPropertyOp55
 70
     1
102
RTVSPropertyOp56
 70
     1
102
RTVSPropertyOp57
 70
     1
102
RTVSPropertyOp58
 70
     1
102
RTVSPropertyOp59
 70
     1
102
RTVSPropertyOp60
 70
     1
102
RTVSPropertyOp61
 70
     1
102
RTVSPropertyOp62
 70
     1
  0
XRECORD
  5
4D1
102
{ACAD_REACTORS
330
4D0
102
}
330
4D0
100
AcDbXrecord
280
     1
102
RTVSPost2010Prop28
280
     0
102
RTVSPost2010PropOp28
 70
     1
102
RTVSPost2010Prop29
280
     1
102
RTVSPost2010PropOp29
 70
     1
102
RTVSPost2010Prop30
280
     1
102
RTVSPost2010PropOp30
 70
     1
102
RTVSPost2010Prop31
280
     0
102
RTVSPost2010PropOp31
 70
     1
102
RTVSPost2010Prop32
280
     0
102
RTVSPost2010PropOp32
 70
     1
102
RTVSPost2010Prop33
280
     0
102
RTVSPost2010PropOp33
 70
     1
102
RTVSPost2010Prop34
280
     0
102
RTVSPost2010PropOp34
 70
     1
102
RTVSPost2010Prop35
280
     0
102
RTVSPost2010PropOp35
 70
     1
102
RTVSPost2010Prop36
280
     0
102
RTVSPost2010PropOp36
 70
     1
102
RTVSPost2010Prop37
 90
       50
102
RTVSPost2010PropOp37
 70
     1
102
RTVSPost2010Prop38
140
0.0
102
RTVSPost2010PropOp38
 70
     1
102
RTVSPost2010Prop39
140
1.0
102
RTVSPost2010PropOp39
 70
     1
102
RTVSPost2010Prop40
 90
        0
102
RTVSPost2010PropOp40
 70
     1
102
RTVSPost2010Prop41ColorIndex
 90
       18
102
RTVSPost2010Prop41ColorRGB
 90
        0
102
RTVSPost2010PropOp41
 70
     1
102
RTVSPost2010Prop42
 90
       50
102
RTVSPost2010PropOp42
 70
     1
102
RTVSPost2010Prop43
 90
        3
102
RTVSPost2010PropOp43
 70
     1
102
RTVSPost2010Prop44ColorIndex
 90
        5
102
RTVSPost2010Prop44ColorRGB
 90
      255
102
RTVSPost2010PropOp44
 70
     1
102
RTVSPost2010Prop45
280
     0
102
RTVSPost2010PropOp45
 70
     1
102
RTVSPost2010Prop46
 90
       50
102
RTVSPost2010PropOp46
 70
     1
102
RTVSPost2010Prop47
 90
       50
102
RTVSPost2010PropOp47
 70
     1
102
RTVSPost2010Prop48
 90
       50
102
RTVSPost2010PropOp48
 70
     1
102
RTVSPost2010Prop49
280
     0
102
RTVSPost2010PropOp49
 70
     1
102
RTVSPost2010Prop50
 90
       50
102
RTVSPost2010PropOp50
 70
     1
102
RTVSPost2010Prop51ColorIndex
 90
      256
102
RTVSPost2010Prop51ColorRGB
 90
-16777216
102
RTVSPost2010PropOp51
 70
     0
102
RTVSPost2010Prop52
140
1.0
102
RTVSPost2010PropOp52
 70
     0
102
RTVSPost2010Prop53
 90
        2
102
RTVSPost2010PropOp53
 70
     1
102
RTVSPost2010Prop54
  1
strokes_ogs.tif
102
RTVSPost2010PropOp54
 70
     1
102
RTVSPost2010Prop55
280
     0
102
RTVSPost2010PropOp55
 70
     1
102
RTVSPost2010Prop56
140
1.0
102
RTVSPost2010PropOp56
 70
     1
102
RTVSPost2010Prop57
140
1.0
102
RTVSPost2010PropOp57
 70
     1
102
RTVSPropertyOp0
 70
     1
102
RTVSPropertyOp1
 70
     1
102
RTVSPropertyOp2
 70
     1
102
RTVSPropertyOp3
 70
     1
102
RTVSPropertyOp4
 70
     1
102
RTVSPropertyOp5
 70
     1
102
RTVSPropertyOp6
 70
     1
102
RTVSPropertyOp7
 70
     1
102
RTVSPropertyOp8
 70
     1
102
RTVSPropertyOp9
 70
     1
102
RTVSPropertyOp10
 70
     1
102
RTVSPropertyOp11
 70
     1
102
RTVSPropertyOp12
 70
     1
102
RTVSPropertyOp13
 70
     1
102
RTVSPropertyOp14
 70
     1
102
RTVSPropertyOp15
 70
     1
102
RTVSPropertyOp16
 70
     1
102
RTVSPropertyOp17
 70
     1
102
RTVSPropertyOp18
 70
     1
102
RTVSPropertyOp19
 70
     1
102
RTVSPropertyOp20
 70
     1
102
RTVSPropertyOp21
 70
     1
102
RTVSPropertyOp22
 70
     1
102
RTVSPropertyOp23
 70
     1
102
RTVSPropertyOp24
 70
     1
102
RTVSPropertyOp25
 70
     1
102
RTVSPropertyOp26
 70
     1
102
RTVSPropertyOp27
 70
     1
102
RTVSPropertyOp28
 70
     1
102
RTVSPropertyOp29
 70
     1
102
RTVSPropertyOp30
 70
     1
102
RTVSPropertyOp31
 70
     1
102
RTVSPropertyOp32
 70
     1
102
RTVSPropertyOp33
 70
     1
102
RTVSPropertyOp34
 70
     1
102
RTVSPropertyOp35
 70
     1
102
RTVSPropertyOp36
 70
     1
102
RTVSPropertyOp37
 70
     1
102
RTVSPropertyOp38
 70
     1
102
RTVSPropertyOp39
 70
     1
102
RTVSPropertyOp40
 70
     1
102
RTVSPropertyOp41
 70
     1
102
RTVSPropertyOp42
 70
     1
102
RTVSPropertyOp43
 70
     1
102
RTVSPropertyOp44
 70
     1
102
RTVSPropertyOp45
 70
     1
102
RTVSPropertyOp46
 70
     1
102
RTVSPropertyOp47
 70
     1
102
RTVSPropertyOp48
 70
     1
102
RTVSPropertyOp49
 70
     1
102
RTVSPropertyOp50
 70
     1
102
RTVSPropertyOp51
 70
     0
102
RTVSPropertyOp52
 70
     0
102
RTVSPropertyOp53
 70
     1
102
RTVSPropertyOp54
 70
     1
102
RTVSPropertyOp55
 70
     1
102
RTVSPropertyOp56
 70
     1
102
RTVSPropertyOp57
 70
     1
102
RTVSPropertyOp58
 70
     1
102
RTVSPropertyOp59
 70
     1
102
RTVSPropertyOp60
 70
     1
102
RTVSPropertyOp61
 70
     1
102
RTVSPropertyOp62
 70
     1
  0
XRECORD
  5
4D3
102
{ACAD_REACTORS
330
4D2
102
}
330
4D2
100
AcDbXrecord
280
     1
102
RTVSPost2010Prop28
280
     0
102
RTVSPost2010PropOp28
 70
     1
102
RTVSPost2010Prop29
280
     1
102
RTVSPost2010PropOp29
 70
     1
102
RTVSPost2010Prop30
280
     1
102
RTVSPost2010PropOp30
 70
     1
102
RTVSPost2010Prop31
280
     0
102
RTVSPost2010PropOp31
 70
     1
102
RTVSPost2010Prop32
280
     0
102
RTVSPost2010PropOp32
 70
     1
102
RTVSPost2010Prop33
280
     0
102
RTVSPost2010PropOp33
 70
     1
102
RTVSPost2010Prop34
280
     0
102
RTVSPost2010PropOp34
 70
     1
102
RTVSPost2010Prop35
280
     0
102
RTVSPost2010PropOp35
 70
     1
102
RTVSPost2010Prop36
280
     0
102
RTVSPost2010PropOp36
 70
     1
102
RTVSPost2010Prop37
 90
       50
102
RTVSPost2010PropOp37
 70
     1
102
RTVSPost2010Prop38
140
0.0
102
RTVSPost2010PropOp38
 70
     1
102
RTVSPost2010Prop39
140
1.0
102
RTVSPost2010PropOp39
 70
     1
102
RTVSPost2010Prop40
 90
        0
102
RTVSPost2010PropOp40
 70
     1
102
RTVSPost2010Prop41ColorIndex
 90
       18
102
RTVSPost2010Prop41ColorRGB
 90
        0
102
RTVSPost2010PropOp41
 70
     1
102
RTVSPost2010Prop42
 90
       50
102
RTVSPost2010PropOp42
 70
     1
102
RTVSPost2010Prop43
 90
        3
102
RTVSPost2010PropOp43
 70
     1
102
RTVSPost2010Prop44ColorIndex
 90
        5
102
RTVSPost2010Prop44ColorRGB
 90
      255
102
RTVSPost2010PropOp44
 70
     1
102
RTVSPost2010Prop45
280
     0
102
RTVSPost2010PropOp45
 70
     1
102
RTVSPost2010Prop46
 90
       50
102
RTVSPost2010PropOp46
 70
     1
102
RTVSPost2010Prop47
 90
       50
102
RTVSPost2010PropOp47
 70
     1
102
RTVSPost2010Prop48
 90
       50
102
RTVSPost2010PropOp48
 70
     1
102
RTVSPost2010Prop49
280
     0
102
RTVSPost2010PropOp49
 70
     1
102
RTVSPost2010Prop50
 90
       50
102
RTVSPost2010PropOp50
 70
     1
102
RTVSPost2010Prop51ColorIndex
 90
      256
102
RTVSPost2010Prop51ColorRGB
 90
-16777216
102
RTVSPost2010PropOp51
 70
     0
102
RTVSPost2010Prop52
140
1.0
102
RTVSPost2010PropOp52
 70
     0
102
RTVSPost2010Prop53
 90
        2
102
RTVSPost2010PropOp53
 70
     1
102
RTVSPost2010Prop54
  1
strokes_ogs.tif
102
RTVSPost2010PropOp54
 70
     1
102
RTVSPost2010Prop55
280
     0
102
RTVSPost2010PropOp55
 70
     1
102
RTVSPost2010Prop56
140
1.0
102
RTVSPost2010PropOp56
 70
     1
102
RTVSPost2010Prop57
140
1.0
102
RTVSPost2010PropOp57
 70
     1
102
RTVSPropertyOp0
 70
     1
102
RTVSPropertyOp1
 70
     1
102
RTVSPropertyOp2
 70
     1
102
RTVSPropertyOp3
 70
     1
102
RTVSPropertyOp4
 70
     1
102
RTVSPropertyOp5
 70
     1
102
RTVSPropertyOp6
 70
     1
102
RTVSPropertyOp7
 70
     1
102
RTVSPropertyOp8
 70
     1
102
RTVSPropertyOp9
 70
     1
102
RTVSPropertyOp10
 70
     1
102
RTVSPropertyOp11
 70
     1
102
RTVSPropertyOp12
 70
     1
102
RTVSPropertyOp13
 70
     1
102
RTVSPropertyOp14
 70
     1
102
RTVSPropertyOp15
 70
     1
102
RTVSPropertyOp16
 70
     1
102
RTVSPropertyOp17
 70
     1
102
RTVSPropertyOp18
 70
     1
102
RTVSPropertyOp19
 70
     1
102
RTVSPropertyOp20
 70
     1
102
RTVSPropertyOp21
 70
     1
102
RTVSPropertyOp22
 70
     1
102
RTVSPropertyOp23
 70
     1
102
RTVSPropertyOp24
 70
     1
102
RTVSPropertyOp25
 70
     1
102
RTVSPropertyOp26
 70
     1
102
RTVSPropertyOp27
 70
     1
102
RTVSPropertyOp28
 70
     1
102
RTVSPropertyOp29
 70
     1
102
RTVSPropertyOp30
 70
     1
102
RTVSPropertyOp31
 70
     1
102
RTVSPropertyOp32
 70
     1
102
RTVSPropertyOp33
 70
     1
102
RTVSPropertyOp34
 70
     1
102
RTVSPropertyOp35
 70
     1
102
RTVSPropertyOp36
 70
     1
102
RTVSPropertyOp37
 70
     1
102
RTVSPropertyOp38
 70
     1
102
RTVSPropertyOp39
 70
     1
102
RTVSPropertyOp40
 70
     1
102
RTVSPropertyOp41
 70
     1
102
RTVSPropertyOp42
 70
     1
102
RTVSPropertyOp43
 70
     1
102
RTVSPropertyOp44
 70
     1
102
RTVSPropertyOp45
 70
     1
102
RTVSPropertyOp46
 70
     1
102
RTVSPropertyOp47
 70
     1
102
RTVSPropertyOp48
 70
     1
102
RTVSPropertyOp49
 70
     1
102
RTVSPropertyOp50
 70
     1
102
RTVSPropertyOp51
 70
     0
102
RTVSPropertyOp52
 70
     0
102
RTVSPropertyOp53
 70
     1
102
RTVSPropertyOp54
 70
     1
102
RTVSPropertyOp55
 70
     1
102
RTVSPropertyOp56
 70
     1
102
RTVSPropertyOp57
 70
     1
102
RTVSPropertyOp58
 70
     1
102
RTVSPropertyOp59
 70
     1
102
RTVSPropertyOp60
 70
     1
102
RTVSPropertyOp61
 70
     1
102
RTVSPropertyOp62
 70
     1
  0
XRECORD
  5
4C9
102
{ACAD_REACTORS
330
4C8
102
}
330
4C8
100
AcDbXrecord
280
     1
102
RTVSPost2010Prop28
280
     0
102
RTVSPost2010PropOp28
 70
     1
102
RTVSPost2010Prop29
280
     1
102
RTVSPost2010PropOp29
 70
     1
102
RTVSPost2010Prop30
280
     1
102
RTVSPost2010PropOp30
 70
     1
102
RTVSPost2010Prop31
280
     0
102
RTVSPost2010PropOp31
 70
     1
102
RTVSPost2010Prop32
280
     0
102
RTVSPost2010PropOp32
 70
     1
102
RTVSPost2010Prop33
280
     0
102
RTVSPost2010PropOp33
 70
     1
102
RTVSPost2010Prop34
280
     0
102
RTVSPost2010PropOp34
 70
     1
102
RTVSPost2010Prop35
280
     0
102
RTVSPost2010PropOp35
 70
     1
102
RTVSPost2010Prop36
280
     0
102
RTVSPost2010PropOp36
 70
     1
102
RTVSPost2010Prop37
 90
       50
102
RTVSPost2010PropOp37
 70
     1
102
RTVSPost2010Prop38
140
0.0
102
RTVSPost2010PropOp38
 70
     1
102
RTVSPost2010Prop39
140
1.0
102
RTVSPost2010PropOp39
 70
     1
102
RTVSPost2010Prop40
 90
        0
102
RTVSPost2010PropOp40
 70
     1
102
RTVSPost2010Prop41ColorIndex
 90
       18
102
RTVSPost2010Prop41ColorRGB
 90
        0
102
RTVSPost2010PropOp41
 70
     1
102
RTVSPost2010Prop42
 90
       50
102
RTVSPost2010PropOp42
 70
     1
102
RTVSPost2010Prop43
 90
        3
102
RTVSPost2010PropOp43
 70
     1
102
RTVSPost2010Prop44ColorIndex
 90
        5
102
RTVSPost2010Prop44ColorRGB
 90
      255
102
RTVSPost2010PropOp44
 70
     1
102
RTVSPost2010Prop45
280
     0
102
RTVSPost2010PropOp45
 70
     1
102
RTVSPost2010Prop46
 90
       50
102
RTVSPost2010PropOp46
 70
     1
102
RTVSPost2010Prop47
 90
       50
102
RTVSPost2010PropOp47
 70
     1
102
RTVSPost2010Prop48
 90
       50
102
RTVSPost2010PropOp48
 70
     1
102
RTVSPost2010Prop49
280
     0
102
RTVSPost2010PropOp49
 70
     1
102
RTVSPost2010Prop50
 90
       50
102
RTVSPost2010PropOp50
 70
     1
102
RTVSPost2010Prop51ColorIndex
 90
      256
102
RTVSPost2010Prop51ColorRGB
 90
-16777216
102
RTVSPost2010PropOp51
 70
     0
102
RTVSPost2010Prop52
140
1.0
102
RTVSPost2010PropOp52
 70
     0
102
RTVSPost2010Prop53
 90
        2
102
RTVSPost2010PropOp53
 70
     1
102
RTVSPost2010Prop54
  1
strokes_ogs.tif
102
RTVSPost2010PropOp54
 70
     1
102
RTVSPost2010Prop55
280
     0
102
RTVSPost2010PropOp55
 70
     1
102
RTVSPost2010Prop56
140
1.0
102
RTVSPost2010PropOp56
 70
     1
102
RTVSPost2010Prop57
140
1.0
102
RTVSPost2010PropOp57
 70
     1
102
RTVSPropertyOp0
 70
     1
102
RTVSPropertyOp1
 70
     1
102
RTVSPropertyOp2
 70
     1
102
RTVSPropertyOp3
 70
     1
102
RTVSPropertyOp4
 70
     1
102
RTVSPropertyOp5
 70
     1
102
RTVSPropertyOp6
 70
     1
102
RTVSPropertyOp7
 70
     1
102
RTVSPropertyOp8
 70
     1
102
RTVSPropertyOp9
 70
     1
102
RTVSPropertyOp10
 70
     1
102
RTVSPropertyOp11
 70
     1
102
RTVSPropertyOp12
 70
     1
102
RTVSPropertyOp13
 70
     1
102
RTVSPropertyOp14
 70
     1
102
RTVSPropertyOp15
 70
     1
102
RTVSPropertyOp16
 70
     1
102
RTVSPropertyOp17
 70
     1
102
RTVSPropertyOp18
 70
     1
102
RTVSPropertyOp19
 70
     1
102
RTVSPropertyOp20
 70
     1
102
RTVSPropertyOp21
 70
     1
102
RTVSPropertyOp22
 70
     1
102
RTVSPropertyOp23
 70
     1
102
RTVSPropertyOp24
 70
     1
102
RTVSPropertyOp25
 70
     1
102
RTVSPropertyOp26
 70
     1
102
RTVSPropertyOp27
 70
     1
102
RTVSPropertyOp28
 70
     1
102
RTVSPropertyOp29
 70
     1
102
RTVSPropertyOp30
 70
     1
102
RTVSPropertyOp31
 70
     1
102
RTVSPropertyOp32
 70
     1
102
RTVSPropertyOp33
 70
     1
102
RTVSPropertyOp34
 70
     1
102
RTVSPropertyOp35
 70
     1
102
RTVSPropertyOp36
 70
     1
102
RTVSPropertyOp37
 70
     1
102
RTVSPropertyOp38
 70
     1
102
RTVSPropertyOp39
 70
     1
102
RTVSPropertyOp40
 70
     1
102
RTVSPropertyOp41
 70
     1
102
RTVSPropertyOp42
 70
     1
102
RTVSPropertyOp43
 70
     1
102
RTVSPropertyOp44
 70
     1
102
RTVSPropertyOp45
 70
     1
102
RTVSPropertyOp46
 70
     1
102
RTVSPropertyOp47
 70
     1
102
RTVSPropertyOp48
 70
     1
102
RTVSPropertyOp49
 70
     1
102
RTVSPropertyOp50
 70
     1
102
RTVSPropertyOp51
 70
     0
102
RTVSPropertyOp52
 70
     0
102
RTVSPropertyOp53
 70
     1
102
RTVSPropertyOp54
 70
     1
102
RTVSPropertyOp55
 70
     1
102
RTVSPropertyOp56
 70
     1
102
RTVSPropertyOp57
 70
     1
102
RTVSPropertyOp58
 70
     1
102
RTVSPropertyOp59
 70
     1
102
RTVSPropertyOp60
 70
     1
102
RTVSPropertyOp61
 70
     1
102
RTVSPropertyOp62
 70
     1
  0
XRECORD
  5
4BD
102
{ACAD_REACTORS
330
4BC
102
}
330
4BC
100
AcDbXrecord
280
     1
102
RTVSPost2010Prop28
280
     0
102
RTVSPost2010PropOp28
 70
     1
102
RTVSPost2010Prop29
280
     1
102
RTVSPost2010PropOp29
 70
     1
102
RTVSPost2010Prop30
280
     1
102
RTVSPost2010PropOp30
 70
     1
102
RTVSPost2010Prop31
280
     0
102
RTVSPost2010PropOp31
 70
     1
102
RTVSPost2010Prop32
280
     0
102
RTVSPost2010PropOp32
 70
     1
102
RTVSPost2010Prop33
280
     0
102
RTVSPost2010PropOp33
 70
     1
102
RTVSPost2010Prop34
280
     0
102
RTVSPost2010PropOp34
 70
     1
102
RTVSPost2010Prop35
280
     0
102
RTVSPost2010PropOp35
 70
     1
102
RTVSPost2010Prop36
280
     0
102
RTVSPost2010PropOp36
 70
     1
102
RTVSPost2010Prop37
 90
       50
102
RTVSPost2010PropOp37
 70
     1
102
RTVSPost2010Prop38
140
0.0
102
RTVSPost2010PropOp38
 70
     1
102
RTVSPost2010Prop39
140
1.0
102
RTVSPost2010PropOp39
 70
     1
102
RTVSPost2010Prop40
 90
        0
102
RTVSPost2010PropOp40
 70
     1
102
RTVSPost2010Prop41ColorIndex
 90
       18
102
RTVSPost2010Prop41ColorRGB
 90
        0
102
RTVSPost2010PropOp41
 70
     1
102
RTVSPost2010Prop42
 90
       50
102
RTVSPost2010PropOp42
 70
     1
102
RTVSPost2010Prop43
 90
        3
102
RTVSPost2010PropOp43
 70
     1
102
RTVSPost2010Prop44ColorIndex
 90
        5
102
RTVSPost2010Prop44ColorRGB
 90
      255
102
RTVSPost2010PropOp44
 70
     1
102
RTVSPost2010Prop45
280
     0
102
RTVSPost2010PropOp45
 70
     1
102
RTVSPost2010Prop46
 90
       50
102
RTVSPost2010PropOp46
 70
     1
102
RTVSPost2010Prop47
 90
       50
102
RTVSPost2010PropOp47
 70
     1
102
RTVSPost2010Prop48
 90
       50
102
RTVSPost2010PropOp48
 70
     1
102
RTVSPost2010Prop49
280
     0
102
RTVSPost2010PropOp49
 70
     1
102
RTVSPost2010Prop50
 90
       50
102
RTVSPost2010PropOp50
 70
     1
102
RTVSPost2010Prop51ColorIndex
 90
      256
102
RTVSPost2010Prop51ColorRGB
 90
-16777216
102
RTVSPost2010PropOp51
 70
     0
102
RTVSPost2010Prop52
140
1.0
102
RTVSPost2010PropOp52
 70
     0
102
RTVSPost2010Prop53
 90
        2
102
RTVSPost2010PropOp53
 70
     1
102
RTVSPost2010Prop54
  1
strokes_ogs.tif
102
RTVSPost2010PropOp54
 70
     1
102
RTVSPost2010Prop55
280
     0
102
RTVSPost2010PropOp55
 70
     1
102
RTVSPost2010Prop56
140
1.0
102
RTVSPost2010PropOp56
 70
     1
102
RTVSPost2010Prop57
140
1.0
102
RTVSPost2010PropOp57
 70
     1
102
RTVSPropertyOp0
 70
     1
102
RTVSPropertyOp1
 70
     1
102
RTVSPropertyOp2
 70
     1
102
RTVSPropertyOp3
 70
     1
102
RTVSPropertyOp4
 70
     1
102
RTVSPropertyOp5
 70
     1
102
RTVSPropertyOp6
 70
     1
102
RTVSPropertyOp7
 70
     1
102
RTVSPropertyOp8
 70
     1
102
RTVSPropertyOp9
 70
     1
102
RTVSPropertyOp10
 70
     1
102
RTVSPropertyOp11
 70
     1
102
RTVSPropertyOp12
 70
     1
102
RTVSPropertyOp13
 70
     1
102
RTVSPropertyOp14
 70
     1
102
RTVSPropertyOp15
 70
     1
102
RTVSPropertyOp16
 70
     1
102
RTVSPropertyOp17
 70
     1
102
RTVSPropertyOp18
 70
     1
102
RTVSPropertyOp19
 70
     1
102
RTVSPropertyOp20
 70
     1
102
RTVSPropertyOp21
 70
     1
102
RTVSPropertyOp22
 70
     1
102
RTVSPropertyOp23
 70
     1
102
RTVSPropertyOp24
 70
     1
102
RTVSPropertyOp25
 70
     1
102
RTVSPropertyOp26
 70
     1
102
RTVSPropertyOp27
 70
     1
102
RTVSPropertyOp28
 70
     1
102
RTVSPropertyOp29
 70
     1
102
RTVSPropertyOp30
 70
     1
102
RTVSPropertyOp31
 70
     1
102
RTVSPropertyOp32
 70
     1
102
RTVSPropertyOp33
 70
     1
102
RTVSPropertyOp34
 70
     1
102
RTVSPropertyOp35
 70
     1
102
RTVSPropertyOp36
 70
     1
102
RTVSPropertyOp37
 70
     1
102
RTVSPropertyOp38
 70
     1
102
RTVSPropertyOp39
 70
     1
102
RTVSPropertyOp40
 70
     1
102
RTVSPropertyOp41
 70
     1
102
RTVSPropertyOp42
 70
     1
102
RTVSPropertyOp43
 70
     1
102
RTVSPropertyOp44
 70
     1
102
RTVSPropertyOp45
 70
     1
102
RTVSPropertyOp46
 70
     1
102
RTVSPropertyOp47
 70
     1
102
RTVSPropertyOp48
 70
     1
102
RTVSPropertyOp49
 70
     1
102
RTVSPropertyOp50
 70
     1
102
RTVSPropertyOp51
 70
     0
102
RTVSPropertyOp52
 70
     0
102
RTVSPropertyOp53
 70
     1
102
RTVSPropertyOp54
 70
     1
102
RTVSPropertyOp55
 70
     1
102
RTVSPropertyOp56
 70
     1
102
RTVSPropertyOp57
 70
     1
102
RTVSPropertyOp58
 70
     1
102
RTVSPropertyOp59
 70
     1
102
RTVSPropertyOp60
 70
     1
102
RTVSPropertyOp61
 70
     1
102
RTVSPropertyOp62
 70
     1
  0
XRECORD
  5
4D5
102
{ACAD_REACTORS
330
4D4
102
}
330
4D4
100
AcDbXrecord
280
     1
102
RTVSPost2010Prop28
280
     0
102
RTVSPost2010PropOp28
 70
     1
102
RTVSPost2010Prop29
280
     1
102
RTVSPost2010PropOp29
 70
     1
102
RTVSPost2010Prop30
280
     1
102
RTVSPost2010PropOp30
 70
     1
102
RTVSPost2010Prop31
280
     0
102
RTVSPost2010PropOp31
 70
     1
102
RTVSPost2010Prop32
280
     0
102
RTVSPost2010PropOp32
 70
     1
102
RTVSPost2010Prop33
280
     0
102
RTVSPost2010PropOp33
 70
     1
102
RTVSPost2010Prop34
280
     0
102
RTVSPost2010PropOp34
 70
     1
102
RTVSPost2010Prop35
280
     0
102
RTVSPost2010PropOp35
 70
     1
102
RTVSPost2010Prop36
280
     0
102
RTVSPost2010PropOp36
 70
     1
102
RTVSPost2010Prop37
 90
       50
102
RTVSPost2010PropOp37
 70
     1
102
RTVSPost2010Prop38
140
0.0
102
RTVSPost2010PropOp38
 70
     1
102
RTVSPost2010Prop39
140
1.0
102
RTVSPost2010PropOp39
 70
     1
102
RTVSPost2010Prop40
 90
        0
102
RTVSPost2010PropOp40
 70
     1
102
RTVSPost2010Prop41ColorIndex
 90
       18
102
RTVSPost2010Prop41ColorRGB
 90
        0
102
RTVSPost2010PropOp41
 70
     1
102
RTVSPost2010Prop42
 90
       50
102
RTVSPost2010PropOp42
 70
     1
102
RTVSPost2010Prop43
 90
        3
102
RTVSPost2010PropOp43
 70
     1
102
RTVSPost2010Prop44ColorIndex
 90
        5
102
RTVSPost2010Prop44ColorRGB
 90
      255
102
RTVSPost2010PropOp44
 70
     1
102
RTVSPost2010Prop45
280
     0
102
RTVSPost2010PropOp45
 70
     1
102
RTVSPost2010Prop46
 90
       50
102
RTVSPost2010PropOp46
 70
     1
102
RTVSPost2010Prop47
 90
       50
102
RTVSPost2010PropOp47
 70
     1
102
RTVSPost2010Prop48
 90
       50
102
RTVSPost2010PropOp48
 70
     1
102
RTVSPost2010Prop49
280
     0
102
RTVSPost2010PropOp49
 70
     1
102
RTVSPost2010Prop50
 90
       50
102
RTVSPost2010PropOp50
 70
     1
102
RTVSPost2010Prop51ColorIndex
 90
      256
102
RTVSPost2010Prop51ColorRGB
 90
-16777216
102
RTVSPost2010PropOp51
 70
     0
102
RTVSPost2010Prop52
140
1.0
102
RTVSPost2010PropOp52
 70
     0
102
RTVSPost2010Prop53
 90
        2
102
RTVSPost2010PropOp53
 70
     1
102
RTVSPost2010Prop54
  1
strokes_ogs.tif
102
RTVSPost2010PropOp54
 70
     1
102
RTVSPost2010Prop55
280
     0
102
RTVSPost2010PropOp55
 70
     1
102
RTVSPost2010Prop56
140
1.0
102
RTVSPost2010PropOp56
 70
     1
102
RTVSPost2010Prop57
140
1.0
102
RTVSPost2010PropOp57
 70
     1
102
RTVSPropertyOp0
 70
     1
102
RTVSPropertyOp1
 70
     1
102
RTVSPropertyOp2
 70
     1
102
RTVSPropertyOp3
 70
     1
102
RTVSPropertyOp4
 70
     1
102
RTVSPropertyOp5
 70
     1
102
RTVSPropertyOp6
 70
     1
102
RTVSPropertyOp7
 70
     1
102
RTVSPropertyOp8
 70
     1
102
RTVSPropertyOp9
 70
     1
102
RTVSPropertyOp10
 70
     1
102
RTVSPropertyOp11
 70
     1
102
RTVSPropertyOp12
 70
     1
102
RTVSPropertyOp13
 70
     1
102
RTVSPropertyOp14
 70
     1
102
RTVSPropertyOp15
 70
     1
102
RTVSPropertyOp16
 70
     1
102
RTVSPropertyOp17
 70
     1
102
RTVSPropertyOp18
 70
     1
102
RTVSPropertyOp19
 70
     1
102
RTVSPropertyOp20
 70
     1
102
RTVSPropertyOp21
 70
     1
102
RTVSPropertyOp22
 70
     1
102
RTVSPropertyOp23
 70
     1
102
RTVSPropertyOp24
 70
     1
102
RTVSPropertyOp25
 70
     1
102
RTVSPropertyOp26
 70
     1
102
RTVSPropertyOp27
 70
     1
102
RTVSPropertyOp28
 70
     1
102
RTVSPropertyOp29
 70
     1
102
RTVSPropertyOp30
 70
     1
102
RTVSPropertyOp31
 70
     1
102
RTVSPropertyOp32
 70
     1
102
RTVSPropertyOp33
 70
     1
102
RTVSPropertyOp34
 70
     1
102
RTVSPropertyOp35
 70
     1
102
RTVSPropertyOp36
 70
     1
102
RTVSPropertyOp37
 70
     1
102
RTVSPropertyOp38
 70
     1
102
RTVSPropertyOp39
 70
     1
102
RTVSPropertyOp40
 70
     1
102
RTVSPropertyOp41
 70
     1
102
RTVSPropertyOp42
 70
     1
102
RTVSPropertyOp43
 70
     1
102
RTVSPropertyOp44
 70
     1
102
RTVSPropertyOp45
 70
     1
102
RTVSPropertyOp46
 70
     1
102
RTVSPropertyOp47
 70
     1
102
RTVSPropertyOp48
 70
     1
102
RTVSPropertyOp49
 70
     1
102
RTVSPropertyOp50
 70
     1
102
RTVSPropertyOp51
 70
     0
102
RTVSPropertyOp52
 70
     0
102
RTVSPropertyOp53
 70
     1
102
RTVSPropertyOp54
 70
     1
102
RTVSPropertyOp55
 70
     1
102
RTVSPropertyOp56
 70
     1
102
RTVSPropertyOp57
 70
     1
102
RTVSPropertyOp58
 70
     1
102
RTVSPropertyOp59
 70
     1
102
RTVSPropertyOp60
 70
     1
102
RTVSPropertyOp61
 70
     1
102
RTVSPropertyOp62
 70
     1
  0
ENDSEC
  0
EOF
