0
SECTION
2
HEADER
9
$ACADVER
1
AC1015
9
$DWGCODEPAGE
3
ANSI_1252
9
$HANDSEED
5
3b1
9
$ANGBASE
50
0
9
$ANGDIR
70
0
9
$ATTMODE
70
1
9
$AUNITS
70
0
9
$AUPREC
70
0
9
$CECOLOR
62
256
9
$CELTSCALE
40
1
9
$CELTYPE
6
ByLayer
9
$CELWEIGHT
370
-1
9
$CLAYER
8
0
9
$CMLJUST
70
0
9
$CMLSCALE
40
1
9
$CMLSTYLE
2
Standard
9
$DIMSTYLE
2
Standard
9
$TEXTSIZE
40
0.2
9
$TEXTSTYLE
7
Standard
9
$LUNITS
70
2
9
$LUPREC
70
4
9
$EXTNAMES
290
1
9
$INSUNITS
70
4
9
$LTSCALE
40
1
9
$LWDISPLAY
290
0
9
$PDMODE
70
0
9
$PDSIZE
40
0
9
$PLINEGEN
70
0
0
ENDSEC
0
SECTION
2
CLASSES
0
CLASS
1
RASTERVARIABLES
2
AcDbRasterVariables
3
ISM
90
0
280
0
281
0
0
ENDSEC
0
SECTION
2
TABLES
0
TABLE
2
VPORT
5
3a7
100
AcDbSymbolTable
0
VPORT
5
1
100
AcDbSymbolTableRecord
100
AcDbViewportTableRecord
2
*Active
70
0
10
0
20
0
11
1
21
1
12
-1
22
1
13
0
23
0
14
0.5
24
0.5
15
10
25
10
16
0
26
0
36
1
17
0
27
0
37
0
0
ENDTAB
0
TABLE
2
LTYPE
5
3a8
100
AcDbSymbolTable
0
LTYPE
5
14
100
AcDbSymbolTableRecord
100
AcDbLinetypeTableRecord
70
0
2
ByBlock
3

72
65
73
0
40
0
0
LTYPE
5
15
100
AcDbSymbolTableRecord
100
AcDbLinetypeTableRecord
70
0
2
ByLayer
3

72
65
73
0
40
0
0
LTYPE
5
16
100
AcDbSymbolTableRecord
100
AcDbLinetypeTableRecord
70
0
2
CONTINUOUS
3
Solid line
72
65
73
0
40
0
0
LTYPE
5
3C
100
AcDbSymbolTableRecord
100
AcDbLinetypeTableRecord
70
0
2
DASHED
3
__ __ __ __ __ __ __ __ __
72
65
73
2
40
25.72
49
12.86
74
0
49
-12.86
74
0
0
LTYPE
5
3D
100
AcDbSymbolTableRecord
100
AcDbLinetypeTableRecord
70
0
2
HIDDEN
3
_ _ _ _ _ _ _ _ _ _ _ _ _ _ _
72
65
73
2
40
0.5
49
0.25
74
0
49
-0.25
74
0
0
LTYPE
5
3E
100
AcDbSymbolTableRecord
100
AcDbLinetypeTableRecord
70
0
2
PHANTOM
3
____ _ _ ____ _ _ _____ _ _ ____
72
65
73
6
40
50.5
49
18
74
0
49
-6.5
74
0
49
6.5
74
0
49
-6.5
74
0
49
6.5
74
0
49
-6.5
74
0
0
LTYPE
5
3F
100
AcDbSymbolTableRecord
100
AcDbLinetypeTableRecord
70
0
2
CENTER
3
____ _ ____ _ ____ _ ____
72
65
73
4
40
47.5
49
22
74
0
49
-8.5
74
0
49
8.5
74
0
49
-8.5
74
0
0
LTYPE
5
40
100
AcDbSymbolTableRecord
100
AcDbLinetypeTableRecord
70
0
2
DOT
3
.........................
72
65
73
2
40
10
49
0
74
0
49
-10
74
0
0
LTYPE
5
41
100
AcDbSymbolTableRecord
100
AcDbLinetypeTableRecord
70
0
2
DASHDOT
3
_._._._._._._._._._._._._._._._.
72
65
73
4
40
70
49
31
74
0
49
-13
74
0
49
13
74
0
49
-13
74
0
0
ENDTAB
0
TABLE
2
LAYER
5
3a9
100
AcDbSymbolTable
0
LAYER
5
10
100
AcDbSymbolTableRecord
100
AcDbLayerTableRecord
2
0
70
0
62
7
6
CONTINUOUS
290
1
370
-3
390
0
0
LAYER
5
43
100
AcDbSymbolTableRecord
100
AcDbLayerTableRecord
2
80
70
0
62
-6
6
CONTINUOUS
290
1
370
-3
390
0
0
LAYER
5
45
100
AcDbSymbolTableRecord
100
AcDbLayerTableRecord
2
2
70
0
62
7
6
CONTINUOUS
290
1
370
-3
390
0
0
LAYER
5
47
100
AcDbSymbolTableRecord
100
AcDbLayerTableRecord
2
81
70
0
62
-3
6
CONTINUOUS
290
1
370
-3
390
0
0
LAYER
5
49
100
AcDbSymbolTableRecord
100
AcDbLayerTableRecord
2
4
70
0
62
-2
6
CENTER
290
1
370
-3
390
0
0
LAYER
5
58
100
AcDbSymbolTableRecord
100
AcDbLayerTableRecord
2
1
70
0
62
4
6
CONTINUOUS
290
1
370
-3
390
0
0
LAYER
5
394
100
AcDbSymbolTableRecord
100
AcDbLayerTableRecord
2
SK1
70
0
62
4
6
CONTINUOUS
290
1
370
-3
390
0
0
LAYER
5
395
100
AcDbSymbolTableRecord
100
AcDbLayerTableRecord
2
SK6
70
0
62
5
6
CONTINUOUS
290
1
370
-3
390
0
0
LAYER
5
396
100
AcDbSymbolTableRecord
100
AcDbLayerTableRecord
2
SK2
70
0
62
7
6
CONTINUOUS
290
1
370
-3
390
0
0
ENDTAB
0
TABLE
2
STYLE
5
3aa
100
AcDbSymbolTable
0
STYLE
5
11
100
AcDbSymbolTableRecord
100
AcDbTextStyleTableRecord
2
Standard
3
txt
70
0
71
0
40
0
41
1
42
0
50
0
0
STYLE
5
314
100
AcDbSymbolTableRecord
100
AcDbTextStyleTableRecord
2
DEFAULT
3
simplex.shx
70
0
71
0
40
0
41
1
42
0
50
0
0
STYLE
5
315
100
AcDbSymbolTableRecord
100
AcDbTextStyleTableRecord
2
DWGDirectTextStyle
3
SIMPLEX
70
0
71
0
40
0
41
1
42
0
50
0
0
ENDTAB
0
TABLE
2
DIMSTYLE
5
3ab
100
AcDbSymbolTable
100
AcDbDimStyleTable
0
DIMSTYLE
105
27
100
AcDbSymbolTableRecord
100
AcDbDimStyleTableRecord
2
Standard
70
0
3
<>
41
0.18
42
0.0625
44
0.18
140
0.18
147
0.09
73
0
74
0
77
1
271
2
275
0
278
52
280
0
340
11
0
ENDTAB
0
TABLE
2
VIEW
5
3ac
100
AcDbSymbolTable
0
ENDTAB
0
TABLE
2
UCS
5
3ad
100
AcDbSymbolTable
0
ENDTAB
0
TABLE
2
APPID
5
3ae
100
AcDbSymbolTable
0
APPID
5
12
100
AcDbSymbolTableRecord
100
AcDbRegAppTableRecord
2
ACAD
70
0
0
ENDTAB
0
TABLE
2
BLOCK_RECORD
5
3af
100
AcDbSymbolTable
0
BLOCK_RECORD
5
1F
100
AcDbSymbolTableRecord
100
AcDbBlockTableRecord
2
*Model_Space
340
0
70
0
0
BLOCK_RECORD
5
1B
100
AcDbSymbolTableRecord
100
AcDbBlockTableRecord
2
*Paper_Space
340
0
70
0
0
BLOCK_RECORD
5
23
100
AcDbSymbolTableRecord
100
AcDbBlockTableRecord
2
*Paper_Space0
340
0
70
0
0
BLOCK_RECORD
5
317
100
AcDbSymbolTableRecord
100
AcDbBlockTableRecord
2
DimnDraft3D1
340
0
70
0
0
BLOCK_RECORD
5
325
100
AcDbSymbolTableRecord
100
AcDbBlockTableRecord
2
_CLOSED
340
0
70
0
0
BLOCK_RECORD
5
32C
100
AcDbSymbolTableRecord
100
AcDbBlockTableRecord
2
DimnDraft3D2
340
0
70
0
0
BLOCK_RECORD
5
33B
100
AcDbSymbolTableRecord
100
AcDbBlockTableRecord
2
DimnDraft3D3
340
0
70
0
0
BLOCK_RECORD
5
349
100
AcDbSymbolTableRecord
100
AcDbBlockTableRecord
2
DimnDraft3D4
340
0
70
0
0
ENDTAB
0
ENDSEC
0
SECTION
2
BLOCKS
0
BLOCK
5
20
100
AcDbEntity
8
0
100
AcDbBlockBegin
2
*Model_Space
70
0
10
0
20
0
30
0
3
*Model_Space
0
ENDBLK
5
21
100
AcDbEntity
8
0
100
AcDbBlockEnd
0
BLOCK
5
1C
100
AcDbEntity
8
0
100
AcDbBlockBegin
2
*Paper_Space
70
0
10
0
20
0
30
0
3
*Paper_Space
0
ENDBLK
5
1D
100
AcDbEntity
8
0
100
AcDbBlockEnd
0
BLOCK
5
24
100
AcDbEntity
8
0
100
AcDbBlockBegin
2
*Paper_Space0
70
0
10
0
20
0
30
0
3
*Paper_Space0
0
ENDBLK
5
25
100
AcDbEntity
8
0
100
AcDbBlockEnd
0
BLOCK
5
322
100
AcDbEntity
8
0
100
AcDbBlockBegin
2
DimnDraft3D1
70
0
10
0
20
0
30
0
3
DimnDraft3D1
0
MTEXT
5
318
100
AcDbEntity
8
2
62
256
6
ByLayer
370
-1
48
1
60
0
100
AcDbMText
10
25.215789
20
41.875
30
0
210
0
220
0
230
1
1
\W01.000;\fsimplex.shx,bigfont.shx;60.0\P
40
4.5
41
0
44
1.084337
50
0
71
7
72
5
7
DEFAULT
0
LINE
5
319
100
AcDbEntity
8
2
62
256
6
ByLayer
370
-1
48
1
60
0
100
AcDbLine
10
60
20
23
30
0
11
60
21
42.75
31
0
39
0
210
0
220
0
230
1
0
LINE
5
31A
100
AcDbEntity
8
2
62
256
6
ByLayer
370
-1
48
1
60
0
100
AcDbLine
10
0
20
22
30
0
11
0
21
42.75
31
0
39
0
210
0
220
0
230
1
0
LINE
5
31B
100
AcDbEntity
8
2
62
256
6
ByLayer
370
-1
48
1
60
0
100
AcDbLine
10
60
20
40.75
30
0
11
0
21
40.75
31
0
39
0
210
0
220
0
230
1
0
LINE
5
31C
100
AcDbEntity
8
2
62
256
6
ByLayer
370
-1
48
1
60
0
100
AcDbLine
10
60
20
40.75
30
0
11
56.825002
21
40.332003
31
0
39
0
210
0
220
0
230
1
0
LINE
5
31D
100
AcDbEntity
8
2
62
256
6
ByLayer
370
-1
48
1
60
0
100
AcDbLine
10
60
20
40.75
30
0
11
56.824998
21
41.167997
31
0
39
0
210
0
220
0
230
1
0
LINE
5
31E
100
AcDbEntity
8
2
62
256
6
ByLayer
370
-1
48
1
60
0
100
AcDbLine
10
56.825002
20
40.332003
30
0
11
56.824998
21
41.167997
31
0
39
0
210
0
220
0
230
1
0
LINE
5
31F
100
AcDbEntity
8
2
62
256
6
ByLayer
370
-1
48
1
60
0
100
AcDbLine
10
0
20
40.75
30
0
11
3.174998
21
41.167997
31
0
39
0
210
0
220
0
230
1
0
LINE
5
320
100
AcDbEntity
8
2
62
256
6
ByLayer
370
-1
48
1
60
0
100
AcDbLine
10
0
20
40.75
30
0
11
3.175002
21
40.332003
31
0
39
0
210
0
220
0
230
1
0
LINE
5
321
100
AcDbEntity
8
2
62
256
6
ByLayer
370
-1
48
1
60
0
100
AcDbLine
10
3.174998
20
41.167997
30
0
11
3.175002
21
40.332003
31
0
39
0
210
0
220
0
230
1
0
ENDBLK
5
323
100
AcDbEntity
8
0
100
AcDbBlockEnd
0
BLOCK
5
326
100
AcDbEntity
8
0
100
AcDbBlockBegin
2
_CLOSED
70
0
10
0
20
0
30
0
3
_CLOSED
0
LINE
5
328
100
AcDbEntity
8
0
62
256
6
ByLayer
370
-2
48
1
60
0
100
AcDbLine
10
-1
20
0.166667
30
0
11
0
21
0
31
0
39
0
210
0
220
0
230
1
0
LINE
5
329
100
AcDbEntity
8
0
62
256
6
ByLayer
370
-2
48
1
60
0
100
AcDbLine
10
0
20
0
30
0
11
-1
21
-0.166667
31
0
39
0
210
0
220
0
230
1
0
LINE
5
32A
100
AcDbEntity
8
0
62
256
6
ByLayer
370
-2
48
1
60
0
100
AcDbLine
10
-1
20
0.166667
30
0
11
-1
21
-0.166667
31
0
39
0
210
0
220
0
230
1
0
LINE
5
32B
100
AcDbEntity
8
0
62
256
6
ByLayer
370
-2
48
1
60
0
100
AcDbLine
10
0
20
0
30
0
11
-1
21
0
31
0
39
0
210
0
220
0
230
1
0
ENDBLK
5
327
100
AcDbEntity
8
0
100
AcDbBlockEnd
0
BLOCK
5
338
100
AcDbEntity
8
0
100
AcDbBlockBegin
2
DimnDraft3D2
70
0
10
0
20
0
30
0
3
DimnDraft3D2
0
MTEXT
5
32D
100
AcDbEntity
8
SK2
62
256
6
ByLayer
370
-1
48
1
60
0
100
AcDbMText
10
70.19375
20
29.875
30
0
210
0
220
0
230
1
1
\W01.000;\fsimplex.shx,bigfont.shx;1.2\P
40
4.5
41
0
44
1.084337
50
0
71
7
72
5
7
DEFAULT
0
LINE
5
32F
100
AcDbEntity
8
SK2
62
256
6
ByLayer
370
-1
48
1
60
0
100
AcDbLine
10
60
20
23
30
0
11
60
21
30.75
31
0
39
0
210
0
220
0
230
1
0
LINE
5
330
100
AcDbEntity
8
SK2
62
256
6
ByLayer
370
-1
48
1
60
0
100
AcDbLine
10
58.8
20
23
30
0
11
58.8
21
30.75
31
0
39
0
210
0
220
0
230
1
0
LINE
5
331
100
AcDbEntity
8
SK2
62
256
6
ByLayer
370
-1
48
1
60
0
100
AcDbLine
10
47.55
20
28.75
30
0
11
75.753618
21
28.75
31
0
39
0
210
0
220
0
230
1
0
LINE
5
332
100
AcDbEntity
8
SK2
62
256
6
ByLayer
370
-1
48
1
60
0
100
AcDbLine
10
60
20
28.75
30
0
11
63.174998
21
29.167997
31
0
39
0
210
0
220
0
230
1
0
LINE
5
333
100
AcDbEntity
8
SK2
62
256
6
ByLayer
370
-1
48
1
60
0
100
AcDbLine
10
60
20
28.75
30
0
11
63.175002
21
28.332003
31
0
39
0
210
0
220
0
230
1
0
LINE
5
334
100
AcDbEntity
8
SK2
62
256
6
ByLayer
370
-1
48
1
60
0
100
AcDbLine
10
63.174998
20
29.167997
30
0
11
63.175002
21
28.332003
31
0
39
0
210
0
220
0
230
1
0
LINE
5
335
100
AcDbEntity
8
SK2
62
256
6
ByLayer
370
-1
48
1
60
0
100
AcDbLine
10
58.8
20
28.75
30
0
11
55.625002
21
28.332003
31
0
39
0
210
0
220
0
230
1
0
LINE
5
336
100
AcDbEntity
8
SK2
62
256
6
ByLayer
370
-1
48
1
60
0
100
AcDbLine
10
58.8
20
28.75
30
0
11
55.624998
21
29.167997
31
0
39
0
210
0
220
0
230
1
0
LINE
5
337
100
AcDbEntity
8
SK2
62
256
6
ByLayer
370
-1
48
1
60
0
100
AcDbLine
10
55.625002
20
28.332003
30
0
11
55.624998
21
29.167997
31
0
39
0
210
0
220
0
230
1
0
ENDBLK
5
339
100
AcDbEntity
8
0
100
AcDbBlockEnd
0
BLOCK
5
346
100
AcDbEntity
8
0
100
AcDbBlockBegin
2
DimnDraft3D3
70
0
10
0
20
0
30
0
3
DimnDraft3D3
0
MTEXT
5
33C
100
AcDbEntity
8
SK2
62
256
6
ByLayer
370
-1
48
1
60
0
100
AcDbMText
10
-34.875
20
-7.787664
30
0
210
0
220
0
230
1
1
\W01.000;\fsimplex.shx,bigfont.shx;%%c40.0\P
40
4.5
41
0
44
1.084337
50
90
71
7
72
5
7
DEFAULT
0
LINE
5
33D
100
AcDbEntity
8
SK2
62
256
6
ByLayer
370
-1
48
1
60
0
100
AcDbLine
10
-2
20
20
30
0
11
-35.75
21
20
31
0
39
0
210
0
220
0
230
1
0
LINE
5
33E
100
AcDbEntity
8
SK2
62
256
6
ByLayer
370
-1
48
1
60
0
100
AcDbLine
10
-2
20
-20
30
0
11
-35.75
21
-20
31
0
39
0
210
0
220
0
230
1
0
LINE
5
33F
100
AcDbEntity
8
SK2
62
256
6
ByLayer
370
-1
48
1
60
0
100
AcDbLine
10
-33.75
20
20
30
0
11
-33.75
21
-20
31
0
39
0
210
0
220
0
230
1
0
LINE
5
340
100
AcDbEntity
8
SK2
62
256
6
ByLayer
370
-1
48
1
60
0
100
AcDbLine
10
-33.75
20
20
30
0
11
-33.332003
21
16.825002
31
0
39
0
210
0
220
0
230
1
0
LINE
5
341
100
AcDbEntity
8
SK2
62
256
6
ByLayer
370
-1
48
1
60
0
100
AcDbLine
10
-33.75
20
20
30
0
11
-34.167997
21
16.824998
31
0
39
0
210
0
220
0
230
1
0
LINE
5
342
100
AcDbEntity
8
SK2
62
256
6
ByLayer
370
-1
48
1
60
0
100
AcDbLine
10
-33.332003
20
16.825002
30
0
11
-34.167997
21
16.824998
31
0
39
0
210
0
220
0
230
1
0
LINE
5
343
100
AcDbEntity
8
SK2
62
256
6
ByLayer
370
-1
48
1
60
0
100
AcDbLine
10
-33.75
20
-20
30
0
11
-34.167997
21
-16.825002
31
0
39
0
210
0
220
0
230
1
0
LINE
5
344
100
AcDbEntity
8
SK2
62
256
6
ByLayer
370
-1
48
1
60
0
100
AcDbLine
10
-33.75
20
-20
30
0
11
-33.332003
21
-16.824998
31
0
39
0
210
0
220
0
230
1
0
LINE
5
345
100
AcDbEntity
8
SK2
62
256
6
ByLayer
370
-1
48
1
60
0
100
AcDbLine
10
-34.167997
20
-16.825002
30
0
11
-33.332003
21
-16.824998
31
0
39
0
210
0
220
0
230
1
0
ENDBLK
5
347
100
AcDbEntity
8
0
100
AcDbBlockEnd
0
BLOCK
5
354
100
AcDbEntity
8
0
100
AcDbBlockBegin
2
DimnDraft3D4
70
0
10
0
20
0
30
0
3
DimnDraft3D4
0
MTEXT
5
34A
100
AcDbEntity
8
2
62
256
6
ByLayer
370
-1
48
1
60
0
100
AcDbMText
10
71.125
20
-7.787664
30
0
210
0
220
0
230
1
1
\W01.000;\fsimplex.shx,bigfont.shx;%%c42.0\P
40
4.5
41
0
44
1.084337
50
90
71
7
72
5
7
DEFAULT
0
LINE
5
34B
100
AcDbEntity
8
2
62
256
6
ByLayer
370
-1
48
1
60
0
100
AcDbLine
10
62
20
21
30
0
11
74.25
21
21
31
0
39
0
210
0
220
0
230
1
0
LINE
5
34C
100
AcDbEntity
8
2
62
256
6
ByLayer
370
-1
48
1
60
0
100
AcDbLine
10
62
20
-21
30
0
11
74.25
21
-21
31
0
39
0
210
0
220
0
230
1
0
LINE
5
34D
100
AcDbEntity
8
2
62
256
6
ByLayer
370
-1
48
1
60
0
100
AcDbLine
10
72.25
20
21
30
0
11
72.25
21
-21
31
0
39
0
210
0
220
0
230
1
0
LINE
5
34E
100
AcDbEntity
8
2
62
256
6
ByLayer
370
-1
48
1
60
0
100
AcDbLine
10
72.25
20
21
30
0
11
72.667997
21
17.825002
31
0
39
0
210
0
220
0
230
1
0
LINE
5
34F
100
AcDbEntity
8
2
62
256
6
ByLayer
370
-1
48
1
60
0
100
AcDbLine
10
72.25
20
21
30
0
11
71.832003
21
17.824998
31
0
39
0
210
0
220
0
230
1
0
LINE
5
350
100
AcDbEntity
8
2
62
256
6
ByLayer
370
-1
48
1
60
0
100
AcDbLine
10
72.667997
20
17.825002
30
0
11
71.832003
21
17.824998
31
0
39
0
210
0
220
0
230
1
0
LINE
5
351
100
AcDbEntity
8
2
62
256
6
ByLayer
370
-1
48
1
60
0
100
AcDbLine
10
72.25
20
-21
30
0
11
71.832003
21
-17.825002
31
0
39
0
210
0
220
0
230
1
0
LINE
5
352
100
AcDbEntity
8
2
62
256
6
ByLayer
370
-1
48
1
60
0
100
AcDbLine
10
72.25
20
-21
30
0
11
72.667997
21
-17.824998
31
0
39
0
210
0
220
0
230
1
0
LINE
5
353
100
AcDbEntity
8
2
62
256
6
ByLayer
370
-1
48
1
60
0
100
AcDbLine
10
71.832003
20
-17.825002
30
0
11
72.667997
21
-17.824998
31
0
39
0
210
0
220
0
230
1
0
ENDBLK
5
355
100
AcDbEntity
8
0
100
AcDbBlockEnd
0
ENDSEC
0
SECTION
2
ENTITIES
0
ARC
5
186
100
AcDbEntity
8
1
62
256
6
ByLayer
370
-1
48
1
60
0
100
AcDbCircle
39
0
10
-20.5
20
18.540308
30
0
40
0.5
210
0
220
0
230
-1
100
AcDbArc
50
265.562272
51
0
0
ARC
5
187
100
AcDbEntity
8
1
62
256
6
ByLayer
370
-1
48
1
60
0
100
AcDbCircle
39
0
10
-20.5
20
-18.540308
30
0
40
0.5
210
0
220
0
230
-1
100
AcDbArc
50
0
51
94.437728
0
ARC
5
188
100
AcDbEntity
8
SK1
62
256
6
ByLayer
370
-1
48
1
60
0
100
AcDbCircle
39
0
10
0.6
20
-15
30
0
40
1
210
0
220
0
230
-1
100
AcDbArc
50
113.578178
51
126.869898
0
ARC
5
189
100
AcDbEntity
8
SK1
62
256
6
ByLayer
370
-1
48
1
60
0
100
AcDbCircle
39
0
10
0.6
20
15
30
0
40
1
210
0
220
0
230
-1
100
AcDbArc
50
233.130102
51
246.421822
0
ARC
5
18A
100
AcDbEntity
8
1
62
256
6
ByLayer
370
-1
48
1
60
0
100
AcDbCircle
39
0
10
55.085868
20
6.529557
30
0
40
7
210
0
220
0
230
1
100
AcDbArc
50
282.867497
51
290.889122
0
ARC
5
18B
100
AcDbEntity
8
1
62
256
6
ByLayer
370
-1
48
1
60
0
100
AcDbCircle
39
0
10
55.085868
20
6.529557
30
0
40
7
210
0
220
0
230
1
100
AcDbArc
50
245.110269
51
253.131894
0
ELLIPSE
5
18C
100
AcDbEntity
8
1
62
256
6
ByLayer
370
-1
48
1
60
0
100
AcDbEllipse
10
-0.948929
20
0
30
0
11
9.36741787978234
21
19.7417491527506
31
0
210
0
220
0
230
-1
40
0.341999
41
0.152726244898342
42
1.09631952749989
0
ELLIPSE
5
18D
100
AcDbEntity
8
1
62
256
6
ByLayer
370
-1
48
1
60
0
100
AcDbEllipse
10
55.012925
20
-15.426727
30
0
11
1.00586271167441
21
-2.01264507682378
31
0
210
0
220
0
230
1
40
0.999239
41
0.932434135895536
42
3.11274871852009
0
ELLIPSE
5
18E
100
AcDbEntity
8
1
62
256
6
ByLayer
370
-1
48
1
60
0
100
AcDbEllipse
10
47.62739
20
-2.81691
30
0
11
30.1288092499624
21
-1.55361011779841
31
0
210
0
220
0
230
-1
40
0.094585
41
1.36547402207642
42
2.36080545735796
0
ELLIPSE
5
18F
100
AcDbEntity
8
1
62
256
6
ByLayer
370
-1
48
1
60
0
100
AcDbEllipse
10
52.815278
20
0
30
0
11
4.04892541528236
21
19.3419746107045
31
0
210
0
220
0
230
-1
40
0.171537
41
-1.56852208146857
42
-1.49422189782407
0
ELLIPSE
5
190
100
AcDbEntity
8
1
62
256
6
ByLayer
370
-1
48
1
60
0
100
AcDbEllipse
10
54.860915
20
-15.502698
30
0
11
-0.894100188155023
21
1.78901784606559
31
0
210
0
220
0
230
1
40
0.999239
41
-1.12201140721734
42
-0.042481825568501
0
ELLIPSE
5
191
100
AcDbEntity
8
1
62
256
6
ByLayer
370
-1
48
1
60
0
100
AcDbEllipse
10
53.137517
20
-3.554819
30
0
11
-0.127276193942232
21
-3.99797458351796
31
0
210
0
220
0
230
1
40
0.17428
41
0.942217310954039
42
2.56738495244316
0
ELLIPSE
5
192
100
AcDbEntity
8
1
62
256
6
ByLayer
370
-1
48
1
60
0
100
AcDbEllipse
10
47.766988
20
41.154067
30
0
11
5.46372451102483
21
-31.2576508694491
31
0
210
0
220
0
230
-1
40
0.81897
41
0.737870765746909
42
0.925152462580824
0
ELLIPSE
5
193
100
AcDbEntity
8
1
62
256
6
ByLayer
370
-1
48
1
60
0
100
AcDbEllipse
10
52.815278
20
0
30
0
11
3.60224130179125
21
19.341509479587
31
0
210
0
220
0
230
-1
40
0.196372
41
2.99256838599903
42
3.06686856879373
0
ELLIPSE
5
194
100
AcDbEntity
8
1
62
256
6
ByLayer
370
-1
48
1
60
0
100
AcDbEllipse
10
60.986288
20
-1E-06
30
0
11
554.238928757926
21
-19.3515092866609
31
0
210
0
220
0
230
-1
40
0.000609
41
-1.61224264435608
42
-1.5915315196581
0
ELLIPSE
5
195
100
AcDbEntity
8
1
62
256
6
ByLayer
370
-1
48
1
60
0
100
AcDbEllipse
10
60.118031
20
-3.84841
30
0
11
-2.34963094872263
21
-0.0820634194072786
31
0
210
0
220
0
230
1
40
0.017442
41
0.633044567674715
42
1.13663584701975
0
ELLIPSE
5
196
100
AcDbEntity
8
1
62
256
6
ByLayer
370
-1
48
1
60
0
100
AcDbEllipse
10
47.766988
20
1.180045
30
0
11
26.1756543359798
21
-0.952134027330584
31
0
210
0
220
0
230
-1
40
0.02098
41
1.49378272346585
42
2.28490640433363
0
ELLIPSE
5
197
100
AcDbEntity
8
1
62
256
6
ByLayer
370
-1
48
1
60
0
100
AcDbEllipse
10
-0.948929
20
0
30
0
11
9.36741787978225
21
-19.7417491527505
31
0
210
0
220
0
230
-1
40
0.341999
41
-1.09631952749989
42
-0.152726244898338
0
ELLIPSE
5
198
100
AcDbEntity
8
1
62
256
6
ByLayer
370
-1
48
1
60
0
100
AcDbEllipse
10
60.986269
20
3E-06
30
0
11
554.2386162915
21
0.338193929896457
31
0
210
0
220
0
230
-1
40
0.034915
41
-1.61220007471703
42
-1.59148893835309
0
ELLIPSE
5
199
100
AcDbEntity
8
1
62
256
6
ByLayer
370
-1
48
1
60
0
100
AcDbEllipse
10
59.854784
20
0.619206
30
0
11
3.70373014854928
21
20.89459883857
31
0
210
0
220
0
230
-1
40
0.030853
41
2.54862184040087
42
2.69257897479945
0
ELLIPSE
5
19A
100
AcDbEntity
8
1
62
256
6
ByLayer
370
-1
48
1
60
0
100
AcDbEllipse
10
52.815278
20
0
30
0
11
3.60224129313111
21
-19.3415094268857
31
0
210
0
220
0
230
-1
40
0.196372
41
-3.0668685686814
42
-2.99256838578533
0
ELLIPSE
5
19B
100
AcDbEntity
8
1
62
256
6
ByLayer
370
-1
48
1
60
0
100
AcDbEllipse
10
55.012925
20
-15.426727
30
0
11
-0.894100188155023
21
1.78901784606559
31
0
210
0
220
0
230
1
40
0.999239
41
0
42
6.28318530717959
0
ELLIPSE
5
19C
100
AcDbEntity
8
1
62
256
6
ByLayer
370
-1
48
1
60
0
100
AcDbEllipse
10
55.18562
20
14.029031
30
0
11
2.20388446078439
21
0.752095695559413
31
0
210
0
220
0
230
-1
40
0.689379
41
0.697215125951485
42
3.09495697717987
0
ELLIPSE
5
19D
100
AcDbEntity
8
1
62
256
6
ByLayer
370
-1
48
1
60
0
100
AcDbEllipse
10
60.98627
20
-2E-06
30
0
11
554.238640273495
21
-0.338193896794055
31
0
210
0
220
0
230
-1
40
0.034915
41
1.59148893992585
42
1.61220007539432
0
ELLIPSE
5
19E
100
AcDbEntity
8
1
62
256
6
ByLayer
370
-1
48
1
60
0
100
AcDbEllipse
10
16.948929
20
0
30
0
11
9.36741787978182
21
-19.74174915275
31
0
210
0
220
0
230
-1
40
0.341999
41
2.04527312608989
42
2.98886640869145
0
ELLIPSE
5
19F
100
AcDbEntity
8
1
62
256
6
ByLayer
370
-1
48
1
60
0
100
AcDbEllipse
10
55.278382
20
0.596511
30
0
11
3.56798048518584
21
20.1287669249059
31
0
210
0
220
0
230
-1
40
0.030853
41
2.44940427871265
42
2.66651412240593
0
ELLIPSE
5
1A0
100
AcDbEntity
8
1
62
256
6
ByLayer
370
-1
48
1
60
0
100
AcDbEllipse
10
55.278382
20
0.107241
30
0
11
0.661841233106145
21
20.1201723145713
31
0
210
0
220
0
230
-1
40
0.176969
41
-1.10716586396846
42
-0.890056020325147
0
ELLIPSE
5
1A1
100
AcDbEntity
8
1
62
256
6
ByLayer
370
-1
48
1
60
0
100
AcDbEllipse
10
55.18562
20
-15.340419
30
0
11
2.06613133988797
21
-0.953313713339437
31
0
210
0
220
0
230
-1
40
0.971095
41
2.99804123176879
42
-0.887402224182418
0
ELLIPSE
5
1A2
100
AcDbEntity
8
1
62
256
6
ByLayer
370
-1
48
1
60
0
100
AcDbEllipse
10
16.948929
20
0
30
0
11
9.36741787978163
21
19.7417491527496
31
0
210
0
220
0
230
-1
40
0.341999
41
-2.98886640869145
42
-2.04527312608988
0
ELLIPSE
5
1A3
100
AcDbEntity
8
1
62
256
6
ByLayer
370
-1
48
1
60
0
100
AcDbEllipse
10
59.854784
20
0.111321
30
0
11
0.687022068568466
21
20.8856772654465
31
0
210
0
220
0
230
-1
40
0.176969
41
-1.13323071678098
42
-0.989273582538682
0
ELLIPSE
5
1A4
100
AcDbEntity
8
1
62
256
6
ByLayer
370
-1
48
1
60
0
100
AcDbEllipse
10
54.860949
20
15.815468
30
0
11
-1.25392643579823
21
-2.50899932805683
31
0
210
0
220
0
230
1
40
0.999239
41
0
42
6.28318530717959
0
ELLIPSE
5
1A5
100
AcDbEntity
8
1
62
256
6
ByLayer
370
-1
48
1
60
0
100
AcDbEllipse
10
59.187784
20
-2.423973
30
0
11
-0.494751531919204
21
0.072255945524235
31
0
210
0
220
0
230
1
40
0.902242
41
3.05158854489458
42
-3.13568942839239
0
ELLIPSE
5
1A6
100
AcDbEntity
8
1
62
256
6
ByLayer
370
-1
48
1
60
0
100
AcDbEllipse
10
58.868946
20
-3.92431
30
0
11
0.515421115638799
21
0.018897425921828
31
0
210
0
220
0
230
-1
40
0.018245
41
-0.0369388482023396
42
0.186339212087802
0
ELLIPSE
5
1A7
100
AcDbEntity
8
1
62
256
6
ByLayer
370
-1
48
1
60
0
100
AcDbEllipse
10
59.687468
20
-3.921155
30
0
11
0.826879324176703
21
0.0287132524546976
31
0
210
0
220
0
230
-1
40
0.016882
41
-2.31910443852007
42
-2.18685042855741
0
ELLIPSE
5
1A8
100
AcDbEntity
8
1
62
256
6
ByLayer
370
-1
48
1
60
0
100
AcDbEllipse
10
58.819936
20
-3.902308
30
0
11
0.516708652033123
21
0.0183409697864035
31
0
210
0
220
0
230
-1
40
0.017005
41
-1.35899792754554
42
-0.0345308299921029
0
ELLIPSE
5
1A9
100
AcDbEntity
8
1
62
256
6
ByLayer
370
-1
48
1
60
0
100
AcDbEllipse
10
59.105853
20
-2.635389
30
0
11
-0.487733864531921
21
0.110071237790612
31
0
210
0
220
0
230
1
40
0.110317
41
1.7781176211767
42
3.10258471872968
0
ELLIPSE
5
1AA
100
AcDbEntity
8
1
62
256
6
ByLayer
370
-1
48
1
60
0
100
AcDbEllipse
10
57.033673
20
-19.949793
30
0
11
0.288333242192541
21
0.408489830285575
31
0
210
0
220
0
230
1
40
0.906863
41
-2.65675479570121
42
-2.43347673540545
0
ELLIPSE
5
1AB
100
AcDbEntity
8
1
62
256
6
ByLayer
370
-1
48
1
60
0
100
AcDbEllipse
10
57.96375
20
-20.074143
30
0
11
0.0325536782051986
21
0.498939132595663
31
0
210
0
220
0
230
1
40
0.361591
41
-2.93574713977791
42
-2.84319576798024
0
ELLIPSE
5
1AC
100
AcDbEntity
8
1
62
256
6
ByLayer
370
-1
48
1
60
0
100
AcDbEllipse
10
58.819936
20
-12.827403
30
0
11
0.465187163608327
21
0.234304327232244
31
0
210
0
220
0
230
-1
40
0.959946
41
0.196174708704867
42
0.415229074543203
0
ELLIPSE
5
1AD
100
AcDbEntity
8
1
62
256
6
ByLayer
370
-1
48
1
60
0
100
AcDbEllipse
10
55.596495
20
-18.740667
30
0
11
0.655372673696261
21
1.7094504484787
31
0
210
0
220
0
230
-1
40
0.430309
41
2.27325458837642
42
2.99949977994727
0
ELLIPSE
5
1AE
100
AcDbEntity
8
1
62
256
6
ByLayer
370
-1
48
1
60
0
100
AcDbEllipse
10
58.30915
20
-15.256625
30
0
11
1.21957908046748
21
-0.545701133902691
31
0
210
0
220
0
230
-1
40
0.586824
41
-0.931809907864037
42
-0.205564716294232
0
ELLIPSE
5
1AF
100
AcDbEntity
8
1
62
256
6
ByLayer
370
-1
48
1
60
0
100
AcDbEllipse
10
55.325518
20
-19.676747
30
0
11
0.726704639831051
21
0.550765116659859
31
0
210
0
220
0
230
-1
40
0.801155
41
2.44415800646516
42
2.5033109807281
0
ELLIPSE
5
1B0
100
AcDbEntity
8
1
62
256
6
ByLayer
370
-1
48
1
60
0
100
AcDbEllipse
10
59.105853
20
-12.683245
30
0
11
-0.225104218042187
21
0.446461746423605
31
0
210
0
220
0
230
1
40
0.969514
41
-1.98645609565731
42
-0.959725530383475
0
ELLIPSE
5
1B1
100
AcDbEntity
8
1
62
256
6
ByLayer
370
-1
48
1
60
0
100
AcDbEllipse
10
59.187784
20
-13.518883
30
0
11
-0.498811589792649
21
0.0344528357110132
31
0
210
0
220
0
230
1
40
0.426703
41
-2.98701898188144
42
-2.89111164798882
0
ELLIPSE
5
1B2
100
AcDbEntity
8
1
62
256
6
ByLayer
370
-1
48
1
60
0
100
AcDbEllipse
10
54.991822
20
-15.750061
30
0
11
-0.916452692858899
21
1.83374329221723
31
0
210
0
220
0
230
1
40
0.999239
41
0
42
0.808272942383947
0
ELLIPSE
5
1B3
100
AcDbEntity
8
1
62
256
6
ByLayer
370
-1
48
1
60
0
100
AcDbEllipse
10
58.751766
20
-17.27896
30
0
11
0.00144849350510444
21
0.818212938666004
31
0
210
0
220
0
230
-1
40
0.622863
41
1.84395477320859
42
1.90310775102172
0
ELLIPSE
5
1B4
100
AcDbEntity
8
1
62
256
6
ByLayer
370
-1
48
1
60
0
100
AcDbEllipse
10
57.203142
20
-20.013527
30
0
11
0.0468932941704317
21
0.49779616206018
31
0
210
0
220
0
230
1
40
0.438556
41
-2.92757151318785
42
-2.83166417929527
0
ELLIPSE
5
1B5
100
AcDbEntity
8
1
62
256
6
ByLayer
370
-1
48
1
60
0
100
AcDbEllipse
10
56.561941
20
-19.61682
30
0
11
0.475203324515178
21
-0.289470217311622
31
0
210
0
220
0
230
-1
40
0.8981
41
0.937836241229802
42
1.16111430110255
0
ELLIPSE
5
1B6
100
AcDbEntity
8
1
62
256
6
ByLayer
370
-1
48
1
60
0
100
AcDbEllipse
10
55.106069
20
-20.434829
30
0
11
0.135549757008272
21
0.816829533752058
31
0
210
0
220
0
230
-1
40
0.965705
41
0.383887565011048
42
0.795841618816609
0
ELLIPSE
5
1B7
100
AcDbEntity
8
1
62
256
6
ByLayer
370
-1
48
1
60
0
100
AcDbEllipse
10
59.687468
20
-15.642986
30
0
11
0.813618385505889
21
-0.152665528335201
31
0
210
0
220
0
230
-1
40
0.966132
41
-2.75680822506796
42
-2.36677182347949
0
ELLIPSE
5
1B8
100
AcDbEntity
8
1
62
256
6
ByLayer
370
-1
48
1
60
0
100
AcDbEllipse
10
53.297844
20
-20.114631
30
0
11
0.135549757012976
21
0.816829533746641
31
0
210
0
220
0
230
-1
40
0.965705
41
-0.774954707985682
42
-0.371260170630219
0
ELLIPSE
5
1B9
100
AcDbEntity
8
1
62
256
6
ByLayer
370
-1
48
1
60
0
100
AcDbEllipse
10
58.042238
20
-19.920391
30
0
11
0.472230304882854
21
0.164312321967181
31
0
210
0
220
0
230
1
40
0.958519
41
-1.84865593467541
42
-0.524188837135172
0
ELLIPSE
5
1BA
100
AcDbEntity
8
1
62
256
6
ByLayer
370
-1
48
1
60
0
100
AcDbEllipse
10
50.807751
20
-18.851881
30
0
11
0.224734967709996
21
-0.446647729523376
31
0
210
0
220
0
230
1
40
0.947457
41
-1.98559470698267
42
-0.661127609442408
0
ELLIPSE
5
1BB
100
AcDbEntity
8
1
62
256
6
ByLayer
370
-1
48
1
60
0
100
AcDbEllipse
10
57.9902
20
-17.065482
30
0
11
1.21957908046094
21
-0.545701133905599
31
0
210
0
220
0
230
-1
40
0.586824
41
-0.0872587726467647
42
0.638986418924725
0
ELLIPSE
5
1BC
100
AcDbEntity
8
1
62
256
6
ByLayer
370
-1
48
1
60
0
100
AcDbEllipse
10
54.991822
20
-15.750061
30
0
11
-0.994308934574971
21
1.98952695908466
31
0
210
0
220
0
230
1
40
0.999239
41
-0.579890237401428
42
0
0
ELLIPSE
5
1BD
100
AcDbEntity
8
1
62
256
6
ByLayer
370
-1
48
1
60
0
100
AcDbEllipse
10
54.991822
20
-15.750061
30
0
11
-0.994308934574971
21
1.98952695908466
31
0
210
0
220
0
230
1
40
0.999239
41
0
42
0.224063085478608
0
ELLIPSE
5
1BE
100
AcDbEntity
8
1
62
256
6
ByLayer
370
-1
48
1
60
0
100
AcDbEllipse
10
59.368518
20
-17.451844
30
0
11
0.813618385484063
21
-0.152665528429524
31
0
210
0
220
0
230
-1
40
0.966132
41
2.34561715678422
42
2.73659758422462
0
ELLIPSE
5
1BF
100
AcDbEntity
8
1
62
256
6
ByLayer
370
-1
48
1
60
0
100
AcDbEllipse
10
53.78827
20
-18.420469
30
0
11
0.655372673689099
21
1.70945044846081
31
0
210
0
220
0
230
-1
40
0.430309
41
3.11780572359704
42
-2.43913439200751
0
ELLIPSE
5
1C0
100
AcDbEntity
8
1
62
256
6
ByLayer
370
-1
48
1
60
0
100
AcDbEllipse
10
53.517294
20
-19.356549
30
0
11
0.726704638171244
21
0.550765186909351
31
0
210
0
220
0
230
-1
40
0.801155
41
2.50331104326326
42
2.56246401585296
0
ELLIPSE
5
1C1
100
AcDbEntity
8
1
62
256
6
ByLayer
370
-1
48
1
60
0
100
AcDbEllipse
10
59.137035
20
-13.692683
30
0
11
-0.439308932379054
21
0.238762773337838
31
0
210
0
220
0
230
1
40
0.912198
41
-2.78598057870012
42
-2.56270251840436
0
ELLIPSE
5
1C2
100
AcDbEntity
8
1
62
256
6
ByLayer
370
-1
48
1
60
0
100
AcDbEllipse
10
59.070717
20
-15.470102
30
0
11
0.00144848301705395
21
0.818212948250048
31
0
210
0
220
0
230
-1
40
0.622863
41
1.78480181500979
42
1.84395479231721
0
ELLIPSE
5
1C3
100
AcDbEntity
8
1
62
256
6
ByLayer
370
-1
48
1
60
0
100
AcDbEllipse
10
57.919837
20
-19.568615
30
0
11
0.234430632764754
21
-0.465567913185787
31
0
210
0
220
0
230
-1
40
0.958485
41
-0.909350099259675
42
0.415116998295703
0
ELLIPSE
5
1C4
100
AcDbEntity
8
1
62
256
6
ByLayer
370
-1
48
1
60
0
100
AcDbEllipse
10
51.181158
20
-18.663998
30
0
11
0.465187163608874
21
0.23430432723118
31
0
210
0
220
0
230
-1
40
0.959946
41
2.23235463057564
42
3.08555889451209
0
ELLIPSE
5
1C5
100
AcDbEntity
8
1
62
256
6
ByLayer
370
-1
48
1
60
0
100
AcDbEllipse
10
58.868946
20
-14.185951
30
0
11
0.286308215401426
21
0.476902827798028
31
0
210
0
220
0
230
-1
40
0.898688
41
0.944243689759358
42
1.1675217492951
0
ELLIPSE
5
1C6
100
AcDbEntity
8
1
62
256
6
ByLayer
370
-1
48
1
60
0
100
AcDbEllipse
10
53.297844
20
4.222372
30
0
11
0.800378067136291
21
-0.0281259981207861
31
0
210
0
220
0
230
-1
40
0.018018
41
1.77124566109222
42
2.17494053831729
0
ELLIPSE
5
1C7
100
AcDbEntity
8
1
62
256
6
ByLayer
370
-1
48
1
60
0
100
AcDbEllipse
10
59.137035
20
2.674471
30
0
11
0.488879845815541
21
0.104864180516383
31
0
210
0
220
0
230
1
40
0.360013
41
-0.181720334169497
42
-5.93863615563727E-06
0
ELLIPSE
5
1C8
100
AcDbEntity
8
1
62
256
6
ByLayer
370
-1
48
1
60
0
100
AcDbEllipse
10
57.96375
20
2.272521
30
0
11
0.181129381130797
21
0.466038783033316
31
0
210
0
220
0
230
1
40
0.060702
41
1.29598733881254
42
1.38853871061028
0
ELLIPSE
5
1C9
100
AcDbEntity
8
1
62
256
6
ByLayer
370
-1
48
1
60
0
100
AcDbEllipse
10
58.30915
20
9.990851
30
0
11
1.25380522490529
21
-9.08257970486938
31
0
210
0
220
0
230
-1
40
0.014728
41
-0.781317342170359
42
-0.0550721505867404
0
ELLIPSE
5
1CA
100
AcDbEntity
8
1
62
256
6
ByLayer
370
-1
48
1
60
0
100
AcDbEllipse
10
53.517294
20
6.898941
30
0
11
0.323451410461745
21
5.68463962023201
31
0
210
0
220
0
230
-1
40
0.13831
41
3.13813232605843
42
-3.08590000916921
0
ELLIPSE
5
1CB
100
AcDbEntity
8
1
62
256
6
ByLayer
370
-1
48
1
60
0
100
AcDbEllipse
10
59.687468
20
3.921155
30
0
11
0.826879324176705
21
-0.0287132524546971
31
0
210
0
220
0
230
-1
40
0.016882
41
2.18685042855742
42
2.57688664317789
0
ELLIPSE
5
1CC
100
AcDbEntity
8
1
62
256
6
ByLayer
370
-1
48
1
60
0
100
AcDbEllipse
10
54.860949
20
0.089688
30
0
11
2.80318103446625
21
-0.0979041500244906
31
0
210
0
220
0
230
1
40
0.017442
41
0
42
-2.87200521995333
0
ELLIPSE
5
1CD
100
AcDbEntity
8
1
62
256
6
ByLayer
370
-1
48
1
60
0
100
AcDbEllipse
10
54.860949
20
0.089688
30
0
11
2.80318103446625
21
-0.0979041500244906
31
0
210
0
220
0
230
1
40
0.017442
41
-0.26948989926064
42
-1.418332639195E-14
0
ELLIPSE
5
1CE
100
AcDbEntity
8
1
62
256
6
ByLayer
370
-1
48
1
60
0
100
AcDbEllipse
10
55.325518
20
6.841376
30
0
11
0.323451413215293
21
5.68463966959398
31
0
210
0
220
0
230
-1
40
0.13831
41
3.07897935437974
42
3.13813232607475
0
ELLIPSE
5
1CF
100
AcDbEntity
8
1
62
256
6
ByLayer
370
-1
48
1
60
0
100
AcDbEllipse
10
56.561941
20
4.099681
30
0
11
0.541667973402277
21
-0.0180659198283763
31
0
210
0
220
0
230
-1
40
0.016524
41
-1.66226240230767
42
-1.43898434205473
0
ELLIPSE
5
1D0
100
AcDbEntity
8
1
62
256
6
ByLayer
370
-1
48
1
60
0
100
AcDbEllipse
10
58.042238
20
2.798862
30
0
11
0.497629617390851
21
0.0486288381049304
31
0
210
0
220
0
230
1
40
0.269198
41
0.175973412700872
42
1.50044051024112
0
ELLIPSE
5
1D1
100
AcDbEntity
8
1
62
256
6
ByLayer
370
-1
48
1
60
0
100
AcDbEllipse
10
55.106069
20
4.164807
30
0
11
0.800378067164295
21
-0.0281259981215797
31
0
210
0
220
0
230
-1
40
0.018018
41
0.604144211519386
42
1.38954237491452
0
ELLIPSE
5
1D2
100
AcDbEntity
8
1
62
256
6
ByLayer
370
-1
48
1
60
0
100
AcDbEllipse
10
59.070717
20
6.637143
30
0
11
0.491076640348021
21
-5.72301395927184
31
0
210
0
220
0
230
-1
40
0.023813
41
-0.0538598062528669
42
0.00529316685372579
0
ELLIPSE
5
1D3
100
AcDbEntity
8
1
62
256
6
ByLayer
370
-1
48
1
60
0
100
AcDbEllipse
10
50.807751
20
3.032883
30
0
11
0.478702078124815
21
-0.144375622592541
31
0
210
0
220
0
230
1
40
0.143778
41
1.78707183091492
42
3.11153892845523
0
ELLIPSE
5
1D4
100
AcDbEntity
8
1
62
256
6
ByLayer
370
-1
48
1
60
0
100
AcDbEllipse
10
55.596495
20
10.146407
30
0
11
0.594527704118691
21
8.99546796224102
31
0
210
0
220
0
230
-1
40
0.087331
41
2.35320909178577
42
3.0794542833565
0
ELLIPSE
5
1D5
100
AcDbEntity
8
1
62
256
6
ByLayer
370
-1
48
1
60
0
100
AcDbEllipse
10
53.78827
20
10.203973
30
0
11
0.594527704111335
21
8.9954679621394
31
0
210
0
220
0
230
-1
40
0.087331
41
-3.08542508017307
42
-2.35917988859784
0
ELLIPSE
5
1D6
100
AcDbEntity
8
1
62
256
6
ByLayer
370
-1
48
1
60
0
100
AcDbEllipse
10
50.644752
20
2.505924
30
0
11
0.489172044581772
21
-0.103492563982581
31
0
210
0
220
0
230
1
40
0.948024
41
3.04800210155267
42
3.14055347335038
0
ELLIPSE
5
1D7
100
AcDbEntity
8
1
62
256
6
ByLayer
370
-1
48
1
60
0
100
AcDbEllipse
10
57.919837
20
4.051413
30
0
11
0.504071177588162
21
-0.0173034761122305
31
0
210
0
220
0
230
-1
40
0.01787
41
-1.50280812411045
42
-0.178341026560559
0
ELLIPSE
5
1D8
100
AcDbEntity
8
1
62
256
6
ByLayer
370
-1
48
1
60
0
100
AcDbEllipse
10
58.868946
20
3.92431
30
0
11
0.515421115638799
21
-0.0188974259218279
31
0
210
0
220
0
230
-1
40
0.018245
41
-0.186339212087802
42
0.0369388482023868
0
ELLIPSE
5
1D9
100
AcDbEntity
8
1
62
256
6
ByLayer
370
-1
48
1
60
0
100
AcDbEllipse
10
57.203142
20
2.606653
30
0
11
0.220061063173194
21
0.448968961594322
31
0
210
0
220
0
230
1
40
0.084286
41
1.30215713587933
42
1.39806446977196
0
ELLIPSE
5
1DA
100
AcDbEntity
8
1
62
256
6
ByLayer
370
-1
48
1
60
0
100
AcDbEllipse
10
57.033673
20
2.857151
30
0
11
0.467445303995632
21
0.177467990838999
31
0
210
0
220
0
230
1
40
0.243021
41
1.43207241687862
42
1.65535047717439
0
ELLIPSE
5
1DB
100
AcDbEntity
8
1
62
256
6
ByLayer
370
-1
48
1
60
0
100
AcDbEllipse
10
50.710256
20
2.798698
30
0
11
0.48694277383295
21
-0.113519756042164
31
0
210
0
220
0
230
1
40
0.916491
41
3.06719175949448
42
-3.12008621379251
0
ELLIPSE
5
1DC
100
AcDbEntity
8
1
62
256
6
ByLayer
370
-1
48
1
60
0
100
AcDbEllipse
10
57.9902
20
10.033564
30
0
11
1.25380522494653
21
-9.08257970515851
31
0
210
0
220
0
230
-1
40
0.014728
41
0.06323379306351
42
0.789478984634542
0
ELLIPSE
5
1DD
100
AcDbEntity
8
1
62
256
6
ByLayer
370
-1
48
1
60
0
100
AcDbEllipse
10
51.181158
20
4.270979
30
0
11
0.516708652035221
21
-0.0183409697865015
31
0
210
0
220
0
230
-1
40
0.017005
41
-3.10706182359753
42
-1.78259472604756
0
ELLIPSE
5
1DE
100
AcDbEntity
8
1
62
256
6
ByLayer
370
-1
48
1
60
0
100
AcDbEllipse
10
58.751766
20
6.679857
30
0
11
0.491076675491387
21
-5.72301436879009
31
0
210
0
220
0
230
-1
40
0.023813
41
0.00529316666445991
42
0.0644461376538455
0
ELLIPSE
5
1DF
100
AcDbEntity
8
1
62
256
6
ByLayer
370
-1
48
1
60
0
100
AcDbEllipse
10
59.187784
20
2.423973
30
0
11
0.494751531919204
21
0.072255945524234
31
0
210
0
220
0
230
1
40
0.902242
41
-0.00590322519740234
42
0.0900041086952146
0
ELLIPSE
5
1E0
100
AcDbEntity
8
1
62
256
6
ByLayer
370
-1
48
1
60
0
100
AcDbEllipse
10
54.899519
20
15.796192
30
0
11
-0.53936593850452
21
-1.07922501563906
31
0
210
0
220
0
230
1
40
0.999239
41
-0.863401502483591
42
0.116158689141729
0
ELLIPSE
5
1E1
100
AcDbEntity
8
1
62
256
6
ByLayer
370
-1
48
1
60
0
100
AcDbEllipse
10
54.859257
20
15.816313
30
0
11
0.539365938504522
21
1.07922501563906
31
0
210
0
220
0
230
1
40
0.999239
41
2.14012588428231
42
2.2781911511062
0
ELLIPSE
5
1E2
100
AcDbEntity
8
1
62
256
6
ByLayer
370
-1
48
1
60
0
100
AcDbEllipse
10
54.849787
20
15.821046
30
0
11
0.749479482720954
21
1.49964420946447
31
0
210
0
220
0
230
1
40
0.999239
41
2.73554784097389
42
-2.50323046269043
0
ELLIPSE
5
1E3
100
AcDbEntity
8
1
62
256
6
ByLayer
370
-1
48
1
60
0
100
AcDbEllipse
10
54.849787
20
15.821046
30
0
11
0.749479482720954
21
1.49964420946447
31
0
210
0
220
0
230
1
40
0.999239
41
-2.50323046269043
42
-1.45882345917517
0
ELLIPSE
5
1E4
100
AcDbEntity
8
1
62
256
6
ByLayer
370
-1
48
1
60
0
100
AcDbEllipse
10
54.899519
20
15.796192
30
0
11
-0.53936593850452
21
-1.07922501563906
31
0
210
0
220
0
230
1
40
0.999239
41
0.145532765450759
42
1.02513558794835
0
ELLIPSE
5
1E5
100
AcDbEntity
8
1
62
256
6
ByLayer
370
-1
48
1
60
0
100
AcDbEllipse
10
54.859257
20
15.816313
30
0
11
0.539365938504522
21
1.07922501563906
31
0
210
0
220
0
230
1
40
0.999239
41
-1.00146676930738
42
-0.863401502483686
0
ELLIPSE
5
1E6
100
AcDbEntity
8
1
62
256
6
ByLayer
370
-1
48
1
60
0
100
AcDbEllipse
10
54.899519
20
15.796192
30
0
11
0.539365938504522
21
1.07922501563906
31
0
210
0
220
0
230
1
40
0.999239
41
0.234192933552993
42
1.16056569265698
0
ELLIPSE
5
1E7
100
AcDbEntity
8
1
62
256
6
ByLayer
370
-1
48
1
60
0
100
AcDbEllipse
10
54.899519
20
15.796192
30
0
11
-0.53936593850452
21
-1.07922501563906
31
0
210
0
220
0
230
1
40
0.999239
41
-1.98102696093282
42
-1.00146676930748
0
ELLIPSE
5
1E8
100
AcDbEntity
8
1
62
256
6
ByLayer
370
-1
48
1
60
0
100
AcDbEllipse
10
54.849787
20
15.821046
30
0
11
0.749479482720954
21
1.49964420946447
31
0
210
0
220
0
230
1
40
0.999239
41
-1.45882345917517
42
-0.406044812615895
0
ELLIPSE
5
1E9
100
AcDbEntity
8
1
62
256
6
ByLayer
370
-1
48
1
60
0
100
AcDbEllipse
10
53.68572
20
17.246593
30
0
11
-0.306676364537174
21
-0.613633121200496
31
0
210
0
220
0
230
1
40
0.999239
41
1.16056569265699
42
1.9445563362778
0
ELLIPSE
5
1EA
100
AcDbEntity
8
1
62
256
6
ByLayer
370
-1
48
1
60
0
100
AcDbEllipse
10
54.849787
20
15.821046
30
0
11
0.749479482720954
21
1.49964420946447
31
0
210
0
220
0
230
1
40
0.999239
41
1.68276919441462
42
2.73554784097389
0
ELLIPSE
5
1EB
100
AcDbEntity
8
1
62
256
6
ByLayer
370
-1
48
1
60
0
100
AcDbEllipse
10
54.899519
20
15.796192
30
0
11
0.539365938504522
21
1.07922501563906
31
0
210
0
220
0
230
1
40
0.999239
41
2.14012588428231
42
2.27819115110621
0
ELLIPSE
5
1EC
100
AcDbEntity
8
1
62
256
6
ByLayer
370
-1
48
1
60
0
100
AcDbEllipse
10
54.849787
20
15.821046
30
0
11
0.749479482720954
21
1.49964420946447
31
0
210
0
220
0
230
1
40
0.999239
41
0.63836219089935
42
1.68276919441462
0
ELLIPSE
5
1ED
100
AcDbEntity
8
1
62
256
6
ByLayer
370
-1
48
1
60
0
100
AcDbEllipse
10
53.04474
20
15.46775
30
0
11
-0.306676364537174
21
-0.613633121200496
31
0
210
0
220
0
230
1
40
0.999239
41
2.33077255891123
42
3.0004198526155
0
ELLIPSE
5
1EE
100
AcDbEntity
8
1
62
256
6
ByLayer
370
-1
48
1
60
0
100
AcDbEllipse
10
54.899519
20
15.796192
30
0
11
-0.53936593850452
21
-1.07922501563906
31
0
210
0
220
0
230
1
40
0.999239
41
1.26609816959345
42
2.07740385205357
0
ELLIPSE
5
1EF
100
AcDbEntity
8
1
62
256
6
ByLayer
370
-1
48
1
60
0
100
AcDbEllipse
10
54.849787
20
15.821046
30
0
11
0.749479482720954
21
1.49964420946447
31
0
210
0
220
0
230
1
40
0.999239
41
-0.406044812615895
42
0.63836219089935
0
ELLIPSE
5
1F0
100
AcDbEntity
8
1
62
256
6
ByLayer
370
-1
48
1
60
0
100
AcDbEllipse
10
54.899519
20
15.796192
30
0
11
-0.53936593850452
21
-1.07922501563906
31
0
210
0
220
0
230
1
40
0.999239
41
2.35542317371979
42
-3.02543396444807
0
ELLIPSE
5
1F1
100
AcDbEntity
8
1
62
256
6
ByLayer
370
-1
48
1
60
0
100
AcDbEllipse
10
55.543811
20
17.575622
30
0
11
-0.306676364537174
21
-0.613633121200496
31
0
210
0
220
0
230
1
40
0.999239
41
0.116158689141722
42
0.900149332762536
0
ELLIPSE
5
1F2
100
AcDbEntity
8
1
62
256
6
ByLayer
370
-1
48
1
60
0
100
AcDbEllipse
10
55.139869
20
14.433094
30
0
11
-0.130538627470634
21
-0.261196605525576
31
0
210
0
220
0
230
1
40
0.999239
41
-0.667831954479067
42
1.20918327927294E-06
0
ELLIPSE
5
1F3
100
AcDbEntity
8
1
62
256
6
ByLayer
370
-1
48
1
60
0
100
AcDbEllipse
10
54.255226
20
14.016762
30
0
11
-0.306676364537174
21
-0.613633121200496
31
0
210
0
220
0
230
1
40
0.999239
41
2.47376069911069
42
3.14158631878882
0
ELLIPSE
5
1F4
100
AcDbEntity
8
1
62
256
6
ByLayer
370
-1
48
1
60
0
100
AcDbEllipse
10
53.842115
20
14.902724
30
0
11
-0.130538627470634
21
-0.261196605525576
31
0
210
0
220
0
230
1
40
0.999239
41
-1.72369547081675
42
-0.132498298294014
0
ELLIPSE
5
1F5
100
AcDbEntity
8
1
62
256
6
ByLayer
370
-1
48
1
60
0
100
AcDbEllipse
10
53.04474
20
15.46775
30
0
11
-0.306676364537174
21
-0.613633121200496
31
0
210
0
220
0
230
1
40
0.999239
41
1.41789718277302
42
2.08754447647727
0
ELLIPSE
5
1F6
100
AcDbEntity
8
1
62
256
6
ByLayer
370
-1
48
1
60
0
100
AcDbEllipse
10
53.600604
20
16.272405
30
0
11
-0.130538627470634
21
-0.261196605525576
31
0
210
0
220
0
230
1
40
0.999239
41
-2.76501760455364
42
-0.141172800974335
0
ELLIPSE
5
1F7
100
AcDbEntity
8
1
62
256
6
ByLayer
370
-1
48
1
60
0
100
AcDbEllipse
10
53.68572
20
17.246593
30
0
11
-0.306676364537174
21
-0.613633121200496
31
0
210
0
220
0
230
1
40
0.999239
41
0.376575049036203
42
1.16056569265699
0
ELLIPSE
5
1F8
100
AcDbEntity
8
1
62
256
6
ByLayer
370
-1
48
1
60
0
100
AcDbEllipse
10
54.659168
20
17.159289
30
0
11
-0.130538627470634
21
-0.261196605525576
31
0
210
0
220
0
230
1
40
0.999239
41
-2.98137892648109
42
-1.19703631731204
0
ELLIPSE
5
1F9
100
AcDbEntity
8
1
62
256
6
ByLayer
370
-1
48
1
60
0
100
AcDbEllipse
10
55.956922
20
16.689659
30
0
11
-0.130538627470634
21
-0.261196605525576
31
0
210
0
220
0
230
1
40
0.999239
41
3.14155985298402
42
-2.24144332082727
0
ELLIPSE
5
1FA
100
AcDbEntity
8
1
62
256
6
ByLayer
370
-1
48
1
60
0
100
AcDbEllipse
10
54.849787
20
15.821046
30
0
11
0.804690169339528
21
1.61011606145903
31
0
210
0
220
0
230
1
40
0.999239
41
0
42
6.28318530717959
0
ELLIPSE
5
1FB
100
AcDbEntity
8
1
62
256
6
ByLayer
370
-1
48
1
60
0
100
AcDbEllipse
10
54.860843
20
15.815521
30
0
11
1.21821150636123
21
2.43753681526435
31
0
210
0
220
0
230
1
40
0.999239
41
0
42
6.28318530717959
0
ELLIPSE
5
1FC
100
AcDbEntity
8
1
62
256
6
ByLayer
370
-1
48
1
60
0
100
AcDbEllipse
10
54.895156
20
15.798372
30
0
11
1.21821150636123
21
2.43753681526435
31
0
210
0
220
0
230
1
40
0.999239
41
-3.14152278624372
42
-1.10763617087041
0
ELLIPSE
5
1FD
100
AcDbEntity
8
1
62
256
6
ByLayer
370
-1
48
1
60
0
100
AcDbEllipse
10
54.895156
20
15.798372
30
0
11
1.21821150636123
21
2.43753681526435
31
0
210
0
220
0
230
1
40
0.999239
41
-1.1076361708704
42
0
0
ELLIPSE
5
1FE
100
AcDbEntity
8
1
62
256
6
ByLayer
370
-1
48
1
60
0
100
AcDbEllipse
10
54.992875
20
-15.749535
30
0
11
-0.894100188155024
21
1.78901784606559
31
0
210
0
220
0
230
1
40
0.999239
41
0
42
0.964076296862593
0
ELLIPSE
5
1FF
100
AcDbEntity
8
1
62
256
6
ByLayer
370
-1
48
1
60
0
100
AcDbEllipse
10
55.146432
20
-15.672791
30
0
11
-0.715280150524018
21
1.43121427685247
31
0
210
0
220
0
230
1
40
0.999239
41
0
42
6.28318530717959
0
ELLIPSE
5
200
100
AcDbEntity
8
1
62
256
6
ByLayer
370
-1
48
1
60
0
100
AcDbEllipse
10
55.132473
20
-15.679768
30
0
11
-0.894100188155022
21
1.78901784606559
31
0
210
0
220
0
230
1
40
0.999239
41
1.10763585875626
42
1.47863830850072
0
ELLIPSE
5
201
100
AcDbEntity
8
1
62
256
6
ByLayer
370
-1
48
1
60
0
100
AcDbEllipse
10
55.132473
20
-15.679768
30
0
11
-0.894100188155022
21
1.78901784606559
31
0
210
0
220
0
230
1
40
0.999239
41
3.14152288709781
42
0
0
ELLIPSE
5
202
100
AcDbEntity
8
1
62
256
6
ByLayer
370
-1
48
1
60
0
100
AcDbEllipse
10
55.132473
20
-15.679768
30
0
11
-0.894100188155022
21
1.78901784606559
31
0
210
0
220
0
230
1
40
0.999239
41
0
42
1.10763578549077
0
ELLIPSE
5
203
100
AcDbEntity
8
1
62
256
6
ByLayer
370
-1
48
1
60
0
100
AcDbEllipse
10
54.937896
20
-15.777012
30
0
11
-0.902124376319972
21
1.80507355885646
31
0
210
0
220
0
230
1
40
0.999239
41
-0.136434716970136
42
0
0
ELLIPSE
5
204
100
AcDbEntity
8
1
62
256
6
ByLayer
370
-1
48
1
60
0
100
AcDbEllipse
10
54.937896
20
-15.777012
30
0
11
-0.902124376319972
21
1.80507355885646
31
0
210
0
220
0
230
1
40
0.999239
41
0
42
0.547450832149825
0
ELLIPSE
5
205
100
AcDbEntity
8
1
62
256
6
ByLayer
370
-1
48
1
60
0
100
AcDbEllipse
10
54.849787
20
-0.229906
30
0
11
-1.67547841061946
21
0.0585179079264621
31
0
210
0
220
0
230
1
40
0.017442
41
0.701591213793594
42
1.74599821730885
0
ELLIPSE
5
206
100
AcDbEntity
8
1
62
256
6
ByLayer
370
-1
48
1
60
0
100
AcDbEllipse
10
54.860843
20
0.086647
30
0
11
-2.72333949832271
21
0.0951155974348996
31
0
210
0
220
0
230
1
40
0.017442
41
3.10025783125565
42
-1.40151803729076E-14
0
ELLIPSE
5
207
100
AcDbEntity
8
1
62
256
6
ByLayer
370
-1
48
1
60
0
100
AcDbEllipse
10
54.849787
20
-0.229906
30
0
11
-1.79890315485537
21
0.062828651516631
31
0
210
0
220
0
230
1
40
0.017442
41
0
42
6.28318530717959
0
ELLIPSE
5
208
100
AcDbEntity
8
1
62
256
6
ByLayer
370
-1
48
1
60
0
100
AcDbEllipse
10
54.849787
20
-0.229906
30
0
11
-1.67547841061946
21
0.0585179079264621
31
0
210
0
220
0
230
1
40
0.017442
41
2.79040522082411
42
-2.4400014397962
0
ELLIPSE
5
209
100
AcDbEntity
8
1
62
256
6
ByLayer
370
-1
48
1
60
0
100
AcDbEllipse
10
54.849787
20
-0.229906
30
0
11
-1.67547841061946
21
0.0585179079264621
31
0
210
0
220
0
230
1
40
0.017442
41
-2.4400014397962
42
-1.39559443628095
0
ELLIPSE
5
20A
100
AcDbEntity
8
1
62
256
6
ByLayer
370
-1
48
1
60
0
100
AcDbEllipse
10
54.849787
20
-0.229906
30
0
11
-1.67547841061946
21
0.0585179079264621
31
0
210
0
220
0
230
1
40
0.017442
41
-1.39559443628095
42
-0.351187432765685
0
ELLIPSE
5
20B
100
AcDbEntity
8
1
62
256
6
ByLayer
370
-1
48
1
60
0
100
AcDbEllipse
10
54.849787
20
-0.229906
30
0
11
-1.67547841061946
21
0.0585179079264621
31
0
210
0
220
0
230
1
40
0.017442
41
-0.351187432765685
42
0.701591213793594
0
ELLIPSE
5
20C
100
AcDbEntity
8
1
62
256
6
ByLayer
370
-1
48
1
60
0
100
AcDbEllipse
10
54.849787
20
-0.229906
30
0
11
-1.67547841061946
21
0.0585179079264621
31
0
210
0
220
0
230
1
40
0.017442
41
1.74599821730885
42
2.79040522082411
0
POINT
5
42
100
AcDbEntity
8
80
62
256
6
ByLayer
370
-1
48
1
60
0
100
AcDbPoint
10
0
20
0
30
0
39
0
210
0
220
0
230
1
50
360
0
POINT
5
44
100
AcDbEntity
8
2
62
256
6
ByLayer
370
-1
48
1
60
0
100
AcDbPoint
10
60
20
20.96
30
0
39
0
210
0
220
0
230
1
50
360
0
POINT
5
46
100
AcDbEntity
8
81
62
256
6
ByLayer
370
-1
48
1
60
0
100
AcDbPoint
10
60
20
20.96
30
0
39
0
210
0
220
0
230
1
50
360
0
POINT
5
48
100
AcDbEntity
8
4
62
256
6
ByLayer
370
-1
48
1
60
0
100
AcDbPoint
10
50.54898
20
19.823738
30
0
39
0
210
0
220
0
230
1
50
360
0
POINT
5
4A
100
AcDbEntity
8
4
62
256
6
ByLayer
370
-1
48
1
60
0
100
AcDbPoint
10
49.723199
20
18.842608
30
0
39
0
210
0
220
0
230
1
50
360
0
POINT
5
4B
100
AcDbEntity
8
4
62
256
6
ByLayer
370
-1
48
1
60
0
100
AcDbPoint
10
50.54898
20
19.823738
30
0
39
0
210
0
220
0
230
1
50
360
0
POINT
5
4C
100
AcDbEntity
8
4
62
256
6
ByLayer
370
-1
48
1
60
0
100
AcDbPoint
10
50.844239
20
19.876022
30
0
39
0
210
0
220
0
230
1
50
360
0
POINT
5
4D
100
AcDbEntity
8
4
62
256
6
ByLayer
370
-1
48
1
60
0
100
AcDbPoint
10
50.550519
20
19.822969
30
0
39
0
210
0
220
0
230
1
50
360
0
POINT
5
4E
100
AcDbEntity
8
4
62
256
6
ByLayer
370
-1
48
1
60
0
100
AcDbPoint
10
49.723199
20
18.842608
30
0
39
0
210
0
220
0
230
1
50
360
0
POINT
5
4F
100
AcDbEntity
8
4
62
256
6
ByLayer
370
-1
48
1
60
0
100
AcDbPoint
10
49.724738
20
18.841839
30
0
39
0
210
0
220
0
230
1
50
360
0
POINT
5
50
100
AcDbEntity
8
4
62
256
6
ByLayer
370
-1
48
1
60
0
100
AcDbPoint
10
49.723199
20
18.842608
30
0
39
0
210
0
220
0
230
1
50
360
0
POINT
5
51
100
AcDbEntity
8
4
62
256
6
ByLayer
370
-1
48
1
60
0
100
AcDbPoint
10
49.723216
20
18.542654
30
0
39
0
210
0
220
0
230
1
50
360
0
POINT
5
52
100
AcDbEntity
8
4
62
256
6
ByLayer
370
-1
48
1
60
0
100
AcDbPoint
10
49.723199
20
18.842608
30
0
39
0
210
0
220
0
230
1
50
360
0
POINT
5
53
100
AcDbEntity
8
4
62
256
6
ByLayer
370
-1
48
1
60
0
100
AcDbPoint
10
49.973047
20
18.842775
30
0
39
0
210
0
220
0
230
1
50
360
0
POINT
5
54
100
AcDbEntity
8
4
62
256
6
ByLayer
370
-1
48
1
60
0
100
AcDbPoint
10
50.54898
20
19.823738
30
0
39
0
210
0
220
0
230
1
50
360
0
POINT
5
55
100
AcDbEntity
8
4
62
256
6
ByLayer
370
-1
48
1
60
0
100
AcDbPoint
10
50.54898
20
19.823738
30
0
39
0
210
0
220
0
230
1
50
360
0
POINT
5
56
100
AcDbEntity
8
4
62
256
6
ByLayer
370
-1
48
1
60
0
100
AcDbPoint
10
50.59238
20
19.577603
30
0
39
0
210
0
220
0
230
1
50
360
0
SPLINE
5
20D
100
AcDbEntity
8
1
62
256
6
ByLayer
370
-1
48
1
60
0
100
AcDbSpline
70
4
71
1
72
4
73
2
40
0
40
0
40
1
40
1
41
1
10
59.9993486455586
20
-0.135046950926835
30
1E-16
41
1
10
59.9115384084278
20
0.868473937256937
30
1E-16
0
SPLINE
5
20E
100
AcDbEntity
8
1
62
256
6
ByLayer
370
-1
48
1
60
0
100
AcDbSpline
70
4
71
1
72
4
73
2
40
0
40
0
40
1
40
1
41
1
10
59.9114880321233
20
0.869175187324174
30
1E-16
41
1
10
59.7021353559444
20
2.35856535562794
30
1E-16
0
SPLINE
5
20F
100
AcDbEntity
8
1
62
256
6
ByLayer
370
-1
48
1
60
0
100
AcDbSpline
70
4
71
3
72
14
73
10
40
0
40
0
40
0
40
0
40
0.133004469530094
40
0.341511721673097
40
0.488869621224476
40
0.593062125238572
40
0.746732629676334
40
0.962797355441153
40
1
40
1
40
1
40
1
41
1
10
58.6224925280501
20
8.62663205587833
30
0
41
1
10
58.6030659363005
20
8.69510598689473
30
0
41
1
10
58.5532719939617
20
8.87160640885699
30
0
41
1
10
58.4825015092842
20
9.12725311569616
30
0
41
1
10
58.4159132293923
20
9.36951624038491
30
0
41
1
10
58.3570989604088
20
9.58487292092698
30
0
41
1
10
58.2899307243929
20
9.83348247735765
30
0
41
1
10
58.2322442958105
20
10.0471338696976
30
0
41
1
10
58.1968544713305
20
10.1808423030492
30
0
41
1
10
58.1916619487662
20
10.2004922018628
30
0
0
SPLINE
5
210
100
AcDbEntity
8
1
62
256
6
ByLayer
370
-1
48
1
60
0
100
AcDbSpline
70
4
71
3
72
8
73
4
40
0
40
0
40
0
40
0
40
1
40
1
40
1
40
1
41
1
10
58.5694838781009
20
-8.81492021099166
30
0
41
1
10
58.5871730354972
20
-8.75193900101624
30
0
41
1
10
58.6049069685854
20
-8.68912513992507
30
0
41
1
10
58.6226812469745
20
-8.62645323817617
30
0
0
SPLINE
5
211
100
AcDbEntity
8
SK1
62
256
6
ByLayer
370
-1
48
1
60
0
100
AcDbSpline
70
4
71
2
72
6
73
3
40
0
40
0
40
0
40
1
40
1
40
1
41
1
10
-2.5
20
14.0000000000425
30
-2E-16
41
1
10
-12.5002365839529
20
13.74875924915
30
1E-16
41
1
10
-22.5004731679057
20
13.4975184982574
30
0
0
SPLINE
5
212
100
AcDbEntity
8
SK1
62
256
6
ByLayer
370
-1
48
1
60
0
100
AcDbSpline
70
4
71
2
72
6
73
3
40
0
40
0
40
0
40
1
40
1
40
1
41
1
10
-22.5004731679057
20
-13.4975184982324
30
0
41
1
10
-12.5002365839529
20
-13.7487592491244
30
1E-16
41
1
10
-2.5
20
-14.0000000000165
30
-2E-16
0
SPLINE
5
213
100
AcDbEntity
8
SK1
62
256
6
ByLayer
370
-1
48
1
60
0
100
AcDbSpline
70
4
71
2
72
6
73
3
40
0
40
0
40
0
40
1
40
1
40
1
41
1
10
-1.69501459340779
20
14.0202240353752
30
-1E-16
41
1
10
-2.0975072967039
20
14.0101120177088
30
-1E-16
41
1
10
-2.5
20
14.0000000000425
30
-2E-16
0
SPLINE
5
214
100
AcDbEntity
8
SK1
62
256
6
ByLayer
370
-1
48
1
60
0
100
AcDbSpline
70
4
71
2
72
6
73
3
40
0
40
0
40
0
40
1
40
1
40
1
41
1
10
-2.5
20
-14.0000000000165
30
-2E-16
41
1
10
-2.0975072967039
20
-14.0101120176829
30
-1E-16
41
1
10
-1.69501459340779
20
-14.0202240353492
30
-1E-16
0
SPLINE
5
215
100
AcDbEntity
8
SK1
62
256
6
ByLayer
370
-1
48
1
60
0
100
AcDbSpline
70
4
71
2
72
6
73
3
40
0
40
0
40
0
40
1
40
1
40
1
41
1
10
-22.5003908339781
20
13.4978821831767
30
0
41
1
10
-23.250195418368
20
13.0391711292673
30
-1E-16
41
1
10
-24
20
12.580456895609
30
-1E-16
0
SPLINE
5
216
100
AcDbEntity
8
SK1
62
256
6
ByLayer
370
-1
48
1
60
0
100
AcDbSpline
70
4
71
2
72
6
73
3
40
0
40
0
40
0
40
1
40
1
40
1
41
1
10
-24
20
-12.579249793836
30
-1E-16
41
1
10
-23.2502022102608
20
-13.0377782396013
30
-1E-16
41
1
10
-22.5004044652863
20
-13.4963063088842
30
0
0
SPLINE
5
217
100
AcDbEntity
8
SK1
62
256
6
ByLayer
370
-1
48
1
60
0
100
AcDbSpline
70
4
71
3
72
26
73
22
40
0
40
0
40
0
40
0
40
0.104419691321083
40
0.226548697573558
40
0.32156589268299
40
0.364388309499341
40
0.37413045865809
40
0.375269407615711
40
0.375667031109741
40
0.375832690586089
40
0.375983400935448
40
0.376127280753551
40
0.376273744470029
40
0.376607567468606
40
0.377589570654609
40
0.387359261479135
40
0.407639057244623
40
0.482594386865092
40
0.624748637716988
40
0.829642842662236
40
1
40
1
40
1
40
1
41
1
10
-1.50278688946179
20
13.8243802734658
30
-1E-16
41
1
10
-1.50607129453903
20
13.8242237699833
30
-1E-16
41
1
10
-1.51362915230061
20
13.8222003077594
30
-1E-16
41
1
10
-1.5254435091669
20
13.8136533240445
30
-1E-16
41
1
10
-1.53637614216092
20
13.8034283214943
30
-1E-16
41
1
10
-1.54772934850649
20
13.7979402766005
30
-1E-16
41
1
10
-1.55406302844943
20
13.7964089756906
30
-1E-16
41
1
10
-1.55817785386739
20
13.7970300712297
30
-1E-16
41
1
10
-1.55915167564353
20
13.7972547426234
30
-1E-16
41
1
10
-1.55965303925262
20
13.7973884084188
30
-1E-16
41
1
10
-1.56001104161851
20
13.7974915353198
30
-1E-16
41
1
10
-1.56037243380791
20
13.7976034984836
30
-1E-16
41
1
10
-1.56087475458719
20
13.7977701049886
30
-1E-16
41
1
10
-1.56189714336125
20
13.7981468933247
30
-1E-16
41
1
10
-1.56650987136277
20
13.8002499484137
30
-1E-16
41
1
10
-1.56947495499963
20
13.8032405295095
30
-1E-16
41
1
10
-1.57992311475829
20
13.8130818988845
30
-1E-16
41
1
10
-1.58825946880847
20
13.8291829546256
30
-1E-16
41
1
10
-1.60178139611133
20
13.8506863255304
30
-1E-16
41
1
10
-1.61196900737559
20
13.8617647932787
30
-1E-16
41
1
10
-1.61859412218473
20
13.8585932304116
30
-1E-16
41
1
10
-1.62148084557788
20
13.8547276056991
30
-1E-16
0
SPLINE
5
218
100
AcDbEntity
8
SK1
62
256
6
ByLayer
370
-1
48
1
60
0
100
AcDbSpline
70
4
71
1
72
4
73
2
40
0
40
0
40
1
40
1
41
1
10
-1.50442451709711
20
-13.8203366343566
30
-1E-16
41
1
10
-1.49999999999994
20
-13.8251486130518
30
-1E-16
0
SPLINE
5
219
100
AcDbEntity
8
SK1
62
256
6
ByLayer
370
-1
48
1
60
0
100
AcDbSpline
70
4
71
3
72
32
73
28
40
0
40
0
40
0
40
0
40
0.0005710720194064
40
0.142610472513881
40
0.25823919798777
40
0.351654512483774
40
0.426383081255892
40
0.497852948277722
40
0.548997129853406
40
0.583102912470014
40
0.602618694826004
40
0.607529687426595
40
0.608899776937217
40
0.609351650209363
40
0.609532504361521
40
0.609693052360745
40
0.609844659386456
40
0.610000426382346
40
0.610172304296211
40
0.61036916280257
40
0.611489842264151
40
0.615620637241651
40
0.631606973548082
40
0.657525505534286
40
0.737469550752695
40
0.852683081183382
40
1
40
1
40
1
40
1
41
1
10
-1.66858385977957
20
-13.9162347432415
30
-1E-16
41
1
10
-1.66857865801711
20
-13.916238080163
30
-1E-16
41
1
10
-1.66727902590998
20
-13.9170518090291
30
-1E-16
41
1
10
-1.66464201328267
20
-13.9096682690019
30
-1E-16
41
1
10
-1.65991350106117
20
-13.8758955142225
30
-1E-16
41
1
10
-1.65486338386916
20
-13.8316498365006
30
-1E-16
41
1
10
-1.64921961581632
20
-13.7817346781307
30
-1E-16
41
1
10
-1.64283400110685
20
-13.7307135123773
30
-1E-16
41
1
10
-1.63554756865494
20
-13.6825877903342
30
-1E-16
41
1
10
-1.62776561538948
20
-13.6456135917343
30
-1E-16
41
1
10
-1.62098489772376
20
-13.6223565368457
30
-1E-16
41
1
10
-1.61462071609066
20
-13.6098865858245
30
-1E-16
41
1
10
-1.61138435806561
20
-13.6057444246461
30
-1E-16
41
1
10
-1.60978221012238
20
-13.6042113404347
30
-1E-16
41
1
10
-1.60895928938089
20
-13.6035443817256
30
-1E-16
41
1
10
-1.60837578925612
20
-13.6031206101117
30
-1E-16
41
1
10
-1.60778324959938
20
-13.6027403333322
30
-1E-16
41
1
10
-1.60719392711633
20
-13.6024117046702
30
-1E-16
41
1
10
-1.60661376430386
20
-13.6021353224051
30
-1E-16
41
1
10
-1.60518709334474
20
-13.6015728383915
30
-1E-16
41
1
10
-1.6018998076616
20
-13.6011894901752
30
-1E-16
41
1
10
-1.5953849556584
20
-13.6040596839405
30
-1E-16
41
1
10
-1.5876875848794
20
-13.6143949857635
30
-1E-16
41
1
10
-1.57322632821661
20
-13.6438384840481
30
-1E-16
41
1
10
-1.55680518209636
20
-13.6961545409097
30
-1E-16
41
1
10
-1.53729297329642
20
-13.7599326641642
30
-1E-16
41
1
10
-1.52569590511274
20
-13.792058826757
30
-1E-16
41
1
10
-1.51965616462212
20
-13.803767735256
30
-1E-16
0
SPLINE
5
21A
100
AcDbEntity
8
SK1
62
256
6
ByLayer
370
-1
48
1
60
0
100
AcDbSpline
70
4
71
2
72
6
73
3
40
0
40
0
40
0
40
1
40
1
40
1
41
1
10
-1.49999999999994
20
-13.7870504860687
30
-1E-16
41
1
10
-0.949999999999932
20
-13.7870504860687
30
-1E-16
41
1
10
-0.399999999999977
20
-13.7870504860687
30
0
0
SPLINE
5
21B
100
AcDbEntity
8
SK1
62
256
6
ByLayer
370
-1
48
1
60
0
100
AcDbSpline
70
4
71
2
72
6
73
3
40
0
40
0
40
0
40
1
40
1
40
1
41
1
10
-0.399999999999977
20
13.787050293933
30
0
41
1
10
-0.949999999999932
20
13.787050293933
30
-1E-16
41
1
10
-1.49999999999994
20
13.787050293933
30
-1E-16
0
SPLINE
5
21C
100
AcDbEntity
8
1
62
256
6
ByLayer
370
-1
48
1
60
0
100
AcDbSpline
70
4
71
1
72
4
73
2
40
0
40
0
40
1
40
1
41
1
10
59.991538489492
20
0.100537039268488
30
1E-16
41
1
10
59.9772492174462
20
0.102540223084276
30
1E-16
0
SPLINE
5
21D
100
AcDbEntity
8
1
62
256
6
ByLayer
370
-1
48
1
60
0
100
AcDbSpline
70
4
71
1
72
4
73
2
40
0
40
0
40
1
40
1
41
1
10
59.7021353559444
20
-2.35856535562806
30
1E-16
41
1
10
59.9114880321233
20
-0.869175187324288
30
1E-16
0
SPLINE
5
21E
100
AcDbEntity
8
1
62
256
6
ByLayer
370
-1
48
1
60
0
100
AcDbSpline
70
4
71
1
72
4
73
2
40
0
40
0
40
1
40
1
41
1
10
59.9115384084278
20
-0.86847393725705
30
1E-16
41
1
10
59.9755410833183
20
-0.137032783572863
30
1E-16
0
SPLINE
5
21F
100
AcDbEntity
8
1
62
256
6
ByLayer
370
-1
48
1
60
0
100
AcDbSpline
70
4
71
1
72
4
73
2
40
0
40
0
40
1
40
1
41
1
10
59.9875313080411
20
-5.013731311E-06
30
1E-16
41
1
10
59.9993486455586
20
0.135046950926721
30
1E-16
0
SPLINE
5
220
100
AcDbEntity
8
1
62
256
6
ByLayer
370
-1
48
1
60
0
100
AcDbSpline
70
4
71
3
72
8
73
4
40
0
40
0
40
0
40
0
40
1
40
1
40
1
40
1
41
1
10
59.9949093156745
20
12.7875926578891
30
0
41
1
10
59.9963628327457
20
12.8754068923608
30
0
41
1
10
59.9976844739776
20
12.9632210789803
30
0
41
1
10
59.9988742591021
20
13.0510346217741
30
0
0
SPLINE
5
221
100
AcDbEntity
8
1
62
256
6
ByLayer
370
-1
48
1
60
0
100
AcDbSpline
70
4
71
3
72
10
73
6
40
0
40
0
40
0
40
0
40
0.0828985167182269
40
0.0828985167182269
40
1
40
1
40
1
40
1
41
1
10
59.2768887420926
20
5.20948766265616
30
1E-16
41
1
10
59.2773821092266
20
5.2181564799709
30
1E-16
41
1
10
59.2779503310033
20
5.22650987332577
30
1E-16
41
1
10
59.2856283321481
20
5.32235895576446
30
1E-16
41
1
10
59.3018466366216
20
5.37199494705666
30
1E-16
41
1
10
59.3265931795584
20
5.38015800487864
30
1E-16
0
SPLINE
5
222
100
AcDbEntity
8
1
62
256
6
ByLayer
370
-1
48
1
60
0
100
AcDbSpline
70
4
71
3
72
8
73
4
40
0
40
0
40
0
40
0
40
1
40
1
40
1
40
1
41
1
10
58.1393552358925
20
-1.5791040588488
30
0
41
1
10
58.1458661120466
20
-1.55115639111844
30
0
41
1
10
58.1544737489401
20
-1.52312845187288
30
0
41
1
10
58.1651759868806
20
-1.49513121412306
30
0
0
SPLINE
5
223
100
AcDbEntity
8
1
62
256
6
ByLayer
370
-1
48
1
60
0
100
AcDbSpline
70
4
71
3
72
8
73
4
40
0
40
0
40
0
40
0
40
1
40
1
40
1
40
1
41
1
10
53.0083024958465
20
13.2069248208814
30
-3E-16
41
1
10
52.9753258581565
20
13.0934273876739
30
-3E-16
41
1
10
52.948635987686
20
12.9782215178204
30
-3E-16
41
1
10
52.9279278499836
20
12.8612617852597
30
-3E-16
0
SPLINE
5
224
100
AcDbEntity
8
1
62
256
6
ByLayer
370
-1
48
1
60
0
100
AcDbSpline
70
4
71
3
72
10
73
6
40
0
40
0
40
0
40
0
40
0.871948275969971
40
0.871948275969971
40
1
40
1
40
1
40
1
41
1
10
59.0115421389061
20
-7.06726979476804
30
1E-16
41
1
10
59.1220431190545
20
-6.57534279933705
30
1E-16
41
1
10
59.2287431904259
20
-6.06263248547015
30
1E-16
41
1
10
59.317894532075
20
-5.51572966034695
30
1E-16
41
1
10
59.3286116080656
20
-5.44694897361256
30
1E-16
41
1
10
59.3380235469691
20
-5.38109527264979
30
1E-16
0
SPLINE
5
225
100
AcDbEntity
8
1
62
256
6
ByLayer
370
-1
48
1
60
0
100
AcDbSpline
70
4
71
3
72
16
73
12
40
0
40
0
40
0
40
0
40
0.0625000000000003
40
0.0625000000000003
40
0.125000000000001
40
0.125000000000001
40
0.250000000000001
40
0.250000000000001
40
0.500000000000001
40
0.500000000000001
40
1
40
1
40
1
40
1
41
1
10
58.2927313287735
20
-18.4654666469418
30
0
41
1
10
58.2667062439132
20
-18.6062394868975
30
0
41
1
10
58.2297238878967
20
-18.613256216358
30
0
41
1
10
58.1750006627519
20
-18.6226805142448
30
0
41
1
10
58.1502220717238
20
-18.609675556845
30
0
41
1
10
58.0784253704119
20
-18.5519903970878
30
0
41
1
10
58.0337729882794
20
-18.4859469322938
30
0
41
1
10
57.9050603161238
20
-18.2528196659315
30
0
41
1
10
57.8259701908532
20
-18.0470093908726
30
0
41
1
10
57.5935335818961
20
-17.3345142889069
30
0
41
1
10
57.4475297682103
20
-16.7257264992576
30
0
41
1
10
57.3081221326102
20
-16.0272876854935
30
0
0
SPLINE
5
226
100
AcDbEntity
8
1
62
256
6
ByLayer
370
-1
48
1
60
0
100
AcDbSpline
70
4
71
3
72
8
73
4
40
0
40
0
40
0
40
0
40
1
40
1
40
1
40
1
41
1
10
58.1102625923697
20
-0.303447495465662
30
0
41
1
10
58.057356355903
20
-0.300073187434009
30
0
41
1
10
58.0044505503397
20
-0.296698863025711
30
0
41
1
10
57.9515452935863
20
-0.293324517759743
30
0
0
SPLINE
5
227
100
AcDbEntity
8
1
62
256
6
ByLayer
370
-1
48
1
60
0
100
AcDbSpline
70
4
71
3
72
8
73
4
40
0
40
0
40
0
40
0
40
1
40
1
40
1
40
1
41
1
10
49.8168844012213
20
-14.5608426613294
30
-5E-16
41
1
10
50.3695279658399
20
-14.5455658621825
30
-5E-16
41
1
10
50.9236657315794
20
-14.5576127856412
30
-4E-16
41
1
10
51.467417539827
20
-14.5960681849418
30
-4E-16
0
SPLINE
5
228
100
AcDbEntity
8
1
62
256
6
ByLayer
370
-1
48
1
60
0
100
AcDbSpline
70
4
71
3
72
16
73
12
40
0
40
0
40
0
40
0
40
0.26737209152346
40
0.26737209152346
40
0.600855844067949
40
0.600855844067949
40
0.762574643716998
40
0.762574643716998
40
0.898037673161785
40
0.898037673161785
40
1
40
1
40
1
40
1
41
1
10
9.33660254037846
20
-6.16973001948571
30
6E-16
41
1
10
9.32665759364994
20
-6.13367828095585
30
6E-16
41
1
10
9.31453185229014
20
-6.0980179296067
30
6E-16
41
1
10
9.28070303055785
20
-6.02025855383846
30
6E-16
41
1
10
9.25716973041017
20
-5.97794802948579
30
6E-16
41
1
10
9.21115368872728
20
-5.92367470492709
30
6E-16
41
1
10
9.19404341926793
20
-5.90709361727357
30
6E-16
41
1
10
9.15864533843364
20
-5.88208699512398
30
6E-16
41
1
10
9.14061920638903
20
-5.87260601127613
30
6E-16
41
1
10
9.10716397282852
20
-5.86230971122512
30
6E-16
41
1
10
9.09190067197864
20
-5.85988980456943
30
6E-16
41
1
10
9.07679491924313
20
-5.85988980456943
30
6E-16
0
SPLINE
5
229
100
AcDbEntity
8
1
62
256
6
ByLayer
370
-1
48
1
60
0
100
AcDbSpline
70
4
71
3
72
8
73
4
40
0
40
0
40
0
40
0
40
1
40
1
40
1
40
1
41
1
10
52.2383102428516
20
-14.6436133395025
30
-4E-16
41
1
10
51.9816785173616
20
-14.6301231738788
30
-4E-16
41
1
10
51.7246716339339
20
-14.6142617959984
30
-4E-16
41
1
10
51.467417539827
20
-14.5960681849418
30
-4E-16
0
SPLINE
5
22A
100
AcDbEntity
8
1
62
256
6
ByLayer
370
-1
48
1
60
0
100
AcDbSpline
70
4
71
3
72
8
73
4
40
0
40
0
40
0
40
0
40
1
40
1
40
1
40
1
41
1
10
38.0334707906965
20
-13.2589925790093
30
6E-16
41
1
10
37.6415066666638
20
-13.1506764763544
30
5E-16
41
1
10
37.2536384474355
20
-13.0216666054842
30
5E-16
41
1
10
36.8728374463929
20
-12.8731659059619
30
5E-16
0
SPLINE
5
22B
100
AcDbEntity
8
1
62
256
6
ByLayer
370
-1
48
1
60
0
100
AcDbSpline
70
4
71
3
72
12
73
8
40
0
40
0
40
0
40
0
40
0.5
40
0.5
40
0.75
40
0.75
40
1
40
1
40
1
40
1
41
1
10
30.608273698124
20
18.7719969010741
30
1E-16
41
1
10
29.218028903313
20
18.660359913623
30
0
41
1
10
27.7863958046283
20
18.6003764444278
30
-1E-16
41
1
10
26.2848400212443
20
18.4894938678601
30
0
41
1
10
25.9096786993698
20
18.4423239463013
30
0
41
1
10
25.6685089025598
20
18.2969264290215
30
-2E-16
41
1
10
25.8036048045762
20
18.1984683750781
30
-2E-16
41
1
10
26.1216693281739
20
18.0968970149829
30
-2E-16
0
SPLINE
5
22C
100
AcDbEntity
8
1
62
256
6
ByLayer
370
-1
48
1
60
0
100
AcDbSpline
70
4
71
3
72
18
73
14
40
0
40
0
40
0
40
0
40
0.0074698584964884
40
0.0074698584964884
40
0.116973966194809
40
0.116973966194809
40
0.258725811908718
40
0.258725811908718
40
0.483357667469339
40
0.483357667469339
40
0.914372095275223
40
0.914372095275223
40
1
40
1
40
1
40
1
41
1
10
9.07679491924307
20
5.85988980456929
30
6E-16
41
1
10
9.07791531278104
20
5.85988980456929
30
6E-16
41
1
10
9.07903578618209
20
5.85990260585533
30
6E-16
41
1
10
9.09637412624431
20
5.86029870927979
30
6E-16
41
1
10
9.11270417149058
20
5.8634711769441
30
6E-16
41
1
10
9.1475850522387
20
5.87578180524309
30
6E-16
41
1
10
9.16596173018905
20
5.8864748710601
30
6E-16
41
1
10
9.20810355067709
20
5.91885996191004
30
6E-16
41
1
10
9.22982072744469
20
5.94374247779547
30
6E-16
41
1
10
9.28328154913385
20
6.02032056207824
30
6E-16
41
1
10
9.30783261541364
20
6.07738634703668
30
6E-16
41
1
10
9.32995866734097
20
6.14652276485666
30
6E-16
41
1
10
9.33339464013244
20
6.15810095961672
30
6E-16
41
1
10
9.33660254037841
20
6.16973001948557
30
6E-16
0
SPLINE
5
22D
100
AcDbEntity
8
1
62
256
6
ByLayer
370
-1
48
1
60
0
100
AcDbSpline
70
4
71
3
72
10
73
6
40
0
40
0
40
0
40
0
40
0.539396227115616
40
0.539396227115616
40
1
40
1
40
1
40
1
41
1
10
58.1393552358925
20
-7.78536120288052
30
0
41
1
10
58.1592648490992
20
-7.87586864325141
30
0
41
1
10
58.1995015100772
20
-7.96344344670811
30
0
41
1
10
58.3062683718127
20
-8.10569892947441
30
0
41
1
10
58.3692096819203
20
-8.16490442958468
30
0
41
1
10
58.4418072475501
20
-8.21360823023409
30
0
0
SPLINE
5
22E
100
AcDbEntity
8
1
62
256
6
ByLayer
370
-1
48
1
60
0
100
AcDbSpline
70
4
71
3
72
8
73
4
40
0
40
0
40
0
40
0
40
1
40
1
40
1
40
1
41
1
10
57.3525693006579
20
12.5986647673887
30
0
41
1
10
57.3377761309014
20
12.6359658735074
30
0
41
1
10
57.3229595752577
20
12.67303831395
30
0
41
1
10
57.3081221326104
20
12.7099035759773
30
0
0
SPLINE
5
22F
100
AcDbEntity
8
1
62
256
6
ByLayer
370
-1
48
1
60
0
100
AcDbSpline
70
4
71
3
72
8
73
4
40
0
40
0
40
0
40
0
40
1
40
1
40
1
40
1
41
1
10
58.1393552358925
20
-1.08155232133276
30
0
41
1
10
58.145331848664
20
-1.21962148043087
30
0
41
1
10
58.1535502993041
20
-1.35757478805951
30
0
41
1
10
58.1651759868786
20
-1.49513121411931
30
0
0
SPLINE
5
230
100
AcDbEntity
8
1
62
256
6
ByLayer
370
-1
48
1
60
0
100
AcDbSpline
70
4
71
3
72
16
73
12
40
0
40
0
40
0
40
0
40
0.0624999999999996
40
0.0624999999999996
40
0.124999999999999
40
0.124999999999999
40
0.249999999999999
40
0.249999999999999
40
0.499999999999999
40
0.499999999999999
40
1
40
1
40
1
40
1
41
1
10
58.2927313287735
20
6.66919037309347
30
0
41
1
10
58.2667062439133
20
6.70367300752352
30
0
41
1
10
58.2297238878967
20
6.8963881758996
30
0
41
1
10
58.1750006627519
20
7.17974684624954
30
0
41
1
10
58.1502220717238
20
7.31960071656584
30
0
41
1
10
58.078425370412
20
7.73720690039514
30
0
41
1
10
58.0337729882794
20
8.01383607978667
30
0
41
1
10
57.9050603161238
20
8.82452898485701
30
0
41
1
10
57.8259701908532
20
9.34511246224454
30
0
41
1
10
57.5935335818962
20
10.8681506827344
30
0
41
1
10
57.4475297682108
20
11.8292848789938
30
0
41
1
10
57.3081221326102
20
12.7099035759778
30
0
0
SPLINE
5
231
100
AcDbEntity
8
1
62
256
6
ByLayer
370
-1
48
1
60
0
100
AcDbSpline
70
4
71
3
72
8
73
4
40
0
40
0
40
0
40
0
40
1
40
1
40
1
40
1
41
1
10
58.728480900675
20
3.97406229056912
30
0
41
1
10
58.8193632745539
20
3.96191016531276
30
0
41
1
10
58.9100647802318
20
3.94976379762085
30
1E-16
41
1
10
59.0005386379513
20
3.93762467985948
30
1E-16
0
SPLINE
5
232
100
AcDbEntity
8
1
62
256
6
ByLayer
370
-1
48
1
60
0
100
AcDbSpline
70
4
71
3
72
8
73
4
40
0
40
0
40
0
40
0
40
1
40
1
40
1
40
1
41
1
10
50.0094987395628
20
-18.8690969867712
30
4E-16
41
1
10
49.9668564600331
20
-19.0035524797774
30
0
41
1
10
49.9288182100665
20
-19.1107071108193
30
-1E-16
41
1
10
49.8956783072184
20
-19.1896071059999
30
-1E-16
0
SPLINE
5
233
100
AcDbEntity
8
1
62
256
6
ByLayer
370
-1
48
1
60
0
100
AcDbSpline
70
4
71
3
72
8
73
4
40
0
40
0
40
0
40
0
40
1
40
1
40
1
40
1
41
1
10
52.3895981639141
20
9.20970731207083
30
-3E-16
41
1
10
53.8585385457649
20
9.16368701292507
30
-3E-16
41
1
10
55.3280416450178
20
9.11759938512824
30
-2E-16
41
1
10
56.7980176982168
20
9.07145408346469
30
-1E-16
0
SPLINE
5
234
100
AcDbEntity
8
1
62
256
6
ByLayer
370
-1
48
1
60
0
100
AcDbSpline
70
4
71
3
72
10
73
6
40
0
40
0
40
0
40
0
40
0.5
40
0.5
40
1
40
1
40
1
40
1
41
1
10
36.8728374463929
20
14.3922641753347
30
5E-16
41
1
10
34.5948650329142
20
14.9496489963817
30
3E-16
41
1
10
32.517980739708
20
15.6505623451368
30
2E-16
41
1
10
28.8325134684013
20
17.0469673770052
30
0
41
1
10
27.2661465328006
20
17.7314173790995
30
-1E-16
41
1
10
26.121669328174
20
18.0968970149829
30
-2E-16
0
SPLINE
5
235
100
AcDbEntity
8
1
62
256
6
ByLayer
370
-1
48
1
60
0
100
AcDbSpline
70
4
71
3
72
8
73
4
40
0
40
0
40
0
40
0
40
1
40
1
40
1
40
1
41
1
10
59.0115421389061
20
11.7503578368771
30
1E-16
41
1
10
59.027258388338
20
11.7602562388489
30
1E-16
41
1
10
59.0427219121445
20
11.7709637026608
30
1E-16
41
1
10
59.0578456431292
20
11.7824286590499
30
1E-16
0
SPLINE
5
236
100
AcDbEntity
8
1
62
256
6
ByLayer
370
-1
48
1
60
0
100
AcDbSpline
70
4
71
3
72
8
73
4
40
0
40
0
40
0
40
0
40
1
40
1
40
1
40
1
41
1
10
58.4781317592918
20
-8.38863133201889
30
0
41
1
10
58.6593173899643
20
-9.25046299980792
30
0
41
1
10
58.8363569980581
20
-10.0269576777405
30
0
41
1
10
59.0115421389061
20
-10.7187224189023
30
1E-16
0
SPLINE
5
237
100
AcDbEntity
8
1
62
256
6
ByLayer
370
-1
48
1
60
0
100
AcDbSpline
70
4
71
3
72
12
73
8
40
0
40
0
40
0
40
0
40
0.0731410041665764
40
0.0731410041665764
40
0.931301581724125
40
0.931301581724125
40
1
40
1
40
1
40
1
41
1
10
59.2768887420926
20
-13.191712241053
30
1E-16
41
1
10
59.2773821092266
20
-13.1693755677479
30
1E-16
41
1
10
59.2779503310033
20
-13.1469154418267
30
1E-16
41
1
10
59.286054372942
20
-12.8626755009318
30
1E-16
41
1
10
59.3038448236811
20
-12.5819629798959
30
1E-16
41
1
10
59.3333981793778
20
-12.2830785915112
30
1E-16
41
1
10
59.3356784328743
20
-12.2606779503864
30
1E-16
41
1
10
59.3380235469682
20
-12.2382905524381
30
1E-16
0
SPLINE
5
238
100
AcDbEntity
8
1
62
256
6
ByLayer
370
-1
48
1
60
0
100
AcDbSpline
70
4
71
3
72
8
73
4
40
0
40
0
40
0
40
0
40
1
40
1
40
1
40
1
41
1
10
58.1082860529254
20
11.6186699875919
30
0
41
1
10
58.0682104381152
20
11.392049871386
30
0
41
1
10
58.0281350713922
20
11.1654297114143
30
0
41
1
10
57.9880600040019
20
10.9388094986376
30
0
0
SPLINE
5
239
100
AcDbEntity
8
1
62
256
6
ByLayer
370
-1
48
1
60
0
100
AcDbSpline
70
4
71
3
72
8
73
4
40
0
40
0
40
0
40
0
40
1
40
1
40
1
40
1
41
1
10
49.8168844012207
20
-14.5608426613235
30
-5E-16
41
1
10
45.7868168237248
20
-14.6722463523668
30
-7E-16
41
1
10
41.8065541699731
20
-14.3016535308089
30
8E-16
41
1
10
38.0334707906964
20
-13.2589925790093
30
6E-16
0
SPLINE
5
23A
100
AcDbEntity
8
1
62
256
6
ByLayer
370
-1
48
1
60
0
100
AcDbSpline
70
4
71
3
72
8
73
4
40
0
40
0
40
0
40
0
40
1
40
1
40
1
40
1
41
1
10
58.6220407973615
20
8.62688924038036
30
0
41
1
10
58.7534762652414
20
8.1595177248565
30
0
41
1
10
58.883008349985
20
7.63947504136718
30
1E-16
41
1
10
59.0115421389061
20
7.0672697947679
30
1E-16
0
SPLINE
5
23B
100
AcDbEntity
8
1
62
256
6
ByLayer
370
-1
48
1
60
0
100
AcDbSpline
70
4
71
3
72
8
73
4
40
0
40
0
40
0
40
0
40
1
40
1
40
1
40
1
41
1
10
52.2383102428516
20
-14.6436133395025
30
-4E-16
41
1
10
52.4949653701403
20
-14.6571047352709
30
-3E-16
41
1
10
52.7516295216202
20
-14.670548686367
30
-3E-16
41
1
10
53.0083024958465
20
-14.6839460496932
30
-3E-16
0
SPLINE
5
23C
100
AcDbEntity
8
1
62
256
6
ByLayer
370
-1
48
1
60
0
100
AcDbSpline
70
4
71
3
72
12
73
8
40
0
40
0
40
0
40
0
40
0.400272963388588
40
0.400272963388588
40
0.801713213908545
40
0.801713213908545
40
1
40
1
40
1
40
1
41
1
10
59.0115421389061
20
-5.17362574514789
30
1E-16
41
1
10
59.0742754151486
20
-5.2156179650392
30
1E-16
41
1
10
59.1329820088416
20
-5.25403081304415
30
1E-16
41
1
10
59.2313846045972
20
-5.31733162933423
30
1E-16
41
1
10
59.2722803614162
20
-5.34299265426299
30
1E-16
41
1
10
59.3164493720399
20
-5.36928338763965
30
1E-16
41
1
10
59.3285387200265
20
-5.37615290502353
30
1E-16
41
1
10
59.3380235469699
20
-5.38109527265294
30
1E-16
0
SPLINE
5
23D
100
AcDbEntity
8
1
62
256
6
ByLayer
370
-1
48
1
60
0
100
AcDbSpline
70
4
71
3
72
8
73
4
40
0
40
0
40
0
40
0
40
1
40
1
40
1
40
1
41
1
10
49.8956783072184
20
2.52296847862971
30
-5E-16
41
1
10
49.8692730125665
20
2.40618355762362
30
-5E-16
41
1
10
49.8430063905512
20
2.28923909236869
30
-5E-16
41
1
10
49.8168844012206
20
2.17215753639994
30
-5E-16
0
SPLINE
5
23E
100
AcDbEntity
8
1
62
256
6
ByLayer
370
-1
48
1
60
0
100
AcDbSpline
70
4
71
3
72
8
73
4
40
0
40
0
40
0
40
0
40
1
40
1
40
1
40
1
41
1
10
52.2383102428516
20
13.0588135574309
30
-4E-16
41
1
10
51.9816785173616
20
13.0094139524657
30
-4E-16
41
1
10
51.7246716339339
20
12.9624908604505
30
-4E-16
41
1
10
51.467417539827
20
12.9180896031574
30
-4E-16
0
SPLINE
5
23F
100
AcDbEntity
8
1
62
256
6
ByLayer
370
-1
48
1
60
0
100
AcDbSpline
70
4
71
3
72
16
73
12
40
0
40
0
40
0
40
0
40
0.199309357970103
40
0.199309357970103
40
0.434430176830335
40
0.434430176830335
40
0.670846975973968
40
0.670846975973968
40
0.907958016802678
40
0.907958016802678
40
1
40
1
40
1
40
1
41
1
10
58.1277504014188
20
11.6185964383752
30
0
41
1
10
58.1065119532816
20
11.4827616258206
30
0
41
1
10
58.088495206246
20
11.3604672030432
30
0
41
1
10
58.0592671395676
20
11.1393782905373
30
0
41
1
10
58.0494431016277
20
11.0454180734608
30
0
41
1
10
58.043831211196
20
10.9234214633552
30
0
41
1
10
58.0480474122227
20
10.8940535088586
30
0
41
1
10
58.0696724833843
20
10.9040373123912
30
0
41
1
10
58.0874082243175
20
10.9437633662656
30
0
41
1
10
58.1191358964015
20
11.0435102455797
30
0
41
1
10
58.128912532597
20
11.0766752645715
30
0
41
1
10
58.1393552358925
20
11.1144501568247
30
0
0
SPLINE
5
240
100
AcDbEntity
8
1
62
256
6
ByLayer
370
-1
48
1
60
0
100
AcDbSpline
70
4
71
3
72
8
73
4
40
0
40
0
40
0
40
0
40
1
40
1
40
1
40
1
41
1
10
49.8168844012207
20
12.7505386306176
30
-5E-16
41
1
10
45.7868168237237
20
12.623317995932
30
-7E-16
41
1
10
41.806554169973
20
13.1189033357082
30
8E-16
41
1
10
38.0334707906964
20
14.0994145328321
30
6E-16
0
SPLINE
5
241
100
AcDbEntity
8
1
62
256
6
ByLayer
370
-1
48
1
60
0
100
AcDbSpline
70
4
71
3
72
8
73
4
40
0
40
0
40
0
40
0
40
1
40
1
40
1
40
1
41
1
10
30.608273698124
20
-18.7719969010742
30
1E-16
41
1
10
32.6964201361765
20
-18.939675556352
30
0
41
1
10
34.7846092461305
20
-19.1068190184503
30
-1E-16
41
1
10
36.8728374463929
20
-19.2734675833624
30
0
0
SPLINE
5
242
100
AcDbEntity
8
1
62
256
6
ByLayer
370
-1
48
1
60
0
100
AcDbSpline
70
4
71
3
72
8
73
4
40
0
40
0
40
0
40
0
40
1
40
1
40
1
40
1
41
1
10
36.8728374463929
20
-19.2734675833624
30
0
41
1
10
37.258820962076
20
-19.304270538212
30
1E-16
41
1
10
37.6462802791069
20
-19.3201064316108
30
1E-16
41
1
10
38.0334707906965
20
-19.320902748466
30
1E-16
0
SPLINE
5
243
100
AcDbEntity
8
1
62
256
6
ByLayer
370
-1
48
1
60
0
100
AcDbSpline
70
4
71
3
72
10
73
6
40
0
40
0
40
0
40
0
40
0.430926237997925
40
0.430926237997925
40
1
40
1
40
1
40
1
41
1
10
58.4418072475506
20
-8.21360823023412
30
0
41
1
10
58.284485212732
20
-9.10132195975152
30
0
41
1
10
58.1138222689
20
-9.98845785201914
30
0
41
1
10
57.7034086424667
20
-12.0462008219093
30
0
41
1
10
57.4584232166332
20
-13.2165659851466
30
0
41
1
10
57.2080987866387
20
-14.3865301268303
30
0
0
SPLINE
5
244
100
AcDbEntity
8
1
62
256
6
ByLayer
370
-1
48
1
60
0
100
AcDbSpline
70
4
71
3
72
12
73
8
40
0
40
0
40
0
40
0
40
0.157035801483363
40
0.157035801483363
40
0.597573876270816
40
0.597573876270816
40
1
40
1
40
1
40
1
41
1
10
59.2768887420908
20
-13.1917122410548
30
1E-16
41
1
10
59.2644705057157
20
-13.2808185242235
30
1E-16
41
1
10
59.2526774426203
20
-13.3678371201737
30
1E-16
41
1
10
59.2107484558553
20
-13.6860122442351
30
1E-16
41
1
10
59.1850690015636
20
-13.900444078754
30
1E-16
41
1
10
59.1490047995501
20
-14.238545446015
30
1E-16
41
1
10
59.1370401699389
20
-14.3725052067875
30
1E-16
41
1
10
59.1309597112727
20
-14.4695624107066
30
1E-16
0
SPLINE
5
245
100
AcDbEntity
8
1
62
256
6
ByLayer
370
-1
48
1
60
0
100
AcDbSpline
70
4
71
3
72
18
73
14
40
0
40
0
40
0
40
0
40
0.0074698584964997
40
0.0074698584964997
40
0.116973966194809
40
0.116973966194809
40
0.258725811908725
40
0.258725811908725
40
0.483357667469371
40
0.483357667469371
40
0.914372095275296
40
0.914372095275296
40
1
40
1
40
1
40
1
41
1
10
6.92320508075693
20
-5.85988980456943
30
4E-16
41
1
10
6.92208468721896
20
-5.85988980456943
30
4E-16
41
1
10
6.92096421381791
20
-5.85990260585547
30
4E-16
41
1
10
6.90362587375569
20
-5.86029870927993
30
4E-16
41
1
10
6.88729582850942
20
-5.86347117694424
30
4E-16
41
1
10
6.8524149477613
20
-5.87578180524324
30
4E-16
41
1
10
6.83403826981095
20
-5.88647487106027
30
4E-16
41
1
10
6.7918964493229
20
-5.91885996191019
30
4E-16
41
1
10
6.77017927255531
20
-5.94374247779564
30
4E-16
41
1
10
6.71671845086615
20
-6.02032056207844
30
4E-16
41
1
10
6.69216738458636
20
-6.07738634703685
30
4E-16
41
1
10
6.67004133265903
20
-6.14652276485683
30
4E-16
41
1
10
6.66660535986756
20
-6.15810095961689
30
4E-16
41
1
10
6.66339745962159
20
-6.16973001948574
30
4E-16
0
SPLINE
5
246
100
AcDbEntity
8
1
62
256
6
ByLayer
370
-1
48
1
60
0
100
AcDbSpline
70
4
71
3
72
16
73
12
40
0
40
0
40
0
40
0
40
0.226664757193095
40
0.226664757193095
40
0.453752730996891
40
0.453752730996891
40
0.682092408235856
40
0.682092408235856
40
0.911102608563156
40
0.911102608563156
40
1
40
1
40
1
40
1
41
1
10
58.1393552358925
20
-1.5791040588488
30
0
41
1
10
58.1130523340583
20
-1.69200818164398
30
0
41
1
10
58.0908747735648
20
-1.83566624808407
30
0
41
1
10
58.0592671395676
20
-2.16012704719256
30
0
41
1
10
58.0494431016277
20
-2.3454693319155
30
0
41
1
10
58.043831211196
20
-2.73244939435131
30
0
41
1
10
58.0480474122227
20
-2.93952457080283
30
0
41
1
10
58.0696724833843
20
-3.34626066639774
30
0
41
1
10
58.0874082243175
20
-3.55158682717544
30
0
41
1
10
58.1191358964015
20
-3.81576285817252
30
0
41
1
10
58.128912532597
20
-3.88849214870171
30
0
41
1
10
58.1393552358925
20
-3.95842625676332
30
0
0
SPLINE
5
247
100
AcDbEntity
8
1
62
256
6
ByLayer
370
-1
48
1
60
0
100
AcDbSpline
70
4
71
3
72
8
73
4
40
0
40
0
40
0
40
0
40
1
40
1
40
1
40
1
41
1
10
58.1393552358925
20
-7.78536120288052
30
0
41
1
10
58.0125108576109
20
-7.20873724316132
30
0
41
1
10
57.8860603877016
20
-6.63202831293813
30
0
41
1
10
57.7603441166955
20
-6.05516256284693
30
0
0
SPLINE
5
248
100
AcDbEntity
8
1
62
256
6
ByLayer
370
-1
48
1
60
0
100
AcDbSpline
70
4
71
3
72
8
73
4
40
0
40
0
40
0
40
0
40
1
40
1
40
1
40
1
41
1
10
51.467417539827
20
-19.0187664694567
30
-4E-16
41
1
10
53.3592505743788
20
-19.3567341884609
30
-3E-16
41
1
10
55.2513218741575
20
-19.6933645283444
30
-2E-16
41
1
10
57.143595213161
20
-20.0288476823514
30
-1E-16
0
SPLINE
5
249
100
AcDbEntity
8
1
62
256
6
ByLayer
370
-1
48
1
60
0
100
AcDbSpline
70
4
71
3
72
8
73
4
40
0
40
0
40
0
40
0
40
1
40
1
40
1
40
1
41
1
10
59.0115421389061
20
10.7187224189022
30
1E-16
41
1
10
59.1063342205554
20
11.0930339587333
30
1E-16
41
1
10
59.1983292581472
20
11.4519727894601
30
1E-16
41
1
10
59.2716434475932
20
11.8365286167356
30
1E-16
0
SPLINE
5
24A
100
AcDbEntity
8
1
62
256
6
ByLayer
370
-1
48
1
60
0
100
AcDbSpline
70
4
71
3
72
10
73
6
40
0
40
0
40
0
40
0
40
0.571697043745734
40
0.571697043745734
40
1
40
1
40
1
40
1
41
1
10
58.4781317592918
20
-4.69296582173277
30
0
41
1
10
58.3727499662612
20
-4.56891196953683
30
0
41
1
10
58.2887712783763
20
-4.43030393197452
30
0
41
1
10
58.1864031531814
20
-4.18080105260142
30
0
41
1
10
58.1559632233839
20
-4.06964887403458
30
0
41
1
10
58.1393552358925
20
-3.95842625676332
30
0
0
SPLINE
5
24B
100
AcDbEntity
8
1
62
256
6
ByLayer
370
-1
48
1
60
0
100
AcDbSpline
70
4
71
3
72
8
73
4
40
0
40
0
40
0
40
0
40
1
40
1
40
1
40
1
41
1
10
57.3525693006579
20
-15.7562868880863
30
0
41
1
10
57.3377761309014
20
-15.8465329480043
30
0
41
1
10
57.3229595752577
20
-15.9368699633849
30
0
41
1
10
57.3081221326104
20
-16.0272876854929
30
0
0
SPLINE
5
24C
100
AcDbEntity
8
1
62
256
6
ByLayer
370
-1
48
1
60
0
100
AcDbSpline
70
4
71
3
72
18
73
14
40
0
40
0
40
0
40
0
40
0.470966783211729
40
0.470966783211729
40
0.622828746382115
40
0.622828746382115
40
0.776809779104029
40
0.776809779104029
40
0.882033565441315
40
0.882033565441315
40
0.987433926919722
40
0.987433926919722
40
1
40
1
40
1
40
1
41
1
10
57.2080987866387
20
-14.3865301268303
30
0
41
1
10
57.2596389659621
20
-14.5193207797848
30
0
41
1
10
57.3084268084264
20
-14.6724596530907
30
0
41
1
10
57.3558993753136
20
-14.9357708337224
30
0
41
1
10
57.3662019809116
20
-15.0064498908309
30
0
41
1
10
57.3814020363225
20
-15.1621611508728
30
0
41
1
10
57.3863127041924
20
-15.2492294102776
30
0
41
1
10
57.3861931433705
20
-15.4054636785139
30
0
41
1
10
57.3837056687915
20
-15.4730149434333
30
0
41
1
10
57.3735060299801
20
-15.605678081386
30
0
41
1
10
57.3656707254847
20
-15.6722922906617
30
0
41
1
10
57.3549554697673
20
-15.7415255625304
30
0
41
1
10
57.3537744119187
20
-15.7489350801337
30
0
41
1
10
57.3525693006579
20
-15.7562868880862
30
0
0
SPLINE
5
24D
100
AcDbEntity
8
1
62
256
6
ByLayer
370
-1
48
1
60
0
100
AcDbSpline
70
4
71
3
72
10
73
6
40
0
40
0
40
0
40
0
40
0.0829812465251529
40
0.0829812465251529
40
1
40
1
40
1
40
1
41
1
10
59.2768887420926
20
-5.20948766265627
30
1E-16
41
1
10
59.2773821092266
20
-5.21815647997102
30
1E-16
41
1
10
59.2779503310033
20
-5.22650987332588
30
1E-16
41
1
10
59.2856206850067
20
-5.32226349192266
30
1E-16
41
1
10
59.3018113860298
20
-5.37188698456629
30
1E-16
41
1
10
59.3265125047921
20
-5.38013123596574
30
1E-16
0
SPLINE
5
24E
100
AcDbEntity
8
1
62
256
6
ByLayer
370
-1
48
1
60
0
100
AcDbSpline
70
4
71
3
72
8
73
4
40
0
40
0
40
0
40
0
40
1
40
1
40
1
40
1
41
1
10
51.467417539827
20
-19.0187664694566
30
-4E-16
41
1
10
50.9864787523355
20
-18.9328488530388
30
-4E-16
41
1
10
50.4978151428289
20
-18.8825940046447
30
4E-16
41
1
10
50.0094987395629
20
-18.8690969867712
30
4E-16
0
SPLINE
5
24F
100
AcDbEntity
8
1
62
256
6
ByLayer
370
-1
48
1
60
0
100
AcDbSpline
70
4
71
3
72
8
73
4
40
0
40
0
40
0
40
0
40
1
40
1
40
1
40
1
41
1
10
30.608273698124
20
18.7719969010741
30
1E-16
41
1
10
32.6964201361765
20
18.9396755563519
30
0
41
1
10
34.7846092461305
20
19.1068190184502
30
-1E-16
41
1
10
36.8728374463929
20
19.2734675833622
30
0
0
SPLINE
5
250
100
AcDbEntity
8
1
62
256
6
ByLayer
370
-1
48
1
60
0
100
AcDbSpline
70
4
71
3
72
12
73
8
40
0
40
0
40
0
40
0
40
0.5
40
0.5
40
0.75
40
0.75
40
1
40
1
40
1
40
1
41
1
10
30.608273698124
20
1.3886510957916
30
-1.7E-15
41
1
10
29.218028903313
20
1.4352582782295
30
-1.8E-15
41
1
10
27.7863958046283
20
1.02585456467051
30
1.7E-15
41
1
10
26.2848400212443
20
-0.403014501815648
30
1.6E-15
41
1
10
25.9096786993698
20
-1.03357570159468
30
1.6E-15
41
1
10
25.6685089025598
20
-2.39153778833537
30
1.6E-15
41
1
10
25.8036048045762
20
-3.10218008084658
30
1.6E-15
41
1
10
26.1216693281739
20
-3.71905077306539
30
1.6E-15
0
SPLINE
5
251
100
AcDbEntity
8
1
62
256
6
ByLayer
370
-1
48
1
60
0
100
AcDbSpline
70
4
71
3
72
8
73
4
40
0
40
0
40
0
40
0
40
1
40
1
40
1
40
1
41
1
10
50.7428552130192
20
4.29070200554821
30
-4E-16
41
1
10
50.4989930520248
20
4.29878126375277
30
-5E-16
41
1
10
50.2542023009145
20
4.30705166857439
30
-5E-16
41
1
10
50.0094987395629
20
4.31548014813944
30
-5E-16
0
SPLINE
5
252
100
AcDbEntity
8
1
62
256
6
ByLayer
370
-1
48
1
60
0
100
AcDbSpline
70
4
71
3
72
10
73
6
40
0
40
0
40
0
40
0
40
0.619995322516368
40
0.619995322516368
40
1
40
1
40
1
40
1
41
1
10
57.7603441166955
20
-6.05516256284693
30
0
41
1
10
57.5082628561789
20
-4.89845433193844
30
0
41
1
10
57.2915488324578
20
-3.1894544034391
30
0
41
1
10
57.3857715311805
20
-1.05735674580958
30
0
41
1
10
57.5056354879122
20
-0.434808958989862
30
0
41
1
10
57.653157357369
20
-0.0704158920491125
30
0
0
SPLINE
5
253
100
AcDbEntity
8
1
62
256
6
ByLayer
370
-1
48
1
60
0
100
AcDbSpline
70
4
71
3
72
8
73
4
40
0
40
0
40
0
40
0
40
1
40
1
40
1
40
1
41
1
10
38.0334707906964
20
14.0994145328321
30
6E-16
41
1
10
37.6415066666638
20
14.2012742517547
30
5E-16
41
1
10
37.2536384474355
20
14.2990880259815
30
5E-16
41
1
10
36.8728374463929
20
14.3922641753347
30
5E-16
0
SPLINE
5
254
100
AcDbEntity
8
1
62
256
6
ByLayer
370
-1
48
1
60
0
100
AcDbSpline
70
4
71
3
72
16
73
12
40
0
40
0
40
0
40
0
40
0.267372091523256
40
0.267372091523256
40
0.600855844067868
40
0.600855844067868
40
0.762574643716911
40
0.762574643716911
40
0.898037673161716
40
0.898037673161716
40
1
40
1
40
1
40
1
41
1
10
6.66339745962154
20
-19.0245744101322
30
4E-16
41
1
10
6.67334240635006
20
-19.036266103658
30
4E-16
41
1
10
6.68546814770986
20
-19.0477160699853
30
4E-16
41
1
10
6.7192969694421
20
-19.0724552288877
30
4E-16
41
1
10
6.74283026958983
20
-19.0857432838256
30
4E-16
41
1
10
6.78884631127272
20
-19.1026287554228
30
4E-16
41
1
10
6.80595658073201
20
-19.1077588484921
30
4E-16
41
1
10
6.84135466156636
20
-19.1154700309997
30
4E-16
41
1
10
6.85938079361097
20
-19.1183821582684
30
4E-16
41
1
10
6.89283602717148
20
-19.1215414200073
30
4E-16
41
1
10
6.90809932802136
20
-19.1222825906926
30
4E-16
41
1
10
6.92320508075687
20
-19.1222825906926
30
4E-16
0
SPLINE
5
255
100
AcDbEntity
8
1
62
256
6
ByLayer
370
-1
48
1
60
0
100
AcDbSpline
70
4
71
3
72
8
73
4
40
0
40
0
40
0
40
0
40
1
40
1
40
1
40
1
41
1
10
36.8728374463929
20
1.17860758869207
30
-1.3E-15
41
1
10
37.258820962076
20
1.16566436168463
30
-1.3E-15
41
1
10
37.6462802791069
20
1.15240833967869
30
-1.2E-15
41
1
10
38.0334707906965
20
1.13889918921043
30
-1.2E-15
0
SPLINE
5
256
100
AcDbEntity
8
1
62
256
6
ByLayer
370
-1
48
1
60
0
100
AcDbSpline
70
4
71
3
72
12
73
8
40
0
40
0
40
0
40
0
40
0.157035801483453
40
0.157035801483453
40
0.597573876270852
40
0.597573876270852
40
1
40
1
40
1
40
1
41
1
10
59.2768887420908
20
-5.20948766265494
30
1E-16
41
1
10
59.2644705057158
20
-5.17106933827276
30
1E-16
41
1
10
59.2526774426203
20
-5.12715596166646
30
1E-16
41
1
10
59.2107484558553
20
-4.94173953114907
30
1E-16
41
1
10
59.1850690015636
20
-4.76260300333391
30
1E-16
41
1
10
59.1490047995501
20
-4.36646577240055
30
1E-16
41
1
10
59.1370401699389
20
-4.1495946558147
30
1E-16
41
1
10
59.1309597112727
20
-3.92010902962576
30
1E-16
0
SPLINE
5
257
100
AcDbEntity
8
1
62
256
6
ByLayer
370
-1
48
1
60
0
100
AcDbSpline
70
4
71
3
72
8
73
4
40
0
40
0
40
0
40
0
40
1
40
1
40
1
40
1
41
1
10
58.5687487133859
20
-8.81313716060401
30
0
41
1
10
58.7185142623709
20
-8.29886047480804
30
0
41
1
10
58.8656710850267
20
-7.71665687856293
30
1E-16
41
1
10
59.0115421389061
20
-7.06726979476798
30
1E-16
0
SPLINE
5
258
100
AcDbEntity
8
1
62
256
6
ByLayer
370
-1
48
1
60
0
100
AcDbSpline
70
4
71
3
72
8
73
4
40
0
40
0
40
0
40
0
40
1
40
1
40
1
40
1
41
1
10
49.8956783072184
20
-19.1896071059999
30
-1E-16
41
1
10
49.8692730125665
20
-19.2047516394031
30
-1E-16
41
1
10
49.8430063905512
20
-19.21893966151
30
-1E-16
41
1
10
49.8168844012206
20
-19.232163321268
30
-1E-16
0
SPLINE
5
259
100
AcDbEntity
8
1
62
256
6
ByLayer
370
-1
48
1
60
0
100
AcDbSpline
70
4
71
3
72
10
73
6
40
0
40
0
40
0
40
0
40
0.270828490434961
40
0.270828490434961
40
1
40
1
40
1
40
1
41
1
10
58.191891799
20
10.1999915674118
30
0
41
1
10
58.1089693894663
20
10.5107994804756
30
0
41
1
10
58.0237139653243
20
10.8211599710894
30
0
41
1
10
57.7034086424665
20
11.9660442061262
30
0
41
1
10
57.4584232166332
20
12.7986233804165
30
0
41
1
10
57.2080987866387
20
13.630085343281
30
0
0
SPLINE
5
25A
100
AcDbEntity
8
1
62
256
6
ByLayer
370
-1
48
1
60
0
100
AcDbSpline
70
4
71
3
72
8
73
4
40
0
40
0
40
0
40
0
40
1
40
1
40
1
40
1
41
1
10
58.2927313287735
20
-19.214392272857
30
0
41
1
10
58.5735993547933
20
-17.6330417820294
30
0
41
1
10
58.8534621924202
20
-16.051510376439
30
1E-16
41
1
10
59.1309597112727
20
-14.4695624107065
30
1E-16
0
SPLINE
5
25B
100
AcDbEntity
8
1
62
256
6
ByLayer
370
-1
48
1
60
0
100
AcDbSpline
70
4
71
3
72
8
73
4
40
0
40
0
40
0
40
0
40
1
40
1
40
1
40
1
41
1
10
58.4781317592918
20
-8.38863133201903
30
0
41
1
10
58.4659932262045
20
-8.33089291106154
30
0
41
1
10
58.4538657704275
20
-8.27254237989888
30
0
41
1
10
58.4418072475505
20
-8.21360823023426
30
0
0
SPLINE
5
25C
100
AcDbEntity
8
1
62
256
6
ByLayer
370
-1
48
1
60
0
100
AcDbSpline
70
4
71
3
72
16
73
12
40
0
40
0
40
0
40
0
40
0.26737209152312
40
0.26737209152312
40
0.600855844067793
40
0.600855844067793
40
0.762574643716858
40
0.762574643716858
40
0.898037673161672
40
0.898037673161672
40
1
40
1
40
1
40
1
41
1
10
9.33660254037846
20
19.0245744101322
30
-3E-16
41
1
10
9.32665759364994
20
19.036266103658
30
-3E-16
41
1
10
9.3145318522902
20
19.0477160699853
30
-3E-16
41
1
10
9.2807030305579
20
19.0724552288876
30
-3E-16
41
1
10
9.25716973041023
20
19.0857432838256
30
-3E-16
41
1
10
9.21115368872734
20
19.1026287554228
30
-3E-16
41
1
10
9.19404341926798
20
19.1077588484921
30
-3E-16
41
1
10
9.1586453384337
20
19.1154700309996
30
-3E-16
41
1
10
9.14061920638903
20
19.1183821582684
30
-3E-16
41
1
10
9.10716397282852
20
19.1215414200073
30
-3E-16
41
1
10
9.09190067197864
20
19.1222825906925
30
-3E-16
41
1
10
9.07679491924313
20
19.1222825906925
30
-3E-16
0
SPLINE
5
25D
100
AcDbEntity
8
1
62
256
6
ByLayer
370
-1
48
1
60
0
100
AcDbSpline
70
4
71
3
72
8
73
4
40
0
40
0
40
0
40
0
40
1
40
1
40
1
40
1
41
1
10
50.0094987395629
20
4.31548014813944
30
-5E-16
41
1
10
49.9668564600331
20
3.72389939191194
30
-5E-16
41
1
10
49.9288182100665
20
3.12508223228548
30
-5E-16
41
1
10
49.8956783072184
20
2.52296847862971
30
-5E-16
0
SPLINE
5
25E
100
AcDbEntity
8
1
62
256
6
ByLayer
370
-1
48
1
60
0
100
AcDbSpline
70
4
71
3
72
8
73
4
40
0
40
0
40
0
40
0
40
1
40
1
40
1
40
1
41
1
10
36.8728374463929
20
19.2734675833622
30
0
41
1
10
37.258820962076
20
19.3042705382118
30
1E-16
41
1
10
37.6462802791069
20
19.3201064316106
30
1E-16
41
1
10
38.0334707906965
20
19.3209027484658
30
1E-16
0
SPLINE
5
25F
100
AcDbEntity
8
1
62
256
6
ByLayer
370
-1
48
1
60
0
100
AcDbSpline
70
4
71
3
72
8
73
4
40
0
40
0
40
0
40
0
40
1
40
1
40
1
40
1
41
1
10
52.3895981639141
20
-17.3534854408601
30
-3E-16
41
1
10
53.8585385457649
20
-17.6562080745223
30
-3E-16
41
1
10
55.3280416450178
20
-17.9561994016412
30
-2E-16
41
1
10
56.7980176982168
20
-18.2538329354583
30
-1E-16
0
SPLINE
5
260
100
AcDbEntity
8
1
62
256
6
ByLayer
370
-1
48
1
60
0
100
AcDbSpline
70
4
71
3
72
16
73
12
40
0
40
0
40
0
40
0
40
0.212027093317499
40
0.212027093317499
40
0.424202646428993
40
0.424202646428993
40
0.636249859738849
40
0.636249859738849
40
0.850277709428778
40
0.850277709428778
40
1
40
1
40
1
40
1
41
1
10
57.143595213161
20
-20.0288476823514
30
-1E-16
41
1
10
57.2519402660375
20
-20.0480562920754
30
0
41
1
10
57.3650744659956
20
-20.0488989317542
30
0
41
1
10
57.5823058006793
20
-20.0134814605041
30
0
41
1
10
57.6893740958467
20
-19.9767078947892
30
0
41
1
10
57.8826186396958
20
-19.8713165203992
30
0
41
1
10
57.9714404182396
20
-19.8012980450125
30
0
41
1
10
58.120090724289
20
-19.6375918552288
30
0
41
1
10
58.1816706604662
20
-19.5414897137746
30
0
41
1
10
58.2563651449136
20
-19.3674682028112
30
0
41
1
10
58.2790412896671
20
-19.291470288347
30
0
41
1
10
58.2927313287735
20
-19.214392272857
30
0
0
SPLINE
5
261
100
AcDbEntity
8
1
62
256
6
ByLayer
370
-1
48
1
60
0
100
AcDbSpline
70
4
71
3
72
8
73
4
40
0
40
0
40
0
40
0
40
1
40
1
40
1
40
1
41
1
10
57.143595213161
20
11.6853575741583
30
-1E-16
41
1
10
57.1962699906383
20
12.0369978152076
30
-1E-16
41
1
10
57.2511722082969
20
12.3792626927355
30
0
41
1
10
57.3081221326103
20
12.7099035759778
30
0
0
SPLINE
5
262
100
AcDbEntity
8
1
62
256
6
ByLayer
370
-1
48
1
60
0
100
AcDbSpline
70
4
71
3
72
10
73
6
40
0
40
0
40
0
40
0
40
0.462804950975235
40
0.462804950975235
40
1
40
1
40
1
40
1
41
1
10
59.2768887420892
20
5.2094876626673
30
1E-16
41
1
10
59.1248809857533
20
5.45860891247079
30
1E-16
41
1
10
58.9729343049365
20
5.69690489184237
30
1E-16
41
1
10
58.644846898811
20
6.18758966304099
30
0
41
1
10
58.46870460296
20
6.43602986215475
30
0
41
1
10
58.2927313287735
20
6.66919037309347
30
0
0
SPLINE
5
263
100
AcDbEntity
8
1
62
256
6
ByLayer
370
-1
48
1
60
0
100
AcDbSpline
70
4
71
3
72
8
73
4
40
0
40
0
40
0
40
0
40
1
40
1
40
1
40
1
41
1
10
30.608273698124
20
1.3886510957916
30
-1.7E-15
41
1
10
32.6964201361765
20
1.31864714946602
30
-1.6E-15
41
1
10
34.7846092461305
20
1.2486323709461
30
-1.4E-15
41
1
10
36.8728374463929
20
1.17860758869207
30
-1.3E-15
0
SPLINE
5
264
100
AcDbEntity
8
1
62
256
6
ByLayer
370
-1
48
1
60
0
100
AcDbSpline
70
4
71
3
72
10
73
6
40
0
40
0
40
0
40
0
40
0.871948275969986
40
0.871948275969986
40
1
40
1
40
1
40
1
41
1
10
59.0115421389061
20
-10.7187224189023
30
1E-16
41
1
10
59.1220431190549
20
-11.1550646883478
30
1E-16
41
1
10
59.2287431904258
20
-11.5705169525699
30
1E-16
41
1
10
59.317894532075
20
-12.0974753262936
30
1E-16
41
1
10
59.3286116080656
20
-12.1664649930889
30
1E-16
41
1
10
59.3380235469691
20
-12.2382905524356
30
1E-16
0
SPLINE
5
265
100
AcDbEntity
8
1
62
256
6
ByLayer
370
-1
48
1
60
0
100
AcDbSpline
70
4
71
3
72
10
73
6
40
0
40
0
40
0
40
0
40
0.327995130014293
40
0.327995130014293
40
1
40
1
40
1
40
1
41
1
10
58.2245345307028
20
-3.93881642612715
30
0
41
1
10
58.22198516925
20
-3.96611407065981
30
0
41
1
10
58.2191202746445
20
-3.99248949936145
30
0
41
1
10
58.2095877982405
20
-4.0693735425906
30
0
41
1
10
58.2019930631874
20
-4.11691619051968
30
0
41
1
10
58.1935306125613
20
-4.15974058976639
30
0
0
SPLINE
5
266
100
AcDbEntity
8
1
62
256
6
ByLayer
370
-1
48
1
60
0
100
AcDbSpline
70
4
71
3
72
10
73
6
40
0
40
0
40
0
40
0
40
0.977763952728298
40
0.977763952728298
40
1
40
1
40
1
40
1
41
1
10
30.608273698124
20
-18.7719969010742
30
1E-16
41
1
10
29.218028903313
20
-18.6603599136231
30
0
41
1
10
27.7863958046283
20
-18.6003764444279
30
-1E-16
41
1
10
26.7625932946979
20
-18.5247736187095
30
0
41
1
10
26.7400873060185
20
-18.5230713907476
30
0
41
1
10
26.7178528083792
20
-18.5213466013356
30
0
0
SPLINE
5
267
100
AcDbEntity
8
1
62
256
6
ByLayer
370
-1
48
1
60
0
100
AcDbSpline
70
4
71
3
72
8
73
4
40
0
40
0
40
0
40
0
40
1
40
1
40
1
40
1
41
1
10
58.4781317592918
20
-4.69296582173277
30
0
41
1
10
58.6387642730624
20
-4.88205998637065
30
0
41
1
10
58.8218432565413
20
-5.04664565326473
30
0
41
1
10
59.0115421389061
20
-5.17362574514789
30
1E-16
0
SPLINE
5
268
100
AcDbEntity
8
1
62
256
6
ByLayer
370
-1
48
1
60
0
100
AcDbSpline
70
4
71
3
72
8
73
4
40
0
40
0
40
0
40
0
40
1
40
1
40
1
40
1
41
1
10
53.1412193694143
20
4.2139270571061
30
-3E-16
41
1
10
53.9342801902316
20
4.18869569313551
30
-3E-16
41
1
10
54.7273809983526
20
4.163459002921
30
-2E-16
41
1
10
55.5205191257095
20
4.13821732415565
30
-2E-16
0
SPLINE
5
269
100
AcDbEntity
8
1
62
256
6
ByLayer
370
-1
48
1
60
0
100
AcDbSpline
70
4
71
3
72
8
73
4
40
0
40
0
40
0
40
0
40
1
40
1
40
1
40
1
41
1
10
58.5698152813099
20
8.81904255950639
30
0
41
1
10
58.7192129437787
20
9.51096887934577
30
0
41
1
10
58.8660173769911
20
10.1440795081403
30
1E-16
41
1
10
59.0115421389061
20
10.7187224189021
30
1E-16
0
SPLINE
5
26A
100
AcDbEntity
8
1
62
256
6
ByLayer
370
-1
48
1
60
0
100
AcDbSpline
70
4
71
3
72
10
73
6
40
0
40
0
40
0
40
0
40
0.5
40
0.5
40
1
40
1
40
1
40
1
41
1
10
36.8728374463929
20
-12.8731659059619
30
5E-16
41
1
10
34.5948650329142
20
-11.9848266002146
30
3E-16
41
1
10
32.517980739708
20
-10.8501721293579
30
2E-16
41
1
10
28.8325134684013
20
-7.82920785922573
30
1.8E-15
41
1
10
27.2661465328006
20
-5.93870871372809
30
1.7E-15
41
1
10
26.121669328174
20
-3.71905077306533
30
1.6E-15
0
SPLINE
5
26B
100
AcDbEntity
8
1
62
256
6
ByLayer
370
-1
48
1
60
0
100
AcDbSpline
70
4
71
3
72
18
73
14
40
0
40
0
40
0
40
0
40
0.47096678321172
40
0.47096678321172
40
0.622828746381944
40
0.622828746381944
40
0.776809779103651
40
0.776809779103651
40
0.882033565440968
40
0.882033565440968
40
0.987433926919414
40
0.987433926919414
40
1
40
1
40
1
40
1
41
1
10
57.2080987866387
20
13.630085343281
30
0
41
1
10
57.2596389659621
20
13.3726869136476
30
0
41
1
10
57.3084268084264
20
13.1192026995805
30
0
41
1
10
57.3558993753136
20
12.8349846940911
30
0
41
1
10
57.3662019809116
20
12.7691642397575
30
0
41
1
10
57.3814020363224
20
12.6560403286459
30
0
41
1
10
57.3863127041924
20
12.6075707419986
30
0
41
1
10
57.3861931433705
20
12.5596913396277
30
0
41
1
10
57.3837056687914
20
12.5496444214328
30
0
41
1
10
57.3735060299801
20
12.5532168891182
30
0
41
1
10
57.3656707254847
20
12.5669379759778
30
0
41
1
10
57.3549554697673
20
12.5927139384884
30
0
41
1
10
57.3537744119188
20
12.5956260688698
30
0
41
1
10
57.3525693006579
20
12.5986647673887
30
0
0
SPLINE
5
26C
100
AcDbEntity
8
1
62
256
6
ByLayer
370
-1
48
1
60
0
100
AcDbSpline
70
4
71
3
72
8
73
4
40
0
40
0
40
0
40
0
40
1
40
1
40
1
40
1
41
1
10
58.1393552358925
20
-1.08155232133276
30
0
41
1
10
58.1281323625315
20
-0.822286287736944
30
0
41
1
10
58.1184115242351
20
-0.562910285820635
30
0
41
1
10
58.1102625923697
20
-0.303447495465662
30
0
0
SPLINE
5
26D
100
AcDbEntity
8
1
62
256
6
ByLayer
370
-1
48
1
60
0
100
AcDbSpline
70
4
71
3
72
8
73
4
40
0
40
0
40
0
40
0
40
1
40
1
40
1
40
1
41
1
10
58.4781317592918
20
11.4641818697987
30
0
41
1
10
58.6387642730624
20
11.5336421789829
30
0
41
1
10
58.8218432565413
20
11.6308817621708
30
0
41
1
10
59.0115421389061
20
11.7503578368771
30
1E-16
0
SPLINE
5
26E
100
AcDbEntity
8
1
62
256
6
ByLayer
370
-1
48
1
60
0
100
AcDbSpline
70
4
71
3
72
10
73
6
40
0
40
0
40
0
40
0
40
0.462804950975218
40
0.462804950975218
40
1
40
1
40
1
40
1
41
1
10
59.2768887420892
20
-13.1917122410593
30
1E-16
41
1
10
59.1248809857533
20
-13.9983437483303
30
1E-16
41
1
10
58.9729343049365
20
-14.8084136556866
30
1E-16
41
1
10
58.644846898811
20
-16.5653885334885
30
0
41
1
10
58.46870460296
20
-17.513605867367
30
0
41
1
10
58.2927313287735
20
-18.4654666469418
30
0
0
SPLINE
5
26F
100
AcDbEntity
8
1
62
256
6
ByLayer
370
-1
48
1
60
0
100
AcDbSpline
70
4
71
3
72
10
73
6
40
0
40
0
40
0
40
0
40
0.871948275970005
40
0.871948275970005
40
1
40
1
40
1
40
1
41
1
10
59.0115421389061
20
7.06726979476787
30
1E-16
41
1
10
59.1220431190544
20
6.5753427993368
30
1E-16
41
1
10
59.2287431904258
20
6.0626324854698
30
1E-16
41
1
10
59.317894532075
20
5.51572966034686
30
1E-16
41
1
10
59.3286116080656
20
5.44694897361245
30
1E-16
41
1
10
59.3380235469691
20
5.38109527264973
30
1E-16
0
SPLINE
5
270
100
AcDbEntity
8
1
62
256
6
ByLayer
370
-1
48
1
60
0
100
AcDbSpline
70
4
71
3
72
8
73
4
40
0
40
0
40
0
40
0
40
1
40
1
40
1
40
1
41
1
10
57.143595213161
20
-16.7722124579737
30
-1E-16
41
1
10
57.1962699906383
20
-16.5379649364749
30
-1E-16
41
1
10
57.2511722082969
20
-16.2894531009953
30
0
41
1
10
57.3081221326103
20
-16.0272876854935
30
0
0
SPLINE
5
271
100
AcDbEntity
8
1
62
256
6
ByLayer
370
-1
48
1
60
0
100
AcDbSpline
70
4
71
3
72
10
73
6
40
0
40
0
40
0
40
0
40
0.571697043745719
40
0.571697043745719
40
1
40
1
40
1
40
1
41
1
10
58.4781317592918
20
11.4641818697987
30
0
41
1
10
58.3727499662612
20
11.4186129388614
30
0
41
1
10
58.2887712783763
20
11.3560009993726
30
0
41
1
10
58.1864031531814
20
11.232722633313
30
0
41
1
10
58.1559632233839
20
11.1745270277536
30
0
41
1
10
58.1393552358925
20
11.1144501568247
30
0
0
SPLINE
5
272
100
AcDbEntity
8
1
62
256
6
ByLayer
370
-1
48
1
60
0
100
AcDbSpline
70
4
71
3
72
18
73
14
40
0
40
0
40
0
40
0
40
0.0074698584964846
40
0.0074698584964846
40
0.116973966194816
40
0.116973966194816
40
0.258725811908727
40
0.258725811908727
40
0.483357667469355
40
0.483357667469355
40
0.91437209527524
40
0.91437209527524
40
1
40
1
40
1
40
1
41
1
10
9.07679491924307
20
-19.1222825906926
30
-3E-16
41
1
10
9.07791531278104
20
-19.1222825906926
30
-3E-16
41
1
10
9.07903578618209
20
-19.122278667842
30
-3E-16
41
1
10
9.09637412624431
20
-19.1221572838471
30
-3E-16
41
1
10
9.11270417149058
20
-19.1211855627664
30
-3E-16
41
1
10
9.1475850522387
20
-19.1174067506416
30
-3E-16
41
1
10
9.16596173018905
20
-19.1141200721534
30
-3E-16
41
1
10
9.20810355067709
20
-19.1041233146922
30
-3E-16
41
1
10
9.22982072744469
20
-19.0964050302577
30
-3E-16
41
1
10
9.28328154913385
20
-19.0724543460921
30
-3E-16
41
1
10
9.30783261541364
20
-19.0543706588151
30
-3E-16
41
1
10
9.32995866734097
20
-19.0320887998676
30
-3E-16
41
1
10
9.33339464013244
20
-19.0283457512527
30
-3E-16
41
1
10
9.33660254037841
20
-19.0245744101322
30
-3E-16
0
SPLINE
5
273
100
AcDbEntity
8
1
62
256
6
ByLayer
370
-1
48
1
60
0
100
AcDbSpline
70
4
71
3
72
8
73
4
40
0
40
0
40
0
40
0
40
1
40
1
40
1
40
1
41
1
10
49.8168844012207
20
12.7505386306174
30
-5E-16
41
1
10
50.3695279658395
20
12.7679844088069
30
-5E-16
41
1
10
50.9236657315792
20
12.8242397306201
30
-4E-16
41
1
10
51.467417539827
20
12.9180896031573
30
-4E-16
0
SPLINE
5
274
100
AcDbEntity
8
1
62
256
6
ByLayer
370
-1
48
1
60
0
100
AcDbSpline
70
4
71
3
72
8
73
4
40
0
40
0
40
0
40
0
40
1
40
1
40
1
40
1
41
1
10
52.2383102428516
20
13.0588135574309
30
-4E-16
41
1
10
52.4949653701403
20
13.1082176670598
30
-3E-16
41
1
10
52.7516295216202
20
13.1575878861432
30
-3E-16
41
1
10
53.0083024958465
20
13.2069248208814
30
-3E-16
0
SPLINE
5
275
100
AcDbEntity
8
1
62
256
6
ByLayer
370
-1
48
1
60
0
100
AcDbSpline
70
4
71
3
72
18
73
14
40
0
40
0
40
0
40
0
40
0.0074698584965012
40
0.0074698584965012
40
0.116973966194809
40
0.116973966194809
40
0.25872581190871
40
0.25872581190871
40
0.483357667469334
40
0.483357667469334
40
0.914372095275209
40
0.914372095275209
40
1
40
1
40
1
40
1
41
1
10
6.92320508075693
20
19.1222825906925
30
4E-16
41
1
10
6.92208468721896
20
19.1222825906925
30
4E-16
41
1
10
6.92096421381791
20
19.122278667842
30
4E-16
41
1
10
6.90362587375569
20
19.1221572838471
30
4E-16
41
1
10
6.88729582850942
20
19.1211855627664
30
4E-16
41
1
10
6.8524149477613
20
19.1174067506415
30
4E-16
41
1
10
6.83403826981095
20
19.1141200721533
30
4E-16
41
1
10
6.7918964493229
20
19.1041233146922
30
4E-16
41
1
10
6.77017927255531
20
19.0964050302576
30
4E-16
41
1
10
6.71671845086621
20
19.072454346092
30
4E-16
41
1
10
6.69216738458636
20
19.054370658815
30
4E-16
41
1
10
6.67004133265903
20
19.0320887998676
30
4E-16
41
1
10
6.66660535986762
20
19.0283457512526
30
4E-16
41
1
10
6.66339745962159
20
19.0245744101322
30
4E-16
0
SPLINE
5
276
100
AcDbEntity
8
1
62
256
6
ByLayer
370
-1
48
1
60
0
100
AcDbSpline
70
4
71
3
72
12
73
8
40
0
40
0
40
0
40
0
40
0.157035801483421
40
0.157035801483421
40
0.59757387627083
40
0.59757387627083
40
1
40
1
40
1
40
1
41
1
10
59.2768887420908
20
5.20948766265479
30
1E-16
41
1
10
59.2644705057157
20
5.17106933827262
30
1E-16
41
1
10
59.2526774426203
20
5.12715596166635
30
1E-16
41
1
10
59.2107484558553
20
4.94173953114895
30
1E-16
41
1
10
59.1850690015636
20
4.76260300333379
30
1E-16
41
1
10
59.1490047995501
20
4.36646577240046
30
1E-16
41
1
10
59.1370401699389
20
4.14959465581458
30
1E-16
41
1
10
59.1309597112727
20
3.92010902962565
30
1E-16
0
SPLINE
5
277
100
AcDbEntity
8
1
62
256
6
ByLayer
370
-1
48
1
60
0
100
AcDbSpline
70
4
71
3
72
8
73
4
40
0
40
0
40
0
40
0
40
1
40
1
40
1
40
1
41
1
10
57.7332331788224
20
-0.0974726396702295
30
0
41
1
10
57.8040988234314
20
-0.221167236672784
30
0
41
1
10
57.8786488089337
20
-0.288675113844704
30
0
41
1
10
57.9515452935863
20
-0.293324517760084
30
0
0
SPLINE
5
278
100
AcDbEntity
8
1
62
256
6
ByLayer
370
-1
48
1
60
0
100
AcDbSpline
70
4
71
3
72
16
73
12
40
0
40
0
40
0
40
0
40
0.267372091523283
40
0.267372091523283
40
0.600855844067897
40
0.600855844067897
40
0.762574643716936
40
0.762574643716936
40
0.898037673161731
40
0.898037673161731
40
1
40
1
40
1
40
1
41
1
10
6.66339745962154
20
6.1697300194856
30
4E-16
41
1
10
6.67334240635006
20
6.13367828095576
30
4E-16
41
1
10
6.68546814770986
20
6.09801792960664
30
4E-16
41
1
10
6.7192969694421
20
6.02025855383837
30
4E-16
41
1
10
6.74283026958983
20
5.9779480294857
30
4E-16
41
1
10
6.78884631127272
20
5.92367470492701
30
4E-16
41
1
10
6.80595658073201
20
5.90709361727346
30
4E-16
41
1
10
6.84135466156636
20
5.88208699512387
30
4E-16
41
1
10
6.85938079361097
20
5.87260601127599
30
4E-16
41
1
10
6.89283602717148
20
5.86230971122501
30
4E-16
41
1
10
6.90809932802136
20
5.85988980456929
30
4E-16
41
1
10
6.92320508075687
20
5.85988980456929
30
4E-16
0
SPLINE
5
279
100
AcDbEntity
8
1
62
256
6
ByLayer
370
-1
48
1
60
0
100
AcDbSpline
70
4
71
3
72
8
73
4
40
0
40
0
40
0
40
0
40
1
40
1
40
1
40
1
41
1
10
53.0083024958465
20
-14.6839460496932
30
-3E-16
41
1
10
52.9753258581565
20
-14.778604722544
30
-3E-16
41
1
10
52.948635987686
20
-14.8739862650494
30
-3E-16
41
1
10
52.9279278499836
20
-14.9699023918036
30
-3E-16
0
SPLINE
5
27A
100
AcDbEntity
8
1
62
256
6
ByLayer
370
-1
48
1
60
0
100
AcDbSpline
70
4
71
2
72
6
73
3
40
0
40
0
40
0
40
1
40
1
40
1
41
1
10
59.9993805276337
20
13.088281751833
30
0
41
1
10
59.9995073474189
20
13.328135715156
30
0
41
1
10
59.9982975481529
20
13.567988176993
30
0
0
SPLINE
5
27B
100
AcDbEntity
8
1
62
256
6
ByLayer
370
-1
48
1
60
0
100
AcDbSpline
70
4
71
2
72
6
73
3
40
0
40
0
40
0
40
1
40
1
40
1
41
1
10
49.7225173403821
20
18.5426535121729
30
0
41
1
10
49.7223905205968
20
18.3027995488499
30
0
41
1
10
49.7236003198628
20
18.0629470870129
30
0
0
SPLINE
5
27C
100
AcDbEntity
8
1
62
256
6
ByLayer
370
-1
48
1
60
0
100
AcDbSpline
70
4
71
2
72
6
73
3
40
0
40
0
40
0
40
1
40
1
40
1
41
1
10
49.7236003195834
20
18.0629470910144
30
0
41
1
10
49.7245044339851
20
17.8930319276281
30
0
41
1
10
49.7539615533761
20
17.7257069551084
30
0
0
SPLINE
5
27D
100
AcDbEntity
8
1
62
256
6
ByLayer
370
-1
48
1
60
0
100
AcDbSpline
70
4
71
3
72
14
73
10
40
0
40
0
40
0
40
0
40
0.245608019549647
40
0.245608019549647
40
0.497072013033098
40
0.497072013033098
40
0.748536006516549
40
0.748536006516549
40
1
40
1
40
1
40
1
41
1
10
57.8963294147122
20
20.7074035586486
30
0
41
1
10
57.9864569285293
20
20.7064655252308
30
0
41
1
10
58.0580385984576
20
20.6933195536387
30
0
41
1
10
58.2327139824884
20
20.6291195894825
30
0
41
1
10
58.296824816202
20
20.5920030848607
30
0
41
1
10
58.4407770565199
20
20.4706265677442
30
0
41
1
10
58.4883773324682
20
20.4138520898067
30
0
41
1
10
58.5822234678628
20
20.2507255146018
30
0
41
1
10
58.6075738839481
20
20.180961679505
30
0
41
1
10
58.6239903967536
20
20.0881495146217
30
0
0
SPLINE
5
27E
100
AcDbEntity
8
1
62
256
6
ByLayer
370
-1
48
1
60
0
100
AcDbSpline
70
4
71
1
72
4
73
2
40
0
40
0
40
1
40
1
41
1
10
57.6167772412919
20
20.9579094601808
30
0
41
1
10
57.5900184839222
20
20.957212042976
30
0
0
SPLINE
5
27F
100
AcDbEntity
8
1
62
256
6
ByLayer
370
-1
48
1
60
0
100
AcDbSpline
70
4
71
1
72
4
73
2
40
0
40
0
40
1
40
1
41
1
10
59.9993622103395
20
13.0615111206116
30
0
41
1
10
59.9986814125229
20
13.0882816957436
30
0
0
SPLINE
5
280
100
AcDbEntity
8
1
62
256
6
ByLayer
370
-1
48
1
60
0
100
AcDbSpline
70
4
71
3
72
12
73
8
40
0
40
0
40
0
40
0
40
0.256234765497256
40
0.256234765497256
40
0.512469530995048
40
0.512469530995048
40
1
40
1
40
1
40
1
41
1
10
59.7488004787996
20
12.7816784408567
30
0
41
1
10
59.7698210558518
20
12.782169962132
30
0
41
1
10
59.7908416244173
20
12.7826614862055
30
0
41
1
10
59.8328827407435
20
12.7836445624358
30
0
41
1
10
59.8539032887501
20
12.7841361096055
30
0
41
1
10
59.9149189933059
20
12.7855629374136
30
0
41
1
10
59.9549141212452
20
12.7864982435571
30
0
41
1
10
59.9949092092123
20
12.7874335853295
30
0
0
SPLINE
5
281
100
AcDbEntity
8
1
62
256
6
ByLayer
370
-1
48
1
60
0
100
AcDbSpline
70
4
71
3
72
8
73
4
40
0
40
0
40
0
40
0
40
1
40
1
40
1
40
1
41
1
10
57.6273439400828
20
20.9571416267022
30
0
41
1
10
57.6238365805962
20
20.9573985763508
30
0
41
1
10
57.6203275843407
20
20.9576548667715
30
0
41
1
10
57.6168169559692
20
20.9579104952699
30
0
0
SPLINE
5
282
100
AcDbEntity
8
1
62
256
6
ByLayer
370
-1
48
1
60
0
100
AcDbSpline
70
4
71
3
72
12
73
8
40
0
40
0
40
0
40
0
40
0.256234765497261
40
0.256234765497261
40
0.51246953099505
40
0.51246953099505
40
1
40
1
40
1
40
1
41
1
10
57.8963294195123
20
20.7074035586395
30
0
41
1
10
57.8959152375778
20
20.7282403973869
30
0
41
1
10
57.8955010538761
20
20.7490772245344
30
0
41
1
10
57.8946726608592
20
20.7907508505842
30
0
41
1
10
57.8942584565148
20
20.8115876497788
30
0
41
1
10
57.8930561332633
20
20.8720699805872
30
0
41
1
10
57.8922679922835
20
20.9117154732421
30
0
41
1
10
57.8914798204693
20
20.9513609114677
30
0
0
SPLINE
5
283
100
AcDbEntity
8
1
62
256
6
ByLayer
370
-1
48
1
60
0
100
AcDbSpline
70
4
71
3
72
8
73
4
40
0
40
0
40
0
40
0
40
1
40
1
40
1
40
1
41
1
10
59.9988742590987
20
13.051034621524
30
0
41
1
10
59.9990377358791
20
13.0545118517212
30
0
41
1
10
59.9992007237418
20
13.0579907754779
30
0
41
1
10
59.9993632207626
20
13.0614713883947
30
0
0
SPLINE
5
284
100
AcDbEntity
8
1
62
256
6
ByLayer
370
-1
48
1
60
0
100
AcDbSpline
70
4
71
3
72
8
73
4
40
0
40
0
40
0
40
0
40
1
40
1
40
1
40
1
41
1
10
57.8913207639232
20
20.9513610914011
30
0
41
1
10
57.8033287253618
20
20.9534186587937
30
0
41
1
10
57.7153362516522
20
20.9553454987692
30
0
41
1
10
57.6273439400828
20
20.9571416267022
30
0
0
SPLINE
5
285
100
AcDbEntity
8
1
62
256
6
ByLayer
370
-1
48
1
60
0
100
AcDbSpline
70
4
71
2
72
6
73
3
40
0
40
0
40
0
40
1
40
1
40
1
41
1
10
57.5900188537404
20
20.9579114779102
30
0
41
1
10
57.3502745659984
20
20.9578922431639
30
0
41
1
10
57.1105309648241
20
20.9565357787541
30
0
0
SPLINE
5
286
100
AcDbEntity
8
1
62
256
6
ByLayer
370
-1
48
1
60
0
100
AcDbSpline
70
4
71
2
72
6
73
3
40
0
40
0
40
0
40
1
40
1
40
1
41
1
10
59.9982975484322
20
13.5679881729915
30
0
41
1
10
59.9973934340306
20
13.7379033363778
30
0
41
1
10
59.9679363146396
20
13.9052283088975
30
0
0
SPLINE
5
287
100
AcDbEntity
8
1
62
256
6
ByLayer
370
-1
48
1
60
0
100
AcDbSpline
70
4
71
3
72
14
73
10
40
0
40
0
40
0
40
0
40
0.245608019549647
40
0.245608019549647
40
0.497072013033098
40
0.497072013033098
40
0.748536006516549
40
0.748536006516549
40
1
40
1
40
1
40
1
41
1
10
49.9730973892409
20
18.849256818359
30
0
41
1
10
49.9740898972822
20
18.9394261385498
30
0
41
1
10
49.987273467603
20
19.0110485665427
30
0
41
1
10
50.0515505038977
20
19.1858429765684
30
0
41
1
10
50.0886891031757
20
19.2500057525066
30
0
41
1
10
50.2100978505973
20
19.394097792843
30
0
41
1
10
50.2668753829356
20
19.4417544322467
30
0
41
1
10
50.4299845879834
20
19.5357428762283
30
0
41
1
10
50.4997319881402
20
19.5611473888255
30
0
41
1
10
50.5925117441395
20
19.5776279511424
30
0
0
SPLINE
5
288
100
AcDbEntity
8
1
62
256
6
ByLayer
370
-1
48
1
60
0
100
AcDbSpline
70
4
71
3
72
16
73
12
40
0
40
0
40
0
40
0
40
0.242357006778981
40
0.242357006778981
40
0.484784571203322
40
0.484784571203322
40
0.727217194262361
40
0.727217194262361
40
0.969649409280316
40
0.969649409280316
40
1
40
1
40
1
40
1
41
1
10
49.7300023463346
20
18.8419938322847
30
0
41
1
10
49.7304686891799
20
18.9532737922598
30
0
41
1
10
49.7501296304661
20
19.0660207237314
30
0
41
1
10
49.8246345725502
20
19.2758097922678
30
0
41
1
10
49.8805066393797
20
19.3757423247378
30
0
41
1
10
50.0202271625735
20
19.54910403677
30
0
41
1
10
50.1059995160716
20
19.6249272199239
30
0
41
1
10
50.2951752526266
20
19.7422825225233
30
0
41
1
10
50.4011867685584
20
19.7854305708411
30
0
41
1
10
50.5236317020747
20
19.8125425755599
30
0
41
1
10
50.5374945484496
20
19.8153035516024
30
0
41
1
10
50.5514065597667
20
19.8177672675303
30
0
0
SPLINE
5
289
100
AcDbEntity
8
1
62
256
6
ByLayer
370
-1
48
1
60
0
100
AcDbSpline
70
4
71
3
72
12
73
8
40
0
40
0
40
0
40
0
40
0.470028301589372
40
0.470028301589372
40
0.940073053311493
40
0.940073053311493
40
1
40
1
40
1
40
1
41
1
10
59.6746732463713
20
-2.53605918260669
30
1E-16
41
1
10
59.6828090481679
20
-2.48035164910758
30
1E-16
41
1
10
59.6903862841327
20
-2.42687597401877
30
1E-16
41
1
10
59.7043464282923
20
-2.32475410962448
30
1E-16
41
1
10
59.7107322011545
20
-2.27608660771389
30
1E-16
41
1
10
59.717219442126
20
-2.22411969255552
30
1E-16
41
1
10
59.7179428453882
20
-2.2182842149106
30
1E-16
41
1
10
59.7186559933716
20
-2.21249053064685
30
1E-16
0
SPLINE
5
28A
100
AcDbEntity
8
1
62
256
6
ByLayer
370
-1
48
1
60
0
100
AcDbSpline
70
4
71
3
72
8
73
4
40
0
40
0
40
0
40
0
40
1
40
1
40
1
40
1
41
1
10
59.9949093156745
20
0.0992772376021946
30
1E-16
41
1
10
59.9963628327457
20
0.110348316532935
30
1E-16
41
1
10
59.9976844739776
20
0.121437889470883
30
1E-16
41
1
10
59.9988742591021
20
0.132545877127455
30
1E-16
0
SPLINE
5
28B
100
AcDbEntity
8
1
62
256
6
ByLayer
370
-1
48
1
60
0
100
AcDbSpline
70
4
71
1
72
4
73
2
40
0
40
0
40
1
40
1
41
1
10
59.9993622103395
20
0.137846360725888
30
1E-16
41
1
10
59.9986814125229
20
0.137355300993732
30
1E-16
0
SPLINE
5
28C
100
AcDbEntity
8
1
62
256
6
ByLayer
370
-1
48
1
60
0
100
AcDbSpline
70
4
71
3
72
30
73
26
40
0
40
0
40
0
40
0
40
5.95042251866E-05
40
5.95042251866E-05
40
0.222010550379718
40
0.222010550379718
40
0.313939703133596
40
0.313939703133596
40
0.636452601787
40
0.636452601787
40
0.807345124782985
40
0.807345124782985
40
0.876164772548521
40
0.876164772548521
40
0.904609094134987
40
0.904609094134987
40
0.939971734568847
40
0.939971734568847
40
0.959842476966356
40
0.959842476966356
40
0.981991309629709
40
0.981991309629709
40
0.999940495776307
40
0.999940495776307
40
1
40
1
40
1
40
1
41
1
10
59.1943649127412
20
-2.7106993804066
30
1E-16
41
1
10
59.1943826284877
20
-2.71069027777827
30
1E-16
41
1
10
59.1944003438119
20
-2.71068117434626
30
1E-16
41
1
10
59.2604955516277
20
-2.67671560228234
30
1E-16
41
1
10
59.323168759073
20
-2.63688516407999
30
1E-16
41
1
10
59.401594481287
20
-2.57506952243844
30
1E-16
41
1
10
59.4236435606393
20
-2.55609751476618
30
1E-16
41
1
10
59.5170822269698
20
-2.46900513871293
30
1E-16
41
1
10
59.5770815209735
20
-2.39333239735569
30
1E-16
41
1
10
59.6512288217468
20
-2.28560672807876
30
1E-16
41
1
10
59.6742192844058
20
-2.24894705511252
30
1E-16
41
1
10
59.6997604789602
20
-2.20774269661766
30
1E-16
41
1
10
59.7063624594726
20
-2.19704602161286
30
1E-16
41
1
10
59.7140087085304
20
-2.18504926785187
30
1E-16
41
1
10
59.7160508916252
20
-2.18190424055456
30
1E-16
41
1
10
59.7200905844887
20
-2.17588816727897
30
1E-16
41
1
10
59.7219661929011
20
-2.17325646244294
30
1E-16
41
1
10
59.7242205194133
20
-2.17046968628574
30
1E-16
41
1
10
59.7248978008248
20
-2.16973109754665
30
1E-16
41
1
10
59.7260261855646
20
-2.16876496262768
30
1E-16
41
1
10
59.7264438156961
20
-2.16860478565627
30
1E-16
41
1
10
59.726869486615
20
-2.16895869644949
30
1E-16
41
1
10
59.7269406665023
20
-2.16935078393306
30
1E-16
41
1
10
59.726893599058
20
-2.16996907594981
30
1E-16
41
1
10
59.7268928350674
20
-2.16997904772427
30
1E-16
41
1
10
59.7268920674149
20
-2.16998901921954
30
1E-16
0
SPLINE
5
28D
100
AcDbEntity
8
1
62
256
6
ByLayer
370
-1
48
1
60
0
100
AcDbSpline
70
4
71
3
72
8
73
4
40
0
40
0
40
0
40
0
40
1
40
1
40
1
40
1
41
1
10
59.9786431513537
20
0.101570593108932
30
1E-16
41
1
10
59.9840651713737
20
0.100805985684673
30
1E-16
41
1
10
59.9894871906603
20
0.10004137316858
30
1E-16
41
1
10
59.9949092092123
20
0.0992767555518697
30
1E-16
0
SPLINE
5
28E
100
AcDbEntity
8
1
62
256
6
ByLayer
370
-1
48
1
60
0
100
AcDbSpline
70
4
71
3
72
16
73
12
40
0
40
0
40
0
40
0
40
7.16421728134E-05
40
7.16421728134E-05
40
0.0598354361742042
40
0.0598354361742042
40
0.5299636586959
40
0.5299636586959
40
0.999928357827187
40
0.999928357827187
40
1
40
1
40
1
40
1
41
1
10
59.7268934793763
20
-2.16997286147617
30
1E-16
41
1
10
59.7268922584998
20
-2.16998278767693
30
1E-16
41
1
10
59.7268910376291
20
-2.1699927138784
30
1E-16
41
1
10
59.7261796971046
20
-2.175776138999
30
1E-16
41
1
10
59.725458724727
20
-2.18159603450206
30
1E-16
41
1
10
59.7189768903623
20
-2.2335557552619
30
1E-16
41
1
10
59.7125921378365
20
-2.28223502387655
30
1E-16
41
1
10
59.6986319051699
20
-2.38437354140331
30
1E-16
41
1
10
59.6910539581633
20
-2.43785242435706
30
1E-16
41
1
10
59.6829142833866
20
-2.49357531034792
30
1E-16
41
1
10
59.6829128378286
20
-2.49358520632504
30
1E-16
41
1
10
59.6829113922753
20
-2.49359510230283
30
1E-16
0
SPLINE
5
28F
100
AcDbEntity
8
1
62
256
6
ByLayer
370
-1
48
1
60
0
100
AcDbSpline
70
4
71
2
72
16
73
13
40
0
40
0
40
0
40
0.0714285714285714
40
0.0714285714285714
40
0.125
40
0.125
40
0.25
40
0.25
40
0.5
40
0.5
40
0.75
40
0.75
40
1
40
1
40
1
41
1
10
59.7186559933747
20
-2.21249053063391
30
1E-16
41
1
10
59.7193422492595
20
-2.20683404257909
30
1E-16
41
1
10
59.7124158785468
20
-2.2343732264309
30
1E-16
41
1
10
59.70958170953
20
-2.24564185539373
30
1E-16
41
1
10
59.7055790427996
20
-2.26206628796388
30
1E-16
41
1
10
59.6988357774967
20
-2.2897364173372
30
1E-16
41
1
10
59.6893086915288
20
-2.3298392810849
30
1E-16
41
1
10
59.6749148706821
20
-2.3904279477733
30
1E-16
41
1
10
59.6567453461225
20
-2.46849494676195
30
1E-16
41
1
10
59.6407404202186
20
-2.53726155263792
30
1E-16
41
1
10
59.6244758611779
20
-2.60812904520716
30
1E-16
41
1
10
59.6073101383507
20
-2.68292306402159
30
1E-16
41
1
10
59.5927421646519
20
-2.74747484206122
30
1E-16
0
SPLINE
5
290
100
AcDbEntity
8
1
62
256
6
ByLayer
370
-1
48
1
60
0
100
AcDbSpline
70
4
71
3
72
9
73
5
40
0
40
0
40
0
40
0
40
0.500000037730553
40
1
40
1
40
1
40
1
41
1
10
59.7268929259252
20
-2.16997736124861
30
1E-16
41
1
10
59.7257838825935
20
-2.17710606527521
30
1E-16
41
1
10
59.7235657960976
20
-2.19136347225253
30
1E-16
41
1
10
59.7202925941979
20
-2.20544817820297
30
1E-16
41
1
10
59.7186559933716
20
-2.21249053064676
30
1E-16
0
SPLINE
5
291
100
AcDbEntity
8
1
62
256
6
ByLayer
370
-1
48
1
60
0
100
AcDbSpline
70
4
71
3
72
12
73
8
40
0
40
0
40
0
40
0
40
0.319903545078824
40
0.319903545078824
40
0.793516743526709
40
0.793516743526709
40
1
40
1
40
1
40
1
41
1
10
59.6239246337433
20
-2.78655654941795
30
1E-16
41
1
10
59.6305058186419
20
-2.75587487486192
30
1E-16
41
1
10
59.6369634154906
20
-2.7255414627283
30
1E-16
41
1
10
59.6522848045004
20
-2.65262275671603
30
1E-16
41
1
10
59.6611769864974
20
-2.60959509256946
30
1E-16
41
1
10
59.6707917186463
20
-2.55929220781437
30
1E-16
41
1
10
59.6733229508993
20
-2.54530505806287
30
1E-16
41
1
10
59.6746732889562
20
-2.53605901207544
30
1E-16
0
SPLINE
5
292
100
AcDbEntity
8
1
62
256
6
ByLayer
370
-1
48
1
60
0
100
AcDbSpline
70
4
71
3
72
8
73
4
40
0
40
0
40
0
40
0
40
1
40
1
40
1
40
1
41
1
10
59.9988742590987
20
0.132545877095822
30
1E-16
41
1
10
59.9990377358791
20
0.134316230140627
30
1E-16
41
1
10
59.9992007237418
20
0.136083305871068
30
1E-16
41
1
10
59.9993632207626
20
0.137847089544437
30
1E-16
0
SPLINE
5
293
100
AcDbEntity
8
1
62
256
6
ByLayer
370
-1
48
1
60
0
100
AcDbSpline
70
4
71
5
72
12
73
6
40
0
40
0
40
0
40
0
40
0
40
0
40
1
40
1
40
1
40
1
40
1
40
1
41
1
10
59.1865017791391
20
-0.871217141030542
30
1E-16
41
1
10
59.4266922899256
20
-0.863570635682578
30
1E-16
41
1
10
59.6528195093415
20
-0.857875371694604
30
1E-16
41
1
10
59.8240728348015
20
-0.855447776407374
30
1E-16
41
1
10
59.909908957839
20
-0.856713309681993
30
1E-16
41
1
10
59.9108900636821
20
-0.860940014598583
30
1E-16
0
SPLINE
5
294
100
AcDbEntity
8
1
62
256
6
ByLayer
370
-1
48
1
60
0
100
AcDbSpline
70
4
71
3
72
16
73
12
40
0
40
0
40
0
40
0
40
7.16421728134E-05
40
7.16421728134E-05
40
0.0598354361742042
40
0.0598354361742042
40
0.5299636586959
40
0.5299636586959
40
0.999928357827187
40
0.999928357827187
40
1
40
1
40
1
40
1
41
1
10
59.7268929259242
20
-12.7493784281759
30
1E-16
41
1
10
59.7268920740158
20
-12.7493971711737
30
1E-16
41
1
10
59.7268912221222
20
-12.7494159141944
30
1E-16
41
1
10
59.7261796971046
20
-12.7650700189538
30
1E-16
41
1
10
59.725458724727
20
-12.7806894965939
30
1E-16
41
1
10
59.7189768903623
20
-12.9190083099557
30
1E-16
41
1
10
59.7125921378365
20
-13.0407541338293
30
1E-16
41
1
10
59.6986319051699
20
-13.2820396331499
30
1E-16
41
1
10
59.6910539581633
20
-13.4016311338006
30
1E-16
41
1
10
59.6829141810792
20
-13.5201199101808
30
1E-16
41
1
10
59.6829129401441
20
-13.5201379737425
30
1E-16
41
1
10
59.6829116992221
20
-13.5201560373296
30
1E-16
0
SPLINE
5
295
100
AcDbEntity
8
1
62
256
6
ByLayer
370
-1
48
1
60
0
100
AcDbSpline
70
4
71
2
72
6
73
3
40
0
40
0
40
0
40
1
40
1
40
1
41
1
10
57.1105309688239
20
-20.956535779036
30
0
41
1
10
56.9406928953248
20
-20.9555277432594
30
0
41
1
10
56.7734264354172
20
-20.9259552168572
30
0
0
SPLINE
5
296
100
AcDbEntity
8
1
62
256
6
ByLayer
370
-1
48
1
60
0
100
AcDbSpline
70
4
71
3
72
16
73
12
40
0
40
0
40
0
40
0
40
7.1650786168E-05
40
7.1650786168E-05
40
0.249712945778067
40
0.249712945778067
40
0.624679821504696
40
0.624679821504696
40
0.999928349213832
40
0.999928349213832
40
1
40
1
40
1
40
1
41
1
10
57.9687584389667
20
-20.5649547481818
30
0
41
1
10
57.9687398185271
20
-20.5649535407007
30
0
41
1
10
57.9687211980635
20
-20.5649523332374
30
0
41
1
10
57.9038264620869
20
-20.5607440310876
30
0
41
1
10
57.8392368841076
20
-20.5563189568217
30
0
41
1
10
57.6784010508927
20
-20.544719850065
30
0
41
1
10
57.5825148010444
20
-20.5372791430487
30
0
41
1
10
57.3921032080422
20
-20.5214844963274
30
0
41
1
10
57.2975537743297
20
-20.5131278156462
30
0
41
1
10
57.2037217621373
20
-20.5043374624316
30
0
41
1
10
57.2037038479026
20
-20.504335784157
30
0
41
1
10
57.2036859336415
20
-20.5043341058982
30
0
0
SPLINE
5
297
100
AcDbEntity
8
1
62
256
6
ByLayer
370
-1
48
1
60
0
100
AcDbSpline
70
4
71
1
72
4
73
2
40
0
40
0
40
1
40
1
41
1
10
57.6167772412919
20
-20.9579094601809
30
0
41
1
10
57.5900184839222
20
-20.9572120429761
30
0
0
SPLINE
5
298
100
AcDbEntity
8
1
62
256
6
ByLayer
370
-1
48
1
60
0
100
AcDbSpline
70
4
71
3
72
8
73
4
40
0
40
0
40
0
40
0
40
1
40
1
40
1
40
1
41
1
10
57.6273439400828
20
-20.9571416267024
30
0
41
1
10
57.6238365805962
20
-20.957398576351
30
0
41
1
10
57.6203275843407
20
-20.9576548667716
30
0
41
1
10
57.6168169559692
20
-20.9579104952701
30
0
0
SPLINE
5
299
100
AcDbEntity
8
1
62
256
6
ByLayer
370
-1
48
1
60
0
100
AcDbSpline
70
4
71
3
72
28
73
24
40
0
40
0
40
0
40
0
40
5.90385901854E-05
40
5.90385901854E-05
40
0.154146260789392
40
0.154146260789392
40
0.489794994350264
40
0.489794994350264
40
0.589296251629372
40
0.589296251629372
40
0.829545578822842
40
0.829545578822842
40
0.905423872995074
40
0.905423872995074
40
0.938427982513169
40
0.938427982513169
40
0.961295188463233
40
0.961295188463233
40
0.980714928422773
40
0.980714928422773
40
0.999940961411302
40
0.999940961411302
40
1
40
1
40
1
40
1
41
1
10
58.5298906207768
20
-20.0046933904832
30
0
41
1
10
58.5298886688915
20
-20.0047115588319
30
0
41
1
10
58.5298867169006
20
-20.004729726801
30
0
41
1
10
58.5247872296002
20
-20.0521647157099
30
0
41
1
10
58.5142191477957
20
-20.0980601967216
30
0
41
1
10
58.4685072984473
20
-20.2326819401932
30
0
41
1
10
58.4192813246532
20
-20.3119529332375
30
0
41
1
10
58.342993404528
20
-20.3962419741075
30
0
41
1
10
58.3243033475817
20
-20.4146118165719
30
0
41
1
10
58.2569412889554
20
-20.473083302566
30
0
41
1
10
58.2020337630383
20
-20.5094894232997
30
0
41
1
10
58.1126782715244
20
-20.5432146313804
30
0
41
1
10
58.0892944167183
20
-20.5502803510808
30
0
41
1
10
58.0540479526827
20
-20.5577139061486
30
0
41
1
10
58.0430487356593
20
-20.5596253895001
30
0
41
1
10
58.0242017215041
20
-20.5621547950032
30
0
41
1
10
58.016398058275
20
-20.5629931070585
30
0
41
1
10
58.0019246948068
20
-20.5641498587689
30
0
41
1
10
57.9952463867079
20
-20.5645288520542
30
0
41
1
10
57.9819808399224
20
-20.5649718442225
30
0
41
1
10
57.9753796688009
20
-20.5650394116038
30
0
41
1
10
57.9687981828815
20
-20.5649553322319
30
0
41
1
10
57.9687783248696
20
-20.5649550764206
30
0
41
1
10
57.9687584665327
20
-20.5649548206928
30
0
0
SPLINE
5
29A
100
AcDbEntity
8
1
62
256
6
ByLayer
370
-1
48
1
60
0
100
AcDbSpline
70
4
71
5
72
12
73
6
40
0
40
0
40
0
40
0
40
0
40
0
40
1
40
1
40
1
40
1
40
1
40
1
41
1
10
57.1460504006567
20
-20.816330087694
30
-1E-16
41
1
10
57.0822950951476
20
-20.8159689854296
30
-1E-16
41
1
10
57.0187765032772
20
-20.8129066744772
30
-1E-16
41
1
10
56.9554946412374
20
-20.8071660696794
30
-1E-16
41
1
10
56.8924479952238
20
-20.7987486339595
30
-1E-16
41
1
10
56.8296414830902
20
-20.7876269372011
30
-1E-16
0
SPLINE
5
29B
100
AcDbEntity
8
1
62
256
6
ByLayer
370
-1
48
1
60
0
100
AcDbSpline
70
4
71
2
72
6
73
3
40
0
40
0
40
0
40
1
40
1
40
1
41
1
10
59.9982975484322
20
-13.5679881729916
30
0
41
1
10
59.9973934340306
20
-13.7379033363779
30
0
41
1
10
59.9679363146396
20
-13.9052283088976
30
0
0
SPLINE
5
29C
100
AcDbEntity
8
1
62
256
6
ByLayer
370
-1
48
1
60
0
100
AcDbSpline
70
4
71
2
72
15
73
12
40
0
40
0
40
0
40
0.0714285714285714
40
0.0714285714285714
40
0.125
40
0.125
40
0.25
40
0.25
40
0.5
40
0.5
40
0.75
40
1
40
1
40
1
41
1
10
59.7186559933747
20
-12.7331087515946
30
1E-16
41
1
10
59.7193422492595
20
-12.717634998777
30
1E-16
41
1
10
59.7124158785468
20
-12.7028969330344
30
1E-16
41
1
10
59.70958170953
20
-12.6968663333123
30
1E-16
41
1
10
59.7055790427996
20
-12.6912982428791
30
1E-16
41
1
10
59.6988357774967
20
-12.6819177189558
30
1E-16
41
1
10
59.6893086915288
20
-12.6745042073526
30
1E-16
41
1
10
59.6749148706821
20
-12.6633036410701
30
1E-16
41
1
10
59.6567453461225
20
-12.6583323522454
30
1E-16
41
1
10
59.6407404202186
20
-12.6539533103489
30
1E-16
41
1
10
59.6073101383507
20
-12.6565200374048
30
1E-16
41
1
10
59.5927421646519
20
-12.6638651511893
30
1E-16
0
SPLINE
5
29D
100
AcDbEntity
8
1
62
256
6
ByLayer
370
-1
48
1
60
0
100
AcDbSpline
70
4
71
3
72
8
73
4
40
0
40
0
40
0
40
0
40
1
40
1
40
1
40
1
41
1
10
57.8913207639232
20
-20.9513610914012
30
0
41
1
10
57.8033287253618
20
-20.9534186587938
30
0
41
1
10
57.7153362516522
20
-20.9553454987693
30
0
41
1
10
57.6273439400828
20
-20.9571416267024
30
0
0
SPLINE
5
29E
100
AcDbEntity
8
1
62
256
6
ByLayer
370
-1
48
1
60
0
100
AcDbSpline
70
4
71
3
72
8
73
4
40
0
40
0
40
0
40
0
40
1
40
1
40
1
40
1
41
1
10
59.9988742590987
20
-13.0510346215242
30
0
41
1
10
59.9990377358791
20
-13.0545118517213
30
0
41
1
10
59.9992007237418
20
-13.057990775478
30
0
41
1
10
59.9993632207626
20
-13.0614713883948
30
0
0
SPLINE
5
29F
100
AcDbEntity
8
1
62
256
6
ByLayer
370
-1
48
1
60
0
100
AcDbSpline
70
4
71
5
72
12
73
6
40
0
40
0
40
0
40
0
40
0
40
0
40
1
40
1
40
1
40
1
40
1
40
1
41
1
10
50.6051950822816
20
-19.6854099376124
30
0
41
1
10
50.4192388870196
20
-19.6524810526324
30
0
41
1
10
50.2417120902822
20
-19.5694149174155
30
0
41
1
10
50.09155283655
20
-19.4391074087811
30
0
41
1
10
49.9840105542369
20
-19.2754119211908
30
0
41
1
10
49.9248498776644
20
-19.0957877861421
30
-1E-16
0
SPLINE
5
2A0
100
AcDbEntity
8
1
62
256
6
ByLayer
370
-1
48
1
60
0
100
AcDbSpline
70
4
71
5
72
12
73
6
40
0
40
0
40
0
40
0
40
0
40
0
40
1
40
1
40
1
40
1
40
1
40
1
41
1
10
59.9104888465133
20
-13.5498513948662
30
0
41
1
10
59.9101667472596
20
-13.6136356495937
30
0
41
1
10
59.9071445294026
20
-13.6771814368786
30
0
41
1
10
59.9014450973042
20
-13.7404887544805
30
0
41
1
10
59.8930699141416
20
-13.8035591177874
30
0
41
1
10
59.8819915593363
20
-13.8663875899862
30
0
0
SPLINE
5
2A1
100
AcDbEntity
8
1
62
256
6
ByLayer
370
-1
48
1
60
0
100
AcDbSpline
70
4
71
2
72
6
73
3
40
0
40
0
40
0
40
1
40
1
40
1
41
1
10
57.5900188537404
20
-20.9579114779103
30
0
41
1
10
57.3502745659984
20
-20.9578922431641
30
0
41
1
10
57.1105309648241
20
-20.9565357787542
30
0
0
SPLINE
5
2A2
100
AcDbEntity
8
1
62
256
6
ByLayer
370
-1
48
1
60
0
100
AcDbSpline
70
4
71
1
72
4
73
2
40
0
40
0
40
1
40
1
41
1
10
59.9993622103395
20
-13.0615111206117
30
0
41
1
10
59.9986814125229
20
-13.0882816957437
30
0
0
SPLINE
5
2A3
100
AcDbEntity
8
1
62
256
6
ByLayer
370
-1
48
1
60
0
100
AcDbSpline
70
4
71
2
72
15
73
12
40
0
40
0
40
0
40
0.0714285714285714
40
0.0714285714285714
40
0.125
40
0.125
40
0.25
40
0.25
40
0.5
40
0.5
40
0.75
40
1
40
1
40
1
41
1
10
57.9856733783029
20
-20.5544941610268
30
0
41
1
10
58.0011404944072
20
-20.5555033252007
30
0
41
1
10
58.0164383292481
20
-20.5470582448996
30
0
41
1
10
58.0226620950459
20
-20.5436224513716
30
0
41
1
10
58.0285098309131
20
-20.5387496917347
30
0
41
1
10
58.0383271250562
20
-20.5305692068886
30
0
41
1
10
58.0463982194242
20
-20.5189820503248
30
0
41
1
10
58.058617282499
20
-20.5014399190532
30
0
41
1
10
58.0649164923349
20
-20.4792272197498
30
0
41
1
10
58.0704596441631
20
-20.4596805832732
30
0
41
1
10
58.0704052545727
20
-20.4186863010019
30
0
41
1
10
58.0641617130018
20
-20.4007424882421
30
0
0
SPLINE
5
2A4
100
AcDbEntity
8
1
62
256
6
ByLayer
370
-1
48
1
60
0
100
AcDbSpline
70
4
71
3
72
12
73
8
40
0
40
0
40
0
40
0
40
0.470028301589372
40
0.470028301589372
40
0.940073053311493
40
0.940073053311493
40
1
40
1
40
1
40
1
41
1
10
59.6746732463713
20
-13.4995031027891
30
1E-16
41
1
10
59.6828090481679
20
-13.381712145087
30
1E-16
41
1
10
59.6903862841327
20
-13.2627963142347
30
1E-16
41
1
10
59.7043464282923
20
-13.0228909410013
30
1E-16
41
1
10
59.7107322011545
20
-12.9018501053053
30
1E-16
41
1
10
59.717219442126
20
-12.7642760614931
30
1E-16
41
1
10
59.7179428453882
20
-12.7487003719721
30
1E-16
41
1
10
59.7186559933716
20
-12.7331087515897
30
1E-16
0
SPLINE
5
2A5
100
AcDbEntity
8
1
62
256
6
ByLayer
370
-1
48
1
60
0
100
AcDbSpline
70
4
71
3
72
16
73
12
40
0
40
0
40
0
40
0
40
0.242357006778996
40
0.242357006778996
40
0.484784571203344
40
0.484784571203344
40
0.727217194262379
40
0.727217194262379
40
0.969649409280338
40
0.969649409280338
40
1
40
1
40
1
40
1
41
1
10
57.8914777234875
20
-20.9513601093964
30
0
41
1
10
58.0027070675816
20
-20.9509615143309
30
0
41
1
10
58.1153895888169
20
-20.9313599546254
30
0
41
1
10
58.3250382110321
20
-20.8569489904043
30
0
41
1
10
58.4248902985524
20
-20.801111988086
30
0
41
1
10
58.5980882438483
20
-20.6614333354575
30
0
41
1
10
58.6738241007797
20
-20.5756677855566
30
0
41
1
10
58.7910108808563
20
-20.3864771017103
30
0
41
1
10
58.8340752655483
20
-20.2804435792008
30
0
41
1
10
58.8610996701851
20
-20.1579589333033
30
0
41
1
10
58.8638508664781
20
-20.1440914018665
30
0
41
1
10
58.86630491305
20
-20.1301745034183
30
0
0
SPLINE
5
2A6
100
AcDbEntity
8
1
62
256
6
ByLayer
370
-1
48
1
60
0
100
AcDbSpline
70
4
71
3
72
16
73
12
40
0
40
0
40
0
40
0
40
0.0001612263823322
40
0.0001612263823322
40
0.229290574978034
40
0.229290574978034
40
0.700369669957305
40
0.700369669957305
40
0.999838773613816
40
0.999838773613816
40
1
40
1
40
1
40
1
41
1
10
57.2036859585563
20
-20.504334167036
30
0
41
1
10
57.2036671090219
20
-20.5043329108486
30
0
41
1
10
57.2036482586311
20
-20.5043316552527
30
-1E-16
41
1
10
57.176842308005
20
-20.5025438873005
30
-1E-16
41
1
10
57.1516402015559
20
-20.4991280797875
30
-1E-16
41
1
10
57.0822863741784
20
-20.4860542358404
30
-1E-16
41
1
10
57.0436662518111
20
-20.4735708719321
30
-1E-16
41
1
10
56.9888363097293
20
-20.4515997645198
30
-1E-16
41
1
10
56.9693472345379
20
-20.4424896314674
30
-1E-16
41
1
10
56.951240873912
20
-20.4330810057013
30
-1E-16
41
1
10
56.9512311393852
20
-20.4330759467757
30
-1E-16
41
1
10
56.9512214044583
20
-20.4330708878679
30
-1E-16
0
SPLINE
5
2A7
100
AcDbEntity
8
1
62
256
6
ByLayer
370
-1
48
1
60
0
100
AcDbSpline
70
4
71
5
72
12
73
6
40
0
40
0
40
0
40
0
40
0
40
0
40
1
40
1
40
1
40
1
40
1
40
1
41
1
10
59.2935913064086
20
-11.9366370543368
30
0
41
1
10
59.5056598668747
20
-12.0024728916293
30
0
41
1
10
59.697157919987
20
-12.135517700203
30
0
41
1
10
59.8388946182678
20
-12.3270880077445
30
0
41
1
10
59.9099976250883
20
-12.5492550712017
30
0
41
1
10
59.9108900636821
20
-12.7713044700214
30
0
0
SPLINE
5
2A8
100
AcDbEntity
8
1
62
256
6
ByLayer
370
-1
48
1
60
0
100
AcDbSpline
70
4
71
5
72
12
73
6
40
0
40
0
40
0
40
0
40
0
40
0
40
1
40
1
40
1
40
1
40
1
40
1
41
1
10
58.7840699688511
20
-20.0930103455012
30
0
41
1
10
58.7417030930454
20
-20.3332848380131
30
0
41
1
10
58.615718769732
20
-20.5594386493928
30
0
41
1
10
58.4123297332294
20
-20.7306463069856
30
0
41
1
10
58.1682405525158
20
-20.8163729092084
30
0
41
1
10
57.9242418224467
20
-20.8172057581779
30
0
0
SPLINE
5
2A9
100
AcDbEntity
8
1
62
256
6
ByLayer
370
-1
48
1
60
0
100
AcDbSpline
70
4
71
3
72
12
73
8
40
0
40
0
40
0
40
0
40
0.375360243573872
40
0.375360243573872
40
0.75031884698283
40
0.75031884698283
40
1
40
1
40
1
40
1
41
1
10
57.2250659151234
20
-20.4938784875626
30
0
41
1
10
57.3183425603056
20
-20.5026653148114
30
0
41
1
10
57.4123571687927
20
-20.5110215298805
30
0
41
1
10
57.601674962423
20
-20.5268151350661
30
0
41
1
10
57.6970018419669
20
-20.5342555707569
30
0
41
1
10
57.8569219068488
20
-20.5458573025185
30
0
41
1
10
57.9211537570771
20
-20.5502844565487
30
0
41
1
10
57.9856734667512
20
-20.5544940952134
30
0
0
SPLINE
5
2AA
100
AcDbEntity
8
1
62
256
6
ByLayer
370
-1
48
1
60
0
100
AcDbSpline
70
4
71
3
72
14
73
10
40
0
40
0
40
0
40
0
40
0.261243178877109
40
0.261243178877109
40
0.522562413750327
40
0.522562413750327
40
0.783887101462843
40
0.783887101462843
40
1
40
1
40
1
40
1
41
1
10
59.9949084012743
20
-12.7874356802739
30
0
41
1
10
59.9944427466456
20
-12.6761553763477
30
0
41
1
10
59.97478058549
20
-12.5634090545322
30
0
41
1
10
59.9002767107874
20
-12.3536194525489
30
0
41
1
10
59.8444036490567
20
-12.2536874173021
30
0
41
1
10
59.704683876105
20
-12.0803253303202
30
0
41
1
10
59.6189109499332
20
-12.0045024333725
30
0
41
1
10
59.4461001230542
20
-11.8972986471793
30
0
41
1
10
59.3600645999034
20
-11.8593933683669
30
0
41
1
10
59.2711841829342
20
-11.8341234364122
30
0
0
SPLINE
5
2AB
100
AcDbEntity
8
1
62
256
6
ByLayer
370
-1
48
1
60
0
100
AcDbSpline
70
4
71
3
72
9
73
5
40
0
40
0
40
0
40
0
40
0.500000037729331
40
1
40
1
40
1
40
1
41
1
10
59.7268929259252
20
-12.7493784281546
30
1E-16
41
1
10
59.7257838825935
20
-12.7466460888006
30
1E-16
41
1
10
59.7235657960975
20
-12.7411814105047
30
1E-16
41
1
10
59.7202925941979
20
-12.7357996377593
30
1E-16
41
1
10
59.7186559933716
20
-12.7331087515897
30
1E-16
0
SPLINE
5
2AC
100
AcDbEntity
8
1
62
256
6
ByLayer
370
-1
48
1
60
0
100
AcDbSpline
70
4
71
3
72
28
73
24
40
0
40
0
40
0
40
0
40
0.0605390619623687
40
0.0605390619623687
40
0.171548084155812
40
0.171548084155812
40
0.560998442957006
40
0.560998442957006
40
0.767359660369125
40
0.767359660369125
40
0.850462806403799
40
0.850462806403799
40
0.884810738824358
40
0.884810738824358
40
0.927512885196262
40
0.927512885196262
40
0.951507794512036
40
0.951507794512036
40
0.97825361107871
40
0.97825361107871
40
0.999928145691648
40
0.999928145691648
40
1
40
1
40
1
40
1
41
1
10
59.3399125034704
20
-12.2306737250851
30
1E-16
41
1
10
59.3531100853266
20
-12.2355040755915
30
1E-16
41
1
10
59.3659771933694
20
-12.2407280931146
30
1E-16
41
1
10
59.401594481287
20
-12.2566006196652
30
1E-16
41
1
10
59.4236435606393
20
-12.2681295419707
30
1E-16
41
1
10
59.5170822269698
20
-12.3240251624094
30
1E-16
41
1
10
59.5770815209735
20
-12.3786323099817
30
1E-16
41
1
10
59.6512288217468
20
-12.4806686353583
30
1E-16
41
1
10
59.6742192844058
20
-12.5203976170207
30
1E-16
41
1
10
59.6997604789602
20
-12.5853232037506
30
1E-16
41
1
10
59.7063624594726
20
-12.6053132107229
30
1E-16
41
1
10
59.7140087085304
20
-12.6351884760976
30
1E-16
41
1
10
59.7160508916252
20
-12.6441694502108
30
1E-16
41
1
10
59.7200905844887
20
-12.6646838111987
30
1E-16
41
1
10
59.7219661929011
20
-12.6763637736324
30
1E-16
41
1
10
59.7242205194133
20
-12.6948552927663
30
1E-16
41
1
10
59.7248978008248
20
-12.701579767419
30
1E-16
41
1
10
59.7260261855646
20
-12.7158472744886
30
1E-16
41
1
10
59.7264438156961
20
-12.7234148772484
30
1E-16
41
1
10
59.726869486615
20
-12.7370932463792
30
1E-16
41
1
10
59.7269406665023
20
-12.7432208455182
30
1E-16
41
1
10
59.7268932968085
20
-12.7493386034191
30
1E-16
41
1
10
59.7268931408931
20
-12.7493584996428
30
1E-16
41
1
10
59.7268929849181
20
-12.7493783961439
30
1E-16
0
SPLINE
5
2AD
100
AcDbEntity
8
1
62
256
6
ByLayer
370
-1
48
1
60
0
100
AcDbSpline
70
4
71
3
72
12
73
8
40
0
40
0
40
0
40
0
40
0.319903545078307
40
0.319903545078307
40
0.79351674352663
40
0.79351674352663
40
1
40
1
40
1
40
1
41
1
10
57.0555970656433
20
-20.4301442538493
30
-1E-16
41
1
10
57.0671773943789
20
-20.4383182485768
30
-1E-16
41
1
10
57.0798542100159
20
-20.4463502688907
30
-1E-16
41
1
10
57.1154038416155
20
-20.4654551581398
30
-1E-16
41
1
10
57.1401139374052
20
-20.4765789650119
30
-1E-16
41
1
10
57.188618435817
20
-20.4887977517088
30
-1E-16
41
1
10
57.2056780111958
20
-20.4920521715666
30
0
41
1
10
57.2250658286238
20
-20.4938785390382
30
0
0
SPLINE
5
2AE
100
AcDbEntity
8
1
62
256
6
ByLayer
370
-1
48
1
60
0
100
AcDbSpline
70
4
71
3
72
14
73
10
40
0
40
0
40
0
40
0
40
0.273747734977718
40
0.273747734977718
40
0.615482923349576
40
0.615482923349576
40
0.957217536543082
40
0.957217536543082
40
1
40
1
40
1
40
1
41
1
10
49.811785324138
20
-19.2328531796103
30
0
41
1
10
49.8474174831213
20
-19.3150447064556
30
0
41
1
10
49.8944038618286
20
-19.3929856489193
30
0
41
1
10
50.0202271625735
20
-19.5491040367701
30
0
41
1
10
50.1059995160716
20
-19.624927219924
30
0
41
1
10
50.2951752526266
20
-19.7422825225234
30
0
41
1
10
50.4011867685584
20
-19.7854305708412
30
0
41
1
10
50.5236317020747
20
-19.81254257556
30
0
41
1
10
50.5374945484496
20
-19.8153035516025
30
0
41
1
10
50.5514065597667
20
-19.8177672675304
30
0
0
SPLINE
5
2AF
100
AcDbEntity
8
1
62
256
6
ByLayer
370
-1
48
1
60
0
100
AcDbSpline
70
4
71
2
72
6
73
3
40
0
40
0
40
0
40
1
40
1
40
1
41
1
10
59.9993805276337
20
-13.0882817518331
30
0
41
1
10
59.9995073474189
20
-13.3281357151561
30
0
41
1
10
59.9982975481529
20
-13.5679881769931
30
0
0
SPLINE
5
2B0
100
AcDbEntity
8
1
62
256
6
ByLayer
370
-1
48
1
60
0
100
AcDbSpline
70
4
71
3
72
20
73
16
40
0
40
0
40
0
40
0
40
6.40375833268E-05
40
6.40375833268E-05
40
0.167198335693785
40
0.167198335693785
40
0.531267560214113
40
0.531267560214113
40
0.639193918800775
40
0.639193918800775
40
0.899785952964838
40
0.899785952964838
40
0.982089113844614
40
0.982089113844614
40
1
40
1
40
1
40
1
41
1
10
50.7252988111682
20
-19.3351588164522
30
0
41
1
10
50.7252805014962
20
-19.3351572982089
30
0
41
1
10
50.7252621921891
20
-19.3351557799031
30
0
41
1
10
50.6774581674978
20
-19.3311886439171
30
0
41
1
10
50.631138774405
20
-19.3219039745819
30
0
41
1
10
50.495043408113
20
-19.2806140606679
30
0
41
1
10
50.4145226593845
20
-19.2350877356558
30
0
41
1
10
50.3285594682933
20
-19.1637154451946
30
0
41
1
10
50.3097978346234
20
-19.1461728160641
30
0
41
1
10
50.2500085472944
20
-19.0826573539208
30
0
41
1
10
50.2126452133056
20
-19.0305255939463
30
0
41
1
10
50.1779983172567
20
-18.9437584213436
30
0
41
1
10
50.1707363384457
20
-18.9209156595201
30
0
41
1
10
50.1642613089434
20
-18.8914863432696
30
0
41
1
10
50.1631884974036
20
-18.8861236117167
30
0
41
1
10
50.1622149060153
20
-18.8807027356535
30
0
0
SPLINE
5
2B1
100
AcDbEntity
8
1
62
256
6
ByLayer
370
-1
48
1
60
0
100
AcDbSpline
70
4
71
3
72
12
73
8
40
0
40
0
40
0
40
0
40
0.319903545078824
40
0.319903545078824
40
0.793516743526709
40
0.793516743526709
40
1
40
1
40
1
40
1
41
1
10
59.6239246337433
20
-13.6733031339434
30
1E-16
41
1
10
59.6305058186419
20
-13.66119415531
30
1E-16
41
1
10
59.6369634154906
20
-13.6479944433339
30
1E-16
41
1
10
59.6522848045004
20
-13.6111867962702
30
1E-16
41
1
10
59.6611769864974
20
-13.5857336231879
30
1E-16
41
1
10
59.6707917186463
20
-13.5363564594546
30
1E-16
41
1
10
59.6733229508993
20
-13.5190535132074
30
1E-16
41
1
10
59.6746732889562
20
-13.4995031863808
30
1E-16
0
SPLINE
5
2B2
100
AcDbEntity
8
1
62
256
6
ByLayer
370
-1
48
1
60
0
100
AcDbSpline
70
4
71
5
72
12
73
6
40
0
40
0
40
0
40
0
40
0
40
0
40
1
40
1
40
1
40
1
40
1
40
1
41
1
10
57.9242417668961
20
-20.8172057235479
30
0
41
1
10
57.768603278398
20
-20.8177369695572
30
0
41
1
10
57.6129648919934
20
-20.817915022289
30
0
41
1
10
57.4573266078532
20
-20.8177398885456
30
0
41
1
10
57.3016884259411
20
-20.8172115695692
30
0
41
1
10
57.1460503464383
20
-20.8163300544878
30
-1E-16
0
SPLINE
5
2B3
100
AcDbEntity
8
1
62
256
6
ByLayer
370
-1
48
1
60
0
100
AcDbSpline
70
4
71
5
72
12
73
6
40
0
40
0
40
0
40
0
40
0
40
0
40
1
40
1
40
1
40
1
40
1
40
1
41
1
10
59.9108900291018
20
-12.7713045255764
30
0
41
1
10
59.9115158431267
20
-12.9270145450865
30
0
41
1
10
59.9117886251993
20
-13.0827242473006
30
0
41
1
10
59.9117083821186
20
-13.2384336320518
30
0
41
1
10
59.9112751151263
20
-13.3941426993774
30
0
41
1
10
59.9104888133552
20
-13.5498514490892
30
0
0
SPLINE
5
2B4
100
AcDbEntity
8
1
62
256
6
ByLayer
370
-1
48
1
60
0
100
AcDbSpline
70
4
71
3
72
16
73
12
40
0
40
0
40
0
40
0
40
0.0001612263823321
40
0.0001612263823321
40
0.229290574978028
40
0.229290574978028
40
0.700369669956849
40
0.700369669956849
40
0.999838773613822
40
0.999838773613822
40
1
40
1
40
1
40
1
41
1
10
59.682911748959
20
-13.5201560086476
30
1E-16
41
1
10
59.6829108150513
20
-13.5201749696428
30
1E-16
41
1
10
59.6829098816107
20
-13.5201939314535
30
1E-16
41
1
10
59.6815806201257
20
-13.5471584537131
30
1E-16
41
1
10
59.6788757408255
20
-13.5726017827905
30
1E-16
41
1
10
59.6683479486872
20
-13.6428135509226
30
1E-16
41
1
10
59.6581169383471
20
-13.6821861716993
30
1E-16
41
1
10
59.6400156883752
20
-13.7383056843818
30
1E-16
41
1
10
59.632487226745
20
-13.7583209860119
30
1E-16
41
1
10
59.6246964769354
20
-13.7769650852305
30
1E-16
41
1
10
59.6246922879237
20
-13.7769751088931
30
1E-16
41
1
10
59.6246880989176
20
-13.7769851329518
30
1E-16
0
SPLINE
5
2B5
100
AcDbEntity
8
1
62
256
6
ByLayer
370
-1
48
1
60
0
100
AcDbSpline
70
4
71
3
72
8
73
4
40
0
40
0
40
0
40
0
40
1
40
1
40
1
40
1
41
1
10
59.9949093156745
20
-12.7875926578892
30
0
41
1
10
59.9963628327457
20
-12.875406892361
30
0
41
1
10
59.9976844739776
20
-12.9632210789804
30
0
41
1
10
59.9988742591021
20
-13.0510346217742
30
0
0
SPLINE
5
2B6
100
AcDbEntity
8
1
62
256
6
ByLayer
370
-1
48
1
60
0
100
AcDbSpline
70
4
71
3
72
12
73
8
40
0
40
0
40
0
40
0
40
0.301123764461475
40
0.301123764461475
40
0.650561882230738
40
0.650561882230738
40
1
40
1
40
1
40
1
41
1
10
59.6891052571654
20
-0.136841791035977
30
1E-16
41
1
10
59.6596295214845
20
-0.137052736788917
30
1E-16
41
1
10
59.6248332623618
20
-0.136818634705861
30
1E-16
41
1
10
59.5118000174185
20
-0.135212452325419
30
1E-16
41
1
10
59.4550224850801
20
-0.13406128491826
30
1E-16
41
1
10
59.2919132800324
20
-0.130005092713844
30
1E-16
41
1
10
59.2221658798755
20
-0.128012526231998
30
1E-16
41
1
10
59.1293861238763
20
-0.125059761510727
30
1E-16
0
SPLINE
5
2B7
100
AcDbEntity
8
1
62
256
6
ByLayer
370
-1
48
1
60
0
100
AcDbSpline
70
4
71
2
72
6
73
3
40
0
40
0
40
0
40
1
40
1
40
1
41
1
10
57.5900188537404
20
0.0841347604833231
30
0
41
1
10
57.3502745659984
20
0.0925077550475351
30
0
41
1
10
57.1105309648241
20
0.100857384202015
30
-1E-16
0
SPLINE
5
2B8
100
AcDbEntity
8
1
62
256
6
ByLayer
370
-1
48
1
60
0
100
AcDbSpline
70
4
71
3
72
28
73
24
40
0
40
0
40
0
40
0
40
5.90385901805E-05
40
5.90385901805E-05
40
0.154146260790518
40
0.154146260790518
40
0.489794994349044
40
0.489794994349044
40
0.589296251630334
40
0.589296251630334
40
0.829545578823119
40
0.829545578823119
40
0.905423872995215
40
0.905423872995215
40
0.938427982513244
40
0.938427982513244
40
0.96129518846329
40
0.96129518846329
40
0.980714928422785
40
0.980714928422785
40
0.999940961411296
40
0.999940961411296
40
1
40
1
40
1
40
1
41
1
10
50.7252988111682
20
3.1310888315592
30
-4E-16
41
1
10
50.7252805014962
20
3.13108092897463
30
-4E-16
41
1
10
50.7252621921891
20
3.13107302555622
30
-4E-16
41
1
10
50.6774581674978
20
3.11043709395196
30
-4E-16
41
1
10
50.631138774405
20
3.08673978721916
30
-5E-16
41
1
10
50.495043408113
20
3.00430127951034
30
-5E-16
41
1
10
50.4145226593845
20
2.93426452288409
30
-5E-16
41
1
10
50.3285594682933
20
2.84043400388879
30
-5E-16
41
1
10
50.3097978346234
20
2.81847819261219
30
-5E-16
41
1
10
50.2500085472944
20
2.74467872847293
30
-5E-16
41
1
10
50.2126452133056
20
2.69112430147987
30
-5E-16
41
1
10
50.1779983172567
20
2.64018261432494
30
-5E-16
41
1
10
50.1707363384457
20
2.6294104066213
30
-5E-16
41
1
10
50.1630993235534
20
2.61843597376944
30
-5E-16
41
1
10
50.1611360814572
20
2.61567981042106
30
-5E-16
41
1
10
50.1585400415175
20
2.61221390370136
30
-5E-16
41
1
10
50.1576803175393
20
2.61113090971566
30
-5E-16
41
1
10
50.1564957466904
20
2.60980008337552
30
-5E-16
41
1
10
50.1561085405652
20
2.6094495012305
30
-5E-16
41
1
10
50.1556585189671
20
2.60928222786197
30
-5E-16
41
1
10
50.1555920345971
20
2.60946005996289
30
-5E-16
41
1
10
50.1556808471345
20
2.60989108394315
30
-5E-16
41
1
10
50.1556828716178
20
2.60990087789025
30
-5E-16
41
1
10
50.1556849015493
20
2.60991067071416
30
-5E-16
0
SPLINE
5
2B9
100
AcDbEntity
8
1
62
256
6
ByLayer
370
-1
48
1
60
0
100
AcDbSpline
70
4
71
5
72
12
73
6
40
0
40
0
40
0
40
0
40
0
40
0
40
1
40
1
40
1
40
1
40
1
40
1
41
1
10
58.7840699688511
20
1.02809628485144
30
0
41
1
10
58.7417030930454
20
1.03377000098985
30
0
41
1
10
58.615718769732
20
1.04211767012581
30
0
41
1
10
58.4123297332294
20
1.05220969447834
30
0
41
1
10
58.1682405525158
20
1.0622311383124
30
0
41
1
10
57.9242418224467
20
1.07076759708414
30
0
0
SPLINE
5
2BA
100
AcDbEntity
8
1
62
256
6
ByLayer
370
-1
48
1
60
0
100
AcDbSpline
70
4
71
3
72
14
73
10
40
0
40
0
40
0
40
0
40
0.245608019549647
40
0.245608019549647
40
0.497072013033098
40
0.497072013033098
40
0.748536006516549
40
0.748536006516549
40
1
40
1
40
1
40
1
41
1
10
49.9730973892409
20
0.313357332735507
30
-5E-16
41
1
10
49.9740898972822
20
0.314896579649883
30
-5E-16
41
1
10
49.987273467603
20
0.315686303231729
30
-5E-16
41
1
10
50.0515505038977
20
0.31649240552369
30
-5E-16
41
1
10
50.0886891031757
20
0.316315264923503
30
-5E-16
41
1
10
50.2100978505973
20
0.314590068136994
30
-5E-16
41
1
10
50.2668753829356
20
0.313438900729835
30
-5E-16
41
1
10
50.4299845879834
20
0.309382708525448
30
-5E-16
41
1
10
50.4997319881402
20
0.307390142043573
30
-5E-16
41
1
10
50.5925117441395
20
0.30443737732233
30
-5E-16
0
SPLINE
5
2BB
100
AcDbEntity
8
1
62
256
6
ByLayer
370
-1
48
1
60
0
100
AcDbSpline
70
4
71
2
72
16
73
13
40
0
40
0
40
0
40
0.0714285714285714
40
0.0714285714285714
40
0.125
40
0.125
40
0.25
40
0.25
40
0.5
40
0.5
40
0.75
40
0.75
40
1
40
1
40
1
41
1
10
57.9856733783029
20
2.40956892508856
30
0
41
1
10
58.0011404944072
20
2.40355751746526
30
0
41
1
10
58.0164383292481
20
2.4307101491643
30
0
41
1
10
58.0226620950459
20
2.44175691638634
30
0
41
1
10
58.0285098309131
20
2.45790037856375
30
0
41
1
10
58.0383271250562
20
2.48500234080771
30
0
41
1
10
58.0463982194242
20
2.52432396997739
30
0
41
1
10
58.058617282499
20
2.58385412104707
30
0
41
1
10
58.0649164923349
20
2.6607015407744
30
0
41
1
10
58.0704596441631
20
2.72832540571099
30
0
41
1
10
58.0704332237767
20
2.79812594595967
30
0
41
1
10
58.0704052545727
20
2.87201833819913
30
0
41
1
10
58.0641617130018
20
2.9359098750792
30
0
0
SPLINE
5
2BC
100
AcDbEntity
8
1
62
256
6
ByLayer
370
-1
48
1
60
0
100
AcDbSpline
70
4
71
5
72
12
73
6
40
0
40
0
40
0
40
0
40
0
40
0
40
1
40
1
40
1
40
1
40
1
40
1
41
1
10
57.1460504006567
20
1.09793149498097
30
-1E-16
41
1
10
57.0822950951476
20
1.10015191538582
30
-1E-16
41
1
10
57.0187765032772
20
1.10231691853605
30
-1E-16
41
1
10
56.9554946412374
20
1.10442690384622
30
-1E-16
41
1
10
56.8924479952238
20
1.10648194972299
30
-1E-16
41
1
10
56.8296414830902
20
1.10848140561049
30
-1E-16
0
SPLINE
5
2BD
100
AcDbEntity
8
1
62
256
6
ByLayer
370
-1
48
1
60
0
100
AcDbSpline
70
4
71
3
72
16
73
12
40
0
40
0
40
0
40
0
40
7.16507861654E-05
40
7.16507861654E-05
40
0.249712945778077
40
0.249712945778077
40
0.624679821504729
40
0.624679821504729
40
0.999928349213838
40
0.999928349213838
40
1
40
1
40
1
40
1
41
1
10
50.1556812027803
20
2.60989282094286
30
-5E-16
41
1
10
50.1556832727896
20
2.60990260537244
30
-5E-16
41
1
10
50.1556853427946
20
2.60991238980296
30
-5E-16
41
1
10
50.1602509064957
20
2.63149259179536
30
-5E-16
41
1
10
50.1650463301595
20
2.65379529550168
30
-5E-16
41
1
10
50.1776029404088
20
2.71134804299391
30
-5E-16
41
1
10
50.1856464589378
20
2.74748635320472
30
-5E-16
41
1
10
50.2027001471
20
2.82279112693951
30
-5E-16
41
1
10
50.211713262176
20
2.86196969909091
30
-5E-16
41
1
10
50.2211850737084
20
2.9025776445323
30
-5E-16
41
1
10
50.2211873454732
20
2.90258738409523
30
-5E-16
41
1
10
50.2211896172342
20
2.90259712365904
30
-5E-16
0
SPLINE
5
2BE
100
AcDbEntity
8
1
62
256
6
ByLayer
370
-1
48
1
60
0
100
AcDbSpline
70
4
71
3
72
10
73
6
40
0
40
0
40
0
40
0
40
0.999819095697569
40
0.999819095697569
40
1
40
1
40
1
40
1
41
1
10
59.702269132245
20
2.35761639272977
30
1E-16
41
1
10
59.6962311357867
20
2.40127352839451
30
1E-16
41
1
10
59.6897722838883
20
2.44662655741018
30
1E-16
41
1
10
59.6829142833866
20
2.49357531034781
30
1E-16
41
1
10
59.6829128378286
20
2.49358520632492
30
1E-16
41
1
10
59.6829113922753
20
2.49359510230272
30
1E-16
0
SPLINE
5
2BF
100
AcDbEntity
8
1
62
256
6
ByLayer
370
-1
48
1
60
0
100
AcDbSpline
70
4
71
3
72
12
73
8
40
0
40
0
40
0
40
0
40
0.256234765497259
40
0.256234765497259
40
0.512469530995071
40
0.512469530995071
40
1
40
1
40
1
40
1
41
1
10
49.9730973892652
20
0.313357333520827
30
-5E-16
41
1
10
49.9523341289257
20
0.317761036781917
30
-5E-16
41
1
10
49.9315708812147
20
0.322164798901156
30
-5E-16
41
1
10
49.890044416479
20
0.33097246316882
30
-5E-16
41
1
10
49.869281199151
20
0.335376364594481
30
-5E-16
41
1
10
49.8090124560453
20
0.348159656572591
30
-5E-16
41
1
10
49.7695069726334
20
0.356539242309736
30
-5E-16
41
1
10
49.7300015484097
20
0.364919100705663
30
-5E-16
0
SPLINE
5
2C0
100
AcDbEntity
8
1
62
256
6
ByLayer
370
-1
48
1
60
0
100
AcDbSpline
70
4
71
5
72
12
73
6
40
0
40
0
40
0
40
0
40
0
40
0
40
1
40
1
40
1
40
1
40
1
40
1
41
1
10
57.9242417668961
20
1.07076759841985
30
0
41
1
10
57.768603278398
20
1.07621271503965
30
0
41
1
10
57.6129648919934
20
1.08165166308211
30
0
41
1
10
57.4573266078532
20
1.08708444266003
30
0
41
1
10
57.3016884259411
20
1.09251105379636
30
0
41
1
10
57.1460503464383
20
1.09793149629499
30
-1E-16
0
SPLINE
5
2C1
100
AcDbEntity
8
1
62
256
6
ByLayer
370
-1
48
1
60
0
100
AcDbSpline
70
4
71
3
72
14
73
10
40
0
40
0
40
0
40
0
40
0.245608019549647
40
0.245608019549647
40
0.497072013033098
40
0.497072013033098
40
0.748536006516549
40
0.748536006516549
40
1
40
1
40
1
40
1
41
1
10
57.8963294147122
20
0.0690638986027636
30
0
41
1
10
57.9864569285293
20
0.0658997236082541
30
0
41
1
10
58.0580385984576
20
0.0631701920527235
30
0
41
1
10
58.2327139824884
20
0.0559488495179608
30
0
41
1
10
58.296824816202
20
0.0530618378418524
30
0
41
1
10
58.4407770565199
20
0.0459155141115275
30
0
41
1
10
58.4883773324682
20
0.0432620204432226
30
0
41
1
10
58.5822234678628
20
0.0371369570133879
30
0
41
1
10
58.6075738839481
20
0.0350338338561755
30
0
41
1
10
58.6239903967536
20
0.0328404269062617
30
0
0
SPLINE
5
2C2
100
AcDbEntity
8
1
62
256
6
ByLayer
370
-1
48
1
60
0
100
AcDbSpline
70
4
71
2
72
16
73
13
40
0
40
0
40
0
40
0.0714285714285714
40
0.0714285714285714
40
0.125
40
0.125
40
0.25
40
0.25
40
0.5
40
0.5
40
0.75
40
0.75
40
1
40
1
40
1
41
1
10
50.1668899538179
20
2.6523021872554
30
-5E-16
41
1
10
50.1657949965306
20
2.64712671878144
30
-5E-16
41
1
10
50.174730721442
20
2.67489077662836
30
-5E-16
41
1
10
50.1783661286524
20
2.68618629625189
30
-5E-16
41
1
10
50.1835266658399
20
2.7025259755595
30
-5E-16
41
1
10
50.1921902773057
20
2.72995735098695
30
-5E-16
41
1
10
50.2044709163905
20
2.76943892279655
30
-5E-16
41
1
10
50.2230629308972
20
2.82921121565224
30
-5E-16
41
1
10
50.2466194500249
20
2.90588312213956
30
-5E-16
41
1
10
50.2673486153438
20
2.97335253968245
30
-5E-16
41
1
10
50.2884757036571
20
3.04269754000291
30
-5E-16
41
1
10
50.3108413055702
20
3.11610768762185
30
-5E-16
41
1
10
50.3298884772188
20
3.17926184403274
30
-5E-16
0
SPLINE
5
2C3
100
AcDbEntity
8
1
62
256
6
ByLayer
370
-1
48
1
60
0
100
AcDbSpline
70
4
71
3
72
12
73
8
40
0
40
0
40
0
40
0
40
0.319903545078238
40
0.319903545078238
40
0.793516743526751
40
0.793516743526751
40
1
40
1
40
1
40
1
41
1
10
50.3002788456277
20
3.18521344991811
30
-5E-16
41
1
10
50.2915885144016
20
3.15550627494045
30
-5E-16
41
1
10
50.2830470879081
20
3.12617570206945
30
-5E-16
41
1
10
50.2627220542413
20
3.05583059544028
30
-5E-16
41
1
10
50.2508815193245
20
3.01444133767342
30
-5E-16
41
1
10
50.2378419034148
20
2.96668332101643
30
-5E-16
41
1
10
50.2343623563989
20
2.9535184250426
30
-5E-16
41
1
10
50.232394235292
20
2.94507617356112
30
-5E-16
0
SPLINE
5
2C4
100
AcDbEntity
8
1
62
256
6
ByLayer
370
-1
48
1
60
0
100
AcDbSpline
70
4
71
5
72
12
73
6
40
0
40
0
40
0
40
0
40
0
40
0
40
1
40
1
40
1
40
1
40
1
40
1
41
1
10
59.9104888465133
20
0.8745436146678
30
1E-16
41
1
10
59.9101667472596
20
0.875668222642645
30
1E-16
41
1
10
59.9071445294026
20
0.876882972735189
30
1E-16
41
1
10
59.9014450973042
20
0.87818706494653
30
1E-16
41
1
10
59.8930699141416
20
0.879580474624817
30
1E-16
41
1
10
59.8819915593363
20
0.881064073291213
30
1E-16
0
SPLINE
5
2C5
100
AcDbEntity
8
1
62
256
6
ByLayer
370
-1
48
1
60
0
100
AcDbSpline
70
4
71
3
72
12
73
8
40
0
40
0
40
0
40
0
40
0.256234765497261
40
0.256234765497261
40
0.51246953099505
40
0.51246953099505
40
1
40
1
40
1
40
1
41
1
10
57.8963294195123
20
0.0690638991379444
30
0
41
1
10
57.8959152375778
20
0.0731314213003316
30
0
41
1
10
57.8955010538761
20
0.077199002706152
30
0
41
1
10
57.8946726608592
20
0.0853343075967246
30
0
41
1
10
57.8942584565148
20
0.0894020300920317
30
0
41
1
10
57.8930561332633
20
0.101209507573827
30
0
41
1
10
57.8922679922835
20
0.10894945988079
30
0
41
1
10
57.8914798204693
20
0.116689687830103
30
0
0
SPLINE
5
2C6
100
AcDbEntity
8
1
62
256
6
ByLayer
370
-1
48
1
60
0
100
AcDbSpline
70
4
71
2
72
6
73
3
40
0
40
0
40
0
40
1
40
1
40
1
41
1
10
57.1105309688239
20
0.10085738406724
30
-1E-16
41
1
10
56.9406928953248
20
0.106771568391679
30
-1E-16
41
1
10
56.7734264354172
20
0.112097341272658
30
-1E-16
0
SPLINE
5
2C7
100
AcDbEntity
8
1
62
256
6
ByLayer
370
-1
48
1
60
0
100
AcDbSpline
70
4
71
3
72
28
73
24
40
0
40
0
40
0
40
0
40
5.90385901854E-05
40
5.90385901854E-05
40
0.154146260789392
40
0.154146260789392
40
0.489794994350264
40
0.489794994350264
40
0.589296251629372
40
0.589296251629372
40
0.829545578822842
40
0.829545578822842
40
0.905423872995074
40
0.905423872995074
40
0.938427982513169
40
0.938427982513169
40
0.961295188463233
40
0.961295188463233
40
0.980714928422773
40
0.980714928422773
40
0.999940961411302
40
0.999940961411302
40
1
40
1
40
1
40
1
41
1
10
58.5298911947056
20
2.87019412422586
30
0
41
1
10
58.5298888600403
20
2.87018439954906
30
0
41
1
10
58.529886525369
20
2.87017467487371
30
0
41
1
10
58.5247872296002
20
2.84894526561291
30
0
41
1
10
58.5142191477957
20
2.82496247851103
30
0
41
1
10
58.4685072984473
20
2.74243777745499
30
0
41
1
10
58.4192813246532
20
2.67348636202624
30
0
41
1
10
58.342993404528
20
2.58203500230212
30
0
41
1
10
58.3243033475817
20
2.56070354565446
30
0
41
1
10
58.2569412889554
20
2.48929785889925
30
0
41
1
10
58.2020337630383
20
2.43790161636943
30
0
41
1
10
58.1126782715244
20
2.39097388881146
30
0
41
1
10
58.0892944167183
20
2.38128680966901
30
0
41
1
10
58.0540479526827
20
2.37201229576775
30
0
41
1
10
58.0430487356593
20
2.36979478214755
30
0
41
1
10
58.0242017215041
20
2.36726681201301
30
0
41
1
10
58.016398058275
20
2.3665763671855
30
0
41
1
10
58.0019246948068
20
2.36598159554131
30
0
41
1
10
57.9952463867079
20
2.36597375374964
30
0
41
1
10
57.9819808399224
20
2.36649351513577
30
0
41
1
10
57.9753796688009
20
2.36701630083076
30
0
41
1
10
57.9687981828815
20
2.36779853007829
30
0
41
1
10
57.9687783248696
20
2.36780089522404
30
0
41
1
10
57.9687584665327
20
2.36780325764642
30
0
0
SPLINE
5
2C8
100
AcDbEntity
8
1
62
256
6
ByLayer
370
-1
48
1
60
0
100
AcDbSpline
70
4
71
2
72
6
73
3
40
0
40
0
40
0
40
1
40
1
40
1
41
1
10
52.1318790142753
20
0.09524285532828
30
-4E-16
41
1
10
52.2676040058894
20
0.090502702277206
30
-4E-16
41
1
10
52.403328777461
20
0.0857700377550827
30
-3E-16
0
SPLINE
5
2C9
100
AcDbEntity
8
1
62
256
6
ByLayer
370
-1
48
1
60
0
100
AcDbSpline
70
4
71
2
72
6
73
3
40
0
40
0
40
0
40
1
40
1
40
1
41
1
10
49.7236003195834
20
0.308346202227227
30
-5E-16
41
1
10
49.7245044339851
20
0.305348744838057
30
-5E-16
41
1
10
49.7539615533761
20
0.301399254607901
30
-5E-16
0
SPLINE
5
2CA
100
AcDbEntity
8
1
62
256
6
ByLayer
370
-1
48
1
60
0
100
AcDbSpline
70
4
71
2
72
6
73
3
40
0
40
0
40
0
40
1
40
1
40
1
41
1
10
59.9982975484322
20
-0.128968586415624
30
1E-16
41
1
10
59.9973934340306
20
-0.125971129026482
30
1E-16
41
1
10
59.9679363146396
20
-0.122021638796298
30
1E-16
0
SPLINE
5
2CB
100
AcDbEntity
8
1
62
256
6
ByLayer
370
-1
48
1
60
0
100
AcDbSpline
70
4
71
3
72
8
73
4
40
0
40
0
40
0
40
0
40
1
40
1
40
1
40
1
41
1
10
57.8913207639232
20
0.116691991240032
30
0
41
1
10
57.8033287253618
20
0.107248007557416
30
0
41
1
10
57.7153362516522
20
0.0977786581380826
30
0
41
1
10
57.6273439400828
20
0.0882840127699751
30
0
0
SPLINE
5
2CC
100
AcDbEntity
8
1
62
256
6
ByLayer
370
-1
48
1
60
0
100
AcDbSpline
70
4
71
3
72
12
73
8
40
0
40
0
40
0
40
0
40
0.375360243573872
40
0.375360243573872
40
0.75031884698283
40
0.75031884698283
40
1
40
1
40
1
40
1
41
1
10
57.2250659151234
20
2.74370166251183
30
0
41
1
10
57.3183425603056
20
2.69798233984835
30
0
41
1
10
57.4123571687927
20
2.65365425178402
30
0
41
1
10
57.601674962423
20
2.56801240465194
30
0
41
1
10
57.6970018419669
20
2.52668418046039
30
0
41
1
10
57.8569219068488
20
2.46043758799198
30
0
41
1
10
57.9211537570771
20
2.43464519577748
30
0
41
1
10
57.9856734667512
20
2.40956914161416
30
0
0
SPLINE
5
2CD
100
AcDbEntity
8
1
62
256
6
ByLayer
370
-1
48
1
60
0
100
AcDbSpline
70
4
71
2
72
6
73
3
40
0
40
0
40
0
40
1
40
1
40
1
41
1
10
49.7225173403821
20
0.31675733318292
30
-5E-16
41
1
10
49.7223905205968
20
0.312575095998909
30
-5E-16
41
1
10
49.7236003198628
20
0.308346202147618
30
-5E-16
0
SPLINE
5
2CE
100
AcDbEntity
8
1
62
256
6
ByLayer
370
-1
48
1
60
0
100
AcDbSpline
70
4
71
3
72
12
73
8
40
0
40
0
40
0
40
0
40
0.319903545078307
40
0.319903545078307
40
0.79351674352663
40
0.79351674352663
40
1
40
1
40
1
40
1
41
1
10
57.0555970656433
20
2.99419928685416
30
-1E-16
41
1
10
57.0671773943789
20
2.96369705237305
30
-1E-16
41
1
10
57.0798542100159
20
2.93351702851683
30
-1E-16
41
1
10
57.1154038416155
20
2.8608677860571
30
-1E-16
41
1
10
57.1401139374052
20
2.81792611760707
30
-1E-16
41
1
10
57.188618435817
20
2.76734012673202
30
-1E-16
41
1
10
57.2056780111958
20
2.75320438893706
30
0
41
1
10
57.2250658286238
20
2.74370149592841
30
0
0
SPLINE
5
2CF
100
AcDbEntity
8
1
62
256
6
ByLayer
370
-1
48
1
60
0
100
AcDbSpline
70
4
71
3
72
16
73
12
40
0
40
0
40
0
40
0
40
0.242357006778996
40
0.242357006778996
40
0.484784571203344
40
0.484784571203344
40
0.727217194262379
40
0.727217194262379
40
0.969649409280338
40
0.969649409280338
40
1
40
1
40
1
40
1
41
1
10
57.8914777234875
20
0.116689603504142
30
0
41
1
10
58.0027070675816
20
0.112807707532369
30
0
41
1
10
58.1153895888169
20
0.10851251107087
30
0
41
1
10
58.3250382110321
20
0.099906760312507
30
0
41
1
10
58.4248902985524
20
0.0954304142618128
30
0
41
1
10
58.5980882438483
20
0.0869539442747964
30
0
41
1
10
58.6738241007797
20
0.08280353289544
30
0
41
1
10
58.7910108808563
20
0.0754148642331529
30
0
41
1
10
58.8340752655483
20
0.0720720466209173
30
0
41
1
10
58.8610996701851
20
0.068978333556089
30
1E-16
41
1
10
58.8638508664781
20
0.0686387855398891
30
1E-16
41
1
10
58.86630491305
20
0.0683088403855834
30
1E-16
0
SPLINE
5
2D0
100
AcDbEntity
8
1
62
256
6
ByLayer
370
-1
48
1
60
0
100
AcDbSpline
70
4
71
3
72
8
73
4
40
0
40
0
40
0
40
0
40
1
40
1
40
1
40
1
41
1
10
49.730001214928
20
0.364913082757568
30
-5E-16
41
1
10
49.7276721700899
20
0.350916145310521
30
-5E-16
41
1
10
49.725473390026
20
0.336891574034695
30
-5E-16
41
1
10
49.7234048613079
20
0.32283947012732
30
-5E-16
0
SPLINE
5
2D1
100
AcDbEntity
8
1
62
256
6
ByLayer
370
-1
48
1
60
0
100
AcDbSpline
70
4
71
1
72
4
73
2
40
0
40
0
40
1
40
1
41
1
10
49.7225356576762
20
0.317223976537605
30
-5E-16
41
1
10
49.7232164554928
20
0.316732916805449
30
-5E-16
0
SPLINE
5
2D2
100
AcDbEntity
8
1
62
256
6
ByLayer
370
-1
48
1
60
0
100
AcDbSpline
70
4
71
3
72
12
73
8
40
0
40
0
40
0
40
0
40
0.319903545078824
40
0.319903545078824
40
0.793516743526709
40
0.793516743526709
40
1
40
1
40
1
40
1
41
1
10
59.6239246337433
20
2.78655654941784
30
1E-16
41
1
10
59.6305058186419
20
2.7558748748618
30
1E-16
41
1
10
59.6369634154906
20
2.72554146272819
30
1E-16
41
1
10
59.6522848045004
20
2.65262275671591
30
1E-16
41
1
10
59.6611769864974
20
2.60959509256935
30
1E-16
41
1
10
59.6707917186463
20
2.55929220781425
30
1E-16
41
1
10
59.6733229508993
20
2.54530505806275
30
1E-16
41
1
10
59.6746732889562
20
2.53605901207533
30
1E-16
0
SPLINE
5
2D3
100
AcDbEntity
8
1
62
256
6
ByLayer
370
-1
48
1
60
0
100
AcDbSpline
70
4
71
3
72
16
73
12
40
0
40
0
40
0
40
0
40
0.0001612263823321
40
0.0001612263823321
40
0.229290574978028
40
0.229290574978028
40
0.700369669956849
40
0.700369669956849
40
0.999838773613822
40
0.999838773613822
40
1
40
1
40
1
40
1
41
1
10
59.6829125500872
20
2.49358738292631
30
1E-16
41
1
10
59.6829110820953
20
2.49359727560039
30
1E-16
41
1
10
59.6829096140953
20
2.49360716827329
30
1E-16
41
1
10
59.6815806201257
20
2.50255909627791
30
1E-16
41
1
10
59.6788757408255
20
2.51636383795108
30
1E-16
41
1
10
59.6683479486872
20
2.56570330810686
30
1E-16
41
1
10
59.6581169383471
20
2.60924307915838
30
1E-16
41
1
10
59.6400156883752
20
2.6839971478243
30
1E-16
41
1
10
59.632487226745
20
2.71453673165186
30
1E-16
41
1
10
59.6246964769354
20
2.74576708827035
30
1E-16
41
1
10
59.6246922879237
20
2.74578388048192
30
1E-16
41
1
10
59.6246880989176
20
2.74580067245839
30
1E-16
0
SPLINE
5
2D4
100
AcDbEntity
8
1
62
256
6
ByLayer
370
-1
48
1
60
0
100
AcDbSpline
70
4
71
3
72
8
73
4
40
0
40
0
40
0
40
0
40
1
40
1
40
1
40
1
41
1
10
49.7234048613079
20
0.322839470127292
30
-5E-16
41
1
10
49.7231140747279
20
0.320964702759994
30
-5E-16
41
1
10
49.722824002392
20
0.319093109597247
30
-5E-16
41
1
10
49.7225346472532
20
0.317224705356153
30
-5E-16
0
SPLINE
5
2D5
100
AcDbEntity
8
1
62
256
6
ByLayer
370
-1
48
1
60
0
100
AcDbSpline
70
4
71
1
72
4
73
2
40
0
40
0
40
1
40
1
41
1
10
57.6167772412919
20
0.0832001594411622
30
0
41
1
10
57.5900184839222
20
0.0841225647174326
30
0
0
SPLINE
5
2D6
100
AcDbEntity
8
1
62
256
6
ByLayer
370
-1
48
1
60
0
100
AcDbSpline
70
4
71
3
72
16
73
12
40
0
40
0
40
0
40
0
40
7.1650786168E-05
40
7.1650786168E-05
40
0.249712945778067
40
0.249712945778067
40
0.624679821504696
40
0.624679821504696
40
0.999928349213832
40
0.999928349213832
40
1
40
1
40
1
40
1
41
1
10
57.9687584389667
20
2.36780351477074
30
0
41
1
10
57.9687398185271
20
2.3678107134663
30
0
41
1
10
57.9687211980635
20
2.36781791210294
30
0
41
1
10
57.9038264620869
20
2.39290657170324
30
0
41
1
10
57.8392368841076
20
2.4187048401381
30
0
41
1
10
57.6784010508927
20
2.4849751900411
30
0
41
1
10
57.5825148010444
20
2.52632269599428
30
0
41
1
10
57.3921032080422
20
2.61199515311694
30
0
41
1
10
57.2975537743297
20
2.65633354154599
30
0
41
1
10
57.2037217621373
20
2.70207447640965
30
0
41
1
10
57.2037038479026
20
2.70208320931235
30
0
41
1
10
57.2036859336415
20
2.702091942164
30
0
0
SPLINE
5
2D7
100
AcDbEntity
8
1
62
256
6
ByLayer
370
-1
48
1
60
0
100
AcDbSpline
70
4
71
1
72
4
73
2
40
0
40
0
40
1
40
1
41
1
10
52.1051206267238
20
0.096177456370441
30
-4E-16
41
1
10
52.1318793840935
20
0.0952550510941705
30
-4E-16
0
SPLINE
5
2D8
100
AcDbEntity
8
1
62
256
6
ByLayer
370
-1
48
1
60
0
100
AcDbSpline
70
4
71
3
72
16
73
12
40
0
40
0
40
0
40
0
40
0.0001612263823322
40
0.0001612263823322
40
0.229290574978034
40
0.229290574978034
40
0.700369669957305
40
0.700369669957305
40
0.999838773613815
40
0.999838773613815
40
1
40
1
40
1
40
1
41
1
10
57.2036859585563
20
2.70209172525608
30
0
41
1
10
57.2036671090219
20
2.70209829161172
30
0
41
1
10
57.2036482586311
20
2.70210485562262
30
-1E-16
41
1
10
57.176842308005
20
2.71144651359305
30
-1E-16
41
1
10
57.1516402015559
20
2.72553325731869
30
-1E-16
41
1
10
57.0822863741784
20
2.77547353504474
30
-1E-16
41
1
10
57.0436662518111
20
2.81909967716729
30
-1E-16
41
1
10
56.9888363097293
20
2.89377345855516
30
-1E-16
41
1
10
56.9693472345379
20
2.92422239348184
30
-1E-16
41
1
10
56.951240873912
20
2.95532337190471
30
-1E-16
41
1
10
56.9512311393852
20
2.95534009453186
30
-1E-16
41
1
10
56.9512214044583
20
2.9553568169315
30
-1E-16
0
SPLINE
5
2D9
100
AcDbEntity
8
1
62
256
6
ByLayer
370
-1
48
1
60
0
100
AcDbSpline
70
4
71
3
72
14
73
10
40
0
40
0
40
0
40
0
40
0.245608019549642
40
0.245608019549642
40
0.497072013033095
40
0.497072013033095
40
0.748536006516547
40
0.748536006516547
40
1
40
1
40
1
40
1
41
1
10
51.8255684533036
20
0.11031371720884
30
-4E-16
41
1
10
51.7354409394864
20
0.113477892203349
30
-4E-16
41
1
10
51.6638592695581
20
0.11620742375888
30
-4E-16
41
1
10
51.4891838855273
20
0.123428766293642
30
-4E-16
41
1
10
51.4250730518137
20
0.126315777969751
30
-4E-16
41
1
10
51.2811208114958
20
0.133462101700076
30
-4E-16
41
1
10
51.2335205355474
20
0.136115595368381
30
-4E-16
41
1
10
51.1396744001528
20
0.142240658798215
30
-4E-16
41
1
10
51.1143239840676
20
0.144343781955428
30
-4E-16
41
1
10
51.097907471262
20
0.146537188905342
30
-4E-16
0
SPLINE
5
2DA
100
AcDbEntity
8
1
62
256
6
ByLayer
370
-1
48
1
60
0
100
AcDbSpline
70
4
71
3
72
16
73
12
40
0
40
0
40
0
40
0
40
0.242357006778981
40
0.242357006778981
40
0.484784571203322
40
0.484784571203322
40
0.727217194262361
40
0.727217194262361
40
0.969649409280316
40
0.969649409280316
40
1
40
1
40
1
40
1
41
1
10
49.7300023463346
20
0.364918892792133
30
-5E-16
41
1
10
49.7304686891799
20
0.366854871678583
30
-5E-16
41
1
10
49.7501296304661
20
0.368118706695043
30
-5E-16
41
1
10
49.8246345725502
20
0.369193726148211
30
-5E-16
41
1
10
49.8805066393797
20
0.368972397553733
30
-5E-16
41
1
10
50.0202271625735
20
0.367129302877629
30
-5E-16
41
1
10
50.1059995160716
20
0.365448897754021
30
-5E-16
41
1
10
50.2951752526266
20
0.360896716494551
30
-5E-16
41
1
10
50.4011867685584
20
0.357959375785242
30
-5E-16
41
1
10
50.5236317020747
20
0.354144216095023
30
-5E-16
41
1
10
50.5374945484496
20
0.353706833277897
30
-5E-16
41
1
10
50.5514065597667
20
0.353262630915765
30
-5E-16
0
SPLINE
5
2DB
100
AcDbEntity
8
1
62
256
6
ByLayer
370
-1
48
1
60
0
100
AcDbSpline
70
4
71
3
72
12
73
8
40
0
40
0
40
0
40
0
40
0.375360243573859
40
0.375360243573859
40
0.750318846982832
40
0.750318846982832
40
1
40
1
40
1
40
1
41
1
10
50.2323942897688
20
2.94507634351686
30
-5E-16
41
1
10
50.2229254723021
20
2.90445986871742
30
-5E-16
41
1
10
50.2139123509107
20
2.86526359389606
30
-5E-16
41
1
10
50.1968589054724
20
2.7899321435753
30
-5E-16
41
1
10
50.1888153130317
20
2.75378381774573
30
-5E-16
41
1
10
50.176255376915
20
2.69620692924107
30
-5E-16
41
1
10
50.1714575405302
20
2.67389141472611
30
-5E-16
41
1
10
50.1668900235032
20
2.6523024069287
30
-5E-16
0
SPLINE
5
2DC
100
AcDbEntity
8
1
62
256
6
ByLayer
370
-1
48
1
60
0
100
AcDbSpline
70
4
71
5
72
12
73
6
40
0
40
0
40
0
40
0
40
0
40
0
40
1
40
1
40
1
40
1
40
1
40
1
41
1
10
50.6051950822816
20
1.30663770469212
30
-5E-16
41
1
10
50.365004571495
20
1.31428421004009
30
-5E-16
41
1
10
50.138877352079
20
1.31997947402408
30
-5E-16
41
1
10
49.9676240266192
20
1.32240706931532
30
-5E-16
41
1
10
49.8817879035817
20
1.32114153604067
30
-5E-16
41
1
10
49.8808067977386
20
1.31691483112411
30
-5E-16
0
SPLINE
5
2DD
100
AcDbEntity
8
1
62
256
6
ByLayer
370
-1
48
1
60
0
100
AcDbSpline
70
4
71
3
72
8
73
4
40
0
40
0
40
0
40
0
40
1
40
1
40
1
40
1
41
1
10
57.6273439400828
20
0.0882840127699751
30
0
41
1
10
57.6238365805962
20
0.0865856574729094
30
0
41
1
10
57.6203275843407
20
0.0848905785121303
30
0
41
1
10
57.6168169559692
20
0.0831987904303446
30
0
0
SPLINE
5
2DE
100
AcDbEntity
8
1
62
256
6
ByLayer
370
-1
48
1
60
0
100
AcDbSpline
70
4
71
3
72
18
73
14
40
0
40
0
40
0
40
0
40
0.209690342812413
40
0.209690342812413
40
0.384309233582015
40
0.384309233582015
40
0.560642491774536
40
0.560642491774536
40
0.713704078842846
40
0.713704078842846
40
0.916067950438799
40
0.916067950438799
40
1
40
1
40
1
40
1
41
1
10
53.5800870969125
20
16.5862214333664
30
0
41
1
10
53.6510828843028
20
16.5795323089217
30
0
41
1
10
53.7252599177125
20
16.5835211558963
30
0
41
1
10
53.8589043092278
20
16.6133218528183
30
0
41
1
10
53.9202299885743
20
16.6358730145244
30
0
41
1
10
54.0347044611368
20
16.6985797398929
30
0
41
1
10
54.0893674750158
20
16.7400151418877
30
0
41
1
10
54.1752844251824
20
16.8284465874532
30
0
41
1
10
54.2097676855651
20
16.8749792395025
30
0
41
1
10
54.2729497275033
20
16.986768770727
30
0
41
1
10
54.2975256268224
20
17.0550350383166
30
0
41
1
10
54.3167438049221
20
17.1512602685445
30
0
41
1
10
54.3205645978793
20
17.1798378496285
30
0
41
1
10
54.3225971045957
20
17.2083099821375
30
0
0
SPLINE
5
2DF
100
AcDbEntity
8
1
62
256
6
ByLayer
370
-1
48
1
60
0
100
AcDbSpline
70
4
71
3
72
18
73
14
40
0
40
0
40
0
40
0
40
0.0058000558530413
40
0.0058000558530413
40
0.230116966209827
40
0.230116966209827
40
0.453900777556703
40
0.453900777556703
40
0.689434898340228
40
0.689434898340228
40
0.946525602695274
40
0.946525602695274
40
1
40
1
40
1
40
1
41
1
10
56.1302029369473
20
16.9029515095107
30
0
41
1
10
56.129699487838
20
16.9035480013161
30
0
41
1
10
56.1291936924233
20
16.9041424505492
30
0
41
1
10
56.1093004961285
20
16.9273345207672
30
0
41
1
10
56.0861655805517
20
16.9471214656748
30
0
41
1
10
56.0364447864757
20
16.9779929953604
30
0
41
1
10
56.009240418647
20
16.9895116208708
30
0
41
1
10
55.9529765694125
20
17.0040397473948
30
0
41
1
10
55.9231959684718
20
17.0067825363906
30
0
41
1
10
55.8634009477334
20
17.0032873161525
30
0
41
1
10
55.8328627998601
20
16.9961959800238
30
0
41
1
10
55.7990821917207
20
16.9824661357751
30
0
41
1
10
55.7933109708834
20
16.9798902063047
30
0
41
1
10
55.7876499475647
20
16.97713383665
30
0
0
SPLINE
5
2E0
100
AcDbEntity
8
1
62
256
6
ByLayer
370
-1
48
1
60
0
100
AcDbSpline
70
4
71
3
72
12
73
8
40
0
40
0
40
0
40
0
40
0.29296208686985
40
0.29296208686985
40
0.753880432032534
40
0.753880432032534
40
1
40
1
40
1
40
1
41
1
10
53.6602034829025
20
15.6884800230786
30
0
41
1
10
53.6462052281778
20
15.7338582030212
30
0
41
1
10
53.6273139102382
20
15.7777088402798
30
0
41
1
10
53.5695720183129
20
15.8816407131269
30
0
41
1
10
53.5246411630489
20
15.9383709097632
30
0
41
1
10
53.4475555171333
20
16.011300500425
30
0
41
1
10
53.4187855844423
20
16.0344651924431
30
0
41
1
10
53.3887712618662
20
16.0550844655996
30
0
0
SPLINE
5
2E1
100
AcDbEntity
8
1
62
256
6
ByLayer
370
-1
48
1
60
0
100
AcDbSpline
70
4
71
3
72
18
73
14
40
0
40
0
40
0
40
0
40
0.210891017482306
40
0.210891017482306
40
0.385261967629665
40
0.385261967629665
40
0.561332491745858
40
0.561332491745858
40
0.714323010919427
40
0.714323010919427
40
0.91687078148363
40
0.91687078148363
40
1
40
1
40
1
40
1
41
1
10
54.8773644329042
20
17.306547470376
30
0
41
1
10
54.9085774070056
20
17.2421740563253
30
0
41
1
10
54.9506837511932
20
17.1803999449883
30
0
41
1
10
55.0456330135374
20
17.080755477373
30
0
41
1
10
55.0965400875393
20
17.0395851081799
30
0
41
1
10
55.2088881765127
20
16.9728337466313
30
0
41
1
10
55.2721841924777
20
16.946587056754
30
0
41
1
10
55.3912959220246
20
16.9166933431
30
0
41
1
10
55.4484094603069
20
16.9100914186598
30
0
41
1
10
55.5755342719115
20
16.9110051994551
30
0
41
1
10
55.645945864718
20
16.9235505211847
30
0
41
1
10
55.7369458357207
20
16.9543740391624
30
0
41
1
10
55.7627869489151
20
16.9650279661829
30
0
41
1
10
55.7876499475649
20
16.9771338366496
30
0
0
SPLINE
5
2E2
100
AcDbEntity
8
1
62
256
6
ByLayer
370
-1
48
1
60
0
100
AcDbSpline
70
4
71
3
72
16
73
12
40
0
40
0
40
0
40
0
40
0.0450329653892147
40
0.0450329653892147
40
0.268160035461333
40
0.268160035461333
40
0.493056012948369
40
0.493056012948369
40
0.731570212688492
40
0.731570212688492
40
1
40
1
40
1
40
1
41
1
10
55.1408292181783
20
14.1704622276391
30
0
41
1
10
55.146771996416
20
14.1715145672009
30
0
41
1
10
55.1526888341279
20
14.1727506229552
30
0
41
1
10
55.187394593837
20
14.1811175871291
30
0
41
1
10
55.2155266822695
20
14.1926347232357
30
0
41
1
10
55.2661825587782
20
14.2227225479287
30
0
41
1
10
55.2893177825686
20
14.2417127892485
30
0
41
1
10
55.3292489174943
20
14.2853836173332
30
0
41
1
10
55.3460996786036
20
14.3108654680779
30
0
41
1
10
55.3724548424308
20
14.3670553987635
30
0
41
1
10
55.3811639795543
20
14.3987445515524
30
0
41
1
10
55.3845805309328
20
14.4299820349951
30
0
0
SPLINE
5
2E3
100
AcDbEntity
8
1
62
256
6
ByLayer
370
-1
48
1
60
0
100
AcDbSpline
70
4
71
3
72
16
73
12
40
0
40
0
40
0
40
0
40
0.0526800912995708
40
0.0526800912995708
40
0.275698614727241
40
0.275698614727241
40
0.500926140781848
40
0.500926140781848
40
0.740131899731601
40
0.740131899731601
40
1
40
1
40
1
40
1
41
1
10
53.5693705291625
20
14.7391408550173
30
0
41
1
10
53.5739187932061
20
14.7337520238909
30
0
41
1
10
53.5786706902594
20
14.7285221072159
30
0
41
1
10
53.6043224718149
20
14.7022784121074
30
0
41
1
10
53.6286594232504
20
14.6840742612391
30
0
41
1
10
53.6806819353183
20
14.656136122365
30
0
41
1
10
53.7090500406782
20
14.6461114618919
30
0
41
1
10
53.7675886079821
20
14.6344949373295
30
0
41
1
10
53.7984886247254
20
14.6332885379534
30
0
41
1
10
53.8600340063325
20
14.6398547499332
30
0
41
1
10
53.891191239082
20
14.6484564882487
30
0
41
1
10
53.9195276879643
20
14.6611581804848
30
0
0
SPLINE
5
2E4
100
AcDbEntity
8
1
62
256
6
ByLayer
370
-1
48
1
60
0
100
AcDbSpline
70
4
71
3
72
18
73
14
40
0
40
0
40
0
40
0
40
0.17697061580358
40
0.17697061580358
40
0.357621063606846
40
0.357621063606846
40
0.540361697874392
40
0.540361697874392
40
0.695004620473806
40
0.695004620473806
40
0.8919213242348
40
0.8919213242348
40
1
40
1
40
1
40
1
41
1
10
56.1270905386162
20
15.0520705837682
30
0
41
1
10
56.0692954235495
20
15.0566480484086
30
0
41
1
10
56.009279748976
20
15.0536944586918
30
0
41
1
10
55.8882505341874
20
15.0307242646209
30
0
41
1
10
55.8258114301568
20
15.0099035695586
30
0
41
1
10
55.7071218413588
20
14.9496952380652
30
0
41
1
10
55.6491679617092
20
14.9089324771355
30
0
41
1
10
55.5573518028638
20
14.8215587505598
30
0
41
1
10
55.5200084182876
20
14.7758030807206
30
0
41
1
10
55.4513199509538
20
14.6677745175032
30
0
41
1
10
55.4230563261843
20
14.6027039767448
30
0
41
1
10
55.3953591990571
20
14.5020895359402
30
0
41
1
10
55.3885115668867
20
14.4659234440136
30
0
41
1
10
55.3845805309327
20
14.4299820349951
30
0
0
SPLINE
5
2E5
100
AcDbEntity
8
1
62
256
6
ByLayer
370
-1
48
1
60
0
100
AcDbSpline
70
4
71
3
72
18
73
14
40
0
40
0
40
0
40
0
40
0.193508507705619
40
0.193508507705619
40
0.371055306806381
40
0.371055306806381
40
0.550504457754863
40
0.550504457754863
40
0.704261574846561
40
0.704261574846561
40
0.90385768238859
40
0.90385768238859
40
1
40
1
40
1
40
1
41
1
10
54.8298132026249
20
14.3317445467588
30
0
41
1
10
54.8035171048309
20
14.3896330231672
30
0
41
1
10
54.7679982560096
20
14.4453185251587
30
0
41
1
10
54.683118067022
20
14.5414121353313
30
0
41
1
10
54.6340105181435
20
14.5837132870844
30
0
41
1
10
54.5232276769468
20
14.6532805953388
30
0
41
1
10
54.4595948084644
20
14.6812696493045
30
0
41
1
10
54.3387313483084
20
14.7141328094616
30
0
41
1
10
54.2804649901023
20
14.7222078791053
30
0
41
1
10
54.1511494662526
20
14.7246854911842
30
0
41
1
10
54.0792737980289
20
14.7145728307702
30
0
41
1
10
53.9807587340639
20
14.686101257502
30
0
41
1
10
53.9494992178418
20
14.6745927907964
30
0
41
1
10
53.9195276879643
20
14.6611581804848
30
0
0
SPLINE
5
2E6
100
AcDbEntity
8
1
62
256
6
ByLayer
370
-1
48
1
60
0
100
AcDbSpline
70
4
71
3
72
12
73
8
40
0
40
0
40
0
40
0
40
0.319480738744353
40
0.319480738744353
40
0.787898433354037
40
0.787898433354037
40
1
40
1
40
1
40
1
41
1
10
56.0583102629941
20
15.9441465288203
30
0
41
1
10
56.0731867137034
20
15.8948395651957
30
0
41
1
10
56.0935409236832
20
15.847522108974
30
0
41
1
10
56.1532174355912
20
15.7415782890348
30
0
41
1
10
56.1978327143502
20
15.6860840664233
30
0
41
1
10
56.2699731457323
20
15.6194357457315
30
0
41
1
10
56.2937998842721
20
15.6003439752093
30
0
41
1
10
56.318527765884
20
15.5831468831583
30
0
0
SPLINE
5
2E7
100
AcDbEntity
8
1
62
256
6
ByLayer
370
-1
48
1
60
0
100
AcDbSpline
70
4
71
3
72
16
73
12
40
0
40
0
40
0
40
0
40
0.168600372490314
40
0.168600372490314
40
0.469157707272399
40
0.469157707272399
40
0.740689655512338
40
0.740689655512338
40
0.981796429833045
40
0.981796429833045
40
1
40
1
40
1
40
1
41
1
10
53.5800870969132
20
16.5862214333704
30
0
41
1
10
53.5598651662228
20
16.5881267155832
30
0
41
1
10
53.5391846347077
20
16.587998858758
30
0
41
1
10
53.482147852254
20
16.5816346329211
30
0
41
1
10
53.4450686603295
20
16.5704498349607
30
0
41
1
10
53.3810490267554
20
16.5360416449118
30
0
41
1
10
53.352520539262
20
16.5134885228044
30
0
41
1
10
53.3085340109752
20
16.4625791148532
30
0
41
1
10
53.2913639833895
20
16.4343989783333
30
0
41
1
10
53.2786443008886
20
16.4022986097556
30
0
41
1
10
53.2777685340891
20
16.4000027830708
30
0
41
1
10
53.2769224629382
20
16.3976962561859
30
0
0
SPLINE
5
2E8
100
AcDbEntity
8
1
62
256
6
ByLayer
370
-1
48
1
60
0
100
AcDbSpline
70
4
71
3
72
14
73
10
40
0
40
0
40
0
40
0
40
0.276278928109079
40
0.276278928109079
40
0.561748923409854
40
0.561748923409854
40
0.81997117553572
40
0.81997117553572
40
1
40
1
40
1
40
1
41
1
10
53.5581751668719
20
15.0943471789639
30
0
41
1
10
53.5385659598702
20
15.0678045548813
30
0
41
1
10
53.5230488392818
20
15.0371487171192
30
0
41
1
10
53.5034597180216
20
14.9707776603948
30
0
41
1
10
53.4995455706676
20
14.9338707456376
30
0
41
1
10
53.5059772778234
20
14.8643720314753
30
0
41
1
10
53.5151575132243
20
14.8306578837574
30
0
41
1
10
53.5404186568349
20
14.7782495441333
30
0
41
1
10
53.5537645119518
20
14.7576310285209
30
0
41
1
10
53.5693705291625
20
14.7391408550173
30
0
0
SPLINE
5
2E9
100
AcDbEntity
8
1
62
256
6
ByLayer
370
-1
48
1
60
0
100
AcDbSpline
70
4
71
3
72
16
73
12
40
0
40
0
40
0
40
0
40
0.0555345294773482
40
0.0555345294773482
40
0.276343489079398
40
0.276343489079398
40
0.499532881966257
40
0.499532881966257
40
0.736722372963946
40
0.736722372963946
40
1
40
1
40
1
40
1
41
1
10
56.4226510031717
20
15.2443961083422
30
0
41
1
10
56.4252366273832
20
15.2514449383984
30
0
41
1
10
56.4275571591595
20
15.2585975833158
30
0
41
1
10
56.4376651651253
20
15.2943001370781
30
0
41
1
10
56.441417799434
20
15.3242936959798
30
0
41
1
10
56.4400735122497
20
15.382752686796
30
0
41
1
10
56.4348867517253
20
15.4119436365848
30
0
41
1
10
56.4164380719706
20
15.4674884114089
30
0
41
1
10
56.4024887767849
20
15.4942555539934
30
0
41
1
10
56.3666783742815
20
15.5434055849289
30
0
41
1
10
56.3436916930402
20
15.5656465417034
30
0
41
1
10
56.3185277658841
20
15.5831468831585
30
0
0
SPLINE
5
2EA
100
AcDbEntity
8
1
62
256
6
ByLayer
370
-1
48
1
60
0
100
AcDbSpline
70
4
71
3
72
16
73
12
40
0
40
0
40
0
40
0
40
0.109813547251736
40
0.109813547251736
40
0.332075192646918
40
0.332075192646918
40
0.559754288055765
40
0.559754288055765
40
0.803999141239399
40
0.803999141239399
40
1
40
1
40
1
40
1
41
1
10
54.5587442479315
20
17.471630136889
30
0
41
1
10
54.5443327279165
20
17.4690781633756
30
0
41
1
10
54.5300832304732
20
17.4654149630279
30
0
41
1
10
54.4884390310815
20
17.4512553181384
30
0
41
1
10
54.4619358743869
20
17.4373226437095
30
0
41
1
10
54.4149692624471
20
17.4027300222765
30
0
41
1
10
54.3940585726008
20
17.3814973618252
30
0
41
1
10
54.3591383727758
20
17.3335399350957
30
0
41
1
10
54.3452780229127
20
17.3059478628598
30
0
41
1
10
54.3287486659516
20
17.2550335660166
30
0
41
1
10
54.3242590802364
20
17.2315915734372
30
0
41
1
10
54.3225971045953
20
17.2083099821375
30
0
0
SPLINE
5
2EB
100
AcDbEntity
8
1
62
256
6
ByLayer
370
-1
48
1
60
0
100
AcDbSpline
70
4
71
3
72
12
73
8
40
0
40
0
40
0
40
0
40
0.491363967326644
40
0.491363967326644
40
0.897005641995605
40
0.897005641995605
40
1
40
1
40
1
40
1
41
1
10
56.149123860878
20
16.5438841697935
30
0
41
1
10
56.1095257329367
20
16.4855155312078
30
0
41
1
10
56.0775655906497
20
16.418862571392
30
0
41
1
10
56.0393238697409
20
16.287695859018
30
0
41
1
10
56.0292504923663
20
16.2233078947281
30
0
41
1
10
56.028112134978
20
16.1415268240356
30
0
41
1
10
56.0284651559558
20
16.1247710386453
30
0
41
1
10
56.0294154690636
20
16.1080170483209
30
0
0
SPLINE
5
2EC
100
AcDbEntity
8
1
62
256
6
ByLayer
370
-1
48
1
60
0
100
AcDbSpline
70
4
71
3
72
14
73
10
40
0
40
0
40
0
40
0
40
0.2742625847326
40
0.2742625847326
40
0.561804091636764
40
0.561804091636764
40
0.821953442746827
40
0.821953442746827
40
1
40
1
40
1
40
1
41
1
10
56.1270905386162
20
15.0520705837682
30
0
41
1
10
56.1587463547792
20
15.0495633929965
30
0
41
1
10
56.1918719889294
20
15.0524505083043
30
0
41
1
10
56.257458442468
20
15.0702242480395
30
0
41
1
10
56.2908225919068
20
15.0860336660336
30
0
41
1
10
56.3469787687783
20
15.127421162771
30
0
41
1
10
56.3712893796689
20
15.1526011549514
30
0
41
1
10
56.4035178778373
20
15.2006458829851
30
0
41
1
10
56.4144807184867
20
15.222122590018
30
0
41
1
10
56.4226510031717
20
15.2443961083422
30
0
0
SPLINE
5
2ED
100
AcDbEntity
8
1
62
256
6
ByLayer
370
-1
48
1
60
0
100
AcDbSpline
70
4
71
3
72
16
73
12
40
0
40
0
40
0
40
0
40
0.204931637568027
40
0.204931637568027
40
0.426001785885333
40
0.426001785885333
40
0.65754122926653
40
0.65754122926653
40
0.909531731740022
40
0.909531731740022
40
1
40
1
40
1
40
1
41
1
10
53.2769224629382
20
16.3976962561859
30
0
41
1
10
53.2674571110616
20
16.3718921751049
30
0
41
1
10
53.2616927571536
20
16.3443847064282
30
0
41
1
10
53.2580469781589
20
16.2877326020264
30
0
41
1
10
53.2607799078669
20
16.2579061791321
30
0
41
1
10
53.2747517602216
20
16.2005135210726
30
0
41
1
10
53.2865339053226
20
16.1723933089836
30
0
41
1
10
53.3181772463272
20
16.1199939653667
30
0
41
1
10
53.3390262404628
20
16.0955992627444
30
0
41
1
10
53.3708490457319
20
16.0681311211433
30
0
41
1
10
53.3796657440089
20
16.0613397845208
30
0
41
1
10
53.388771261866
20
16.0550844655993
30
0
0
SPLINE
5
2EE
100
AcDbEntity
8
1
62
256
6
ByLayer
370
-1
48
1
60
0
100
AcDbSpline
70
4
71
3
72
14
73
10
40
0
40
0
40
0
40
0
40
0.210553672962924
40
0.210553672962924
40
0.504187047622055
40
0.504187047622055
40
0.769393630874355
40
0.769393630874355
40
1
40
1
40
1
40
1
41
1
10
56.1491238608793
20
16.5438841697927
30
0
41
1
10
56.1631695481676
20
16.5645878668521
30
0
41
1
10
56.174851274656
20
16.5875861073529
30
0
41
1
10
56.1952942483996
20
16.6459116930476
30
0
41
1
10
56.2013395642766
20
16.6835854025007
30
0
41
1
10
56.1988089634264
20
16.7554690376535
30
0
41
1
10
56.1914838833297
20
16.7907637920852
30
0
41
1
10
56.1666165425501
20
16.8519486025877
30
0
41
1
10
56.150173744064
20
16.8792898869706
30
0
41
1
10
56.1302029369473
20
16.9029515095107
30
0
0
SPLINE
5
2EF
100
AcDbEntity
8
1
62
256
6
ByLayer
370
-1
48
1
60
0
100
AcDbSpline
70
4
71
3
72
14
73
10
40
0
40
0
40
0
40
0
40
0.25880476607526
40
0.25880476607526
40
0.548285925569395
40
0.548285925569395
40
0.810027550057171
40
0.810027550057171
40
1
40
1
40
1
40
1
41
1
10
54.8298132026244
20
14.3317445467586
30
0
41
1
10
54.8422487766728
20
14.3043687573711
30
0
41
1
10
54.8594933299927
20
14.2783109352521
30
0
41
1
10
54.9046277756609
20
14.2302624031889
30
0
41
1
10
54.9343257621344
20
14.2084047911209
30
0
41
1
10
54.997398236434
20
14.1789628655947
30
0
41
1
10
55.0311328860953
20
14.1698217207127
30
0
41
1
10
55.0902392709066
20
14.1648867953024
30
0
41
1
10
55.1159216314439
20
14.1660516240689
30
0
41
1
10
55.1408292181783
20
14.1704622276391
30
0
0
SPLINE
5
2F0
100
AcDbEntity
8
1
62
256
6
ByLayer
370
-1
48
1
60
0
100
AcDbSpline
70
4
71
3
72
12
73
8
40
0
40
0
40
0
40
0
40
0.445120319337749
40
0.445120319337749
40
0.859036144067327
40
0.859036144067327
40
1
40
1
40
1
40
1
41
1
10
53.5581751668726
20
15.0943471789634
30
0
41
1
10
53.5963962724152
20
15.1460824906647
30
0
41
1
10
53.6281918340722
20
15.2045756586723
30
0
41
1
10
53.6719201202503
20
15.3265013820411
30
0
41
1
10
53.6854315951919
20
15.3907925783645
30
0
41
1
10
53.6901579941925
20
15.4790335476818
30
0
41
1
10
53.6902216950243
20
15.5018108927556
30
0
41
1
10
53.6890982768331
20
15.5246095035778
30
0
0
SPLINE
5
2F1
100
AcDbEntity
8
1
62
256
6
ByLayer
370
-1
48
1
60
0
100
AcDbSpline
70
4
71
3
72
16
73
12
40
0
40
0
40
0
40
0
40
0.0189133146421569
40
0.0189133146421569
40
0.339063787126556
40
0.339063787126556
40
0.626750609963199
40
0.626750609963199
40
0.87977286960728
40
0.87977286960728
40
1
40
1
40
1
40
1
41
1
10
54.8773644329042
20
17.306547470376
30
0
41
1
10
54.8763636234942
20
17.3086115325294
30
0
41
1
10
54.8753381570069
20
17.3106667150106
30
0
41
1
10
54.8567811950447
20
17.3468201793007
30
0
41
1
10
54.8318856564459
20
17.3788481511348
30
0
41
1
10
54.7739347945024
20
17.4282299681399
30
0
41
1
10
54.74099114917
20
17.447459296242
30
0
41
1
10
54.674438228361
20
17.4705841511542
30
0
41
1
10
54.6403791163762
20
17.4763398261389
30
0
41
1
10
54.590712434711
20
17.4759144228678
30
0
41
1
10
54.5745683286885
20
17.4744322448501
30
0
41
1
10
54.5587442479315
20
17.471630136889
30
0
0
SPLINE
5
2F2
100
AcDbEntity
8
1
62
256
6
ByLayer
370
-1
48
1
60
0
100
AcDbSpline
70
4
71
3
72
14
73
10
40
0
40
0
40
0
40
0
40
0.0904593757483624
40
0.0904593757483624
40
0.473414604410864
40
0.473414604410864
40
0.860163011743516
40
0.860163011743516
40
1
40
1
40
1
40
1
41
1
10
53.5693705291625
20
-0.204070920068091
30
-3E-16
41
1
10
53.5739187932061
20
-0.20432383553964
30
-3E-16
41
1
10
53.5786706902594
20
-0.204458836700837
30
-3E-16
41
1
10
53.6043224718149
20
-0.204544694513345
30
-3E-16
41
1
10
53.6286594232504
20
-0.202467438873583
30
-3E-16
41
1
10
53.6806819353183
20
-0.194370858420626
30
-3E-16
41
1
10
53.7090500406782
20
-0.188215609057153
30
-3E-16
41
1
10
53.7477022880359
20
-0.177665536343483
30
-3E-16
41
1
10
53.7580537692282
20
-0.174633190832282
30
-3E-16
41
1
10
53.7684075426178
20
-0.171398577701893
30
-3E-16
0
SPLINE
5
2F3
100
AcDbEntity
8
1
62
256
6
ByLayer
370
-1
48
1
60
0
100
AcDbSpline
70
4
71
3
72
12
73
8
40
0
40
0
40
0
40
0
40
0.336091320849402
40
0.336091320849402
40
0.720787184956481
40
0.720787184956481
40
1
40
1
40
1
40
1
41
1
10
54.8965846281258
20
-0.203882697900184
30
-2E-16
41
1
10
54.9172551067223
20
-0.216236202374574
30
-2E-16
41
1
10
54.9412802648369
20
-0.227462064615452
30
-2E-16
41
1
10
54.997398236434
20
-0.247523196878859
30
-2E-16
41
1
10
55.0311328860953
20
-0.256102446446107
30
-2E-16
41
1
10
55.0902392709066
20
-0.26560848988774
30
-2E-16
41
1
10
55.1159216314439
20
-0.26808921109722
30
-2E-16
41
1
10
55.1408292181783
20
-0.268882148314219
30
-2E-16
0
SPLINE
5
2F4
100
AcDbEntity
8
1
62
256
6
ByLayer
370
-1
48
1
60
0
100
AcDbSpline
70
4
71
3
72
14
73
10
40
0
40
0
40
0
40
0
40
0.0677792606555306
40
0.0677792606555306
40
0.403608529525864
40
0.403608529525864
40
0.742100186620355
40
0.742100186620355
40
1
40
1
40
1
40
1
41
1
10
55.1408292181783
20
-0.268882148314219
30
-2E-16
41
1
10
55.146771996416
20
-0.269071337659909
30
-2E-16
41
1
10
55.1526888341279
20
-0.269166933524502
30
-2E-16
41
1
10
55.187394593837
20
-0.26917706168274
30
-2E-16
41
1
10
55.2155266822695
20
-0.266856744406027
30
-2E-16
41
1
10
55.2661825587782
20
-0.257966367178653
30
-2E-16
41
1
10
55.2893177825686
20
-0.25125614683148
30
-2E-16
41
1
10
55.3234613208213
20
-0.236438460040574
30
-2E-16
41
1
10
55.3363159914114
20
-0.228936096164347
30
-2E-16
41
1
10
55.3469864179302
20
-0.220631869049413
30
-2E-16
0
SPLINE
5
2F5
100
AcDbEntity
8
1
62
256
6
ByLayer
370
-1
48
1
60
0
100
AcDbSpline
70
4
71
3
72
12
73
8
40
0
40
0
40
0
40
0
40
0.0303249987204239
40
0.0303249987204239
40
0.606004318303262
40
0.606004318303262
40
1
40
1
40
1
40
1
41
1
10
56.3160505837439
20
-0.267993018001135
30
-1E-16
41
1
10
56.3174722534352
20
-0.268518867869432
30
-1E-16
41
1
10
56.3188854763378
20
-0.26903748684532
30
-1E-16
41
1
10
56.3469787687783
20
-0.279264204256549
30
-1E-16
41
1
10
56.3712893796689
20
-0.286607867661871
30
-1E-16
41
1
10
56.4035178778373
20
-0.293594859994698
30
-1E-16
41
1
10
56.4144807184867
20
-0.29500901393925
30
-1E-16
41
1
10
56.4226510031717
20
-0.29490558432002
30
-1E-16
0
SPLINE
5
2F6
100
AcDbEntity
8
SK1
62
256
6
ByLayer
370
-1
48
1
60
0
100
AcDbSpline
70
4
71
3
72
28
73
24
40
0
40
0
40
0
40
0
40
0.0501427598685366
40
0.0501427598685366
40
0.162499772522923
40
0.162499772522923
40
0.274856785177309
40
0.274856785177309
40
0.387213797831696
40
0.387213797831696
40
0.499570810486082
40
0.499570810486082
40
0.555749316813276
40
0.555749316813276
40
0.611927823140469
40
0.611927823140469
40
0.724284835794855
40
0.724284835794855
40
0.836641848449241
40
0.836641848449241
40
0.948998861103628
40
0.948998861103628
40
1
40
1
40
1
40
1
41
1
10
-24
20
12.5805081858206
30
0
41
1
10
-24
20
12.5752826590733
30
0
41
1
10
-23.9999999999999
20
12.5048481134043
30
1E-16
41
1
10
-24
20
12.1268240366655
30
1E-16
41
1
10
-24
20
11.6069824914266
30
-1E-16
41
1
10
-24
20
10.2308904791419
30
3E-16
41
1
10
-23.9999999999999
20
9.33505100969833
30
3E-16
41
1
10
-24
20
7.25451337711704
30
3E-16
41
1
10
-24
20
6.03406201720804
30
3E-16
41
1
10
-23.9999999999999
20
3.29058259471472
30
3E-16
41
1
10
-23.9999999999999
20
1.73762162493185
30
3E-16
41
1
10
-23.9999999999999
20
-0.765894734704176
30
3E-16
41
1
10
-23.9999999999999
20
-1.58205517513366
30
3E-16
41
1
10
-24
20
-3.14126978157819
30
3E-16
41
1
10
-23.9999999999999
20
-3.87258329854407
30
3E-16
41
1
10
-24
20
-5.96204061486438
30
3E-16
41
1
10
-24
20
-7.16781782016213
30
3E-16
41
1
10
-24
20
-9.29720085705898
30
3E-16
41
1
10
-24
20
-10.1768487891987
30
3E-16
41
1
10
-24
20
-11.5892073073507
30
-1E-16
41
1
10
-24
20
-12.1068779312492
30
1E-16
41
1
10
-24
20
-12.4983591864294
30
1E-16
41
1
10
-24
20
-12.5722980860696
30
0
41
1
10
-24
20
-12.5789068139571
30
0
0
SPLINE
5
2F7
100
AcDbEntity
8
SK1
62
256
6
ByLayer
370
-1
48
1
60
0
100
AcDbSpline
70
4
71
3
72
24
73
20
40
0
40
0
40
0
40
0
40
0.0322606913960599
40
0.0322606913960599
40
0.0572142551265987
40
0.0572142551265987
40
0.0771087286588557
40
0.0771087286588557
40
0.0970009693396643
40
0.0970009693396643
40
0.124626633729744
40
0.124626633729744
40
0.174344419580601
40
0.174344419580601
40
0.331771261342335
40
0.331771261342335
40
0.989588681726692
40
0.989588681726692
40
1
40
1
40
1
40
1
41
1
10
-0.399999999999977
20
13.8205590132786
30
0
41
1
10
-0.394013511242747
20
13.8207198641373
30
0
41
1
10
-0.387438377041576
20
13.8211277948213
30
0
41
1
10
-0.374607857819001
20
13.8226095541097
30
0
41
1
10
-0.368494470268672
20
13.8235344490986
30
0
41
1
10
-0.357073302473168
20
13.8258132771122
30
0
41
1
10
-0.351741572367757
20
13.8270713477329
30
0
41
1
10
-0.34140996003066
20
13.8299215021952
30
0
41
1
10
-0.336294849042872
20
13.831543966011
30
0
41
1
10
-0.325054468279177
20
13.8355258548496
30
0
41
1
10
-0.319101901704414
20
13.8379842992552
30
0
41
1
10
-0.304411347490543
20
13.8446767815525
30
0
41
1
10
-0.296779548188397
20
13.8489171706104
30
0
41
1
10
-0.269692663824287
20
13.8655029311592
30
0
41
1
10
-0.257826564745358
20
13.8765532193897
30
0
41
1
10
-0.207555971514864
20
13.9283182748064
30
0
41
1
10
-0.202396119115292
20
13.9564451915611
30
0
41
1
10
-0.200330162646196
20
13.9788604596951
30
0
41
1
10
-0.200300059678341
20
13.9792094649377
30
0
41
1
10
-0.200272157806126
20
13.9795567146114
30
0
0
SPLINE
5
2F8
100
AcDbEntity
8
SK1
62
256
6
ByLayer
370
-1
48
1
60
0
100
AcDbSpline
70
4
71
3
72
33
73
29
40
0
40
0
40
0
40
0
40
0.006000028530684
40
0.0460669751913244
40
0.0861339218519648
40
0.126200868512605
40
0.166267815173245
40
0.206334761833886
40
0.246401708494526
40
0.286468655155167
40
0.326535601815807
40
0.366602548476448
40
0.406669495137088
40
0.446736441797728
40
0.486803388458369
40
0.526870335119009
40
0.56693728177965
40
0.60700422844029
40
0.64707117510093
40
0.687138121761571
40
0.727205068422211
40
0.767272015082851
40
0.807338961743492
40
0.847405908404132
40
0.887472855064773
40
0.927539801725413
40
0.967606748386053
40
1
40
1
40
1
40
1
41
1
10
-1.49999999999989
20
-2.55452633951475
30
-1E-16
41
1
10
-1.49999999999989
20
-2.57758935777625
30
-1E-16
41
1
10
-1.49999999999989
20
-2.75563386385181
30
-1E-16
41
1
10
-1.49999999999989
20
-3.10259085919483
30
-1E-16
41
1
10
-1.49999999999989
20
-3.62131828040256
30
-1E-16
41
1
10
-1.49999999999989
20
-4.17356946094313
30
-1E-16
41
1
10
-1.49999999999989
20
-4.75691744833273
30
-1E-16
41
1
10
-1.49999999999989
20
-5.36758879010387
30
-1E-16
41
1
10
-1.49999999999989
20
-6.00058584498379
30
-1E-16
41
1
10
-1.49999999999989
20
-6.64985057156352
30
-1E-16
41
1
10
-1.49999999999989
20
-7.30846436616247
30
-1E-16
41
1
10
-1.49999999999989
20
-7.96888181888042
30
-1E-16
41
1
10
-1.49999999999989
20
-8.62318035716163
30
-1E-16
41
1
10
-1.49999999999989
20
-9.26332810646636
30
-1E-16
41
1
10
-1.49999999999989
20
-9.88144543350359
30
-1E-16
41
1
10
-1.49999999999989
20
-10.4700665265398
30
-1E-16
41
1
10
-1.49999999999994
20
-11.022373431452
30
-1E-16
41
1
10
-1.49999999999994
20
-11.5324122627522
30
-1E-16
41
1
10
-1.49999999999994
20
-11.9952648181666
30
-1E-16
41
1
10
-1.49999999999994
20
-12.4071875603976
30
-1E-16
41
1
10
-1.49999999999994
20
-12.7656956859389
30
-1E-16
41
1
10
-1.49999999999994
20
-13.0696050688166
30
-1E-16
41
1
10
-1.49999999999994
20
-13.3190172436223
30
-1E-16
41
1
10
-1.49999999999994
20
-13.5152595263794
30
0
41
1
10
-1.49999999999994
20
-13.6607746658667
30
0
41
1
10
-1.49999999999994
20
-13.7589698929487
30
-1E-16
41
1
10
-1.49999999999994
20
-13.810515776284
30
-1E-16
41
1
10
-1.49999999999994
20
-13.822781421685
30
-1E-16
41
1
10
-1.49999999999989
20
-13.8245293396061
30
-1E-16
0
SPLINE
5
2F9
100
AcDbEntity
8
SK1
62
256
6
ByLayer
370
-1
48
1
60
0
100
AcDbSpline
70
4
71
3
72
79
73
75
40
0
40
0
40
0
40
0
40
0.0069311078190052
40
0.0210187905921741
40
0.035106473365343
40
0.0491941561385119
40
0.0632818389116808
40
0.0773695216848498
40
0.0914572044580187
40
0.105544887231188
40
0.119632570004356
40
0.133720252777525
40
0.147807935550694
40
0.161895618323863
40
0.175983301097032
40
0.190070983870201
40
0.20415866664337
40
0.218246349416539
40
0.232334032189708
40
0.246421714962877
40
0.260509397736046
40
0.274597080509215
40
0.288684763282384
40
0.302772446055552
40
0.316860128828721
40
0.33094781160189
40
0.345035494375059
40
0.359123177148228
40
0.373210859921397
40
0.387298542694566
40
0.401386225467735
40
0.415473908240904
40
0.429561591014073
40
0.443649273787242
40
0.457736956560411
40
0.471824639333579
40
0.485912322106749
40
0.500000004879917
40
0.514087687653086
40
0.528175370426255
40
0.542263053199424
40
0.556350735972593
40
0.570438418745762
40
0.584526101518931
40
0.5986137842921
40
0.612701467065269
40
0.626789149838438
40
0.640876832611607
40
0.654964515384776
40
0.669052198157944
40
0.683139880931113
40
0.697227563704282
40
0.711315246477451
40
0.72540292925062
40
0.739490612023789
40
0.753578294796958
40
0.767665977570127
40
0.781753660343296
40
0.795841343116465
40
0.809929025889634
40
0.824016708662803
40
0.838104391435971
40
0.85219207420914
40
0.866279756982309
40
0.880367439755478
40
0.894455122528647
40
0.908542805301816
40
0.922630488074985
40
0.936718170848154
40
0.950805853621323
40
0.964893536394492
40
0.978981219167661
40
0.99306890194083
40
1
40
1
40
1
40
1
41
1
10
-2.5
20
-13.8300379989804
30
-2E-16
41
1
10
-2.5
20
-13.8443994535183
30
-2E-16
41
1
10
-2.5
20
-13.8858550849687
30
-2E-16
41
1
10
-2.5
20
-13.9432745301022
30
-2E-16
41
1
10
-2.5
20
-13.9887542441536
30
-2E-16
41
1
10
-2.5
20
-14.0056234056246
30
-2E-16
41
1
10
-2.5
20
-13.988752133348
30
1E-16
41
1
10
-2.5
20
-13.9330904587156
30
1E-16
41
1
10
-2.5
20
-13.8339177083708
30
0
41
1
10
-2.5
20
-13.6870701821128
30
0
41
1
10
-2.5
20
-13.4891606659135
30
1E-16
41
1
10
-2.5
20
-13.2377634553435
30
-2E-16
41
1
10
-2.5
20
-12.9315646731672
30
-2E-16
41
1
10
-2.5
20
-12.5704720586786
30
-2E-16
41
1
10
-2.49999999999994
20
-12.1556745862519
30
-2E-16
41
1
10
-2.49999999999994
20
-11.6896573582757
30
-2E-16
41
1
10
-2.49999999999994
20
-11.1761598486008
30
-2E-16
41
1
10
-2.49999999999994
20
-10.6200921552756
30
-2E-16
41
1
10
-2.49999999999994
20
-10.0273966309962
30
-2E-16
41
1
10
-2.49999999999994
20
-9.40487698463008
30
-2E-16
41
1
10
-2.49999999999994
20
-8.75998301936997
30
-2E-16
41
1
10
-2.49999999999994
20
-8.10057759802723
30
-2E-16
41
1
10
-2.49999999999994
20
-7.43467620819112
30
-2E-16
41
1
10
-2.49999999999994
20
-6.77018655593477
30
-2E-16
41
1
10
-2.49999999999994
20
-6.11464187468977
30
-2E-16
41
1
10
-2.49999999999994
20
-5.47495238907831
30
-2E-16
41
1
10
-2.49999999999994
20
-4.85717257311447
30
-2E-16
41
1
10
-2.49999999999994
20
-4.26630223424849
30
-2E-16
41
1
10
-2.49999999999994
20
-3.70612309484702
30
-2E-16
41
1
10
-2.49999999999994
20
-3.17908000235968
30
-2E-16
41
1
10
-2.49999999999994
20
-2.68621197756718
30
-2E-16
41
1
10
-2.49999999999994
20
-2.22713214869714
30
-2E-16
41
1
10
-2.49999999999994
20
-1.80006432484655
30
-2E-16
41
1
10
-2.49999999999994
20
-1.40192548161284
30
-2E-16
41
1
10
-2.49999999999994
20
-1.02846311010666
30
-2E-16
41
1
10
-2.49999999999994
20
-0.674428687296569
30
-2E-16
41
1
10
-2.49999999999994
20
-0.333795915844576
30
-2E-16
41
1
10
-2.49999999999994
20
7.12340693E-08
30
-2E-16
41
1
10
-2.49999999999994
20
0.333795630908241
30
-2E-16
41
1
10
-2.49999999999994
20
0.674428818459575
30
-2E-16
41
1
10
-2.49999999999994
20
1.02846287039082
30
-2E-16
41
1
10
-2.49999999999994
20
1.40192558052763
30
-2E-16
41
1
10
-2.49999999999994
20
1.80006416890296
30
-2E-16
41
1
10
-2.49999999999994
20
2.22713219916599
30
-2E-16
41
1
10
-2.49999999999994
20
2.68621193163514
30
-2E-16
41
1
10
-2.49999999999994
20
3.17907999530164
30
-2E-16
41
1
10
-2.49999999999994
20
3.70612316901105
30
-2E-16
41
1
10
-2.49999999999994
20
4.26630216899858
30
-2E-16
41
1
10
-2.49999999999994
20
4.85717275994992
30
-2E-16
41
1
10
-2.49999999999994
20
5.47495227341935
30
-2E-16
41
1
10
-2.49999999999994
20
6.11464215048997
30
-2E-16
41
1
10
-2.49999999999994
20
6.7701864048623
30
-2E-16
41
1
10
-2.49999999999994
20
7.43467653668063
30
-2E-16
41
1
10
-2.49999999999994
20
8.10057743145504
30
-2E-16
41
1
10
-2.49999999999994
20
8.75998335716918
30
-2E-16
41
1
10
-2.49999999999994
20
9.40487682435958
30
-2E-16
41
1
10
-2.49999999999994
20
10.027396934279
30
-2E-16
41
1
10
-2.49999999999994
20
10.6200920217111
30
-2E-16
41
1
10
-2.49999999999994
20
11.1761600795757
30
-2E-16
41
1
10
-2.49999999999994
20
11.6896572673894
30
-2E-16
41
1
10
-2.49999999999994
20
12.1556747188218
30
-2E-16
41
1
10
-2.5
20
12.5704720196536
30
-2E-16
41
1
10
-2.5
20
12.931564696697
30
-2E-16
41
1
10
-2.5
20
13.2377634692878
30
-2E-16
41
1
10
-2.5
20
13.4891605866066
30
1E-16
41
1
10
-2.5
20
13.6870702420279
30
0
41
1
10
-2.5
20
13.8339175480175
30
0
41
1
10
-2.5
20
13.9330908491367
30
1E-16
41
1
10
-2.5
20
13.9887513430622
30
1E-16
41
1
10
-2.5
20
14.0056234821498
30
-2E-16
41
1
10
-2.5
20
13.9887547283385
30
-2E-16
41
1
10
-2.5
20
13.9432743681012
30
-2E-16
41
1
10
-2.5
20
13.8858549230788
30
-2E-16
41
1
10
-2.50000000000006
20
13.8443994062734
30
-2E-16
41
1
10
-2.5
20
13.8300380011159
30
-2E-16
0
SPLINE
5
2FA
100
AcDbEntity
8
SK1
62
256
6
ByLayer
370
-1
48
1
60
0
100
AcDbSpline
70
4
71
3
72
24
73
20
40
0
40
0
40
0
40
0
40
0.394875644104776
40
0.394875644104776
40
0.580237478202818
40
0.580237478202818
40
0.768024594545524
40
0.768024594545524
40
0.821318184582328
40
0.821318184582328
40
0.86063645050671
40
0.86063645050671
40
0.893544596745066
40
0.893544596745066
40
0.926376480305815
40
0.926376480305815
40
0.975583602956219
40
0.975583602956219
40
1
40
1
40
1
40
1
41
1
10
-1.30710678118703
20
-3.58871727154681
30
-1E-16
41
1
10
-1.25970314050051
20
-3.82268545505016
30
-1E-16
41
1
10
-1.20268951681544
20
-4.0522990637061
30
-1E-16
41
1
10
-1.088442965686
20
-4.37621064451773
30
-1E-16
41
1
10
-1.047217807636
20
-4.47806704652851
30
-1E-16
41
1
10
-0.946498347972181
20
-4.67402400407769
30
-1E-16
41
1
10
-0.887649711538188
20
-4.77181850306434
30
-1E-16
41
1
10
-0.778611976213313
20
-4.87193345154523
30
0
41
1
10
-0.751538353604587
20
-4.89265008986257
30
0
41
1
10
-0.69905062310346
20
-4.92098681441374
30
0
41
1
10
-0.674564059132251
20
-4.93073454927372
30
0
41
1
10
-0.627610440444357
20
-4.94089837201273
30
0
41
1
10
-0.604990345651117
20
-4.94257917258165
30
0
41
1
10
-0.561019153025597
20
-4.93928086468458
30
0
41
1
10
-0.539185873337146
20
-4.9343220454893
30
0
41
1
10
-0.488505513252846
20
-4.91611333631423
30
0
41
1
10
-0.460609299544501
20
-4.89990010346509
30
0
41
1
10
-0.423195770996927
20
-4.87233551414784
30
0
41
1
10
-0.411325532072283
20
-4.86251297160928
30
0
41
1
10
-0.39999999999992
20
-4.85227456454996
30
0
0
SPLINE
5
2FB
100
AcDbEntity
8
SK1
62
256
6
ByLayer
370
-1
48
1
60
0
100
AcDbSpline
70
4
71
3
72
30
73
26
40
0
40
0
40
0
40
0
40
0.323683715287821
40
0.323683715287821
40
0.409735865249923
40
0.409735865249923
40
0.452928625832081
40
0.452928625832081
40
0.468145406180671
40
0.468145406180671
40
0.475617260213128
40
0.475617260213128
40
0.481869520397867
40
0.481869520397867
40
0.48817626052579
40
0.48817626052579
40
0.495259728072395
40
0.495259728072395
40
0.507216161807773
40
0.507216161807773
40
0.544450808915845
40
0.544450808915845
40
0.715771905876251
40
0.715771905876251
40
1
40
1
40
1
40
1
41
1
10
-1.69996145737014
20
2.58069190327925
30
-1E-16
41
1
10
-1.69957279427672
20
2.45735174741614
30
-1E-16
41
1
10
-1.69747943572611
20
2.33275959372483
30
-1E-16
41
1
10
-1.68280786661546
20
2.17510563663223
30
-1E-16
41
1
10
-1.6790531264358
20
2.14178513841156
30
-1E-16
41
1
10
-1.66982584439813
20
2.09257517130857
30
-1E-16
41
1
10
-1.66622418704014
20
2.07599882381985
30
-1E-16
41
1
10
-1.6585352699903
20
2.05523575475587
30
-1E-16
41
1
10
-1.65621727335139
20
2.04990011502019
30
-1E-16
41
1
10
-1.65190392784495
20
2.04295844851055
30
-1E-16
41
1
10
-1.65031465018177
20
2.04081354663947
30
-1E-16
41
1
10
-1.64708474378222
20
2.03758976610058
30
-1E-16
41
1
10
-1.64546025470031
20
2.03637666738331
30
-1E-16
41
1
10
-1.64208683909158
20
2.03484515225668
30
-1E-16
41
1
10
-1.64029350998902
20
2.0345257545506
30
-1E-16
41
1
10
-1.63665124005524
20
2.03480200364953
30
-1E-16
41
1
10
-1.63476836522864
20
2.03549609263416
30
-1E-16
41
1
10
-1.63011332934303
20
2.03820563111981
30
-1E-16
41
1
10
-1.62749907113709
20
2.04079535648785
30
-1E-16
41
1
10
-1.61785331798274
20
2.05253646839518
30
-1E-16
41
1
10
-1.61239259265159
20
2.06415551700681
30
-1E-16
41
1
10
-1.58481103440909
20
2.12952424336697
30
-1E-16
41
1
10
-1.57120245893441
20
2.19071878810982
30
-1E-16
41
1
10
-1.53537272921415
20
2.35076653698448
30
-1E-16
41
1
10
-1.51709733996256
20
2.45260526361207
30
-1E-16
41
1
10
-1.49999999999989
20
2.55452876952825
30
-1E-16
0
SPLINE
5
2FC
100
AcDbEntity
8
SK1
62
256
6
ByLayer
370
-1
48
1
60
0
100
AcDbSpline
70
4
71
3
72
36
73
32
40
0
40
0
40
0
40
0
40
0.0332996421669561
40
0.0332996421669561
40
0.0866295922424995
40
0.0866295922424995
40
0.193745270170758
40
0.193745270170758
40
0.247042319251168
40
0.247042319251168
40
0.300332977595827
40
0.300332977595827
40
0.353619292124852
40
0.353619292124852
40
0.460448184654301
40
0.460448184654301
40
0.513730575830523
40
0.513730575830523
40
0.620535716616854
40
0.620535716616854
40
0.673818292230191
40
0.673818292230191
40
0.72710232361443
40
0.72710232361443
40
0.833958376074659
40
0.833958376074659
40
0.887248781075468
40
0.887248781075468
40
0.994263406452517
40
0.994263406452517
40
1
40
1
40
1
40
1
41
1
10
-1.69996145737019
20
2.58069190327936
30
-1E-16
41
1
10
-1.69996429163041
20
2.80951695785709
30
-1E-16
41
1
10
-1.69996696089555
20
3.03562557775425
30
-1E-16
41
1
10
-1.699973337193
20
3.6157289366447
30
-1E-16
41
1
10
-1.69997671926922
20
3.96552379997851
30
-1E-16
41
1
10
-1.69998530650679
20
4.99113580073313
30
-1E-16
41
1
10
-1.69998901558614
20
5.6451156934246
30
-1E-16
41
1
10
-1.69999286236259
20
6.57296958257461
30
-1E-16
41
1
10
-1.69999386162709
20
6.87371338526046
30
-1E-16
41
1
10
-1.69999546843786
20
7.4583834927808
30
-1E-16
41
1
10
-1.69999607823138
20
7.74261790611689
30
-1E-16
41
1
10
-1.69999703744656
20
8.29417338948343
30
-1E-16
41
1
10
-1.69999738660749
20
8.56175046472268
30
-1E-16
41
1
10
-1.69999817831075
20
9.33946452185438
30
-1E-16
41
1
10
-1.69999837743336
20
9.82518649337788
30
-1E-16
41
1
10
-1.69999839575109
20
10.4996879381028
30
-1E-16
41
1
10
-1.69999835090124
20
10.7156644660853
30
-1E-16
41
1
10
-1.69999804475918
20
11.336874457689
30
-1E-16
41
1
10
-1.69999762619807
20
11.7157820313895
30
-1E-16
41
1
10
-1.69999631259481
20
12.2254945281863
30
-1E-16
41
1
10
-1.69999575688217
20
12.385732211918
30
-1E-16
41
1
10
-1.69999429236037
20
12.686096780789
30
-1E-16
41
1
10
-1.69999338656009
20
12.8263310062018
30
-1E-16
41
1
10
-1.69998989513294
20
13.2157140959206
30
-1E-16
41
1
10
-1.69998657603577
20
13.4338327645562
30
-1E-16
41
1
10
-1.69997869923833
20
13.6890552895256
30
0
41
1
10
-1.69997557888934
20
13.7622199088226
30
0
41
1
10
-1.69996421209731
20
13.9433027119529
30
-1E-16
41
1
10
-1.69995396430045
20
14.0130768516047
30
-1E-16
41
1
10
-1.69993838351951
20
14.0199514281949
30
-1E-16
41
1
10
-1.69993757578192
20
14.0201187474204
30
-1E-16
41
1
10
-1.69993675425064
20
14.0201000442184
30
-1E-16
0
SPLINE
5
2FD
100
AcDbEntity
8
SK1
62
256
6
ByLayer
370
-1
48
1
60
0
100
AcDbSpline
70
4
71
3
72
27
73
23
40
0
40
0
40
0
40
0
40
0.0373491017796348
40
0.088422386518667
40
0.139495671257699
40
0.190568955996732
40
0.241642240735764
40
0.292715525474796
40
0.343788810213828
40
0.394862094952861
40
0.445935379691893
40
0.497008664430925
40
0.548081949169957
40
0.59915523390899
40
0.650228518648022
40
0.701301803387054
40
0.752375088126087
40
0.803448372865119
40
0.854521657604151
40
0.905594942343184
40
0.956668227082216
40
1
40
1
40
1
40
1
41
1
10
-0.400000000000034
20
13.7965930683556
30
0
41
1
10
-0.399999999999977
20
13.785294085129
30
0
41
1
10
-0.400000000000034
20
13.750174695245
30
0
41
1
10
-0.399999999999977
20
13.6607745146452
30
0
41
1
10
-0.399999999999977
20
13.5152595834079
30
0
41
1
10
-0.399999999999977
20
13.3190171661248
30
0
41
1
10
-0.399999999999977
20
13.0696050793313
30
0
41
1
10
-0.39999999999992
20
12.765695711353
30
0
41
1
10
-0.39999999999992
20
12.4071875173709
30
0
41
1
10
-0.39999999999992
20
11.9952649527342
30
0
41
1
10
-0.39999999999992
20
11.5324121673266
30
0
41
1
10
-0.39999999999992
20
11.0223736645665
30
0
41
1
10
-0.39999999999992
20
10.470066387995
30
0
41
1
10
-0.39999999999992
20
9.88144573908428
30
0
41
1
10
-0.39999999999992
20
9.26332794093628
30
0
41
1
10
-0.39999999999992
20
8.62318069742537
30
0
41
1
10
-0.39999999999992
20
7.96888164701966
30
0
41
1
10
-0.39999999999992
20
7.30846469728445
30
0
41
1
10
-0.39999999999992
20
6.64985041554638
30
0
41
1
10
-0.39999999999992
20
6.00058612356241
30
0
41
1
10
-0.39999999999992
20
5.39957119182188
30
0
41
1
10
-0.39999999999992
20
5.02226907709914
30
0
41
1
10
-0.39999999999992
20
4.85227506835238
30
0
0
SPLINE
5
2FE
100
AcDbEntity
8
SK1
62
256
6
ByLayer
370
-1
48
1
60
0
100
AcDbSpline
70
4
71
3
72
73
73
69
40
0
40
0
40
0
40
0
40
0.0021269019887427
40
0.0175876599365925
40
0.0330484178844423
40
0.0485091758322921
40
0.0639699337801419
40
0.0794306917279917
40
0.0948914496758415
40
0.110352207623691
40
0.125812965571541
40
0.141273723519391
40
0.156734481467241
40
0.172195239415091
40
0.18765599736294
40
0.20311675531079
40
0.21857751325864
40
0.23403827120649
40
0.24949902915434
40
0.264959787102189
40
0.280420545050039
40
0.295881302997889
40
0.311342060945739
40
0.326802818893589
40
0.342263576841438
40
0.357724334789288
40
0.373185092737138
40
0.388645850684988
40
0.404106608632838
40
0.419567366580688
40
0.435028124528537
40
0.450488882476387
40
0.465949640424237
40
0.481410398372087
40
0.496871156319937
40
0.512331914267786
40
0.527792672215636
40
0.543253430163486
40
0.558714188111336
40
0.574174946059186
40
0.589635704007035
40
0.605096461954885
40
0.620557219902735
40
0.636017977850585
40
0.651478735798435
40
0.666939493746284
40
0.682400251694134
40
0.697861009641984
40
0.713321767589834
40
0.728782525537684
40
0.744243283485534
40
0.759704041433383
40
0.775164799381233
40
0.790625557329083
40
0.806086315276933
40
0.821547073224783
40
0.837007831172632
40
0.852468589120482
40
0.867929347068332
40
0.883390105016182
40
0.898850862964031
40
0.914311620911881
40
0.929772378859731
40
0.945233136807581
40
0.960693894755431
40
0.976154652703281
40
0.99161541065113
40
1
40
1
40
1
40
1
41
1
10
-22.5004731679057
20
13.2758819187862
30
4E-16
41
1
10
-22.5004731679057
20
13.2802062552144
30
4E-16
41
1
10
-22.5004731679057
20
13.3155954382826
30
4E-16
41
1
10
-22.5004731679057
20
13.3761852100001
30
4E-16
41
1
10
-22.5004731679057
20
13.4428288363681
30
0
41
1
10
-22.5004731679057
20
13.4866768366259
30
0
41
1
10
-22.5004731679057
20
13.5029401449552
30
0
41
1
10
-22.5004731679057
20
13.4866735728523
30
0
41
1
10
-22.5004731679057
20
13.4330108195396
30
0
41
1
10
-22.5004731679057
20
13.3373970005121
30
0
41
1
10
-22.5004731679057
20
13.1958202698686
30
0
41
1
10
-22.5004731679057
20
13.0050138959383
30
0
41
1
10
-22.5004731679057
20
12.7626398072662
30
0
41
1
10
-22.5004731679057
20
12.4674309788965
30
0
41
1
10
-22.5004731679056
20
12.1192984726134
30
0
41
1
10
-22.5004731679056
20
11.7193888839714
30
4E-16
41
1
10
-22.5004731679056
20
11.2700975146
30
4E-16
41
1
10
-22.5004731679056
20
10.7750305295073
30
4E-16
41
1
10
-22.5004731679056
20
10.2389206082719
30
4E-16
41
1
10
-22.5004731679056
20
9.66749825781363
30
4E-16
41
1
10
-22.5004731679056
20
9.0673213507315
30
4E-16
41
1
10
-22.5004731679056
20
8.44557410053284
30
4E-16
41
1
10
-22.5004731679056
20
7.80983526623567
30
4E-16
41
1
10
-22.5004731679056
20
7.16783457729309
30
4E-16
41
1
10
-22.5004731679056
20
6.52719401685735
30
4E-16
41
1
10
-22.5004731679056
20
5.89517825258662
30
4E-16
41
1
10
-22.5004731679056
20
5.27844782766644
30
4E-16
41
1
10
-22.5004731679056
20
4.68284136974697
30
4E-16
41
1
10
-22.5004731679056
20
4.11317803178855
30
4E-16
41
1
10
-22.5004731679056
20
3.57310471645681
30
4E-16
41
1
10
-22.5004731679056
20
3.06497793170672
30
4E-16
41
1
10
-22.5004731679056
20
2.58979965981254
30
4E-16
41
1
10
-22.5004731679056
20
2.14719700401548
30
4E-16
41
1
10
-22.5004731679056
20
1.73545710126749
30
4E-16
41
1
10
-22.5004731679056
20
1.3516083183068
30
4E-16
41
1
10
-22.5004731679056
20
0.991549758416369
30
4E-16
41
1
10
-22.5004731679056
20
0.650222532349176
30
4E-16
41
1
10
-22.5004731679056
20
0.321815193057745
30
4E-16
41
1
10
-22.5004731679056
20
6.86773944E-08
30
4E-16
41
1
10
-22.5004731679056
20
-0.321815467767181
30
4E-16
41
1
10
-22.5004731679056
20
-0.650222405893771
30
4E-16
41
1
10
-22.5004731679056
20
-0.99154998952838
30
4E-16
41
1
10
-22.5004731679056
20
-1.35160822294213
30
4E-16
41
1
10
-22.5004731679056
20
-1.73545725161395
30
4E-16
41
1
10
-22.5004731679056
20
-2.14719695535797
30
4E-16
41
1
10
-22.5004731679056
20
-2.58979970409595
30
4E-16
41
1
10
-22.5004731679056
20
-3.06497793851139
30
4E-16
41
1
10
-22.5004731679056
20
-3.57310464495461
30
4E-16
41
1
10
-22.5004731679056
20
-4.11317809469651
30
4E-16
41
1
10
-22.5004731679056
20
-4.68284118961725
30
4E-16
41
1
10
-22.5004731679056
20
-5.27844793917416
30
4E-16
41
1
10
-22.5004731679056
20
-5.89517798668527
30
4E-16
41
1
10
-22.5004731679056
20
-6.52719416250753
30
4E-16
41
1
10
-22.5004731679056
20
-7.16783426059351
30
4E-16
41
1
10
-22.5004731679056
20
-7.8098354268293
30
4E-16
41
1
10
-22.5004731679056
20
-8.44557377485771
30
4E-16
41
1
10
-22.5004731679056
20
-9.06732150524962
30
4E-16
41
1
10
-22.5004731679056
20
-9.667497965416
30
4E-16
41
1
10
-22.5004731679056
20
-10.2389207370425
30
4E-16
41
1
10
-22.5004731679056
20
-10.7750303068223
30
4E-16
41
1
10
-22.5004731679056
20
-11.2700976022241
30
4E-16
41
1
10
-22.5004731679056
20
-11.7193887561596
30
4E-16
41
1
10
-22.5004731679056
20
-12.1192985102377
30
0
41
1
10
-22.5004731679057
20
-12.4674309562112
30
0
41
1
10
-22.5004731679057
20
-12.7626397938223
30
0
41
1
10
-22.5004731679057
20
-13.0050139723987
30
0
41
1
10
-22.5004731679057
20
-13.1667104464541
30
0
41
1
10
-22.5004731679057
20
-13.2452876131572
30
0
41
1
10
-22.5004731679057
20
-13.2705909227452
30
0
0
SPLINE
5
2FF
100
AcDbEntity
8
SK1
62
256
6
ByLayer
370
-1
48
1
60
0
100
AcDbSpline
70
4
71
3
72
8
73
4
40
0
40
0
40
0
40
0
40
1
40
1
40
1
40
1
41
1
10
-1.49999999999989
20
2.55452876952822
30
-1E-16
41
1
10
-1.44087207369961
20
2.90701199552916
30
-1E-16
41
1
10
-1.37532387973016
20
3.25201982801605
30
-1E-16
41
1
10
-1.30710678118652
20
3.58871725126215
30
-1E-16
0
SPLINE
5
300
100
AcDbEntity
8
SK1
62
256
6
ByLayer
370
-1
48
1
60
0
100
AcDbSpline
70
4
71
3
72
24
73
20
40
0
40
0
40
0
40
0
40
0.102992802867901
40
0.102992802867901
40
0.438223732000523
40
0.438223732000523
40
0.669936702206685
40
0.669936702206685
40
0.786435864117444
40
0.786435864117444
40
0.826356483176574
40
0.826356483176574
40
0.866940866922035
40
0.866940866922035
40
0.904144297603777
40
0.904144297603777
40
0.942960709891053
40
0.942960709891053
40
1
40
1
40
1
40
1
41
1
10
-0.21325343277914
20
-13.935381355653
30
0
41
1
10
-0.214774045173783
20
-13.9323156307487
30
0
41
1
10
-0.216454041516783
20
-13.9291589690672
30
0
41
1
10
-0.224346935588187
20
-13.9153098301286
30
0
41
1
10
-0.232233669438131
20
-13.9036655551733
30
0
41
1
10
-0.252765410814618
20
-13.8814084969653
30
0
41
1
10
-0.26298325754334
20
-13.8715421084066
30
0
41
1
10
-0.286616108803798
20
-13.8549361512882
30
0
41
1
10
-0.296048597512936
20
-13.8489546731
30
0
41
1
10
-0.313313649213967
20
-13.8405611977702
30
0
41
1
10
-0.318242626725294
20
-13.8383488525843
30
0
41
1
10
-0.32918712877688
20
-13.8339930106961
30
0
41
1
10
-0.335388564995355
20
-13.83179581462
30
0
41
1
10
-0.347755359286111
20
-13.8280854434499
30
0
41
1
10
-0.354048035137055
20
-13.8264890383489
30
0
41
1
10
-0.366250197629427
20
-13.8239295609977
30
0
41
1
10
-0.372316125402563
20
-13.8229457626001
30
0
41
1
10
-0.386037066972222
20
-13.821215643274
30
0
41
1
10
-0.393386043187945
20
-13.8207370125792
30
0
41
1
10
-0.399999999999977
20
-13.8205593061294
30
0
0
SPLINE
5
301
100
AcDbEntity
8
SK1
62
256
6
ByLayer
370
-1
48
1
60
0
100
AcDbSpline
70
4
71
3
72
22
73
18
40
0
40
0
40
0
40
0
40
0.0453538571579231
40
0.0453538571579231
40
0.0914518524267671
40
0.0914518524267671
40
0.124365048640693
40
0.124365048640693
40
0.157186848928651
40
0.157186848928651
40
0.206991933628443
40
0.206991933628443
40
0.302636793523901
40
0.302636793523901
40
0.633583445149988
40
0.633583445149988
40
1
40
1
40
1
40
1
41
1
10
-0.39999999999992
20
4.85227506835233
30
0
41
1
10
-0.420964880828194
20
4.87122754186862
30
0
41
1
10
-0.443888117925155
20
4.88887456363264
30
0
41
1
10
-0.494495022291232
20
4.91840151431526
30
0
41
1
10
-0.52299513623484
20
4.93045451470871
30
0
41
1
10
-0.574401278620769
20
4.94114219540694
30
0
41
1
10
-0.597076224252874
20
4.9426164760024
30
0
41
1
10
-0.641056311684338
20
4.93891494651641
30
0
41
1
10
-0.662845886446405
20
4.9337627063027
30
0
41
1
10
-0.71376347581031
20
4.91501929832424
30
0
41
1
10
-0.741856008482671
20
4.89837342492686
30
0
41
1
10
-0.814978349041667
20
4.84361103162897
30
0
41
1
10
-0.854317961498339
20
4.79908644376556
30
-1E-16
41
1
10
-1.00688542665307
20
4.59427172963152
30
-1E-16
41
1
10
-1.0791858799123
20
4.40986442942582
30
-1E-16
41
1
10
-1.21067514066448
20
4.01906025534171
30
-1E-16
41
1
10
-1.26311821358462
20
3.80583052169118
30
-1E-16
41
1
10
-1.30710678118919
20
3.58871725124908
30
-1E-16
0
SPLINE
5
302
100
AcDbEntity
8
SK1
62
256
6
ByLayer
370
-1
48
1
60
0
100
AcDbSpline
70
4
71
3
72
27
73
23
40
0
40
0
40
0
40
0
40
0.0433318476064785
40
0.0944051784877861
40
0.145478509369094
40
0.196551840250401
40
0.247625171131709
40
0.298698502013016
40
0.349771832894324
40
0.400845163775631
40
0.451918494656939
40
0.502991825538246
40
0.554065156419554
40
0.605138487300862
40
0.656211818182169
40
0.707285149063477
40
0.758358479944784
40
0.809431810826092
40
0.860505141707399
40
0.911578472588707
40
0.962651803470014
40
1
40
1
40
1
40
1
41
1
10
-0.39999999999992
20
-4.85227456455002
30
0
41
1
10
-0.39999999999992
20
-5.02226873502778
30
0
41
1
10
-0.39999999999992
20
-5.3995711445526
30
0
41
1
10
-0.39999999999992
20
-6.00058584498379
30
0
41
1
10
-0.39999999999992
20
-6.64985057156352
30
0
41
1
10
-0.39999999999992
20
-7.30846436616247
30
0
41
1
10
-0.39999999999992
20
-7.96888181888042
30
0
41
1
10
-0.39999999999992
20
-8.62318035716163
30
0
41
1
10
-0.39999999999992
20
-9.26332810646636
30
0
41
1
10
-0.39999999999992
20
-9.88144543350359
30
0
41
1
10
-0.39999999999992
20
-10.4700665265398
30
0
41
1
10
-0.39999999999992
20
-11.022373431452
30
0
41
1
10
-0.39999999999992
20
-11.5324122627522
30
0
41
1
10
-0.39999999999992
20
-11.9952648181666
30
0
41
1
10
-0.39999999999992
20
-12.4071875603976
30
0
41
1
10
-0.39999999999992
20
-12.7656956859389
30
0
41
1
10
-0.399999999999977
20
-13.0696050688166
30
0
41
1
10
-0.399999999999977
20
-13.3190172436223
30
0
41
1
10
-0.399999999999977
20
-13.5152595263794
30
0
41
1
10
-0.399999999999977
20
-13.6607746658667
30
0
41
1
10
-0.399999999999977
20
-13.7501737648384
30
0
41
1
10
-0.399999999999977
20
-13.7852935509646
30
0
41
1
10
-0.399999999999977
20
-13.7965925645609
30
0
0
SPLINE
5
303
100
AcDbEntity
8
SK1
62
256
6
ByLayer
370
-1
48
1
60
0
100
AcDbSpline
70
4
71
3
72
8
73
4
40
0
40
0
40
0
40
0
40
1
40
1
40
1
40
1
41
1
10
-1.30710678118652
20
-3.5887172715492
30
-1E-16
41
1
10
-1.37532422566159
20
-3.25201925983745
30
-1E-16
41
1
10
-1.44087263133542
20
-2.90701066801501
30
-1E-16
41
1
10
-1.49999999999989
20
-2.55452633951475
30
-1E-16
0
SPLINE
5
304
100
AcDbEntity
8
SK1
62
256
6
ByLayer
370
-1
48
1
60
0
100
AcDbSpline
70
4
71
3
72
24
73
20
40
0
40
0
40
0
40
0
40
0.0301438054682626
40
0.0301438054682626
40
0.0534484785704926
40
0.0534484785704926
40
0.0720095400082129
40
0.0720095400082129
40
0.0905695383101134
40
0.0905695383101134
40
0.116305960787128
40
0.116305960787128
40
0.162592546214773
40
0.162592546214773
40
0.309069601694218
40
0.309069601694218
40
0.921117608952043
40
0.921117608952043
40
1
40
1
40
1
40
1
41
1
10
-0.39999999999992
20
-4.85227456454996
30
0
41
1
10
-0.394020023648125
20
-4.84686859936412
30
0
41
1
10
-0.38745185957265
20
-4.84195482474243
30
0
41
1
10
-0.374634642632827
20
-4.83535851489759
30
0
41
1
10
-0.36852859233727
20
-4.8331693070069
30
0
41
1
10
-0.357122680087116
20
-4.83148108534394
30
0
41
1
10
-0.351799999816194
20
-4.83153855404609
30
0
41
1
10
-0.341483048247653
20
-4.83346410195867
30
0
41
1
10
-0.336373704588141
20
-4.83534876772512
30
0
41
1
10
-0.325154856426082
20
-4.84135562492241
30
0
41
1
10
-0.319215535802016
20
-4.84610423757906
30
0
41
1
10
-0.304561922415417
20
-4.86072267449359
30
0
41
1
10
-0.296947393086157
20
-4.87187082056749
30
0
41
1
10
-0.269928948964264
20
-4.91910282403435
30
0
41
1
10
-0.258077067230204
20
-4.95889086918967
30
0
41
1
10
-0.207846446885696
20
-5.16015067546422
30
0
41
1
10
-0.202576938682455
20
-5.32517565344045
30
0
41
1
10
-0.200133226173534
20
-5.50577396851835
30
0
41
1
10
-0.199999999999932
20
-5.52643078383124
30
0
41
1
10
-0.199999999999932
20
-5.54704286105715
30
0
0
SPLINE
5
305
100
AcDbEntity
8
SK1
62
256
6
ByLayer
370
-1
48
1
60
0
100
AcDbSpline
70
4
71
3
72
36
73
32
40
0
40
0
40
0
40
0
40
0.0609459679798364
40
0.0609459679798364
40
0.1323505729835
40
0.1323505729835
40
0.203732784323188
40
0.203732784323188
40
0.275101574809843
40
0.275101574809843
40
0.34646242496937
40
0.34646242496937
40
0.417819049792489
40
0.417819049792489
40
0.489174288114251
40
0.489174288114251
40
0.560530863047193
40
0.560530863047193
40
0.63189160775241
40
0.63189160775241
40
0.703260276788591
40
0.703260276788591
40
0.774642141230746
40
0.774642141230746
40
0.846046336363815
40
0.846046336363815
40
0.917489939234967
40
0.917489939234967
40
0.989010298502656
40
0.989010298502656
40
1
40
1
40
1
40
1
41
1
10
-1.69993712518539
20
-14.0200998908196
30
-1E-16
41
1
10
-1.69994579429311
20
-14.0197255439047
30
-1E-16
41
1
10
-1.69995293797183
20
-13.9984598300076
30
-1E-16
41
1
10
-1.699965968995
20
-13.912699878437
30
0
41
1
10
-1.69997144501832
20
-13.8412461697365
30
0
41
1
10
-1.69998026772578
20
-13.6540534429184
30
0
41
1
10
-1.69998362760805
20
-13.5381086536818
30
-1E-16
41
1
10
-1.69998893512076
20
-13.2660178923742
30
-1E-16
41
1
10
-1.69999089366297
20
-13.1096457528619
30
-1E-16
41
1
10
-1.69999393023608
20
-12.759718428774
30
-1E-16
41
1
10
-1.69999500206262
20
-12.5659031533754
30
-1E-16
41
1
10
-1.69999661222783
20
-12.1434156407086
30
-1E-16
41
1
10
-1.69999715099709
20
-11.9144442673658
30
-1E-16
41
1
10
-1.69999791606472
20
-11.4234052370848
30
-1E-16
41
1
10
-1.69999814136457
20
-11.1610105069826
30
-1E-16
41
1
10
-1.69999839419393
20
-10.6045273427662
30
-1E-16
41
1
10
-1.69999842180135
20
-10.310058909404
30
-1E-16
41
1
10
-1.69999829195729
20
-9.69048832766435
30
-1E-16
41
1
10
-1.69999813485146
20
-9.36495240576079
30
-1E-16
41
1
10
-1.69999754826785
20
-8.68408754721199
30
-1E-16
41
1
10
-1.69999711775762
20
-8.3282356479576
30
-1E-16
41
1
10
-1.69999578337627
20
-7.58734438932615
30
-1E-16
41
1
10
-1.69999487990981
20
-7.20167717645487
30
-1E-16
41
1
10
-1.69999225979791
20
-6.40163925188287
30
-1E-16
41
1
10
-1.69999054604449
20
-5.98644558449715
30
-1E-16
41
1
10
-1.6999858288633
20
-5.12780487492378
30
-1E-16
41
1
10
-1.69998281485044
20
-4.68321714982289
30
-1E-16
41
1
10
-1.69997494930925
20
-3.76648812038707
30
-1E-16
41
1
10
-1.69997003537304
20
-3.29259296387656
30
-1E-16
41
1
10
-1.69996330814757
20
-2.73138446680247
30
-1E-16
41
1
10
-1.69996239228777
20
-2.65618850451398
30
-1E-16
41
1
10
-1.6999614571626
20
-2.58068890323852
30
-1E-16
0
SPLINE
5
306
100
AcDbEntity
8
SK1
62
256
6
ByLayer
370
-1
48
1
60
0
100
AcDbSpline
70
4
71
3
72
33
73
29
40
0
40
0
40
0
40
0
40
0.0323906158149121
40
0.0724576812950114
40
0.112524746775111
40
0.15259181225521
40
0.192658877735309
40
0.232725943215409
40
0.272793008695508
40
0.312860074175607
40
0.352927139655706
40
0.392994205135806
40
0.433061270615905
40
0.473128336096004
40
0.513195401576104
40
0.553262467056203
40
0.593329532536302
40
0.633396598016401
40
0.673463663496501
40
0.7135307289766
40
0.753597794456699
40
0.793664859936798
40
0.833731925416898
40
0.873798990896997
40
0.913866056377096
40
0.953933121857196
40
0.994000187337295
40
1
40
1
40
1
40
1
41
1
10
-1.5
20
13.8245287693963
30
-1E-16
41
1
10
-1.5
20
13.8227801863936
30
-1E-16
41
1
10
-1.49999999999994
20
13.8105138115295
30
-1E-16
41
1
10
-1.49999999999994
20
13.7589702687857
30
-1E-16
41
1
10
-1.49999999999994
20
13.6607745146452
30
0
41
1
10
-1.49999999999994
20
13.5152595834079
30
0
41
1
10
-1.49999999999994
20
13.3190171661248
30
-1E-16
41
1
10
-1.49999999999994
20
13.0696050793313
30
-1E-16
41
1
10
-1.49999999999994
20
12.765695711353
30
-1E-16
41
1
10
-1.49999999999994
20
12.4071875173709
30
-1E-16
41
1
10
-1.49999999999994
20
11.9952649527342
30
-1E-16
41
1
10
-1.49999999999994
20
11.5324121673266
30
-1E-16
41
1
10
-1.49999999999994
20
11.0223736645665
30
-1E-16
41
1
10
-1.49999999999989
20
10.470066387995
30
-1E-16
41
1
10
-1.49999999999989
20
9.88144573908428
30
-1E-16
41
1
10
-1.49999999999989
20
9.26332794093628
30
-1E-16
41
1
10
-1.49999999999989
20
8.62318069742537
30
-1E-16
41
1
10
-1.49999999999989
20
7.96888164701966
30
-1E-16
41
1
10
-1.49999999999989
20
7.30846469728445
30
-1E-16
41
1
10
-1.49999999999989
20
6.64985041554638
30
-1E-16
41
1
10
-1.49999999999989
20
6.00058612356241
30
-1E-16
41
1
10
-1.49999999999989
20
5.36758867042255
30
-1E-16
41
1
10
-1.49999999999989
20
4.75691763797596
30
-1E-16
41
1
10
-1.49999999999989
20
4.17356939352865
30
-1E-16
41
1
10
-1.49999999999989
20
3.62131845460988
30
-1E-16
41
1
10
-1.49999999999989
20
3.10259083011954
30
-1E-16
41
1
10
-1.49999999999989
20
2.75563447873756
30
-1E-16
41
1
10
-1.49999999999989
20
2.57759088990096
30
-1E-16
41
1
10
-1.49999999999989
20
2.55452876952825
30
-1E-16
0
SPLINE
5
307
100
AcDbEntity
8
SK1
62
256
6
ByLayer
370
-1
48
1
60
0
100
AcDbSpline
70
4
71
3
72
10
73
6
40
0
40
0
40
0
40
0
40
0.5
40
0.5
40
1
40
1
40
1
40
1
41
1
10
-1.69996145737099
20
2.58069190327947
30
-1E-16
41
1
10
-1.83066345631863
20
1.75993459600485
30
-1E-16
41
1
10
-1.92828862479951
20
0.882205733470045
30
-1E-16
41
1
10
-1.92884980393791
20
-0.873906280567809
30
-1E-16
41
1
10
-1.83183274904314
20
-1.75257870763846
30
-1E-16
41
1
10
-1.69996145715965
20
-2.5806889032381
30
-1E-16
0
SPLINE
5
308
100
AcDbEntity
8
SK1
62
256
6
ByLayer
370
-1
48
1
60
0
100
AcDbSpline
70
4
71
3
72
32
73
28
40
0
40
0
40
0
40
0
40
0.343889632240037
40
0.343889632240037
40
0.424881203786091
40
0.424881203786091
40
0.45219319517405
40
0.45219319517405
40
0.473746524143709
40
0.473746524143709
40
0.495563509153789
40
0.495563509153789
40
0.504202913264278
40
0.504202913264278
40
0.510236809227349
40
0.510236809227349
40
0.516312447398371
40
0.516312447398371
40
0.523454548652051
40
0.523454548652051
40
0.535565299712341
40
0.535565299712341
40
0.57300444614615
40
0.57300444614615
40
0.744007987780293
40
0.744007987780293
40
1
40
1
40
1
40
1
41
1
10
-1.49999999999989
20
-2.55452633951475
30
-1E-16
41
1
10
-1.5208598537892
20
-2.43017154880397
30
-1E-16
41
1
10
-1.54277848657125
20
-2.30539150900933
30
-1E-16
41
1
10
-1.58054446546703
20
-2.15690281341079
30
-1E-16
41
1
10
-1.58828317908854
20
-2.12879825114811
30
-1E-16
41
1
10
-1.60072712650162
20
-2.09279395763306
30
-1E-16
41
1
10
-1.60406058795388
20
-2.08384105107302
30
-1E-16
41
1
10
-1.61062680538259
20
-2.06838289745696
30
-1E-16
41
1
10
-1.61373380991563
20
-2.06173130148738
30
-1E-16
41
1
10
-1.62074858386092
20
-2.04929690476194
30
-1E-16
41
1
10
-1.62469152135657
20
-2.04329967204669
30
-1E-16
41
1
10
-1.6314398383696
20
-2.03738508207587
30
-1E-16
41
1
10
-1.6335507648601
20
-2.03598317715259
30
-1E-16
41
1
10
-1.63737876424597
20
-2.03469617825761
30
-1E-16
41
1
10
-1.63905717359933
20
-2.03448731940549
30
-1E-16
41
1
10
-1.64239270814323
20
-2.0349385986527
30
-1E-16
41
1
10
-1.6440888940507
20
-2.03561765464858
30
-1E-16
41
1
10
-1.64749825596726
20
-2.03787010124455
30
-1E-16
41
1
10
-1.64921667651578
20
-2.03959185511141
30
-1E-16
41
1
10
-1.65333511326014
20
-2.04482054191681
30
-1E-16
41
1
10
-1.65549701098456
20
-2.04879885431208
30
-1E-16
41
1
10
-1.66311966371092
20
-2.06550748630016
30
-1E-16
41
1
10
-1.66673415611746
20
-2.07974527657228
30
-1E-16
41
1
10
-1.68385102741172
20
-2.1575921539345
30
-1E-16
41
1
10
-1.68804814437192
20
-2.22386329884722
30
-1E-16
41
1
10
-1.69782346255602
20
-2.3865563041347
30
-1E-16
41
1
10
-1.69965656225776
20
-2.48393126749517
30
-1E-16
41
1
10
-1.69996145716266
20
-2.58068890323847
30
-1E-16
0
SPLINE
5
309
100
AcDbEntity
8
SK1
62
256
6
ByLayer
370
-1
48
1
60
0
100
AcDbSpline
70
4
71
3
72
14
73
10
40
0
40
0
40
0
40
0
40
0.0065333169341047
40
0.0065333169341047
40
0.144202030141554
40
0.144202030141554
40
0.692111827492382
40
0.692111827492382
40
1
40
1
40
1
40
1
41
1
10
-1.65988907455841
20
13.6000638931071
30
-1E-16
41
1
10
-1.66028116531373
20
13.6007849117917
30
-1E-16
41
1
10
-1.66066127183058
20
13.6014976965583
30
-1E-16
41
1
10
-1.66876077054769
20
13.6169304791085
30
-1E-16
41
1
10
-1.67291602816357
20
13.6292362105215
30
-1E-16
41
1
10
-1.69081671913955
20
13.6869666460463
30
-1E-16
41
1
10
-1.69435307535019
20
13.7234530454499
30
-1E-16
41
1
10
-1.69876945362603
20
13.7776281868664
30
-1E-16
41
1
10
-1.69958314545909
20
13.7961831676943
30
-1E-16
41
1
10
-1.69987639962216
20
13.8139891097792
30
-1E-16
0
SPLINE
5
30A
100
AcDbEntity
8
SK1
62
256
6
ByLayer
370
-1
48
1
60
0
100
AcDbSpline
70
4
71
3
72
26
73
22
40
0
40
0
40
0
40
0
40
0.469785788569223
40
0.469785788569223
40
0.668418514928441
40
0.668418514928441
40
0.804692954578532
40
0.804692954578532
40
0.873184756231219
40
0.873184756231219
40
0.896859155065293
40
0.896859155065293
40
0.920924484951571
40
0.920924484951571
40
0.939434470473137
40
0.939434470473137
40
0.957835931594602
40
0.957835931594602
40
0.988578442147356
40
0.988578442147356
40
1
40
1
40
1
40
1
41
1
10
-0.199999999999932
20
5.54704287025544
30
0
41
1
10
-0.199999999999932
20
5.42431718290925
30
0
41
1
10
-0.203964578956231
20
5.29966999710626
30
0
41
1
10
-0.224282767013278
20
5.12103358120197
30
0
41
1
10
-0.232179309049343
20
5.06756976720519
30
0
41
1
10
-0.252704740622107
20
4.978190210186
30
0
41
1
10
-0.262871079026354
20
4.94160900373799
30
0
41
1
10
-0.286311952507617
20
4.88949466422366
30
0
41
1
10
-0.295652382926335
20
4.87213340280371
30
0
41
1
10
-0.312747464259928
20
4.85229180429835
30
0
41
1
10
-0.317656735592436
20
4.84745945050676
30
0
41
1
10
-0.328573296848788
20
4.83925806030632
30
0
41
1
10
-0.334764979883005
20
4.83584014543155
30
0
41
1
10
-0.346232005513514
20
4.8322957525329
30
0
41
1
10
-0.35150620542197
20
4.83157582806544
30
0
41
1
10
-0.361702396533531
20
4.83188756629812
30
0
41
1
10
-0.366737314583702
20
4.83289323712492
30
0
41
1
10
-0.37930147980228
20
4.83714877172162
30
0
41
1
10
-0.386503100688515
20
4.84144785455825
30
0
41
1
10
-0.395398036299696
20
4.84826453743355
30
0
41
1
10
-0.397738018100881
20
4.85023021284434
30
0
41
1
10
-0.39999999999992
20
4.85227506835233
30
0
0
SPLINE
5
30B
100
AcDbEntity
8
1
62
256
6
ByLayer
370
-1
48
1
60
0
100
AcDbSpline
70
4
71
3
72
8
73
4
40
0
40
0
40
0
40
0
40
1
40
1
40
1
40
1
41
1
10
49.7234048613079
20
18.5797101033905
30
0
41
1
10
49.7231140747279
20
18.5762964990069
30
0
41
1
10
49.722824002392
20
18.5728810884521
30
0
41
1
10
49.7225346472532
20
18.5694638756112
30
0
0
SPLINE
5
30C
100
AcDbEntity
8
1
62
256
6
ByLayer
370
-1
48
1
60
0
100
AcDbSpline
70
4
71
3
72
12
73
8
40
0
40
0
40
0
40
0
40
0.256234765497259
40
0.256234765497259
40
0.512469530995071
40
0.512469530995071
40
1
40
1
40
1
40
1
41
1
10
49.9730973892652
20
18.8492568231246
30
0
41
1
10
49.9523341289257
20
18.8486367022819
30
0
41
1
10
49.9315708812147
20
18.848016576571
30
0
41
1
10
49.890044416479
20
18.8467762921273
30
0
41
1
10
49.869281199151
20
18.8461561384103
30
0
41
1
10
49.8090124560453
20
18.8443560005346
30
0
41
1
10
49.7695069726334
20
18.8431759839959
30
0
41
1
10
49.7300015484097
20
18.8419959222247
30
0
0
SPLINE
5
30D
100
AcDbEntity
8
1
62
256
6
ByLayer
370
-1
48
1
60
0
100
AcDbSpline
70
4
71
3
72
8
73
4
40
0
40
0
40
0
40
0
40
1
40
1
40
1
40
1
41
1
10
49.730001214928
20
18.841836963123
30
0
41
1
10
49.7276721700899
20
18.7544602925879
30
0
41
1
10
49.725473390026
20
18.6670844750695
30
0
41
1
10
49.7234048613079
20
18.5797101033906
30
0
0
SPLINE
5
30E
100
AcDbEntity
8
1
62
256
6
ByLayer
370
-1
48
1
60
0
100
AcDbSpline
70
4
71
1
72
4
73
2
40
0
40
0
40
1
40
1
41
1
10
49.7225356576762
20
18.5694241433943
30
0
41
1
10
49.7232164554928
20
18.5426535682623
30
0
0
SPLINE
5
30F
100
AcDbEntity
8
1
62
256
6
ByLayer
370
-1
48
1
60
0
100
AcDbSpline
70
4
71
3
72
16
73
12
40
0
40
0
40
0
40
0
40
0.242357006778996
40
0.242357006778996
40
0.484784571203344
40
0.484784571203344
40
0.727217194262379
40
0.727217194262379
40
0.969649409280338
40
0.969649409280338
40
1
40
1
40
1
40
1
41
1
10
57.8914777234875
20
20.9513601093963
30
0
41
1
10
58.0027070675816
20
20.9509615143307
30
0
41
1
10
58.1153895888169
20
20.9313599546252
30
0
41
1
10
58.3250382110321
20
20.8569489904042
30
0
41
1
10
58.4248902985524
20
20.8011119880858
30
0
41
1
10
58.5980882438483
20
20.6614333354574
30
0
41
1
10
58.6738241007797
20
20.5756677855565
30
0
41
1
10
58.7910108808563
20
20.3864771017101
30
0
41
1
10
58.8340752655483
20
20.2804435792007
30
0
41
1
10
58.8610996701851
20
20.1579589333032
30
0
41
1
10
58.8638508664781
20
20.1440914018664
30
0
41
1
10
58.86630491305
20
20.1301745034182
30
0
0
SPLINE
5
310
100
AcDbEntity
8
1
62
256
6
ByLayer
370
-1
48
1
60
0
100
AcDbSpline
70
4
71
3
72
16
73
12
40
0
40
0
40
0
40
0
40
0.242357006778995
40
0.242357006778995
40
0.484784571203339
40
0.484784571203339
40
0.727217194262385
40
0.727217194262385
40
0.969649409280335
40
0.969649409280335
40
1
40
1
40
1
40
1
41
1
10
59.9949084012743
20
12.7874356802738
30
0
41
1
10
59.9944427466456
20
12.6761553763476
30
0
41
1
10
59.97478058549
20
12.5634090545321
30
0
41
1
10
59.9002767107874
20
12.3536194525487
30
0
41
1
10
59.8444036490567
20
12.253687417302
30
0
41
1
10
59.704683876105
20
12.0803253303201
30
0
41
1
10
59.6189109499332
20
12.0045024333724
30
0
41
1
10
59.4297356697188
20
11.8871469027068
30
0
41
1
10
59.3237249959636
20
11.8439984334931
30
0
41
1
10
59.2012792339463
20
11.8168868428356
30
0
41
1
10
59.1874162898695
20
11.8141259156217
30
0
41
1
10
59.1735041868686
20
11.8116622455148
30
0
0
SPLINE
5
311
100
AcDbEntity
8
1
62
256
6
ByLayer
370
-1
48
1
60
0
100
AcDbSpline
70
4
71
3
72
14
73
10
40
0
40
0
40
0
40
0
40
0.245608019549644
40
0.245608019549644
40
0.497072013033096
40
0.497072013033096
40
0.748536006516548
40
0.748536006516548
40
1
40
1
40
1
40
1
41
1
10
59.7488004787747
20
12.7816784456469
30
0
41
1
10
59.7478079707336
20
12.691509125456
30
0
41
1
10
59.7346244004127
20
12.6198866974631
30
0
41
1
10
59.670347364118
20
12.4450922874375
30
0
41
1
10
59.63320876484
20
12.3809295114993
30
0
41
1
10
59.5118000174185
20
12.2368374711629
30
0
41
1
10
59.4550224850801
20
12.1891808317592
30
0
41
1
10
59.2919132800324
20
12.0951923877776
30
0
41
1
10
59.2221658798755
20
12.0697878751803
30
0
41
1
10
59.1293861238763
20
12.0533073128636
30
0
0
SPLINE
5
312
100
AcDbEntity
8
1
62
256
6
ByLayer
370
-1
48
1
60
0
100
AcDbSpline
70
4
71
2
72
6
73
3
40
0
40
0
40
0
40
1
40
1
40
1
41
1
10
57.1105309688239
20
20.9565357790359
30
0
41
1
10
56.9406928953248
20
20.9555277432593
30
0
41
1
10
56.7734264354172
20
20.9259552168571
30
0
0
LINE
5
57
100
AcDbEntity
8
1
62
256
6
ByLayer
370
-1
48
1
60
0
100
AcDbLine
10
50.616734
20
4.267918
30
0
11
50.298253
21
3.179218
31
0
39
0
210
0
220
0
230
1
0
LINE
5
59
100
AcDbEntity
8
80
62
256
6
ByLayer
370
-1
48
1
60
0
100
AcDbLine
10
0
20
0
30
0
11
-10
21
0
31
0
39
0
210
0
220
0
230
1
0
LINE
5
5A
100
AcDbEntity
8
1
62
256
6
ByLayer
370
-1
48
1
60
0
100
AcDbLine
10
59.625915
20
2.779335
30
0
11
59.384363
21
3.905456
31
0
39
0
210
0
220
0
230
1
0
LINE
5
5B
100
AcDbEntity
8
1
62
256
6
ByLayer
370
-1
48
1
60
0
100
AcDbLine
10
26.711356
20
18.520856
30
0
11
20.538688
21
18.041807
31
0
39
0
210
0
220
0
230
1
0
LINE
5
5C
100
AcDbEntity
8
1
62
256
6
ByLayer
370
-1
48
1
60
0
100
AcDbLine
10
20.538688
20
-18.041807
30
0
11
26.711356
21
-18.520856
31
0
39
0
210
0
220
0
230
1
0
LINE
5
5D
100
AcDbEntity
8
1
62
256
6
ByLayer
370
-1
48
1
60
0
100
AcDbLine
10
19.5
20
20
30
0
11
0.3
21
20
31
0
39
0
210
0
220
0
230
1
0
LINE
5
5E
100
AcDbEntity
8
1
62
256
6
ByLayer
370
-1
48
1
60
0
100
AcDbLine
10
0.3
20
-20
30
0
11
19.5
21
-20
31
0
39
0
210
0
220
0
230
1
0
LINE
5
5F
100
AcDbEntity
8
1
62
256
6
ByLayer
370
-1
48
1
60
0
100
AcDbLine
10
19.5
20
-20
30
0
11
20
21
-19.5
31
0
39
0
210
0
220
0
230
1
0
LINE
5
60
100
AcDbEntity
8
1
62
256
6
ByLayer
370
-1
48
1
60
0
100
AcDbLine
10
20
20
19.5
30
0
11
19.5
21
20
31
0
39
0
210
0
220
0
230
1
0
LINE
5
61
100
AcDbEntity
8
1
62
256
6
ByLayer
370
-1
48
1
60
0
100
AcDbLine
10
0.3
20
20
30
0
11
0
21
19.7
31
0
39
0
210
0
220
0
230
1
0
LINE
5
62
100
AcDbEntity
8
1
62
256
6
ByLayer
370
-1
48
1
60
0
100
AcDbLine
10
0
20
-19.7
30
0
11
0.3
21
-20
31
0
39
0
210
0
220
0
230
1
0
LINE
5
63
100
AcDbEntity
8
1
62
256
6
ByLayer
370
-1
48
1
60
0
100
AcDbLine
10
54.238372
20
-13.89075
30
0
11
54.098774
21
-13.960517
31
0
39
0
210
0
220
0
230
1
0
LINE
5
64
100
AcDbEntity
8
1
62
256
6
ByLayer
370
-1
48
1
60
0
100
AcDbLine
10
52.138014
20
0.196392
30
0
11
52.137503
21
0.181763
31
0
39
0
210
0
220
0
230
1
0
LINE
5
65
100
AcDbEntity
8
1
62
256
6
ByLayer
370
-1
48
1
60
0
100
AcDbLine
10
57.584182
20
-0.008469
30
0
11
57.584693
21
0.006161
31
0
39
0
210
0
220
0
230
1
0
LINE
5
66
100
AcDbEntity
8
1
62
256
6
ByLayer
370
-1
48
1
60
0
100
AcDbLine
10
59.384363
20
-3.905456
30
0
11
59.625915
21
-2.779335
31
0
39
0
210
0
220
0
230
1
0
LINE
5
67
100
AcDbEntity
8
1
62
256
6
ByLayer
370
-1
48
1
60
0
100
AcDbLine
10
54.561903
20
14.630395
30
0
11
54.521292
21
14.650691
31
0
39
0
210
0
220
0
230
1
0
LINE
5
68
100
AcDbEntity
8
1
62
256
6
ByLayer
370
-1
48
1
60
0
100
AcDbLine
10
55.196558
20
16.982267
30
0
11
55.237134
21
16.961988
31
0
39
0
210
0
220
0
230
1
0
LINE
5
69
100
AcDbEntity
8
1
62
256
6
ByLayer
370
-1
48
1
60
0
100
AcDbLine
10
56.113368
20
18.235909
30
0
11
56.079054
21
18.253058
31
0
39
0
210
0
220
0
230
1
0
LINE
5
6A
100
AcDbEntity
8
1
62
256
6
ByLayer
370
-1
48
1
60
0
100
AcDbLine
10
53.642631
20
13.377984
30
0
11
53.676945
21
13.360835
31
0
39
0
210
0
220
0
230
1
0
LINE
5
6B
100
AcDbEntity
8
81
62
256
6
ByLayer
370
-1
48
1
60
0
100
AcDbLine
10
55
20
20.96
30
0
11
65
21
20.96
31
0
39
0
210
0
220
0
230
1
0
LINE
5
6C
100
AcDbEntity
8
4
62
256
6
ByLayer
370
-1
48
0.05
60
0
100
AcDbLine
10
50.550519
20
19.822969
30
0
11
50.59238
21
19.577603
31
0
39
0
210
0
220
0
230
1
0
LINE
5
6D
100
AcDbEntity
8
4
62
256
6
ByLayer
370
-1
48
0.05
60
0
100
AcDbLine
10
50.59238
20
19.577603
30
0
11
50.54898
21
19.823738
31
0
39
0
210
0
220
0
230
1
0
LINE
5
6E
100
AcDbEntity
8
4
62
256
6
ByLayer
370
-1
48
0.05
60
0
100
AcDbLine
10
50.54898
20
19.823738
30
0
11
50.550519
21
19.822969
31
0
39
0
210
0
220
0
230
1
0
LINE
5
6F
100
AcDbEntity
8
4
62
256
6
ByLayer
370
-1
48
0.05
60
0
100
AcDbLine
10
49.973047
20
18.842775
30
0
11
49.724738
21
18.841839
31
0
39
0
210
0
220
0
230
1
0
LINE
5
70
100
AcDbEntity
8
4
62
256
6
ByLayer
370
-1
48
0.05
60
0
100
AcDbLine
10
49.724738
20
18.841839
30
0
11
49.723199
21
18.842608
31
0
39
0
210
0
220
0
230
1
0
LINE
5
71
100
AcDbEntity
8
4
62
256
6
ByLayer
370
-1
48
0.05
60
0
100
AcDbLine
10
49.723199
20
18.842608
30
0
11
49.973047
21
18.842775
31
0
39
0
210
0
220
0
230
1
0
LINE
5
72
100
AcDbEntity
8
4
62
256
6
ByLayer
370
-1
48
0.05
60
0
100
AcDbLine
10
50.844239
20
19.876022
30
0
11
50.550519
21
19.822969
31
0
39
0
210
0
220
0
230
1
0
LINE
5
73
100
AcDbEntity
8
4
62
256
6
ByLayer
370
-1
48
0.05
60
0
100
AcDbLine
10
49.724738
20
18.841839
30
0
11
49.723216
21
18.542654
31
0
39
0
210
0
220
0
230
1
0
LINE
5
74
100
AcDbEntity
8
1
62
256
6
ByLayer
370
-1
48
1
60
0
100
AcDbLine
10
50.171049
20
2.681311
30
0
11
50.170617
21
2.67928
31
0
39
0
210
0
220
0
230
1
0
LINE
5
75
100
AcDbEntity
8
1
62
256
6
ByLayer
370
-1
48
1
60
0
100
AcDbLine
10
59.744975
20
-0.135102
30
0
11
59.753332
21
-0.133931
31
0
39
0
210
0
220
0
230
1
0
LINE
5
76
100
AcDbEntity
8
1
62
256
6
ByLayer
370
-1
48
1
60
0
100
AcDbLine
10
58.292731
20
-19.214392
30
0
11
58.292731
21
-18.465467
31
0
39
0
210
0
220
0
230
1
0
LINE
5
77
100
AcDbEntity
8
1
62
256
6
ByLayer
370
-1
48
1
60
0
100
AcDbLine
10
59.331134
20
5.381178
30
0
11
59.338024
21
5.381095
31
0
39
0
210
0
220
0
230
1
0
LINE
5
78
100
AcDbEntity
8
1
62
256
6
ByLayer
370
-1
48
1
60
0
100
AcDbLine
10
9.076795
20
-19.122283
30
0
11
9.076795
21
-5.85989
31
0
39
0
210
0
220
0
230
1
0
LINE
5
79
100
AcDbEntity
8
1
62
256
6
ByLayer
370
-1
48
1
60
0
100
AcDbLine
10
59.011542
20
-5.173626
30
0
11
59.011542
21
-7.06727
31
0
39
0
210
0
220
0
230
1
0
LINE
5
7A
100
AcDbEntity
8
1
62
256
6
ByLayer
370
-1
48
1
60
0
100
AcDbLine
10
49.783264
20
0.701122
30
0
11
49.506637
21
0.738526
31
0
39
0
210
0
220
0
230
1
0
LINE
5
7B
100
AcDbEntity
8
1
62
256
6
ByLayer
370
-1
48
1
60
0
100
AcDbLine
10
57.143595
20
-16.772212
30
0
11
57.143595
21
-20.028848
31
0
39
0
210
0
220
0
230
1
0
LINE
5
7C
100
AcDbEntity
8
1
62
256
6
ByLayer
370
-1
48
1
60
0
100
AcDbLine
10
9.336603
20
-19.024574
30
0
11
9.336603
21
-6.16973
31
0
39
0
210
0
220
0
230
1
0
LINE
5
7D
100
AcDbEntity
8
1
62
256
6
ByLayer
370
-1
48
1
60
0
100
AcDbLine
10
58.478132
20
-8.402582
30
0
11
58.478132
21
-4.692966
31
0
39
0
210
0
220
0
230
1
0
LINE
5
7E
100
AcDbEntity
8
1
62
256
6
ByLayer
370
-1
48
1
60
0
100
AcDbLine
10
6.923205
20
19.122283
30
0
11
9.076795
21
19.122283
31
0
39
0
210
0
220
0
230
1
0
LINE
5
7F
100
AcDbEntity
8
1
62
256
6
ByLayer
370
-1
48
1
60
0
100
AcDbLine
10
9.336603
20
6.16973
30
0
11
9.336603
21
19.024574
31
0
39
0
210
0
220
0
230
1
0
LINE
5
80
100
AcDbEntity
8
1
62
256
6
ByLayer
370
-1
48
1
60
0
100
AcDbLine
10
58.478132
20
9.156908
30
0
11
58.478132
21
11.464182
31
0
39
0
210
0
220
0
230
1
0
LINE
5
81
100
AcDbEntity
8
1
62
256
6
ByLayer
370
-1
48
1
60
0
100
AcDbLine
10
53.62627
20
-5.923554
30
0
11
57.760344
21
-6.055163
31
0
39
0
210
0
220
0
230
1
0
LINE
5
82
100
AcDbEntity
8
1
62
256
6
ByLayer
370
-1
48
1
60
0
100
AcDbLine
10
51.467418
20
-19.018766
30
0
11
51.467418
21
-14.596068
31
0
39
0
210
0
220
0
230
1
0
LINE
5
83
100
AcDbEntity
8
1
62
256
6
ByLayer
370
-1
48
1
60
0
100
AcDbLine
10
36.872837
20
14.392264
30
0
11
36.872837
21
1.178608
31
0
39
0
210
0
220
0
230
1
0
LINE
5
84
100
AcDbEntity
8
1
62
256
6
ByLayer
370
-1
48
1
60
0
100
AcDbLine
10
58.139355
20
11.11445
30
0
11
58.139355
21
10.382821
31
0
39
0
210
0
220
0
230
1
0
LINE
5
85
100
AcDbEntity
8
1
62
256
6
ByLayer
370
-1
48
1
60
0
100
AcDbLine
10
6.923205
20
-5.85989
30
0
11
9.076795
21
-5.85989
31
0
39
0
210
0
220
0
230
1
0
LINE
5
86
100
AcDbEntity
8
1
62
256
6
ByLayer
370
-1
48
1
60
0
100
AcDbLine
10
20.538688
20
-18.041807
30
0
11
20.538688
21
18.041807
31
0
39
0
210
0
220
0
230
1
0
LINE
5
87
100
AcDbEntity
8
1
62
256
6
ByLayer
370
-1
48
1
60
0
100
AcDbLine
10
9.076795
20
-19.122283
30
0
11
6.923205
21
-19.122283
31
0
39
0
210
0
220
0
230
1
0
LINE
5
88
100
AcDbEntity
8
1
62
256
6
ByLayer
370
-1
48
1
60
0
100
AcDbLine
10
6.663397
20
6.16973
30
0
11
6.663397
21
19.024574
31
0
39
0
210
0
220
0
230
1
0
LINE
5
89
100
AcDbEntity
8
1
62
256
6
ByLayer
370
-1
48
1
60
0
100
AcDbLine
10
58.139355
20
-3.958426
30
0
11
58.139355
21
-7.787622
31
0
39
0
210
0
220
0
230
1
0
LINE
5
8A
100
AcDbEntity
8
1
62
256
6
ByLayer
370
-1
48
1
60
0
100
AcDbLine
10
9.076795
20
5.85989
30
0
11
6.923205
21
5.85989
31
0
39
0
210
0
220
0
230
1
0
LINE
5
8B
100
AcDbEntity
8
1
62
256
6
ByLayer
370
-1
48
1
60
0
100
AcDbLine
10
51.467418
20
4.267173
30
0
11
51.467418
21
12.91809
31
0
39
0
210
0
220
0
230
1
0
LINE
5
8C
100
AcDbEntity
8
1
62
256
6
ByLayer
370
-1
48
1
60
0
100
AcDbLine
10
50.009499
20
4.31548
30
0
11
50.607216
21
4.235435
31
0
39
0
210
0
220
0
230
1
0
LINE
5
8D
100
AcDbEntity
8
1
62
256
6
ByLayer
370
-1
48
1
60
0
100
AcDbLine
10
52.23831
20
-14.643613
30
0
11
53.62627
21
-5.923554
31
0
39
0
210
0
220
0
230
1
0
LINE
5
8E
100
AcDbEntity
8
1
62
256
6
ByLayer
370
-1
48
1
60
0
100
AcDbLine
10
9.076795
20
5.85989
30
0
11
9.076795
21
19.122283
31
0
39
0
210
0
220
0
230
1
0
LINE
5
8F
100
AcDbEntity
8
1
62
256
6
ByLayer
370
-1
48
1
60
0
100
AcDbLine
10
52.927928
20
12.861262
30
0
11
52.799945
21
9.196878
31
0
39
0
210
0
220
0
230
1
0
LINE
5
90
100
AcDbEntity
8
1
62
256
6
ByLayer
370
-1
48
1
60
0
100
AcDbLine
10
58.139355
20
-1.081552
30
0
11
58.139355
21
-1.579104
31
0
39
0
210
0
220
0
230
1
0
LINE
5
91
100
AcDbEntity
8
1
62
256
6
ByLayer
370
-1
48
1
60
0
100
AcDbLine
10
49.816884
20
-14.560843
30
0
11
49.816884
21
-19.232163
31
0
39
0
210
0
220
0
230
1
0
LINE
5
92
100
AcDbEntity
8
1
62
256
6
ByLayer
370
-1
48
1
60
0
100
AcDbLine
10
58.292731
20
4.032206
30
0
11
58.292731
21
6.66919
31
0
39
0
210
0
220
0
230
1
0
LINE
5
93
100
AcDbEntity
8
1
62
256
6
ByLayer
370
-1
48
1
60
0
100
AcDbLine
10
57.352569
20
-15.756287
30
0
11
57.227369
21
-15.818858
31
0
39
0
210
0
220
0
230
1
0
LINE
5
94
100
AcDbEntity
8
1
62
256
6
ByLayer
370
-1
48
1
60
0
100
AcDbLine
10
49.747203
20
17.958159
30
0
11
49.506637
21
19.340345
31
0
39
0
210
0
220
0
230
1
0
LINE
5
95
100
AcDbEntity
8
1
62
256
6
ByLayer
370
-1
48
1
60
0
100
AcDbLine
10
50.134291
20
2.509205
30
0
11
49.895678
21
2.522968
31
0
39
0
210
0
220
0
230
1
0
LINE
5
96
100
AcDbEntity
8
1
62
256
6
ByLayer
370
-1
48
1
60
0
100
AcDbLine
10
49.816884
20
12.750539
30
0
11
49.816884
21
2.172158
31
0
39
0
210
0
220
0
230
1
0
LINE
5
97
100
AcDbEntity
8
1
62
256
6
ByLayer
370
-1
48
1
60
0
100
AcDbLine
10
0
20
-19.7
30
0
11
0
21
19.7
31
0
39
0
210
0
220
0
230
1
0
LINE
5
98
100
AcDbEntity
8
1
62
256
6
ByLayer
370
-1
48
1
60
0
100
AcDbLine
10
6.923205
20
-19.122283
30
0
11
6.923205
21
-5.85989
31
0
39
0
210
0
220
0
230
1
0
LINE
5
99
100
AcDbEntity
8
1
62
256
6
ByLayer
370
-1
48
1
60
0
100
AcDbLine
10
58.224535
20
-3.938816
30
0
11
58.143697
21
-3.94139
31
0
39
0
210
0
220
0
230
1
0
LINE
5
9A
100
AcDbEntity
8
1
62
256
6
ByLayer
370
-1
48
1
60
0
100
AcDbLine
10
6.923205
20
5.85989
30
0
11
6.923205
21
19.122283
31
0
39
0
210
0
220
0
230
1
0
LINE
5
9B
100
AcDbEntity
8
1
62
256
6
ByLayer
370
-1
48
1
60
0
100
AcDbLine
10
57.143595
20
11.685358
30
0
11
57.143595
21
4.086558
31
0
39
0
210
0
220
0
230
1
0
LINE
5
9C
100
AcDbEntity
8
1
62
256
6
ByLayer
370
-1
48
1
60
0
100
AcDbLine
10
6.663397
20
-19.024574
30
0
11
6.663397
21
-6.16973
31
0
39
0
210
0
220
0
230
1
0
LINE
5
9D
100
AcDbEntity
8
1
62
256
6
ByLayer
370
-1
48
1
60
0
100
AcDbLine
10
59.011542
20
11.750358
30
0
11
59.011542
21
10.718722
31
0
39
0
210
0
220
0
230
1
0
LINE
5
9E
100
AcDbEntity
8
1
62
256
6
ByLayer
370
-1
48
1
60
0
100
AcDbLine
10
38.033471
20
1.138899
30
0
11
38.033471
21
14.099415
31
0
39
0
210
0
220
0
230
1
0
LINE
5
9F
100
AcDbEntity
8
1
62
256
6
ByLayer
370
-1
48
1
60
0
100
AcDbLine
10
36.872837
20
-12.873166
30
0
11
36.872837
21
-19.273468
31
0
39
0
210
0
220
0
230
1
0
LINE
5
A0
100
AcDbEntity
8
1
62
256
6
ByLayer
370
-1
48
1
60
0
100
AcDbLine
10
38.033471
20
-19.320903
30
0
11
38.033471
21
-13.258993
31
0
39
0
210
0
220
0
230
1
0
LINE
5
A1
100
AcDbEntity
8
1
62
256
6
ByLayer
370
-1
48
1
60
0
100
AcDbLine
10
19.5
20
20
30
0
11
19.5
21
-20
31
0
39
0
210
0
220
0
230
1
0
LINE
5
A2
100
AcDbEntity
8
1
62
256
6
ByLayer
370
-1
48
1
60
0
100
AcDbLine
10
20
20
19.5
30
0
11
20
21
-19.5
31
0
39
0
210
0
220
0
230
1
0
LINE
5
A3
100
AcDbEntity
8
1
62
256
6
ByLayer
370
-1
48
1
60
0
100
AcDbLine
10
57.227369
20
-15.818858
30
0
11
56.798018
21
-18.253833
31
0
39
0
210
0
220
0
230
1
0
LINE
5
A4
100
AcDbEntity
8
1
62
256
6
ByLayer
370
-1
48
1
60
0
100
AcDbLine
10
0.3
20
-20
30
0
11
0.3
21
20
31
0
39
0
210
0
220
0
230
1
0
LINE
5
A5
100
AcDbEntity
8
1
62
256
6
ByLayer
370
-1
48
1
60
0
100
AcDbLine
10
58.62399
20
20.08815
30
0
11
58.624098
21
20.088169
31
0
39
0
210
0
220
0
230
1
0
LINE
5
A6
100
AcDbEntity
8
1
62
256
6
ByLayer
370
-1
48
1
60
0
100
AcDbLine
10
49.753962
20
17.725707
30
0
11
50.621797
21
12.803966
31
0
39
0
210
0
220
0
230
1
0
LINE
5
A7
100
AcDbEntity
8
1
62
256
6
ByLayer
370
-1
48
1
60
0
100
AcDbLine
10
56.773426
20
20.925955
30
0
11
50.844239
21
19.876022
31
0
39
0
210
0
220
0
230
1
0
LINE
5
A8
100
AcDbEntity
8
1
62
256
6
ByLayer
370
-1
48
1
60
0
100
AcDbLine
10
59.129405
20
12.053199
30
0
11
58.877659
21
11.754913
31
0
39
0
210
0
220
0
230
1
0
LINE
5
A9
100
AcDbEntity
8
1
62
256
6
ByLayer
370
-1
48
1
60
0
100
AcDbLine
10
59.173501
20
11.811662
30
0
11
59.129405
21
12.053199
31
0
39
0
210
0
220
0
230
1
0
LINE
5
AA
100
AcDbEntity
8
1
62
256
6
ByLayer
370
-1
48
1
60
0
100
AcDbLine
10
58.866305
20
20.130175
30
0
11
58.922095
21
19.836489
31
0
39
0
210
0
220
0
230
1
0
LINE
5
AB
100
AcDbEntity
8
1
62
256
6
ByLayer
370
-1
48
1
60
0
100
AcDbLine
10
58.624098
20
20.088169
30
0
11
58.922095
21
19.836489
31
0
39
0
210
0
220
0
230
1
0
LINE
5
AC
100
AcDbEntity
8
1
62
256
6
ByLayer
370
-1
48
1
60
0
100
AcDbLine
10
59.173504
20
11.811662
30
0
11
58.877659
21
11.754913
31
0
39
0
210
0
220
0
230
1
0
LINE
5
AD
100
AcDbEntity
8
1
62
256
6
ByLayer
370
-1
48
1
60
0
100
AcDbLine
10
58.866305
20
20.130172
30
0
11
58.624098
21
20.088169
31
0
39
0
210
0
220
0
230
1
0
LINE
5
AE
100
AcDbEntity
8
1
62
256
6
ByLayer
370
-1
48
1
60
0
100
AcDbLine
10
57.590018
20
20.957212
30
0
11
57.89633
21
20.702053
31
0
39
0
210
0
220
0
230
1
0
LINE
5
AF
100
AcDbEntity
8
1
62
256
6
ByLayer
370
-1
48
1
60
0
100
AcDbLine
10
57.89633
20
20.702053
30
0
11
57.896329
21
20.707404
31
0
39
0
210
0
220
0
230
1
0
LINE
5
B0
100
AcDbEntity
8
1
62
256
6
ByLayer
370
-1
48
1
60
0
100
AcDbLine
10
59.994907
20
12.787436
30
0
11
59.994906
21
12.787571
31
0
39
0
210
0
220
0
230
1
0
LINE
5
B1
100
AcDbEntity
8
1
62
256
6
ByLayer
370
-1
48
1
60
0
100
AcDbLine
10
59.998874
20
13.051035
30
0
11
59.998681
21
13.088282
31
0
39
0
210
0
220
0
230
1
0
LINE
5
B2
100
AcDbEntity
8
1
62
256
6
ByLayer
370
-1
48
1
60
0
100
AcDbLine
10
57.627344
20
20.957142
30
0
11
57.590018
21
20.957212
31
0
39
0
210
0
220
0
230
1
0
LINE
5
B3
100
AcDbEntity
8
1
62
256
6
ByLayer
370
-1
48
1
60
0
100
AcDbLine
10
57.891478
20
20.951357
30
0
11
57.891343
21
20.951358
31
0
39
0
210
0
220
0
230
1
0
LINE
5
B4
100
AcDbEntity
8
1
62
256
6
ByLayer
370
-1
48
1
60
0
100
AcDbLine
10
59.998681
20
13.088282
30
0
11
59.743452
21
12.781675
31
0
39
0
210
0
220
0
230
1
0
LINE
5
B5
100
AcDbEntity
8
1
62
256
6
ByLayer
370
-1
48
1
60
0
100
AcDbLine
10
59.743452
20
12.781675
30
0
11
59.994906
21
12.787436
31
0
39
0
210
0
220
0
230
1
0
LINE
5
B6
100
AcDbEntity
8
1
62
256
6
ByLayer
370
-1
48
1
60
0
100
AcDbLine
10
57.89633
20
20.702053
30
0
11
57.891478
21
20.951357
31
0
39
0
210
0
220
0
230
1
0
LINE
5
B7
100
AcDbEntity
8
1
62
256
6
ByLayer
370
-1
48
1
60
0
100
AcDbLine
10
59.743452
20
12.781675
30
0
11
59.7488
21
12.781678
31
0
39
0
210
0
220
0
230
1
0
LINE
5
B8
100
AcDbEntity
8
1
62
256
6
ByLayer
370
-1
48
1
60
0
100
AcDbLine
10
50.592512
20
19.577628
30
0
11
50.592493
21
19.577736
31
0
39
0
210
0
220
0
230
1
0
LINE
5
B9
100
AcDbEntity
8
1
62
256
6
ByLayer
370
-1
48
1
60
0
100
AcDbLine
10
49.723405
20
18.57971
30
0
11
49.723216
21
18.542654
31
0
39
0
210
0
220
0
230
1
0
LINE
5
BA
100
AcDbEntity
8
1
62
256
6
ByLayer
370
-1
48
1
60
0
100
AcDbLine
10
50.551409
20
19.817768
30
0
11
50.592493
21
19.577736
31
0
39
0
210
0
220
0
230
1
0
LINE
5
BB
100
AcDbEntity
8
1
62
256
6
ByLayer
370
-1
48
1
60
0
100
AcDbLine
10
50.551407
20
19.817767
30
0
11
50.844239
21
19.876022
31
0
39
0
210
0
220
0
230
1
0
LINE
5
BC
100
AcDbEntity
8
1
62
256
6
ByLayer
370
-1
48
1
60
0
100
AcDbLine
10
50.592493
20
19.577736
30
0
11
50.844239
21
19.876022
31
0
39
0
210
0
220
0
230
1
0
LINE
5
BD
100
AcDbEntity
8
1
62
256
6
ByLayer
370
-1
48
1
60
0
100
AcDbLine
10
59.994907
20
0.099257
30
0
11
59.994906
21
0.099275
31
0
39
0
210
0
220
0
230
1
0
LINE
5
BE
100
AcDbEntity
8
1
62
256
6
ByLayer
370
-1
48
1
60
0
100
AcDbLine
10
59.227991
20
-3.925479
30
0
11
59.245211
21
-3.924931
31
0
39
0
210
0
220
0
230
1
0
LINE
5
BF
100
AcDbEntity
8
1
62
256
6
ByLayer
370
-1
48
1
60
0
100
AcDbLine
10
59.911674
20
-0.860996
30
0
11
59.910986
21
-0.868868
31
0
39
0
210
0
220
0
230
1
0
LINE
5
C0
100
AcDbEntity
8
1
62
256
6
ByLayer
370
-1
48
1
60
0
100
AcDbLine
10
59.209286
20
-3.926353
30
0
11
59.227991
21
-3.925479
31
0
39
0
210
0
220
0
230
1
0
LINE
5
C1
100
AcDbEntity
8
1
62
256
6
ByLayer
370
-1
48
1
60
0
100
AcDbLine
10
59.384003
20
-3.905078
30
0
11
59.623925
21
-2.786557
31
0
39
0
210
0
220
0
230
1
0
LINE
5
C2
100
AcDbEntity
8
1
62
256
6
ByLayer
370
-1
48
1
60
0
100
AcDbLine
10
58.928253
20
-3.889862
30
0
11
59.194365
21
-2.710699
31
0
39
0
210
0
220
0
230
1
0
LINE
5
C3
100
AcDbEntity
8
1
62
256
6
ByLayer
370
-1
48
1
60
0
100
AcDbLine
10
59.623925
20
-2.786557
30
0
11
59.625915
21
-2.779334
31
0
39
0
210
0
220
0
230
1
0
LINE
5
C4
100
AcDbEntity
8
1
62
256
6
ByLayer
370
-1
48
1
60
0
100
AcDbLine
10
59.384003
20
-3.905078
30
0
11
59.336326
21
-3.883674
31
0
39
0
210
0
220
0
230
1
0
LINE
5
C5
100
AcDbEntity
8
1
62
256
6
ByLayer
370
-1
48
1
60
0
100
AcDbLine
10
59.375509
20
-3.907482
30
0
11
59.245211
21
-3.924931
31
0
39
0
210
0
220
0
230
1
0
LINE
5
C6
100
AcDbEntity
8
1
62
256
6
ByLayer
370
-1
48
1
60
0
100
AcDbLine
10
59.592742
20
-2.747475
30
0
11
59.336326
21
-3.883674
31
0
39
0
210
0
220
0
230
1
0
LINE
5
C7
100
AcDbEntity
8
1
62
256
6
ByLayer
370
-1
48
1
60
0
100
AcDbLine
10
58.132713
20
-0.904765
30
0
11
59.186502
21
-0.871217
31
0
39
0
210
0
220
0
230
1
0
LINE
5
C8
100
AcDbEntity
8
1
62
256
6
ByLayer
370
-1
48
1
60
0
100
AcDbLine
10
59.91089
20
-0.86094
30
0
11
59.911538
21
-0.868474
31
0
39
0
210
0
220
0
230
1
0
LINE
5
C9
100
AcDbEntity
8
1
62
256
6
ByLayer
370
-1
48
1
60
0
100
AcDbLine
10
59.186502
20
-0.871217
30
0
11
59.194365
21
-2.710699
31
0
39
0
210
0
220
0
230
1
0
LINE
5
CA
100
AcDbEntity
8
1
62
256
6
ByLayer
370
-1
48
1
60
0
100
AcDbLine
10
59.994909
20
0.099277
30
0
11
59.986876
21
0.007471
31
0
39
0
210
0
220
0
230
1
0
LINE
5
CB
100
AcDbEntity
8
1
62
256
6
ByLayer
370
-1
48
1
60
0
100
AcDbLine
10
59.974233
20
-0.137026
30
0
11
59.91089
21
-0.86094
31
0
39
0
210
0
220
0
230
1
0
LINE
5
CC
100
AcDbEntity
8
1
62
256
6
ByLayer
370
-1
48
1
60
0
100
AcDbLine
10
59.998681
20
0.137355
30
0
11
59.975539
21
0.137032
31
0
39
0
210
0
220
0
230
1
0
LINE
5
CD
100
AcDbEntity
8
1
62
256
6
ByLayer
370
-1
48
1
60
0
100
AcDbLine
10
59.91089
20
-0.86094
30
0
11
59.726893
21
-2.169977
31
0
39
0
210
0
220
0
230
1
0
LINE
5
CE
100
AcDbEntity
8
1
62
256
6
ByLayer
370
-1
48
1
60
0
100
AcDbLine
10
59.998874
20
0.132546
30
0
11
59.998681
21
0.137355
31
0
39
0
210
0
220
0
230
1
0
LINE
5
CF
100
AcDbEntity
8
1
62
256
6
ByLayer
370
-1
48
1
60
0
100
AcDbLine
10
59.176406
20
-0.126425
30
0
11
59.186502
21
-0.871217
31
0
39
0
210
0
220
0
230
1
0
LINE
5
D0
100
AcDbEntity
8
1
62
256
6
ByLayer
370
-1
48
1
60
0
100
AcDbLine
10
58.133527
20
-3.915162
30
0
11
58.928253
21
-3.889862
31
0
39
0
210
0
220
0
230
1
0
LINE
5
D1
100
AcDbEntity
8
1
62
256
6
ByLayer
370
-1
48
1
60
0
100
AcDbLine
10
59.910489
20
-13.549851
30
0
11
59.682912
21
-13.520156
31
0
39
0
210
0
220
0
230
1
0
LINE
5
D2
100
AcDbEntity
8
1
62
256
6
ByLayer
370
-1
48
1
60
0
100
AcDbLine
10
59.384003
20
-14.114744
30
0
11
59.623925
21
-13.673303
31
0
39
0
210
0
220
0
230
1
0
LINE
5
D3
100
AcDbEntity
8
1
62
256
6
ByLayer
370
-1
48
1
60
0
100
AcDbLine
10
52.812789
20
-19.54301
30
0
11
52.808962
21
-19.506417
31
0
39
0
210
0
220
0
230
1
0
LINE
5
D4
100
AcDbEntity
8
1
62
256
6
ByLayer
370
-1
48
1
60
0
100
AcDbLine
10
59.967936
20
-13.905228
30
0
11
58.922095
21
-19.836489
31
0
39
0
210
0
220
0
230
1
0
LINE
5
D5
100
AcDbEntity
8
1
62
256
6
ByLayer
370
-1
48
1
60
0
100
AcDbLine
10
56.773426
20
-20.925955
30
0
11
50.844239
21
-19.876022
31
0
39
0
210
0
220
0
230
1
0
LINE
5
D6
100
AcDbEntity
8
1
62
256
6
ByLayer
370
-1
48
1
60
0
100
AcDbLine
10
56.633428
20
-20.132156
30
0
11
57.95439
21
-20.085262
31
0
39
0
210
0
220
0
230
1
0
LINE
5
D7
100
AcDbEntity
8
1
62
256
6
ByLayer
370
-1
48
1
60
0
100
AcDbLine
10
53.422112
20
-19.36662
30
0
11
53.196565
21
-20.145766
31
0
39
0
210
0
220
0
230
1
0
LINE
5
D8
100
AcDbEntity
8
1
62
256
6
ByLayer
370
-1
48
1
60
0
100
AcDbLine
10
58.866305
20
-20.130175
30
0
11
58.922095
21
-19.836489
31
0
39
0
210
0
220
0
230
1
0
LINE
5
D9
100
AcDbEntity
8
1
62
256
6
ByLayer
370
-1
48
1
60
0
100
AcDbLine
10
59.375509
20
-14.23546
30
0
11
59.245211
21
-14.974416
31
0
39
0
210
0
220
0
230
1
0
LINE
5
DA
100
AcDbEntity
8
1
62
256
6
ByLayer
370
-1
48
1
60
0
100
AcDbLine
10
58.064162
20
-20.400742
30
0
11
57.95439
21
-20.085262
31
0
39
0
210
0
220
0
230
1
0
LINE
5
DB
100
AcDbEntity
8
1
62
256
6
ByLayer
370
-1
48
1
60
0
100
AcDbLine
10
52.812789
20
-19.54301
30
0
11
52.842766
21
-19.439455
31
0
39
0
210
0
220
0
230
1
0
LINE
5
DC
100
AcDbEntity
8
1
62
256
6
ByLayer
370
-1
48
1
60
0
100
AcDbLine
10
56.633428
20
-20.132156
30
0
11
57.055597
21
-20.430144
31
0
39
0
210
0
220
0
230
1
0
LINE
5
DD
100
AcDbEntity
8
1
62
256
6
ByLayer
370
-1
48
1
60
0
100
AcDbLine
10
58.866305
20
-20.130175
30
0
11
58.78407
21
-20.09301
31
0
39
0
210
0
220
0
230
1
0
LINE
5
DE
100
AcDbEntity
8
1
62
256
6
ByLayer
370
-1
48
1
60
0
100
AcDbLine
10
55.777102
20
-19.975551
30
0
11
55.774065
21
-19.992776
31
0
39
0
210
0
220
0
230
1
0
LINE
5
DF
100
AcDbEntity
8
1
62
256
6
ByLayer
370
-1
48
1
60
0
100
AcDbLine
10
59.561065
20
-15.691704
30
0
11
58.945545
21
-15.519165
31
0
39
0
210
0
220
0
230
1
0
LINE
5
E0
100
AcDbEntity
8
1
62
256
6
ByLayer
370
-1
48
1
60
0
100
AcDbLine
10
59.245211
20
-14.974416
30
0
11
59.271686
21
-14.983615
31
0
39
0
210
0
220
0
230
1
0
LINE
5
E1
100
AcDbEntity
8
1
62
256
6
ByLayer
370
-1
48
1
60
0
100
AcDbLine
10
59.209286
20
-14.98398
30
0
11
59.293535
21
-15.007596
31
0
39
0
210
0
220
0
230
1
0
LINE
5
E2
100
AcDbEntity
8
1
62
256
6
ByLayer
370
-1
48
1
60
0
100
AcDbLine
10
59.881992
20
-13.866388
30
0
11
59.568418
21
-15.644753
31
0
39
0
210
0
220
0
230
1
0
LINE
5
E3
100
AcDbEntity
8
1
62
256
6
ByLayer
370
-1
48
1
60
0
100
AcDbLine
10
58.415968
20
-19.677283
30
0
11
58.529891
21
-20.004693
31
0
39
0
210
0
220
0
230
1
0
LINE
5
E4
100
AcDbEntity
8
1
62
256
6
ByLayer
370
-1
48
1
60
0
100
AcDbLine
10
55.764483
20
-19.956829
30
0
11
55.734506
21
-20.060384
31
0
39
0
210
0
220
0
230
1
0
LINE
5
E5
100
AcDbEntity
8
1
62
256
6
ByLayer
370
-1
48
1
60
0
100
AcDbLine
10
58.778177
20
-17.930335
30
0
11
58.750882
21
-17.93724
31
0
39
0
210
0
220
0
230
1
0
LINE
5
E6
100
AcDbEntity
8
1
62
256
6
ByLayer
370
-1
48
1
60
0
100
AcDbLine
10
51.072841
20
-19.16029
30
0
11
50.725299
21
-19.335159
31
0
39
0
210
0
220
0
230
1
0
LINE
5
E7
100
AcDbEntity
8
1
62
256
6
ByLayer
370
-1
48
1
60
0
100
AcDbLine
10
59.881992
20
-13.866388
30
0
11
59.624688
21
-13.776985
31
0
39
0
210
0
220
0
230
1
0
LINE
5
E8
100
AcDbEntity
8
1
62
256
6
ByLayer
370
-1
48
1
60
0
100
AcDbLine
10
56.951221
20
-20.433071
30
0
11
56.512763
21
-20.123584
31
0
39
0
210
0
220
0
230
1
0
LINE
5
E9
100
AcDbEntity
8
1
62
256
6
ByLayer
370
-1
48
1
60
0
100
AcDbLine
10
57.14605
20
-20.81633
30
0
11
57.203686
21
-20.504334
31
0
39
0
210
0
220
0
230
1
0
LINE
5
EA
100
AcDbEntity
8
1
62
256
6
ByLayer
370
-1
48
1
60
0
100
AcDbLine
10
59.384003
20
-14.114744
30
0
11
59.336326
21
-12.793149
31
0
39
0
210
0
220
0
230
1
0
LINE
5
EB
100
AcDbEntity
8
1
62
256
6
ByLayer
370
-1
48
1
60
0
100
AcDbLine
10
50.605195
20
-19.68541
30
0
11
50.725299
21
-19.335159
31
0
39
0
210
0
220
0
230
1
0
LINE
5
EC
100
AcDbEntity
8
1
62
256
6
ByLayer
370
-1
48
1
60
0
100
AcDbLine
10
59.624688
20
-13.776985
30
0
11
59.375509
21
-14.23546
31
0
39
0
210
0
220
0
230
1
0
LINE
5
ED
100
AcDbEntity
8
1
62
256
6
ByLayer
370
-1
48
1
60
0
100
AcDbLine
10
55.777102
20
-19.975551
30
0
11
55.761555
21
-20.029258
31
0
39
0
210
0
220
0
230
1
0
LINE
5
EE
100
AcDbEntity
8
1
62
256
6
ByLayer
370
-1
48
1
60
0
100
AcDbLine
10
58.778177
20
-17.930335
30
0
11
58.693928
21
-17.906719
31
0
39
0
210
0
220
0
230
1
0
LINE
5
EF
100
AcDbEntity
8
1
62
256
6
ByLayer
370
-1
48
1
60
0
100
AcDbLine
10
53.150578
20
-20.136143
30
0
11
50.605195
21
-19.68541
31
0
39
0
210
0
220
0
230
1
0
LINE
5
F0
100
AcDbEntity
8
1
62
256
6
ByLayer
370
-1
48
1
60
0
100
AcDbLine
10
57.110531
20
-20.956536
30
0
11
57.14605
21
-20.81633
31
0
39
0
210
0
220
0
230
1
0
LINE
5
F1
100
AcDbEntity
8
1
62
256
6
ByLayer
370
-1
48
1
60
0
100
AcDbLine
10
55.00479
20
-20.465964
30
0
11
53.196565
21
-20.145766
31
0
39
0
210
0
220
0
230
1
0
LINE
5
F2
100
AcDbEntity
8
1
62
256
6
ByLayer
370
-1
48
1
60
0
100
AcDbLine
10
59.91089
20
-12.771305
30
0
11
59.726893
21
-12.749378
31
0
39
0
210
0
220
0
230
1
0
LINE
5
F3
100
AcDbEntity
8
1
62
256
6
ByLayer
370
-1
48
1
60
0
100
AcDbLine
10
50.551407
20
-19.817767
30
0
11
50.844239
21
-19.876022
31
0
39
0
210
0
220
0
230
1
0
LINE
5
F4
100
AcDbEntity
8
1
62
256
6
ByLayer
370
-1
48
1
60
0
100
AcDbLine
10
59.271686
20
-14.983615
30
0
11
59.293535
21
-15.007596
31
0
39
0
210
0
220
0
230
1
0
LINE
5
F5
100
AcDbEntity
8
1
62
256
6
ByLayer
370
-1
48
1
60
0
100
AcDbLine
10
59.227991
20
-14.971367
30
0
11
59.271686
21
-14.983615
31
0
39
0
210
0
220
0
230
1
0
LINE
5
F6
100
AcDbEntity
8
1
62
256
6
ByLayer
370
-1
48
1
60
0
100
AcDbLine
10
57.891478
20
-20.951357
30
0
11
57.891343
21
-20.951358
31
0
39
0
210
0
220
0
230
1
0
LINE
5
F7
100
AcDbEntity
8
1
62
256
6
ByLayer
370
-1
48
1
60
0
100
AcDbLine
10
55.761555
20
-20.029258
30
0
11
55.734506
21
-20.060384
31
0
39
0
210
0
220
0
230
1
0
LINE
5
F8
100
AcDbEntity
8
1
62
256
6
ByLayer
370
-1
48
1
60
0
100
AcDbLine
10
58.724407
20
-17.928041
30
0
11
58.707187
21
-17.924992
31
0
39
0
210
0
220
0
230
1
0
LINE
5
F9
100
AcDbEntity
8
1
62
256
6
ByLayer
370
-1
48
1
60
0
100
AcDbLine
10
52.821472
20
-19.469935
30
0
11
52.82451
21
-19.452709
31
0
39
0
210
0
220
0
230
1
0
LINE
5
FA
100
AcDbEntity
8
1
62
256
6
ByLayer
370
-1
48
1
60
0
100
AcDbLine
10
58.707187
20
-17.924992
30
0
11
58.693928
21
-17.906719
31
0
39
0
210
0
220
0
230
1
0
LINE
5
FB
100
AcDbEntity
8
1
62
256
6
ByLayer
370
-1
48
1
60
0
100
AcDbLine
10
57.891321
20
-20.951361
30
0
11
57.924242
21
-20.817206
31
0
39
0
210
0
220
0
230
1
0
LINE
5
FC
100
AcDbEntity
8
1
62
256
6
ByLayer
370
-1
48
1
60
0
100
AcDbLine
10
59.998298
20
-13.567988
30
0
11
59.910489
21
-13.549851
31
0
39
0
210
0
220
0
230
1
0
LINE
5
FD
100
AcDbEntity
8
1
62
256
6
ByLayer
370
-1
48
1
60
0
100
AcDbLine
10
59.967936
20
-13.905228
30
0
11
59.881992
21
-13.866388
31
0
39
0
210
0
220
0
230
1
0
LINE
5
FE
100
AcDbEntity
8
1
62
256
6
ByLayer
370
-1
48
1
60
0
100
AcDbLine
10
55.764483
20
-19.956829
30
0
11
55.777102
21
-19.975551
31
0
39
0
210
0
220
0
230
1
0
LINE
5
FF
100
AcDbEntity
8
1
62
256
6
ByLayer
370
-1
48
1
60
0
100
AcDbLine
10
55.774065
20
-19.992776
30
0
11
55.761555
21
-20.029258
31
0
39
0
210
0
220
0
230
1
0
LINE
5
100
100
AcDbEntity
8
1
62
256
6
ByLayer
370
-1
48
1
60
0
100
AcDbLine
10
59.227991
20
-14.971367
30
0
11
59.245211
21
-14.974416
31
0
39
0
210
0
220
0
230
1
0
LINE
5
101
100
AcDbEntity
8
1
62
256
6
ByLayer
370
-1
48
1
60
0
100
AcDbLine
10
58.724407
20
-17.928041
30
0
11
58.415968
21
-19.677283
31
0
39
0
210
0
220
0
230
1
0
LINE
5
102
100
AcDbEntity
8
1
62
256
6
ByLayer
370
-1
48
1
60
0
100
AcDbLine
10
59.994909
20
-12.787593
30
0
11
59.91089
21
-12.771305
31
0
39
0
210
0
220
0
230
1
0
LINE
5
103
100
AcDbEntity
8
1
62
256
6
ByLayer
370
-1
48
1
60
0
100
AcDbLine
10
52.82451
20
-19.452709
30
0
11
52.842766
21
-19.439455
31
0
39
0
210
0
220
0
230
1
0
LINE
5
104
100
AcDbEntity
8
1
62
256
6
ByLayer
370
-1
48
1
60
0
100
AcDbLine
10
52.821472
20
-19.469935
30
0
11
51.072841
21
-19.16029
31
0
39
0
210
0
220
0
230
1
0
LINE
5
105
100
AcDbEntity
8
1
62
256
6
ByLayer
370
-1
48
1
60
0
100
AcDbLine
10
55.00479
20
-20.465964
30
0
11
55.229904
21
-19.688312
31
0
39
0
210
0
220
0
230
1
0
LINE
5
106
100
AcDbEntity
8
1
62
256
6
ByLayer
370
-1
48
1
60
0
100
AcDbLine
10
56.512763
20
-20.123584
30
0
11
55.774065
21
-19.992776
31
0
39
0
210
0
220
0
230
1
0
LINE
5
107
100
AcDbEntity
8
1
62
256
6
ByLayer
370
-1
48
1
60
0
100
AcDbLine
10
56.829641
20
-20.787627
30
0
11
56.951221
21
-20.433071
31
0
39
0
210
0
220
0
230
1
0
LINE
5
108
100
AcDbEntity
8
1
62
256
6
ByLayer
370
-1
48
1
60
0
100
AcDbLine
10
57.924242
20
-20.817206
30
0
11
57.968758
21
-20.564955
31
0
39
0
210
0
220
0
230
1
0
LINE
5
109
100
AcDbEntity
8
1
62
256
6
ByLayer
370
-1
48
1
60
0
100
AcDbLine
10
56.829641
20
-20.787627
30
0
11
55.051898
21
-20.472826
31
0
39
0
210
0
220
0
230
1
0
LINE
5
10A
100
AcDbEntity
8
1
62
256
6
ByLayer
370
-1
48
1
60
0
100
AcDbLine
10
58.626014
20
-17.32786
30
0
11
59.242115
21
-17.500561
31
0
39
0
210
0
220
0
230
1
0
LINE
5
10B
100
AcDbEntity
8
1
62
256
6
ByLayer
370
-1
48
1
60
0
100
AcDbLine
10
52.808962
20
-19.506417
30
0
11
52.821472
21
-19.469935
31
0
39
0
210
0
220
0
230
1
0
LINE
5
10C
100
AcDbEntity
8
1
62
256
6
ByLayer
370
-1
48
1
60
0
100
AcDbLine
10
50.551407
20
-19.817767
30
0
11
50.605195
21
-19.68541
31
0
39
0
210
0
220
0
230
1
0
LINE
5
10D
100
AcDbEntity
8
1
62
256
6
ByLayer
370
-1
48
1
60
0
100
AcDbLine
10
59.209286
20
-14.98398
30
0
11
59.227991
21
-14.971367
31
0
39
0
210
0
220
0
230
1
0
LINE
5
10E
100
AcDbEntity
8
1
62
256
6
ByLayer
370
-1
48
1
60
0
100
AcDbLine
10
59.233047
20
-17.546737
30
0
11
58.78407
21
-20.09301
31
0
39
0
210
0
220
0
230
1
0
LINE
5
10F
100
AcDbEntity
8
1
62
256
6
ByLayer
370
-1
48
1
60
0
100
AcDbLine
10
56.773426
20
-20.925955
30
0
11
56.829641
21
-20.787627
31
0
39
0
210
0
220
0
230
1
0
LINE
5
110
100
AcDbEntity
8
1
62
256
6
ByLayer
370
-1
48
1
60
0
100
AcDbLine
10
58.78407
20
-20.09301
30
0
11
58.529891
21
-20.004693
31
0
39
0
210
0
220
0
230
1
0
LINE
5
111
100
AcDbEntity
8
1
62
256
6
ByLayer
370
-1
48
1
60
0
100
AcDbLine
10
59.592742
20
-12.663865
30
0
11
59.336326
21
-12.793149
31
0
39
0
210
0
220
0
230
1
0
LINE
5
112
100
AcDbEntity
8
1
62
256
6
ByLayer
370
-1
48
1
60
0
100
AcDbLine
10
58.750882
20
-17.93724
30
0
11
58.724407
21
-17.928041
31
0
39
0
210
0
220
0
230
1
0
LINE
5
113
100
AcDbEntity
8
1
62
256
6
ByLayer
370
-1
48
1
60
0
100
AcDbLine
10
59.561065
20
-15.691704
30
0
11
59.242115
21
-17.500561
31
0
39
0
210
0
220
0
230
1
0
LINE
5
114
100
AcDbEntity
8
1
62
256
6
ByLayer
370
-1
48
1
60
0
100
AcDbLine
10
59.7488
20
-0.13398
30
0
11
59.745029
21
-0.135095
31
0
39
0
210
0
220
0
230
1
0
LINE
5
115
100
AcDbEntity
8
1
62
256
6
ByLayer
370
-1
48
1
60
0
100
AcDbLine
10
56.773426
20
0.112097
30
0
11
50.844239
21
0.300854
31
0
39
0
210
0
220
0
230
1
0
LINE
5
116
100
AcDbEntity
8
1
62
256
6
ByLayer
370
-1
48
1
60
0
100
AcDbLine
10
58.750882
20
3.802807
30
0
11
58.724407
21
3.994676
31
0
39
0
210
0
220
0
230
1
0
LINE
5
117
100
AcDbEntity
8
1
62
256
6
ByLayer
370
-1
48
1
60
0
100
AcDbLine
10
56.951221
20
2.955357
30
0
11
56.512763
21
4.110244
31
0
39
0
210
0
220
0
230
1
0
LINE
5
118
100
AcDbEntity
8
1
62
256
6
ByLayer
370
-1
48
1
60
0
100
AcDbLine
10
57.110531
20
0.100857
30
0
11
57.14605
21
1.097931
31
0
39
0
210
0
220
0
230
1
0
LINE
5
119
100
AcDbEntity
8
1
62
256
6
ByLayer
370
-1
48
1
60
0
100
AcDbLine
10
56.773426
20
0.112097
30
0
11
56.829641
21
1.108481
31
0
39
0
210
0
220
0
230
1
0
LINE
5
11A
100
AcDbEntity
8
1
62
256
6
ByLayer
370
-1
48
1
60
0
100
AcDbLine
10
52.104315
20
0.096618
30
0
11
52.105081
21
0.096179
31
0
39
0
210
0
220
0
230
1
0
LINE
5
11B
100
AcDbEntity
8
1
62
256
6
ByLayer
370
-1
48
1
60
0
100
AcDbLine
10
57.891321
20
0.116692
30
0
11
57.924242
21
1.070768
31
0
39
0
210
0
220
0
230
1
0
LINE
5
11C
100
AcDbEntity
8
1
62
256
6
ByLayer
370
-1
48
1
60
0
100
AcDbLine
10
59.998681
20
-0.137355
30
0
11
59.743452
21
-0.133793
31
0
39
0
210
0
220
0
230
1
0
LINE
5
11D
100
AcDbEntity
8
1
62
256
6
ByLayer
370
-1
48
1
60
0
100
AcDbLine
10
58.724407
20
3.994676
30
0
11
58.415968
21
4.035982
31
0
39
0
210
0
220
0
230
1
0
LINE
5
11E
100
AcDbEntity
8
1
62
256
6
ByLayer
370
-1
48
1
60
0
100
AcDbLine
10
59.881992
20
0.881064
30
0
11
59.568418
21
0.923057
31
0
39
0
210
0
220
0
230
1
0
LINE
5
11F
100
AcDbEntity
8
1
62
256
6
ByLayer
370
-1
48
1
60
0
100
AcDbLine
10
50.592493
20
0.30444
30
0
11
50.844239
21
0.300854
31
0
39
0
210
0
220
0
230
1
0
LINE
5
120
100
AcDbEntity
8
1
62
256
6
ByLayer
370
-1
48
1
60
0
100
AcDbLine
10
50.617091
20
4.268209
30
0
11
50.300279
21
3.185213
31
0
39
0
210
0
220
0
230
1
0
LINE
5
121
100
AcDbEntity
8
1
62
256
6
ByLayer
370
-1
48
1
60
0
100
AcDbLine
10
59.967936
20
-0.122022
30
0
11
58.922095
21
0.018036
31
0
39
0
210
0
220
0
230
1
0
LINE
5
122
100
AcDbEntity
8
1
62
256
6
ByLayer
370
-1
48
1
60
0
100
AcDbLine
10
58.62399
20
0.03284
30
0
11
58.624098
21
0.032837
31
0
39
0
210
0
220
0
230
1
0
LINE
5
123
100
AcDbEntity
8
1
62
256
6
ByLayer
370
-1
48
1
60
0
100
AcDbLine
10
51.825568
20
0.110314
30
0
11
51.825587
21
0.110407
31
0
39
0
210
0
220
0
230
1
0
LINE
5
124
100
AcDbEntity
8
1
62
256
6
ByLayer
370
-1
48
1
60
0
100
AcDbLine
10
52.821472
20
4.227757
30
0
11
51.072841
21
4.283425
31
0
39
0
210
0
220
0
230
1
0
LINE
5
125
100
AcDbEntity
8
1
62
256
6
ByLayer
370
-1
48
1
60
0
100
AcDbLine
10
58.78407
20
1.028096
30
0
11
58.529891
21
2.870192
31
0
39
0
210
0
220
0
230
1
0
LINE
5
126
100
AcDbEntity
8
1
62
256
6
ByLayer
370
-1
48
1
60
0
100
AcDbLine
10
55.764483
20
4.133467
30
0
11
55.734506
21
3.767846
31
0
39
0
210
0
220
0
230
1
0
LINE
5
127
100
AcDbEntity
8
1
62
256
6
ByLayer
370
-1
48
1
60
0
100
AcDbLine
10
57.89633
20
0.06897
30
0
11
57.896329
21
0.069064
31
0
39
0
210
0
220
0
230
1
0
LINE
5
128
100
AcDbEntity
8
1
62
256
6
ByLayer
370
-1
48
1
60
0
100
AcDbLine
10
59.245211
20
3.924931
30
0
11
59.271686
21
3.733061
31
0
39
0
210
0
220
0
230
1
0
LINE
5
129
100
AcDbEntity
8
1
62
256
6
ByLayer
370
-1
48
1
60
0
100
AcDbLine
10
58.415968
20
4.035982
30
0
11
58.529891
21
2.870192
31
0
39
0
210
0
220
0
230
1
0
LINE
5
12A
100
AcDbEntity
8
1
62
256
6
ByLayer
370
-1
48
1
60
0
100
AcDbLine
10
59.624688
20
2.745801
30
0
11
59.375509
21
3.907482
31
0
39
0
210
0
220
0
230
1
0
LINE
5
12B
100
AcDbEntity
8
1
62
256
6
ByLayer
370
-1
48
1
60
0
100
AcDbLine
10
49.978446
20
0.313171
30
0
11
49.973097
21
0.313357
31
0
39
0
210
0
220
0
230
1
0
LINE
5
12C
100
AcDbEntity
8
1
62
256
6
ByLayer
370
-1
48
1
60
0
100
AcDbLine
10
56.512763
20
4.110244
30
0
11
55.774065
21
4.13376
31
0
39
0
210
0
220
0
230
1
0
LINE
5
12D
100
AcDbEntity
8
1
62
256
6
ByLayer
370
-1
48
1
60
0
100
AcDbLine
10
59.910489
20
0.874544
30
0
11
59.682912
21
2.493593
31
0
39
0
210
0
220
0
230
1
0
LINE
5
12E
100
AcDbEntity
8
1
62
256
6
ByLayer
370
-1
48
1
60
0
100
AcDbLine
10
52.82451
20
4.22735
30
0
11
52.842766
21
4.226481
31
0
39
0
210
0
220
0
230
1
0
LINE
5
12F
100
AcDbEntity
8
1
62
256
6
ByLayer
370
-1
48
1
60
0
100
AcDbLine
10
50.551407
20
0.353263
30
0
11
50.844239
21
0.300854
31
0
39
0
210
0
220
0
230
1
0
LINE
5
130
100
AcDbEntity
8
1
62
256
6
ByLayer
370
-1
48
1
60
0
100
AcDbLine
10
58.866305
20
0.068309
30
0
11
58.922095
21
0.018036
31
0
39
0
210
0
220
0
230
1
0
LINE
5
131
100
AcDbEntity
8
1
62
256
6
ByLayer
370
-1
48
1
60
0
100
AcDbLine
10
50.592512
20
0.304437
30
0
11
50.592493
21
0.30444
31
0
39
0
210
0
220
0
230
1
0
LINE
5
132
100
AcDbEntity
8
1
62
256
6
ByLayer
370
-1
48
1
60
0
100
AcDbLine
10
59.375509
20
3.907482
30
0
11
59.245211
21
3.924931
31
0
39
0
210
0
220
0
230
1
0
LINE
5
133
100
AcDbEntity
8
1
62
256
6
ByLayer
370
-1
48
1
60
0
100
AcDbLine
10
52.812789
20
3.860859
30
0
11
52.842766
21
4.226481
31
0
39
0
210
0
220
0
230
1
0
LINE
5
134
100
AcDbEntity
8
1
62
256
6
ByLayer
370
-1
48
1
60
0
100
AcDbLine
10
59.209286
20
3.926353
30
0
11
59.293535
21
3.555346
31
0
39
0
210
0
220
0
230
1
0
LINE
5
135
100
AcDbEntity
8
1
62
256
6
ByLayer
370
-1
48
1
60
0
100
AcDbLine
10
59.561065
20
0.914147
30
0
11
59.242115
21
0.956861
31
0
39
0
210
0
220
0
230
1
0
LINE
5
136
100
AcDbEntity
8
1
62
256
6
ByLayer
370
-1
48
1
60
0
100
AcDbLine
10
59.271686
20
3.733061
30
0
11
59.293535
21
3.555346
31
0
39
0
210
0
220
0
230
1
0
LINE
5
137
100
AcDbEntity
8
1
62
256
6
ByLayer
370
-1
48
1
60
0
100
AcDbLine
10
49.753962
20
0.301399
30
0
11
50.799803
21
0.161342
31
0
39
0
210
0
220
0
230
1
0
LINE
5
138
100
AcDbEntity
8
1
62
256
6
ByLayer
370
-1
48
1
60
0
100
AcDbLine
10
50.605195
20
1.306638
30
0
11
50.725299
21
3.131089
31
0
39
0
210
0
220
0
230
1
0
LINE
5
139
100
AcDbEntity
8
1
62
256
6
ByLayer
370
-1
48
1
60
0
100
AcDbLine
10
57.891478
20
0.116709
30
0
11
57.891343
21
0.116694
31
0
39
0
210
0
220
0
230
1
0
LINE
5
13A
100
AcDbEntity
8
1
62
256
6
ByLayer
370
-1
48
1
60
0
100
AcDbLine
10
52.812789
20
3.860859
30
0
11
52.808962
21
4.037725
31
0
39
0
210
0
220
0
230
1
0
LINE
5
13B
100
AcDbEntity
8
1
62
256
6
ByLayer
370
-1
48
1
60
0
100
AcDbLine
10
59.129386
20
-0.12506
30
0
11
59.129405
21
-0.125062
31
0
39
0
210
0
220
0
230
1
0
LINE
5
13C
100
AcDbEntity
8
1
62
256
6
ByLayer
370
-1
48
1
60
0
100
AcDbLine
10
50.551407
20
0.353263
30
0
11
50.605195
21
1.306638
31
0
39
0
210
0
220
0
230
1
0
LINE
5
13D
100
AcDbEntity
8
1
62
256
6
ByLayer
370
-1
48
1
60
0
100
AcDbLine
10
49.730005
20
0.364938
30
0
11
49.730005
21
0.364916
31
0
39
0
210
0
220
0
230
1
0
LINE
5
13E
100
AcDbEntity
8
1
62
256
6
ByLayer
370
-1
48
1
60
0
100
AcDbLine
10
55.00479
20
1.156615
30
0
11
55.24985
21
4.145552
31
0
39
0
210
0
220
0
230
1
0
LINE
5
13F
100
AcDbEntity
8
1
62
256
6
ByLayer
370
-1
48
1
60
0
100
AcDbLine
10
59.209286
20
3.926353
30
0
11
59.227991
21
3.925479
31
0
39
0
210
0
220
0
230
1
0
LINE
5
140
100
AcDbEntity
8
1
62
256
6
ByLayer
370
-1
48
1
60
0
100
AcDbLine
10
59.998298
20
-0.128969
30
0
11
59.910489
21
0.874544
31
0
39
0
210
0
220
0
230
1
0
LINE
5
141
100
AcDbEntity
8
1
62
256
6
ByLayer
370
-1
48
1
60
0
100
AcDbLine
10
59.999348
20
-0.135047
30
0
11
59.998298
21
-0.128969
31
0
39
0
210
0
220
0
230
1
0
LINE
5
142
100
AcDbEntity
8
1
62
256
6
ByLayer
370
-1
48
1
60
0
100
AcDbLine
10
59.130939
20
1.446446
30
0
11
59.242115
21
0.956861
31
0
39
0
210
0
220
0
230
1
0
LINE
5
143
100
AcDbEntity
8
1
62
256
6
ByLayer
370
-1
48
1
60
0
100
AcDbLine
10
58.778177
20
3.624362
30
0
11
58.750882
21
3.802807
31
0
39
0
210
0
220
0
230
1
0
LINE
5
144
100
AcDbEntity
8
1
62
256
6
ByLayer
370
-1
48
1
60
0
100
AcDbLine
10
52.821472
20
4.227757
30
0
11
52.82451
21
4.22735
31
0
39
0
210
0
220
0
230
1
0
LINE
5
145
100
AcDbEntity
8
1
62
256
6
ByLayer
370
-1
48
1
60
0
100
AcDbLine
10
56.829641
20
1.108481
30
0
11
56.951221
21
2.955357
31
0
39
0
210
0
220
0
230
1
0
LINE
5
146
100
AcDbEntity
8
1
62
256
6
ByLayer
370
-1
48
1
60
0
100
AcDbLine
10
59.129405
20
-0.125062
30
0
11
58.877659
21
-0.121476
31
0
39
0
210
0
220
0
230
1
0
LINE
5
147
100
AcDbEntity
8
1
62
256
6
ByLayer
370
-1
48
1
60
0
100
AcDbLine
10
55.764483
20
4.133467
30
0
11
55.77404
21
4.133381
31
0
39
0
210
0
220
0
230
1
0
LINE
5
148
100
AcDbEntity
8
1
62
256
6
ByLayer
370
-1
48
1
60
0
100
AcDbLine
10
57.924242
20
1.070768
30
0
11
57.968758
21
2.367804
31
0
39
0
210
0
220
0
230
1
0
LINE
5
149
100
AcDbEntity
8
1
62
256
6
ByLayer
370
-1
48
1
60
0
100
AcDbLine
10
51.0978
20
0.146541
30
0
11
50.799803
21
0.161342
31
0
39
0
210
0
220
0
230
1
0
LINE
5
14A
100
AcDbEntity
8
1
62
256
6
ByLayer
370
-1
48
1
60
0
100
AcDbLine
10
49.730001
20
0.364913
30
0
11
49.880807
21
1.316915
31
0
39
0
210
0
220
0
230
1
0
LINE
5
14B
100
AcDbEntity
8
1
62
256
6
ByLayer
370
-1
48
1
60
0
100
AcDbLine
10
53.441625
20
4.203117
30
0
11
53.196565
21
1.21418
31
0
39
0
210
0
220
0
230
1
0
LINE
5
14C
100
AcDbEntity
8
1
62
256
6
ByLayer
370
-1
48
1
60
0
100
AcDbLine
10
59.561065
20
0.914147
30
0
11
58.872335
21
3.947104
31
0
39
0
210
0
220
0
230
1
0
LINE
5
14D
100
AcDbEntity
8
1
62
256
6
ByLayer
370
-1
48
1
60
0
100
AcDbLine
10
53.150578
20
1.225605
30
0
11
50.605195
21
1.306638
31
0
39
0
210
0
220
0
230
1
0
LINE
5
14E
100
AcDbEntity
8
1
62
256
6
ByLayer
370
-1
48
1
60
0
100
AcDbLine
10
58.624098
20
0.032837
30
0
11
58.922095
21
0.018036
31
0
39
0
210
0
220
0
230
1
0
LINE
5
14F
100
AcDbEntity
8
1
62
256
6
ByLayer
370
-1
48
1
60
0
100
AcDbLine
10
49.723216
20
0.316733
30
0
11
49.978446
21
0.313171
31
0
39
0
210
0
220
0
230
1
0
LINE
5
150
100
AcDbEntity
8
1
62
256
6
ByLayer
370
-1
48
1
60
0
100
AcDbLine
10
59.227991
20
3.925479
30
0
11
59.271686
21
3.733061
31
0
39
0
210
0
220
0
230
1
0
LINE
5
151
100
AcDbEntity
8
1
62
256
6
ByLayer
370
-1
48
1
60
0
100
AcDbLine
10
57.14605
20
1.097931
30
0
11
57.203686
21
2.702092
31
0
39
0
210
0
220
0
230
1
0
LINE
5
152
100
AcDbEntity
8
1
62
256
6
ByLayer
370
-1
48
1
60
0
100
AcDbLine
10
51.825568
20
0.110407
30
0
11
51.825568
21
0.110314
31
0
39
0
210
0
220
0
230
1
0
LINE
5
153
100
AcDbEntity
8
1
62
256
6
ByLayer
370
-1
48
1
60
0
100
AcDbLine
10
50.300279
20
3.185213
30
0
11
50.298253
21
3.179217
31
0
39
0
210
0
220
0
230
1
0
LINE
5
154
100
AcDbEntity
8
1
62
256
6
ByLayer
370
-1
48
1
60
0
100
AcDbLine
10
58.866305
20
0.068308
30
0
11
58.624098
21
0.032837
31
0
39
0
210
0
220
0
230
1
0
LINE
5
155
100
AcDbEntity
8
1
62
256
6
ByLayer
370
-1
48
1
60
0
100
AcDbLine
10
58.866305
20
0.068309
30
0
11
58.78407
21
1.028096
31
0
39
0
210
0
220
0
230
1
0
LINE
5
156
100
AcDbEntity
8
1
62
256
6
ByLayer
370
-1
48
1
60
0
100
AcDbLine
10
50.551409
20
0.353262
30
0
11
50.592493
21
0.30444
31
0
39
0
210
0
220
0
230
1
0
LINE
5
157
100
AcDbEntity
8
1
62
256
6
ByLayer
370
-1
48
1
60
0
100
AcDbLine
10
50.329888
20
3.179262
30
0
11
50.664768
21
4.289612
31
0
39
0
210
0
220
0
230
1
0
LINE
5
158
100
AcDbEntity
8
1
62
256
6
ByLayer
370
-1
48
1
60
0
100
AcDbLine
10
52.131879
20
0.095255
30
0
11
51.825568
21
0.110407
31
0
39
0
210
0
220
0
230
1
0
LINE
5
159
100
AcDbEntity
8
1
62
256
6
ByLayer
370
-1
48
1
60
0
100
AcDbLine
10
57.590018
20
0.084123
30
0
11
57.89633
21
0.06897
31
0
39
0
210
0
220
0
230
1
0
LINE
5
15A
100
AcDbEntity
8
1
62
256
6
ByLayer
370
-1
48
1
60
0
100
AcDbLine
10
57.406294
20
-0.074635
30
0
11
58.877659
21
-0.121476
31
0
39
0
210
0
220
0
230
1
0
LINE
5
15B
100
AcDbEntity
8
1
62
256
6
ByLayer
370
-1
48
1
60
0
100
AcDbLine
10
55.761555
20
3.943729
30
0
11
55.734506
21
3.767846
31
0
39
0
210
0
220
0
230
1
0
LINE
5
15C
100
AcDbEntity
8
1
62
256
6
ByLayer
370
-1
48
1
60
0
100
AcDbLine
10
52.808962
20
4.037725
30
0
11
52.821472
21
4.227757
31
0
39
0
210
0
220
0
230
1
0
LINE
5
15D
100
AcDbEntity
8
1
62
256
6
ByLayer
370
-1
48
1
60
0
100
AcDbLine
10
59.743452
20
-0.133793
30
0
11
59.7488
21
-0.13398
31
0
39
0
210
0
220
0
230
1
0
LINE
5
15E
100
AcDbEntity
8
1
62
256
6
ByLayer
370
-1
48
1
60
0
100
AcDbLine
10
56.633428
20
4.106179
30
0
11
57.055597
21
2.994199
31
0
39
0
210
0
220
0
230
1
0
LINE
5
15F
100
AcDbEntity
8
1
62
256
6
ByLayer
370
-1
48
1
60
0
100
AcDbLine
10
59.967936
20
-0.122022
30
0
11
59.881992
21
0.881064
31
0
39
0
210
0
220
0
230
1
0
LINE
5
160
100
AcDbEntity
8
1
62
256
6
ByLayer
370
-1
48
1
60
0
100
AcDbLine
10
49.880807
20
1.316915
30
0
11
50.155682
21
2.609898
31
0
39
0
210
0
220
0
230
1
0
LINE
5
161
100
AcDbEntity
8
1
62
256
6
ByLayer
370
-1
48
1
60
0
100
AcDbLine
10
59.881992
20
0.881064
30
0
11
59.624688
21
2.745801
31
0
39
0
210
0
220
0
230
1
0
LINE
5
162
100
AcDbEntity
8
1
62
256
6
ByLayer
370
-1
48
1
60
0
100
AcDbLine
10
55.774065
20
4.13376
30
0
11
55.761555
21
3.943729
31
0
39
0
210
0
220
0
230
1
0
LINE
5
163
100
AcDbEntity
8
1
62
256
6
ByLayer
370
-1
48
1
60
0
100
AcDbLine
10
52.808962
20
4.037725
30
0
11
52.82451
21
4.22735
31
0
39
0
210
0
220
0
230
1
0
LINE
5
164
100
AcDbEntity
8
1
62
256
6
ByLayer
370
-1
48
1
60
0
100
AcDbLine
10
59.233047
20
0.96797
30
0
11
58.78407
21
1.028096
31
0
39
0
210
0
220
0
230
1
0
LINE
5
165
100
AcDbEntity
8
1
62
256
6
ByLayer
370
-1
48
1
60
0
100
AcDbLine
10
51.072841
20
4.283425
30
0
11
50.725299
21
3.131089
31
0
39
0
210
0
220
0
230
1
0
LINE
5
166
100
AcDbEntity
8
1
62
256
6
ByLayer
370
-1
48
1
60
0
100
AcDbLine
10
59.7488
20
-0.13398
30
0
11
59.749527
21
-0.133877
31
0
39
0
210
0
220
0
230
1
0
LINE
5
167
100
AcDbEntity
8
1
62
256
6
ByLayer
370
-1
48
1
60
0
100
AcDbLine
10
58.064162
20
2.93591
30
0
11
57.95439
21
4.059224
31
0
39
0
210
0
220
0
230
1
0
LINE
5
168
100
AcDbEntity
8
1
62
256
6
ByLayer
370
-1
48
1
60
0
100
AcDbLine
10
58.62399
20
0.03284
30
0
11
58.866305
21
0.068309
31
0
39
0
210
0
220
0
230
1
0
LINE
5
169
100
AcDbEntity
8
1
62
256
6
ByLayer
370
-1
48
1
60
0
100
AcDbLine
10
59.227991
20
3.925479
30
0
11
59.245211
21
3.924931
31
0
39
0
210
0
220
0
230
1
0
LINE
5
16A
100
AcDbEntity
8
1
62
256
6
ByLayer
370
-1
48
1
60
0
100
AcDbLine
10
49.723405
20
0.322839
30
0
11
49.723216
21
0.316733
31
0
39
0
210
0
220
0
230
1
0
LINE
5
16B
100
AcDbEntity
8
1
62
256
6
ByLayer
370
-1
48
1
60
0
100
AcDbLine
10
56.829641
20
1.108481
30
0
11
55.051898
21
1.165076
31
0
39
0
210
0
220
0
230
1
0
LINE
5
16C
100
AcDbEntity
8
1
62
256
6
ByLayer
370
-1
48
1
60
0
100
AcDbLine
10
56.633428
20
4.106179
30
0
11
57.95439
21
4.059224
31
0
39
0
210
0
220
0
230
1
0
LINE
5
16D
100
AcDbEntity
8
1
62
256
6
ByLayer
370
-1
48
1
60
0
100
AcDbLine
10
55.00479
20
1.156615
30
0
11
53.196565
21
1.21418
31
0
39
0
210
0
220
0
230
1
0
LINE
5
16E
100
AcDbEntity
8
1
62
256
6
ByLayer
370
-1
48
1
60
0
100
AcDbLine
10
57.89633
20
0.06897
30
0
11
57.891478
21
0.116709
31
0
39
0
210
0
220
0
230
1
0
LINE
5
16F
100
AcDbEntity
8
1
62
256
6
ByLayer
370
-1
48
1
60
0
100
AcDbLine
10
51.097907
20
0.146537
30
0
11
51.0978
21
0.146541
31
0
39
0
210
0
220
0
230
1
0
LINE
5
170
100
AcDbEntity
8
1
62
256
6
ByLayer
370
-1
48
1
60
0
100
AcDbLine
10
53.689098
20
15.52461
30
0
11
53.72936
21
15.504488
31
0
39
0
210
0
220
0
230
1
0
LINE
5
171
100
AcDbEntity
8
1
62
256
6
ByLayer
370
-1
48
1
60
0
100
AcDbLine
10
53.700465
20
15.668358
30
0
11
53.660203
21
15.68848
31
0
39
0
210
0
220
0
230
1
0
LINE
5
172
100
AcDbEntity
8
1
62
256
6
ByLayer
370
-1
48
1
60
0
100
AcDbLine
10
55.83358
20
16.954179
30
0
11
55.78765
21
16.977134
31
0
39
0
210
0
220
0
230
1
0
LINE
5
173
100
AcDbEntity
8
1
62
256
6
ByLayer
370
-1
48
1
60
0
100
AcDbLine
10
54.368527
20
17.185356
30
0
11
54.322597
21
17.20831
31
0
39
0
210
0
220
0
230
1
0
LINE
5
174
100
AcDbEntity
8
1
62
256
6
ByLayer
370
-1
48
1
60
0
100
AcDbLine
10
53.626017
20
16.563267
30
0
11
53.580087
21
16.586221
31
0
39
0
210
0
220
0
230
1
0
LINE
5
175
100
AcDbEntity
8
1
62
256
6
ByLayer
370
-1
48
1
60
0
100
AcDbLine
10
53.43464
20
16.03216
30
0
11
53.388771
21
16.055084
31
0
39
0
210
0
220
0
230
1
0
LINE
5
176
100
AcDbEntity
8
1
62
256
6
ByLayer
370
-1
48
1
60
0
100
AcDbLine
10
53.604044
20
15.071423
30
0
11
53.558175
21
15.094347
31
0
39
0
210
0
220
0
230
1
0
LINE
5
177
100
AcDbEntity
8
1
62
256
6
ByLayer
370
-1
48
1
60
0
100
AcDbLine
10
54.875743
20
14.30879
30
0
11
54.829813
21
14.331745
31
0
39
0
210
0
220
0
230
1
0
LINE
5
178
100
AcDbEntity
8
1
62
256
6
ByLayer
370
-1
48
1
60
0
100
AcDbLine
10
52.137503
20
0.181763
30
0
11
52.13975
21
0.179724
31
0
39
0
210
0
220
0
230
1
0
LINE
5
179
100
AcDbEntity
8
1
62
256
6
ByLayer
370
-1
48
1
60
0
100
AcDbLine
10
56.422651
20
-0.294906
30
0
11
56.429643
21
-0.294353
31
0
39
0
210
0
220
0
230
1
0
LINE
5
17A
100
AcDbEntity
8
SK1
62
256
6
ByLayer
370
-1
48
1
60
0
100
AcDbLine
10
-0.2
20
14.083485
30
0
11
-0.2
21
5.547043
31
0
39
0
210
0
220
0
230
1
0
LINE
5
17C
100
AcDbEntity
8
SK1
62
256
6
ByLayer
370
-1
48
1
60
0
100
AcDbLine
10
-0.2
20
-14.083485
30
0
11
-0.2
21
-5.547043
31
0
39
0
210
0
220
0
230
1
0
LINE
5
17D
100
AcDbEntity
8
SK1
62
256
6
ByLayer
370
-1
48
1
60
0
100
AcDbLine
10
-1.307107
20
-3.588717
30
0
11
-1.307107
21
3.588717
31
0
39
0
210
0
220
0
230
1
0
LINE
5
17E
100
AcDbEntity
8
1
62
256
6
ByLayer
370
-1
48
1
60
0
100
AcDbLine
10
49.723216
20
18.542654
30
0
11
49.978446
21
18.84926
31
0
39
0
210
0
220
0
230
1
0
LINE
5
17F
100
AcDbEntity
8
1
62
256
6
ByLayer
370
-1
48
1
60
0
100
AcDbLine
10
49.978446
20
18.84926
30
0
11
49.973097
21
18.849257
31
0
39
0
210
0
220
0
230
1
0
LINE
5
180
100
AcDbEntity
8
1
62
256
6
ByLayer
370
-1
48
1
60
0
100
AcDbLine
10
49.730005
20
18.841993
30
0
11
49.730005
21
18.841859
31
0
39
0
210
0
220
0
230
1
0
LINE
5
181
100
AcDbEntity
8
1
62
256
6
ByLayer
370
-1
48
1
60
0
100
AcDbLine
10
59.129386
20
12.053307
30
0
11
59.173501
21
11.811662
31
0
39
0
210
0
220
0
230
1
0
LINE
5
182
100
AcDbEntity
8
1
62
256
6
ByLayer
370
-1
48
1
60
0
100
AcDbLine
10
59.129386
20
12.053307
30
0
11
59.129405
21
12.053199
31
0
39
0
210
0
220
0
230
1
0
LINE
5
183
100
AcDbEntity
8
1
62
256
6
ByLayer
370
-1
48
1
60
0
100
AcDbLine
10
57.810127
20
11.565876
30
0
11
58.877659
21
11.754913
31
0
39
0
210
0
220
0
230
1
0
LINE
5
184
100
AcDbEntity
8
1
62
256
6
ByLayer
370
-1
48
1
60
0
100
AcDbLine
10
49.978446
20
18.84926
30
0
11
49.730006
21
18.841993
31
0
39
0
210
0
220
0
230
1
0
LINE
5
185
100
AcDbEntity
8
1
62
256
6
ByLayer
370
-1
48
1
60
0
100
AcDbLine
10
59.967936
20
13.905228
30
0
11
58.922095
21
19.836489
31
0
39
0
210
0
220
0
230
1
0
MTEXT
5
313
100
AcDbEntity
8
SK6
62
256
6
ByLayer
370
-1
48
1
60
0
100
AcDbMText
10
21.285617
20
-36.835
30
0
210
0
220
0
230
1
1
\W00.729;\fsimplex.shx,bigfont.shx;R210-042C4-09H\P
40
3.5
41
0
44
1.084337
50
0
71
7
72
5
7
DEFAULT
0
DIMENSION
5
324
100
AcDbEntity
8
2
62
256
6
ByLayer
370
-3
48
1
60
0
100
AcDbDimension
2
DimnDraft3D1
10
0
20
40.75
30
0
11
23.697039
21
40.75
31
0
70
32
71
5
72
1
41
1
210
0
220
0
230
1
3
Standard
100
AcDbAlignedDimension
13
60
23
23
33
0
14
0
24
22
34
0
50
0
100
AcDbRotatedDimension
1001
ACAD
1000
DSTYLE
1002
{
1070
   279
1070
     0
1070
   172
1070
     1
1070
   173
1070
     1
1070
   340
1005
314
1070
   271
1070
     2
1070
   272
1070
     2
1070
    77
1070
     1
1070
    73
1070
     0
1070
   171
1070
     4
1070
   274
1070
     4
1070
   177
1070
     2
1070
   176
1070
     2
1070
   178
1070
     7
1070
    78
1070
     8
1070
    41
1041
3.175
1070
   147
1041
2.25
1070
    42
1041
2.0
1070
    44
1041
2.0
1070
   140
1041
4.5
1070
   343
1005
325
1070
   344
1005
325
1002
}
0
DIMENSION
5
33A
100
AcDbEntity
8
SK2
62
256
6
ByLayer
370
-3
48
1
60
0
100
AcDbDimension
2
DimnDraft3D2
10
58.8
20
28.75
30
0
11
68.675
21
28.75
31
0
70
32
71
5
72
1
41
1
210
0
220
0
230
1
3
Standard
100
AcDbAlignedDimension
13
60
23
23
33
0
14
58.8
24
23
34
0
50
0
100
AcDbRotatedDimension
1001
ACAD
1000
DSTYLE
1002
{
1070
   279
1070
     0
1070
   172
1070
     1
1070
   173
1070
     1
1070
   340
1005
314
1070
   271
1070
     2
1070
   272
1070
     2
1070
    77
1070
     1
1070
    73
1070
     0
1070
   171
1070
     4
1070
   274
1070
     4
1070
   177
1070
     2
1070
   176
1070
     2
1070
   178
1070
     7
1070
    78
1070
     8
1070
    41
1041
3.175
1070
   147
1041
2.25
1070
    42
1041
2.0
1070
    44
1041
2.0
1070
   140
1041
4.5
1070
   343
1005
325
1070
   344
1005
325
1002
}
0
DIMENSION
5
348
100
AcDbEntity
8
SK2
62
256
6
ByLayer
370
-3
48
1
60
0
100
AcDbDimension
2
DimnDraft3D3
10
-33.75
20
-20
30
0
11
-33.75
21
-9.306414
31
0
70
32
71
5
72
1
41
1
210
0
220
0
230
1
3
Standard
100
AcDbAlignedDimension
13
-2
23
20
33
0
14
-2
24
-20
34
0
50
90
100
AcDbRotatedDimension
1001
ACAD
1000
DSTYLE
1002
{
1070
    74
1070
     0
1070
   279
1070
     0
1070
   172
1070
     1
1070
   173
1070
     1
1070
   340
1005
314
1070
   271
1070
     2
1070
   272
1070
     2
1070
    77
1070
     1
1070
    73
1070
     0
1070
   171
1070
     4
1070
   274
1070
     4
1070
   177
1070
     2
1070
   176
1070
     2
1070
   178
1070
     7
1070
    78
1070
     8
1070
    41
1041
3.175
1070
   147
1041
2.25
1070
    42
1041
2.0
1070
    44
1041
2.0
1070
   140
1041
4.5
1070
   343
1005
325
1070
   344
1005
325
1002
}
0
DIMENSION
5
356
100
AcDbEntity
8
2
62
256
6
ByLayer
370
-3
48
1
60
0
100
AcDbDimension
2
DimnDraft3D4
10
72.25
20
-21
30
0
11
72.25
21
-9.306414
31
0
70
32
71
5
72
1
41
1
210
0
220
0
230
1
3
Standard
100
AcDbAlignedDimension
13
62
23
21
33
0
14
62
24
-21
34
0
50
90
100
AcDbRotatedDimension
1001
ACAD
1000
DSTYLE
1002
{
1070
    74
1070
     0
1070
   279
1070
     0
1070
   172
1070
     1
1070
   173
1070
     1
1070
   340
1005
314
1070
   271
1070
     2
1070
   272
1070
     2
1070
    77
1070
     1
1070
    73
1070
     0
1070
   171
1070
     4
1070
   274
1070
     4
1070
   177
1070
     2
1070
   176
1070
     2
1070
   178
1070
     7
1070
    78
1070
     8
1070
    41
1041
3.175
1070
   147
1041
2.25
1070
    42
1041
2.0
1070
    44
1041
2.0
1070
   140
1041
4.5
1070
   343
1005
325
1070
   344
1005
325
1002
}
0
ENDSEC
0
SECTION
2
OBJECTS
0
DICTIONARY
5
3a4
330
0
100
AcDbDictionary
280
0
281
1
3
ACAD_GROUP
350
3a5
3
ACAD_MLINESTYLE
350
3a6
0
DICTIONARY
5
3a5
330
0
100
AcDbDictionary
280
0
281
1
0
DICTIONARY
5
3a6
330
0
100
AcDbDictionary
280
0
281
1
3
Standard
350
18
0
MLINESTYLE
5
18
330
3a6
100
AcDbMlineStyle
2
Standard
70
0
3

62
256
51
90
52
90
71
2
49
-0.5
62
256
6
ByLayer
49
0.5
62
256
6
ByLayer
0
RASTERVARIABLES
5
393
330

100
AcDbRasterVariables
90
0
70
1
71
1
72
1
0
ENDSEC
0
EOF
