0
SECTION
2
HEADER
9
$ACADVER
1
AC1015
9
$DWGCODEPAGE
3
ANSI_1252
9
$HANDSEED
5
17d
9
$ANGBASE
50
0
9
$ANGDIR
70
0
9
$ATTMODE
70
1
9
$AUNITS
70
0
9
$AUPREC
70
0
9
$CECOLOR
62
256
9
$CELTSCALE
40
1
9
$CELTYPE
6
ByLayer
9
$CELWEIGHT
370
-1
9
$CLAYER
8
0
9
$CMLJUST
70
0
9
$CMLSCALE
40
1
9
$CMLSTYLE
2
Standard
9
$DIMSTYLE
2
Standard
9
$TEXTSIZE
40
0.2
9
$TEXTSTYLE
7
Standard
9
$LUNITS
70
2
9
$LUPREC
70
4
9
$EXTNAMES
290
1
9
$INSUNITS
70
4
9
$LTSCALE
40
1
9
$LWDISPLAY
290
0
9
$PDMODE
70
0
9
$PDSIZE
40
0
9
$PLINEGEN
70
0
0
ENDSEC
0
SECTION
2
CLASSES
0
CLASS
1
RASTERVARIABLES
2
AcDbRasterVariables
3
ISM
90
0
280
0
281
0
0
ENDSEC
0
SECTION
2
TABLES
0
TABLE
2
VPORT
5
173
100
AcDbSymbolTable
0
VPORT
5
1
100
AcDbSymbolTableRecord
100
AcDbViewportTableRecord
2
*Active
70
0
10
0
20
0
11
1
21
1
12
-1
22
1
13
0
23
0
14
0.5
24
0.5
15
10
25
10
16
0
26
0
36
1
17
0
27
0
37
0
0
ENDTAB
0
TABLE
2
LTYPE
5
174
100
AcDbSymbolTable
0
LTYPE
5
14
100
AcDbSymbolTableRecord
100
AcDbLinetypeTableRecord
70
0
2
ByBlock
3

72
65
73
0
40
0
0
LTYPE
5
15
100
AcDbSymbolTableRecord
100
AcDbLinetypeTableRecord
70
0
2
ByLayer
3

72
65
73
0
40
0
0
LTYPE
5
16
100
AcDbSymbolTableRecord
100
AcDbLinetypeTableRecord
70
0
2
CONTINUOUS
3
Solid line
72
65
73
0
40
0
0
LTYPE
5
3C
100
AcDbSymbolTableRecord
100
AcDbLinetypeTableRecord
70
0
2
DASHED
3
__ __ __ __ __ __ __ __ __
72
65
73
2
40
25.72
49
12.86
74
0
49
-12.86
74
0
0
LTYPE
5
3D
100
AcDbSymbolTableRecord
100
AcDbLinetypeTableRecord
70
0
2
HIDDEN
3
_ _ _ _ _ _ _ _ _ _ _ _ _ _ _
72
65
73
2
40
0.5
49
0.25
74
0
49
-0.25
74
0
0
LTYPE
5
3E
100
AcDbSymbolTableRecord
100
AcDbLinetypeTableRecord
70
0
2
PHANTOM
3
____ _ _ ____ _ _ _____ _ _ ____
72
65
73
6
40
50.5
49
18
74
0
49
-6.5
74
0
49
6.5
74
0
49
-6.5
74
0
49
6.5
74
0
49
-6.5
74
0
0
LTYPE
5
3F
100
AcDbSymbolTableRecord
100
AcDbLinetypeTableRecord
70
0
2
CENTER
3
____ _ ____ _ ____ _ ____
72
65
73
4
40
47.5
49
22
74
0
49
-8.5
74
0
49
8.5
74
0
49
-8.5
74
0
0
LTYPE
5
40
100
AcDbSymbolTableRecord
100
AcDbLinetypeTableRecord
70
0
2
DOT
3
.........................
72
65
73
2
40
10
49
0
74
0
49
-10
74
0
0
LTYPE
5
41
100
AcDbSymbolTableRecord
100
AcDbLinetypeTableRecord
70
0
2
DASHDOT
3
_._._._._._._._._._._._._._._._.
72
65
73
4
40
70
49
31
74
0
49
-13
74
0
49
13
74
0
49
-13
74
0
0
ENDTAB
0
TABLE
2
LAYER
5
175
100
AcDbSymbolTable
0
LAYER
5
10
100
AcDbSymbolTableRecord
100
AcDbLayerTableRecord
2
0
70
0
62
7
6
CONTINUOUS
290
1
370
-3
390
0
0
LAYER
5
43
100
AcDbSymbolTableRecord
100
AcDbLayerTableRecord
2
81
70
0
62
-3
6
CONTINUOUS
290
1
370
-3
390
0
0
LAYER
5
45
100
AcDbSymbolTableRecord
100
AcDbLayerTableRecord
2
80
70
0
62
-6
6
CONTINUOUS
290
1
370
-3
390
0
0
LAYER
5
47
100
AcDbSymbolTableRecord
100
AcDbLayerTableRecord
2
1
70
0
62
4
6
CONTINUOUS
290
1
370
-3
390
0
0
LAYER
5
95
100
AcDbSymbolTableRecord
100
AcDbLayerTableRecord
2
4
70
0
62
-2
6
CENTER
290
1
370
-3
390
0
0
LAYER
5
C4
100
AcDbSymbolTableRecord
100
AcDbLayerTableRecord
2
2
70
0
62
7
6
CONTINUOUS
290
1
370
-3
390
0
0
LAYER
5
15f
100
AcDbSymbolTableRecord
100
AcDbLayerTableRecord
2
SK3
70
0
62
1
6
DASHED
290
1
370
-3
390
0
0
LAYER
5
160
100
AcDbSymbolTableRecord
100
AcDbLayerTableRecord
2
SK4
70
0
62
2
6
CENTER
290
1
370
-3
390
0
0
LAYER
5
161
100
AcDbSymbolTableRecord
100
AcDbLayerTableRecord
2
SK2
70
0
62
7
6
CONTINUOUS
290
1
370
-3
390
0
0
LAYER
5
162
100
AcDbSymbolTableRecord
100
AcDbLayerTableRecord
2
SK6
70
0
62
5
6
CONTINUOUS
290
1
370
-3
390
0
0
ENDTAB
0
TABLE
2
STYLE
5
176
100
AcDbSymbolTable
0
STYLE
5
11
100
AcDbSymbolTableRecord
100
AcDbTextStyleTableRecord
2
Standard
3
txt
70
0
71
0
40
0
41
1
42
0
50
0
0
STYLE
5
D2
100
AcDbSymbolTableRecord
100
AcDbTextStyleTableRecord
2
DEFAULT
3
simplex.shx
70
0
71
0
40
0
41
1
42
0
50
0
0
STYLE
5
D3
100
AcDbSymbolTableRecord
100
AcDbTextStyleTableRecord
2
DWGDirectTextStyle
3
SIMPLEX
70
0
71
0
40
0
41
1
42
0
50
0
0
ENDTAB
0
TABLE
2
DIMSTYLE
5
177
100
AcDbSymbolTable
100
AcDbDimStyleTable
0
DIMSTYLE
105
27
100
AcDbSymbolTableRecord
100
AcDbDimStyleTableRecord
2
Standard
70
0
3
<>
41
0.18
42
0.0625
44
0.18
140
0.18
147
0.09
73
0
74
0
77
1
271
2
275
0
278
52
280
0
340
11
0
ENDTAB
0
TABLE
2
VIEW
5
178
100
AcDbSymbolTable
0
ENDTAB
0
TABLE
2
UCS
5
179
100
AcDbSymbolTable
0
ENDTAB
0
TABLE
2
APPID
5
17a
100
AcDbSymbolTable
0
APPID
5
12
100
AcDbSymbolTableRecord
100
AcDbRegAppTableRecord
2
ACAD
70
0
0
ENDTAB
0
TABLE
2
BLOCK_RECORD
5
17b
100
AcDbSymbolTable
0
BLOCK_RECORD
5
1F
100
AcDbSymbolTableRecord
100
AcDbBlockTableRecord
2
*Model_Space
340
0
70
0
0
BLOCK_RECORD
5
1B
100
AcDbSymbolTableRecord
100
AcDbBlockTableRecord
2
*Paper_Space
340
0
70
0
0
BLOCK_RECORD
5
23
100
AcDbSymbolTableRecord
100
AcDbBlockTableRecord
2
*Paper_Space0
340
0
70
0
0
BLOCK_RECORD
5
D5
100
AcDbSymbolTableRecord
100
AcDbBlockTableRecord
2
DimnDraft3D1
340
0
70
0
0
BLOCK_RECORD
5
E3
100
AcDbSymbolTableRecord
100
AcDbBlockTableRecord
2
_CLOSED
340
0
70
0
0
BLOCK_RECORD
5
EA
100
AcDbSymbolTableRecord
100
AcDbBlockTableRecord
2
DimnDraft3D2
340
0
70
0
0
BLOCK_RECORD
5
F8
100
AcDbSymbolTableRecord
100
AcDbBlockTableRecord
2
DimnDraft3D3
340
0
70
0
0
BLOCK_RECORD
5
106
100
AcDbSymbolTableRecord
100
AcDbBlockTableRecord
2
DimnDraft3D4
340
0
70
0
0
BLOCK_RECORD
5
114
100
AcDbSymbolTableRecord
100
AcDbBlockTableRecord
2
DimnDraft3D5
340
0
70
0
0
ENDTAB
0
ENDSEC
0
SECTION
2
BLOCKS
0
BLOCK
5
20
100
AcDbEntity
8
0
100
AcDbBlockBegin
2
*Model_Space
70
0
10
0
20
0
30
0
3
*Model_Space
0
ENDBLK
5
21
100
AcDbEntity
8
0
100
AcDbBlockEnd
0
BLOCK
5
1C
100
AcDbEntity
8
0
100
AcDbBlockBegin
2
*Paper_Space
70
0
10
0
20
0
30
0
3
*Paper_Space
0
ENDBLK
5
1D
100
AcDbEntity
8
0
100
AcDbBlockEnd
0
BLOCK
5
24
100
AcDbEntity
8
0
100
AcDbBlockBegin
2
*Paper_Space0
70
0
10
0
20
0
30
0
3
*Paper_Space0
0
ENDBLK
5
25
100
AcDbEntity
8
0
100
AcDbBlockEnd
0
BLOCK
5
E0
100
AcDbEntity
8
0
100
AcDbBlockBegin
2
DimnDraft3D1
70
0
10
0
20
0
30
0
3
DimnDraft3D1
0
MTEXT
5
D6
100
AcDbEntity
8
2
62
256
6
ByLayer
370
-1
48
1
60
0
100
AcDbMText
10
76.125
20
-8.721711
30
0
210
0
220
0
230
1
1
\W01.000;\fsimplex.shx,bigfont.shx;(%%c140.1) 
40
4.5
41
0
44
1.084337
50
90
71
7
72
5
7
DEFAULT
0
LINE
5
D7
100
AcDbEntity
8
2
62
256
6
ByLayer
370
-1
48
1
60
0
100
AcDbLine
10
64.499997
20
70.03805
30
0
11
79.25
21
70.03805
31
0
39
0
210
0
220
0
230
1
0
LINE
5
D8
100
AcDbEntity
8
2
62
256
6
ByLayer
370
-1
48
1
60
0
100
AcDbLine
10
64.499997
20
-70.03805
30
0
11
79.25
21
-70.03805
31
0
39
0
210
0
220
0
230
1
0
LINE
5
D9
100
AcDbEntity
8
2
62
256
6
ByLayer
370
-1
48
1
60
0
100
AcDbLine
10
77.25
20
70.03805
30
0
11
77.25
21
-70.03805
31
0
39
0
210
0
220
0
230
1
0
LINE
5
DA
100
AcDbEntity
8
2
62
256
6
ByLayer
370
-1
48
1
60
0
100
AcDbLine
10
77.25
20
70.03805
30
0
11
77.916667
21
66.038052
31
0
39
0
210
0
220
0
230
1
0
LINE
5
DB
100
AcDbEntity
8
2
62
256
6
ByLayer
370
-1
48
1
60
0
100
AcDbLine
10
77.25
20
70.03805
30
0
11
76.583333
21
66.038048
31
0
39
0
210
0
220
0
230
1
0
LINE
5
DC
100
AcDbEntity
8
2
62
256
6
ByLayer
370
-1
48
1
60
0
100
AcDbLine
10
77.916667
20
66.038052
30
0
11
76.583333
21
66.038048
31
0
39
0
210
0
220
0
230
1
0
LINE
5
DD
100
AcDbEntity
8
2
62
256
6
ByLayer
370
-1
48
1
60
0
100
AcDbLine
10
77.25
20
-70.03805
30
0
11
76.583333
21
-66.038052
31
0
39
0
210
0
220
0
230
1
0
LINE
5
DE
100
AcDbEntity
8
2
62
256
6
ByLayer
370
-1
48
1
60
0
100
AcDbLine
10
77.25
20
-70.03805
30
0
11
77.916667
21
-66.038048
31
0
39
0
210
0
220
0
230
1
0
LINE
5
DF
100
AcDbEntity
8
2
62
256
6
ByLayer
370
-1
48
1
60
0
100
AcDbLine
10
76.583333
20
-66.038052
30
0
11
77.916667
21
-66.038048
31
0
39
0
210
0
220
0
230
1
0
ENDBLK
5
E1
100
AcDbEntity
8
0
100
AcDbBlockEnd
0
BLOCK
5
E4
100
AcDbEntity
8
0
100
AcDbBlockBegin
2
_CLOSED
70
0
10
0
20
0
30
0
3
_CLOSED
0
LINE
5
E6
100
AcDbEntity
8
0
62
256
6
ByLayer
370
-2
48
1
60
0
100
AcDbLine
10
-1
20
0.166667
30
0
11
0
21
0
31
0
39
0
210
0
220
0
230
1
0
LINE
5
E7
100
AcDbEntity
8
0
62
256
6
ByLayer
370
-2
48
1
60
0
100
AcDbLine
10
0
20
0
30
0
11
-1
21
-0.166667
31
0
39
0
210
0
220
0
230
1
0
LINE
5
E8
100
AcDbEntity
8
0
62
256
6
ByLayer
370
-2
48
1
60
0
100
AcDbLine
10
-1
20
0.166667
30
0
11
-1
21
-0.166667
31
0
39
0
210
0
220
0
230
1
0
LINE
5
E9
100
AcDbEntity
8
0
62
256
6
ByLayer
370
-2
48
1
60
0
100
AcDbLine
10
0
20
0
30
0
11
-1
21
0
31
0
39
0
210
0
220
0
230
1
0
ENDBLK
5
E5
100
AcDbEntity
8
0
100
AcDbBlockEnd
0
BLOCK
5
F5
100
AcDbEntity
8
0
100
AcDbBlockBegin
2
DimnDraft3D2
70
0
10
0
20
0
30
0
3
DimnDraft3D2
0
MTEXT
5
EB
100
AcDbEntity
8
2
62
256
6
ByLayer
370
-1
48
1
60
0
100
AcDbMText
10
88.125
20
-4.748684
30
0
210
0
220
0
230
1
1
\W01.000;\fsimplex.shx,bigfont.shx;%%c160 
40
4.5
41
0
44
1.084337
50
90
71
7
72
5
7
DEFAULT
0
LINE
5
EC
100
AcDbEntity
8
2
62
256
6
ByLayer
370
-1
48
1
60
0
100
AcDbLine
10
64.499997
20
80
30
0
11
91.25
21
80
31
0
39
0
210
0
220
0
230
1
0
LINE
5
ED
100
AcDbEntity
8
2
62
256
6
ByLayer
370
-1
48
1
60
0
100
AcDbLine
10
64.499997
20
-80
30
0
11
91.25
21
-80
31
0
39
0
210
0
220
0
230
1
0
LINE
5
EE
100
AcDbEntity
8
2
62
256
6
ByLayer
370
-1
48
1
60
0
100
AcDbLine
10
89.25
20
80
30
0
11
89.25
21
-80
31
0
39
0
210
0
220
0
230
1
0
LINE
5
EF
100
AcDbEntity
8
2
62
256
6
ByLayer
370
-1
48
1
60
0
100
AcDbLine
10
89.25
20
80
30
0
11
89.916667
21
76.000002
31
0
39
0
210
0
220
0
230
1
0
LINE
5
F0
100
AcDbEntity
8
2
62
256
6
ByLayer
370
-1
48
1
60
0
100
AcDbLine
10
89.25
20
80
30
0
11
88.583333
21
75.999998
31
0
39
0
210
0
220
0
230
1
0
LINE
5
F1
100
AcDbEntity
8
2
62
256
6
ByLayer
370
-1
48
1
60
0
100
AcDbLine
10
89.916667
20
76.000002
30
0
11
88.583333
21
75.999998
31
0
39
0
210
0
220
0
230
1
0
LINE
5
F2
100
AcDbEntity
8
2
62
256
6
ByLayer
370
-1
48
1
60
0
100
AcDbLine
10
89.25
20
-80
30
0
11
88.583333
21
-76.000002
31
0
39
0
210
0
220
0
230
1
0
LINE
5
F3
100
AcDbEntity
8
2
62
256
6
ByLayer
370
-1
48
1
60
0
100
AcDbLine
10
89.25
20
-80
30
0
11
89.916667
21
-75.999998
31
0
39
0
210
0
220
0
230
1
0
LINE
5
F4
100
AcDbEntity
8
2
62
256
6
ByLayer
370
-1
48
1
60
0
100
AcDbLine
10
88.583333
20
-76.000002
30
0
11
89.916667
21
-75.999998
31
0
39
0
210
0
220
0
230
1
0
ENDBLK
5
F6
100
AcDbEntity
8
0
100
AcDbBlockEnd
0
BLOCK
5
103
100
AcDbEntity
8
0
100
AcDbBlockBegin
2
DimnDraft3D3
70
0
10
0
20
0
30
0
3
DimnDraft3D3
0
MTEXT
5
F9
100
AcDbEntity
8
2
62
256
6
ByLayer
370
-1
48
1
60
0
100
AcDbMText
10
29.996053
20
90.875
30
0
210
0
220
0
230
1
1
\W01.000;\fsimplex.shx,bigfont.shx;63 
40
4.5
41
0
44
1.084337
50
0
71
7
72
5
7
DEFAULT
0
LINE
5
FA
100
AcDbEntity
8
2
62
256
6
ByLayer
370
-1
48
1
60
0
100
AcDbLine
10
63
20
81.499997
30
0
11
63
21
91.75
31
0
39
0
210
0
220
0
230
1
0
LINE
5
FB
100
AcDbEntity
8
2
62
256
6
ByLayer
370
-1
48
1
60
0
100
AcDbLine
10
0
20
55.724997
30
0
11
0
21
91.75
31
0
39
0
210
0
220
0
230
1
0
LINE
5
FC
100
AcDbEntity
8
2
62
256
6
ByLayer
370
-1
48
1
60
0
100
AcDbLine
10
63
20
89.75
30
0
11
0
21
89.75
31
0
39
0
210
0
220
0
230
1
0
LINE
5
FD
100
AcDbEntity
8
2
62
256
6
ByLayer
370
-1
48
1
60
0
100
AcDbLine
10
63
20
89.75
30
0
11
59.000002
21
89.083333
31
0
39
0
210
0
220
0
230
1
0
LINE
5
FE
100
AcDbEntity
8
2
62
256
6
ByLayer
370
-1
48
1
60
0
100
AcDbLine
10
63
20
89.75
30
0
11
58.999998
21
90.416667
31
0
39
0
210
0
220
0
230
1
0
LINE
5
FF
100
AcDbEntity
8
2
62
256
6
ByLayer
370
-1
48
1
60
0
100
AcDbLine
10
59.000002
20
89.083333
30
0
11
58.999998
21
90.416667
31
0
39
0
210
0
220
0
230
1
0
LINE
5
100
100
AcDbEntity
8
2
62
256
6
ByLayer
370
-1
48
1
60
0
100
AcDbLine
10
0
20
89.75
30
0
11
3.999998
21
90.416667
31
0
39
0
210
0
220
0
230
1
0
LINE
5
101
100
AcDbEntity
8
2
62
256
6
ByLayer
370
-1
48
1
60
0
100
AcDbLine
10
0
20
89.75
30
0
11
4.000002
21
89.083333
31
0
39
0
210
0
220
0
230
1
0
LINE
5
102
100
AcDbEntity
8
2
62
256
6
ByLayer
370
-1
48
1
60
0
100
AcDbLine
10
3.999998
20
90.416667
30
0
11
4.000002
21
89.083333
31
0
39
0
210
0
220
0
230
1
0
ENDBLK
5
104
100
AcDbEntity
8
0
100
AcDbBlockEnd
0
BLOCK
5
111
100
AcDbEntity
8
0
100
AcDbBlockBegin
2
DimnDraft3D4
70
0
10
0
20
0
30
0
3
DimnDraft3D4
0
MTEXT
5
107
100
AcDbEntity
8
SK2
62
256
6
ByLayer
370
-1
48
1
60
0
100
AcDbMText
10
-10.875
20
-3.896053
30
0
210
0
220
0
230
1
1
\W01.000;\fsimplex.shx,bigfont.shx;%%c40 
40
4.5
41
0
44
1.084337
50
90
71
7
72
5
7
DEFAULT
0
LINE
5
108
100
AcDbEntity
8
SK2
62
256
6
ByLayer
370
-1
48
1
60
0
100
AcDbLine
10
-1.499997
20
20
30
0
11
-11.75
21
20
31
0
39
0
210
0
220
0
230
1
0
LINE
5
109
100
AcDbEntity
8
SK2
62
256
6
ByLayer
370
-1
48
1
60
0
100
AcDbLine
10
-1.499997
20
-20
30
0
11
-11.75
21
-20
31
0
39
0
210
0
220
0
230
1
0
LINE
5
10A
100
AcDbEntity
8
SK2
62
256
6
ByLayer
370
-1
48
1
60
0
100
AcDbLine
10
-9.75
20
20
30
0
11
-9.75
21
-20
31
0
39
0
210
0
220
0
230
1
0
LINE
5
10B
100
AcDbEntity
8
SK2
62
256
6
ByLayer
370
-1
48
1
60
0
100
AcDbLine
10
-9.75
20
20
30
0
11
-9.083333
21
16.000002
31
0
39
0
210
0
220
0
230
1
0
LINE
5
10C
100
AcDbEntity
8
SK2
62
256
6
ByLayer
370
-1
48
1
60
0
100
AcDbLine
10
-9.75
20
20
30
0
11
-10.416667
21
15.999998
31
0
39
0
210
0
220
0
230
1
0
LINE
5
10D
100
AcDbEntity
8
SK2
62
256
6
ByLayer
370
-1
48
1
60
0
100
AcDbLine
10
-9.083333
20
16.000002
30
0
11
-10.416667
21
15.999998
31
0
39
0
210
0
220
0
230
1
0
LINE
5
10E
100
AcDbEntity
8
SK2
62
256
6
ByLayer
370
-1
48
1
60
0
100
AcDbLine
10
-9.75
20
-20
30
0
11
-10.416667
21
-16.000002
31
0
39
0
210
0
220
0
230
1
0
LINE
5
10F
100
AcDbEntity
8
SK2
62
256
6
ByLayer
370
-1
48
1
60
0
100
AcDbLine
10
-9.75
20
-20
30
0
11
-9.083333
21
-15.999998
31
0
39
0
210
0
220
0
230
1
0
LINE
5
110
100
AcDbEntity
8
SK2
62
256
6
ByLayer
370
-1
48
1
60
0
100
AcDbLine
10
-10.416667
20
-16.000002
30
0
11
-9.083333
21
-15.999998
31
0
39
0
210
0
220
0
230
1
0
ENDBLK
5
112
100
AcDbEntity
8
0
100
AcDbBlockEnd
0
BLOCK
5
11F
100
AcDbEntity
8
0
100
AcDbBlockBegin
2
DimnDraft3D5
70
0
10
0
20
0
30
0
3
DimnDraft3D5
0
MTEXT
5
115
100
AcDbEntity
8
2
62
256
6
ByLayer
370
-1
48
1
60
0
100
AcDbMText
10
44.992105
20
-93.125
30
0
210
0
220
0
230
1
1
\W01.000;\fsimplex.shx,bigfont.shx;10 
40
4.5
41
0
44
1.084337
50
0
71
7
72
5
7
DEFAULT
0
LINE
5
116
100
AcDbEntity
8
2
62
256
6
ByLayer
370
-1
48
1
60
0
100
AcDbLine
10
63
20
-81.499997
30
0
11
63
21
-96.25
31
0
39
0
210
0
220
0
230
1
0
LINE
5
117
100
AcDbEntity
8
2
62
256
6
ByLayer
370
-1
48
1
60
0
100
AcDbLine
10
53
20
-81.499997
30
0
11
53
21
-96.25
31
0
39
0
210
0
220
0
230
1
0
LINE
5
118
100
AcDbEntity
8
2
62
256
6
ByLayer
370
-1
48
1
60
0
100
AcDbLine
10
63
20
-94.25
30
0
11
43.867105
21
-94.25
31
0
39
0
210
0
220
0
230
1
0
LINE
5
119
100
AcDbEntity
8
2
62
256
6
ByLayer
370
-1
48
1
60
0
100
AcDbLine
10
63
20
-94.25
30
0
11
59.000002
21
-94.916667
31
0
39
0
210
0
220
0
230
1
0
LINE
5
11A
100
AcDbEntity
8
2
62
256
6
ByLayer
370
-1
48
1
60
0
100
AcDbLine
10
63
20
-94.25
30
0
11
58.999998
21
-93.583333
31
0
39
0
210
0
220
0
230
1
0
LINE
5
11B
100
AcDbEntity
8
2
62
256
6
ByLayer
370
-1
48
1
60
0
100
AcDbLine
10
59.000002
20
-94.916667
30
0
11
58.999998
21
-93.583333
31
0
39
0
210
0
220
0
230
1
0
LINE
5
11C
100
AcDbEntity
8
2
62
256
6
ByLayer
370
-1
48
1
60
0
100
AcDbLine
10
53
20
-94.25
30
0
11
56.999998
21
-93.583333
31
0
39
0
210
0
220
0
230
1
0
LINE
5
11D
100
AcDbEntity
8
2
62
256
6
ByLayer
370
-1
48
1
60
0
100
AcDbLine
10
53
20
-94.25
30
0
11
57.000002
21
-94.916667
31
0
39
0
210
0
220
0
230
1
0
LINE
5
11E
100
AcDbEntity
8
2
62
256
6
ByLayer
370
-1
48
1
60
0
100
AcDbLine
10
56.999998
20
-93.583333
30
0
11
57.000002
21
-94.916667
31
0
39
0
210
0
220
0
230
1
0
ENDBLK
5
120
100
AcDbEntity
8
0
100
AcDbBlockEnd
0
ENDSEC
0
SECTION
2
ENTITIES
0
ARC
5
96
100
AcDbEntity
8
1
62
256
6
ByLayer
370
-1
48
1
60
0
100
AcDbCircle
39
0
10
51.483971
20
-69.512995
30
0
40
8.60470975185743
210
0
220
0
230
1
100
AcDbArc
50
220.823086
51
314.552375
0
ARC
5
97
100
AcDbEntity
8
1
62
256
6
ByLayer
370
-1
48
1
60
0
100
AcDbCircle
39
0
10
51.370335
20
-69.47401
30
0
40
8.712378079007
210
0
220
0
230
1
100
AcDbArc
50
314.905058
51
355.061614
0
ARC
5
98
100
AcDbEntity
8
SK3
62
256
6
ByLayer
370
-1
48
1
60
0
100
AcDbCircle
39
0
10
51.370335
20
-69.47401
30
0
40
8.712378079007
210
0
220
0
230
1
100
AcDbArc
50
4.938386
51
39.938645
0
ARC
5
99
100
AcDbEntity
8
SK3
62
256
6
ByLayer
370
-1
48
1
60
0
100
AcDbCircle
39
0
10
59.200495
20
-62.918001
30
0
40
1.5
210
0
220
0
230
1
100
AcDbArc
50
196.969327
51
219.938645
0
ARC
5
9A
100
AcDbEntity
8
SK3
62
256
6
ByLayer
370
-1
48
1
60
0
100
AcDbCircle
39
0
10
52.380115
20
-53.88404
30
0
40
2
210
0
220
0
230
1
100
AcDbArc
50
20
51
45
0
ARC
5
9B
100
AcDbEntity
8
SK3
62
256
6
ByLayer
370
-1
48
1
60
0
100
AcDbCircle
39
0
10
53.380115
20
-49.88404
30
0
40
2
210
0
220
0
230
1
100
AcDbArc
50
180
51
225
0
ARC
5
9C
100
AcDbEntity
8
1
62
256
6
ByLayer
370
-1
48
1
60
0
100
AcDbCircle
39
0
10
41.567222
20
-78.079878
30
0
40
4.5
210
0
220
0
230
1
100
AcDbArc
50
40.823086
51
80.429856
0
ARC
5
9D
100
AcDbEntity
8
1
62
256
6
ByLayer
370
-1
48
1
60
0
100
AcDbCircle
39
0
10
15.141345
20
-78.9197
30
0
40
24.6947
210
0
220
0
230
1
100
AcDbArc
50
25.014207
51
90
0
ARC
5
9E
100
AcDbEntity
8
1
62
256
6
ByLayer
370
-1
48
1
60
0
100
AcDbCircle
39
0
10
43.146644
20
-68.712092
30
0
40
5
210
0
220
0
230
1
100
AcDbArc
50
205.014207
51
260.429856
0
ARC
5
9F
100
AcDbEntity
8
SK3
62
256
6
ByLayer
370
-1
48
1
60
0
100
AcDbCircle
39
0
10
-53.380115
20
49.88404
30
0
40
2
210
0
220
0
230
-1
100
AcDbArc
50
360
51
45
0
ARC
5
A0
100
AcDbEntity
8
SK3
62
256
6
ByLayer
370
-1
48
1
60
0
100
AcDbCircle
39
0
10
-52.380115
20
53.88404
30
0
40
2
210
0
220
0
230
-1
100
AcDbArc
50
200
51
225
0
ARC
5
A1
100
AcDbEntity
8
SK3
62
256
6
ByLayer
370
-1
48
1
60
0
100
AcDbCircle
39
0
10
-59.200495
20
62.918001
30
0
40
1.5
210
0
220
0
230
-1
100
AcDbArc
50
16.969327
51
39.938645
0
ARC
5
A2
100
AcDbEntity
8
SK3
62
256
6
ByLayer
370
-1
48
1
60
0
100
AcDbCircle
39
0
10
-51.370335
20
69.47401
30
0
40
8.712378079007
210
0
220
0
230
-1
100
AcDbArc
50
184.938386
51
219.938645
0
ARC
5
A3
100
AcDbEntity
8
1
62
256
6
ByLayer
370
-1
48
1
60
0
100
AcDbCircle
39
0
10
-51.370335
20
69.47401
30
0
40
8.712378079007
210
0
220
0
230
-1
100
AcDbArc
50
134.905058
51
175.061614
0
ARC
5
A4
100
AcDbEntity
8
1
62
256
6
ByLayer
370
-1
48
1
60
0
100
AcDbCircle
39
0
10
-51.483971
20
69.512995
30
0
40
8.60470975185743
210
0
220
0
230
-1
100
AcDbArc
50
40.823086
51
134.552375
0
ARC
5
A5
100
AcDbEntity
8
1
62
256
6
ByLayer
370
-1
48
1
60
0
100
AcDbCircle
39
0
10
-41.567222
20
78.079878
30
0
40
4.5
210
0
220
0
230
-1
100
AcDbArc
50
220.823086
51
260.429856
0
ARC
5
A6
100
AcDbEntity
8
1
62
256
6
ByLayer
370
-1
48
1
60
0
100
AcDbCircle
39
0
10
-43.146644
20
68.712092
30
0
40
5
210
0
220
0
230
-1
100
AcDbArc
50
25.014207
51
80.429856
0
ARC
5
A7
100
AcDbEntity
8
1
62
256
6
ByLayer
370
-1
48
1
60
0
100
AcDbCircle
39
0
10
-15.141345
20
78.9197
30
0
40
24.6947
210
0
220
0
230
-1
100
AcDbArc
50
205.014207
51
270
0
ARC
5
A9
100
AcDbEntity
8
1
62
256
6
ByLayer
370
-1
48
1
60
0
100
AcDbCircle
39
0
10
51.22425
20
69.9881
30
0
40
0.406
210
0
220
0
230
1
100
AcDbArc
50
104.407406
51
180
0
ARC
5
AA
100
AcDbEntity
8
1
62
256
6
ByLayer
370
-1
48
1
60
0
100
AcDbCircle
39
0
10
52.149375
20
71.590464
30
0
40
0.406
210
0
220
0
230
1
100
AcDbArc
50
120
51
195.592594
0
ARC
5
AB
100
AcDbEntity
8
1
62
256
6
ByLayer
370
-1
48
1
60
0
100
AcDbCircle
39
0
10
50.902034
20
71.242374
30
0
40
0.889
210
0
220
0
230
1
100
AcDbArc
50
284.407406
51
15.592594
0
ARC
5
AC
100
AcDbEntity
8
1
62
256
6
ByLayer
370
-1
48
1
60
0
100
AcDbCircle
39
0
10
52.149375
20
68.385736
30
0
40
0.406
210
0
220
0
230
1
100
AcDbArc
50
164.407406
51
240
0
ARC
5
AD
100
AcDbEntity
8
1
62
256
6
ByLayer
370
-1
48
1
60
0
100
AcDbCircle
39
0
10
51.22425
20
69.9881
30
0
40
0.406
210
0
220
0
230
1
100
AcDbArc
50
180
51
255.592594
0
ARC
5
AE
100
AcDbEntity
8
1
62
256
6
ByLayer
370
-1
48
1
60
0
100
AcDbCircle
39
0
10
50.902034
20
68.733826
30
0
40
0.889
210
0
220
0
230
1
100
AcDbArc
50
344.407406
51
75.592594
0
ARC
5
AF
100
AcDbEntity
8
1
62
256
6
ByLayer
370
-1
48
1
60
0
100
AcDbCircle
39
0
10
53.999625
20
68.385736
30
0
40
0.406
210
0
220
0
230
1
100
AcDbArc
50
224.407406
51
300
0
ARC
5
B0
100
AcDbEntity
8
1
62
256
6
ByLayer
370
-1
48
1
60
0
100
AcDbCircle
39
0
10
52.149375
20
68.385736
30
0
40
0.406
210
0
220
0
230
1
100
AcDbArc
50
240
51
315.592594
0
ARC
5
B1
100
AcDbEntity
8
1
62
256
6
ByLayer
370
-1
48
1
60
0
100
AcDbCircle
39
0
10
53.0745
20
67.479553
30
0
40
0.889
210
0
220
0
230
1
100
AcDbArc
50
44.407406
51
135.592594
0
ARC
5
B2
100
AcDbEntity
8
1
62
256
6
ByLayer
370
-1
48
1
60
0
100
AcDbCircle
39
0
10
54.92475
20
69.9881
30
0
40
0.406
210
0
220
0
230
1
100
AcDbArc
50
284.407406
51
360
0
ARC
5
B3
100
AcDbEntity
8
1
62
256
6
ByLayer
370
-1
48
1
60
0
100
AcDbCircle
39
0
10
53.999625
20
68.385736
30
0
40
0.406
210
0
220
0
230
1
100
AcDbArc
50
300
51
15.592594
0
ARC
5
B4
100
AcDbEntity
8
1
62
256
6
ByLayer
370
-1
48
1
60
0
100
AcDbCircle
39
0
10
55.246966
20
68.733826
30
0
40
0.889
210
0
220
0
230
1
100
AcDbArc
50
104.407406
51
195.592594
0
ARC
5
B5
100
AcDbEntity
8
1
62
256
6
ByLayer
370
-1
48
1
60
0
100
AcDbCircle
39
0
10
53.999625
20
71.590464
30
0
40
0.406
210
0
220
0
230
1
100
AcDbArc
50
344.407406
51
60
0
ARC
5
B6
100
AcDbEntity
8
1
62
256
6
ByLayer
370
-1
48
1
60
0
100
AcDbCircle
39
0
10
54.92475
20
69.9881
30
0
40
0.406
210
0
220
0
230
1
100
AcDbArc
50
360
51
75.592594
0
ARC
5
B7
100
AcDbEntity
8
1
62
256
6
ByLayer
370
-1
48
1
60
0
100
AcDbCircle
39
0
10
55.246966
20
71.242374
30
0
40
0.889
210
0
220
0
230
1
100
AcDbArc
50
164.407406
51
255.592594
0
ARC
5
B8
100
AcDbEntity
8
1
62
256
6
ByLayer
370
-1
48
1
60
0
100
AcDbCircle
39
0
10
52.149375
20
71.590464
30
0
40
0.406
210
0
220
0
230
1
100
AcDbArc
50
44.407406
51
120
0
ARC
5
B9
100
AcDbEntity
8
1
62
256
6
ByLayer
370
-1
48
1
60
0
100
AcDbCircle
39
0
10
53.999625
20
71.590464
30
0
40
0.406
210
0
220
0
230
1
100
AcDbArc
50
60
51
135.592594
0
ARC
5
BA
100
AcDbEntity
8
1
62
256
6
ByLayer
370
-1
48
1
60
0
100
AcDbCircle
39
0
10
53.0745
20
72.496647
30
0
40
0.889
210
0
220
0
230
1
100
AcDbArc
50
224.407406
51
315.592594
0
ARC
5
BE
100
AcDbEntity
8
1
62
256
6
ByLayer
370
-1
48
1
60
0
100
AcDbCircle
39
0
10
53.0745
20
-69.9881
30
0
40
10
210
0
220
0
230
1
100
AcDbArc
50
205.805143
51
45.766262
0
ARC
5
BF
100
AcDbEntity
8
1
62
256
6
ByLayer
370
-1
48
1
60
0
100
AcDbCircle
39
0
10
1.4
20
-53.225
30
0
40
1
210
0
220
0
230
1
100
AcDbArc
50
180
51
270
0
ARC
5
C0
100
AcDbEntity
8
1
62
256
6
ByLayer
370
-1
48
1
60
0
100
AcDbCircle
39
0
10
-1.4
20
53.225
30
0
40
1
210
0
220
0
230
-1
100
AcDbArc
50
0
51
90
0
ARC
5
C1
100
AcDbEntity
8
SK3
62
256
6
ByLayer
370
-1
48
1
60
0
100
AcDbCircle
39
0
10
28.8
20
-44.925
30
0
40
0.8
210
0
220
0
230
1
100
AcDbArc
50
180
51
270
0
ARC
5
C2
100
AcDbEntity
8
SK3
62
256
6
ByLayer
370
-1
48
1
60
0
100
AcDbCircle
39
0
10
-28.8
20
44.925
30
0
40
0.8
210
0
220
0
230
-1
100
AcDbArc
50
0
51
90
0
CIRCLE
5
A8
100
AcDbEntity
8
1
62
256
6
ByLayer
370
-1
48
1
60
0
100
AcDbCircle
10
53.0745
20
69.9881
30
0
40
10
39
0
210
0
220
0
230
1
0
CIRCLE
5
BB
100
AcDbEntity
8
1
62
256
6
ByLayer
370
-1
48
1
60
0
100
AcDbCircle
10
53.0745
20
69.9881
30
0
40
4.25
39
0
210
0
220
0
230
1
0
CIRCLE
5
BC
100
AcDbEntity
8
1
62
256
6
ByLayer
370
-1
48
1
60
0
100
AcDbCircle
10
53.0745
20
69.9881
30
0
40
2.4
39
0
210
0
220
0
230
1
0
CIRCLE
5
BD
100
AcDbEntity
8
1
62
256
6
ByLayer
370
-1
48
1
60
0
100
AcDbCircle
10
53.0745
20
69.9881
30
0
40
2.25625
39
0
210
0
220
0
230
1
0
CIRCLE
5
C3
100
AcDbEntity
8
2
62
256
6
ByLayer
370
-1
48
1
60
1
100
AcDbCircle
10
63
20
70.03805
30
0
40
0.5
39
0
210
0
220
0
230
1
0
CIRCLE
5
C5
100
AcDbEntity
8
2
62
256
6
ByLayer
370
-1
48
1
60
1
100
AcDbCircle
10
63
20
-70.03805
30
0
40
0.5
39
0
210
0
220
0
230
1
0
CIRCLE
5
C6
100
AcDbEntity
8
2
62
256
6
ByLayer
370
-1
48
1
60
1
100
AcDbCircle
10
63
20
80
30
0
40
0.5
39
0
210
0
220
0
230
1
0
CIRCLE
5
C7
100
AcDbEntity
8
2
62
256
6
ByLayer
370
-1
48
1
60
1
100
AcDbCircle
10
63
20
-80
30
0
40
0.5
39
0
210
0
220
0
230
1
0
CIRCLE
5
C8
100
AcDbEntity
8
1
62
256
6
ByLayer
370
-1
48
1
60
1
100
AcDbCircle
10
0
20
54.225
30
0
40
0.5
39
0
210
0
220
0
230
1
0
CIRCLE
5
C9
100
AcDbEntity
8
SK2
62
256
6
ByLayer
370
-1
48
1
60
1
100
AcDbCircle
10
0
20
20
30
0
40
0.5
39
0
210
0
220
0
230
1
0
CIRCLE
5
CB
100
AcDbEntity
8
SK2
62
256
6
ByLayer
370
-1
48
1
60
1
100
AcDbCircle
10
0
20
-20
30
0
40
0.5
39
0
210
0
220
0
230
1
0
CIRCLE
5
CC
100
AcDbEntity
8
2
62
256
6
ByLayer
370
-1
48
1
60
1
100
AcDbCircle
10
53
20
-80
30
0
40
0.5
39
0
210
0
220
0
230
1
0
CIRCLE
5
CE
100
AcDbEntity
8
1
62
256
6
ByLayer
370
-1
48
1
60
0
100
AcDbCircle
10
53.0745
20
69.9881
30
0
40
10
39
0
210
0
220
0
230
1
0
CIRCLE
5
CF
100
AcDbEntity
8
1
62
256
6
ByLayer
370
-1
48
1
60
0
100
AcDbCircle
10
53.0745
20
69.9881
30
0
40
4.25
39
0
210
0
220
0
230
1
0
POINT
5
42
100
AcDbEntity
8
81
62
256
6
ByLayer
370
-1
48
1
60
0
100
AcDbPoint
10
63
20
0
30
0
39
0
210
0
220
0
230
1
50
360
0
POINT
5
44
100
AcDbEntity
8
80
62
256
6
ByLayer
370
-1
48
1
60
0
100
AcDbPoint
10
0
20
0
30
0
39
0
210
0
220
0
230
1
50
360
0
SPLINE
5
CD
100
AcDbEntity
8
1
62
256
6
ByLayer
370
-1
48
1
60
1
100
AcDbSpline
70
4
71
3
72
80
73
76
40
0
40
0
40
0
40
0
40
0.0015539902105467
40
0.0031079804210934
40
0.0046619706316401
40
0.0062159608421868
40
0.0077699510527335
40
0.0093239412632802
40
0.010877931473827
40
0.0124319216843737
40
0.0139859118949204
40
0.0155399021054671
40
0.0170938923160138
40
0.0186478825265605
40
0.019173352686263
40
0.019173352686263
40
0.0217002701825982
40
0.0242271876789333
40
0.0267541051752684
40
0.0292810226716036
40
0.0318079401679387
40
0.0343348576642738
40
0.036861775160609
40
0.0393886926569441
40
0.0419156101532792
40
0.0444425276496144
40
0.0469694451459495
40
0.0494963626422847
40
0.0520232801386198
40
0.0545501976349549
40
0.0570771151312901
40
0.0596040326276252
40
0.0621309501239603
40
0.0646578676202955
40
0.0671847851166306
40
0.0697117026129658
40
0.0722386201093009
40
0.074765537605636
40
0.0772924551019712
40
0.0798193725983063
40
0.0823462900946415
40
0.0848732075909766
40
0.0874001250873118
40
0.0899270425836469
40
0.092453960079982
40
0.0949808775763172
40
0.0975077950726523
40
0.100034712568987
40
0.102561630065323
40
0.105088547561658
40
0.105934969270322
40
0.105934969270322
40
0.105934981597606
40
0.105934981597606
40
0.108485576154258
40
0.111036170710911
40
0.113586765267564
40
0.116137359824217
40
0.118687954380869
40
0.121238548937522
40
0.123789143494175
40
0.126339738050828
40
0.128890332607481
40
0.131440927164133
40
0.133991521720786
40
0.136542116277439
40
0.139092710834091
40
0.141643305390744
40
0.14357148065012
40
0.14357148065012
40
0.14357149296981
40
0.14357149296981
40
0.152816984569537
40
0.152816984569537
40
1
40
1
40
1
40
1
41
1
10
42.3153688495875
20
-73.6425057888698
30
0
41
1
10
42.3982396741657
20
-73.6564779251849
30
0
41
1
10
42.563198286562
20
-73.6890664097455
30
0
41
1
10
42.8075106453158
20
-73.7517283787505
30
0
41
1
10
43.0479307275154
20
-73.8279729415155
30
0
41
1
10
43.2837040514831
20
-73.9175608281886
30
0
41
1
10
43.5140907125754
20
-74.0202108939804
30
0
41
1
10
43.7383677119325
20
-74.1356010027097
30
0
41
1
10
43.9558312239783
20
-74.2633690370663
30
0
41
1
10
44.1657988040395
20
-74.4031140364079
30
0
41
1
10
44.3676115359085
20
-74.5543974501149
30
0
41
1
10
44.5606360771144
20
-74.716744532206
30
0
41
1
10
44.7442667307171
20
-74.8896457626975
30
0
41
1
10
44.8796142417304
20
-75.0322046028724
30
0
41
1
10
44.9539370331566
20
-75.1166088479313
30
0
41
1
10
45.061850377444
20
-75.2415258695314
30
0
41
1
10
45.24545038393
20
-75.4440936319623
30
0
41
1
10
45.5350093701798
20
-75.7344840400647
30
0
41
1
10
45.8380701397936
20
-76.0107541310457
30
0
41
1
10
46.1539448673662
20
-76.272276884103
30
0
41
1
10
46.4819166418194
20
-76.5184587454952
30
0
41
1
10
46.8212410973954
20
-76.7487409801758
30
0
41
1
10
47.1711481020296
20
-76.9626009386941
30
0
41
1
10
47.530843505525
20
-77.159553243725
30
0
41
1
10
47.8995109418827
20
-77.3391508915973
30
0
41
1
10
48.2763136821499
20
-77.5009862668376
30
0
41
1
10
48.6603965334574
20
-77.6446920672896
30
0
41
1
10
49.0508877799696
20
-77.7699421377462
30
0
41
1
10
49.4469011613339
20
-77.8764522101923
30
0
41
1
10
49.8475378841403
20
-77.9639805489802
30
0
41
1
10
50.2518886618263
20
-78.032328499474
30
0
41
1
10
50.6590357783971
20
-78.0813409389168
30
0
41
1
10
51.0680551712767
20
-78.1109066284979
30
0
41
1
10
51.4780185285642
20
-78.1209584658208
30
0
41
1
10
51.8879953959337
20
-78.1114736371989
30
0
41
1
10
52.2970552883964
20
-78.0824736694337
30
0
41
1
10
52.7042698021336
20
-78.0340243809575
30
0
41
1
10
53.1087147216044
20
-77.9662357324515
30
0
41
1
10
53.5094721171494
20
-77.8792615772789
30
0
41
1
10
53.9056324283266
20
-77.7732993122981
30
0
41
1
10
54.296296528255
20
-77.6485894298522
30
0
41
1
10
54.6805777642679
20
-77.5054149719388
30
0
41
1
10
55.0576039702947
20
-77.3441008878467
30
0
41
1
10
55.4265194462149
20
-77.1650132965376
30
0
41
1
10
55.7864869003939
20
-76.9685586561215
30
0
41
1
10
56.13668934838
20
-76.7551828397872
30
0
41
1
10
56.4763319731897
20
-76.52537012971
30
0
41
1
10
56.8046439066343
20
-76.2796420960424
30
0
41
1
10
57.1208800632015
20
-76.0185564948148
30
0
41
1
10
57.3570556105156
20
-75.8038561047184
30
0
41
1
10
57.4880793398619
20
-75.6769065786138
30
0
41
1
10
57.5206992757119
20
-75.6447923902659
30
0
41
1
10
57.5206999862288
20
-75.6447916864472
30
0
41
1
10
57.6183981627866
20
-75.5474167564662
30
0
41
1
10
57.809166893583
20
-75.3480274218469
30
0
41
1
10
58.0807989341709
20
-75.0356923746804
30
0
41
1
10
58.3372947330135
20
-74.7108132673188
30
0
41
1
10
58.578076426343
20
-74.3741222069532
30
0
41
1
10
58.8026007415545
20
-74.0263787928835
30
0
41
1
10
59.0103613036379
20
-73.6683673257194
30
0
41
1
10
59.2008894876908
20
-73.3008953270769
30
0
41
1
10
59.3737555534017
20
-72.9247916408077
30
0
41
1
10
59.5285695940559
20
-72.5409045842914
30
0
41
1
10
59.6649824196637
20
-72.1501000292697
30
0
41
1
10
59.7826863501467
20
-71.7532594510705
30
0
41
1
10
59.8814158833464
20
-71.3512779372339
30
0
41
1
10
59.9609483922016
20
-70.9450621790659
30
0
41
1
10
60.0162109988109
20
-70.5688411088937
30
0
41
1
10
60.0413945939583
20
-70.3279008972443
30
0
41
1
10
60.0503712208987
20
-70.2240109766035
30
0
41
1
10
60.0503712641755
20
-70.224009977421
30
0
41
1
10
60.0503712630631
20
-69.7240094778823
30
0
41
1
10
60.0503712630631
20
-69.2240104778823
30
0
41
1
10
60.0503712630631
20
-22.9080034926274
30
0
41
1
10
60.0503712630631
20
22.9080034926274
30
0
41
1
10
60.0503712630631
20
68.7240104778823
30
0
0
LINE
5
46
100
AcDbEntity
8
1
62
256
6
ByLayer
370
-1
48
1
60
0
100
AcDbLine
10
60.050371
20
-70.22401
30
0
11
60.050371
21
-68.72401
31
0
39
0
210
0
220
0
230
1
0
LINE
5
48
100
AcDbEntity
8
SK3
62
256
6
ByLayer
370
-1
48
0.05
60
0
100
AcDbLine
10
56.755599
20
-60.045222
30
0
11
57.765804
21
-63.355791
31
0
39
0
210
0
220
0
230
1
0
LINE
5
4A
100
AcDbEntity
8
SK3
62
256
6
ByLayer
370
-1
48
0.05
60
0
100
AcDbLine
10
56.755599
20
-60.045222
30
0
11
54.2595
21
-53.2
31
0
39
0
210
0
220
0
230
1
0
LINE
5
4B
100
AcDbEntity
8
SK3
62
256
6
ByLayer
370
-1
48
0.05
60
0
100
AcDbLine
10
51.965901
20
-51.298254
30
0
11
53.794328
21
-52.469827
31
0
39
0
210
0
220
0
230
1
0
LINE
5
4C
100
AcDbEntity
8
SK3
62
256
6
ByLayer
370
-1
48
0.05
60
0
100
AcDbLine
10
51.380115
20
-49.88404
30
0
11
51.380115
21
0
31
0
39
0
210
0
220
0
230
1
0
LINE
5
4D
100
AcDbEntity
8
SK4
62
256
6
ByLayer
370
-1
48
0.05
60
0
100
AcDbLine
10
65
20
0
30
0
11
-2
21
0
31
0
39
0
210
0
220
0
230
1
0
LINE
5
4F
100
AcDbEntity
8
1
62
256
6
ByLayer
370
-1
48
1
60
0
100
AcDbLine
10
37.519755
20
-68.477719
30
0
11
38.615629
21
-70.826307
31
0
39
0
210
0
220
0
230
1
0
LINE
5
50
100
AcDbEntity
8
SK3
62
256
6
ByLayer
370
-1
48
0.05
60
0
100
AcDbLine
10
51.380115
20
49.88404
30
0
11
51.380115
21
0
31
0
39
0
210
0
220
0
230
1
0
LINE
5
51
100
AcDbEntity
8
SK3
62
256
6
ByLayer
370
-1
48
0.05
60
0
100
AcDbLine
10
51.965901
20
51.298254
30
0
11
53.794328
21
52.469827
31
0
39
0
210
0
220
0
230
1
0
LINE
5
52
100
AcDbEntity
8
SK3
62
256
6
ByLayer
370
-1
48
0.05
60
0
100
AcDbLine
10
56.755599
20
60.045222
30
0
11
54.2595
21
53.2
31
0
39
0
210
0
220
0
230
1
0
LINE
5
53
100
AcDbEntity
8
SK3
62
256
6
ByLayer
370
-1
48
0.05
60
0
100
AcDbLine
10
56.755599
20
60.045222
30
0
11
57.765804
21
63.355791
31
0
39
0
210
0
220
0
230
1
0
LINE
5
54
100
AcDbEntity
8
1
62
256
6
ByLayer
370
-1
48
1
60
0
100
AcDbLine
10
60.050371
20
70.22401
30
0
11
60.050371
21
68.72401
31
0
39
0
210
0
220
0
230
1
0
LINE
5
55
100
AcDbEntity
8
1
62
256
6
ByLayer
370
-1
48
1
60
0
100
AcDbLine
10
37.519755
20
68.477719
30
0
11
38.615629
21
70.826307
31
0
39
0
210
0
220
0
230
1
0
LINE
5
56
100
AcDbEntity
8
1
62
256
6
ByLayer
370
-1
48
1
60
0
100
AcDbLine
10
60.050371
20
-68.72401
30
0
11
60.050371
21
68.72401
31
0
39
0
210
0
220
0
230
1
0
LINE
5
57
100
AcDbEntity
8
1
62
256
6
ByLayer
370
-1
48
1
60
0
100
AcDbLine
10
15.141345
20
-54.225
30
0
11
1.4
21
-54.225
31
0
39
0
210
0
220
0
230
1
0
LINE
5
58
100
AcDbEntity
8
1
62
256
6
ByLayer
370
-1
48
1
60
0
100
AcDbLine
10
0
20
-9.5275
30
0
11
1.3
21
-8.2275
31
0
39
0
210
0
220
0
230
1
0
LINE
5
59
100
AcDbEntity
8
1
62
256
6
ByLayer
370
-1
48
1
60
0
100
AcDbLine
10
1.3
20
-8.2275
30
0
11
8.7
21
-8.2275
31
0
39
0
210
0
220
0
230
1
0
LINE
5
5A
100
AcDbEntity
8
1
62
256
6
ByLayer
370
-1
48
1
60
0
100
AcDbLine
10
8.7
20
-8.2275
30
0
11
9.5
21
-7.4275
31
0
39
0
210
0
220
0
230
1
0
LINE
5
5B
100
AcDbEntity
8
1
62
256
6
ByLayer
370
-1
48
1
60
0
100
AcDbLine
10
9.5
20
-7.4275
30
0
11
9.5
21
0
31
0
39
0
210
0
220
0
230
1
0
LINE
5
5C
100
AcDbEntity
8
SK3
62
256
6
ByLayer
370
-1
48
0.05
60
0
100
AcDbLine
10
0
20
-41.6
30
0
11
1
21
-40.6
31
0
39
0
210
0
220
0
230
1
0
LINE
5
5D
100
AcDbEntity
8
SK3
62
256
6
ByLayer
370
-1
48
0.05
60
0
100
AcDbLine
10
0
20
-25.1
30
0
11
1
21
-26.1
31
0
39
0
210
0
220
0
230
1
0
LINE
5
5E
100
AcDbEntity
8
SK3
62
256
6
ByLayer
370
-1
48
0.05
60
0
100
AcDbLine
10
1
20
-40.6
30
0
11
27.5
21
-40.6
31
0
39
0
210
0
220
0
230
1
0
LINE
5
5F
100
AcDbEntity
8
SK3
62
256
6
ByLayer
370
-1
48
0.05
60
0
100
AcDbLine
10
1
20
-26.1
30
0
11
27.5
21
-26.1
31
0
39
0
210
0
220
0
230
1
0
LINE
5
60
100
AcDbEntity
8
SK3
62
256
6
ByLayer
370
-1
48
0.05
60
0
100
AcDbLine
10
27.5
20
-40.6
30
0
11
28
21
-41.1
31
0
39
0
210
0
220
0
230
1
0
LINE
5
61
100
AcDbEntity
8
SK3
62
256
6
ByLayer
370
-1
48
0.05
60
0
100
AcDbLine
10
27.5
20
-26.1
30
0
11
28
21
-25.6
31
0
39
0
210
0
220
0
230
1
0
LINE
5
62
100
AcDbEntity
8
SK3
62
256
6
ByLayer
370
-1
48
0.05
60
0
100
AcDbLine
10
1
20
-40.6
30
0
11
1
21
-26.1
31
0
39
0
210
0
220
0
230
1
0
LINE
5
63
100
AcDbEntity
8
SK3
62
256
6
ByLayer
370
-1
48
0.05
60
0
100
AcDbLine
10
27.5
20
-40.6
30
0
11
27.5
21
-26.1
31
0
39
0
210
0
220
0
230
1
0
LINE
5
64
100
AcDbEntity
8
SK3
62
256
6
ByLayer
370
-1
48
0.05
60
0
100
AcDbLine
10
-1
20
-33.35
30
0
11
29
21
-33.35
31
0
39
0
210
0
220
0
230
1
0
LINE
5
65
100
AcDbEntity
8
1
62
256
6
ByLayer
370
-1
48
1
60
0
100
AcDbLine
10
0
20
9.5275
30
0
11
1.3
21
8.2275
31
0
39
0
210
0
220
0
230
1
0
LINE
5
66
100
AcDbEntity
8
1
62
256
6
ByLayer
370
-1
48
1
60
0
100
AcDbLine
10
1.3
20
8.2275
30
0
11
8.7
21
8.2275
31
0
39
0
210
0
220
0
230
1
0
LINE
5
67
100
AcDbEntity
8
1
62
256
6
ByLayer
370
-1
48
1
60
0
100
AcDbLine
10
8.7
20
8.2275
30
0
11
9.5
21
7.4275
31
0
39
0
210
0
220
0
230
1
0
LINE
5
68
100
AcDbEntity
8
1
62
256
6
ByLayer
370
-1
48
1
60
0
100
AcDbLine
10
9.5
20
7.4275
30
0
11
9.5
21
0
31
0
39
0
210
0
220
0
230
1
0
LINE
5
69
100
AcDbEntity
8
1
62
256
6
ByLayer
370
-1
48
1
60
0
100
AcDbLine
10
0.4
20
-53.225
30
0
11
0.4
21
-51.225
31
0
39
0
210
0
220
0
230
1
0
LINE
5
6A
100
AcDbEntity
8
1
62
256
6
ByLayer
370
-1
48
1
60
0
100
AcDbLine
10
0
20
-51.225
30
0
11
0
21
-9.5275
31
0
39
0
210
0
220
0
230
1
0
LINE
5
6B
100
AcDbEntity
8
1
62
256
6
ByLayer
370
-1
48
1
60
0
100
AcDbLine
10
0.4
20
-51.225
30
0
11
0
21
-51.225
31
0
39
0
210
0
220
0
230
1
0
LINE
5
6C
100
AcDbEntity
8
1
62
256
6
ByLayer
370
-1
48
1
60
0
100
AcDbLine
10
0.4
20
-51.225
30
0
11
0.4
21
-9.1275
31
0
39
0
210
0
220
0
230
1
0
LINE
5
6D
100
AcDbEntity
8
1
62
256
6
ByLayer
370
-1
48
1
60
0
100
AcDbLine
10
15.141345
20
54.225
30
0
11
1.4
21
54.225
31
0
39
0
210
0
220
0
230
1
0
LINE
5
6E
100
AcDbEntity
8
1
62
256
6
ByLayer
370
-1
48
1
60
0
100
AcDbLine
10
0
20
51.225
30
0
11
0
21
9.5275
31
0
39
0
210
0
220
0
230
1
0
LINE
5
6F
100
AcDbEntity
8
1
62
256
6
ByLayer
370
-1
48
1
60
0
100
AcDbLine
10
0.4
20
51.225
30
0
11
0
21
51.225
31
0
39
0
210
0
220
0
230
1
0
LINE
5
70
100
AcDbEntity
8
1
62
256
6
ByLayer
370
-1
48
1
60
0
100
AcDbLine
10
0.4
20
53.225
30
0
11
0.4
21
51.225
31
0
39
0
210
0
220
0
230
1
0
LINE
5
71
100
AcDbEntity
8
1
62
256
6
ByLayer
370
-1
48
1
60
0
100
AcDbLine
10
0.4
20
51.225
30
0
11
0.4
21
9.1275
31
0
39
0
210
0
220
0
230
1
0
LINE
5
72
100
AcDbEntity
8
SK3
62
256
6
ByLayer
370
-1
48
0.05
60
0
100
AcDbLine
10
0
20
-23.00625
30
0
11
3
21
-20.00625
31
0
39
0
210
0
220
0
230
1
0
LINE
5
73
100
AcDbEntity
8
SK3
62
256
6
ByLayer
370
-1
48
0.05
60
0
100
AcDbLine
10
3
20
-20.00625
30
0
11
25
21
-20.00625
31
0
39
0
210
0
220
0
230
1
0
LINE
5
74
100
AcDbEntity
8
SK3
62
256
6
ByLayer
370
-1
48
0.05
60
0
100
AcDbLine
10
25
20
-20.00625
30
0
11
25.14375
21
-20.15
31
0
39
0
210
0
220
0
230
1
0
LINE
5
75
100
AcDbEntity
8
SK3
62
256
6
ByLayer
370
-1
48
0.05
60
0
100
AcDbLine
10
25.14375
20
-20.15
30
0
11
27
21
-20.15
31
0
39
0
210
0
220
0
230
1
0
LINE
5
76
100
AcDbEntity
8
SK3
62
256
6
ByLayer
370
-1
48
0.05
60
0
100
AcDbLine
10
27
20
-20.15
30
0
11
28
21
-21.15
31
0
39
0
210
0
220
0
230
1
0
LINE
5
77
100
AcDbEntity
8
SK3
62
256
6
ByLayer
370
-1
48
0.05
60
0
100
AcDbLine
10
28
20
-21.15
30
0
11
28
21
-44.925
31
0
39
0
210
0
220
0
230
1
0
LINE
5
78
100
AcDbEntity
8
SK3
62
256
6
ByLayer
370
-1
48
0.05
60
0
100
AcDbLine
10
28.8
20
-45.725
30
0
11
50.380115
21
-45.725
31
0
39
0
210
0
220
0
230
1
0
LINE
5
79
100
AcDbEntity
8
SK3
62
256
6
ByLayer
370
-1
48
0.05
60
0
100
AcDbLine
10
50.380115
20
-45.725
30
0
11
51.380115
21
-46.725
31
0
39
0
210
0
220
0
230
1
0
LINE
5
7A
100
AcDbEntity
8
SK3
62
256
6
ByLayer
370
-1
48
0.05
60
0
100
AcDbLine
10
50.380115
20
-45.725
30
0
11
50.380115
21
0
31
0
39
0
210
0
220
0
230
1
0
LINE
5
7B
100
AcDbEntity
8
SK3
62
256
6
ByLayer
370
-1
48
0.05
60
0
100
AcDbLine
10
28
20
-21.15
30
0
11
28
21
0
31
0
39
0
210
0
220
0
230
1
0
LINE
5
7C
100
AcDbEntity
8
SK3
62
256
6
ByLayer
370
-1
48
0.05
60
0
100
AcDbLine
10
50.380115
20
-45.725
30
0
11
50.380115
21
0
31
0
39
0
210
0
220
0
230
1
0
LINE
5
7D
100
AcDbEntity
8
SK3
62
256
6
ByLayer
370
-1
48
0.05
60
0
100
AcDbLine
10
28
20
-21.15
30
0
11
28
21
0
31
0
39
0
210
0
220
0
230
1
0
LINE
5
7E
100
AcDbEntity
8
SK3
62
256
6
ByLayer
370
-1
48
0.05
60
0
100
AcDbLine
10
27
20
-20.15
30
0
11
27
21
0
31
0
39
0
210
0
220
0
230
1
0
LINE
5
7F
100
AcDbEntity
8
SK3
62
256
6
ByLayer
370
-1
48
0.05
60
0
100
AcDbLine
10
25.14375
20
-20.15
30
0
11
25.14375
21
0
31
0
39
0
210
0
220
0
230
1
0
LINE
5
80
100
AcDbEntity
8
SK3
62
256
6
ByLayer
370
-1
48
0.05
60
0
100
AcDbLine
10
25
20
-20.00625
30
0
11
25
21
0
31
0
39
0
210
0
220
0
230
1
0
LINE
5
81
100
AcDbEntity
8
SK3
62
256
6
ByLayer
370
-1
48
0.05
60
0
100
AcDbLine
10
3
20
-20.00625
30
0
11
3
21
-8.2275
31
0
39
0
210
0
220
0
230
1
0
LINE
5
82
100
AcDbEntity
8
SK3
62
256
6
ByLayer
370
-1
48
0.05
60
0
100
AcDbLine
10
0
20
23.00625
30
0
11
3
21
20.00625
31
0
39
0
210
0
220
0
230
1
0
LINE
5
83
100
AcDbEntity
8
SK3
62
256
6
ByLayer
370
-1
48
0.05
60
0
100
AcDbLine
10
3
20
20.00625
30
0
11
25
21
20.00625
31
0
39
0
210
0
220
0
230
1
0
LINE
5
84
100
AcDbEntity
8
SK3
62
256
6
ByLayer
370
-1
48
0.05
60
0
100
AcDbLine
10
25
20
20.00625
30
0
11
25.14375
21
20.15
31
0
39
0
210
0
220
0
230
1
0
LINE
5
85
100
AcDbEntity
8
SK3
62
256
6
ByLayer
370
-1
48
0.05
60
0
100
AcDbLine
10
25.14375
20
20.15
30
0
11
27
21
20.15
31
0
39
0
210
0
220
0
230
1
0
LINE
5
86
100
AcDbEntity
8
SK3
62
256
6
ByLayer
370
-1
48
0.05
60
0
100
AcDbLine
10
27
20
20.15
30
0
11
28
21
21.15
31
0
39
0
210
0
220
0
230
1
0
LINE
5
87
100
AcDbEntity
8
SK3
62
256
6
ByLayer
370
-1
48
0.05
60
0
100
AcDbLine
10
28
20
21.15
30
0
11
28
21
44.925
31
0
39
0
210
0
220
0
230
1
0
LINE
5
88
100
AcDbEntity
8
SK3
62
256
6
ByLayer
370
-1
48
0.05
60
0
100
AcDbLine
10
28.8
20
45.725
30
0
11
50.380115
21
45.725
31
0
39
0
210
0
220
0
230
1
0
LINE
5
89
100
AcDbEntity
8
SK3
62
256
6
ByLayer
370
-1
48
0.05
60
0
100
AcDbLine
10
50.380115
20
45.725
30
0
11
51.380115
21
46.725
31
0
39
0
210
0
220
0
230
1
0
LINE
5
8A
100
AcDbEntity
8
SK3
62
256
6
ByLayer
370
-1
48
0.05
60
0
100
AcDbLine
10
50.380115
20
45.725
30
0
11
50.380115
21
0
31
0
39
0
210
0
220
0
230
1
0
LINE
5
8B
100
AcDbEntity
8
SK3
62
256
6
ByLayer
370
-1
48
0.05
60
0
100
AcDbLine
10
28
20
21.15
30
0
11
28
21
0
31
0
39
0
210
0
220
0
230
1
0
LINE
5
8C
100
AcDbEntity
8
SK3
62
256
6
ByLayer
370
-1
48
0.05
60
0
100
AcDbLine
10
50.380115
20
45.725
30
0
11
50.380115
21
0
31
0
39
0
210
0
220
0
230
1
0
LINE
5
8D
100
AcDbEntity
8
SK3
62
256
6
ByLayer
370
-1
48
0.05
60
0
100
AcDbLine
10
28
20
21.15
30
0
11
28
21
0
31
0
39
0
210
0
220
0
230
1
0
LINE
5
8E
100
AcDbEntity
8
SK3
62
256
6
ByLayer
370
-1
48
0.05
60
0
100
AcDbLine
10
27
20
20.15
30
0
11
27
21
0
31
0
39
0
210
0
220
0
230
1
0
LINE
5
8F
100
AcDbEntity
8
SK3
62
256
6
ByLayer
370
-1
48
0.05
60
0
100
AcDbLine
10
25.14375
20
20.15
30
0
11
25.14375
21
0
31
0
39
0
210
0
220
0
230
1
0
LINE
5
90
100
AcDbEntity
8
SK3
62
256
6
ByLayer
370
-1
48
0.05
60
0
100
AcDbLine
10
25
20
20.00625
30
0
11
25
21
0
31
0
39
0
210
0
220
0
230
1
0
LINE
5
91
100
AcDbEntity
8
SK3
62
256
6
ByLayer
370
-1
48
0.05
60
0
100
AcDbLine
10
3
20
20.00625
30
0
11
3
21
8.2275
31
0
39
0
210
0
220
0
230
1
0
LINE
5
92
100
AcDbEntity
8
81
62
256
6
ByLayer
370
-1
48
1
60
0
100
AcDbLine
10
63
20
0
30
0
11
73
21
0
31
0
39
0
210
0
220
0
230
1
0
LINE
5
93
100
AcDbEntity
8
80
62
256
6
ByLayer
370
-1
48
1
60
0
100
AcDbLine
10
0
20
0
30
0
11
-10
21
0
31
0
39
0
210
0
220
0
230
1
0
LINE
5
94
100
AcDbEntity
8
4
62
256
6
ByLayer
370
-1
48
0.05
60
0
100
AcDbLine
10
63
20
0
30
0
11
0
21
0
31
0
39
0
210
0
220
0
230
1
0
MTEXT
5
D1
100
AcDbEntity
8
SK6
62
256
6
ByLayer
370
-1
48
1
60
0
100
AcDbMText
10
-18.356579
20
-65.1
30
0
210
0
220
0
230
1
1
\W00.742;\fsimplex.shx,bigfont.shx;R200-140Q40-20L 
40
3.5
41
0
44
1.084337
50
0
71
7
72
5
7
DEFAULT
0
HATCH
5
D0
100
AcDbEntity
8
1
62
256
6
ByLayer
370
-1
48
1
60
1
100
AcDbHatch
10
0
20
0
30
0
210
0
220
0
230
1
2
ANSI38
70
0
71
0
91
2
92
5
93
1
72
2
10
53.0745
20
69.9881
40
10
50
0
51
360
73
1
97
0
92
5
93
1
72
2
10
53.0745
20
69.9881
40
4.25
50
0
51
360
73
1
97
0
75
0
76
0
52
45
41
1
77
0
78
1
53
45
43
0
44
0
45
-0.707106781186547
46
0.707106781186548
79
0
47
0
98
1
10
0
20
0
0
DIMENSION
5
E2
100
AcDbEntity
8
2
62
256
6
ByLayer
370
-3
48
1
60
0
100
AcDbDimension
2
DimnDraft3D1
10
-70.03805
20
-77.25
30
0
11
0
21
-77.25
31
0
70
32
71
5
72
1
41
1
210
0
220
0
230
1
3
Standard
100
AcDbAlignedDimension
13
70.03805
23
-64.499997
33
0
14
-70.03805
24
-64.499997
34
0
50
0
100
AcDbRotatedDimension
1001
ACAD
1000
DSTYLE
1002
{
1070
   279
1070
     0
1070
   173
1070
     1
1070
   340
1005
D2
1070
    77
1070
     1
1070
    73
1070
     0
1070
   171
1070
     4
1070
   274
1070
     4
1070
   177
1070
     7
1070
   176
1070
     7
1070
   178
1070
     7
1070
    41
1041
4.0
1070
   147
1041
2.25
1070
    42
1041
1.499997
1070
    44
1041
2.0
1070
   140
1041
4.5
1070
   343
1005
E3
1070
   344
1005
E3
1002
}
0
DIMENSION
5
F7
100
AcDbEntity
8
2
62
256
6
ByLayer
370
-3
48
1
60
0
100
AcDbDimension
2
DimnDraft3D2
10
-80
20
-89.25
30
0
11
0
21
-89.25
31
0
70
32
71
5
72
1
41
1
210
0
220
0
230
1
3
Standard
100
AcDbAlignedDimension
13
80
23
-64.499997
33
0
14
-80
24
-64.499997
34
0
50
0
100
AcDbRotatedDimension
1001
ACAD
1000
DSTYLE
1002
{
1070
   279
1070
     0
1070
   173
1070
     1
1070
   340
1005
D2
1070
    77
1070
     1
1070
    73
1070
     0
1070
   171
1070
     4
1070
   274
1070
     4
1070
   177
1070
     7
1070
   176
1070
     7
1070
   178
1070
     7
1070
    41
1041
4.0
1070
   147
1041
2.25
1070
    42
1041
1.499997
1070
    44
1041
2.0
1070
   140
1041
4.5
1070
   343
1005
E3
1070
   344
1005
E3
1002
}
0
DIMENSION
5
105
100
AcDbEntity
8
2
62
256
6
ByLayer
370
-3
48
1
60
0
100
AcDbDimension
2
DimnDraft3D3
10
0
20
89.75
30
0
11
31.5
21
89.75
31
0
70
32
71
5
72
1
41
1
210
0
220
0
230
1
3
Standard
100
AcDbAlignedDimension
13
63
23
81.499997
33
0
14
0
24
55.724997
34
0
50
0
100
AcDbRotatedDimension
1001
ACAD
1000
DSTYLE
1002
{
1070
   279
1070
     0
1070
   173
1070
     1
1070
   340
1005
D2
1070
    77
1070
     1
1070
    73
1070
     0
1070
   171
1070
     4
1070
   274
1070
     4
1070
   177
1070
     7
1070
   176
1070
     7
1070
   178
1070
     7
1070
    41
1041
4.0
1070
   147
1041
2.25
1070
    42
1041
1.499997
1070
    44
1041
2.0
1070
   140
1041
4.5
1070
   343
1005
E3
1070
   344
1005
E3
1002
}
0
DIMENSION
5
113
100
AcDbEntity
8
SK2
62
256
6
ByLayer
370
-3
48
1
60
0
100
AcDbDimension
2
DimnDraft3D4
10
-20
20
9.75
30
0
11
0
21
9.75
31
0
70
32
71
5
72
1
41
1
210
0
220
0
230
1
3
Standard
100
AcDbAlignedDimension
13
20
23
1.499997
33
0
14
-20
24
1.499997
34
0
50
0
100
AcDbRotatedDimension
1001
ACAD
1000
DSTYLE
1002
{
1070
   279
1070
     0
1070
   173
1070
     1
1070
   340
1005
D2
1070
   271
1070
     0
1070
    77
1070
     1
1070
    73
1070
     0
1070
   171
1070
     4
1070
   274
1070
     4
1070
   177
1070
     7
1070
   176
1070
     7
1070
   178
1070
     7
1070
    41
1041
4.0
1070
   147
1041
2.25
1070
    42
1041
1.499997
1070
    44
1041
2.0
1070
   140
1041
4.5
1070
   343
1005
E3
1070
   344
1005
E3
1002
}
0
DIMENSION
5
121
100
AcDbEntity
8
2
62
256
6
ByLayer
370
-3
48
1
60
0
100
AcDbDimension
2
DimnDraft3D5
10
53
20
-94.25
30
0
11
48
21
-94.25
31
0
70
32
71
5
72
1
41
1
210
0
220
0
230
1
3
Standard
100
AcDbAlignedDimension
13
63
23
-81.499997
33
0
14
53
24
-81.499997
34
0
50
0
100
AcDbRotatedDimension
1001
ACAD
1000
DSTYLE
1002
{
1070
   279
1070
     0
1070
   173
1070
     1
1070
   340
1005
D2
1070
   271
1070
     0
1070
    77
1070
     1
1070
    73
1070
     0
1070
   171
1070
     4
1070
   274
1070
     4
1070
   177
1070
     7
1070
   176
1070
     7
1070
   178
1070
     7
1070
    41
1041
4.0
1070
   147
1041
2.25
1070
    42
1041
1.499997
1070
    44
1041
2.0
1070
   140
1041
4.5
1070
   343
1005
E3
1070
   344
1005
E3
1002
}
0
ENDSEC
0
SECTION
2
OBJECTS
0
DICTIONARY
5
170
330
0
100
AcDbDictionary
280
0
281
1
3
ACAD_GROUP
350
171
3
ACAD_MLINESTYLE
350
172
0
DICTIONARY
5
171
330
0
100
AcDbDictionary
280
0
281
1
0
DICTIONARY
5
172
330
0
100
AcDbDictionary
280
0
281
1
3
Standard
350
18
0
MLINESTYLE
5
18
330
172
100
AcDbMlineStyle
2
Standard
70
0
3

62
256
51
90
52
90
71
2
49
-0.5
62
256
6
ByLayer
49
0.5
62
256
6
ByLayer
0
RASTERVARIABLES
5
15e
330

100
AcDbRasterVariables
90
0
70
1
71
1
72
1
0
ENDSEC
0
EOF
