0
SECTION
2
HEADER
9
$ACADVER
1
AC1015
9
$DWGCODEPAGE
3
ANSI_1252
9
$HANDSEED
5
16d
9
$ANGBASE
50
0
9
$ANGDIR
70
0
9
$ATTMODE
70
1
9
$AUNITS
70
0
9
$AUPREC
70
0
9
$CECOLOR
62
256
9
$CELTSCALE
40
1
9
$CELTYPE
6
ByLayer
9
$CELWEIGHT
370
-1
9
$CLAYER
8
0
9
$CMLJUST
70
0
9
$CMLSCALE
40
1
9
$CMLSTYLE
2
Standard
9
$DIMSTYLE
2
Standard
9
$TEXTSIZE
40
0.2
9
$TEXTSTYLE
7
Standard
9
$LUNITS
70
2
9
$LUPREC
70
4
9
$EXTNAMES
290
1
9
$INSUNITS
70
4
9
$LTSCALE
40
1
9
$LWDISPLAY
290
0
9
$PDMODE
70
0
9
$PDSIZE
40
0
9
$PLINEGEN
70
0
0
ENDSEC
0
SECTION
2
CLASSES
0
CLASS
1
RASTERVARIABLES
2
AcDbRasterVariables
3
ISM
90
0
280
0
281
0
0
ENDSEC
0
SECTION
2
TABLES
0
TABLE
2
VPORT
5
163
100
AcDbSymbolTable
0
VPORT
5
1
100
AcDbSymbolTableRecord
100
AcDbViewportTableRecord
2
*Active
70
0
10
0
20
0
11
1
21
1
12
-1
22
1
13
0
23
0
14
0.5
24
0.5
15
10
25
10
16
0
26
0
36
1
17
0
27
0
37
0
0
ENDTAB
0
TABLE
2
LTYPE
5
164
100
AcDbSymbolTable
0
LTYPE
5
14
100
AcDbSymbolTableRecord
100
AcDbLinetypeTableRecord
70
0
2
ByBlock
3

72
65
73
0
40
0
0
LTYPE
5
15
100
AcDbSymbolTableRecord
100
AcDbLinetypeTableRecord
70
0
2
ByLayer
3

72
65
73
0
40
0
0
LTYPE
5
16
100
AcDbSymbolTableRecord
100
AcDbLinetypeTableRecord
70
0
2
CONTINUOUS
3
Solid line
72
65
73
0
40
0
0
LTYPE
5
3C
100
AcDbSymbolTableRecord
100
AcDbLinetypeTableRecord
70
0
2
DASHED
3
__ __ __ __ __ __ __ __ __
72
65
73
2
40
25.72
49
12.86
74
0
49
-12.86
74
0
0
LTYPE
5
3D
100
AcDbSymbolTableRecord
100
AcDbLinetypeTableRecord
70
0
2
HIDDEN
3
_ _ _ _ _ _ _ _ _ _ _ _ _ _ _
72
65
73
2
40
0.5
49
0.25
74
0
49
-0.25
74
0
0
LTYPE
5
3E
100
AcDbSymbolTableRecord
100
AcDbLinetypeTableRecord
70
0
2
PHANTOM
3
____ _ _ ____ _ _ _____ _ _ ____
72
65
73
6
40
50.5
49
18
74
0
49
-6.5
74
0
49
6.5
74
0
49
-6.5
74
0
49
6.5
74
0
49
-6.5
74
0
0
LTYPE
5
3F
100
AcDbSymbolTableRecord
100
AcDbLinetypeTableRecord
70
0
2
CENTER
3
____ _ ____ _ ____ _ ____
72
65
73
4
40
47.5
49
22
74
0
49
-8.5
74
0
49
8.5
74
0
49
-8.5
74
0
0
LTYPE
5
40
100
AcDbSymbolTableRecord
100
AcDbLinetypeTableRecord
70
0
2
DOT
3
.........................
72
65
73
2
40
10
49
0
74
0
49
-10
74
0
0
LTYPE
5
41
100
AcDbSymbolTableRecord
100
AcDbLinetypeTableRecord
70
0
2
DASHDOT
3
_._._._._._._._._._._._._._._._.
72
65
73
4
40
70
49
31
74
0
49
-13
74
0
49
13
74
0
49
-13
74
0
0
ENDTAB
0
TABLE
2
LAYER
5
165
100
AcDbSymbolTable
0
LAYER
5
10
100
AcDbSymbolTableRecord
100
AcDbLayerTableRecord
2
0
70
0
62
7
6
CONTINUOUS
290
1
370
-3
390
0
0
LAYER
5
43
100
AcDbSymbolTableRecord
100
AcDbLayerTableRecord
2
81
70
0
62
-3
6
CONTINUOUS
290
1
370
-3
390
0
0
LAYER
5
45
100
AcDbSymbolTableRecord
100
AcDbLayerTableRecord
2
80
70
0
62
-6
6
CONTINUOUS
290
1
370
-3
390
0
0
LAYER
5
47
100
AcDbSymbolTableRecord
100
AcDbLayerTableRecord
2
1
70
0
62
4
6
CONTINUOUS
290
1
370
-3
390
0
0
LAYER
5
80
100
AcDbSymbolTableRecord
100
AcDbLayerTableRecord
2
4
70
0
62
-2
6
CENTER
290
1
370
-3
390
0
0
LAYER
5
B3
100
AcDbSymbolTableRecord
100
AcDbLayerTableRecord
2
2
70
0
62
7
6
CONTINUOUS
290
1
370
-3
390
0
0
LAYER
5
14f
100
AcDbSymbolTableRecord
100
AcDbLayerTableRecord
2
SK3
70
0
62
1
6
DASHED
290
1
370
-3
390
0
0
LAYER
5
150
100
AcDbSymbolTableRecord
100
AcDbLayerTableRecord
2
SK4
70
0
62
2
6
CENTER
290
1
370
-3
390
0
0
LAYER
5
151
100
AcDbSymbolTableRecord
100
AcDbLayerTableRecord
2
SK2
70
0
62
7
6
CONTINUOUS
290
1
370
-3
390
0
0
LAYER
5
152
100
AcDbSymbolTableRecord
100
AcDbLayerTableRecord
2
SK6
70
0
62
5
6
CONTINUOUS
290
1
370
-3
390
0
0
ENDTAB
0
TABLE
2
STYLE
5
166
100
AcDbSymbolTable
0
STYLE
5
11
100
AcDbSymbolTableRecord
100
AcDbTextStyleTableRecord
2
Standard
3
txt
70
0
71
0
40
0
41
1
42
0
50
0
0
STYLE
5
C1
100
AcDbSymbolTableRecord
100
AcDbTextStyleTableRecord
2
DEFAULT
3
simplex.shx
70
0
71
0
40
0
41
1
42
0
50
0
0
STYLE
5
C2
100
AcDbSymbolTableRecord
100
AcDbTextStyleTableRecord
2
DWGDirectTextStyle
3
SIMPLEX
70
0
71
0
40
0
41
1
42
0
50
0
0
ENDTAB
0
TABLE
2
DIMSTYLE
5
167
100
AcDbSymbolTable
100
AcDbDimStyleTable
0
DIMSTYLE
105
27
100
AcDbSymbolTableRecord
100
AcDbDimStyleTableRecord
2
Standard
70
0
3
<>
41
0.18
42
0.0625
44
0.18
140
0.18
147
0.09
73
0
74
0
77
1
271
2
275
0
278
52
280
0
340
11
0
ENDTAB
0
TABLE
2
VIEW
5
168
100
AcDbSymbolTable
0
ENDTAB
0
TABLE
2
UCS
5
169
100
AcDbSymbolTable
0
ENDTAB
0
TABLE
2
APPID
5
16a
100
AcDbSymbolTable
0
APPID
5
12
100
AcDbSymbolTableRecord
100
AcDbRegAppTableRecord
2
ACAD
70
0
0
ENDTAB
0
TABLE
2
BLOCK_RECORD
5
16b
100
AcDbSymbolTable
0
BLOCK_RECORD
5
1F
100
AcDbSymbolTableRecord
100
AcDbBlockTableRecord
2
*Model_Space
340
0
70
0
0
BLOCK_RECORD
5
1B
100
AcDbSymbolTableRecord
100
AcDbBlockTableRecord
2
*Paper_Space
340
0
70
0
0
BLOCK_RECORD
5
23
100
AcDbSymbolTableRecord
100
AcDbBlockTableRecord
2
*Paper_Space0
340
0
70
0
0
BLOCK_RECORD
5
C4
100
AcDbSymbolTableRecord
100
AcDbBlockTableRecord
2
DimnDraft3D1
340
0
70
0
0
BLOCK_RECORD
5
D2
100
AcDbSymbolTableRecord
100
AcDbBlockTableRecord
2
_CLOSED
340
0
70
0
0
BLOCK_RECORD
5
D9
100
AcDbSymbolTableRecord
100
AcDbBlockTableRecord
2
DimnDraft3D2
340
0
70
0
0
BLOCK_RECORD
5
E7
100
AcDbSymbolTableRecord
100
AcDbBlockTableRecord
2
DimnDraft3D3
340
0
70
0
0
BLOCK_RECORD
5
F5
100
AcDbSymbolTableRecord
100
AcDbBlockTableRecord
2
DimnDraft3D4
340
0
70
0
0
BLOCK_RECORD
5
103
100
AcDbSymbolTableRecord
100
AcDbBlockTableRecord
2
DimnDraft3D5
340
0
70
0
0
ENDTAB
0
ENDSEC
0
SECTION
2
BLOCKS
0
BLOCK
5
20
100
AcDbEntity
8
0
100
AcDbBlockBegin
2
*Model_Space
70
0
10
0
20
0
30
0
3
*Model_Space
0
ENDBLK
5
21
100
AcDbEntity
8
0
100
AcDbBlockEnd
0
BLOCK
5
1C
100
AcDbEntity
8
0
100
AcDbBlockBegin
2
*Paper_Space
70
0
10
0
20
0
30
0
3
*Paper_Space
0
ENDBLK
5
1D
100
AcDbEntity
8
0
100
AcDbBlockEnd
0
BLOCK
5
24
100
AcDbEntity
8
0
100
AcDbBlockBegin
2
*Paper_Space0
70
0
10
0
20
0
30
0
3
*Paper_Space0
0
ENDBLK
5
25
100
AcDbEntity
8
0
100
AcDbBlockEnd
0
BLOCK
5
CF
100
AcDbEntity
8
0
100
AcDbBlockBegin
2
DimnDraft3D1
70
0
10
0
20
0
30
0
3
DimnDraft3D1
0
MTEXT
5
C5
100
AcDbEntity
8
2
62
256
6
ByLayer
370
-1
48
1
60
0
100
AcDbMText
10
63.125
20
-7.632237
30
0
210
0
220
0
230
1
1
\W01.000;\fsimplex.shx,bigfont.shx;(%%c64.1)\P
40
4.5
41
0
44
1.084337
50
90
71
7
72
5
7
DEFAULT
0
LINE
5
C6
100
AcDbEntity
8
2
62
256
6
ByLayer
370
-1
48
1
60
0
100
AcDbLine
10
51.499997
20
32.03045
30
0
11
66.25
21
32.03045
31
0
39
0
210
0
220
0
230
1
0
LINE
5
C7
100
AcDbEntity
8
2
62
256
6
ByLayer
370
-1
48
1
60
0
100
AcDbLine
10
51.499997
20
-32.03045
30
0
11
66.25
21
-32.03045
31
0
39
0
210
0
220
0
230
1
0
LINE
5
C8
100
AcDbEntity
8
2
62
256
6
ByLayer
370
-1
48
1
60
0
100
AcDbLine
10
64.25
20
32.03045
30
0
11
64.25
21
-32.03045
31
0
39
0
210
0
220
0
230
1
0
LINE
5
C9
100
AcDbEntity
8
2
62
256
6
ByLayer
370
-1
48
1
60
0
100
AcDbLine
10
64.25
20
32.03045
30
0
11
64.916667
21
28.030452
31
0
39
0
210
0
220
0
230
1
0
LINE
5
CA
100
AcDbEntity
8
2
62
256
6
ByLayer
370
-1
48
1
60
0
100
AcDbLine
10
64.25
20
32.03045
30
0
11
63.583333
21
28.030448
31
0
39
0
210
0
220
0
230
1
0
LINE
5
CB
100
AcDbEntity
8
2
62
256
6
ByLayer
370
-1
48
1
60
0
100
AcDbLine
10
64.916667
20
28.030452
30
0
11
63.583333
21
28.030448
31
0
39
0
210
0
220
0
230
1
0
LINE
5
CC
100
AcDbEntity
8
2
62
256
6
ByLayer
370
-1
48
1
60
0
100
AcDbLine
10
64.25
20
-32.03045
30
0
11
63.583333
21
-28.030452
31
0
39
0
210
0
220
0
230
1
0
LINE
5
CD
100
AcDbEntity
8
2
62
256
6
ByLayer
370
-1
48
1
60
0
100
AcDbLine
10
64.25
20
-32.03045
30
0
11
64.916667
21
-28.030448
31
0
39
0
210
0
220
0
230
1
0
LINE
5
CE
100
AcDbEntity
8
2
62
256
6
ByLayer
370
-1
48
1
60
0
100
AcDbLine
10
63.583333
20
-28.030452
30
0
11
64.916667
21
-28.030448
31
0
39
0
210
0
220
0
230
1
0
ENDBLK
5
D0
100
AcDbEntity
8
0
100
AcDbBlockEnd
0
BLOCK
5
D3
100
AcDbEntity
8
0
100
AcDbBlockBegin
2
_CLOSED
70
0
10
0
20
0
30
0
3
_CLOSED
0
LINE
5
D5
100
AcDbEntity
8
0
62
256
6
ByLayer
370
-2
48
1
60
0
100
AcDbLine
10
-1
20
0.166667
30
0
11
0
21
0
31
0
39
0
210
0
220
0
230
1
0
LINE
5
D6
100
AcDbEntity
8
0
62
256
6
ByLayer
370
-2
48
1
60
0
100
AcDbLine
10
0
20
0
30
0
11
-1
21
-0.166667
31
0
39
0
210
0
220
0
230
1
0
LINE
5
D7
100
AcDbEntity
8
0
62
256
6
ByLayer
370
-2
48
1
60
0
100
AcDbLine
10
-1
20
0.166667
30
0
11
-1
21
-0.166667
31
0
39
0
210
0
220
0
230
1
0
LINE
5
D8
100
AcDbEntity
8
0
62
256
6
ByLayer
370
-2
48
1
60
0
100
AcDbLine
10
0
20
0
30
0
11
-1
21
0
31
0
39
0
210
0
220
0
230
1
0
ENDBLK
5
D4
100
AcDbEntity
8
0
100
AcDbBlockEnd
0
BLOCK
5
E4
100
AcDbEntity
8
0
100
AcDbBlockBegin
2
DimnDraft3D2
70
0
10
0
20
0
30
0
3
DimnDraft3D2
0
MTEXT
5
DA
100
AcDbEntity
8
2
62
256
6
ByLayer
370
-1
48
1
60
0
100
AcDbMText
10
75.125
20
-3.659211
30
0
210
0
220
0
230
1
1
\W01.000;\fsimplex.shx,bigfont.shx;%%c80\P
40
4.5
41
0
44
1.084337
50
90
71
7
72
5
7
DEFAULT
0
LINE
5
DB
100
AcDbEntity
8
2
62
256
6
ByLayer
370
-1
48
1
60
0
100
AcDbLine
10
51.499997
20
40
30
0
11
78.25
21
40
31
0
39
0
210
0
220
0
230
1
0
LINE
5
DC
100
AcDbEntity
8
2
62
256
6
ByLayer
370
-1
48
1
60
0
100
AcDbLine
10
51.499997
20
-40
30
0
11
78.25
21
-40
31
0
39
0
210
0
220
0
230
1
0
LINE
5
DD
100
AcDbEntity
8
2
62
256
6
ByLayer
370
-1
48
1
60
0
100
AcDbLine
10
76.25
20
40
30
0
11
76.25
21
-40
31
0
39
0
210
0
220
0
230
1
0
LINE
5
DE
100
AcDbEntity
8
2
62
256
6
ByLayer
370
-1
48
1
60
0
100
AcDbLine
10
76.25
20
40
30
0
11
76.916667
21
36.000002
31
0
39
0
210
0
220
0
230
1
0
LINE
5
DF
100
AcDbEntity
8
2
62
256
6
ByLayer
370
-1
48
1
60
0
100
AcDbLine
10
76.25
20
40
30
0
11
75.583333
21
35.999998
31
0
39
0
210
0
220
0
230
1
0
LINE
5
E0
100
AcDbEntity
8
2
62
256
6
ByLayer
370
-1
48
1
60
0
100
AcDbLine
10
76.916667
20
36.000002
30
0
11
75.583333
21
35.999998
31
0
39
0
210
0
220
0
230
1
0
LINE
5
E1
100
AcDbEntity
8
2
62
256
6
ByLayer
370
-1
48
1
60
0
100
AcDbLine
10
76.25
20
-40
30
0
11
75.583333
21
-36.000002
31
0
39
0
210
0
220
0
230
1
0
LINE
5
E2
100
AcDbEntity
8
2
62
256
6
ByLayer
370
-1
48
1
60
0
100
AcDbLine
10
76.25
20
-40
30
0
11
76.916667
21
-35.999998
31
0
39
0
210
0
220
0
230
1
0
LINE
5
E3
100
AcDbEntity
8
2
62
256
6
ByLayer
370
-1
48
1
60
0
100
AcDbLine
10
75.583333
20
-36.000002
30
0
11
76.916667
21
-35.999998
31
0
39
0
210
0
220
0
230
1
0
ENDBLK
5
E5
100
AcDbEntity
8
0
100
AcDbBlockEnd
0
BLOCK
5
F2
100
AcDbEntity
8
0
100
AcDbBlockBegin
2
DimnDraft3D3
70
0
10
0
20
0
30
0
3
DimnDraft3D3
0
MTEXT
5
E8
100
AcDbEntity
8
2
62
256
6
ByLayer
370
-1
48
1
60
0
100
AcDbMText
10
23.496053
20
50.875
30
0
210
0
220
0
230
1
1
\W01.000;\fsimplex.shx,bigfont.shx;50\P
40
4.5
41
0
44
1.084337
50
0
71
7
72
5
7
DEFAULT
0
LINE
5
E9
100
AcDbEntity
8
2
62
256
6
ByLayer
370
-1
48
1
60
0
100
AcDbLine
10
50
20
41.499997
30
0
11
50
21
51.75
31
0
39
0
210
0
220
0
230
1
0
LINE
5
EA
100
AcDbEntity
8
2
62
256
6
ByLayer
370
-1
48
1
60
0
100
AcDbLine
10
0
20
26.999997
30
0
11
0
21
51.75
31
0
39
0
210
0
220
0
230
1
0
LINE
5
EB
100
AcDbEntity
8
2
62
256
6
ByLayer
370
-1
48
1
60
0
100
AcDbLine
10
50
20
49.75
30
0
11
0
21
49.75
31
0
39
0
210
0
220
0
230
1
0
LINE
5
EC
100
AcDbEntity
8
2
62
256
6
ByLayer
370
-1
48
1
60
0
100
AcDbLine
10
50
20
49.75
30
0
11
46.000002
21
49.083333
31
0
39
0
210
0
220
0
230
1
0
LINE
5
ED
100
AcDbEntity
8
2
62
256
6
ByLayer
370
-1
48
1
60
0
100
AcDbLine
10
50
20
49.75
30
0
11
45.999998
21
50.416667
31
0
39
0
210
0
220
0
230
1
0
LINE
5
EE
100
AcDbEntity
8
2
62
256
6
ByLayer
370
-1
48
1
60
0
100
AcDbLine
10
46.000002
20
49.083333
30
0
11
45.999998
21
50.416667
31
0
39
0
210
0
220
0
230
1
0
LINE
5
EF
100
AcDbEntity
8
2
62
256
6
ByLayer
370
-1
48
1
60
0
100
AcDbLine
10
0
20
49.75
30
0
11
3.999998
21
50.416667
31
0
39
0
210
0
220
0
230
1
0
LINE
5
F0
100
AcDbEntity
8
2
62
256
6
ByLayer
370
-1
48
1
60
0
100
AcDbLine
10
0
20
49.75
30
0
11
4.000002
21
49.083333
31
0
39
0
210
0
220
0
230
1
0
LINE
5
F1
100
AcDbEntity
8
2
62
256
6
ByLayer
370
-1
48
1
60
0
100
AcDbLine
10
3.999998
20
50.416667
30
0
11
4.000002
21
49.083333
31
0
39
0
210
0
220
0
230
1
0
ENDBLK
5
F3
100
AcDbEntity
8
0
100
AcDbBlockEnd
0
BLOCK
5
100
100
AcDbEntity
8
0
100
AcDbBlockBegin
2
DimnDraft3D4
70
0
10
0
20
0
30
0
3
DimnDraft3D4
0
MTEXT
5
F6
100
AcDbEntity
8
SK2
62
256
6
ByLayer
370
-1
48
1
60
0
100
AcDbMText
10
-10.875
20
-3.659211
30
0
210
0
220
0
230
1
1
\W01.000;\fsimplex.shx,bigfont.shx;%%c27\P
40
4.5
41
0
44
1.084337
50
90
71
7
72
5
7
DEFAULT
0
LINE
5
F7
100
AcDbEntity
8
SK2
62
256
6
ByLayer
370
-1
48
1
60
0
100
AcDbLine
10
-1.499997
20
13.5
30
0
11
-11.75
21
13.5
31
0
39
0
210
0
220
0
230
1
0
LINE
5
F8
100
AcDbEntity
8
SK2
62
256
6
ByLayer
370
-1
48
1
60
0
100
AcDbLine
10
-1.499997
20
-13.5
30
0
11
-11.75
21
-13.5
31
0
39
0
210
0
220
0
230
1
0
LINE
5
F9
100
AcDbEntity
8
SK2
62
256
6
ByLayer
370
-1
48
1
60
0
100
AcDbLine
10
-9.75
20
13.5
30
0
11
-9.75
21
-13.5
31
0
39
0
210
0
220
0
230
1
0
LINE
5
FA
100
AcDbEntity
8
SK2
62
256
6
ByLayer
370
-1
48
1
60
0
100
AcDbLine
10
-9.75
20
13.5
30
0
11
-9.083333
21
9.500002
31
0
39
0
210
0
220
0
230
1
0
LINE
5
FB
100
AcDbEntity
8
SK2
62
256
6
ByLayer
370
-1
48
1
60
0
100
AcDbLine
10
-9.75
20
13.5
30
0
11
-10.416667
21
9.499998
31
0
39
0
210
0
220
0
230
1
0
LINE
5
FC
100
AcDbEntity
8
SK2
62
256
6
ByLayer
370
-1
48
1
60
0
100
AcDbLine
10
-9.083333
20
9.500002
30
0
11
-10.416667
21
9.499998
31
0
39
0
210
0
220
0
230
1
0
LINE
5
FD
100
AcDbEntity
8
SK2
62
256
6
ByLayer
370
-1
48
1
60
0
100
AcDbLine
10
-9.75
20
-13.5
30
0
11
-10.416667
21
-9.500002
31
0
39
0
210
0
220
0
230
1
0
LINE
5
FE
100
AcDbEntity
8
SK2
62
256
6
ByLayer
370
-1
48
1
60
0
100
AcDbLine
10
-9.75
20
-13.5
30
0
11
-9.083333
21
-9.499998
31
0
39
0
210
0
220
0
230
1
0
LINE
5
FF
100
AcDbEntity
8
SK2
62
256
6
ByLayer
370
-1
48
1
60
0
100
AcDbLine
10
-10.416667
20
-9.500002
30
0
11
-9.083333
21
-9.499998
31
0
39
0
210
0
220
0
230
1
0
ENDBLK
5
101
100
AcDbEntity
8
0
100
AcDbBlockEnd
0
BLOCK
5
10F
100
AcDbEntity
8
0
100
AcDbBlockBegin
2
DimnDraft3D5
70
0
10
0
20
0
30
0
3
DimnDraft3D5
0
MTEXT
5
104
100
AcDbEntity
8
2
62
256
6
ByLayer
370
-1
48
1
60
0
100
AcDbMText
10
36.171053
20
-53.125
30
0
210
0
220
0
230
1
1
\W01.000;\fsimplex.shx,bigfont.shx;8\P
40
4.5
41
0
44
1.084337
50
0
71
7
72
5
7
DEFAULT
0
LINE
5
105
100
AcDbEntity
8
2
62
256
6
ByLayer
370
-1
48
1
60
0
100
AcDbLine
10
50
20
-41.499997
30
0
11
50
21
-56.25
31
0
39
0
210
0
220
0
230
1
0
LINE
5
106
100
AcDbEntity
8
2
62
256
6
ByLayer
370
-1
48
1
60
0
100
AcDbLine
10
42
20
-41.499997
30
0
11
42
21
-56.25
31
0
39
0
210
0
220
0
230
1
0
LINE
5
107
100
AcDbEntity
8
2
62
256
6
ByLayer
370
-1
48
1
60
0
100
AcDbLine
10
50
20
-54.25
30
0
11
61.25
21
-54.25
31
0
39
0
210
0
220
0
230
1
0
LINE
5
108
100
AcDbEntity
8
2
62
256
6
ByLayer
370
-1
48
1
60
0
100
AcDbLine
10
42
20
-54.25
30
0
11
35.046053
21
-54.25
31
0
39
0
210
0
220
0
230
1
0
LINE
5
109
100
AcDbEntity
8
2
62
256
6
ByLayer
370
-1
48
1
60
0
100
AcDbLine
10
50
20
-54.25
30
0
11
53.999998
21
-53.583333
31
0
39
0
210
0
220
0
230
1
0
LINE
5
10A
100
AcDbEntity
8
2
62
256
6
ByLayer
370
-1
48
1
60
0
100
AcDbLine
10
50
20
-54.25
30
0
11
54.000002
21
-54.916667
31
0
39
0
210
0
220
0
230
1
0
LINE
5
10B
100
AcDbEntity
8
2
62
256
6
ByLayer
370
-1
48
1
60
0
100
AcDbLine
10
53.999998
20
-53.583333
30
0
11
54.000002
21
-54.916667
31
0
39
0
210
0
220
0
230
1
0
LINE
5
10C
100
AcDbEntity
8
2
62
256
6
ByLayer
370
-1
48
1
60
0
100
AcDbLine
10
42
20
-54.25
30
0
11
38.000002
21
-54.916667
31
0
39
0
210
0
220
0
230
1
0
LINE
5
10D
100
AcDbEntity
8
2
62
256
6
ByLayer
370
-1
48
1
60
0
100
AcDbLine
10
42
20
-54.25
30
0
11
37.999998
21
-53.583333
31
0
39
0
210
0
220
0
230
1
0
LINE
5
10E
100
AcDbEntity
8
2
62
256
6
ByLayer
370
-1
48
1
60
0
100
AcDbLine
10
38.000002
20
-54.916667
30
0
11
37.999998
21
-53.583333
31
0
39
0
210
0
220
0
230
1
0
ENDBLK
5
110
100
AcDbEntity
8
0
100
AcDbBlockEnd
0
ENDSEC
0
SECTION
2
ENTITIES
0
ARC
5
81
100
AcDbEntity
8
1
62
256
6
ByLayer
370
-1
48
1
60
0
100
AcDbCircle
39
0
10
41.329472
20
-31.920726
30
0
40
6.83666083712028
210
0
220
0
230
1
100
AcDbArc
50
221.283642
51
314.316794
0
ARC
5
82
100
AcDbEntity
8
1
62
256
6
ByLayer
370
-1
48
1
60
0
100
AcDbCircle
39
0
10
41.260961
20
-31.931895
30
0
40
6.87676751610189
210
0
220
0
230
1
100
AcDbArc
50
314.79022
51
353.738703
0
ARC
5
83
100
AcDbEntity
8
SK3
62
256
6
ByLayer
370
-1
48
1
60
0
100
AcDbCircle
39
0
10
41.260961
20
-31.931895
30
0
40
6.87676751610189
210
0
220
0
230
1
100
AcDbArc
50
6.261297
51
41.584887
0
ARC
5
84
100
AcDbEntity
8
SK3
62
256
6
ByLayer
370
-1
48
1
60
0
100
AcDbCircle
39
0
10
47.526559
20
-26.371992
30
0
40
1.5
210
0
220
0
230
1
100
AcDbArc
50
193.187375
51
221.584887
0
ARC
5
85
100
AcDbEntity
8
SK3
62
256
6
ByLayer
370
-1
48
1
60
0
100
AcDbCircle
39
0
10
41.722615
20
-19.68404
30
0
40
2
210
0
220
0
230
1
100
AcDbArc
50
20
51
45
0
ARC
5
86
100
AcDbEntity
8
SK3
62
256
6
ByLayer
370
-1
48
1
60
0
100
AcDbCircle
39
0
10
42.722615
20
-15.68404
30
0
40
2
210
0
220
0
230
1
100
AcDbArc
50
180
51
225
0
ARC
5
87
100
AcDbEntity
8
1
62
256
6
ByLayer
370
-1
48
1
60
0
100
AcDbCircle
39
0
10
33.937688
20
-38.410828
30
0
40
3
210
0
220
0
230
1
100
AcDbArc
50
41.283642
51
88.771759
0
ARC
5
88
100
AcDbEntity
8
1
62
256
6
ByLayer
370
-1
48
1
60
0
100
AcDbCircle
39
0
10
13.971064
20
-45.8477
30
0
40
20.3477
210
0
220
0
230
1
100
AcDbArc
50
40.021987
51
90
0
ARC
5
89
100
AcDbEntity
8
1
62
256
6
ByLayer
370
-1
48
1
60
0
100
AcDbCircle
39
0
10
34.10917
20
-30.412667
30
0
40
5
210
0
220
0
230
1
100
AcDbArc
50
220.021987
51
268.771759
0
ARC
5
8A
100
AcDbEntity
8
SK3
62
256
6
ByLayer
370
-1
48
1
60
0
100
AcDbCircle
39
0
10
-42.722615
20
15.68404
30
0
40
2
210
0
220
0
230
-1
100
AcDbArc
50
360
51
45
0
ARC
5
8B
100
AcDbEntity
8
SK3
62
256
6
ByLayer
370
-1
48
1
60
0
100
AcDbCircle
39
0
10
-41.722615
20
19.68404
30
0
40
2
210
0
220
0
230
-1
100
AcDbArc
50
200
51
225
0
ARC
5
8C
100
AcDbEntity
8
SK3
62
256
6
ByLayer
370
-1
48
1
60
0
100
AcDbCircle
39
0
10
-47.526559
20
26.371992
30
0
40
1.5
210
0
220
0
230
-1
100
AcDbArc
50
13.187375
51
41.584887
0
ARC
5
8D
100
AcDbEntity
8
SK3
62
256
6
ByLayer
370
-1
48
1
60
0
100
AcDbCircle
39
0
10
-41.260961
20
31.931895
30
0
40
6.87676751610189
210
0
220
0
230
-1
100
AcDbArc
50
186.261297
51
221.584887
0
ARC
5
8E
100
AcDbEntity
8
1
62
256
6
ByLayer
370
-1
48
1
60
0
100
AcDbCircle
39
0
10
-41.260961
20
31.931895
30
0
40
6.87676751610189
210
0
220
0
230
-1
100
AcDbArc
50
134.79022
51
173.738703
0
ARC
5
8F
100
AcDbEntity
8
1
62
256
6
ByLayer
370
-1
48
1
60
0
100
AcDbCircle
39
0
10
-41.329472
20
31.920726
30
0
40
6.83666083712028
210
0
220
0
230
-1
100
AcDbArc
50
41.283642
51
134.316794
0
ARC
5
90
100
AcDbEntity
8
1
62
256
6
ByLayer
370
-1
48
1
60
0
100
AcDbCircle
39
0
10
-33.937688
20
38.410828
30
0
40
3
210
0
220
0
230
-1
100
AcDbArc
50
221.283642
51
268.771759
0
ARC
5
91
100
AcDbEntity
8
1
62
256
6
ByLayer
370
-1
48
1
60
0
100
AcDbCircle
39
0
10
-34.10917
20
30.412667
30
0
40
5
210
0
220
0
230
-1
100
AcDbArc
50
40.021987
51
88.771759
0
ARC
5
92
100
AcDbEntity
8
1
62
256
6
ByLayer
370
-1
48
1
60
0
100
AcDbCircle
39
0
10
-13.971064
20
45.8477
30
0
40
20.3477
210
0
220
0
230
-1
100
AcDbArc
50
220.021987
51
270
0
ARC
5
94
100
AcDbEntity
8
1
62
256
6
ByLayer
370
-1
48
1
60
0
100
AcDbCircle
39
0
10
40.4211
20
31.9804
30
0
40
0.33
210
0
220
0
230
1
100
AcDbArc
50
104.871264
51
180
0
ARC
5
95
100
AcDbEntity
8
1
62
256
6
ByLayer
370
-1
48
1
60
0
100
AcDbCircle
39
0
10
41.24035
20
33.399383
30
0
40
0.33
210
0
220
0
230
1
100
AcDbArc
50
120
51
195.128736
0
ARC
5
96
100
AcDbEntity
8
1
62
256
6
ByLayer
370
-1
48
1
60
0
100
AcDbCircle
39
0
10
40.124415
20
33.09768
30
0
40
0.826
210
0
220
0
230
1
100
AcDbArc
50
284.871264
51
15.128736
0
ARC
5
97
100
AcDbEntity
8
1
62
256
6
ByLayer
370
-1
48
1
60
0
100
AcDbCircle
39
0
10
41.24035
20
30.561417
30
0
40
0.33
210
0
220
0
230
1
100
AcDbArc
50
164.871264
51
240
0
ARC
5
98
100
AcDbEntity
8
1
62
256
6
ByLayer
370
-1
48
1
60
0
100
AcDbCircle
39
0
10
40.4211
20
31.9804
30
0
40
0.33
210
0
220
0
230
1
100
AcDbArc
50
180
51
255.128736
0
ARC
5
99
100
AcDbEntity
8
1
62
256
6
ByLayer
370
-1
48
1
60
0
100
AcDbCircle
39
0
10
40.124415
20
30.86312
30
0
40
0.826
210
0
220
0
230
1
100
AcDbArc
50
344.871264
51
75.128736
0
ARC
5
9A
100
AcDbEntity
8
1
62
256
6
ByLayer
370
-1
48
1
60
0
100
AcDbCircle
39
0
10
42.87885
20
30.561417
30
0
40
0.33
210
0
220
0
230
1
100
AcDbArc
50
224.871264
51
300
0
ARC
5
9B
100
AcDbEntity
8
1
62
256
6
ByLayer
370
-1
48
1
60
0
100
AcDbCircle
39
0
10
41.24035
20
30.561417
30
0
40
0.33
210
0
220
0
230
1
100
AcDbArc
50
240
51
315.128736
0
ARC
5
9C
100
AcDbEntity
8
1
62
256
6
ByLayer
370
-1
48
1
60
0
100
AcDbCircle
39
0
10
42.0596
20
29.745841
30
0
40
0.826
210
0
220
0
230
1
100
AcDbArc
50
44.871264
51
135.128736
0
ARC
5
9D
100
AcDbEntity
8
1
62
256
6
ByLayer
370
-1
48
1
60
0
100
AcDbCircle
39
0
10
43.6981
20
31.9804
30
0
40
0.33
210
0
220
0
230
1
100
AcDbArc
50
284.871264
51
360
0
ARC
5
9E
100
AcDbEntity
8
1
62
256
6
ByLayer
370
-1
48
1
60
0
100
AcDbCircle
39
0
10
42.87885
20
30.561417
30
0
40
0.33
210
0
220
0
230
1
100
AcDbArc
50
300
51
15.128736
0
ARC
5
9F
100
AcDbEntity
8
1
62
256
6
ByLayer
370
-1
48
1
60
0
100
AcDbCircle
39
0
10
43.994785
20
30.86312
30
0
40
0.826
210
0
220
0
230
1
100
AcDbArc
50
104.871264
51
195.128736
0
ARC
5
A0
100
AcDbEntity
8
1
62
256
6
ByLayer
370
-1
48
1
60
0
100
AcDbCircle
39
0
10
42.87885
20
33.399383
30
0
40
0.33
210
0
220
0
230
1
100
AcDbArc
50
344.871264
51
60
0
ARC
5
A1
100
AcDbEntity
8
1
62
256
6
ByLayer
370
-1
48
1
60
0
100
AcDbCircle
39
0
10
43.6981
20
31.9804
30
0
40
0.33
210
0
220
0
230
1
100
AcDbArc
50
360
51
75.128736
0
ARC
5
A2
100
AcDbEntity
8
1
62
256
6
ByLayer
370
-1
48
1
60
0
100
AcDbCircle
39
0
10
43.994785
20
33.09768
30
0
40
0.826
210
0
220
0
230
1
100
AcDbArc
50
164.871264
51
255.128736
0
ARC
5
A3
100
AcDbEntity
8
1
62
256
6
ByLayer
370
-1
48
1
60
0
100
AcDbCircle
39
0
10
41.24035
20
33.399383
30
0
40
0.33
210
0
220
0
230
1
100
AcDbArc
50
44.871264
51
120
0
ARC
5
A4
100
AcDbEntity
8
1
62
256
6
ByLayer
370
-1
48
1
60
0
100
AcDbCircle
39
0
10
42.87885
20
33.399383
30
0
40
0.33
210
0
220
0
230
1
100
AcDbArc
50
60
51
135.128736
0
ARC
5
A5
100
AcDbEntity
8
1
62
256
6
ByLayer
370
-1
48
1
60
0
100
AcDbCircle
39
0
10
42.0596
20
34.214959
30
0
40
0.826
210
0
220
0
230
1
100
AcDbArc
50
224.871264
51
315.128736
0
ARC
5
A9
100
AcDbEntity
8
1
62
256
6
ByLayer
370
-1
48
1
60
0
100
AcDbCircle
39
0
10
42.0596
20
-31.9804
30
0
40
8
210
0
220
0
230
1
100
AcDbArc
50
206.68754
51
41.006207
0
ARC
5
AA
100
AcDbEntity
8
1
62
256
6
ByLayer
370
-1
48
1
60
0
100
AcDbCircle
39
0
10
1
20
-24.5
30
0
40
1
210
0
220
0
230
1
100
AcDbArc
50
180
51
270
0
ARC
5
AB
100
AcDbEntity
8
1
62
256
6
ByLayer
370
-1
48
1
60
0
100
AcDbCircle
39
0
10
-1
20
24.5
30
0
40
1
210
0
220
0
230
-1
100
AcDbArc
50
0
51
90
0
ARC
5
AC
100
AcDbEntity
8
SK3
62
256
6
ByLayer
370
-1
48
1
60
0
100
AcDbCircle
39
0
10
15.575932
20
-12.95
30
0
40
0.800000000000002
210
0
220
0
230
1
100
AcDbArc
50
223.952558
51
270
0
ARC
5
AD
100
AcDbEntity
8
SK3
62
256
6
ByLayer
370
-1
48
1
60
0
100
AcDbCircle
39
0
10
21.2
20
-12.95
30
0
40
0.8
210
0
220
0
230
1
100
AcDbArc
50
270
51
0
0
ARC
5
AE
100
AcDbEntity
8
SK3
62
256
6
ByLayer
370
-1
48
1
60
0
100
AcDbCircle
39
0
10
29.522615
20
-9.2
30
0
40
0.8
210
0
220
0
230
1
100
AcDbArc
50
180
51
270
0
ARC
5
AF
100
AcDbEntity
8
SK3
62
256
6
ByLayer
370
-1
48
1
60
0
100
AcDbCircle
39
0
10
-15.575932
20
12.95
30
0
40
0.800000000000002
210
0
220
0
230
-1
100
AcDbArc
50
43.952558
51
90
0
ARC
5
B0
100
AcDbEntity
8
SK3
62
256
6
ByLayer
370
-1
48
1
60
0
100
AcDbCircle
39
0
10
-21.2
20
12.95
30
0
40
0.8
210
0
220
0
230
-1
100
AcDbArc
50
90
51
180
0
ARC
5
B1
100
AcDbEntity
8
SK3
62
256
6
ByLayer
370
-1
48
1
60
0
100
AcDbCircle
39
0
10
-29.522615
20
9.2
30
0
40
0.8
210
0
220
0
230
-1
100
AcDbArc
50
0
51
90
0
CIRCLE
5
93
100
AcDbEntity
8
1
62
256
6
ByLayer
370
-1
48
1
60
0
100
AcDbCircle
10
42.0596
20
31.9804
30
0
40
8
39
0
210
0
220
0
230
1
0
CIRCLE
5
A6
100
AcDbEntity
8
1
62
256
6
ByLayer
370
-1
48
1
60
0
100
AcDbCircle
10
42.0596
20
31.9804
30
0
40
3.6
39
0
210
0
220
0
230
1
0
CIRCLE
5
A7
100
AcDbEntity
8
1
62
256
6
ByLayer
370
-1
48
1
60
0
100
AcDbCircle
10
42.0596
20
31.9804
30
0
40
2.4
39
0
210
0
220
0
230
1
0
CIRCLE
5
A8
100
AcDbEntity
8
1
62
256
6
ByLayer
370
-1
48
1
60
0
100
AcDbCircle
10
42.0596
20
31.9804
30
0
40
1.9685
39
0
210
0
220
0
230
1
0
CIRCLE
5
B2
100
AcDbEntity
8
2
62
256
6
ByLayer
370
-1
48
1
60
1
100
AcDbCircle
10
50
20
32.03045
30
0
40
0.5
39
0
210
0
220
0
230
1
0
CIRCLE
5
B4
100
AcDbEntity
8
2
62
256
6
ByLayer
370
-1
48
1
60
1
100
AcDbCircle
10
50
20
-32.03045
30
0
40
0.5
39
0
210
0
220
0
230
1
0
CIRCLE
5
B5
100
AcDbEntity
8
2
62
256
6
ByLayer
370
-1
48
1
60
1
100
AcDbCircle
10
50
20
40
30
0
40
0.5
39
0
210
0
220
0
230
1
0
CIRCLE
5
B6
100
AcDbEntity
8
2
62
256
6
ByLayer
370
-1
48
1
60
1
100
AcDbCircle
10
50
20
-40
30
0
40
0.5
39
0
210
0
220
0
230
1
0
CIRCLE
5
B7
100
AcDbEntity
8
1
62
256
6
ByLayer
370
-1
48
1
60
1
100
AcDbCircle
10
0
20
25.5
30
0
40
0.5
39
0
210
0
220
0
230
1
0
CIRCLE
5
B8
100
AcDbEntity
8
SK2
62
256
6
ByLayer
370
-1
48
1
60
1
100
AcDbCircle
10
0
20
13.5
30
0
40
0.5
39
0
210
0
220
0
230
1
0
CIRCLE
5
BA
100
AcDbEntity
8
SK2
62
256
6
ByLayer
370
-1
48
1
60
1
100
AcDbCircle
10
0
20
-13.5
30
0
40
0.5
39
0
210
0
220
0
230
1
0
CIRCLE
5
BB
100
AcDbEntity
8
2
62
256
6
ByLayer
370
-1
48
1
60
1
100
AcDbCircle
10
42
20
-40
30
0
40
0.5
39
0
210
0
220
0
230
1
0
CIRCLE
5
BD
100
AcDbEntity
8
1
62
256
6
ByLayer
370
-1
48
1
60
0
100
AcDbCircle
10
42.0596
20
31.9804
30
0
40
8
39
0
210
0
220
0
230
1
0
CIRCLE
5
BE
100
AcDbEntity
8
1
62
256
6
ByLayer
370
-1
48
1
60
0
100
AcDbCircle
10
42.0596
20
31.9804
30
0
40
3.6
39
0
210
0
220
0
230
1
0
POINT
5
42
100
AcDbEntity
8
81
62
256
6
ByLayer
370
-1
48
1
60
0
100
AcDbPoint
10
50
20
0
30
0
39
0
210
0
220
0
230
1
50
360
0
POINT
5
44
100
AcDbEntity
8
80
62
256
6
ByLayer
370
-1
48
1
60
0
100
AcDbPoint
10
0
20
0
30
0
39
0
210
0
220
0
230
1
50
360
0
SPLINE
5
BC
100
AcDbEntity
8
1
62
256
6
ByLayer
370
-1
48
1
60
1
100
AcDbSpline
70
4
71
3
72
78
73
74
40
0
40
0
40
0
40
0
40
0.0022649629096751
40
0.0045299258193501
40
0.0067948887290252
40
0.0090598516387002
40
0.0113248145483753
40
0.0135897774580503
40
0.0158547403677254
40
0.0181197032774005
40
0.0203846661870755
40
0.0226496290967506
40
0.0249145920064256
40
0.0271795549161007
40
0.0294445178257758
40
0.0302763542058891
40
0.0302763542058891
40
0.0344773590275423
40
0.0386783638491956
40
0.0428793686708488
40
0.0470803734925021
40
0.0512813783141553
40
0.0554823831358086
40
0.0596833879574618
40
0.0638843927791151
40
0.0680853976007684
40
0.0722864024224216
40
0.0764874072440749
40
0.0806884120657281
40
0.0848894168873814
40
0.0890904217090346
40
0.0932914265306879
40
0.0974924313523411
40
0.101693436173994
40
0.105894440995648
40
0.110095445817301
40
0.114296450638954
40
0.118497455460607
40
0.122698460282261
40
0.126899465103914
40
0.131100469925567
40
0.13530147474722
40
0.139502479568874
40
0.143703484390527
40
0.14790448921218
40
0.152105494033833
40
0.156306498855487
40
0.16050750367714
40
0.164708508498793
40
0.165445979001658
40
0.165445979001658
40
0.165446003354381
40
0.165446003354381
40
0.169665478278327
40
0.173884953202273
40
0.178104428126219
40
0.182323903050165
40
0.186543377974111
40
0.190762852898057
40
0.194982327822003
40
0.199201802745949
40
0.203421277669895
40
0.207640752593841
40
0.211860227517787
40
0.216079702441733
40
0.220299177365679
40
0.222366957619452
40
0.222366957619452
40
0.222366981948073
40
0.222366981948073
40
0.240631628339164
40
0.240631628339164
40
1
40
1
40
1
40
1
41
1
10
34.001993618512
20
-35.4115177451165
30
0
41
1
10
34.0639833899633
20
-35.4128468139984
30
0
41
1
10
34.1878804812102
20
-35.4193497978144
30
0
41
1
10
34.372764575832
20
-35.4406013240812
30
0
41
1
10
34.5559765513584
20
-35.4732682252236
30
0
41
1
10
34.7368122801272
20
-35.5172249537313
30
0
41
1
10
34.9145767609146
20
-35.5723025721516
30
0
41
1
10
35.0885867977827
20
-35.6382894025005
30
0
41
1
10
35.2581736235902
20
-35.7149318398525
30
0
41
1
10
35.4226854712459
20
-35.8019353266521
30
0
41
1
10
35.5814900768025
20
-35.8989654861618
30
0
41
1
10
35.7339771156977
20
-36.0056494023819
30
0
41
1
10
35.8795605250867
20
-36.1215770725993
30
0
41
1
10
36.0176808431852
20
-36.2463029109816
30
0
41
1
10
36.1203618029456
20
-36.3512869235081
30
0
41
1
10
36.1770210690442
20
-36.4143550824245
30
0
41
1
10
36.2679235682503
20
-36.5178868224971
30
0
41
1
10
36.4240416155673
20
-36.6868965097832
30
0
41
1
10
36.6707087156702
20
-36.9282756050874
30
0
41
1
10
36.9292377807535
20
-37.1569046633977
30
0
41
1
10
37.1989705564192
20
-37.3722015609482
30
0
41
1
10
37.4792202585235
20
-37.573618116085
30
0
41
1
10
37.7692733259985
20
-37.7606414897603
30
0
41
1
10
38.0683912365807
20
-37.9327954900361
30
0
41
1
10
38.3758123875071
20
-38.0896417848853
30
0
41
1
10
38.6907540345992
20
-38.2307810181657
30
0
41
1
10
39.0124142852787
20
-38.3558538264698
30
0
41
1
10
39.3399741403102
20
-38.4645417541158
30
0
41
1
10
39.6725995791078
20
-38.5565680639892
30
0
41
1
10
40.0094436832867
20
-38.6316984421603
30
0
41
1
10
40.349648793055
20
-38.6897415944852
30
0
41
1
10
40.6923486909545
20
-38.7305497336721
30
0
41
1
10
41.0366708073915
20
-38.7540189555713
30
0
41
1
10
41.3817384423405
20
-38.7600895037327
30
0
41
1
10
41.7266729975645
20
-38.7487459215546
30
0
41
1
10
42.0705962136694
20
-38.7200170916397
30
0
41
1
10
42.4126324062946
20
-38.6739761622542
30
0
41
1
10
42.7519106957478
20
-38.6107403610814
30
0
41
1
10
43.0875672244058
20
-38.5304706967402
30
0
41
1
10
43.4187473562376
20
-38.4333715488326
30
0
41
1
10
43.7446078528411
20
-38.3196901475544
30
0
41
1
10
44.0643190204865
20
-38.1897159442274
30
0
41
1
10
44.3770668225694
20
-38.0437798742343
30
0
41
1
10
44.6820549525872
20
-37.8822535146825
30
0
41
1
10
44.9785068605189
20
-37.7055481372677
30
0
41
1
10
45.265667734323
20
-37.5141136649922
30
0
41
1
10
45.542806405856
20
-37.308437512099
30
0
41
1
10
45.8092172720918
20
-37.0890433971081
30
0
41
1
10
45.9941420344506
20
-36.9203997031207
30
0
41
1
10
46.0912887707221
20
-36.8263794901604
30
0
41
1
10
46.1057337355873
20
-36.8122749708138
30
0
41
1
10
46.1057344482521
20
-36.8122742691731
30
0
41
1
10
46.1877107503456
20
-36.7308960675374
30
0
41
1
10
46.3475600064588
20
-36.5640096758615
30
0
41
1
10
46.5744223826248
20
-36.301918437875
30
0
41
1
10
46.7877947938197
20
-36.0287334245394
30
0
41
1
10
46.9871362193811
20
-35.745147509379
30
0
41
1
10
47.1719404050207
20
-35.4518808192215
30
0
41
1
10
47.3417382315455
20
-35.1496778304706
30
0
41
1
10
47.49609861534
20
-34.8393057672485
30
0
41
1
10
47.6346296812295
20
-34.5215525764782
30
0
41
1
10
47.7569797339897
20
-34.1972249479132
30
0
41
1
10
47.8628381661681
20
-33.8671462616624
30
0
41
1
10
47.9519362101349
20
-33.5321544954771
30
0
41
1
10
48.0240477514355
20
-33.1931001113593
30
0
41
1
10
48.0696503633929
20
-32.9090209858792
30
0
41
1
10
48.0905342707027
20
-32.7381640194634
30
0
41
1
10
48.0967079487071
20
-32.6818951018965
30
0
41
1
10
48.0967080036253
20
-32.6818941032666
30
0
41
1
10
48.0967080018464
20
-32.1818936039627
30
0
41
1
10
48.0967080018464
20
-31.6818946039627
30
0
41
1
10
48.0967080018464
20
-10.3939648679876
30
0
41
1
10
48.0967080018464
20
10.3939648679876
30
0
41
1
10
48.0967080018464
20
31.1818946039627
30
0
0
LINE
5
46
100
AcDbEntity
8
1
62
256
6
ByLayer
370
-1
48
1
60
0
100
AcDbLine
10
48.096708
20
-32.681895
30
0
11
48.096708
21
-31.181895
31
0
39
0
210
0
220
0
230
1
0
LINE
5
48
100
AcDbEntity
8
SK3
62
256
6
ByLayer
370
-1
48
0.05
60
0
100
AcDbLine
10
45.438788
20
-24.036919
30
0
11
46.066115
21
-26.714196
31
0
39
0
210
0
220
0
230
1
0
LINE
5
4A
100
AcDbEntity
8
SK3
62
256
6
ByLayer
370
-1
48
0.05
60
0
100
AcDbLine
10
45.438788
20
-24.036919
30
0
11
43.602
21
-19
31
0
39
0
210
0
220
0
230
1
0
LINE
5
4B
100
AcDbEntity
8
SK3
62
256
6
ByLayer
370
-1
48
0.05
60
0
100
AcDbLine
10
41.308401
20
-17.098254
30
0
11
43.136828
21
-18.269827
31
0
39
0
210
0
220
0
230
1
0
LINE
5
4C
100
AcDbEntity
8
SK3
62
256
6
ByLayer
370
-1
48
0.05
60
0
100
AcDbLine
10
40.722615
20
-15.68404
30
0
11
40.722615
21
0
31
0
39
0
210
0
220
0
230
1
0
LINE
5
4D
100
AcDbEntity
8
SK4
62
256
6
ByLayer
370
-1
48
0.05
60
0
100
AcDbLine
10
52
20
0
30
0
11
-2
21
0
31
0
39
0
210
0
220
0
230
1
0
LINE
5
4F
100
AcDbEntity
8
1
62
256
6
ByLayer
370
-1
48
1
60
0
100
AcDbLine
10
29.553287
20
-32.76247
30
0
11
30.280181
21
-33.628074
31
0
39
0
210
0
220
0
230
1
0
LINE
5
50
100
AcDbEntity
8
SK3
62
256
6
ByLayer
370
-1
48
0.05
60
0
100
AcDbLine
10
40.722615
20
15.68404
30
0
11
40.722615
21
0
31
0
39
0
210
0
220
0
230
1
0
LINE
5
51
100
AcDbEntity
8
SK3
62
256
6
ByLayer
370
-1
48
0.05
60
0
100
AcDbLine
10
41.308401
20
17.098254
30
0
11
43.136828
21
18.269827
31
0
39
0
210
0
220
0
230
1
0
LINE
5
52
100
AcDbEntity
8
SK3
62
256
6
ByLayer
370
-1
48
0.05
60
0
100
AcDbLine
10
45.438788
20
24.036919
30
0
11
43.602
21
19
31
0
39
0
210
0
220
0
230
1
0
LINE
5
53
100
AcDbEntity
8
SK3
62
256
6
ByLayer
370
-1
48
0.05
60
0
100
AcDbLine
10
45.438788
20
24.036919
30
0
11
46.066115
21
26.714196
31
0
39
0
210
0
220
0
230
1
0
LINE
5
54
100
AcDbEntity
8
1
62
256
6
ByLayer
370
-1
48
1
60
0
100
AcDbLine
10
48.096708
20
32.681895
30
0
11
48.096708
21
31.181895
31
0
39
0
210
0
220
0
230
1
0
LINE
5
55
100
AcDbEntity
8
1
62
256
6
ByLayer
370
-1
48
1
60
0
100
AcDbLine
10
29.553287
20
32.76247
30
0
11
30.280181
21
33.628074
31
0
39
0
210
0
220
0
230
1
0
LINE
5
56
100
AcDbEntity
8
1
62
256
6
ByLayer
370
-1
48
1
60
0
100
AcDbLine
10
48.096708
20
-31.181895
30
0
11
48.096708
21
31.181895
31
0
39
0
210
0
220
0
230
1
0
LINE
5
57
100
AcDbEntity
8
1
62
256
6
ByLayer
370
-1
48
1
60
0
100
AcDbLine
10
13.971064
20
-25.5
30
0
11
1
21
-25.5
31
0
39
0
210
0
220
0
230
1
0
LINE
5
58
100
AcDbEntity
8
1
62
256
6
ByLayer
370
-1
48
1
60
0
100
AcDbLine
10
0
20
-7.3275
30
0
11
1.1
21
-6.2275
31
0
39
0
210
0
220
0
230
1
0
LINE
5
59
100
AcDbEntity
8
1
62
256
6
ByLayer
370
-1
48
1
60
0
100
AcDbLine
10
1.1
20
-6.2275
30
0
11
6.2
21
-6.2275
31
0
39
0
210
0
220
0
230
1
0
LINE
5
5A
100
AcDbEntity
8
1
62
256
6
ByLayer
370
-1
48
1
60
0
100
AcDbLine
10
6.2
20
-6.2275
30
0
11
7
21
-5.4275
31
0
39
0
210
0
220
0
230
1
0
LINE
5
5B
100
AcDbEntity
8
1
62
256
6
ByLayer
370
-1
48
1
60
0
100
AcDbLine
10
7
20
-5.4275
30
0
11
7
21
0
31
0
39
0
210
0
220
0
230
1
0
LINE
5
5C
100
AcDbEntity
8
1
62
256
6
ByLayer
370
-1
48
1
60
0
100
AcDbLine
10
0
20
7.3275
30
0
11
1.1
21
6.2275
31
0
39
0
210
0
220
0
230
1
0
LINE
5
5D
100
AcDbEntity
8
1
62
256
6
ByLayer
370
-1
48
1
60
0
100
AcDbLine
10
1.1
20
6.2275
30
0
11
6.2
21
6.2275
31
0
39
0
210
0
220
0
230
1
0
LINE
5
5E
100
AcDbEntity
8
1
62
256
6
ByLayer
370
-1
48
1
60
0
100
AcDbLine
10
6.2
20
6.2275
30
0
11
7
21
5.4275
31
0
39
0
210
0
220
0
230
1
0
LINE
5
5F
100
AcDbEntity
8
1
62
256
6
ByLayer
370
-1
48
1
60
0
100
AcDbLine
10
7
20
5.4275
30
0
11
7
21
0
31
0
39
0
210
0
220
0
230
1
0
LINE
5
60
100
AcDbEntity
8
1
62
256
6
ByLayer
370
-1
48
1
60
0
100
AcDbLine
10
0
20
-24.5
30
0
11
0
21
-7.3275
31
0
39
0
210
0
220
0
230
1
0
LINE
5
61
100
AcDbEntity
8
1
62
256
6
ByLayer
370
-1
48
1
60
0
100
AcDbLine
10
13.971064
20
25.5
30
0
11
1
21
25.5
31
0
39
0
210
0
220
0
230
1
0
LINE
5
62
100
AcDbEntity
8
1
62
256
6
ByLayer
370
-1
48
1
60
0
100
AcDbLine
10
0
20
24.5
30
0
11
0
21
7.3275
31
0
39
0
210
0
220
0
230
1
0
LINE
5
63
100
AcDbEntity
8
SK3
62
256
6
ByLayer
370
-1
48
0.05
60
0
100
AcDbLine
10
0
20
-15.50525
30
0
11
2
21
-13.50525
31
0
39
0
210
0
220
0
230
1
0
LINE
5
64
100
AcDbEntity
8
SK3
62
256
6
ByLayer
370
-1
48
0.05
60
0
100
AcDbLine
10
2
20
-13.50525
30
0
11
15
21
-13.50525
31
0
39
0
210
0
220
0
230
1
0
LINE
5
65
100
AcDbEntity
8
SK3
62
256
6
ByLayer
370
-1
48
0.05
60
0
100
AcDbLine
10
15.575932
20
-13.75
30
0
11
21.2
21
-13.75
31
0
39
0
210
0
220
0
230
1
0
LINE
5
66
100
AcDbEntity
8
SK3
62
256
6
ByLayer
370
-1
48
0.05
60
0
100
AcDbLine
10
22
20
-12.95
30
0
11
22
21
-6.75
31
0
39
0
210
0
220
0
230
1
0
LINE
5
67
100
AcDbEntity
8
SK3
62
256
6
ByLayer
370
-1
48
0.05
60
0
100
AcDbLine
10
22
20
-6.75
30
0
11
28.722615
21
-6.75
31
0
39
0
210
0
220
0
230
1
0
LINE
5
68
100
AcDbEntity
8
SK3
62
256
6
ByLayer
370
-1
48
0.05
60
0
100
AcDbLine
10
28.722615
20
-6.75
30
0
11
28.722615
21
-9.2
31
0
39
0
210
0
220
0
230
1
0
LINE
5
69
100
AcDbEntity
8
SK3
62
256
6
ByLayer
370
-1
48
0.05
60
0
100
AcDbLine
10
29.522615
20
-10
30
0
11
39.722615
21
-10
31
0
39
0
210
0
220
0
230
1
0
LINE
5
6A
100
AcDbEntity
8
SK3
62
256
6
ByLayer
370
-1
48
0.05
60
0
100
AcDbLine
10
39.722615
20
-10
30
0
11
40.722615
21
-11
31
0
39
0
210
0
220
0
230
1
0
LINE
5
6B
100
AcDbEntity
8
SK3
62
256
6
ByLayer
370
-1
48
0.05
60
0
100
AcDbLine
10
39.722615
20
-10
30
0
11
39.722615
21
0
31
0
39
0
210
0
220
0
230
1
0
LINE
5
6C
100
AcDbEntity
8
SK3
62
256
6
ByLayer
370
-1
48
0.05
60
0
100
AcDbLine
10
28.722615
20
-6.75
30
0
11
28.722615
21
0
31
0
39
0
210
0
220
0
230
1
0
LINE
5
6D
100
AcDbEntity
8
SK3
62
256
6
ByLayer
370
-1
48
0.05
60
0
100
AcDbLine
10
22
20
-6.75
30
0
11
22
21
0
31
0
39
0
210
0
220
0
230
1
0
LINE
5
6E
100
AcDbEntity
8
SK3
62
256
6
ByLayer
370
-1
48
0.05
60
0
100
AcDbLine
10
15
20
-13.50525
30
0
11
15
21
0
31
0
39
0
210
0
220
0
230
1
0
LINE
5
6F
100
AcDbEntity
8
SK3
62
256
6
ByLayer
370
-1
48
0.05
60
0
100
AcDbLine
10
2
20
-13.50525
30
0
11
2
21
-6.2275
31
0
39
0
210
0
220
0
230
1
0
LINE
5
70
100
AcDbEntity
8
SK3
62
256
6
ByLayer
370
-1
48
0.05
60
0
100
AcDbLine
10
0
20
15.50525
30
0
11
2
21
13.50525
31
0
39
0
210
0
220
0
230
1
0
LINE
5
71
100
AcDbEntity
8
SK3
62
256
6
ByLayer
370
-1
48
0.05
60
0
100
AcDbLine
10
2
20
13.50525
30
0
11
15
21
13.50525
31
0
39
0
210
0
220
0
230
1
0
LINE
5
72
100
AcDbEntity
8
SK3
62
256
6
ByLayer
370
-1
48
0.05
60
0
100
AcDbLine
10
15.575932
20
13.75
30
0
11
21.2
21
13.75
31
0
39
0
210
0
220
0
230
1
0
LINE
5
73
100
AcDbEntity
8
SK3
62
256
6
ByLayer
370
-1
48
0.05
60
0
100
AcDbLine
10
22
20
12.95
30
0
11
22
21
6.75
31
0
39
0
210
0
220
0
230
1
0
LINE
5
74
100
AcDbEntity
8
SK3
62
256
6
ByLayer
370
-1
48
0.05
60
0
100
AcDbLine
10
22
20
6.75
30
0
11
28.722615
21
6.75
31
0
39
0
210
0
220
0
230
1
0
LINE
5
75
100
AcDbEntity
8
SK3
62
256
6
ByLayer
370
-1
48
0.05
60
0
100
AcDbLine
10
28.722615
20
6.75
30
0
11
28.722615
21
9.2
31
0
39
0
210
0
220
0
230
1
0
LINE
5
76
100
AcDbEntity
8
SK3
62
256
6
ByLayer
370
-1
48
0.05
60
0
100
AcDbLine
10
29.522615
20
10
30
0
11
39.722615
21
10
31
0
39
0
210
0
220
0
230
1
0
LINE
5
77
100
AcDbEntity
8
SK3
62
256
6
ByLayer
370
-1
48
0.05
60
0
100
AcDbLine
10
39.722615
20
10
30
0
11
40.722615
21
11
31
0
39
0
210
0
220
0
230
1
0
LINE
5
78
100
AcDbEntity
8
SK3
62
256
6
ByLayer
370
-1
48
0.05
60
0
100
AcDbLine
10
39.722615
20
10
30
0
11
39.722615
21
0
31
0
39
0
210
0
220
0
230
1
0
LINE
5
79
100
AcDbEntity
8
SK3
62
256
6
ByLayer
370
-1
48
0.05
60
0
100
AcDbLine
10
28.722615
20
6.75
30
0
11
28.722615
21
0
31
0
39
0
210
0
220
0
230
1
0
LINE
5
7A
100
AcDbEntity
8
SK3
62
256
6
ByLayer
370
-1
48
0.05
60
0
100
AcDbLine
10
22
20
6.75
30
0
11
22
21
0
31
0
39
0
210
0
220
0
230
1
0
LINE
5
7B
100
AcDbEntity
8
SK3
62
256
6
ByLayer
370
-1
48
0.05
60
0
100
AcDbLine
10
15
20
13.50525
30
0
11
15
21
0
31
0
39
0
210
0
220
0
230
1
0
LINE
5
7C
100
AcDbEntity
8
SK3
62
256
6
ByLayer
370
-1
48
0.05
60
0
100
AcDbLine
10
2
20
13.50525
30
0
11
2
21
6.2275
31
0
39
0
210
0
220
0
230
1
0
LINE
5
7D
100
AcDbEntity
8
81
62
256
6
ByLayer
370
-1
48
1
60
0
100
AcDbLine
10
50
20
0
30
0
11
60
21
0
31
0
39
0
210
0
220
0
230
1
0
LINE
5
7E
100
AcDbEntity
8
80
62
256
6
ByLayer
370
-1
48
1
60
0
100
AcDbLine
10
0
20
0
30
0
11
-10
21
0
31
0
39
0
210
0
220
0
230
1
0
LINE
5
7F
100
AcDbEntity
8
4
62
256
6
ByLayer
370
-1
48
0.05
60
0
100
AcDbLine
10
50
20
0
30
0
11
0
21
0
31
0
39
0
210
0
220
0
230
1
0
MTEXT
5
C0
100
AcDbEntity
8
SK6
62
256
6
ByLayer
370
-1
48
1
60
0
100
AcDbMText
10
-18.356579
20
-36.375
30
0
210
0
220
0
230
1
1
\W00.737;\fsimplex.shx,bigfont.shx;R200-064Q27-16H\P
40
3.5
41
0
44
1.084337
50
0
71
7
72
5
7
DEFAULT
0
HATCH
5
BF
100
AcDbEntity
8
1
62
256
6
ByLayer
370
-1
48
1
60
1
100
AcDbHatch
10
0
20
0
30
0
210
0
220
0
230
1
2
ANSI38
70
0
71
0
91
2
92
5
93
1
72
2
10
42.0596
20
31.9804
40
8
50
0
51
360
73
1
97
0
92
5
93
1
72
2
10
42.0596
20
31.9804
40
3.6
50
0
51
360
73
1
97
0
75
0
76
0
52
45
41
1
77
0
78
1
53
45
43
0
44
0
45
-0.707106781186547
46
0.707106781186548
79
0
47
0
98
1
10
0
20
0
0
DIMENSION
5
D1
100
AcDbEntity
8
2
62
256
6
ByLayer
370
-3
48
1
60
0
100
AcDbDimension
2
DimnDraft3D1
10
-32.03045
20
-64.25
30
0
11
0
21
-64.25
31
0
70
32
71
5
72
1
41
1
210
0
220
0
230
1
3
Standard
100
AcDbAlignedDimension
13
32.03045
23
-51.499997
33
0
14
-32.03045
24
-51.499997
34
0
50
0
100
AcDbRotatedDimension
1001
ACAD
1000
DSTYLE
1002
{
1070
   279
1070
     0
1070
   173
1070
     1
1070
   340
1005
C1
1070
    77
1070
     1
1070
    73
1070
     0
1070
   171
1070
     4
1070
   274
1070
     4
1070
   177
1070
     7
1070
   176
1070
     7
1070
   178
1070
     7
1070
    41
1041
4.0
1070
   147
1041
2.25
1070
    42
1041
1.499997
1070
    44
1041
2.0
1070
   140
1041
4.5
1070
   343
1005
D2
1070
   344
1005
D2
1002
}
0
DIMENSION
5
E6
100
AcDbEntity
8
2
62
256
6
ByLayer
370
-3
48
1
60
0
100
AcDbDimension
2
DimnDraft3D2
10
-40
20
-76.25
30
0
11
0
21
-76.25
31
0
70
32
71
5
72
1
41
1
210
0
220
0
230
1
3
Standard
100
AcDbAlignedDimension
13
40
23
-51.499997
33
0
14
-40
24
-51.499997
34
0
50
0
100
AcDbRotatedDimension
1001
ACAD
1000
DSTYLE
1002
{
1070
   279
1070
     0
1070
   173
1070
     1
1070
   340
1005
C1
1070
    77
1070
     1
1070
    73
1070
     0
1070
   171
1070
     4
1070
   274
1070
     4
1070
   177
1070
     7
1070
   176
1070
     7
1070
   178
1070
     7
1070
    41
1041
4.0
1070
   147
1041
2.25
1070
    42
1041
1.499997
1070
    44
1041
2.0
1070
   140
1041
4.5
1070
   343
1005
D2
1070
   344
1005
D2
1002
}
0
DIMENSION
5
F4
100
AcDbEntity
8
2
62
256
6
ByLayer
370
-3
48
1
60
0
100
AcDbDimension
2
DimnDraft3D3
10
0
20
49.75
30
0
11
25
21
49.75
31
0
70
32
71
5
72
1
41
1
210
0
220
0
230
1
3
Standard
100
AcDbAlignedDimension
13
50
23
41.499997
33
0
14
0
24
26.999997
34
0
50
0
100
AcDbRotatedDimension
1001
ACAD
1000
DSTYLE
1002
{
1070
   279
1070
     0
1070
   173
1070
     1
1070
   340
1005
C1
1070
    77
1070
     1
1070
    73
1070
     0
1070
   171
1070
     4
1070
   274
1070
     4
1070
   177
1070
     7
1070
   176
1070
     7
1070
   178
1070
     7
1070
    41
1041
4.0
1070
   147
1041
2.25
1070
    42
1041
1.499997
1070
    44
1041
2.0
1070
   140
1041
4.5
1070
   343
1005
D2
1070
   344
1005
D2
1002
}
0
DIMENSION
5
102
100
AcDbEntity
8
SK2
62
256
6
ByLayer
370
-3
48
1
60
0
100
AcDbDimension
2
DimnDraft3D4
10
-13.5
20
9.75
30
0
11
0
21
9.75
31
0
70
32
71
5
72
1
41
1
210
0
220
0
230
1
3
Standard
100
AcDbAlignedDimension
13
13.5
23
1.499997
33
0
14
-13.5
24
1.499997
34
0
50
0
100
AcDbRotatedDimension
1001
ACAD
1000
DSTYLE
1002
{
1070
   279
1070
     0
1070
   173
1070
     1
1070
   340
1005
C1
1070
   271
1070
     0
1070
    77
1070
     1
1070
    73
1070
     0
1070
   171
1070
     4
1070
   274
1070
     4
1070
   177
1070
     7
1070
   176
1070
     7
1070
   178
1070
     7
1070
    41
1041
4.0
1070
   147
1041
2.25
1070
    42
1041
1.499997
1070
    44
1041
2.0
1070
   140
1041
4.5
1070
   343
1005
D2
1070
   344
1005
D2
1002
}
0
DIMENSION
5
111
100
AcDbEntity
8
2
62
256
6
ByLayer
370
-3
48
1
60
0
100
AcDbDimension
2
DimnDraft3D5
10
42
20
-54.25
30
0
11
37
21
-54.25
31
0
70
32
71
5
72
1
41
1
210
0
220
0
230
1
3
Standard
100
AcDbAlignedDimension
13
50
23
-41.499997
33
0
14
42
24
-41.499997
34
0
50
0
100
AcDbRotatedDimension
1001
ACAD
1000
DSTYLE
1002
{
1070
   279
1070
     0
1070
   173
1070
     1
1070
   340
1005
C1
1070
   271
1070
     0
1070
    77
1070
     1
1070
    73
1070
     0
1070
   171
1070
     4
1070
   274
1070
     4
1070
   177
1070
     7
1070
   176
1070
     7
1070
   178
1070
     7
1070
    41
1041
4.0
1070
   147
1041
2.25
1070
    42
1041
1.499997
1070
    44
1041
2.0
1070
   140
1041
4.5
1070
   343
1005
D2
1070
   344
1005
D2
1002
}
0
ENDSEC
0
SECTION
2
OBJECTS
0
DICTIONARY
5
160
330
0
100
AcDbDictionary
280
0
281
1
3
ACAD_GROUP
350
161
3
ACAD_MLINESTYLE
350
162
0
DICTIONARY
5
161
330
0
100
AcDbDictionary
280
0
281
1
0
DICTIONARY
5
162
330
0
100
AcDbDictionary
280
0
281
1
3
Standard
350
18
0
MLINESTYLE
5
18
330
162
100
AcDbMlineStyle
2
Standard
70
0
3

62
256
51
90
52
90
71
2
49
-0.5
62
256
6
ByLayer
49
0.5
62
256
6
ByLayer
0
RASTERVARIABLES
5
14e
330

100
AcDbRasterVariables
90
0
70
1
71
1
72
1
0
ENDSEC
0
EOF
