0
SECTION
2
HEADER
9
$ACADVER
1
AC1015
9
$DWGCODEPAGE
3
ANSI_1252
9
$HANDSEED
5
215
9
$ANGBASE
50
0.0
9
$ANGDIR
70
0
9
$ATTMODE
70
1
9
$AUNITS
70
0
9
$AUPREC
70
0
9
$CECOLOR
62
256
9
$CELTSCALE
40
1.0
9
$CELTYPE
6
ByLayer
9
$CELWEIGHT
370
-1
9
$CLAYER
8
0
9
$CMLJUST
70
0
9
$CMLSCALE
40
1.0
9
$CMLSTYLE
2
Standard
9
$DIMSTYLE
2
Standard
9
$TEXTSIZE
40
2.5
9
$TEXTSTYLE
7
Standard
9
$LUNITS
70
2
9
$LUPREC
70
4
9
$EXTNAMES
290
1
9
$INSBASE
10
0.0
20
0.0
30
0.0
9
$INSUNITS
70
4
9
$LTSCALE
40
1.0
9
$LWDISPLAY
290
0
9
$PDMODE
70
0
9
$PDSIZE
40
0.0
9
$PLINEGEN
70
0
9
$TDCREATE
40
2457288.56856597
9
$TDUCREATE
40
2457288.48523265
9
$TDUPDATE
40
2457289.41474517
9
$TDUUPDATE
40
2457289.33141183
9
$TDINDWG
40
0.00433306712962963
9
$DIMADEC
70
0
9
$DIMAUNIT
70
0
9
$DIMASZ
40
0.18
9
$DIMAZIN
70
3
9
$DIMBLK
1

9
$DIMBLK1
1

9
$DIMBLK2
1

9
$DIMCEN
40
0.09
9
$DIMCLRD
70
0
9
$DIMCLRE
70
0
9
$DIMCLRT
70
0
9
$DIMDEC
70
2
9
$DIMDLE
40
0.0
9
$DIMDLI
40
0.38
9
$DIMDSEP
70
52
9
$DIMEXE
40
0.18
9
$DIMEXO
40
0.0625
9
$DIMGAP
40
0.09
9
$DIMJUST
70
0
9
$DIMLFAC
40
1.0
9
$DIMLUNIT
70
2
9
$DIMLWD
70
-2
9
$DIMLWE
70
-2
9
$DIMPOST
1
<>
9
$DIMRND
40
0.0
9
$DIMSAH
70
0
9
$DIMSCALE
40
1.0
9
$DIMSE1
70
0
9
$DIMSE2
70
0
9
$DIMTAD
70
1
9
$DIMTIH
70
0
9
$DIMTOH
70
0
9
$DIMTXT
40
0.18
9
$DIMZIN
70
0
9
$DIMFRAC
70
0
9
$DIMLTYPE
6
ByBlock
9
$DIMLTEX1
6
ByBlock
9
$DIMLTEX2
6
ByBlock
0
ENDSEC
0
SECTION
2
CLASSES
0
CLASS
1
RASTERVARIABLES
2
AcDbRasterVariables
3
ISM
90
0
280
0
281
0
0
ENDSEC
0
SECTION
2
TABLES
0
TABLE
2
APPID
5
16A
330
0
100
AcDbSymbolTable
70
6
0
APPID
5
12
330
16A
100
AcDbSymbolTableRecord
100
AcDbRegAppTableRecord
2
ACAD
70
0
0
APPID
5
1C6
330
16A
100
AcDbSymbolTableRecord
100
AcDbRegAppTableRecord
2
ACAD_EXEMPT_FROM_CAD_STANDARDS
70
0
0
APPID
5
1E1
330
16A
100
AcDbSymbolTableRecord
100
AcDbRegAppTableRecord
2
ACAD_NAV_VCDISPLAY
70
0
0
APPID
5
20D
330
16A
100
AcDbSymbolTableRecord
100
AcDbRegAppTableRecord
2
AcCmTransparency
70
0
0
APPID
5
20E
330
16A
100
AcDbSymbolTableRecord
100
AcDbRegAppTableRecord
2
GradientColor1ACI
70
0
0
APPID
5
20F
330
16A
100
AcDbSymbolTableRecord
100
AcDbRegAppTableRecord
2
GradientColor2ACI
70
0
0
ENDTAB
0
TABLE
2
VPORT
5
163
330
0
100
AcDbSymbolTable
70
1
0
VPORT
5
1
330
163
100
AcDbSymbolTableRecord
100
AcDbViewportTableRecord
2
*Active
70
0
10
0.0
20
0.0
11
1.0
21
1.0
12
32.6120687631524
22
22.9418587663787
13
0.0
23
0.0
14
0.5
24
0.5
15
10.0
25
10.0
16
0.0
26
0.0
36
1.0
17
0.0
27
0.0
37
0.0
40
171.20696132931
41
1.65153234960272
75
0
76
0
0
ENDTAB
0
TABLE
2
LTYPE
5
164
330
0
100
AcDbSymbolTable
70
9
0
LTYPE
5
14
330
164
100
AcDbSymbolTableRecord
100
AcDbLinetypeTableRecord
70
0
2
ByBlock
3

72
65
73
0
40
0.0
0
LTYPE
5
15
330
164
100
AcDbSymbolTableRecord
100
AcDbLinetypeTableRecord
70
0
2
ByLayer
3

72
65
73
0
40
0.0
0
LTYPE
5
16
330
164
100
AcDbSymbolTableRecord
100
AcDbLinetypeTableRecord
70
0
2
CONTINUOUS
3
Solid line
72
65
73
0
40
0.0
0
LTYPE
5
3C
330
164
100
AcDbSymbolTableRecord
100
AcDbLinetypeTableRecord
70
0
2
DASHED
3
__ __ __ __ __ __ __ __ __
72
65
73
2
40
25.72
49
12.86
74
0
49
-12.86
74
0
0
LTYPE
5
3D
330
164
100
AcDbSymbolTableRecord
100
AcDbLinetypeTableRecord
70
0
2
HIDDEN
3
_ _ _ _ _ _ _ _ _ _ _ _ _ _ _
72
65
73
2
40
0.5
49
0.25
74
0
49
-0.25
74
0
0
LTYPE
5
3E
330
164
100
AcDbSymbolTableRecord
100
AcDbLinetypeTableRecord
70
0
2
PHANTOM
3
____ _ _ ____ _ _ _____ _ _ ____
72
65
73
6
40
50.5
49
18.0
74
0
49
-6.5
74
0
49
6.5
74
0
49
-6.5
74
0
49
6.5
74
0
49
-6.5
74
0
0
LTYPE
5
3F
330
164
100
AcDbSymbolTableRecord
100
AcDbLinetypeTableRecord
70
0
2
CENTER
3
____ _ ____ _ ____ _ ____
72
65
73
4
40
47.5
49
22.0
74
0
49
-8.5
74
0
49
8.5
74
0
49
-8.5
74
0
0
LTYPE
5
40
330
164
100
AcDbSymbolTableRecord
100
AcDbLinetypeTableRecord
70
0
2
DOT
3
.........................
72
65
73
2
40
10.0
49
0.0
74
0
49
-10.0
74
0
0
LTYPE
5
41
330
164
100
AcDbSymbolTableRecord
100
AcDbLinetypeTableRecord
70
0
2
DASHDOT
3
_._._._._._._._._._._._._._._._.
72
65
73
4
40
70.0
49
31.0
74
0
49
-13.0
74
0
49
13.0
74
0
49
-13.0
74
0
0
ENDTAB
0
TABLE
2
LAYER
5
165
330
0
100
AcDbSymbolTable
70
10
0
LAYER
5
10
330
165
100
AcDbSymbolTableRecord
100
AcDbLayerTableRecord
2
0
70
0
62
7
6
CONTINUOUS
290
1
370
-3
390
0
0
LAYER
5
43
330
165
100
AcDbSymbolTableRecord
100
AcDbLayerTableRecord
2
81
70
0
62
-3
6
CONTINUOUS
290
1
370
-3
390
0
0
LAYER
5
45
330
165
100
AcDbSymbolTableRecord
100
AcDbLayerTableRecord
2
80
70
0
62
-6
6
CONTINUOUS
290
1
370
-3
390
0
0
LAYER
5
47
330
165
100
AcDbSymbolTableRecord
100
AcDbLayerTableRecord
2
1
70
0
62
4
6
CONTINUOUS
290
1
370
-3
390
0
0
LAYER
5
7E
330
165
100
AcDbSymbolTableRecord
100
AcDbLayerTableRecord
2
4
70
0
62
-2
6
CENTER
290
1
370
-3
390
0
0
LAYER
5
B3
330
165
100
AcDbSymbolTableRecord
100
AcDbLayerTableRecord
2
2
70
0
62
7
6
CONTINUOUS
290
1
370
-3
390
0
0
LAYER
5
14F
330
165
100
AcDbSymbolTableRecord
100
AcDbLayerTableRecord
2
SK3
70
0
62
1
6
DASHED
290
1
370
-3
390
0
0
LAYER
5
150
330
165
100
AcDbSymbolTableRecord
100
AcDbLayerTableRecord
2
SK4
70
0
62
2
6
CENTER
290
1
370
-3
390
0
0
LAYER
5
151
330
165
100
AcDbSymbolTableRecord
100
AcDbLayerTableRecord
2
SK2
70
0
62
7
6
CONTINUOUS
290
1
370
-3
390
0
0
LAYER
5
152
330
165
100
AcDbSymbolTableRecord
100
AcDbLayerTableRecord
2
SK6
70
0
62
5
6
CONTINUOUS
290
1
370
-3
390
0
0
ENDTAB
0
TABLE
2
STYLE
5
166
330
0
100
AcDbSymbolTable
70
3
0
STYLE
5
11
330
166
100
AcDbSymbolTableRecord
100
AcDbTextStyleTableRecord
2
Standard
3
txt
70
0
71
0
40
0.0
41
1.0
42
0.0
50
0.0
0
STYLE
5
C1
330
166
100
AcDbSymbolTableRecord
100
AcDbTextStyleTableRecord
2
DEFAULT
3
simplex.shx
70
0
71
0
40
0.0
41
1.0
42
0.0
50
0.0
0
STYLE
5
C2
330
166
100
AcDbSymbolTableRecord
100
AcDbTextStyleTableRecord
2
DWGDirectTextStyle
3
SIMPLEX
70
0
71
0
40
0.0
41
1.0
42
0.0
50
0.0
0
ENDTAB
0
TABLE
2
DIMSTYLE
5
167
330
0
100
AcDbSymbolTable
70
1
100
AcDbDimStyleTable
0
DIMSTYLE
105
27
330
167
100
AcDbSymbolTableRecord
100
AcDbDimStyleTableRecord
2
Standard
70
0
3
<>
40
1.0
41
0.18
42
0.0625
43
0.38
44
0.18
45
0.0
46
0.0
73
0
74
0
75
0
76
0
77
1
78
0
79
3
140
0.18
141
0.09
144
1.0
147
0.09
173
0
176
0
177
0
178
0
179
0
271
2
275
0
276
0
277
2
278
52
280
0
340
11
345
14
346
14
347
14
371
-2
372
-2
0
ENDTAB
0
TABLE
2
VIEW
5
168
330
0
100
AcDbSymbolTable
70
0
0
ENDTAB
0
TABLE
2
UCS
5
169
330
0
100
AcDbSymbolTable
70
0
0
ENDTAB
0
TABLE
2
BLOCK_RECORD
5
16B
330
0
100
AcDbSymbolTable
70
9
0
BLOCK_RECORD
5
1F
330
16B
100
AcDbSymbolTableRecord
100
AcDbBlockTableRecord
2
*Model_Space
340
1C0
0
BLOCK_RECORD
5
1B
330
16B
100
AcDbSymbolTableRecord
100
AcDbBlockTableRecord
2
*Paper_Space
340
1C1
0
BLOCK_RECORD
5
23
330
16B
100
AcDbSymbolTableRecord
100
AcDbBlockTableRecord
2
*Paper_Space0
340
1C2
0
BLOCK_RECORD
5
C4
330
16B
100
AcDbSymbolTableRecord
100
AcDbBlockTableRecord
2
DimnDraft3D1
340
0
70
0
280
1
281
0
1001
ACAD
1000
DesignCenter Data
1002
{
1070
1
1070
0
1002
}
0
BLOCK_RECORD
5
D2
330
16B
100
AcDbSymbolTableRecord
100
AcDbBlockTableRecord
2
_CLOSED
340
0
70
0
280
1
281
0
1001
ACAD
1000
DesignCenter Data
1002
{
1070
1
1070
0
1002
}
0
BLOCK_RECORD
5
D9
330
16B
100
AcDbSymbolTableRecord
100
AcDbBlockTableRecord
2
DimnDraft3D2
340
0
70
0
280
1
281
0
1001
ACAD
1000
DesignCenter Data
1002
{
1070
1
1070
0
1002
}
0
BLOCK_RECORD
5
E7
330
16B
100
AcDbSymbolTableRecord
100
AcDbBlockTableRecord
2
DimnDraft3D3
340
0
70
0
280
1
281
0
1001
ACAD
1000
DesignCenter Data
1002
{
1070
1
1070
0
1002
}
0
BLOCK_RECORD
5
F5
330
16B
100
AcDbSymbolTableRecord
100
AcDbBlockTableRecord
2
DimnDraft3D4
340
0
70
0
280
1
281
0
1001
ACAD
1000
DesignCenter Data
1002
{
1070
1
1070
0
1002
}
0
BLOCK_RECORD
5
103
330
16B
100
AcDbSymbolTableRecord
100
AcDbBlockTableRecord
2
DimnDraft3D5
340
0
70
0
280
1
281
0
1001
ACAD
1000
DesignCenter Data
1002
{
1070
1
1070
0
1002
}
0
ENDTAB
0
ENDSEC
0
SECTION
2
BLOCKS
0
BLOCK
5
20
330
1F
100
AcDbEntity
8
0
100
AcDbBlockBegin
2
*Model_Space
70
0
10
0.0
20
0.0
30
0.0
3
*Model_Space
0
ENDBLK
5
21
330
1F
100
AcDbEntity
8
0
100
AcDbBlockEnd
0
BLOCK
5
1C
330
1B
100
AcDbEntity
8
0
100
AcDbBlockBegin
2
*Paper_Space
70
0
10
0.0
20
0.0
30
0.0
3
*Paper_Space
0
ENDBLK
5
1D
330
1B
100
AcDbEntity
8
0
100
AcDbBlockEnd
0
BLOCK
5
24
330
23
100
AcDbEntity
67
1
8
0
100
AcDbBlockBegin
2
*Paper_Space0
70
0
10
0.0
20
0.0
30
0.0
3
*Paper_Space0
0
VIEWPORT
5
20C
330
23
100
AcDbEntity
67
1
8
0
62
256
6
ByLayer
370
-1
48
1.0
60
0
100
AcDbViewport
10
0.0
20
0.0
30
0.0
40
297.0
41
210.0
68
1
69
1
12
50.0
22
100.0
13
0.0
23
0.0
14
10.0
24
10.0
15
10.0
25
10.0
16
0.0
26
0.0
36
1.0
17
0.0
27
0.0
37
0.0
42
50.0
43
0.0
44
0.0
45
250.0
50
0.0
51
0.0
72
1000
90
819232
110
0.0
120
0.0
130
0.0
111
1.0
121
0.0
131
0.0
112
0.0
122
1.0
132
0.0
0
ENDBLK
5
25
330
23
100
AcDbEntity
8
0
100
AcDbBlockEnd
0
BLOCK
5
CF
330
C4
100
AcDbEntity
8
0
100
AcDbBlockBegin
2
DimnDraft3D1
70
0
10
0.0
20
0.0
30
0.0
3
DimnDraft3D1
0
MTEXT
5
C5
330
C4
100
AcDbEntity
8
2
62
256
440
16777216
6
ByLayer
370
-1
48
1.0
60
0
100
AcDbMText
10
63.125
20
-5.423684
30
0.0
210
0.0
220
0.0
230
1.0
1
\W01.000;\fsimplex.shx,bigfont.shx;(%%c38) 
40
4.5
41
0.0
44
1.084337
50
90.0
71
7
72
5
7
DEFAULT
0
LINE
5
C6
330
C4
100
AcDbEntity
8
2
62
256
440
16777216
6
ByLayer
370
-1
48
1.0
60
0
100
AcDbLine
10
51.499997
20
19.02285
30
0.0
11
66.25
21
19.02285
31
0.0
39
0.0
210
0.0
220
0.0
230
1.0
0
LINE
5
C7
330
C4
100
AcDbEntity
8
2
62
256
440
16777216
6
ByLayer
370
-1
48
1.0
60
0
100
AcDbLine
10
51.499997
20
-19.02285
30
0.0
11
66.25
21
-19.02285
31
0.0
39
0.0
210
0.0
220
0.0
230
1.0
0
LINE
5
C8
330
C4
100
AcDbEntity
8
2
62
256
440
16777216
6
ByLayer
370
-1
48
1.0
60
0
100
AcDbLine
10
64.25
20
19.02285
30
0.0
11
64.25
21
-19.02285
31
0.0
39
0.0
210
0.0
220
0.0
230
1.0
0
LINE
5
C9
330
C4
100
AcDbEntity
8
2
62
256
440
16777216
6
ByLayer
370
-1
48
1.0
60
0
100
AcDbLine
10
64.25
20
19.02285
30
0.0
11
64.916667
21
15.022852
31
0.0
39
0.0
210
0.0
220
0.0
230
1.0
0
LINE
5
CA
330
C4
100
AcDbEntity
8
2
62
256
440
16777216
6
ByLayer
370
-1
48
1.0
60
0
100
AcDbLine
10
64.25
20
19.02285
30
0.0
11
63.583333
21
15.022848
31
0.0
39
0.0
210
0.0
220
0.0
230
1.0
0
LINE
5
CB
330
C4
100
AcDbEntity
8
2
62
256
440
16777216
6
ByLayer
370
-1
48
1.0
60
0
100
AcDbLine
10
64.916667
20
15.022852
30
0.0
11
63.583333
21
15.022848
31
0.0
39
0.0
210
0.0
220
0.0
230
1.0
0
LINE
5
CC
330
C4
100
AcDbEntity
8
2
62
256
440
16777216
6
ByLayer
370
-1
48
1.0
60
0
100
AcDbLine
10
64.25
20
-19.02285
30
0.0
11
63.583333
21
-15.022852
31
0.0
39
0.0
210
0.0
220
0.0
230
1.0
0
LINE
5
CD
330
C4
100
AcDbEntity
8
2
62
256
440
16777216
6
ByLayer
370
-1
48
1.0
60
0
100
AcDbLine
10
64.25
20
-19.02285
30
0.0
11
64.916667
21
-15.022848
31
0.0
39
0.0
210
0.0
220
0.0
230
1.0
0
LINE
5
CE
330
C4
100
AcDbEntity
8
2
62
256
440
16777216
6
ByLayer
370
-1
48
1.0
60
0
100
AcDbLine
10
63.583333
20
-15.022852
30
0.0
11
64.916667
21
-15.022848
31
0.0
39
0.0
210
0.0
220
0.0
230
1.0
0
ENDBLK
5
D0
330
C4
100
AcDbEntity
8
0
100
AcDbBlockEnd
0
BLOCK
5
D3
330
D2
100
AcDbEntity
8
0
100
AcDbBlockBegin
2
_CLOSED
70
0
10
0.0
20
0.0
30
0.0
3
_CLOSED
0
LINE
5
D5
330
D2
100
AcDbEntity
8
0
62
256
6
ByLayer
370
-2
48
1.0
60
0
100
AcDbLine
10
-1.0
20
0.166667
30
0.0
11
0.0
21
0.0
31
0.0
39
0.0
210
0.0
220
0.0
230
1.0
0
LINE
5
D6
330
D2
100
AcDbEntity
8
0
62
256
6
ByLayer
370
-2
48
1.0
60
0
100
AcDbLine
10
0.0
20
0.0
30
0.0
11
-1.0
21
-0.166667
31
0.0
39
0.0
210
0.0
220
0.0
230
1.0
0
LINE
5
D7
330
D2
100
AcDbEntity
8
0
62
256
6
ByLayer
370
-2
48
1.0
60
0
100
AcDbLine
10
-1.0
20
0.166667
30
0.0
11
-1.0
21
-0.166667
31
0.0
39
0.0
210
0.0
220
0.0
230
1.0
0
LINE
5
D8
330
D2
100
AcDbEntity
8
0
62
256
6
ByLayer
370
-2
48
1.0
60
0
100
AcDbLine
10
0.0
20
0.0
30
0.0
11
-1.0
21
0.0
31
0.0
39
0.0
210
0.0
220
0.0
230
1.0
0
ENDBLK
5
D4
330
D2
100
AcDbEntity
8
0
100
AcDbBlockEnd
0
BLOCK
5
E4
330
D9
100
AcDbEntity
8
0
100
AcDbBlockBegin
2
DimnDraft3D2
70
0
10
0.0
20
0.0
30
0.0
3
DimnDraft3D2
0
MTEXT
5
DA
330
D9
100
AcDbEntity
8
2
62
256
440
16777216
6
ByLayer
370
-1
48
1.0
60
0
100
AcDbMText
10
75.125
20
-3.659211
30
0.0
210
0.0
220
0.0
230
1.0
1
\W01.000;\fsimplex.shx,bigfont.shx;%%c50 
40
4.5
41
0.0
44
1.084337
50
90.0
71
7
72
5
7
DEFAULT
0
LINE
5
DB
330
D9
100
AcDbEntity
8
2
62
256
440
16777216
6
ByLayer
370
-1
48
1.0
60
0
100
AcDbLine
10
51.499997
20
25.0
30
0.0
11
78.25
21
25.0
31
0.0
39
0.0
210
0.0
220
0.0
230
1.0
0
LINE
5
DC
330
D9
100
AcDbEntity
8
2
62
256
440
16777216
6
ByLayer
370
-1
48
1.0
60
0
100
AcDbLine
10
51.499997
20
-25.0
30
0.0
11
78.25
21
-25.0
31
0.0
39
0.0
210
0.0
220
0.0
230
1.0
0
LINE
5
DD
330
D9
100
AcDbEntity
8
2
62
256
440
16777216
6
ByLayer
370
-1
48
1.0
60
0
100
AcDbLine
10
76.25
20
25.0
30
0.0
11
76.25
21
-25.0
31
0.0
39
0.0
210
0.0
220
0.0
230
1.0
0
LINE
5
DE
330
D9
100
AcDbEntity
8
2
62
256
440
16777216
6
ByLayer
370
-1
48
1.0
60
0
100
AcDbLine
10
76.25
20
25.0
30
0.0
11
76.916667
21
21.000002
31
0.0
39
0.0
210
0.0
220
0.0
230
1.0
0
LINE
5
DF
330
D9
100
AcDbEntity
8
2
62
256
440
16777216
6
ByLayer
370
-1
48
1.0
60
0
100
AcDbLine
10
76.25
20
25.0
30
0.0
11
75.583333
21
20.999998
31
0.0
39
0.0
210
0.0
220
0.0
230
1.0
0
LINE
5
E0
330
D9
100
AcDbEntity
8
2
62
256
440
16777216
6
ByLayer
370
-1
48
1.0
60
0
100
AcDbLine
10
76.916667
20
21.000002
30
0.0
11
75.583333
21
20.999998
31
0.0
39
0.0
210
0.0
220
0.0
230
1.0
0
LINE
5
E1
330
D9
100
AcDbEntity
8
2
62
256
440
16777216
6
ByLayer
370
-1
48
1.0
60
0
100
AcDbLine
10
76.25
20
-25.0
30
0.0
11
75.583333
21
-21.000002
31
0.0
39
0.0
210
0.0
220
0.0
230
1.0
0
LINE
5
E2
330
D9
100
AcDbEntity
8
2
62
256
440
16777216
6
ByLayer
370
-1
48
1.0
60
0
100
AcDbLine
10
76.25
20
-25.0
30
0.0
11
76.916667
21
-20.999998
31
0.0
39
0.0
210
0.0
220
0.0
230
1.0
0
LINE
5
E3
330
D9
100
AcDbEntity
8
2
62
256
440
16777216
6
ByLayer
370
-1
48
1.0
60
0
100
AcDbLine
10
75.583333
20
-21.000002
30
0.0
11
76.916667
21
-20.999998
31
0.0
39
0.0
210
0.0
220
0.0
230
1.0
0
ENDBLK
5
E5
330
D9
100
AcDbEntity
8
0
100
AcDbBlockEnd
0
BLOCK
5
F2
330
E7
100
AcDbEntity
8
0
100
AcDbBlockBegin
2
DimnDraft3D3
70
0
10
0.0
20
0.0
30
0.0
3
DimnDraft3D3
0
MTEXT
5
E8
330
E7
100
AcDbEntity
8
2
62
256
440
16777216
6
ByLayer
370
-1
48
1.0
60
0
100
AcDbMText
10
23.496053
20
35.875
30
0.0
210
0.0
220
0.0
230
1.0
1
\W01.000;\fsimplex.shx,bigfont.shx;50 
40
4.5
41
0.0
44
1.084337
50
0.0
71
7
72
5
7
DEFAULT
0
LINE
5
E9
330
E7
100
AcDbEntity
8
2
62
256
440
16777216
6
ByLayer
370
-1
48
1.0
60
0
100
AcDbLine
10
50.0
20
26.499997
30
0.0
11
50.0
21
36.75
31
0.0
39
0.0
210
0.0
220
0.0
230
1.0
0
LINE
5
EA
330
E7
100
AcDbEntity
8
2
62
256
440
16777216
6
ByLayer
370
-1
48
1.0
60
0
100
AcDbLine
10
0.0
20
22.739997
30
0.0
11
0.0
21
36.75
31
0.0
39
0.0
210
0.0
220
0.0
230
1.0
0
LINE
5
EB
330
E7
100
AcDbEntity
8
2
62
256
440
16777216
6
ByLayer
370
-1
48
1.0
60
0
100
AcDbLine
10
50.0
20
34.75
30
0.0
11
0.0
21
34.75
31
0.0
39
0.0
210
0.0
220
0.0
230
1.0
0
LINE
5
EC
330
E7
100
AcDbEntity
8
2
62
256
440
16777216
6
ByLayer
370
-1
48
1.0
60
0
100
AcDbLine
10
50.0
20
34.75
30
0.0
11
46.000002
21
34.083333
31
0.0
39
0.0
210
0.0
220
0.0
230
1.0
0
LINE
5
ED
330
E7
100
AcDbEntity
8
2
62
256
440
16777216
6
ByLayer
370
-1
48
1.0
60
0
100
AcDbLine
10
50.0
20
34.75
30
0.0
11
45.999998
21
35.416667
31
0.0
39
0.0
210
0.0
220
0.0
230
1.0
0
LINE
5
EE
330
E7
100
AcDbEntity
8
2
62
256
440
16777216
6
ByLayer
370
-1
48
1.0
60
0
100
AcDbLine
10
46.000002
20
34.083333
30
0.0
11
45.999998
21
35.416667
31
0.0
39
0.0
210
0.0
220
0.0
230
1.0
0
LINE
5
EF
330
E7
100
AcDbEntity
8
2
62
256
440
16777216
6
ByLayer
370
-1
48
1.0
60
0
100
AcDbLine
10
0.0
20
34.75
30
0.0
11
3.999998
21
35.416667
31
0.0
39
0.0
210
0.0
220
0.0
230
1.0
0
LINE
5
F0
330
E7
100
AcDbEntity
8
2
62
256
440
16777216
6
ByLayer
370
-1
48
1.0
60
0
100
AcDbLine
10
0.0
20
34.75
30
0.0
11
4.000002
21
34.083333
31
0.0
39
0.0
210
0.0
220
0.0
230
1.0
0
LINE
5
F1
330
E7
100
AcDbEntity
8
2
62
256
440
16777216
6
ByLayer
370
-1
48
1.0
60
0
100
AcDbLine
10
3.999998
20
35.416667
30
0.0
11
4.000002
21
34.083333
31
0.0
39
0.0
210
0.0
220
0.0
230
1.0
0
ENDBLK
5
F3
330
E7
100
AcDbEntity
8
0
100
AcDbBlockEnd
0
BLOCK
5
100
330
F5
100
AcDbEntity
8
0
100
AcDbBlockBegin
2
DimnDraft3D4
70
0
10
0.0
20
0.0
30
0.0
3
DimnDraft3D4
0
MTEXT
5
F6
330
F5
100
AcDbEntity
8
SK2
62
256
440
16777216
6
ByLayer
370
-1
48
1.0
60
0
100
AcDbMText
10
-10.875
20
-3.659211
30
0.0
210
0.0
220
0.0
230
1.0
1
\W01.000;\fsimplex.shx,bigfont.shx;%%c22 
40
4.5
41
0.0
44
1.084337
50
90.0
71
7
72
5
7
DEFAULT
0
LINE
5
F7
330
F5
100
AcDbEntity
8
SK2
62
256
440
16777216
6
ByLayer
370
-1
48
1.0
60
0
100
AcDbLine
10
-1.499997
20
11.0
30
0.0
11
-11.75
21
11.0
31
0.0
39
0.0
210
0.0
220
0.0
230
1.0
0
LINE
5
F8
330
F5
100
AcDbEntity
8
SK2
62
256
440
16777216
6
ByLayer
370
-1
48
1.0
60
0
100
AcDbLine
10
-1.499997
20
-11.0
30
0.0
11
-11.75
21
-11.0
31
0.0
39
0.0
210
0.0
220
0.0
230
1.0
0
LINE
5
F9
330
F5
100
AcDbEntity
8
SK2
62
256
440
16777216
6
ByLayer
370
-1
48
1.0
60
0
100
AcDbLine
10
-9.75
20
11.0
30
0.0
11
-9.75
21
-11.0
31
0.0
39
0.0
210
0.0
220
0.0
230
1.0
0
LINE
5
FA
330
F5
100
AcDbEntity
8
SK2
62
256
440
16777216
6
ByLayer
370
-1
48
1.0
60
0
100
AcDbLine
10
-9.75
20
11.0
30
0.0
11
-9.083333
21
7.000002
31
0.0
39
0.0
210
0.0
220
0.0
230
1.0
0
LINE
5
FB
330
F5
100
AcDbEntity
8
SK2
62
256
440
16777216
6
ByLayer
370
-1
48
1.0
60
0
100
AcDbLine
10
-9.75
20
11.0
30
0.0
11
-10.416667
21
6.999998
31
0.0
39
0.0
210
0.0
220
0.0
230
1.0
0
LINE
5
FC
330
F5
100
AcDbEntity
8
SK2
62
256
440
16777216
6
ByLayer
370
-1
48
1.0
60
0
100
AcDbLine
10
-9.083333
20
7.000002
30
0.0
11
-10.416667
21
6.999998
31
0.0
39
0.0
210
0.0
220
0.0
230
1.0
0
LINE
5
FD
330
F5
100
AcDbEntity
8
SK2
62
256
440
16777216
6
ByLayer
370
-1
48
1.0
60
0
100
AcDbLine
10
-9.75
20
-11.0
30
0.0
11
-10.416667
21
-7.000002
31
0.0
39
0.0
210
0.0
220
0.0
230
1.0
0
LINE
5
FE
330
F5
100
AcDbEntity
8
SK2
62
256
440
16777216
6
ByLayer
370
-1
48
1.0
60
0
100
AcDbLine
10
-9.75
20
-11.0
30
0.0
11
-9.083333
21
-6.999998
31
0.0
39
0.0
210
0.0
220
0.0
230
1.0
0
LINE
5
FF
330
F5
100
AcDbEntity
8
SK2
62
256
440
16777216
6
ByLayer
370
-1
48
1.0
60
0
100
AcDbLine
10
-10.416667
20
-7.000002
30
0.0
11
-9.083333
21
-6.999998
31
0.0
39
0.0
210
0.0
220
0.0
230
1.0
0
ENDBLK
5
101
330
F5
100
AcDbEntity
8
0
100
AcDbBlockEnd
0
BLOCK
5
10F
330
103
100
AcDbEntity
8
0
100
AcDbBlockBegin
2
DimnDraft3D5
70
0
10
0.0
20
0.0
30
0.0
3
DimnDraft3D5
0
MTEXT
5
104
330
103
100
AcDbEntity
8
2
62
256
440
16777216
6
ByLayer
370
-1
48
1.0
60
0
100
AcDbMText
10
38.171053
20
-38.125
30
0.0
210
0.0
220
0.0
230
1.0
1
\W01.000;\fsimplex.shx,bigfont.shx;6 
40
4.5
41
0.0
44
1.084337
50
0.0
71
7
72
5
7
DEFAULT
0
LINE
5
105
330
103
100
AcDbEntity
8
2
62
256
440
16777216
6
ByLayer
370
-1
48
1.0
60
0
100
AcDbLine
10
50.0
20
-26.499997
30
0.0
11
50.0
21
-41.25
31
0.0
39
0.0
210
0.0
220
0.0
230
1.0
0
LINE
5
106
330
103
100
AcDbEntity
8
2
62
256
440
16777216
6
ByLayer
370
-1
48
1.0
60
0
100
AcDbLine
10
44.0
20
-26.499997
30
0.0
11
44.0
21
-41.25
31
0.0
39
0.0
210
0.0
220
0.0
230
1.0
0
LINE
5
107
330
103
100
AcDbEntity
8
2
62
256
440
16777216
6
ByLayer
370
-1
48
1.0
60
0
100
AcDbLine
10
50.0
20
-39.25
30
0.0
11
61.25
21
-39.25
31
0.0
39
0.0
210
0.0
220
0.0
230
1.0
0
LINE
5
108
330
103
100
AcDbEntity
8
2
62
256
440
16777216
6
ByLayer
370
-1
48
1.0
60
0
100
AcDbLine
10
44.0
20
-39.25
30
0.0
11
37.046053
21
-39.25
31
0.0
39
0.0
210
0.0
220
0.0
230
1.0
0
LINE
5
109
330
103
100
AcDbEntity
8
2
62
256
440
16777216
6
ByLayer
370
-1
48
1.0
60
0
100
AcDbLine
10
50.0
20
-39.25
30
0.0
11
53.999998
21
-38.583333
31
0.0
39
0.0
210
0.0
220
0.0
230
1.0
0
LINE
5
10A
330
103
100
AcDbEntity
8
2
62
256
440
16777216
6
ByLayer
370
-1
48
1.0
60
0
100
AcDbLine
10
50.0
20
-39.25
30
0.0
11
54.000002
21
-39.916667
31
0.0
39
0.0
210
0.0
220
0.0
230
1.0
0
LINE
5
10B
330
103
100
AcDbEntity
8
2
62
256
440
16777216
6
ByLayer
370
-1
48
1.0
60
0
100
AcDbLine
10
53.999998
20
-38.583333
30
0.0
11
54.000002
21
-39.916667
31
0.0
39
0.0
210
0.0
220
0.0
230
1.0
0
LINE
5
10C
330
103
100
AcDbEntity
8
2
62
256
440
16777216
6
ByLayer
370
-1
48
1.0
60
0
100
AcDbLine
10
44.0
20
-39.25
30
0.0
11
40.000002
21
-39.916667
31
0.0
39
0.0
210
0.0
220
0.0
230
1.0
0
LINE
5
10D
330
103
100
AcDbEntity
8
2
62
256
440
16777216
6
ByLayer
370
-1
48
1.0
60
0
100
AcDbLine
10
44.0
20
-39.25
30
0.0
11
39.999998
21
-38.583333
31
0.0
39
0.0
210
0.0
220
0.0
230
1.0
0
LINE
5
10E
330
103
100
AcDbEntity
8
2
62
256
440
16777216
6
ByLayer
370
-1
48
1.0
60
0
100
AcDbLine
10
40.000002
20
-39.916667
30
0.0
11
39.999998
21
-38.583333
31
0.0
39
0.0
210
0.0
220
0.0
230
1.0
0
ENDBLK
5
110
330
103
100
AcDbEntity
8
0
100
AcDbBlockEnd
0
ENDSEC
0
SECTION
2
ENTITIES
0
ARC
5
7F
330
1F
100
AcDbEntity
67
0
8
1
62
256
6
ByLayer
370
-1
48
1.0
60
0
100
AcDbCircle
39
0.0
10
42.983473
20
-19.201075
30
0.0
40
5.24446382451747
210
0.0
220
0.0
230
1.0
100
AcDbArc
50
220.483137
51
312.138748
0
ARC
5
80
330
1F
100
AcDbEntity
67
0
8
1
62
256
6
ByLayer
370
-1
48
1.0
60
0
100
AcDbCircle
39
0.0
10
43.242537
20
-19.57773
30
0.0
40
4.79173613266804
210
0.0
220
0.0
230
1.0
100
AcDbArc
50
312.863455
51
350.995069
0
ARC
5
81
330
1F
100
AcDbEntity
67
0
8
SK3
62
256
6
ByLayer
370
-1
48
1.0
60
0
100
AcDbCircle
39
0.0
10
43.242537
20
-19.57773
30
0.0
40
4.79173613266804
210
0.0
220
0.0
230
1.0
100
AcDbArc
50
9.004931
51
38.478722
0
ARC
5
82
330
1F
100
AcDbEntity
67
0
8
SK3
62
256
6
ByLayer
370
-1
48
1.0
60
0
100
AcDbCircle
39
0.0
10
48.167955
20
-15.662861
30
0.0
40
1.5
210
0.0
220
0.0
230
1.0
100
AcDbArc
50
188.07405
51
218.478722
0
ARC
5
83
330
1F
100
AcDbEntity
67
0
8
SK3
62
256
6
ByLayer
370
-1
48
1.0
60
0
100
AcDbCircle
39
0.0
10
46.0857
20
-8.035549
30
0.0
40
1.5
210
0.0
220
0.0
230
1.0
100
AcDbArc
50
180.0
51
199.997052
0
ARC
5
84
330
1F
100
AcDbEntity
67
0
8
1
62
256
6
ByLayer
370
-1
48
1.0
60
0
100
AcDbCircle
39
0.0
10
37.95446
20
-16.241285
30
0.0
40
5.0
210
0.0
220
0.0
230
1.0
100
AcDbArc
50
234.325131
51
253.961118
0
ARC
5
85
330
1F
100
AcDbEntity
67
0
8
1
62
256
6
ByLayer
370
-1
48
1.0
60
0
100
AcDbCircle
39
0.0
10
35.191564
20
-25.852029
30
0.0
40
5.0
210
0.0
220
0.0
230
1.0
100
AcDbArc
50
40.483137
51
73.961118
0
ARC
5
86
330
1F
100
AcDbEntity
67
0
8
1
62
256
6
ByLayer
370
-1
48
1.0
60
0
100
AcDbCircle
39
0.0
10
33.288981
20
-22.74
30
0.0
40
3.0
210
0.0
220
0.0
230
1.0
100
AcDbArc
50
54.325131
51
90.0
0
ARC
5
87
330
1F
100
AcDbEntity
67
0
8
1
62
256
6
ByLayer
370
-1
48
1.0
60
0
100
AcDbCircle
39
0.0
10
17.098076
20
-22.74
30
0.0
40
3.0
210
0.0
220
0.0
230
1.0
100
AcDbArc
50
90.0
51
135.572996
0
ARC
5
88
330
1F
100
AcDbEntity
67
0
8
1
62
256
6
ByLayer
370
-1
48
1.0
60
0
100
AcDbCircle
39
0.0
10
13.527362
20
-19.24
30
0.0
40
2.0
210
0.0
220
0.0
230
1.0
100
AcDbArc
50
270.0
51
315.572996
0
ARC
5
89
330
1F
100
AcDbEntity
67
0
8
SK3
62
256
6
ByLayer
370
-1
48
1.0
60
0
100
AcDbCircle
39
0.0
10
-46.0857
20
8.035549
30
0.0
40
1.5
210
0.0
220
0.0
230
-1.0
100
AcDbArc
50
0.0
51
19.997052
0
ARC
5
8A
330
1F
100
AcDbEntity
67
0
8
SK3
62
256
6
ByLayer
370
-1
48
1.0
60
0
100
AcDbCircle
39
0.0
10
-48.167955
20
15.662861
30
0.0
40
1.5
210
0.0
220
0.0
230
-1.0
100
AcDbArc
50
8.07405
51
38.478722
0
ARC
5
8B
330
1F
100
AcDbEntity
67
0
8
SK3
62
256
6
ByLayer
370
-1
48
1.0
60
0
100
AcDbCircle
39
0.0
10
-43.242537
20
19.57773
30
0.0
40
4.79173613266804
210
0.0
220
0.0
230
-1.0
100
AcDbArc
50
189.004931
51
218.478722
0
ARC
5
8C
330
1F
100
AcDbEntity
67
0
8
1
62
256
6
ByLayer
370
-1
48
1.0
60
0
100
AcDbCircle
39
0.0
10
-43.242537
20
19.57773
30
0.0
40
4.79173613266804
210
0.0
220
0.0
230
-1.0
100
AcDbArc
50
132.863455
51
170.995069
0
ARC
5
8D
330
1F
100
AcDbEntity
67
0
8
1
62
256
6
ByLayer
370
-1
48
1.0
60
0
100
AcDbCircle
39
0.0
10
-42.983473
20
19.201075
30
0.0
40
5.24446382451747
210
0.0
220
0.0
230
-1.0
100
AcDbArc
50
40.483137
51
132.138748
0
ARC
5
8E
330
1F
100
AcDbEntity
67
0
8
1
62
256
6
ByLayer
370
-1
48
1.0
60
0
100
AcDbCircle
39
0.0
10
-35.191564
20
25.852029
30
0.0
40
5.0
210
0.0
220
0.0
230
-1.0
100
AcDbArc
50
220.483137
51
253.961118
0
ARC
5
8F
330
1F
100
AcDbEntity
67
0
8
1
62
256
6
ByLayer
370
-1
48
1.0
60
0
100
AcDbCircle
39
0.0
10
-37.95446
20
16.241285
30
0.0
40
5.0
210
0.0
220
0.0
230
-1.0
100
AcDbArc
50
54.325131
51
73.961118
0
ARC
5
90
330
1F
100
AcDbEntity
67
0
8
1
62
256
6
ByLayer
370
-1
48
1.0
60
0
100
AcDbCircle
39
0.0
10
-33.288981
20
22.74
30
0.0
40
3.0
210
0.0
220
0.0
230
-1.0
100
AcDbArc
50
234.325131
51
270.0
0
ARC
5
91
330
1F
100
AcDbEntity
67
0
8
1
62
256
6
ByLayer
370
-1
48
1.0
60
0
100
AcDbCircle
39
0.0
10
-17.098076
20
22.74
30
0.0
40
3.0
210
0.0
220
0.0
230
-1.0
100
AcDbArc
50
270.0
51
315.572996
0
ARC
5
92
330
1F
100
AcDbEntity
67
0
8
1
62
256
6
ByLayer
370
-1
48
1.0
60
0
100
AcDbCircle
39
0.0
10
-13.527362
20
19.24
30
0.0
40
2.0
210
0.0
220
0.0
230
-1.0
100
AcDbArc
50
90.0
51
135.572996
0
ARC
5
94
330
1F
100
AcDbEntity
67
0
8
1
62
256
6
ByLayer
370
-1
48
1.0
60
0
100
AcDbCircle
39
0.0
10
42.6602
20
18.9728
30
0.0
40
0.292
210
0.0
220
0.0
230
1.0
100
AcDbArc
50
104.942011
51
180.0
0
ARC
5
95
330
1F
100
AcDbEntity
67
0
8
1
62
256
6
ByLayer
370
-1
48
1.0
60
0
100
AcDbCircle
39
0.0
10
43.35245
20
20.171812
30
0.0
40
0.292
210
0.0
220
0.0
230
1.0
100
AcDbArc
50
120.0
51
195.057989
0
ARC
5
96
330
1F
100
AcDbEntity
67
0
8
1
62
256
6
ByLayer
370
-1
48
1.0
60
0
100
AcDbCircle
39
0.0
10
42.408031
20
19.917731
30
0.0
40
0.686
210
0.0
220
0.0
230
1.0
100
AcDbArc
50
284.942011
51
15.057989
0
ARC
5
97
330
1F
100
AcDbEntity
67
0
8
1
62
256
6
ByLayer
370
-1
48
1.0
60
0
100
AcDbCircle
39
0.0
10
43.35245
20
17.773788
30
0.0
40
0.292
210
0.0
220
0.0
230
1.0
100
AcDbArc
50
164.942011
51
240.0
0
ARC
5
98
330
1F
100
AcDbEntity
67
0
8
1
62
256
6
ByLayer
370
-1
48
1.0
60
0
100
AcDbCircle
39
0.0
10
42.6602
20
18.9728
30
0.0
40
0.292
210
0.0
220
0.0
230
1.0
100
AcDbArc
50
180.0
51
255.057989
0
ARC
5
99
330
1F
100
AcDbEntity
67
0
8
1
62
256
6
ByLayer
370
-1
48
1.0
60
0
100
AcDbCircle
39
0.0
10
42.408031
20
18.027869
30
0.0
40
0.686
210
0.0
220
0.0
230
1.0
100
AcDbArc
50
344.942011
51
75.057989
0
ARC
5
9A
330
1F
100
AcDbEntity
67
0
8
1
62
256
6
ByLayer
370
-1
48
1.0
60
0
100
AcDbCircle
39
0.0
10
44.73695
20
17.773788
30
0.0
40
0.292
210
0.0
220
0.0
230
1.0
100
AcDbArc
50
224.942011
51
300.0
0
ARC
5
9B
330
1F
100
AcDbEntity
67
0
8
1
62
256
6
ByLayer
370
-1
48
1.0
60
0
100
AcDbCircle
39
0.0
10
43.35245
20
17.773788
30
0.0
40
0.292
210
0.0
220
0.0
230
1.0
100
AcDbArc
50
240.0
51
315.057989
0
ARC
5
9C
330
1F
100
AcDbEntity
67
0
8
1
62
256
6
ByLayer
370
-1
48
1.0
60
0
100
AcDbCircle
39
0.0
10
44.0447
20
17.082938
30
0.0
40
0.686
210
0.0
220
0.0
230
1.0
100
AcDbArc
50
44.942011
51
135.057989
0
ARC
5
9D
330
1F
100
AcDbEntity
67
0
8
1
62
256
6
ByLayer
370
-1
48
1.0
60
0
100
AcDbCircle
39
0.0
10
45.4292
20
18.9728
30
0.0
40
0.292
210
0.0
220
0.0
230
1.0
100
AcDbArc
50
284.942011
51
0.0
0
ARC
5
9E
330
1F
100
AcDbEntity
67
0
8
1
62
256
6
ByLayer
370
-1
48
1.0
60
0
100
AcDbCircle
39
0.0
10
44.73695
20
17.773788
30
0.0
40
0.292
210
0.0
220
0.0
230
1.0
100
AcDbArc
50
300.0
51
15.057989
0
ARC
5
9F
330
1F
100
AcDbEntity
67
0
8
1
62
256
6
ByLayer
370
-1
48
1.0
60
0
100
AcDbCircle
39
0.0
10
45.681369
20
18.027869
30
0.0
40
0.686
210
0.0
220
0.0
230
1.0
100
AcDbArc
50
104.942011
51
195.057989
0
ARC
5
A0
330
1F
100
AcDbEntity
67
0
8
1
62
256
6
ByLayer
370
-1
48
1.0
60
0
100
AcDbCircle
39
0.0
10
44.73695
20
20.171812
30
0.0
40
0.292
210
0.0
220
0.0
230
1.0
100
AcDbArc
50
344.942011
51
60.0
0
ARC
5
A1
330
1F
100
AcDbEntity
67
0
8
1
62
256
6
ByLayer
370
-1
48
1.0
60
0
100
AcDbCircle
39
0.0
10
45.4292
20
18.9728
30
0.0
40
0.292
210
0.0
220
0.0
230
1.0
100
AcDbArc
50
0.0
51
75.057989
0
ARC
5
A2
330
1F
100
AcDbEntity
67
0
8
1
62
256
6
ByLayer
370
-1
48
1.0
60
0
100
AcDbCircle
39
0.0
10
45.681369
20
19.917731
30
0.0
40
0.686
210
0.0
220
0.0
230
1.0
100
AcDbArc
50
164.942011
51
255.057989
0
ARC
5
A3
330
1F
100
AcDbEntity
67
0
8
1
62
256
6
ByLayer
370
-1
48
1.0
60
0
100
AcDbCircle
39
0.0
10
43.35245
20
20.171812
30
0.0
40
0.292
210
0.0
220
0.0
230
1.0
100
AcDbArc
50
44.942011
51
120.0
0
ARC
5
A4
330
1F
100
AcDbEntity
67
0
8
1
62
256
6
ByLayer
370
-1
48
1.0
60
0
100
AcDbCircle
39
0.0
10
44.73695
20
20.171812
30
0.0
40
0.292
210
0.0
220
0.0
230
1.0
100
AcDbArc
50
60.0
51
135.057989
0
ARC
5
A5
330
1F
100
AcDbEntity
67
0
8
1
62
256
6
ByLayer
370
-1
48
1.0
60
0
100
AcDbCircle
39
0.0
10
44.0447
20
20.862662
30
0.0
40
0.686
210
0.0
220
0.0
230
1.0
100
AcDbArc
50
224.942011
51
315.057989
0
ARC
5
A9
330
1F
100
AcDbEntity
67
0
8
1
62
256
6
ByLayer
370
-1
48
1.0
60
0
100
AcDbCircle
39
0.0
10
44.0447
20
-18.9728
30
0.0
40
6.0
210
0.0
220
0.0
230
1.0
100
AcDbArc
50
234.181013
51
49.073852
0
ARC
5
AA
330
1F
100
AcDbEntity
67
0
8
1
62
256
6
ByLayer
370
-1
48
1.0
60
0
100
AcDbCircle
39
0.0
10
0.5
20
-20.74
30
0.0
40
0.5
210
0.0
220
0.0
230
1.0
100
AcDbArc
50
180.0
51
270.0
0
ARC
5
AB
330
1F
100
AcDbEntity
67
0
8
1
62
256
6
ByLayer
370
-1
48
1.0
60
0
100
AcDbCircle
39
0.0
10
-0.5
20
20.74
30
0.0
40
0.5
210
0.0
220
0.0
230
-1.0
100
AcDbArc
50
0.0
51
90.0
0
ARC
5
AC
330
1F
100
AcDbEntity
67
0
8
SK3
62
256
6
ByLayer
370
-1
48
1.0
60
0
100
AcDbCircle
39
0.0
10
13.575932
20
-10.45
30
0.0
40
0.800000000000002
210
0.0
220
0.0
230
1.0
100
AcDbArc
50
223.952558
51
270.0
0
ARC
5
AD
330
1F
100
AcDbEntity
67
0
8
SK3
62
256
6
ByLayer
370
-1
48
1.0
60
0
100
AcDbCircle
39
0.0
10
19.2
20
-10.45
30
0.0
40
0.8
210
0.0
220
0.0
230
1.0
100
AcDbArc
50
270.0
51
0.0
0
ARC
5
AE
330
1F
100
AcDbEntity
67
0
8
SK3
62
256
6
ByLayer
370
-1
48
1.0
60
0
100
AcDbCircle
39
0.0
10
33.8
20
-6.3
30
0.0
40
0.8
210
0.0
220
0.0
230
1.0
100
AcDbArc
50
180.0
51
270.0
0
ARC
5
AF
330
1F
100
AcDbEntity
67
0
8
SK3
62
256
6
ByLayer
370
-1
48
1.0
60
0
100
AcDbCircle
39
0.0
10
-13.575932
20
10.45
30
0.0
40
0.800000000000002
210
0.0
220
0.0
230
-1.0
100
AcDbArc
50
43.952558
51
90.0
0
ARC
5
B0
330
1F
100
AcDbEntity
67
0
8
SK3
62
256
6
ByLayer
370
-1
48
1.0
60
0
100
AcDbCircle
39
0.0
10
-19.2
20
10.45
30
0.0
40
0.8
210
0.0
220
0.0
230
-1.0
100
AcDbArc
50
90.0
51
180.0
0
ARC
5
B1
330
1F
100
AcDbEntity
67
0
8
SK3
62
256
6
ByLayer
370
-1
48
1.0
60
0
100
AcDbCircle
39
0.0
10
-33.8
20
6.3
30
0.0
40
0.8
210
0.0
220
0.0
230
-1.0
100
AcDbArc
50
0.0
51
90.0
0
CIRCLE
5
93
330
1F
100
AcDbEntity
67
0
8
1
62
256
6
ByLayer
370
-1
48
1.0
60
0
100
AcDbCircle
10
-44.0447
20
18.9728
30
0.0
40
6.0
39
0.0
210
0.0
220
0.0
230
-1.0
0
CIRCLE
5
A6
330
1F
100
AcDbEntity
67
0
8
1
62
256
6
ByLayer
370
-1
48
1.0
60
0
100
AcDbCircle
10
44.0447
20
18.9728
30
0.0
40
2.65
39
0.0
210
0.0
220
0.0
230
1.0
0
CIRCLE
5
A7
330
1F
100
AcDbEntity
67
0
8
1
62
256
6
ByLayer
370
-1
48
1.0
60
0
100
AcDbCircle
10
44.0447
20
18.9728
30
0.0
40
1.8
39
0.0
210
0.0
220
0.0
230
1.0
0
CIRCLE
5
A8
330
1F
100
AcDbEntity
67
0
8
1
62
256
6
ByLayer
370
-1
48
1.0
60
0
100
AcDbCircle
10
44.0447
20
18.9728
30
0.0
40
1.6765
39
0.0
210
0.0
220
0.0
230
1.0
0
CIRCLE
5
B2
330
1F
100
AcDbEntity
67
0
8
2
62
256
6
ByLayer
370
-1
48
1.0
60
1
100
AcDbCircle
10
50.0
20
19.02285
30
0.0
40
0.5
39
0.0
210
0.0
220
0.0
230
1.0
0
CIRCLE
5
B4
330
1F
100
AcDbEntity
67
0
8
2
62
256
6
ByLayer
370
-1
48
1.0
60
1
100
AcDbCircle
10
50.0
20
-19.02285
30
0.0
40
0.5
39
0.0
210
0.0
220
0.0
230
1.0
0
CIRCLE
5
B5
330
1F
100
AcDbEntity
67
0
8
2
62
256
6
ByLayer
370
-1
48
1.0
60
1
100
AcDbCircle
10
50.0
20
25.0
30
0.0
40
0.5
39
0.0
210
0.0
220
0.0
230
1.0
0
CIRCLE
5
B6
330
1F
100
AcDbEntity
67
0
8
2
62
256
6
ByLayer
370
-1
48
1.0
60
1
100
AcDbCircle
10
50.0
20
-25.0
30
0.0
40
0.5
39
0.0
210
0.0
220
0.0
230
1.0
0
CIRCLE
5
B7
330
1F
100
AcDbEntity
67
0
8
1
62
256
6
ByLayer
370
-1
48
1.0
60
1
100
AcDbCircle
10
0.0
20
21.24
30
0.0
40
0.5
39
0.0
210
0.0
220
0.0
230
1.0
0
CIRCLE
5
B8
330
1F
100
AcDbEntity
67
0
8
SK2
62
256
6
ByLayer
370
-1
48
1.0
60
1
100
AcDbCircle
10
0.0
20
11.0
30
0.0
40
0.5
39
0.0
210
0.0
220
0.0
230
1.0
0
CIRCLE
5
BA
330
1F
100
AcDbEntity
67
0
8
SK2
62
256
6
ByLayer
370
-1
48
1.0
60
1
100
AcDbCircle
10
0.0
20
-11.0
30
0.0
40
0.5
39
0.0
210
0.0
220
0.0
230
1.0
0
CIRCLE
5
BB
330
1F
100
AcDbEntity
67
0
8
2
62
256
6
ByLayer
370
-1
48
1.0
60
1
100
AcDbCircle
10
44.0
20
-25.0
30
0.0
40
0.5
39
0.0
210
0.0
220
0.0
230
1.0
0
CIRCLE
5
BD
330
1F
100
AcDbEntity
67
0
8
1
62
256
6
ByLayer
370
-1
48
1.0
60
0
100
AcDbCircle
10
-44.0447
20
18.9728
30
0.0
40
6.0
39
0.0
210
0.0
220
0.0
230
-1.0
0
CIRCLE
5
BE
330
1F
100
AcDbEntity
67
0
8
1
62
256
6
ByLayer
370
-1
48
1.0
60
0
100
AcDbCircle
10
44.0447
20
18.9728
30
0.0
40
2.65
39
0.0
210
0.0
220
0.0
230
1.0
0
POINT
5
42
330
1F
100
AcDbEntity
67
0
8
81
62
256
6
ByLayer
370
-1
48
1.0
60
0
100
AcDbPoint
10
50.0
20
0.0
30
0.0
39
0.0
210
0.0
220
0.0
230
1.0
50
360.0
0
POINT
5
44
330
1F
100
AcDbEntity
67
0
8
80
62
256
6
ByLayer
370
-1
48
1.0
60
0
100
AcDbPoint
10
0.0
20
0.0
30
0.0
39
0.0
210
0.0
220
0.0
230
1.0
50
360.0
0
SPLINE
5
BC
330
1F
100
AcDbEntity
67
0
8
1
62
256
6
ByLayer
370
-1
48
1.0
60
1
100
AcDbSpline
70
4
71
3
40
0.0
40
0.0
40
0.0
40
0.0
40
0.0050852627216526
40
0.0101705254433053
40
0.0152557881649579
40
0.0203410508866105
40
0.0254263136082631
40
0.0305115763299158
40
0.0355968390515684
40
0.040682101773221
40
0.0457673644948736
40
0.0508526272165263
40
0.0544493091512289
40
0.0544493091512289
40
0.0597199292308548
40
0.0649905493104807
40
0.0702611693901065
40
0.0755317894697324
40
0.0808024095493583
40
0.0860730296289841
40
0.09134364970861
40
0.0966142697882359
40
0.101884889867862
40
0.107155509947488
40
0.112426130027113
40
0.117696750106739
40
0.122967370186365
40
0.128237990265991
40
0.133508610345617
40
0.138779230425243
40
0.144049850504869
40
0.149320470584494
40
0.15459109066412
40
0.159861710743746
40
0.165132330823372
40
0.170402950902998
40
0.175673570982624
40
0.18094419106225
40
0.186214811141875
40
0.191485431221501
40
0.196756051301127
40
0.202026671380753
40
0.207297291460379
40
0.210808428362804
40
0.210808428362804
40
0.210808465637144
40
0.210808465637144
40
0.215734025058276
40
0.220659584479409
40
0.225585143900542
40
0.230510703321675
40
0.235436262742808
40
0.240361822163941
40
0.245287381585074
40
0.250212941006207
40
0.255138500427339
40
0.260064059848472
40
0.264989619269605
40
0.269915178690738
40
0.270243299745237
40
0.270243299745237
40
0.270243336943315
40
0.270243336943315
40
0.298199464073369
40
0.298199464073369
40
1.0
40
1.0
40
1.0
40
1.0
41
1.0
10
36.5730120562829
20
-21.0466568745946
30
0.0
41
1.0
10
36.6604225174114
20
-21.071785629403
30
0.0
41
1.0
10
36.8338717966132
20
-21.126814347966
30
0.0
41
1.0
10
37.0891562540866
20
-21.2234253219979
30
0.0
41
1.0
10
37.3387912030384
20
-21.3338165579715
30
0.0
41
1.0
10
37.582033435165
20
-21.4576594007087
30
0.0
41
1.0
10
37.8181587696867
20
-21.5945851451935
30
0.0
41
1.0
10
38.0464642144389
20
-21.7441861374648
30
0.0
41
1.0
10
38.2662700626082
20
-21.9060169829192
30
0.0
41
1.0
10
38.476921896129
20
-22.0795958906039
30
0.0
41
1.0
10
38.677792611122
20
-22.2644060399043
30
0.0
41
1.0
10
38.8496968340068
20
-22.4408223401983
30
0.0
41
1.0
10
38.9527864819561
20
-22.5569807362652
30
0.0
41
1.0
10
39.0557490140308
20
-22.6776062420873
30
0.0
41
1.0
10
39.1820155776222
20
-22.8177021173529
30
0.0
41
1.0
10
39.3824662547079
20
-23.0173324170563
30
0.0
41
1.0
10
39.5933850439323
20
-23.2058688670982
30
0.0
41
1.0
10
39.8141588078379
20
-23.3827633958685
30
0.0
41
1.0
10
40.0441457571424
20
-23.547501770742
30
0.0
41
1.0
10
40.2826773207901
20
-23.6996050980722
30
0.0
41
1.0
10
40.529060088314
20
-23.8386312139615
30
0.0
41
1.0
10
40.7825778258912
20
-23.9641759699974
30
0.0
41
1.0
10
41.0424935583485
20
-24.0758744080122
30
0.0
41
1.0
10
41.3080517115687
20
-24.1734018210415
30
0.0
41
1.0
10
41.5784803089362
20
-24.256474697239
30
0.0
41
1.0
10
41.8529932154717
20
-24.3248515440466
30
0.0
41
1.0
10
42.1307924231233
20
-24.3783335902116
30
0.0
41
1.0
10
42.4110703705738
20
-24.4167653636142
30
0.0
41
1.0
10
42.6930122908176
20
-24.4400351432247
30
0.0
41
1.0
10
42.9757985796864
20
-24.4480752838757
30
0.0
41
1.0
10
43.2586071784352
20
-24.4408624129067
30
0.0
41
1.0
10
43.5406159634643
20
-24.4184174981083
30
0.0
41
1.0
10
43.8210051362294
20
-24.3808057867682
30
0.0
41
1.0
10
44.0989596063946
20
-24.3281366160003
30
0.0
41
1.0
10
44.3736713612902
20
-24.2605630948929
30
0.0
41
1.0
10
44.6443418148311
20
-24.178281659454
30
0.0
41
1.0
10
44.9101841288951
20
-24.0815315014503
30
0.0
41
1.0
10
45.1704255010653
20
-23.9705938735344
30
0.0
41
1.0
10
45.4243094096453
20
-23.8457912699385
30
0.0
41
1.0
10
45.6710978185336
20
-23.7074864953515
30
0.0
41
1.0
10
45.9100733015371
20
-23.5560815864862
30
0.0
41
1.0
10
46.140541206876
20
-23.3920167320371
30
0.0
41
1.0
10
46.3372070597481
20
-23.2353808715076
30
0.0
41
1.0
10
46.4555657701272
20
-23.1320947558552
30
0.0
41
1.0
10
46.5021317147485
20
-23.0899619579868
30
0.0
41
1.0
10
46.5021324520816
20
-23.0899612823253
30
0.0
41
1.0
10
46.5667040196782
20
-23.0300343828077
30
0.0
41
1.0
10
46.6925393106584
20
-22.9066200084706
30
0.0
41
1.0
10
46.8708021786786
20
-22.7113727523796
30
0.0
41
1.0
10
47.0380302483978
20
-22.506595997428
30
0.0
41
1.0
10
47.1937156434843
20
-22.2929118627602
30
0.0
41
1.0
10
47.3373847083176
20
-22.0709703758568
30
0.0
41
1.0
10
47.4686005677343
20
-21.8414464568359
30
0.0
41
1.0
10
47.5869641559317
20
-21.605038144355
30
0.0
41
1.0
10
47.6921155097055
20
-21.3624643977301
30
0.0
41
1.0
10
47.783734844474
20
-21.1144629320269
30
0.0
41
1.0
10
47.8615435219731
20
-20.8617879632038
30
0.0
41
1.0
10
47.9253049356669
20
-20.60520793811
30
0.0
41
1.0
10
47.9594179786094
20
-20.4263045566989
30
0.0
41
1.0
10
47.9742955056945
20
-20.3335267459489
30
0.0
41
1.0
10
47.9752141212318
20
-20.3277300842066
30
0.0
41
1.0
10
47.9752142003354
20
-20.3277290871264
30
0.0
41
1.0
10
47.9752141966969
20
-19.8277285884496
30
0.0
41
1.0
10
47.9752141966969
20
-19.3277295884496
30
0.0
41
1.0
10
47.9752141966969
20
-6.27590986281654
30
0.0
41
1.0
10
47.9752141966969
20
6.27590986281654
30
0.0
41
1.0
10
47.9752141966969
20
18.8277295884496
30
0.0
0
LINE
5
46
330
1F
100
AcDbEntity
67
0
8
1
62
256
6
ByLayer
370
-1
48
1.0
60
0
100
AcDbLine
10
47.975214
20
-20.32773
30
0.0
11
47.975214
21
-18.82773
31
0.0
39
0.0
210
0.0
220
0.0
230
1.0
0
LINE
5
48
330
1F
100
AcDbEntity
67
0
8
SK3
62
256
6
ByLayer
370
-1
48
0.05
60
0
100
AcDbLine
10
46.261835
20
-12.905879
30
0.0
11
46.682824
21
-15.87354
31
0.0
39
0.0
210
0.0
220
0.0
230
1.0
0
LINE
5
4A
330
1F
100
AcDbEntity
67
0
8
SK3
62
256
6
ByLayer
370
-1
48
0.05
60
0
100
AcDbLine
10
46.261835
20
-12.905879
30
0.0
11
44.676135
21
-8.548507
31
0.0
39
0.0
210
0.0
220
0.0
230
1.0
0
LINE
5
4B
330
1F
100
AcDbEntity
67
0
8
SK3
62
256
6
ByLayer
370
-1
48
0.05
60
0
100
AcDbLine
10
44.5857
20
-8.035549
30
0.0
11
44.5857
21
0.0
31
0.0
39
0.0
210
0.0
220
0.0
230
1.0
0
LINE
5
4C
330
1F
100
AcDbEntity
67
0
8
SK4
62
256
6
ByLayer
370
-1
48
0.05
60
0
100
AcDbLine
10
52.0
20
0.0
30
0.0
11
-2.0
21
0.0
31
0.0
39
0.0
210
0.0
220
0.0
230
1.0
0
LINE
5
4E
330
1F
100
AcDbEntity
67
0
8
1
62
256
6
ByLayer
370
-1
48
1.0
60
0
100
AcDbLine
10
17.098076
20
-19.74
30
0.0
11
33.288981
21
-19.74
31
0.0
39
0.0
210
0.0
220
0.0
230
1.0
0
LINE
5
4F
330
1F
100
AcDbEntity
67
0
8
SK3
62
256
6
ByLayer
370
-1
48
0.05
60
0
100
AcDbLine
10
44.5857
20
8.035549
30
0.0
11
44.5857
21
0.0
31
0.0
39
0.0
210
0.0
220
0.0
230
1.0
0
LINE
5
50
330
1F
100
AcDbEntity
67
0
8
SK3
62
256
6
ByLayer
370
-1
48
0.05
60
0
100
AcDbLine
10
46.261835
20
12.905879
30
0.0
11
44.676135
21
8.548507
31
0.0
39
0.0
210
0.0
220
0.0
230
1.0
0
LINE
5
51
330
1F
100
AcDbEntity
67
0
8
SK3
62
256
6
ByLayer
370
-1
48
0.05
60
0
100
AcDbLine
10
46.261835
20
12.905879
30
0.0
11
46.682824
21
15.87354
31
0.0
39
0.0
210
0.0
220
0.0
230
1.0
0
LINE
5
52
330
1F
100
AcDbEntity
67
0
8
1
62
256
6
ByLayer
370
-1
48
1.0
60
0
100
AcDbLine
10
47.975214
20
20.32773
30
0.0
11
47.975214
21
18.82773
31
0.0
39
0.0
210
0.0
220
0.0
230
1.0
0
LINE
5
53
330
1F
100
AcDbEntity
67
0
8
1
62
256
6
ByLayer
370
-1
48
1.0
60
0
100
AcDbLine
10
17.098076
20
19.74
30
0.0
11
33.288981
21
19.74
31
0.0
39
0.0
210
0.0
220
0.0
230
1.0
0
LINE
5
54
330
1F
100
AcDbEntity
67
0
8
1
62
256
6
ByLayer
370
-1
48
1.0
60
0
100
AcDbLine
10
47.975214
20
-18.82773
30
0.0
11
47.975214
21
18.82773
31
0.0
39
0.0
210
0.0
220
0.0
230
1.0
0
LINE
5
55
330
1F
100
AcDbEntity
67
0
8
1
62
256
6
ByLayer
370
-1
48
1.0
60
0
100
AcDbLine
10
13.527362
20
-21.24
30
0.0
11
0.5
21
-21.24
31
0.0
39
0.0
210
0.0
220
0.0
230
1.0
0
LINE
5
56
330
1F
100
AcDbEntity
67
0
8
1
62
256
6
ByLayer
370
-1
48
1.0
60
0
100
AcDbLine
10
0.0
20
-6.1275
30
0.0
11
0.9
21
-5.2275
31
0.0
39
0.0
210
0.0
220
0.0
230
1.0
0
LINE
5
57
330
1F
100
AcDbEntity
67
0
8
1
62
256
6
ByLayer
370
-1
48
1.0
60
0
100
AcDbLine
10
0.9
20
-5.2275
30
0.0
11
5.75
21
-5.2275
31
0.0
39
0.0
210
0.0
220
0.0
230
1.0
0
LINE
5
58
330
1F
100
AcDbEntity
67
0
8
1
62
256
6
ByLayer
370
-1
48
1.0
60
0
100
AcDbLine
10
5.75
20
-5.2275
30
0.0
11
6.55
21
-4.4275
31
0.0
39
0.0
210
0.0
220
0.0
230
1.0
0
LINE
5
59
330
1F
100
AcDbEntity
67
0
8
1
62
256
6
ByLayer
370
-1
48
1.0
60
0
100
AcDbLine
10
6.55
20
-4.4275
30
0.0
11
6.55
21
0.0
31
0.0
39
0.0
210
0.0
220
0.0
230
1.0
0
LINE
5
5A
330
1F
100
AcDbEntity
67
0
8
1
62
256
6
ByLayer
370
-1
48
1.0
60
0
100
AcDbLine
10
0.0
20
6.1275
30
0.0
11
0.9
21
5.2275
31
0.0
39
0.0
210
0.0
220
0.0
230
1.0
0
LINE
5
5B
330
1F
100
AcDbEntity
67
0
8
1
62
256
6
ByLayer
370
-1
48
1.0
60
0
100
AcDbLine
10
0.9
20
5.2275
30
0.0
11
5.75
21
5.2275
31
0.0
39
0.0
210
0.0
220
0.0
230
1.0
0
LINE
5
5C
330
1F
100
AcDbEntity
67
0
8
1
62
256
6
ByLayer
370
-1
48
1.0
60
0
100
AcDbLine
10
5.75
20
5.2275
30
0.0
11
6.55
21
4.4275
31
0.0
39
0.0
210
0.0
220
0.0
230
1.0
0
LINE
5
5D
330
1F
100
AcDbEntity
67
0
8
1
62
256
6
ByLayer
370
-1
48
1.0
60
0
100
AcDbLine
10
6.55
20
4.4275
30
0.0
11
6.55
21
0.0
31
0.0
39
0.0
210
0.0
220
0.0
230
1.0
0
LINE
5
5E
330
1F
100
AcDbEntity
67
0
8
1
62
256
6
ByLayer
370
-1
48
1.0
60
0
100
AcDbLine
10
0.0
20
-20.74
30
0.0
11
0.0
21
-6.1275
31
0.0
39
0.0
210
0.0
220
0.0
230
1.0
0
LINE
5
5F
330
1F
100
AcDbEntity
67
0
8
1
62
256
6
ByLayer
370
-1
48
1.0
60
0
100
AcDbLine
10
13.527362
20
21.24
30
0.0
11
0.5
21
21.24
31
0.0
39
0.0
210
0.0
220
0.0
230
1.0
0
LINE
5
60
330
1F
100
AcDbEntity
67
0
8
1
62
256
6
ByLayer
370
-1
48
1.0
60
0
100
AcDbLine
10
0.0
20
20.74
30
0.0
11
0.0
21
6.1275
31
0.0
39
0.0
210
0.0
220
0.0
230
1.0
0
LINE
5
61
330
1F
100
AcDbEntity
67
0
8
SK3
62
256
6
ByLayer
370
-1
48
0.05
60
0
100
AcDbLine
10
0.0
20
-12.50525
30
0.0
11
1.5
21
-11.00525
31
0.0
39
0.0
210
0.0
220
0.0
230
1.0
0
LINE
5
62
330
1F
100
AcDbEntity
67
0
8
SK3
62
256
6
ByLayer
370
-1
48
0.05
60
0
100
AcDbLine
10
1.5
20
-11.00525
30
0.0
11
13.0
21
-11.00525
31
0.0
39
0.0
210
0.0
220
0.0
230
1.0
0
LINE
5
63
330
1F
100
AcDbEntity
67
0
8
SK3
62
256
6
ByLayer
370
-1
48
0.05
60
0
100
AcDbLine
10
13.575932
20
-11.25
30
0.0
11
19.2
21
-11.25
31
0.0
39
0.0
210
0.0
220
0.0
230
1.0
0
LINE
5
64
330
1F
100
AcDbEntity
67
0
8
SK3
62
256
6
ByLayer
370
-1
48
0.05
60
0
100
AcDbLine
10
20.0
20
-10.45
30
0.0
11
20.0
21
-5.25
31
0.0
39
0.0
210
0.0
220
0.0
230
1.0
0
LINE
5
65
330
1F
100
AcDbEntity
67
0
8
SK3
62
256
6
ByLayer
370
-1
48
0.05
60
0
100
AcDbLine
10
20.0
20
-5.25
30
0.0
11
33.0
21
-5.25
31
0.0
39
0.0
210
0.0
220
0.0
230
1.0
0
LINE
5
66
330
1F
100
AcDbEntity
67
0
8
SK3
62
256
6
ByLayer
370
-1
48
0.05
60
0
100
AcDbLine
10
33.0
20
-5.25
30
0.0
11
33.0
21
-6.3
31
0.0
39
0.0
210
0.0
220
0.0
230
1.0
0
LINE
5
67
330
1F
100
AcDbEntity
67
0
8
SK3
62
256
6
ByLayer
370
-1
48
0.05
60
0
100
AcDbLine
10
33.8
20
-7.1
30
0.0
11
44.0857
21
-7.1
31
0.0
39
0.0
210
0.0
220
0.0
230
1.0
0
LINE
5
68
330
1F
100
AcDbEntity
67
0
8
SK3
62
256
6
ByLayer
370
-1
48
0.05
60
0
100
AcDbLine
10
44.0857
20
-7.1
30
0.0
11
44.5857
21
-7.6
31
0.0
39
0.0
210
0.0
220
0.0
230
1.0
0
LINE
5
69
330
1F
100
AcDbEntity
67
0
8
SK3
62
256
6
ByLayer
370
-1
48
0.05
60
0
100
AcDbLine
10
44.0857
20
-7.1
30
0.0
11
44.0857
21
0.0
31
0.0
39
0.0
210
0.0
220
0.0
230
1.0
0
LINE
5
6A
330
1F
100
AcDbEntity
67
0
8
SK3
62
256
6
ByLayer
370
-1
48
0.05
60
0
100
AcDbLine
10
33.0
20
-5.25
30
0.0
11
33.0
21
0.0
31
0.0
39
0.0
210
0.0
220
0.0
230
1.0
0
LINE
5
6B
330
1F
100
AcDbEntity
67
0
8
SK3
62
256
6
ByLayer
370
-1
48
0.05
60
0
100
AcDbLine
10
20.0
20
-5.25
30
0.0
11
20.0
21
0.0
31
0.0
39
0.0
210
0.0
220
0.0
230
1.0
0
LINE
5
6C
330
1F
100
AcDbEntity
67
0
8
SK3
62
256
6
ByLayer
370
-1
48
0.05
60
0
100
AcDbLine
10
13.0
20
-11.00525
30
0.0
11
13.0
21
0.0
31
0.0
39
0.0
210
0.0
220
0.0
230
1.0
0
LINE
5
6D
330
1F
100
AcDbEntity
67
0
8
SK3
62
256
6
ByLayer
370
-1
48
0.05
60
0
100
AcDbLine
10
1.5
20
-11.00525
30
0.0
11
1.5
21
-5.2275
31
0.0
39
0.0
210
0.0
220
0.0
230
1.0
0
LINE
5
6E
330
1F
100
AcDbEntity
67
0
8
SK3
62
256
6
ByLayer
370
-1
48
0.05
60
0
100
AcDbLine
10
0.0
20
12.50525
30
0.0
11
1.5
21
11.00525
31
0.0
39
0.0
210
0.0
220
0.0
230
1.0
0
LINE
5
6F
330
1F
100
AcDbEntity
67
0
8
SK3
62
256
6
ByLayer
370
-1
48
0.05
60
0
100
AcDbLine
10
1.5
20
11.00525
30
0.0
11
13.0
21
11.00525
31
0.0
39
0.0
210
0.0
220
0.0
230
1.0
0
LINE
5
70
330
1F
100
AcDbEntity
67
0
8
SK3
62
256
6
ByLayer
370
-1
48
0.05
60
0
100
AcDbLine
10
13.575932
20
11.25
30
0.0
11
19.2
21
11.25
31
0.0
39
0.0
210
0.0
220
0.0
230
1.0
0
LINE
5
71
330
1F
100
AcDbEntity
67
0
8
SK3
62
256
6
ByLayer
370
-1
48
0.05
60
0
100
AcDbLine
10
20.0
20
10.45
30
0.0
11
20.0
21
5.25
31
0.0
39
0.0
210
0.0
220
0.0
230
1.0
0
LINE
5
72
330
1F
100
AcDbEntity
67
0
8
SK3
62
256
6
ByLayer
370
-1
48
0.05
60
0
100
AcDbLine
10
20.0
20
5.25
30
0.0
11
33.0
21
5.25
31
0.0
39
0.0
210
0.0
220
0.0
230
1.0
0
LINE
5
73
330
1F
100
AcDbEntity
67
0
8
SK3
62
256
6
ByLayer
370
-1
48
0.05
60
0
100
AcDbLine
10
33.0
20
5.25
30
0.0
11
33.0
21
6.3
31
0.0
39
0.0
210
0.0
220
0.0
230
1.0
0
LINE
5
74
330
1F
100
AcDbEntity
67
0
8
SK3
62
256
6
ByLayer
370
-1
48
0.05
60
0
100
AcDbLine
10
33.8
20
7.1
30
0.0
11
44.0857
21
7.1
31
0.0
39
0.0
210
0.0
220
0.0
230
1.0
0
LINE
5
75
330
1F
100
AcDbEntity
67
0
8
SK3
62
256
6
ByLayer
370
-1
48
0.05
60
0
100
AcDbLine
10
44.0857
20
7.1
30
0.0
11
44.5857
21
7.6
31
0.0
39
0.0
210
0.0
220
0.0
230
1.0
0
LINE
5
76
330
1F
100
AcDbEntity
67
0
8
SK3
62
256
6
ByLayer
370
-1
48
0.05
60
0
100
AcDbLine
10
44.0857
20
7.1
30
0.0
11
44.0857
21
0.0
31
0.0
39
0.0
210
0.0
220
0.0
230
1.0
0
LINE
5
77
330
1F
100
AcDbEntity
67
0
8
SK3
62
256
6
ByLayer
370
-1
48
0.05
60
0
100
AcDbLine
10
33.0
20
5.25
30
0.0
11
33.0
21
0.0
31
0.0
39
0.0
210
0.0
220
0.0
230
1.0
0
LINE
5
78
330
1F
100
AcDbEntity
67
0
8
SK3
62
256
6
ByLayer
370
-1
48
0.05
60
0
100
AcDbLine
10
20.0
20
5.25
30
0.0
11
20.0
21
0.0
31
0.0
39
0.0
210
0.0
220
0.0
230
1.0
0
LINE
5
79
330
1F
100
AcDbEntity
67
0
8
SK3
62
256
6
ByLayer
370
-1
48
0.05
60
0
100
AcDbLine
10
13.0
20
11.00525
30
0.0
11
13.0
21
0.0
31
0.0
39
0.0
210
0.0
220
0.0
230
1.0
0
LINE
5
7A
330
1F
100
AcDbEntity
67
0
8
SK3
62
256
6
ByLayer
370
-1
48
0.05
60
0
100
AcDbLine
10
1.5
20
11.00525
30
0.0
11
1.5
21
5.2275
31
0.0
39
0.0
210
0.0
220
0.0
230
1.0
0
LINE
5
7B
330
1F
100
AcDbEntity
67
0
8
81
62
256
6
ByLayer
370
-1
48
1.0
60
0
100
AcDbLine
10
50.0
20
0.0
30
0.0
11
60.0
21
0.0
31
0.0
39
0.0
210
0.0
220
0.0
230
1.0
0
LINE
5
7C
330
1F
100
AcDbEntity
67
0
8
80
62
256
6
ByLayer
370
-1
48
1.0
60
0
100
AcDbLine
10
0.0
20
0.0
30
0.0
11
-10.0
21
0.0
31
0.0
39
0.0
210
0.0
220
0.0
230
1.0
0
LINE
5
7D
330
1F
100
AcDbEntity
67
0
8
4
62
256
6
ByLayer
370
-1
48
0.05
60
0
100
AcDbLine
10
50.0
20
0.0
30
0.0
11
0.0
21
0.0
31
0.0
39
0.0
210
0.0
220
0.0
230
1.0
0
MTEXT
5
C0
330
1F
100
AcDbEntity
67
0
8
SK6
62
256
6
ByLayer
370
-1
48
1.0
60
0
100
AcDbMText
10
-17.988158
20
-32.115
30
0.0
210
0.0
220
0.0
230
1.0
1
{\fMonospac821 BT|b0|i0|c0|p49;\W0.727;R200-038Q22-12L\fsimplex.shx,bigfont.shx|b0|i0|c0|p0; }
40
3.5
41
0.0
44
1.084337
50
0.0
71
7
72
5
7
DEFAULT
0
HATCH
5
BF
330
1F
100
AcDbEntity
67
0
8
1
62
256
6
ByLayer
370
-1
48
1.0
60
1
100
AcDbHatch
10
0.0
20
0.0
30
0.0
210
0.0
220
0.0
230
1.0
2
ANSI38
70
0
71
0
91
2
92
5
93
1
72
2
10
44.0447
20
18.9728
40
6.0
50
-180.0
51
180.0
73
1
97
0
92
5
93
1
72
2
10
44.0447
20
18.9728
40
2.65
50
0.0
51
360.0
73
1
97
0
75
0
76
0
52
45.0
41
1.0
77
0
78
1
53
45.0
43
0.0
44
0.0
45
-0.707106781186547
46
0.707106781186548
79
0
47
0.0
98
1
10
0.0
20
0.0
1001
ACAD
1010
0.0
1020
0.0
1030
0.0
0
DIMENSION
5
D1
330
1F
100
AcDbEntity
67
0
8
2
62
256
6
ByLayer
370
-3
48
1.0
60
0
100
AcDbDimension
2
DimnDraft3D1
10
-19.02285
20
-64.25
30
0.0
11
0.0
21
-64.25
31
0.0
70
32
71
5
72
1
41
1.0
210
0.0
220
0.0
230
1.0
3
Standard
100
AcDbAlignedDimension
13
19.02285
23
-51.499997
33
0.0
14
-19.02285
24
-51.499997
34
0.0
50
0.0
100
AcDbRotatedDimension
1001
ACAD
1000
DSTYLE
1002
{
1070
279
1070
0
1070
173
1070
1
1070
340
1005
C1
1070
77
1070
1
1070
73
1070
0
1070
171
1070
4
1070
274
1070
4
1070
177
1070
7
1070
176
1070
7
1070
178
1070
7
1070
41
1041
4.0
1070
147
1041
2.25
1070
42
1041
1.499997
1070
44
1041
2.0
1070
140
1041
4.5
1070
343
1005
D2
1070
344
1005
D2
1002
}
0
DIMENSION
5
E6
330
1F
100
AcDbEntity
67
0
8
2
62
256
6
ByLayer
370
-3
48
1.0
60
0
100
AcDbDimension
2
DimnDraft3D2
10
-25.0
20
-76.25
30
0.0
11
0.0
21
-76.25
31
0.0
70
32
71
5
72
1
41
1.0
210
0.0
220
0.0
230
1.0
3
Standard
100
AcDbAlignedDimension
13
25.0
23
-51.499997
33
0.0
14
-25.0
24
-51.499997
34
0.0
50
0.0
100
AcDbRotatedDimension
1001
ACAD
1000
DSTYLE
1002
{
1070
279
1070
0
1070
173
1070
1
1070
340
1005
C1
1070
77
1070
1
1070
73
1070
0
1070
171
1070
4
1070
274
1070
4
1070
177
1070
7
1070
176
1070
7
1070
178
1070
7
1070
41
1041
4.0
1070
147
1041
2.25
1070
42
1041
1.499997
1070
44
1041
2.0
1070
140
1041
4.5
1070
343
1005
D2
1070
344
1005
D2
1002
}
0
DIMENSION
5
F4
330
1F
100
AcDbEntity
67
0
8
2
62
256
6
ByLayer
370
-3
48
1.0
60
0
100
AcDbDimension
2
DimnDraft3D3
10
0.0
20
34.75
30
0.0
11
25.0
21
34.75
31
0.0
70
32
71
5
72
1
41
1.0
210
0.0
220
0.0
230
1.0
3
Standard
100
AcDbAlignedDimension
13
50.0
23
26.499997
33
0.0
14
0.0
24
22.739997
34
0.0
50
0.0
100
AcDbRotatedDimension
1001
ACAD
1000
DSTYLE
1002
{
1070
279
1070
0
1070
173
1070
1
1070
340
1005
C1
1070
77
1070
1
1070
73
1070
0
1070
171
1070
4
1070
274
1070
4
1070
177
1070
7
1070
176
1070
7
1070
178
1070
7
1070
41
1041
4.0
1070
147
1041
2.25
1070
42
1041
1.499997
1070
44
1041
2.0
1070
140
1041
4.5
1070
343
1005
D2
1070
344
1005
D2
1002
}
0
DIMENSION
5
102
330
1F
100
AcDbEntity
67
0
8
SK2
62
256
6
ByLayer
370
-3
48
1.0
60
0
100
AcDbDimension
2
DimnDraft3D4
10
-11.0
20
9.75
30
0.0
11
0.0
21
9.75
31
0.0
70
32
71
5
72
1
41
1.0
210
0.0
220
0.0
230
1.0
3
Standard
100
AcDbAlignedDimension
13
11.0
23
1.499997
33
0.0
14
-11.0
24
1.499997
34
0.0
50
0.0
100
AcDbRotatedDimension
1001
ACAD
1000
DSTYLE
1002
{
1070
279
1070
0
1070
173
1070
1
1070
340
1005
C1
1070
271
1070
0
1070
77
1070
1
1070
73
1070
0
1070
171
1070
4
1070
274
1070
4
1070
177
1070
7
1070
176
1070
7
1070
178
1070
7
1070
41
1041
4.0
1070
147
1041
2.25
1070
42
1041
1.499997
1070
44
1041
2.0
1070
140
1041
4.5
1070
343
1005
D2
1070
344
1005
D2
1002
}
0
DIMENSION
5
111
330
1F
100
AcDbEntity
67
0
8
2
62
256
6
ByLayer
370
-3
48
1.0
60
0
100
AcDbDimension
2
DimnDraft3D5
10
44.0
20
-39.25
30
0.0
11
39.0
21
-39.25
31
0.0
70
32
71
5
72
1
41
1.0
210
0.0
220
0.0
230
1.0
3
Standard
100
AcDbAlignedDimension
13
50.0
23
-26.499997
33
0.0
14
44.0
24
-26.499997
34
0.0
50
0.0
100
AcDbRotatedDimension
1001
ACAD
1000
DSTYLE
1002
{
1070
279
1070
0
1070
173
1070
1
1070
340
1005
C1
1070
271
1070
0
1070
77
1070
1
1070
73
1070
0
1070
171
1070
4
1070
274
1070
4
1070
177
1070
7
1070
176
1070
7
1070
178
1070
7
1070
41
1041
4.0
1070
147
1041
2.25
1070
42
1041
1.499997
1070
44
1041
2.0
1070
140
1041
4.5
1070
343
1005
D2
1070
344
1005
D2
1002
}
0
VIEWPORT
5
20B
330
1B
100
AcDbEntity
67
1
8
0
62
256
6
ByLayer
370
-1
48
1.0
60
0
100
AcDbViewport
10
0.0
20
0.0
30
0.0
40
297.0
41
210.0
68
1
69
1
12
50.0
22
100.0
13
0.0
23
0.0
14
10.0
24
10.0
15
10.0
25
10.0
16
0.0
26
0.0
36
1.0
17
0.0
27
0.0
37
0.0
42
50.0
43
0.0
44
0.0
45
250.0
50
0.0
51
0.0
72
1000
90
819232
110
0.0
120
0.0
130
0.0
111
1.0
121
0.0
131
0.0
112
0.0
122
1.0
132
0.0
0
ENDSEC
0
SECTION
2
OBJECTS
0
DICTIONARY
5
210
330
0
100
AcDbDictionary
280
0
281
1
3
ACAD_GROUP
350
211
3
ACAD_LAYOUT
350
212
3
ACAD_MLINESTYLE
350
213
0
DICTIONARY
5
211
330
210
100
AcDbDictionary
280
0
281
1
0
DICTIONARY
5
212
330
210
100
AcDbDictionary
280
0
281
1
3
Model
350
1C0
3
Présentation1
350
1C1
3
Présentation2
350
1C2
0
DICTIONARY
5
213
330
210
100
AcDbDictionary
280
0
281
1
3
STANDARD
350
18
0
LAYOUT
5
1C0
330
212
100
AcDbPlotSettings
1

2
Snagit 10
4

6

40
0.0
41
0.0
42
0.0
43
0.0
44
0.0
45
0.0
46
0.0
47
0.0
48
0.0
49
0.0
140
0.0
141
0.0
142
1.0
143
1.0
70
1712
72
0
73
0
74
5
7

75
16
147
1.0
148
0.0
149
0.0
100
AcDbLayout
1
Model
70
1
71
1
10
0.0
20
-7.5
11
12.0
21
9.0
12
0.0
22
0.0
32
0.0
14
0.0
24
0.0
34
0.0
15
0.0
25
0.0
35
0.0
146
0.0
13
0.0
23
0.0
33
0.0
16
1.0
26
0.0
36
0.0
17
0.0
27
1.0
37
0.0
76
0
330
1F
0
LAYOUT
5
1C1
330
212
100
AcDbPlotSettings
1

2
Snagit 10
4

6

40
0.0
41
0.0
42
0.0
43
0.0
44
0.0
45
0.0
46
0.0
47
0.0
48
0.0
49
0.0
140
0.0
141
0.0
142
1.0
143
1.0
70
688
72
0
73
0
74
5
7

75
16
147
1.0
148
0.0
149
0.0
100
AcDbLayout
1
Présentation1
70
1
71
1
10
0.0
20
-7.5
11
12.0
21
9.0
12
0.0
22
0.0
32
0.0
14
100000000000000000000.0
24
100000000000000000000.0
34
100000000000000000000.0
15
-100000000000000000000.0
25
-100000000000000000000.0
35
-100000000000000000000.0
146
0.0
13
0.0
23
0.0
33
0.0
16
1.0
26
0.0
36
0.0
17
0.0
27
1.0
37
0.0
76
0
330
1B
0
LAYOUT
5
1C2
330
212
100
AcDbPlotSettings
1

2
Snagit 10
4

6

40
0.0
41
0.0
42
0.0
43
0.0
44
0.0
45
0.0
46
0.0
47
0.0
48
0.0
49
0.0
140
0.0
141
0.0
142
1.0
143
1.0
70
688
72
0
73
0
74
5
7

75
16
147
1.0
148
0.0
149
0.0
100
AcDbLayout
1
Présentation2
70
1
71
2
10
0.0
20
-7.5
11
12.0
21
9.0
12
0.0
22
0.0
32
0.0
14
0.0
24
0.0
34
0.0
15
0.0
25
0.0
35
0.0
146
0.0
13
0.0
23
0.0
33
0.0
16
1.0
26
0.0
36
0.0
17
0.0
27
1.0
37
0.0
76
0
330
23
0
MLINESTYLE
5
18
330
213
100
AcDbMlineStyle
2
STANDARD
70
0
3

62
256
51
90.0
52
90.0
71
2
49
-0.5
62
256
6
ByLayer
49
0.5
62
256
6
ByLayer
0
ENDSEC
0
EOF
