0
SECTION
2
HEADER
9
$ACADVER
1
AC1015
9
$DWGCODEPAGE
3
ANSI_1252
9
$HANDSEED
5
159
9
$ANGBASE
50
0
9
$ANGDIR
70
0
9
$ATTMODE
70
1
9
$AUNITS
70
0
9
$AUPREC
70
0
9
$CECOLOR
62
256
9
$CELTSCALE
40
1
9
$CELTYPE
6
ByLayer
9
$CELWEIGHT
370
18
9
$CLAYER
8
0
9
$CMLJUST
70
0
9
$CMLSCALE
40
1
9
$CMLSTYLE
2
Standard
9
$DIMSTYLE
2
Standard
9
$TEXTSIZE
40
0.2
9
$TEXTSTYLE
7
Standard
9
$LUNITS
70
2
9
$LUPREC
70
4
9
$EXTNAMES
290
1
9
$INSUNITS
70
4
9
$LTSCALE
40
1
9
$LWDISPLAY
290
1
9
$PDMODE
70
0
9
$PDSIZE
40
0
9
$PLINEGEN
70
0
0
ENDSEC
0
SECTION
2
CLASSES
0
CLASS
1
RASTERVARIABLES
2
AcDbRasterVariables
3
ISM
90
0
280
0
281
0
0
ENDSEC
0
SECTION
2
TABLES
0
TABLE
2
VPORT
5
14f
100
AcDbSymbolTable
0
VPORT
5
1
100
AcDbSymbolTableRecord
100
AcDbViewportTableRecord
2
*Active
70
0
10
0
20
0
11
1
21
1
12
-1
22
1
13
0
23
0
14
0.5
24
0.5
15
10
25
10
16
0
26
0
36
1
17
0
27
0
37
0
0
ENDTAB
0
TABLE
2
LTYPE
5
150
100
AcDbSymbolTable
0
LTYPE
5
14
100
AcDbSymbolTableRecord
100
AcDbLinetypeTableRecord
70
0
2
ByBlock
3

72
65
73
0
40
0
0
LTYPE
5
15
100
AcDbSymbolTableRecord
100
AcDbLinetypeTableRecord
70
0
2
ByLayer
3

72
65
73
0
40
0
0
LTYPE
5
16
100
AcDbSymbolTableRecord
100
AcDbLinetypeTableRecord
70
0
2
CONTINUOUS
3
Solid line
72
65
73
0
40
0
0
LTYPE
5
6A
100
AcDbSymbolTableRecord
100
AcDbLinetypeTableRecord
70
0
2
CENTER
3
____ _ ____ _ ____ _ ____
72
65
73
4
40
47.5
49
22
74
0
49
-8.5
74
0
49
8.5
74
0
49
-8.5
74
0
0
LTYPE
5
6B
100
AcDbSymbolTableRecord
100
AcDbLinetypeTableRecord
70
0
2
DASHED
3
__ __ __ __ __ __ __ __ __
72
65
73
2
40
25.72
49
12.86
74
0
49
-12.86
74
0
0
ENDTAB
0
TABLE
2
LAYER
5
151
100
AcDbSymbolTable
0
LAYER
5
10
100
AcDbSymbolTableRecord
100
AcDbLayerTableRecord
2
0
70
0
62
7
6
CONTINUOUS
290
1
370
-3
390
0
0
LAYER
5
6D
100
AcDbSymbolTableRecord
100
AcDbLayerTableRecord
2
81
70
0
62
-3
6
CONTINUOUS
290
1
370
-3
390
0
0
LAYER
5
6F
100
AcDbSymbolTableRecord
100
AcDbLayerTableRecord
2
80
70
0
62
-6
6
CONTINUOUS
290
1
370
-3
390
0
0
LAYER
5
75
100
AcDbSymbolTableRecord
100
AcDbLayerTableRecord
2
1
70
0
62
4
6
CONTINUOUS
290
1
370
-3
390
0
0
LAYER
5
B9
100
AcDbSymbolTableRecord
100
AcDbLayerTableRecord
2
2
70
0
62
7
6
CONTINUOUS
290
1
370
-3
390
0
0
LAYER
5
13b
100
AcDbSymbolTableRecord
100
AcDbLayerTableRecord
2
SK1
70
0
62
4
6
CONTINUOUS
290
1
370
-3
390
0
0
LAYER
5
13c
100
AcDbSymbolTableRecord
100
AcDbLayerTableRecord
2
SK4
70
0
62
2
6
CENTER
290
1
370
-3
390
0
0
LAYER
5
13d
100
AcDbSymbolTableRecord
100
AcDbLayerTableRecord
2
SK6
70
0
62
5
6
CONTINUOUS
290
1
370
-3
390
0
0
LAYER
5
13e
100
AcDbSymbolTableRecord
100
AcDbLayerTableRecord
2
SK2
70
0
62
7
6
CONTINUOUS
290
1
370
-3
390
0
0
ENDTAB
0
TABLE
2
STYLE
5
152
100
AcDbSymbolTable
0
STYLE
5
11
100
AcDbSymbolTableRecord
100
AcDbTextStyleTableRecord
2
Standard
3
txt
70
0
71
0
40
0
41
1
42
0
50
0
0
STYLE
5
9D
100
AcDbSymbolTableRecord
100
AcDbTextStyleTableRecord
2
blockfont
3
simplex.shx
70
0
71
0
40
0
41
1
42
0
50
0
0
STYLE
5
9E
100
AcDbSymbolTableRecord
100
AcDbTextStyleTableRecord
2
DWGDirectTextStyle
3
simplex
70
0
71
0
40
0
41
1
42
0
50
0
0
STYLE
5
A2
100
AcDbSymbolTableRecord
100
AcDbTextStyleTableRecord
2
iso_b_vert
3
simplex.shx
70
0
71
0
40
0
41
1
42
0
50
0
0
ENDTAB
0
TABLE
2
DIMSTYLE
5
153
100
AcDbSymbolTable
100
AcDbDimStyleTable
0
DIMSTYLE
105
27
100
AcDbSymbolTableRecord
100
AcDbDimStyleTableRecord
2
Standard
70
0
3
<>
41
0.18
42
0.0625
44
0.18
140
0.18
147
0.09
73
0
74
0
77
1
271
2
275
0
278
52
280
0
340
11
0
ENDTAB
0
TABLE
2
VIEW
5
154
100
AcDbSymbolTable
0
ENDTAB
0
TABLE
2
UCS
5
155
100
AcDbSymbolTable
0
ENDTAB
0
TABLE
2
APPID
5
156
100
AcDbSymbolTable
0
APPID
5
12
100
AcDbSymbolTableRecord
100
AcDbRegAppTableRecord
2
ACAD
70
0
0
ENDTAB
0
TABLE
2
BLOCK_RECORD
5
157
100
AcDbSymbolTable
0
BLOCK_RECORD
5
1F
100
AcDbSymbolTableRecord
100
AcDbBlockTableRecord
2
*Model_Space
340
0
70
0
0
BLOCK_RECORD
5
1B
100
AcDbSymbolTableRecord
100
AcDbBlockTableRecord
2
*Paper_Space
340
0
70
0
0
BLOCK_RECORD
5
23
100
AcDbSymbolTableRecord
100
AcDbBlockTableRecord
2
*Paper_Space0
340
0
70
0
0
BLOCK_RECORD
5
A0
100
AcDbSymbolTableRecord
100
AcDbBlockTableRecord
2
DimnDraft3D1
340
0
70
0
0
BLOCK_RECORD
5
B0
100
AcDbSymbolTableRecord
100
AcDbBlockTableRecord
2
_CLOSED
340
0
70
0
0
BLOCK_RECORD
5
B7
100
AcDbSymbolTableRecord
100
AcDbBlockTableRecord
2
DimnDraft3D2
340
0
70
0
0
BLOCK_RECORD
5
C6
100
AcDbSymbolTableRecord
100
AcDbBlockTableRecord
2
DimnDraft3D3
340
0
70
0
0
BLOCK_RECORD
5
D4
100
AcDbSymbolTableRecord
100
AcDbBlockTableRecord
2
DimnDraft3D4
340
0
70
0
0
ENDTAB
0
ENDSEC
0
SECTION
2
BLOCKS
0
BLOCK
5
20
100
AcDbEntity
8
0
100
AcDbBlockBegin
2
*Model_Space
70
0
10
0
20
0
30
0
3
*Model_Space
0
ENDBLK
5
21
100
AcDbEntity
8
0
100
AcDbBlockEnd
0
BLOCK
5
1C
100
AcDbEntity
8
0
100
AcDbBlockBegin
2
*Paper_Space
70
0
10
0
20
0
30
0
3
*Paper_Space
0
ENDBLK
5
1D
100
AcDbEntity
8
0
100
AcDbBlockEnd
0
BLOCK
5
24
100
AcDbEntity
8
0
100
AcDbBlockBegin
2
*Paper_Space0
70
0
10
0
20
0
30
0
3
*Paper_Space0
0
ENDBLK
5
25
100
AcDbEntity
8
0
100
AcDbBlockEnd
0
BLOCK
5
AD
100
AcDbEntity
8
0
100
AcDbBlockBegin
2
DimnDraft3D1
70
0
10
0
20
0
30
0
3
DimnDraft3D1
0
MTEXT
5
A1
100
AcDbEntity
8
SK2
62
256
6
ByLayer
370
18
48
1
60
0
100
AcDbMText
10
-97.348009
20
-0.552473
30
0
210
0
220
0
230
1
1
\W1.2012;%%c16
40
2
41
0
44
1.084337
50
90
71
7
72
5
7
iso_b_vert
0
LINE
5
A4
100
AcDbEntity
8
SK2
62
256
6
ByLayer
370
13
48
1
60
0
100
AcDbLine
10
-78
20
-7.9925
30
0
11
-100.348009
21
-7.9925
31
0
39
0
210
0
220
0
230
1
0
LINE
5
A5
100
AcDbEntity
8
SK2
62
256
6
ByLayer
370
13
48
1
60
0
100
AcDbLine
10
-78.9925
20
7
30
0
11
-100.348009
21
7
31
0
39
0
210
0
220
0
230
1
0
LINE
5
A6
100
AcDbEntity
8
SK2
62
256
6
ByLayer
370
13
48
1
60
0
100
AcDbLine
10
-96.348009
20
-7.9925
30
0
11
-96.348009
21
7
31
0
39
0
210
0
220
0
230
1
0
LINE
5
A7
100
AcDbEntity
8
SK2
62
256
6
ByLayer
370
13
48
1
60
0
100
AcDbLine
10
-96.348009
20
-7.9925
30
0
11
-96.848009
21
-4.992502
31
0
39
0
210
0
220
0
230
1
0
LINE
5
A8
100
AcDbEntity
8
SK2
62
256
6
ByLayer
370
13
48
1
60
0
100
AcDbLine
10
-96.348009
20
-7.9925
30
0
11
-95.848009
21
-4.992498
31
0
39
0
210
0
220
0
230
1
0
LINE
5
A9
100
AcDbEntity
8
SK2
62
256
6
ByLayer
370
13
48
1
60
0
100
AcDbLine
10
-96.848009
20
-4.992502
30
0
11
-95.848009
21
-4.992498
31
0
39
0
210
0
220
0
230
1
0
LINE
5
AA
100
AcDbEntity
8
SK2
62
256
6
ByLayer
370
13
48
1
60
0
100
AcDbLine
10
-96.348009
20
7
30
0
11
-95.848009
21
4.000002
31
0
39
0
210
0
220
0
230
1
0
LINE
5
AB
100
AcDbEntity
8
SK2
62
256
6
ByLayer
370
13
48
1
60
0
100
AcDbLine
10
-96.348009
20
7
30
0
11
-96.848009
21
3.999998
31
0
39
0
210
0
220
0
230
1
0
LINE
5
AC
100
AcDbEntity
8
SK2
62
256
6
ByLayer
370
13
48
1
60
0
100
AcDbLine
10
-95.848009
20
4.000002
30
0
11
-96.848009
21
3.999998
31
0
39
0
210
0
220
0
230
1
0
ENDBLK
5
AE
100
AcDbEntity
8
0
100
AcDbBlockEnd
0
BLOCK
5
B1
100
AcDbEntity
8
0
100
AcDbBlockBegin
2
_CLOSED
70
0
10
0
20
0
30
0
3
_CLOSED
0
LINE
5
B3
100
AcDbEntity
8
0
62
256
6
ByLayer
370
-2
48
1
60
0
100
AcDbLine
10
-1
20
0.166667
30
0
11
0
21
0
31
0
39
0
210
0
220
0
230
1
0
LINE
5
B4
100
AcDbEntity
8
0
62
256
6
ByLayer
370
-2
48
1
60
0
100
AcDbLine
10
0
20
0
30
0
11
-1
21
-0.166667
31
0
39
0
210
0
220
0
230
1
0
LINE
5
B5
100
AcDbEntity
8
0
62
256
6
ByLayer
370
-2
48
1
60
0
100
AcDbLine
10
-1
20
0.166667
30
0
11
-1
21
-0.166667
31
0
39
0
210
0
220
0
230
1
0
LINE
5
B6
100
AcDbEntity
8
0
62
256
6
ByLayer
370
-2
48
1
60
0
100
AcDbLine
10
0
20
0
30
0
11
-1
21
0
31
0
39
0
210
0
220
0
230
1
0
ENDBLK
5
B2
100
AcDbEntity
8
0
100
AcDbBlockEnd
0
BLOCK
5
C3
100
AcDbEntity
8
0
100
AcDbBlockBegin
2
DimnDraft3D2
70
0
10
0
20
0
30
0
3
DimnDraft3D2
0
MTEXT
5
B8
100
AcDbEntity
8
2
62
256
6
ByLayer
370
18
48
1
60
0
100
AcDbMText
10
60.853603
20
3.892279
30
0
210
0
220
0
230
1
1
\W0.5144;10
40
2
41
0
44
1.084337
50
90
71
7
72
5
7
iso_b_vert
0
LINE
5
BA
100
AcDbEntity
8
2
62
256
6
ByLayer
370
13
48
1
60
0
100
AcDbLine
10
56.268699
20
0
30
0
11
65.353603
21
0
31
0
39
0
210
0
220
0
230
1
0
LINE
5
BB
100
AcDbEntity
8
2
62
256
6
ByLayer
370
13
48
1
60
0
100
AcDbLine
10
54.033476
20
9.875
30
0
11
65.353603
21
9.875
31
0
39
0
210
0
220
0
230
1
0
LINE
5
BC
100
AcDbEntity
8
2
62
256
6
ByLayer
370
13
48
1
60
0
100
AcDbLine
10
61.353603
20
0
30
0
11
61.353603
21
9.875
31
0
39
0
210
0
220
0
230
1
0
LINE
5
BD
100
AcDbEntity
8
2
62
256
6
ByLayer
370
13
48
1
60
0
100
AcDbLine
10
61.353603
20
0
30
0
11
60.853603
21
2.999998
31
0
39
0
210
0
220
0
230
1
0
LINE
5
BE
100
AcDbEntity
8
2
62
256
6
ByLayer
370
13
48
1
60
0
100
AcDbLine
10
61.353603
20
0
30
0
11
61.853603
21
3.000002
31
0
39
0
210
0
220
0
230
1
0
LINE
5
BF
100
AcDbEntity
8
2
62
256
6
ByLayer
370
13
48
1
60
0
100
AcDbLine
10
60.853603
20
2.999998
30
0
11
61.853603
21
3.000002
31
0
39
0
210
0
220
0
230
1
0
LINE
5
C0
100
AcDbEntity
8
2
62
256
6
ByLayer
370
13
48
1
60
0
100
AcDbLine
10
61.353603
20
9.875
30
0
11
61.853603
21
6.875002
31
0
39
0
210
0
220
0
230
1
0
LINE
5
C1
100
AcDbEntity
8
2
62
256
6
ByLayer
370
13
48
1
60
0
100
AcDbLine
10
61.353603
20
9.875
30
0
11
60.853603
21
6.874998
31
0
39
0
210
0
220
0
230
1
0
LINE
5
C2
100
AcDbEntity
8
2
62
256
6
ByLayer
370
13
48
1
60
0
100
AcDbLine
10
61.853603
20
6.875002
30
0
11
60.853603
21
6.874998
31
0
39
0
210
0
220
0
230
1
0
ENDBLK
5
C4
100
AcDbEntity
8
0
100
AcDbBlockEnd
0
BLOCK
5
D1
100
AcDbEntity
8
0
100
AcDbBlockBegin
2
DimnDraft3D3
70
0
10
0
20
0
30
0
3
DimnDraft3D3
0
MTEXT
5
C7
100
AcDbEntity
8
SK2
62
256
6
ByLayer
370
18
48
1
60
0
100
AcDbMText
10
-15.635893
20
27.583473
30
0
210
0
220
0
230
1
1
\W0.6044;125
40
2
41
0
44
1.084337
50
0
71
7
72
5
7
iso_b_vert
0
LINE
5
C8
100
AcDbEntity
8
SK2
62
256
6
ByLayer
370
13
48
1
60
0
100
AcDbLine
10
48.033476
20
12.875
30
0
11
48.033476
21
31.083473
31
0
39
0
210
0
220
0
230
1
0
LINE
5
C9
100
AcDbEntity
8
SK2
62
256
6
ByLayer
370
13
48
1
60
0
100
AcDbLine
10
-77
20
8.9925
30
0
11
-77
21
31.083473
31
0
39
0
210
0
220
0
230
1
0
LINE
5
CA
100
AcDbEntity
8
SK2
62
256
6
ByLayer
370
13
48
1
60
0
100
AcDbLine
10
48.033476
20
27.083473
30
0
11
-77
21
27.083473
31
0
39
0
210
0
220
0
230
1
0
LINE
5
CB
100
AcDbEntity
8
SK2
62
256
6
ByLayer
370
13
48
1
60
0
100
AcDbLine
10
48.033476
20
27.083473
30
0
11
45.033478
21
26.583473
31
0
39
0
210
0
220
0
230
1
0
LINE
5
CC
100
AcDbEntity
8
SK2
62
256
6
ByLayer
370
13
48
1
60
0
100
AcDbLine
10
48.033476
20
27.083473
30
0
11
45.033474
21
27.583473
31
0
39
0
210
0
220
0
230
1
0
LINE
5
CD
100
AcDbEntity
8
SK2
62
256
6
ByLayer
370
13
48
1
60
0
100
AcDbLine
10
45.033478
20
26.583473
30
0
11
45.033474
21
27.583473
31
0
39
0
210
0
220
0
230
1
0
LINE
5
CE
100
AcDbEntity
8
SK2
62
256
6
ByLayer
370
13
48
1
60
0
100
AcDbLine
10
-77
20
27.083473
30
0
11
-74.000002
21
27.583473
31
0
39
0
210
0
220
0
230
1
0
LINE
5
CF
100
AcDbEntity
8
SK2
62
256
6
ByLayer
370
13
48
1
60
0
100
AcDbLine
10
-77
20
27.083473
30
0
11
-73.999998
21
26.583473
31
0
39
0
210
0
220
0
230
1
0
LINE
5
D0
100
AcDbEntity
8
SK2
62
256
6
ByLayer
370
13
48
1
60
0
100
AcDbLine
10
-74.000002
20
27.583473
30
0
11
-73.999998
21
26.583473
31
0
39
0
210
0
220
0
230
1
0
ENDBLK
5
D2
100
AcDbEntity
8
0
100
AcDbBlockEnd
0
BLOCK
5
DF
100
AcDbEntity
8
0
100
AcDbBlockBegin
2
DimnDraft3D4
70
0
10
0
20
0
30
0
3
DimnDraft3D4
0
MTEXT
5
D5
100
AcDbEntity
8
2
62
256
6
ByLayer
370
18
48
1
60
0
100
AcDbMText
10
35.938803
20
18.559772
30
0
210
0
220
0
230
1
1
\W0.7259;20.9
40
2
41
0
44
1.084337
50
0
71
7
72
5
7
iso_b_vert
0
LINE
5
D6
100
AcDbEntity
8
2
62
256
6
ByLayer
370
13
48
1
60
0
100
AcDbLine
10
48.033476
20
12.875
30
0
11
48.033476
21
22.059772
31
0
39
0
210
0
220
0
230
1
0
LINE
5
D7
100
AcDbEntity
8
2
62
256
6
ByLayer
370
13
48
1
60
0
100
AcDbLine
10
27.433604
20
10
30
0
11
27.433604
21
22.059772
31
0
39
0
210
0
220
0
230
1
0
LINE
5
D8
100
AcDbEntity
8
2
62
256
6
ByLayer
370
13
48
1
60
0
100
AcDbLine
10
48.033476
20
18.059772
30
0
11
27.433604
21
18.059772
31
0
39
0
210
0
220
0
230
1
0
LINE
5
D9
100
AcDbEntity
8
2
62
256
6
ByLayer
370
13
48
1
60
0
100
AcDbLine
10
48.033476
20
18.059772
30
0
11
45.033478
21
17.559772
31
0
39
0
210
0
220
0
230
1
0
LINE
5
DA
100
AcDbEntity
8
2
62
256
6
ByLayer
370
13
48
1
60
0
100
AcDbLine
10
48.033476
20
18.059772
30
0
11
45.033474
21
18.559772
31
0
39
0
210
0
220
0
230
1
0
LINE
5
DB
100
AcDbEntity
8
2
62
256
6
ByLayer
370
13
48
1
60
0
100
AcDbLine
10
45.033478
20
17.559772
30
0
11
45.033474
21
18.559772
31
0
39
0
210
0
220
0
230
1
0
LINE
5
DC
100
AcDbEntity
8
2
62
256
6
ByLayer
370
13
48
1
60
0
100
AcDbLine
10
27.433604
20
18.059772
30
0
11
30.433602
21
18.559772
31
0
39
0
210
0
220
0
230
1
0
LINE
5
DD
100
AcDbEntity
8
2
62
256
6
ByLayer
370
13
48
1
60
0
100
AcDbLine
10
27.433604
20
18.059772
30
0
11
30.433606
21
17.559772
31
0
39
0
210
0
220
0
230
1
0
LINE
5
DE
100
AcDbEntity
8
2
62
256
6
ByLayer
370
13
48
1
60
0
100
AcDbLine
10
30.433602
20
18.559772
30
0
11
30.433606
21
17.559772
31
0
39
0
210
0
220
0
230
1
0
ENDBLK
5
E0
100
AcDbEntity
8
0
100
AcDbBlockEnd
0
ENDSEC
0
SECTION
2
ENTITIES
0
CIRCLE
5
97
100
AcDbEntity
8
1
62
256
6
ByLayer
370
18
48
1
60
0
100
AcDbCircle
10
44.858476
20
4.375739
30
0
40
1.4
39
0
210
0
220
0
230
1
0
POINT
5
6C
100
AcDbEntity
8
81
62
256
6
ByLayer
370
18
48
1
60
0
100
AcDbPoint
10
48.033476
20
9.875
30
0
39
0
210
0
220
0
230
1
50
360
0
POINT
5
6E
100
AcDbEntity
8
80
62
256
6
ByLayer
370
18
48
1
60
0
100
AcDbPoint
10
0
20
0
30
0
39
0
210
0
220
0
230
1
50
360
0
SPLINE
5
98
100
AcDbEntity
8
SK1
62
256
6
ByLayer
370
18
48
1
60
0
100
AcDbSpline
70
4
71
3
72
26
73
22
40
0
40
0
40
0
40
0
40
0.0214546421745062
40
0.0214546421745062
40
0.144895383778838
40
0.144895383778838
40
0.253835307739436
40
0.253835307739436
40
0.34816429091632
40
0.34816429091632
40
0.425647166134243
40
0.425647166134243
40
0.54416294615057
40
0.54416294615057
40
0.626080168424386
40
0.626080168424386
40
0.730721949714537
40
0.730721949714537
40
0.859213816385174
40
0.859213816385174
40
1
40
1
40
1
40
1
41
1
10
-75
20
2.76225564542483
30
0
41
1
10
-75.0131678214414
20
2.72415496743545
30
0
41
1
10
-75.0261215525921
20
2.68597959431631
30
0
41
1
10
-75.1121125559761
20
2.42766713623846
30
0
41
1
10
-75.178100493966
20
2.20500610269343
30
0
41
1
10
-75.2861028783681
20
1.78194504739022
30
0
41
1
10
-75.330075165938
20
1.58176943587347
30
0
41
1
10
-75.398101615743
20
1.2059465768213
30
0
41
1
10
-75.4240686094016
20
1.03042349759639
30
0
41
1
10
-75.4603727801052
20
0.709647451223248
30
0
41
1
10
-75.4726889982788
20
0.564465323103292
30
0
41
1
10
-75.4932042157557
20
0.196767822770568
30
0
41
1
10
-75.4957530543747
20
-0.0263412671335175
30
0
41
1
10
-75.4832685222543
20
-0.402735498481405
30
0
41
1
10
-75.4734311147068
20
-0.556480595248331
30
0
41
1
10
-75.440553548846
20
-0.905468213503667
30
0
41
1
10
-75.4145771605211
20
-1.10063553450641
30
0
41
1
10
-75.3411289783288
20
-1.53247798340917
30
0
41
1
10
-75.2900391694499
20
-1.76887427478596
30
0
41
1
10
-75.163649722936
20
-2.25879151918053
30
0
41
1
10
-75.0864083917755
20
-2.51223567621125
30
0
41
1
10
-75
20
-2.76225564537072
30
0
0
SPLINE
5
99
100
AcDbEntity
8
SK1
62
256
6
ByLayer
370
18
48
1
60
0
100
AcDbSpline
70
4
71
3
72
26
73
22
40
0
40
0
40
0
40
0
40
0.0214546421745062
40
0.0214546421745062
40
0.144895383778838
40
0.144895383778838
40
0.253835307739436
40
0.253835307739436
40
0.34816429091632
40
0.34816429091632
40
0.425647166134243
40
0.425647166134243
40
0.54416294615057
40
0.54416294615057
40
0.626080168424386
40
0.626080168424386
40
0.730721949714537
40
0.730721949714537
40
0.859213816385174
40
0.859213816385174
40
1
40
1
40
1
40
1
41
1
10
-75
20
2.76225564542483
30
0
41
1
10
-75.0131678214414
20
2.72415496743545
30
0
41
1
10
-75.0261215525921
20
2.68597959431631
30
0
41
1
10
-75.1121125559761
20
2.42766713623846
30
0
41
1
10
-75.178100493966
20
2.20500610269343
30
0
41
1
10
-75.2861028783681
20
1.78194504739022
30
0
41
1
10
-75.330075165938
20
1.58176943587347
30
0
41
1
10
-75.398101615743
20
1.2059465768213
30
0
41
1
10
-75.4240686094016
20
1.03042349759639
30
0
41
1
10
-75.4603727801052
20
0.709647451223248
30
0
41
1
10
-75.4726889982788
20
0.564465323103292
30
0
41
1
10
-75.4932042157557
20
0.196767822770568
30
0
41
1
10
-75.4957530543747
20
-0.0263412671335175
30
0
41
1
10
-75.4832685222543
20
-0.402735498481405
30
0
41
1
10
-75.4734311147068
20
-0.556480595248331
30
0
41
1
10
-75.440553548846
20
-0.905468213503667
30
0
41
1
10
-75.4145771605211
20
-1.10063553450641
30
0
41
1
10
-75.3411289783288
20
-1.53247798340917
30
0
41
1
10
-75.2900391694499
20
-1.76887427478596
30
0
41
1
10
-75.163649722936
20
-2.25879151918053
30
0
41
1
10
-75.0864083917755
20
-2.51223567621125
30
0
41
1
10
-75
20
-2.76225564537072
30
0
0
SPLINE
5
9A
100
AcDbEntity
8
1
62
256
6
ByLayer
370
18
48
1
60
0
100
AcDbSpline
70
4
71
3
72
10
73
6
40
0
40
0
40
0
40
0
40
0.408545858850589
40
0.408545858850589
40
1
40
1
40
1
40
1
41
1
10
26.840852739631
20
2.76225564549404
30
0
41
1
10
26.8540205610724
20
2.72415496750466
30
0
41
1
10
26.866974292223
20
2.68597959438552
30
0
41
1
10
26.8981401389138
20
2.59235902769882
30
0
41
1
10
26.9161130052071
20
2.53682234278253
30
0
41
1
10
26.9336041163581
20
2.48112965022978
30
0
0
SPLINE
5
9B
100
AcDbEntity
8
1
62
256
6
ByLayer
370
18
48
1
60
0
100
AcDbSpline
70
4
71
3
72
8
73
4
40
0
40
0
40
0
40
0
40
1
40
1
40
1
40
1
41
1
10
26.9336041163581
20
-2.48112329795947
30
0
41
1
10
26.9040310828385
20
-2.57528527774997
30
0
41
1
10
26.8730794708149
20
-2.66900861024899
30
0
41
1
10
26.840852739631
20
-2.76225564530151
30
0
0
LINE
5
70
100
AcDbEntity
8
SK1
62
256
6
ByLayer
370
18
48
1
60
0
100
AcDbLine
10
-75
20
-7.9925
30
0
11
-77
21
-5.9925
31
0
39
0
210
0
220
0
230
1
0
LINE
5
72
100
AcDbEntity
8
SK1
62
256
6
ByLayer
370
18
48
1
60
0
100
AcDbLine
10
-75.9925
20
7
30
0
11
-77
21
5.9925
31
0
39
0
210
0
220
0
230
1
0
LINE
5
73
100
AcDbEntity
8
SK1
62
256
6
ByLayer
370
18
48
1
60
0
100
AcDbLine
10
-77
20
-5.9925
30
0
11
-77
21
5.9925
31
0
39
0
210
0
220
0
230
1
0
LINE
5
74
100
AcDbEntity
8
1
62
256
6
ByLayer
370
18
48
1
60
0
100
AcDbLine
10
47.703367
20
0.81849
30
0
11
47.703367
21
-2.4
31
0
39
0
210
0
220
0
230
1
0
LINE
5
76
100
AcDbEntity
8
1
62
256
6
ByLayer
370
18
48
1
60
0
100
AcDbLine
10
47.703367
20
-2.4
30
0
11
27.433604
21
-2.4
31
0
39
0
210
0
220
0
230
1
0
LINE
5
77
100
AcDbEntity
8
1
62
256
6
ByLayer
370
18
48
1
60
0
100
AcDbLine
10
36.933476
20
7
30
0
11
37.828545
21
7.895068
31
0
39
0
210
0
220
0
230
1
0
LINE
5
78
100
AcDbEntity
8
1
62
256
6
ByLayer
370
18
48
1
60
0
100
AcDbLine
10
44.609944
20
7.898423
30
0
11
37.828545
21
7.895068
31
0
39
0
210
0
220
0
230
1
0
LINE
5
79
100
AcDbEntity
8
1
62
256
6
ByLayer
370
18
48
1
60
0
100
AcDbLine
10
27.433604
20
-2.4
30
0
11
27.433604
21
7
31
0
39
0
210
0
220
0
230
1
0
LINE
5
7A
100
AcDbEntity
8
1
62
256
6
ByLayer
370
18
48
1
60
0
100
AcDbLine
10
27.433604
20
-2.4
30
0
11
26.933604
21
-2.9
31
0
39
0
210
0
220
0
230
1
0
LINE
5
7B
100
AcDbEntity
8
1
62
256
6
ByLayer
370
18
48
1
60
0
100
AcDbLine
10
26.933604
20
-2.9
30
0
11
26.933604
21
7
31
0
39
0
210
0
220
0
230
1
0
LINE
5
7C
100
AcDbEntity
8
1
62
256
6
ByLayer
370
18
48
1
60
0
100
AcDbLine
10
26.933604
20
-2.9
30
0
11
21.248353
21
-7.9925
31
0
39
0
210
0
220
0
230
1
0
LINE
5
7D
100
AcDbEntity
8
1
62
256
6
ByLayer
370
18
48
1
60
0
100
AcDbLine
10
39.153347
20
4.396684
30
0
11
39.606601
21
5.009741
31
0
39
0
210
0
220
0
230
1
0
LINE
5
7E
100
AcDbEntity
8
1
62
256
6
ByLayer
370
18
48
1
60
0
100
AcDbLine
10
39.606601
20
5.009741
30
0
11
46.013612
21
8.708831
31
0
39
0
210
0
220
0
230
1
0
LINE
5
7F
100
AcDbEntity
8
1
62
256
6
ByLayer
370
18
48
1
60
0
100
AcDbLine
10
46.013612
20
8.708831
30
0
11
46.638866
21
8.59608
31
0
39
0
210
0
220
0
230
1
0
LINE
5
80
100
AcDbEntity
8
1
62
256
6
ByLayer
370
18
48
1
60
0
100
AcDbLine
10
46.638866
20
8.59608
30
0
11
47.72918
21
9.306053
31
0
39
0
210
0
220
0
230
1
0
LINE
5
81
100
AcDbEntity
8
1
62
256
6
ByLayer
370
18
48
1
60
0
100
AcDbLine
10
47.72918
20
9.306053
30
0
11
48.033476
21
8.606994
31
0
39
0
210
0
220
0
230
1
0
LINE
5
82
100
AcDbEntity
8
1
62
256
6
ByLayer
370
18
48
1
60
0
100
AcDbLine
10
48.033476
20
8.606994
30
0
11
48.033476
21
1.208815
31
0
39
0
210
0
220
0
230
1
0
LINE
5
83
100
AcDbEntity
8
1
62
256
6
ByLayer
370
18
48
1
60
0
100
AcDbLine
10
48.033476
20
1.208815
30
0
11
47.623205
21
0.723705
31
0
39
0
210
0
220
0
230
1
0
LINE
5
84
100
AcDbEntity
8
1
62
256
6
ByLayer
370
18
48
1
60
0
100
AcDbLine
10
47.623205
20
0.723705
30
0
11
47.692901
21
-0.575521
31
0
39
0
210
0
220
0
230
1
0
LINE
5
85
100
AcDbEntity
8
1
62
256
6
ByLayer
370
18
48
1
60
0
100
AcDbLine
10
47.692901
20
-0.575521
30
0
11
46.935351
21
-0.48952
31
0
39
0
210
0
220
0
230
1
0
LINE
5
86
100
AcDbEntity
8
1
62
256
6
ByLayer
370
18
48
1
60
0
100
AcDbLine
10
46.935351
20
-0.48952
30
0
11
40.52834
21
3.20957
31
0
39
0
210
0
220
0
230
1
0
LINE
5
87
100
AcDbEntity
8
1
62
256
6
ByLayer
370
18
48
1
60
0
100
AcDbLine
10
40.52834
20
3.20957
30
0
11
40.313358
21
3.80743
31
0
39
0
210
0
220
0
230
1
0
LINE
5
88
100
AcDbEntity
8
1
62
256
6
ByLayer
370
18
48
1
60
0
100
AcDbLine
10
40.313358
20
3.80743
30
0
11
39.153347
21
4.396684
31
0
39
0
210
0
220
0
230
1
0
LINE
5
89
100
AcDbEntity
8
SK1
62
256
6
ByLayer
370
18
48
1
60
0
100
AcDbLine
10
-75
20
-7.9925
30
0
11
-75
21
-2.762256
31
0
39
0
210
0
220
0
230
1
0
LINE
5
8A
100
AcDbEntity
8
SK1
62
256
6
ByLayer
370
18
48
1
60
0
100
AcDbLine
10
-75
20
2.762256
30
0
11
-75
21
7
31
0
39
0
210
0
220
0
230
1
0
LINE
5
8B
100
AcDbEntity
8
1
62
256
6
ByLayer
370
18
48
1
60
0
100
AcDbLine
10
26.840853
20
2.762256
30
0
11
0
21
2.762256
31
0
39
0
210
0
220
0
230
1
0
LINE
5
8C
100
AcDbEntity
8
1
62
256
6
ByLayer
370
18
48
1
60
0
100
AcDbLine
10
21.248353
20
-7.9925
30
0
11
0
21
-7.9925
31
0
39
0
210
0
220
0
230
1
0
LINE
5
8D
100
AcDbEntity
8
1
62
256
6
ByLayer
370
18
48
1
60
0
100
AcDbLine
10
26.840853
20
-2.762256
30
0
11
0
21
-2.762256
31
0
39
0
210
0
220
0
230
1
0
LINE
5
8E
100
AcDbEntity
8
1
62
256
6
ByLayer
370
18
48
1
60
0
100
AcDbLine
10
36.933476
20
7
30
0
11
0
21
7
31
0
39
0
210
0
220
0
230
1
0
LINE
5
8F
100
AcDbEntity
8
80
62
256
6
ByLayer
370
18
48
1
60
0
100
AcDbLine
10
0
20
0
30
0
11
-5
21
0
31
0
39
0
210
0
220
0
230
1
0
LINE
5
90
100
AcDbEntity
8
SK4
62
256
6
ByLayer
370
13
48
0.05
60
0
100
AcDbLine
10
-84.877826
20
0
30
0
11
56.268699
21
0
31
0
39
0
210
0
220
0
230
1
0
LINE
5
92
100
AcDbEntity
8
81
62
256
6
ByLayer
370
18
48
1
60
0
100
AcDbLine
10
53.033476
20
9.875
30
0
11
48.033476
21
9.875
31
0
39
0
210
0
220
0
230
1
0
LINE
5
93
100
AcDbEntity
8
SK1
62
256
6
ByLayer
370
18
48
1
60
0
100
AcDbLine
10
0
20
7
30
0
11
-75.992497
21
7
31
0
39
0
210
0
220
0
230
1
0
LINE
5
94
100
AcDbEntity
8
SK1
62
256
6
ByLayer
370
18
48
1
60
0
100
AcDbLine
10
0
20
2.762256
30
0
11
-75
21
2.762256
31
0
39
0
210
0
220
0
230
1
0
LINE
5
95
100
AcDbEntity
8
SK1
62
256
6
ByLayer
370
18
48
1
60
0
100
AcDbLine
10
0
20
-2.762256
30
0
11
-75
21
-2.762256
31
0
39
0
210
0
220
0
230
1
0
LINE
5
96
100
AcDbEntity
8
SK1
62
256
6
ByLayer
370
18
48
1
60
0
100
AcDbLine
10
0
20
-7.9925
30
0
11
-75
21
-7.9925
31
0
39
0
210
0
220
0
230
1
0
MTEXT
5
9C
100
AcDbEntity
8
SK6
62
256
6
ByLayer
370
18
48
1
60
0
100
AcDbMText
10
-53.17491
20
-24.145271
30
0
210
0
220
0
230
1
1
\W1.1218;R166.0KF-16-1220-11B
40
3.5
41
0
44
0.903614
50
0
71
7
72
5
7
blockfont
0
DIMENSION
5
AF
100
AcDbEntity
8
SK2
62
256
6
ByLayer
370
13
48
1
60
0
100
AcDbDimension
2
DimnDraft3D1
10
7
20
96.348009
30
0
11
2.165948
21
96.348009
31
0
70
32
71
5
72
1
41
1
210
0
220
0
230
1
3
Standard
100
AcDbAlignedDimension
13
-7.9925
23
78
33
0
14
7
24
78.9925
34
0
50
0
100
AcDbRotatedDimension
1001
ACAD
1000
DSTYLE
1002
{
1070
   279
1070
     0
1070
   173
1070
     1
1070
   340
1005
A2
1070
   271
1070
     3
1070
   272
1070
     2
1070
    77
1070
     1
1070
    73
1070
     0
1070
   171
1070
     4
1070
   274
1070
     4
1070
   177
1070
     7
1070
   176
1070
     7
1070
   178
1070
     7
1070
    41
1041
3.0
1070
   147
1041
1.0
1070
    42
1041
3.0
1070
    44
1041
4.0
1070
   140
1041
2.0
1070
   343
1005
B0
1070
   344
1005
B0
1002
}
0
DIMENSION
5
C5
100
AcDbEntity
8
2
62
256
6
ByLayer
370
13
48
1
60
0
100
AcDbDimension
2
DimnDraft3D2
10
9.875
20
-61.353603
30
0
11
4.3107
21
-61.353603
31
0
70
32
71
5
72
1
41
1
210
0
220
0
230
1
3
Standard
100
AcDbAlignedDimension
13
0
23
-56.268699
33
0
14
9.875
24
-54.033476
34
0
50
0
100
AcDbRotatedDimension
1001
ACAD
1000
DSTYLE
1002
{
1070
   279
1070
     0
1070
   173
1070
     1
1070
   340
1005
A2
1070
   271
1070
     3
1070
   272
1070
     2
1070
    77
1070
     1
1070
    73
1070
     0
1070
   171
1070
     4
1070
   274
1070
     4
1070
   177
1070
     7
1070
   176
1070
     7
1070
   178
1070
     7
1070
    41
1041
3.0
1070
   147
1041
1.0
1070
    42
1041
6.0
1070
    44
1041
4.0
1070
   140
1041
2.0
1070
   343
1005
B0
1070
   344
1005
B0
1002
}
0
DIMENSION
5
D3
100
AcDbEntity
8
SK2
62
256
6
ByLayer
370
13
48
1
60
0
100
AcDbDimension
2
DimnDraft3D3
10
-27.083473
20
-77
30
0
11
-27.083473
21
-14.483262
31
0
70
32
71
5
72
1
41
1
210
0
220
0
230
1
3
Standard
100
AcDbAlignedDimension
13
-12.875
23
48.033476
33
0
14
-8.9925
24
-77
34
0
50
90
100
AcDbRotatedDimension
1001
ACAD
1000
DSTYLE
1002
{
1070
    74
1070
     0
1070
   279
1070
     0
1070
   173
1070
     1
1070
   340
1005
A2
1070
   271
1070
     3
1070
   272
1070
     2
1070
    77
1070
     1
1070
    73
1070
     0
1070
   171
1070
     4
1070
   274
1070
     4
1070
   177
1070
     7
1070
   176
1070
     7
1070
   178
1070
     7
1070
    41
1041
3.0
1070
   147
1041
1.0
1070
    42
1041
3.0
1070
    44
1041
4.0
1070
   140
1041
2.0
1070
   343
1005
B0
1070
   344
1005
B0
1002
}
0
DIMENSION
5
E1
100
AcDbEntity
8
2
62
256
6
ByLayer
370
13
48
1
60
0
100
AcDbDimension
2
DimnDraft3D4
10
-18.059772
20
27.433604
30
0
11
-18.059772
21
37.73354
31
0
70
32
71
5
72
1
41
1
210
0
220
0
230
1
3
Standard
100
AcDbAlignedDimension
13
-12.875
23
48.033476
33
0
14
-10
24
27.433604
34
0
50
90
100
AcDbRotatedDimension
1001
ACAD
1000
DSTYLE
1002
{
1070
    74
1070
     0
1070
   279
1070
     0
1070
   173
1070
     1
1070
   340
1005
A2
1070
   271
1070
     3
1070
   272
1070
     2
1070
    77
1070
     1
1070
    73
1070
     0
1070
   171
1070
     4
1070
   274
1070
     4
1070
   177
1070
     7
1070
   176
1070
     7
1070
   178
1070
     7
1070
    41
1041
3.0
1070
   147
1041
1.0
1070
    42
1041
3.0
1070
    44
1041
4.0
1070
   140
1041
2.0
1070
   343
1005
B0
1070
   344
1005
B0
1002
}
0
ENDSEC
0
SECTION
2
OBJECTS
0
DICTIONARY
5
14c
330
0
100
AcDbDictionary
280
0
281
1
3
ACAD_GROUP
350
14d
3
ACAD_MLINESTYLE
350
14e
0
DICTIONARY
5
14d
330
0
100
AcDbDictionary
280
0
281
1
0
DICTIONARY
5
14e
330
0
100
AcDbDictionary
280
0
281
1
3
Standard
350
18
0
MLINESTYLE
5
18
330
14e
100
AcDbMlineStyle
2
Standard
70
0
3

62
256
51
90
52
90
71
2
49
-0.5
62
256
6
ByLayer
49
0.5
62
256
6
ByLayer
0
RASTERVARIABLES
5
13a
330

100
AcDbRasterVariables
90
0
70
1
71
1
72
1
0
ENDSEC
0
EOF
