0
SECTION
2
HEADER
9
$ACADVER
1
AC1015
9
$DWGCODEPAGE
3
ANSI_1252
9
$HANDSEED
5
15c
9
$ANGBASE
50
0
9
$ANGDIR
70
0
9
$ATTMODE
70
1
9
$AUNITS
70
0
9
$AUPREC
70
0
9
$CECOLOR
62
256
9
$CELTSCALE
40
1
9
$CELTYPE
6
ByLayer
9
$CELWEIGHT
370
18
9
$CLAYER
8
0
9
$CMLJUST
70
0
9
$CMLSCALE
40
1
9
$CMLSTYLE
2
Standard
9
$DIMSTYLE
2
Standard
9
$TEXTSIZE
40
0.2
9
$TEXTSTYLE
7
Standard
9
$LUNITS
70
2
9
$LUPREC
70
4
9
$EXTNAMES
290
1
9
$INSUNITS
70
4
9
$LTSCALE
40
1
9
$LWDISPLAY
290
1
9
$PDMODE
70
0
9
$PDSIZE
40
0
9
$PLINEGEN
70
0
0
ENDSEC
0
SECTION
2
CLASSES
0
CLASS
1
RASTERVARIABLES
2
AcDbRasterVariables
3
ISM
90
0
280
0
281
0
0
ENDSEC
0
SECTION
2
TABLES
0
TABLE
2
VPORT
5
152
100
AcDbSymbolTable
0
VPORT
5
1
100
AcDbSymbolTableRecord
100
AcDbViewportTableRecord
2
*Active
70
0
10
0
20
0
11
1
21
1
12
-1
22
1
13
0
23
0
14
0.5
24
0.5
15
10
25
10
16
0
26
0
36
1
17
0
27
0
37
0
0
ENDTAB
0
TABLE
2
LTYPE
5
153
100
AcDbSymbolTable
0
LTYPE
5
14
100
AcDbSymbolTableRecord
100
AcDbLinetypeTableRecord
70
0
2
ByBlock
3

72
65
73
0
40
0
0
LTYPE
5
15
100
AcDbSymbolTableRecord
100
AcDbLinetypeTableRecord
70
0
2
ByLayer
3

72
65
73
0
40
0
0
LTYPE
5
16
100
AcDbSymbolTableRecord
100
AcDbLinetypeTableRecord
70
0
2
CONTINUOUS
3
Solid line
72
65
73
0
40
0
0
LTYPE
5
6A
100
AcDbSymbolTableRecord
100
AcDbLinetypeTableRecord
70
0
2
CENTER
3
____ _ ____ _ ____ _ ____
72
65
73
4
40
47.5
49
22
74
0
49
-8.5
74
0
49
8.5
74
0
49
-8.5
74
0
0
LTYPE
5
6B
100
AcDbSymbolTableRecord
100
AcDbLinetypeTableRecord
70
0
2
DASHED
3
__ __ __ __ __ __ __ __ __
72
65
73
2
40
25.72
49
12.86
74
0
49
-12.86
74
0
0
ENDTAB
0
TABLE
2
LAYER
5
154
100
AcDbSymbolTable
0
LAYER
5
10
100
AcDbSymbolTableRecord
100
AcDbLayerTableRecord
2
0
70
0
62
7
6
CONTINUOUS
290
1
370
-3
390
0
0
LAYER
5
6D
100
AcDbSymbolTableRecord
100
AcDbLayerTableRecord
2
81
70
0
62
-3
6
CONTINUOUS
290
1
370
-3
390
0
0
LAYER
5
6F
100
AcDbSymbolTableRecord
100
AcDbLayerTableRecord
2
80
70
0
62
-6
6
CONTINUOUS
290
1
370
-3
390
0
0
LAYER
5
75
100
AcDbSymbolTableRecord
100
AcDbLayerTableRecord
2
1
70
0
62
4
6
CONTINUOUS
290
1
370
-3
390
0
0
LAYER
5
BB
100
AcDbSymbolTableRecord
100
AcDbLayerTableRecord
2
2
70
0
62
7
6
CONTINUOUS
290
1
370
-3
390
0
0
LAYER
5
13e
100
AcDbSymbolTableRecord
100
AcDbLayerTableRecord
2
SK1
70
0
62
4
6
CONTINUOUS
290
1
370
-3
390
0
0
LAYER
5
13f
100
AcDbSymbolTableRecord
100
AcDbLayerTableRecord
2
SK4
70
0
62
2
6
CENTER
290
1
370
-3
390
0
0
LAYER
5
140
100
AcDbSymbolTableRecord
100
AcDbLayerTableRecord
2
SK6
70
0
62
5
6
CONTINUOUS
290
1
370
-3
390
0
0
LAYER
5
141
100
AcDbSymbolTableRecord
100
AcDbLayerTableRecord
2
SK2
70
0
62
7
6
CONTINUOUS
290
1
370
-3
390
0
0
ENDTAB
0
TABLE
2
STYLE
5
155
100
AcDbSymbolTable
0
STYLE
5
11
100
AcDbSymbolTableRecord
100
AcDbTextStyleTableRecord
2
Standard
3
txt
70
0
71
0
40
0
41
1
42
0
50
0
0
STYLE
5
9F
100
AcDbSymbolTableRecord
100
AcDbTextStyleTableRecord
2
blockfont
3
simplex.shx
70
0
71
0
40
0
41
1
42
0
50
0
0
STYLE
5
A0
100
AcDbSymbolTableRecord
100
AcDbTextStyleTableRecord
2
DWGDirectTextStyle
3
simplex
70
0
71
0
40
0
41
1
42
0
50
0
0
STYLE
5
A4
100
AcDbSymbolTableRecord
100
AcDbTextStyleTableRecord
2
iso_b_vert
3
simplex.shx
70
0
71
0
40
0
41
1
42
0
50
0
0
ENDTAB
0
TABLE
2
DIMSTYLE
5
156
100
AcDbSymbolTable
100
AcDbDimStyleTable
0
DIMSTYLE
105
27
100
AcDbSymbolTableRecord
100
AcDbDimStyleTableRecord
2
Standard
70
0
3
<>
41
0.18
42
0.0625
44
0.18
140
0.18
147
0.09
73
0
74
0
77
1
271
2
275
0
278
52
280
0
340
11
0
ENDTAB
0
TABLE
2
VIEW
5
157
100
AcDbSymbolTable
0
ENDTAB
0
TABLE
2
UCS
5
158
100
AcDbSymbolTable
0
ENDTAB
0
TABLE
2
APPID
5
159
100
AcDbSymbolTable
0
APPID
5
12
100
AcDbSymbolTableRecord
100
AcDbRegAppTableRecord
2
ACAD
70
0
0
ENDTAB
0
TABLE
2
BLOCK_RECORD
5
15a
100
AcDbSymbolTable
0
BLOCK_RECORD
5
1F
100
AcDbSymbolTableRecord
100
AcDbBlockTableRecord
2
*Model_Space
340
0
70
0
0
BLOCK_RECORD
5
1B
100
AcDbSymbolTableRecord
100
AcDbBlockTableRecord
2
*Paper_Space
340
0
70
0
0
BLOCK_RECORD
5
23
100
AcDbSymbolTableRecord
100
AcDbBlockTableRecord
2
*Paper_Space0
340
0
70
0
0
BLOCK_RECORD
5
A2
100
AcDbSymbolTableRecord
100
AcDbBlockTableRecord
2
DimnDraft3D1
340
0
70
0
0
BLOCK_RECORD
5
B2
100
AcDbSymbolTableRecord
100
AcDbBlockTableRecord
2
_CLOSED
340
0
70
0
0
BLOCK_RECORD
5
B9
100
AcDbSymbolTableRecord
100
AcDbBlockTableRecord
2
DimnDraft3D2
340
0
70
0
0
BLOCK_RECORD
5
C9
100
AcDbSymbolTableRecord
100
AcDbBlockTableRecord
2
DimnDraft3D3
340
0
70
0
0
BLOCK_RECORD
5
D7
100
AcDbSymbolTableRecord
100
AcDbBlockTableRecord
2
DimnDraft3D4
340
0
70
0
0
ENDTAB
0
ENDSEC
0
SECTION
2
BLOCKS
0
BLOCK
5
20
100
AcDbEntity
8
0
100
AcDbBlockBegin
2
*Model_Space
70
0
10
0
20
0
30
0
3
*Model_Space
0
ENDBLK
5
21
100
AcDbEntity
8
0
100
AcDbBlockEnd
0
BLOCK
5
1C
100
AcDbEntity
8
0
100
AcDbBlockBegin
2
*Paper_Space
70
0
10
0
20
0
30
0
3
*Paper_Space
0
ENDBLK
5
1D
100
AcDbEntity
8
0
100
AcDbBlockEnd
0
BLOCK
5
24
100
AcDbEntity
8
0
100
AcDbBlockBegin
2
*Paper_Space0
70
0
10
0
20
0
30
0
3
*Paper_Space0
0
ENDBLK
5
25
100
AcDbEntity
8
0
100
AcDbBlockEnd
0
BLOCK
5
AF
100
AcDbEntity
8
0
100
AcDbBlockBegin
2
DimnDraft3D1
70
0
10
0
20
0
30
0
3
DimnDraft3D1
0
MTEXT
5
A3
100
AcDbEntity
8
SK2
62
256
6
ByLayer
370
18
48
1
60
0
100
AcDbMText
10
-120.544804
20
13.78858
30
0
210
0
220
0
230
1
1
\W1.2012;%%c12
40
3
41
0
44
1.084337
50
90
71
7
72
5
7
iso_b_vert
0
LINE
5
A6
100
AcDbEntity
8
SK2
62
256
6
ByLayer
370
13
48
1
60
0
100
AcDbLine
10
-109
20
-5.9925
30
0
11
-122.044804
21
-5.9925
31
0
39
0
210
0
220
0
230
1
0
LINE
5
A7
100
AcDbEntity
8
SK2
62
256
6
ByLayer
370
13
48
1
60
0
100
AcDbLine
10
-109
20
5.9925
30
0
11
-122.044804
21
5.9925
31
0
39
0
210
0
220
0
230
1
0
LINE
5
A8
100
AcDbEntity
8
SK2
62
256
6
ByLayer
370
13
48
1
60
0
100
AcDbLine
10
-119.044804
20
-5.9925
30
0
11
-119.044804
21
22.693843
31
0
39
0
210
0
220
0
230
1
0
LINE
5
A9
100
AcDbEntity
8
SK2
62
256
6
ByLayer
370
13
48
1
60
0
100
AcDbLine
10
-119.044804
20
-5.9925
30
0
11
-119.544804
21
-2.992502
31
0
39
0
210
0
220
0
230
1
0
LINE
5
AA
100
AcDbEntity
8
SK2
62
256
6
ByLayer
370
13
48
1
60
0
100
AcDbLine
10
-119.044804
20
-5.9925
30
0
11
-118.544804
21
-2.992498
31
0
39
0
210
0
220
0
230
1
0
LINE
5
AB
100
AcDbEntity
8
SK2
62
256
6
ByLayer
370
13
48
1
60
0
100
AcDbLine
10
-119.544804
20
-2.992502
30
0
11
-118.544804
21
-2.992498
31
0
39
0
210
0
220
0
230
1
0
LINE
5
AC
100
AcDbEntity
8
SK2
62
256
6
ByLayer
370
13
48
1
60
0
100
AcDbLine
10
-119.044804
20
5.9925
30
0
11
-118.544804
21
2.992502
31
0
39
0
210
0
220
0
230
1
0
LINE
5
AD
100
AcDbEntity
8
SK2
62
256
6
ByLayer
370
13
48
1
60
0
100
AcDbLine
10
-119.044804
20
5.9925
30
0
11
-119.544804
21
2.992498
31
0
39
0
210
0
220
0
230
1
0
LINE
5
AE
100
AcDbEntity
8
SK2
62
256
6
ByLayer
370
13
48
1
60
0
100
AcDbLine
10
-118.544804
20
2.992502
30
0
11
-119.544804
21
2.992498
31
0
39
0
210
0
220
0
230
1
0
ENDBLK
5
B0
100
AcDbEntity
8
0
100
AcDbBlockEnd
0
BLOCK
5
B3
100
AcDbEntity
8
0
100
AcDbBlockBegin
2
_CLOSED
70
0
10
0
20
0
30
0
3
_CLOSED
0
LINE
5
B5
100
AcDbEntity
8
0
62
256
6
ByLayer
370
-2
48
1
60
0
100
AcDbLine
10
-1
20
0.166667
30
0
11
0
21
0
31
0
39
0
210
0
220
0
230
1
0
LINE
5
B6
100
AcDbEntity
8
0
62
256
6
ByLayer
370
-2
48
1
60
0
100
AcDbLine
10
0
20
0
30
0
11
-1
21
-0.166667
31
0
39
0
210
0
220
0
230
1
0
LINE
5
B7
100
AcDbEntity
8
0
62
256
6
ByLayer
370
-2
48
1
60
0
100
AcDbLine
10
-1
20
0.166667
30
0
11
-1
21
-0.166667
31
0
39
0
210
0
220
0
230
1
0
LINE
5
B8
100
AcDbEntity
8
0
62
256
6
ByLayer
370
-2
48
1
60
0
100
AcDbLine
10
0
20
0
30
0
11
-1
21
0
31
0
39
0
210
0
220
0
230
1
0
ENDBLK
5
B4
100
AcDbEntity
8
0
100
AcDbBlockEnd
0
BLOCK
5
C6
100
AcDbEntity
8
0
100
AcDbBlockBegin
2
DimnDraft3D2
70
0
10
0
20
0
30
0
3
DimnDraft3D2
0
MTEXT
5
BA
100
AcDbEntity
8
2
62
256
6
ByLayer
370
18
48
1
60
0
100
AcDbMText
10
89.394914
20
2.846711
30
0
210
0
220
0
230
1
1
\W0.6912;9.0
40
3
41
0
44
1.084337
50
90
71
7
72
5
7
iso_b_vert
0
LINE
5
BC
100
AcDbEntity
8
2
62
256
6
ByLayer
370
13
48
1
60
0
100
AcDbLine
10
80.200999
20
0
30
0
11
93.144914
21
0
31
0
39
0
210
0
220
0
230
1
0
LINE
5
BD
100
AcDbEntity
8
2
62
256
6
ByLayer
370
13
48
1
60
0
100
AcDbLine
10
74.161622
20
8.875
30
0
11
93.144914
21
8.875
31
0
39
0
210
0
220
0
230
1
0
LINE
5
BE
100
AcDbEntity
8
2
62
256
6
ByLayer
370
13
48
1
60
0
100
AcDbLine
10
90.144914
20
-7.5
30
0
11
90.144914
21
0
31
0
39
0
210
0
220
0
230
1
0
LINE
5
BF
100
AcDbEntity
8
2
62
256
6
ByLayer
370
13
48
1
60
0
100
AcDbLine
10
90.144914
20
16.375
30
0
11
90.144914
21
8.875
31
0
39
0
210
0
220
0
230
1
0
LINE
5
C0
100
AcDbEntity
8
2
62
256
6
ByLayer
370
13
48
1
60
0
100
AcDbLine
10
90.144914
20
0
30
0
11
90.644914
21
-2.999998
31
0
39
0
210
0
220
0
230
1
0
LINE
5
C1
100
AcDbEntity
8
2
62
256
6
ByLayer
370
13
48
1
60
0
100
AcDbLine
10
90.144914
20
0
30
0
11
89.644914
21
-3.000002
31
0
39
0
210
0
220
0
230
1
0
LINE
5
C2
100
AcDbEntity
8
2
62
256
6
ByLayer
370
13
48
1
60
0
100
AcDbLine
10
90.644914
20
-2.999998
30
0
11
89.644914
21
-3.000002
31
0
39
0
210
0
220
0
230
1
0
LINE
5
C3
100
AcDbEntity
8
2
62
256
6
ByLayer
370
13
48
1
60
0
100
AcDbLine
10
90.144914
20
8.875
30
0
11
89.644914
21
11.874998
31
0
39
0
210
0
220
0
230
1
0
LINE
5
C4
100
AcDbEntity
8
2
62
256
6
ByLayer
370
13
48
1
60
0
100
AcDbLine
10
90.144914
20
8.875
30
0
11
90.644914
21
11.875002
31
0
39
0
210
0
220
0
230
1
0
LINE
5
C5
100
AcDbEntity
8
2
62
256
6
ByLayer
370
13
48
1
60
0
100
AcDbLine
10
89.644914
20
11.874998
30
0
11
90.644914
21
11.875002
31
0
39
0
210
0
220
0
230
1
0
ENDBLK
5
C7
100
AcDbEntity
8
0
100
AcDbBlockEnd
0
BLOCK
5
D4
100
AcDbEntity
8
0
100
AcDbBlockBegin
2
DimnDraft3D3
70
0
10
0
20
0
30
0
3
DimnDraft3D3
0
MTEXT
5
CA
100
AcDbEntity
8
2
62
256
6
ByLayer
370
18
48
1
60
0
100
AcDbMText
10
57.344517
20
21.936162
30
0
210
0
220
0
230
1
1
\W0.7150;25.0
40
3
41
0
44
1.084337
50
0
71
7
72
5
7
iso_b_vert
0
LINE
5
CB
100
AcDbEntity
8
2
62
256
6
ByLayer
370
13
48
1
60
0
100
AcDbLine
10
47.411622
20
7.4925
30
0
11
47.411622
21
24.186162
31
0
39
0
210
0
220
0
230
1
0
LINE
5
CC
100
AcDbEntity
8
2
62
256
6
ByLayer
370
13
48
1
60
0
100
AcDbLine
10
72.661622
20
10.375
30
0
11
72.661622
21
24.186162
31
0
39
0
210
0
220
0
230
1
0
LINE
5
CD
100
AcDbEntity
8
2
62
256
6
ByLayer
370
13
48
1
60
0
100
AcDbLine
10
47.411622
20
21.186162
30
0
11
72.661622
21
21.186162
31
0
39
0
210
0
220
0
230
1
0
LINE
5
CE
100
AcDbEntity
8
2
62
256
6
ByLayer
370
13
48
1
60
0
100
AcDbLine
10
47.411622
20
21.186162
30
0
11
50.41162
21
21.686162
31
0
39
0
210
0
220
0
230
1
0
LINE
5
CF
100
AcDbEntity
8
2
62
256
6
ByLayer
370
13
48
1
60
0
100
AcDbLine
10
47.411622
20
21.186162
30
0
11
50.411624
21
20.686162
31
0
39
0
210
0
220
0
230
1
0
LINE
5
D0
100
AcDbEntity
8
2
62
256
6
ByLayer
370
13
48
1
60
0
100
AcDbLine
10
50.41162
20
21.686162
30
0
11
50.411624
21
20.686162
31
0
39
0
210
0
220
0
230
1
0
LINE
5
D1
100
AcDbEntity
8
2
62
256
6
ByLayer
370
13
48
1
60
0
100
AcDbLine
10
72.661622
20
21.186162
30
0
11
69.661624
21
20.686162
31
0
39
0
210
0
220
0
230
1
0
LINE
5
D2
100
AcDbEntity
8
2
62
256
6
ByLayer
370
13
48
1
60
0
100
AcDbLine
10
72.661622
20
21.186162
30
0
11
69.66162
21
21.686162
31
0
39
0
210
0
220
0
230
1
0
LINE
5
D3
100
AcDbEntity
8
2
62
256
6
ByLayer
370
13
48
1
60
0
100
AcDbLine
10
69.661624
20
20.686162
30
0
11
69.66162
21
21.686162
31
0
39
0
210
0
220
0
230
1
0
ENDBLK
5
D5
100
AcDbEntity
8
0
100
AcDbBlockEnd
0
BLOCK
5
E2
100
AcDbEntity
8
0
100
AcDbBlockBegin
2
DimnDraft3D4
70
0
10
0
20
0
30
0
3
DimnDraft3D4
0
MTEXT
5
D8
100
AcDbEntity
8
SK2
62
256
6
ByLayer
370
18
48
1
60
0
100
AcDbMText
10
-19.398136
20
32.958327
30
0
210
0
220
0
230
1
1
\W0.6044;180
40
3
41
0
44
1.084337
50
0
71
7
72
5
7
iso_b_vert
0
LINE
5
D9
100
AcDbEntity
8
SK2
62
256
6
ByLayer
370
13
48
1
60
0
100
AcDbLine
10
72.661622
20
10.375
30
0
11
72.661622
21
35.208327
31
0
39
0
210
0
220
0
230
1
0
LINE
5
DA
100
AcDbEntity
8
SK2
62
256
6
ByLayer
370
13
48
1
60
0
100
AcDbLine
10
-108
20
6.9925
30
0
11
-108
21
35.208327
31
0
39
0
210
0
220
0
230
1
0
LINE
5
DB
100
AcDbEntity
8
SK2
62
256
6
ByLayer
370
13
48
1
60
0
100
AcDbLine
10
72.661622
20
32.208327
30
0
11
-108
21
32.208327
31
0
39
0
210
0
220
0
230
1
0
LINE
5
DC
100
AcDbEntity
8
SK2
62
256
6
ByLayer
370
13
48
1
60
0
100
AcDbLine
10
72.661622
20
32.208327
30
0
11
69.661624
21
31.708327
31
0
39
0
210
0
220
0
230
1
0
LINE
5
DD
100
AcDbEntity
8
SK2
62
256
6
ByLayer
370
13
48
1
60
0
100
AcDbLine
10
72.661622
20
32.208327
30
0
11
69.66162
21
32.708327
31
0
39
0
210
0
220
0
230
1
0
LINE
5
DE
100
AcDbEntity
8
SK2
62
256
6
ByLayer
370
13
48
1
60
0
100
AcDbLine
10
69.661624
20
31.708327
30
0
11
69.66162
21
32.708327
31
0
39
0
210
0
220
0
230
1
0
LINE
5
DF
100
AcDbEntity
8
SK2
62
256
6
ByLayer
370
13
48
1
60
0
100
AcDbLine
10
-108
20
32.208327
30
0
11
-105.000002
21
32.708327
31
0
39
0
210
0
220
0
230
1
0
LINE
5
E0
100
AcDbEntity
8
SK2
62
256
6
ByLayer
370
13
48
1
60
0
100
AcDbLine
10
-108
20
32.208327
30
0
11
-104.999998
21
31.708327
31
0
39
0
210
0
220
0
230
1
0
LINE
5
E1
100
AcDbEntity
8
SK2
62
256
6
ByLayer
370
13
48
1
60
0
100
AcDbLine
10
-105.000002
20
32.708327
30
0
11
-104.999998
21
31.708327
31
0
39
0
210
0
220
0
230
1
0
ENDBLK
5
E3
100
AcDbEntity
8
0
100
AcDbBlockEnd
0
ENDSEC
0
SECTION
2
ENTITIES
0
CIRCLE
5
95
100
AcDbEntity
8
1
62
256
6
ByLayer
370
18
48
1
60
0
100
AcDbCircle
10
69.486622
20
3.375739
30
0
40
1.4
39
0
210
0
220
0
230
1
0
ELLIPSE
5
96
100
AcDbEntity
8
1
62
256
6
ByLayer
370
18
48
1
60
0
100
AcDbEllipse
10
179.692759
20
-2E-06
30
0
11
-358.83108188581
21
1.56627089031223
31
0
210
0
220
0
230
1
40
0.016285
41
1.23397087756179
42
1.2479819733091
0
ELLIPSE
5
97
100
AcDbEntity
8
1
62
256
6
ByLayer
370
18
48
1
60
0
100
AcDbEllipse
10
58.237833
20
2.170448
30
0
11
-0.379665118678438
21
0.934320241107444
31
0
210
0
220
0
230
1
40
0.438899
41
-0.143273016568074
42
2.65573207196715
0
POINT
5
6C
100
AcDbEntity
8
81
62
256
6
ByLayer
370
18
48
1
60
0
100
AcDbPoint
10
72.661622
20
8.875
30
0
39
0
210
0
220
0
230
1
50
360
0
POINT
5
6E
100
AcDbEntity
8
80
62
256
6
ByLayer
370
18
48
1
60
0
100
AcDbPoint
10
0
20
0
30
0
39
0
210
0
220
0
230
1
50
360
0
SPLINE
5
98
100
AcDbEntity
8
1
62
256
6
ByLayer
370
18
48
1
60
0
100
AcDbSpline
70
4
71
3
72
9
73
5
40
0
40
0
40
0
40
0
40
0.922774054072659
40
1
40
1
40
1
40
1
41
1
10
58.3309548611134
20
6.02906255511546
30
0
41
1
10
59.2305468046982
20
6.03040226995994
30
0
41
1
10
60.2054250552805
20
6.03178246907903
30
0
41
1
10
61.1803037765047
20
6.0330856942846
30
0
41
1
10
61.2555897107162
20
6.03318587833637
30
0
0
SPLINE
5
99
100
AcDbEntity
8
1
62
256
6
ByLayer
370
18
48
1
60
0
100
AcDbSpline
70
4
71
3
72
24
73
20
40
0
40
0
40
0
40
0
40
0.111041966205871
40
0.111041966205871
40
0.19749637379895
40
0.19749637379895
40
0.283953251399536
40
0.283953251399536
40
0.412843659779893
40
0.412843659779893
40
0.506815676298084
40
0.506815676298084
40
0.600809073094549
40
0.600809073094549
40
0.694800853207012
40
0.694800853207012
40
0.992146325077766
40
0.992146325077766
40
1
40
1
40
1
40
1
41
1
10
57.2614856965185
20
5.76506483198961
30
0
41
1
10
57.2510016605315
20
5.78711466655783
30
0
41
1
10
57.2455894996274
20
5.80727503999157
30
0
41
1
10
57.2458001388236
20
5.84304718333384
30
0
41
1
10
57.2492877523628
20
5.85707369089867
30
0
41
1
10
57.2636720364327
20
5.88431286778499
30
0
41
1
10
57.2742532313112
20
5.89680748052244
30
0
41
1
10
57.3117557165796
20
5.92664835732405
30
0
41
1
10
57.3421707105764
20
5.94172864944551
30
0
41
1
10
57.4107692341693
20
5.96461392769238
30
0
41
1
10
57.443630971998
20
5.97296436373597
30
0
41
1
10
57.5203009387033
20
5.98792293603724
30
0
41
1
10
57.5617564499798
20
5.99407203451571
30
0
41
1
10
57.6535250129722
20
6.00477928686139
30
0
41
1
10
57.7010141407848
20
6.0090440175977
30
0
41
1
10
57.9262944902908
20
6.02466946927354
30
0
41
1
10
58.1206524329585
20
6.02853686830979
30
0
41
1
10
58.3206583958305
20
6.02905109189127
30
0
41
1
10
58.325806394571
20
6.02905488776048
30
0
41
1
10
58.3309548611208
20
6.02906255510022
30
0
0
SPLINE
5
9A
100
AcDbEntity
8
1
62
256
6
ByLayer
370
18
48
1
60
0
100
AcDbSpline
70
4
71
3
72
22
73
18
40
0
40
0
40
0
40
0
40
0.133216531295829
40
0.133216531295829
40
0.419050731972247
40
0.419050731972247
40
0.513733684523379
40
0.513733684523379
40
0.608416571100755
40
0.608416571100755
40
0.703065622300796
40
0.703065622300796
40
0.82546626000059
40
0.82546626000059
40
0.98842287864187
40
0.98842287864187
40
1
40
1
40
1
40
1
41
1
10
61.0776697467701
20
-4.99773092644771
30
0
41
1
10
60.9842770194491
20
-4.99679066252674
30
0
41
1
10
60.8917290764734
20
-4.98975945986714
30
0
41
1
10
60.6084302131086
20
-4.94969142009791
30
0
41
1
10
60.4266683135625
20
-4.89625103961833
30
0
41
1
10
60.2178725853206
20
-4.79122274920525
30
0
41
1
10
60.1713503034684
20
-4.76381983381681
30
0
41
1
10
60.0821929892186
20
-4.7030010500703
30
0
41
1
10
60.0413552322243
20
-4.67064917650679
30
0
41
1
10
59.9653305004474
20
-4.6004581336026
30
0
41
1
10
59.9315114007328
20
-4.56386702925558
30
0
41
1
10
59.8613518723943
20
-4.47472519723618
30
0
41
1
10
59.8281664276643
20
-4.42190157327511
30
0
41
1
10
59.7640438340307
20
-4.29014066508669
30
0
41
1
10
59.7392205338338
20
-4.21269172784406
30
0
41
1
10
59.7235372744175
20
-4.12311607516611
30
0
41
1
10
59.7225972555584
20
-4.11738461039699
30
0
41
1
10
59.7216776934861
20
-4.1114713958021
30
0
0
SPLINE
5
9B
100
AcDbEntity
8
1
62
256
6
ByLayer
370
18
48
1
60
0
100
AcDbSpline
70
4
71
3
72
50
73
46
40
0
40
0
40
0
40
0
40
0.0295058205747777
40
0.0295058205747777
40
0.0965396619515821
40
0.0965396619515821
40
0.146875965395931
40
0.146875965395931
40
0.197207888893361
40
0.197207888893361
40
0.264196990513024
40
0.264196990513024
40
0.308843441548366
40
0.308843441548366
40
0.353489892510903
40
0.353489892510903
40
0.39342630796952
40
0.39342630796952
40
0.4333627233758
40
0.4333627233758
40
0.504192039609553
40
0.504192039609553
40
0.55102370800006
40
0.55102370800006
40
0.597855376314719
40
0.597855376314719
40
0.640016983037087
40
0.640016983037087
40
0.682178589753948
40
0.682178589753948
40
0.719562711488509
40
0.719562711488509
40
0.75694683322307
40
0.75694683322307
40
0.823377574707646
40
0.823377574707646
40
0.867322281007225
40
0.867322281007225
40
0.911266987357097
40
0.911266987357097
40
0.950830800749927
40
0.950830800749927
40
0.990394614191197
40
0.990394614191197
40
1
40
1
40
1
40
1
41
1
10
59.7216776934991
20
-4.1114713958387
30
0
41
1
10
59.6553202765822
20
-4.03174109194041
30
0
41
1
10
59.5898345745618
20
-3.95074085149262
30
0
41
1
10
59.3740603813326
20
-3.67606222717728
30
0
41
1
10
59.2269510293123
20
-3.47653107544063
30
0
41
1
10
58.9723464283548
20
-3.10895224264572
30
0
41
1
10
58.8645944481618
20
-2.94608148965612
30
0
41
1
10
58.6526158434347
20
-2.61047395925251
30
0
41
1
10
58.5483880693712
20
-2.43773690563016
30
0
41
1
10
58.3103587001429
20
-2.02425728711804
30
0
41
1
10
58.1790408145146
20
-1.78155342622631
30
0
41
1
10
57.96656168476
20
-1.36193228463264
30
0
41
1
10
57.8847372661091
20
-1.19295842576156
30
0
41
1
10
57.7253102134411
20
-0.84798653164075
30
0
41
1
10
57.6490922644859
20
-0.675076740856202
30
0
41
1
10
57.507426784999
20
-0.336675328673678
30
0
41
1
10
57.444394945681
20
-0.178783970273301
30
0
41
1
10
57.3222752102853
20
0.14280600226175
30
0
41
1
10
57.2644482094173
20
0.303224526463033
30
0
41
1
10
57.1100334949335
20
0.756913159620282
30
0
41
1
10
57.0227940278664
20
1.04280308896121
30
0
41
1
10
56.8939569796983
20
1.52423159662619
30
0
41
1
10
56.8483869946329
20
1.71221918828836
30
0
41
1
10
56.7672310691437
20
2.0876350756471
30
0
41
1
10
56.7326865982694
20
2.26972745226901
30
0
41
1
10
56.6760216004248
20
2.62243214962799
30
0
41
1
10
56.6548575784479
20
2.78084739421637
30
0
41
1
10
56.6213625243397
20
3.09709894822165
30
0
41
1
10
56.6096541816646
20
3.24950617507721
30
0
41
1
10
56.5967266169771
20
3.53610512330329
30
0
41
1
10
56.5947650192318
20
3.66382898682728
30
0
41
1
10
56.5986523725589
20
3.91490645771955
30
0
41
1
10
56.6044701055484
20
4.03498805878757
30
0
41
1
10
56.6321131524732
20
4.36271585623714
30
0
41
1
10
56.6616337642889
20
4.55268350578201
30
0
41
1
10
56.7314482561822
20
4.84803094789616
30
0
41
1
10
56.7639013219301
20
4.95644585100906
30
0
41
1
10
56.8389683184981
20
5.16010141251737
30
0
41
1
10
56.880468060176
20
5.25266264557875
30
0
41
1
10
56.9706821872397
20
5.41905768051699
30
0
41
1
10
57.0155934553821
20
5.4889117012276
30
0
41
1
10
57.1134801374297
20
5.61841793783739
30
0
41
1
10
57.165145787628
20
5.67616953916609
30
0
41
1
10
57.2343111436205
20
5.74115564173869
30
0
41
1
10
57.2477327087075
20
5.75322487670565
30
0
41
1
10
57.2614856964861
20
5.76506483206553
30
0
0
SPLINE
5
9C
100
AcDbEntity
8
1
62
256
6
ByLayer
370
18
48
1
60
0
100
AcDbSpline
70
4
71
3
72
12
73
8
40
0
40
0
40
0
40
0
40
0.927275177081421
40
0.927275177081421
40
0.999990081909958
40
0.999990081909958
40
1
40
1
40
1
40
1
41
1
10
61.2555897107162
20
6.03318587833625
30
0
41
1
10
61.3754218979834
20
6.24573088168223
30
0
41
1
10
61.49586297343
20
6.45795242458955
30
0
41
1
10
61.6262322596896
20
6.68655695887889
30
0
41
1
10
61.6357149318154
20
6.70317858842179
30
0
41
1
10
61.6451979601421
20
6.7197946059724
30
0
41
1
10
61.6452029173616
20
6.71980329193672
30
0
41
1
10
61.645207874581
20
6.71981197790103
30
0
0
SPLINE
5
9D
100
AcDbEntity
8
1
62
256
6
ByLayer
370
18
48
1
60
0
100
AcDbSpline
70
4
71
3
72
52
73
48
40
0
40
0
40
0
40
0
40
0.0175690580955133
40
0.0175690580955133
40
0.0706521655377695
40
0.0706521655377695
40
0.123779012146858
40
0.123779012146858
40
0.194393741976031
40
0.194393741976031
40
0.24214999255634
40
0.24214999255634
40
0.289851635813258
40
0.289851635813258
40
0.333214209964578
40
0.333214209964578
40
0.376504949167364
40
0.376504949167364
40
0.414076335283043
40
0.414076335283043
40
0.451601639121933
40
0.451601639121933
40
0.484538677045811
40
0.484538677045811
40
0.517475733424127
40
0.517475733424127
40
0.547901154699739
40
0.547901154699739
40
0.578361124382859
40
0.578361124382859
40
0.632805937456696
40
0.632805937456696
40
0.704076770131117
40
0.704076770131117
40
0.751026018471434
40
0.751026018471434
40
0.798079600051059
40
0.798079600051059
40
0.840175989491296
40
0.840175989491296
40
0.882315121333261
40
0.882315121333261
40
0.919628695766136
40
0.919628695766136
40
0.956943688077085
40
0.956943688077085
40
1
40
1
40
1
40
1
41
1
10
58.3820687659965
20
1.26644062071188
30
0
41
1
10
58.3825698698466
20
1.25740243259366
30
0
41
1
10
58.3834400125391
20
1.24937353052683
30
0
41
1
10
58.3886666099161
20
1.21917924726949
30
0
41
1
10
58.3963255449907
20
1.20370684793538
30
0
41
1
10
58.4186125979747
20
1.18764665675375
30
0
41
1
10
58.4332375764019
20
1.18705638226264
30
0
41
1
10
58.4739191209952
20
1.20226288556377
30
0
41
1
10
58.5008567332835
20
1.22238381451397
30
0
41
1
10
58.552816065213
20
1.27557108075146
30
0
41
1
10
58.5735152334135
20
1.30016911167062
30
0
41
1
10
58.616895487388
20
1.35828643292092
30
0
41
1
10
58.6380020032356
20
1.38958008188409
30
0
41
1
10
58.6803539521542
20
1.46062154630319
30
0
41
1
10
58.6986007501825
20
1.49464769269514
30
0
41
1
10
58.7342926088492
20
1.57003715683274
30
0
41
1
10
58.7506383382206
20
1.60916833459877
30
0
41
1
10
58.7779644454041
20
1.68972896054222
30
0
41
1
10
58.7884049868235
20
1.72735861632797
30
0
41
1
10
58.804198731377
20
1.80742707833529
30
0
41
1
10
58.8092153488729
20
1.84758339379717
30
0
41
1
10
58.8108177614284
20
1.93002193612335
30
0
41
1
10
58.8082658344717
20
1.96690230912189
30
0
41
1
10
58.7953955402428
20
2.0435393451454
30
0
41
1
10
58.7857931388692
20
2.07975939311501
30
0
41
1
10
58.7579379782936
20
2.15498758853526
30
0
41
1
10
58.7428786667744
20
2.1868939488632
30
0
41
1
10
58.7069749362077
20
2.25234954405351
30
0
41
1
10
58.6875948650817
20
2.28297705432213
30
0
41
1
10
58.6259578830607
20
2.37075355657599
30
0
41
1
10
58.5847723172471
20
2.42015374921422
30
0
41
1
10
58.4817781400624
20
2.53447530137971
30
0
41
1
10
58.4229938978923
20
2.59305262549388
30
0
41
1
10
58.3236649297566
20
2.68899850101564
30
0
41
1
10
58.2860290781847
20
2.72442792080271
30
0
41
1
10
58.2119346596699
20
2.79394708486656
30
0
41
1
10
58.1773983729545
20
2.82619383371805
30
0
41
1
10
58.1122101290504
20
2.88780805114512
30
0
41
1
10
58.0852389092548
20
2.91362043087077
30
0
41
1
10
58.0343748181012
20
2.96368410374141
30
0
41
1
10
58.0122891609448
20
2.98612975294543
30
0
41
1
10
57.9745617890557
20
3.02676794724937
30
0
41
1
10
57.9606821219473
20
3.04277409999389
30
0
41
1
10
57.9378583614227
20
3.07186567400951
30
0
41
1
10
57.9297788606743
20
3.08383044508957
30
0
41
1
10
57.9187090013274
20
3.10606814589593
30
0
41
1
10
57.9175737215772
20
3.1138766936669
30
0
41
1
10
57.9206092425562
20
3.11898778228932
30
0
0
LINE
5
70
100
AcDbEntity
8
SK1
62
256
6
ByLayer
370
18
48
1
60
0
100
AcDbLine
10
-107.5
20
5.9925
30
0
11
-108
21
5.4925
31
0
39
0
210
0
220
0
230
1
0
LINE
5
72
100
AcDbEntity
8
SK1
62
256
6
ByLayer
370
18
48
1
60
0
100
AcDbLine
10
-108
20
-5.4925
30
0
11
-108
21
5.4925
31
0
39
0
210
0
220
0
230
1
0
LINE
5
73
100
AcDbEntity
8
SK1
62
256
6
ByLayer
370
18
48
1
60
0
100
AcDbLine
10
-107.5
20
-5.9925
30
0
11
-108
21
-5.4925
31
0
39
0
210
0
220
0
230
1
0
LINE
5
74
100
AcDbEntity
8
1
62
256
6
ByLayer
370
18
48
1
60
0
100
AcDbLine
10
61.265071
20
6.05
30
0
11
47.456022
21
6.05
31
0
39
0
210
0
220
0
230
1
0
LINE
5
76
100
AcDbEntity
8
1
62
256
6
ByLayer
370
18
48
1
60
0
100
AcDbLine
10
47.411622
20
5.9925
30
0
11
47.456022
21
6.05
31
0
39
0
210
0
220
0
230
1
0
LINE
5
77
100
AcDbEntity
8
1
62
256
6
ByLayer
370
18
48
1
60
0
100
AcDbLine
10
47.411622
20
-5.9925
30
0
11
47.456022
21
-6.05
31
0
39
0
210
0
220
0
230
1
0
LINE
5
78
100
AcDbEntity
8
1
62
256
6
ByLayer
370
18
48
1
60
0
100
AcDbLine
10
72.431512
20
0.890042
30
0
11
72.431512
21
-4.234956
31
0
39
0
210
0
220
0
230
1
0
LINE
5
79
100
AcDbEntity
8
1
62
256
6
ByLayer
370
18
48
1
60
0
100
AcDbLine
10
68.874066
20
6.688254
30
0
11
61.6452
21
6.719799
31
0
39
0
210
0
220
0
230
1
0
LINE
5
7A
100
AcDbEntity
8
1
62
256
6
ByLayer
370
18
48
1
60
0
100
AcDbLine
10
57.649165
20
-6.05
30
0
11
72.431512
21
-4.234956
31
0
39
0
210
0
220
0
230
1
0
LINE
5
7B
100
AcDbEntity
8
1
62
256
6
ByLayer
370
18
48
1
60
0
100
AcDbLine
10
59.721678
20
-4.111471
30
0
11
58.382069
21
1.266441
31
0
39
0
210
0
220
0
230
1
0
LINE
5
7C
100
AcDbEntity
8
1
62
256
6
ByLayer
370
18
48
1
60
0
100
AcDbLine
10
61.07767
20
-4.997731
30
0
11
58.330955
21
6.029063
31
0
39
0
210
0
220
0
230
1
0
LINE
5
7D
100
AcDbEntity
8
1
62
256
6
ByLayer
370
18
48
1
60
0
100
AcDbLine
10
57.261486
20
5.765065
30
0
11
57.920609
21
3.118988
31
0
39
0
210
0
220
0
230
1
0
LINE
5
7E
100
AcDbEntity
8
SK1
62
256
6
ByLayer
370
18
48
1
60
0
100
AcDbLine
10
-107.5
20
-5.9925
30
0
11
-107.5
21
5.9925
31
0
39
0
210
0
220
0
230
1
0
LINE
5
7F
100
AcDbEntity
8
1
62
256
6
ByLayer
370
18
48
1
60
0
100
AcDbLine
10
47.411622
20
-5.9925
30
0
11
47.411622
21
5.9925
31
0
39
0
210
0
220
0
230
1
0
LINE
5
80
100
AcDbEntity
8
1
62
256
6
ByLayer
370
18
48
1
60
0
100
AcDbLine
10
57.649165
20
-6.05
30
0
11
47.456022
21
-6.05
31
0
39
0
210
0
220
0
230
1
0
LINE
5
81
100
AcDbEntity
8
1
62
256
6
ByLayer
370
18
48
1
60
0
100
AcDbLine
10
47.411622
20
-5.9925
30
0
11
0
21
-5.9925
31
0
39
0
210
0
220
0
230
1
0
LINE
5
82
100
AcDbEntity
8
1
62
256
6
ByLayer
370
18
48
1
60
0
100
AcDbLine
10
47.411622
20
5.9925
30
0
11
0
21
5.9925
31
0
39
0
210
0
220
0
230
1
0
LINE
5
83
100
AcDbEntity
8
80
62
256
6
ByLayer
370
18
48
1
60
0
100
AcDbLine
10
0
20
0
30
0
11
-5
21
0
31
0
39
0
210
0
220
0
230
1
0
LINE
5
84
100
AcDbEntity
8
SK4
62
256
6
ByLayer
370
18
48
0.05
60
0
100
AcDbLine
10
-108
20
0
30
0
11
78.700999
21
0
31
0
39
0
210
0
220
0
230
1
0
LINE
5
86
100
AcDbEntity
8
1
62
256
6
ByLayer
370
18
48
1
60
0
100
AcDbLine
10
64.14878
20
3.627188
30
0
11
65.126823
21
4.524782
31
0
39
0
210
0
220
0
230
1
0
LINE
5
87
100
AcDbEntity
8
1
62
256
6
ByLayer
370
18
48
1
60
0
100
AcDbLine
10
65.126823
20
4.524782
30
0
11
69.819189
21
7.233921
31
0
39
0
210
0
220
0
230
1
0
LINE
5
88
100
AcDbEntity
8
1
62
256
6
ByLayer
370
18
48
1
60
0
100
AcDbLine
10
69.819189
20
7.233921
30
0
11
71.669925
21
6.887989
31
0
39
0
210
0
220
0
230
1
0
LINE
5
89
100
AcDbEntity
8
1
62
256
6
ByLayer
370
18
48
1
60
0
100
AcDbLine
10
71.669925
20
6.887989
30
0
11
72.373305
21
7.872721
31
0
39
0
210
0
220
0
230
1
0
LINE
5
8A
100
AcDbEntity
8
1
62
256
6
ByLayer
370
18
48
1
60
0
100
AcDbLine
10
72.373305
20
7.872721
30
0
11
72.661622
21
6.576914
31
0
39
0
210
0
220
0
230
1
0
LINE
5
8B
100
AcDbEntity
8
1
62
256
6
ByLayer
370
18
48
1
60
0
100
AcDbLine
10
72.661622
20
6.576914
30
0
11
72.661622
21
1.158636
31
0
39
0
210
0
220
0
230
1
0
LINE
5
8C
100
AcDbEntity
8
1
62
256
6
ByLayer
370
18
48
1
60
0
100
AcDbLine
10
72.661622
20
1.158636
30
0
11
71.436668
21
-0.271182
31
0
39
0
210
0
220
0
230
1
0
LINE
5
8D
100
AcDbEntity
8
1
62
256
6
ByLayer
370
18
48
1
60
0
100
AcDbLine
10
71.436668
20
-0.271182
30
0
11
71.937781
21
-1.372693
31
0
39
0
210
0
220
0
230
1
0
LINE
5
8E
100
AcDbEntity
8
1
62
256
6
ByLayer
370
18
48
1
60
0
100
AcDbLine
10
71.937781
20
-1.372693
30
0
11
70.671421
21
-0.974479
31
0
39
0
210
0
220
0
230
1
0
LINE
5
8F
100
AcDbEntity
8
1
62
256
6
ByLayer
370
18
48
1
60
0
100
AcDbLine
10
70.671421
20
-0.974479
30
0
11
65.979055
21
1.734659
31
0
39
0
210
0
220
0
230
1
0
LINE
5
90
100
AcDbEntity
8
1
62
256
6
ByLayer
370
18
48
1
60
0
100
AcDbLine
10
65.979055
20
1.734659
30
0
11
65.353273
21
3.510409
31
0
39
0
210
0
220
0
230
1
0
LINE
5
91
100
AcDbEntity
8
1
62
256
6
ByLayer
370
18
48
1
60
0
100
AcDbLine
10
65.353273
20
3.510409
30
0
11
64.14878
21
3.627188
31
0
39
0
210
0
220
0
230
1
0
LINE
5
92
100
AcDbEntity
8
81
62
256
6
ByLayer
370
18
48
1
60
0
100
AcDbLine
10
77.661622
20
8.875
30
0
11
72.661622
21
8.875
31
0
39
0
210
0
220
0
230
1
0
LINE
5
93
100
AcDbEntity
8
SK1
62
256
6
ByLayer
370
18
48
1
60
0
100
AcDbLine
10
0
20
5.9925
30
0
11
-107.5
21
5.9925
31
0
39
0
210
0
220
0
230
1
0
LINE
5
94
100
AcDbEntity
8
SK1
62
256
6
ByLayer
370
18
48
1
60
0
100
AcDbLine
10
0
20
-5.9925
30
0
11
-107.5
21
-5.9925
31
0
39
0
210
0
220
0
230
1
0
MTEXT
5
9E
100
AcDbEntity
8
SK6
62
256
6
ByLayer
370
18
48
1
60
0
100
AcDbMText
10
-39.071565
20
-22.80353
30
0
210
0
220
0
230
1
1
\W1.1675;R166.0KF-12E-11
40
3.5
41
0
44
0.903614
50
0
71
7
72
5
7
blockfont
0
DIMENSION
5
B1
100
AcDbEntity
8
SK2
62
256
6
ByLayer
370
13
48
1
60
0
100
AcDbDimension
2
DimnDraft3D1
10
5.9925
20
119.044804
30
0
11
13.03858
21
119.044804
31
0
70
32
71
5
72
1
41
1
210
0
220
0
230
1
3
Standard
100
AcDbAlignedDimension
13
-5.9925
23
109
33
0
14
5.9925
24
109
34
0
50
0
100
AcDbRotatedDimension
1001
ACAD
1000
DSTYLE
1002
{
1070
   279
1070
     0
1070
   173
1070
     1
1070
   340
1005
A4
1070
   271
1070
     2
1070
   272
1070
     2
1070
    77
1070
     1
1070
    73
1070
     0
1070
   171
1070
     4
1070
   274
1070
     4
1070
   177
1070
     7
1070
   176
1070
     7
1070
   178
1070
     7
1070
    48
1040
0.007874
1070
    41
1041
3.0
1070
   147
1041
1.5
1070
    42
1041
1.5
1070
    44
1041
3.0
1070
   140
1041
3.0
1070
   343
1005
B2
1070
   344
1005
B2
1002
}
0
DIMENSION
5
C8
100
AcDbEntity
8
2
62
256
6
ByLayer
370
13
48
1
60
0
100
AcDbDimension
2
DimnDraft3D2
10
8.875
20
-90.144914
30
0
11
2.096711
21
-90.144914
31
0
70
32
71
5
72
1
41
1
210
0
220
0
230
1
3
Standard
100
AcDbAlignedDimension
13
0
23
-80.200999
33
0
14
8.875
24
-74.161622
34
0
50
0
100
AcDbRotatedDimension
1001
ACAD
1000
DSTYLE
1002
{
1070
   279
1070
     0
1070
   173
1070
     1
1070
   340
1005
A4
1070
   271
1070
     2
1070
   272
1070
     2
1070
    77
1070
     1
1070
    73
1070
     0
1070
   171
1070
     4
1070
   274
1070
     4
1070
   177
1070
     7
1070
   176
1070
     7
1070
   178
1070
     7
1070
    48
1040
0.007874
1070
    41
1041
3.0
1070
   147
1041
1.5
1070
    42
1041
1.5
1070
    44
1041
3.0
1070
   140
1041
3.0
1070
   343
1005
B2
1070
   344
1005
B2
1002
}
0
DIMENSION
5
D6
100
AcDbEntity
8
2
62
256
6
ByLayer
370
13
48
1
60
0
100
AcDbDimension
2
DimnDraft3D3
10
-21.186162
20
72.661622
30
0
11
-21.186162
21
56.594517
31
0
70
32
71
5
72
1
41
1
210
0
220
0
230
1
3
Standard
100
AcDbAlignedDimension
13
-7.4925
23
47.411622
33
0
14
-10.375
24
72.661622
34
0
50
90
100
AcDbRotatedDimension
1001
ACAD
1000
DSTYLE
1002
{
1070
    74
1070
     0
1070
   279
1070
     0
1070
   173
1070
     1
1070
   340
1005
A4
1070
   271
1070
     2
1070
   272
1070
     2
1070
    77
1070
     1
1070
    73
1070
     0
1070
   171
1070
     4
1070
   274
1070
     4
1070
   177
1070
     7
1070
   176
1070
     7
1070
   178
1070
     7
1070
    48
1040
0.007874
1070
    41
1041
3.0
1070
   147
1041
1.5
1070
    42
1041
1.5
1070
    44
1041
3.0
1070
   140
1041
3.0
1070
   343
1005
B2
1070
   344
1005
B2
1002
}
0
DIMENSION
5
E4
100
AcDbEntity
8
SK2
62
256
6
ByLayer
370
13
48
1
60
0
100
AcDbDimension
2
DimnDraft3D4
10
-32.208327
20
-108
30
0
11
-32.208327
21
-20.148136
31
0
70
32
71
5
72
1
41
1
210
0
220
0
230
1
3
Standard
100
AcDbAlignedDimension
13
-10.375
23
72.661622
33
0
14
-6.9925
24
-108
34
0
50
90
100
AcDbRotatedDimension
1001
ACAD
1000
DSTYLE
1002
{
1070
    74
1070
     0
1070
   279
1070
     0
1070
   173
1070
     1
1070
   340
1005
A4
1070
   271
1070
     2
1070
   272
1070
     2
1070
    77
1070
     1
1070
    73
1070
     0
1070
   171
1070
     4
1070
   274
1070
     4
1070
   177
1070
     7
1070
   176
1070
     7
1070
   178
1070
     7
1070
    48
1040
0.007874
1070
    41
1041
3.0
1070
   147
1041
1.5
1070
    42
1041
1.5
1070
    44
1041
3.0
1070
   140
1041
3.0
1070
   343
1005
B2
1070
   344
1005
B2
1002
}
0
ENDSEC
0
SECTION
2
OBJECTS
0
DICTIONARY
5
14f
330
0
100
AcDbDictionary
280
0
281
1
3
ACAD_GROUP
350
150
3
ACAD_MLINESTYLE
350
151
0
DICTIONARY
5
150
330
0
100
AcDbDictionary
280
0
281
1
0
DICTIONARY
5
151
330
0
100
AcDbDictionary
280
0
281
1
3
Standard
350
18
0
MLINESTYLE
5
18
330
151
100
AcDbMlineStyle
2
Standard
70
0
3

62
256
51
90
52
90
71
2
49
-0.5
62
256
6
ByLayer
49
0.5
62
256
6
ByLayer
0
RASTERVARIABLES
5
13d
330

100
AcDbRasterVariables
90
0
70
1
71
1
72
1
0
ENDSEC
0
EOF
