0
SECTION
2
HEADER
9
$ACADVER
1
AC1015
9
$DWGCODEPAGE
3
ANSI_1252
9
$HANDSEED
5
19e
9
$ANGBASE
50
0
9
$ANGDIR
70
0
9
$ATTMODE
70
1
9
$AUNITS
70
0
9
$AUPREC
70
0
9
$CECOLOR
62
256
9
$CELTSCALE
40
1
9
$CELTYPE
6
ByLayer
9
$CELWEIGHT
370
-1
9
$CLAYER
8
0
9
$CMLJUST
70
0
9
$CMLSCALE
40
1
9
$CMLSTYLE
2
Standard
9
$DIMSTYLE
2
Standard
9
$TEXTSIZE
40
0.2
9
$TEXTSTYLE
7
Standard
9
$LUNITS
70
2
9
$LUPREC
70
4
9
$EXTNAMES
290
1
9
$INSUNITS
70
4
9
$LTSCALE
40
1
9
$LWDISPLAY
290
0
9
$PDMODE
70
0
9
$PDSIZE
40
0
9
$PLINEGEN
70
0
0
ENDSEC
0
SECTION
2
CLASSES
0
CLASS
1
RASTERVARIABLES
2
AcDbRasterVariables
3
ISM
90
0
280
0
281
0
0
ENDSEC
0
SECTION
2
TABLES
0
TABLE
2
VPORT
5
194
100
AcDbSymbolTable
0
VPORT
5
1
100
AcDbSymbolTableRecord
100
AcDbViewportTableRecord
2
*Active
70
0
10
0
20
0
11
1
21
1
12
-1
22
1
13
0
23
0
14
0.5
24
0.5
15
10
25
10
16
0
26
0
36
1
17
0
27
0
37
0
0
ENDTAB
0
TABLE
2
LTYPE
5
195
100
AcDbSymbolTable
0
LTYPE
5
14
100
AcDbSymbolTableRecord
100
AcDbLinetypeTableRecord
70
0
2
ByBlock
3

72
65
73
0
40
0
0
LTYPE
5
15
100
AcDbSymbolTableRecord
100
AcDbLinetypeTableRecord
70
0
2
ByLayer
3

72
65
73
0
40
0
0
LTYPE
5
16
100
AcDbSymbolTableRecord
100
AcDbLinetypeTableRecord
70
0
2
CONTINUOUS
3
Solid line
72
65
73
0
40
0
0
LTYPE
5
3B
100
AcDbSymbolTableRecord
100
AcDbLinetypeTableRecord
70
0
2
DASHED
3
__ __ __ __ __ __ __ __ __
72
65
73
2
40
25.72
49
12.86
74
0
49
-12.86
74
0
0
LTYPE
5
3C
100
AcDbSymbolTableRecord
100
AcDbLinetypeTableRecord
70
0
2
HIDDEN
3
_ _ _ _ _ _ _ _ _ _ _ _ _ _ _
72
65
73
2
40
0.5
49
0.25
74
0
49
-0.25
74
0
0
LTYPE
5
3D
100
AcDbSymbolTableRecord
100
AcDbLinetypeTableRecord
70
0
2
PHANTOM
3
____ _ _ ____ _ _ _____ _ _ ____
72
65
73
6
40
50.5
49
18
74
0
49
-6.5
74
0
49
6.5
74
0
49
-6.5
74
0
49
6.5
74
0
49
-6.5
74
0
0
LTYPE
5
3E
100
AcDbSymbolTableRecord
100
AcDbLinetypeTableRecord
70
0
2
CENTER
3
____ _ ____ _ ____ _ ____
72
65
73
4
40
47.5
49
22
74
0
49
-8.5
74
0
49
8.5
74
0
49
-8.5
74
0
0
LTYPE
5
3F
100
AcDbSymbolTableRecord
100
AcDbLinetypeTableRecord
70
0
2
DOT
3
.........................
72
65
73
2
40
10
49
0
74
0
49
-10
74
0
0
LTYPE
5
40
100
AcDbSymbolTableRecord
100
AcDbLinetypeTableRecord
70
0
2
DASHDOT
3
_._._._._._._._._._._._._._._._.
72
65
73
4
40
70
49
31
74
0
49
-13
74
0
49
13
74
0
49
-13
74
0
0
ENDTAB
0
TABLE
2
LAYER
5
196
100
AcDbSymbolTable
0
LAYER
5
10
100
AcDbSymbolTableRecord
100
AcDbLayerTableRecord
2
0
70
0
62
7
6
CONTINUOUS
290
1
370
-3
390
0
0
LAYER
5
42
100
AcDbSymbolTableRecord
100
AcDbLayerTableRecord
2
80
70
0
62
-6
6
CONTINUOUS
290
1
370
-3
390
0
0
LAYER
5
44
100
AcDbSymbolTableRecord
100
AcDbLayerTableRecord
2
81
70
0
62
-3
6
CONTINUOUS
290
1
370
-3
390
0
0
LAYER
5
48
100
AcDbSymbolTableRecord
100
AcDbLayerTableRecord
2
1
70
0
62
4
6
CONTINUOUS
290
1
370
-3
390
0
0
LAYER
5
139
100
AcDbSymbolTableRecord
100
AcDbLayerTableRecord
2
2
70
0
62
7
6
CONTINUOUS
290
1
370
-3
390
0
0
LAYER
5
181
100
AcDbSymbolTableRecord
100
AcDbLayerTableRecord
2
SK1
70
0
62
4
6
CONTINUOUS
290
1
370
-3
390
0
0
LAYER
5
182
100
AcDbSymbolTableRecord
100
AcDbLayerTableRecord
2
SK6
70
0
62
5
6
CONTINUOUS
290
1
370
-3
390
0
0
LAYER
5
183
100
AcDbSymbolTableRecord
100
AcDbLayerTableRecord
2
SK2
70
0
62
7
6
CONTINUOUS
290
1
370
-3
390
0
0
ENDTAB
0
TABLE
2
STYLE
5
197
100
AcDbSymbolTable
0
STYLE
5
11
100
AcDbSymbolTableRecord
100
AcDbTextStyleTableRecord
2
Standard
3
txt
70
0
71
0
40
0
41
1
42
0
50
0
0
STYLE
5
EE
100
AcDbSymbolTableRecord
100
AcDbTextStyleTableRecord
2
DEFAULT
3
simplex.shx
70
0
71
0
40
0
41
1
42
0
50
0
0
STYLE
5
111
100
AcDbSymbolTableRecord
100
AcDbTextStyleTableRecord
2
DWGDirectTextStyle
3
SIMPLEX
70
0
71
0
40
0
41
1
42
0
50
0
0
ENDTAB
0
TABLE
2
DIMSTYLE
5
198
100
AcDbSymbolTable
100
AcDbDimStyleTable
0
DIMSTYLE
105
27
100
AcDbSymbolTableRecord
100
AcDbDimStyleTableRecord
2
Standard
70
0
3
<>
41
0.18
42
0.0625
44
0.18
140
0.18
147
0.09
73
0
74
0
77
1
271
2
275
0
278
52
280
0
340
11
0
ENDTAB
0
TABLE
2
VIEW
5
199
100
AcDbSymbolTable
0
ENDTAB
0
TABLE
2
UCS
5
19a
100
AcDbSymbolTable
0
ENDTAB
0
TABLE
2
APPID
5
19b
100
AcDbSymbolTable
0
APPID
5
12
100
AcDbSymbolTableRecord
100
AcDbRegAppTableRecord
2
ACAD
70
0
0
ENDTAB
0
TABLE
2
BLOCK_RECORD
5
19c
100
AcDbSymbolTable
0
BLOCK_RECORD
5
1F
100
AcDbSymbolTableRecord
100
AcDbBlockTableRecord
2
*Model_Space
340
0
70
0
0
BLOCK_RECORD
5
1B
100
AcDbSymbolTableRecord
100
AcDbBlockTableRecord
2
*Paper_Space
340
0
70
0
0
BLOCK_RECORD
5
23
100
AcDbSymbolTableRecord
100
AcDbBlockTableRecord
2
*Paper_Space0
340
0
70
0
0
BLOCK_RECORD
5
113
100
AcDbSymbolTableRecord
100
AcDbBlockTableRecord
2
DimnDraft3D1
340
0
70
0
0
BLOCK_RECORD
5
122
100
AcDbSymbolTableRecord
100
AcDbBlockTableRecord
2
_CLOSED
340
0
70
0
0
BLOCK_RECORD
5
129
100
AcDbSymbolTableRecord
100
AcDbBlockTableRecord
2
DimnDraft3D2
340
0
70
0
0
BLOCK_RECORD
5
137
100
AcDbSymbolTableRecord
100
AcDbBlockTableRecord
2
DimnDraft3D3
340
0
70
0
0
BLOCK_RECORD
5
146
100
AcDbSymbolTableRecord
100
AcDbBlockTableRecord
2
DimnDraft3D4
340
0
70
0
0
BLOCK_RECORD
5
154
100
AcDbSymbolTableRecord
100
AcDbBlockTableRecord
2
DimnDraft3D5
340
0
70
0
0
ENDTAB
0
ENDSEC
0
SECTION
2
BLOCKS
0
BLOCK
5
20
100
AcDbEntity
8
0
100
AcDbBlockBegin
2
*Model_Space
70
0
10
0
20
0
30
0
3
*Model_Space
0
ENDBLK
5
21
100
AcDbEntity
8
0
100
AcDbBlockEnd
0
BLOCK
5
1C
100
AcDbEntity
8
0
100
AcDbBlockBegin
2
*Paper_Space
70
0
10
0
20
0
30
0
3
*Paper_Space
0
ENDBLK
5
1D
100
AcDbEntity
8
0
100
AcDbBlockEnd
0
BLOCK
5
24
100
AcDbEntity
8
0
100
AcDbBlockBegin
2
*Paper_Space0
70
0
10
0
20
0
30
0
3
*Paper_Space0
0
ENDBLK
5
25
100
AcDbEntity
8
0
100
AcDbBlockEnd
0
BLOCK
5
11F
100
AcDbEntity
8
0
100
AcDbBlockBegin
2
DimnDraft3D1
70
0
10
0
20
0
30
0
3
DimnDraft3D1
0
MTEXT
5
114
100
AcDbEntity
8
SK2
62
256
6
ByLayer
370
-1
48
1
60
0
100
AcDbMText
10
-94.22505
20
-4.038158
30
0
210
0
220
0
230
1
1
\W01.000;\fsimplex.shx,bigfont.shx;25.0 
40
4.5
41
0
44
1.084337
50
90
71
7
72
5
7
DEFAULT
0
LINE
5
116
100
AcDbEntity
8
SK2
62
256
6
ByLayer
370
-1
48
1
60
0
100
AcDbLine
10
-85.5875
20
-12.4625
30
0
11
-96.27505
21
-12.4625
31
0
39
0
210
0
220
0
230
1
0
LINE
5
117
100
AcDbEntity
8
SK2
62
256
6
ByLayer
370
-1
48
1
60
0
100
AcDbLine
10
-85.5875
20
12.4625
30
0
11
-96.27505
21
12.4625
31
0
39
0
210
0
220
0
230
1
0
LINE
5
118
100
AcDbEntity
8
SK2
62
256
6
ByLayer
370
-1
48
1
60
0
100
AcDbLine
10
-93.10005
20
-12.4625
30
0
11
-93.10005
21
12.4625
31
0
39
0
210
0
220
0
230
1
0
LINE
5
119
100
AcDbEntity
8
SK2
62
256
6
ByLayer
370
-1
48
1
60
0
100
AcDbLine
10
-93.10005
20
-12.4625
30
0
11
-93.950789
21
-9.287503
31
0
39
0
210
0
220
0
230
1
0
LINE
5
11A
100
AcDbEntity
8
SK2
62
256
6
ByLayer
370
-1
48
1
60
0
100
AcDbLine
10
-93.10005
20
-12.4625
30
0
11
-92.249311
21
-9.287497
31
0
39
0
210
0
220
0
230
1
0
LINE
5
11B
100
AcDbEntity
8
SK2
62
256
6
ByLayer
370
-1
48
1
60
0
100
AcDbLine
10
-93.950789
20
-9.287503
30
0
11
-92.249311
21
-9.287497
31
0
39
0
210
0
220
0
230
1
0
LINE
5
11C
100
AcDbEntity
8
SK2
62
256
6
ByLayer
370
-1
48
1
60
0
100
AcDbLine
10
-93.10005
20
12.4625
30
0
11
-92.249311
21
9.287503
31
0
39
0
210
0
220
0
230
1
0
LINE
5
11D
100
AcDbEntity
8
SK2
62
256
6
ByLayer
370
-1
48
1
60
0
100
AcDbLine
10
-93.10005
20
12.4625
30
0
11
-93.950789
21
9.287497
31
0
39
0
210
0
220
0
230
1
0
LINE
5
11E
100
AcDbEntity
8
SK2
62
256
6
ByLayer
370
-1
48
1
60
0
100
AcDbLine
10
-92.249311
20
9.287503
30
0
11
-93.950789
21
9.287497
31
0
39
0
210
0
220
0
230
1
0
ENDBLK
5
120
100
AcDbEntity
8
0
100
AcDbBlockEnd
0
BLOCK
5
123
100
AcDbEntity
8
0
100
AcDbBlockBegin
2
_CLOSED
70
0
10
0
20
0
30
0
3
_CLOSED
0
LINE
5
125
100
AcDbEntity
8
0
62
256
6
ByLayer
370
-2
48
1
60
0
100
AcDbLine
10
-1
20
0.166667
30
0
11
0
21
0
31
0
39
0
210
0
220
0
230
1
0
LINE
5
126
100
AcDbEntity
8
0
62
256
6
ByLayer
370
-2
48
1
60
0
100
AcDbLine
10
0
20
0
30
0
11
-1
21
-0.166667
31
0
39
0
210
0
220
0
230
1
0
LINE
5
127
100
AcDbEntity
8
0
62
256
6
ByLayer
370
-2
48
1
60
0
100
AcDbLine
10
-1
20
0.166667
30
0
11
-1
21
-0.166667
31
0
39
0
210
0
220
0
230
1
0
LINE
5
128
100
AcDbEntity
8
0
62
256
6
ByLayer
370
-2
48
1
60
0
100
AcDbLine
10
0
20
0
30
0
11
-1
21
0
31
0
39
0
210
0
220
0
230
1
0
ENDBLK
5
124
100
AcDbEntity
8
0
100
AcDbBlockEnd
0
BLOCK
5
134
100
AcDbEntity
8
0
100
AcDbBlockBegin
2
DimnDraft3D2
70
0
10
0
20
0
30
0
3
DimnDraft3D2
0
MTEXT
5
12A
100
AcDbEntity
8
SK2
62
256
6
ByLayer
370
-1
48
1
60
0
100
AcDbMText
10
-25.127632
20
-41.4125
30
0
210
0
220
0
230
1
1
\W01.000;\fsimplex.shx,bigfont.shx;128.0 
40
4.5
41
0
44
1.084337
50
0
71
7
72
5
7
DEFAULT
0
LINE
5
12B
100
AcDbEntity
8
SK2
62
256
6
ByLayer
370
-1
48
1
60
0
100
AcDbLine
10
-84
20
-14.05
30
0
11
-84
21
-45.7125
31
0
39
0
210
0
220
0
230
1
0
LINE
5
12C
100
AcDbEntity
8
SK2
62
256
6
ByLayer
370
-1
48
1
60
0
100
AcDbLine
10
44
20
-14.625
30
0
11
44
21
-45.7125
31
0
39
0
210
0
220
0
230
1
0
LINE
5
12D
100
AcDbEntity
8
SK2
62
256
6
ByLayer
370
-1
48
1
60
0
100
AcDbLine
10
-84
20
-42.5375
30
0
11
44
21
-42.5375
31
0
39
0
210
0
220
0
230
1
0
LINE
5
12E
100
AcDbEntity
8
SK2
62
256
6
ByLayer
370
-1
48
1
60
0
100
AcDbLine
10
-84
20
-42.5375
30
0
11
-80.825003
21
-41.686761
31
0
39
0
210
0
220
0
230
1
0
LINE
5
12F
100
AcDbEntity
8
SK2
62
256
6
ByLayer
370
-1
48
1
60
0
100
AcDbLine
10
-84
20
-42.5375
30
0
11
-80.824997
21
-43.388239
31
0
39
0
210
0
220
0
230
1
0
LINE
5
130
100
AcDbEntity
8
SK2
62
256
6
ByLayer
370
-1
48
1
60
0
100
AcDbLine
10
-80.825003
20
-41.686761
30
0
11
-80.824997
21
-43.388239
31
0
39
0
210
0
220
0
230
1
0
LINE
5
131
100
AcDbEntity
8
SK2
62
256
6
ByLayer
370
-1
48
1
60
0
100
AcDbLine
10
44
20
-42.5375
30
0
11
40.825003
21
-43.388239
31
0
39
0
210
0
220
0
230
1
0
LINE
5
132
100
AcDbEntity
8
SK2
62
256
6
ByLayer
370
-1
48
1
60
0
100
AcDbLine
10
44
20
-42.5375
30
0
11
40.824997
21
-41.686761
31
0
39
0
210
0
220
0
230
1
0
LINE
5
133
100
AcDbEntity
8
SK2
62
256
6
ByLayer
370
-1
48
1
60
0
100
AcDbLine
10
40.825003
20
-43.388239
30
0
11
40.824997
21
-41.686761
31
0
39
0
210
0
220
0
230
1
0
ENDBLK
5
135
100
AcDbEntity
8
0
100
AcDbBlockEnd
0
BLOCK
5
143
100
AcDbEntity
8
0
100
AcDbBlockBegin
2
DimnDraft3D3
70
0
10
0
20
0
30
0
3
DimnDraft3D3
0
MTEXT
5
138
100
AcDbEntity
8
2
62
256
6
ByLayer
370
-1
48
1
60
0
100
AcDbMText
10
17.488158
20
20.43755
30
0
210
0
220
0
230
1
1
\W01.000;\fsimplex.shx,bigfont.shx;44.0 
40
4.5
41
0
44
1.084337
50
0
71
7
72
5
7
DEFAULT
0
LINE
5
13A
100
AcDbEntity
8
2
62
256
6
ByLayer
370
-1
48
1
60
0
100
AcDbLine
10
44
20
-11.45
30
0
11
44
21
22.48755
31
0
39
0
210
0
220
0
230
1
0
LINE
5
13B
100
AcDbEntity
8
2
62
256
6
ByLayer
370
-1
48
1
60
0
100
AcDbLine
10
0
20
14.05
30
0
11
0
21
22.48755
31
0
39
0
210
0
220
0
230
1
0
LINE
5
13C
100
AcDbEntity
8
2
62
256
6
ByLayer
370
-1
48
1
60
0
100
AcDbLine
10
44
20
19.31255
30
0
11
0
21
19.31255
31
0
39
0
210
0
220
0
230
1
0
LINE
5
13D
100
AcDbEntity
8
2
62
256
6
ByLayer
370
-1
48
1
60
0
100
AcDbLine
10
44
20
19.31255
30
0
11
40.825003
21
18.461811
31
0
39
0
210
0
220
0
230
1
0
LINE
5
13E
100
AcDbEntity
8
2
62
256
6
ByLayer
370
-1
48
1
60
0
100
AcDbLine
10
44
20
19.31255
30
0
11
40.824997
21
20.163289
31
0
39
0
210
0
220
0
230
1
0
LINE
5
13F
100
AcDbEntity
8
2
62
256
6
ByLayer
370
-1
48
1
60
0
100
AcDbLine
10
40.825003
20
18.461811
30
0
11
40.824997
21
20.163289
31
0
39
0
210
0
220
0
230
1
0
LINE
5
140
100
AcDbEntity
8
2
62
256
6
ByLayer
370
-1
48
1
60
0
100
AcDbLine
10
0
20
19.31255
30
0
11
3.174997
21
20.163289
31
0
39
0
210
0
220
0
230
1
0
LINE
5
141
100
AcDbEntity
8
2
62
256
6
ByLayer
370
-1
48
1
60
0
100
AcDbLine
10
0
20
19.31255
30
0
11
3.175003
21
18.461811
31
0
39
0
210
0
220
0
230
1
0
LINE
5
142
100
AcDbEntity
8
2
62
256
6
ByLayer
370
-1
48
1
60
0
100
AcDbLine
10
3.174997
20
20.163289
30
0
11
3.175003
21
18.461811
31
0
39
0
210
0
220
0
230
1
0
ENDBLK
5
144
100
AcDbEntity
8
0
100
AcDbBlockEnd
0
BLOCK
5
151
100
AcDbEntity
8
0
100
AcDbBlockBegin
2
DimnDraft3D4
70
0
10
0
20
0
30
0
3
DimnDraft3D4
0
MTEXT
5
147
100
AcDbEntity
8
2
62
256
6
ByLayer
370
-1
48
1
60
0
100
AcDbMText
10
26.484043
20
-24.135215
30
0
210
0
220
0
230
1
1
\W01.000;\fsimplex.shx,bigfont.shx;93.0 
40
4.5
41
0
44
1.084337
50
313.5
71
7
72
5
7
DEFAULT
0
LINE
5
148
100
AcDbEntity
8
2
62
256
6
ByLayer
370
-1
48
1
60
0
100
AcDbLine
10
28.597147
20
-12.272961
30
0
11
19.418332
21
-11.79192
31
0
39
0
210
0
220
0
230
1
0
LINE
5
149
100
AcDbEntity
8
2
62
256
6
ByLayer
370
-1
48
1
60
0
100
AcDbLine
10
44
20
-14.625
30
0
11
44
21
-37.695593
31
0
39
0
210
0
220
0
230
1
0
ARC
5
14A
100
AcDbEntity
8
2
62
256
6
ByLayer
370
-1
48
1
60
0
100
AcDbCircle
39
0
10
44
20
-13.080191
30
0
40
21.4404027865335
210
0
220
0
230
1
100
AcDbArc
50
177
51
270
0
LINE
5
14B
100
AcDbEntity
8
2
62
256
6
ByLayer
370
-1
48
1
60
0
100
AcDbLine
10
22.588981
20
-11.958087
30
0
11
23.390706
21
-15.145813
31
0
39
0
210
0
220
0
230
1
0
LINE
5
14C
100
AcDbEntity
8
2
62
256
6
ByLayer
370
-1
48
1
60
0
100
AcDbLine
10
22.588981
20
-11.958087
30
0
11
21.68943
21
-15.119607
31
0
39
0
210
0
220
0
230
1
0
LINE
5
14D
100
AcDbEntity
8
2
62
256
6
ByLayer
370
-1
48
1
60
0
100
AcDbLine
10
23.390706
20
-15.145813
30
0
11
21.68943
21
-15.119607
31
0
39
0
210
0
220
0
230
1
0
LINE
5
14E
100
AcDbEntity
8
2
62
256
6
ByLayer
370
-1
48
1
60
0
100
AcDbLine
10
44
20
-34.520593
30
0
11
40.79574
21
-35.25345
31
0
39
0
210
0
220
0
230
1
0
LINE
5
14F
100
AcDbEntity
8
2
62
256
6
ByLayer
370
-1
48
1
60
0
100
AcDbLine
10
44
20
-34.520593
30
0
11
40.858595
21
-33.553134
31
0
39
0
210
0
220
0
230
1
0
LINE
5
150
100
AcDbEntity
8
2
62
256
6
ByLayer
370
-1
48
1
60
0
100
AcDbLine
10
40.79574
20
-35.25345
30
0
11
40.858595
21
-33.553134
31
0
39
0
210
0
220
0
230
1
0
ENDBLK
5
152
100
AcDbEntity
8
0
100
AcDbBlockEnd
0
BLOCK
5
15F
100
AcDbEntity
8
0
100
AcDbBlockBegin
2
DimnDraft3D5
70
0
10
0
20
0
30
0
3
DimnDraft3D5
0
MTEXT
5
155
100
AcDbEntity
8
2
62
256
6
ByLayer
370
-1
48
1
60
0
100
AcDbMText
10
63.725
20
-4.325658
30
0
210
0
220
0
230
1
1
\W01.000;\fsimplex.shx,bigfont.shx;25.5 
40
4.5
41
0
44
1.084337
50
90
71
7
72
5
7
DEFAULT
0
LINE
5
156
100
AcDbEntity
8
2
62
256
6
ByLayer
370
-1
48
1
60
0
100
AcDbLine
10
45.5875
20
-13.0375
30
0
11
68.025
21
-13.0375
31
0
39
0
210
0
220
0
230
1
0
LINE
5
157
100
AcDbEntity
8
2
62
256
6
ByLayer
370
-1
48
1
60
0
100
AcDbLine
10
1.5875
20
12.4625
30
0
11
68.025
21
12.4625
31
0
39
0
210
0
220
0
230
1
0
LINE
5
158
100
AcDbEntity
8
2
62
256
6
ByLayer
370
-1
48
1
60
0
100
AcDbLine
10
64.85
20
-13.0375
30
0
11
64.85
21
12.4625
31
0
39
0
210
0
220
0
230
1
0
LINE
5
159
100
AcDbEntity
8
2
62
256
6
ByLayer
370
-1
48
1
60
0
100
AcDbLine
10
64.85
20
-13.0375
30
0
11
63.999261
21
-9.862503
31
0
39
0
210
0
220
0
230
1
0
LINE
5
15A
100
AcDbEntity
8
2
62
256
6
ByLayer
370
-1
48
1
60
0
100
AcDbLine
10
64.85
20
-13.0375
30
0
11
65.700739
21
-9.862497
31
0
39
0
210
0
220
0
230
1
0
LINE
5
15B
100
AcDbEntity
8
2
62
256
6
ByLayer
370
-1
48
1
60
0
100
AcDbLine
10
63.999261
20
-9.862503
30
0
11
65.700739
21
-9.862497
31
0
39
0
210
0
220
0
230
1
0
LINE
5
15C
100
AcDbEntity
8
2
62
256
6
ByLayer
370
-1
48
1
60
0
100
AcDbLine
10
64.85
20
12.4625
30
0
11
65.700739
21
9.287503
31
0
39
0
210
0
220
0
230
1
0
LINE
5
15D
100
AcDbEntity
8
2
62
256
6
ByLayer
370
-1
48
1
60
0
100
AcDbLine
10
64.85
20
12.4625
30
0
11
63.999261
21
9.287497
31
0
39
0
210
0
220
0
230
1
0
LINE
5
15E
100
AcDbEntity
8
2
62
256
6
ByLayer
370
-1
48
1
60
0
100
AcDbLine
10
65.700739
20
9.287503
30
0
11
63.999261
21
9.287497
31
0
39
0
210
0
220
0
230
1
0
ENDBLK
5
160
100
AcDbEntity
8
0
100
AcDbBlockEnd
0
ENDSEC
0
SECTION
2
ENTITIES
0
ARC
5
AB
100
AcDbEntity
8
1
62
256
6
ByLayer
370
-1
48
1
60
0
100
AcDbCircle
39
0
10
-18.363749
20
0.544957
30
0
40
1.59999999999996
210
0
220
0
230
-1
100
AcDbArc
50
114.430034
51
199.092891
0
ARC
5
AC
100
AcDbEntity
8
1
62
256
6
ByLayer
370
-1
48
1
60
0
100
AcDbCircle
39
0
10
-21.882505
20
-4.271097
30
0
40
1.6
210
0
220
0
230
-1
100
AcDbArc
50
290.5
51
16.916678
0
ARC
5
AD
100
AcDbEntity
8
1
62
256
6
ByLayer
370
-1
48
1
60
0
100
AcDbCircle
39
0
10
-21.568058
20
-22.288814
30
0
40
11
210
0
220
0
230
-1
100
AcDbArc
50
63.291056
51
93
0
ARC
5
AE
100
AcDbEntity
8
1
62
256
6
ByLayer
370
-1
48
1
60
0
100
AcDbCircle
39
0
10
21.882505
20
-4.271097
30
0
40
1.5
210
0
220
0
230
1
100
AcDbArc
50
163.200879
51
249.5
0
ARC
5
AF
100
AcDbEntity
8
1
62
256
6
ByLayer
370
-1
48
1
60
0
100
AcDbCircle
39
0
10
-21.882505
20
-4.271097
30
0
40
1.6
210
0
220
0
230
-1
100
AcDbArc
50
24.083322
51
110.5
0
ARC
5
B0
100
AcDbEntity
8
1
62
256
6
ByLayer
370
-1
48
1
60
0
100
AcDbCircle
39
0
10
21.882505
20
-4.271097
30
0
40
1.5
210
0
220
0
230
1
100
AcDbArc
50
69.5
51
155.799121
0
ARC
5
B1
100
AcDbEntity
8
1
62
256
6
ByLayer
370
-1
48
1
60
0
100
AcDbCircle
39
0
10
18.363749
20
0.544957
30
0
40
3.2
210
0
220
0
230
1
100
AcDbArc
50
340.907109
51
65.569966
0
ARC
5
B2
100
AcDbEntity
8
1
62
256
6
ByLayer
370
-1
48
1
60
0
100
AcDbCircle
39
0
10
-15.951023
20
-6.425378
30
0
40
1.60000000000015
210
0
220
0
230
-1
100
AcDbArc
50
199.092891
51
284.73815
0
ARC
5
B3
100
AcDbEntity
8
1
62
256
6
ByLayer
370
-1
48
1
60
0
100
AcDbCircle
39
0
10
15.951023
20
-6.425378
30
0
40
3.2
210
0
220
0
230
1
100
AcDbArc
50
255.26185
51
340.907109
0
ARC
5
B6
100
AcDbEntity
8
1
62
256
6
ByLayer
370
-1
48
1
60
0
100
AcDbCircle
39
0
10
-43.2062
20
-12.2437
30
0
40
0.793799999999347
210
0
220
0
230
-1
100
AcDbArc
50
138
51
263
0
ARC
5
B7
100
AcDbEntity
8
1
62
256
6
ByLayer
370
-1
48
1
60
0
100
AcDbCircle
39
0
10
23.232136
20
-4.775704
30
0
40
0.793799999999347
210
0
220
0
230
1
100
AcDbArc
50
97
51
222
0
ARC
5
B9
100
AcDbEntity
8
1
62
256
6
ByLayer
370
-1
48
1
60
0
100
AcDbCircle
39
0
10
33.219168
20
-8.509702
30
0
40
1.0744
210
0
220
0
230
1
100
AcDbArc
50
279.5
51
339.5
0
ARC
5
BA
100
AcDbEntity
8
1
62
256
6
ByLayer
370
-1
48
1
60
0
100
AcDbCircle
39
0
10
33.219168
20
-8.509702
30
0
40
1.0744
210
0
220
0
230
1
100
AcDbArc
50
159.5
51
219.5
0
ARC
5
BB
100
AcDbEntity
8
1
62
256
6
ByLayer
370
-1
48
1
60
0
100
AcDbCircle
39
0
10
33.219168
20
-8.509702
30
0
40
1.40970000000001
210
0
220
0
230
1
100
AcDbArc
50
249.5
51
309.5
0
ARC
5
BC
100
AcDbEntity
8
1
62
256
6
ByLayer
370
-1
48
1
60
0
100
AcDbCircle
39
0
10
33.219168
20
-8.509702
30
0
40
1.40970000000001
210
0
220
0
230
1
100
AcDbArc
50
9.5
51
69.5
0
ARC
5
BD
100
AcDbEntity
8
1
62
256
6
ByLayer
370
-1
48
1
60
0
100
AcDbCircle
39
0
10
33.219168
20
-8.509702
30
0
40
1.40970000000001
210
0
220
0
230
1
100
AcDbArc
50
189.5
51
249.5
0
ARC
5
BE
100
AcDbEntity
8
1
62
256
6
ByLayer
370
-1
48
1
60
0
100
AcDbCircle
39
0
10
33.219168
20
-8.509702
30
0
40
1.40970000000001
210
0
220
0
230
1
100
AcDbArc
50
129.5
51
189.5
0
ARC
5
BF
100
AcDbEntity
8
1
62
256
6
ByLayer
370
-1
48
1
60
0
100
AcDbCircle
39
0
10
33.219168
20
-8.509702
30
0
40
1.40970000000001
210
0
220
0
230
1
100
AcDbArc
50
309.5
51
9.5
0
ARC
5
C0
100
AcDbEntity
8
1
62
256
6
ByLayer
370
-1
48
1
60
0
100
AcDbCircle
39
0
10
33.219168
20
-8.509702
30
0
40
1.0744
210
0
220
0
230
1
100
AcDbArc
50
39.5
51
99.5
0
ARC
5
C1
100
AcDbEntity
8
1
62
256
6
ByLayer
370
-1
48
1
60
0
100
AcDbCircle
39
0
10
33.219168
20
-8.509702
30
0
40
1.40970000000001
210
0
220
0
230
1
100
AcDbArc
50
69.5
51
129.5
0
ARC
5
C2
100
AcDbEntity
8
1
62
256
6
ByLayer
370
-1
48
1
60
0
100
AcDbCircle
39
0
10
33.219168
20
-8.509702
30
0
40
1.0744
210
0
220
0
230
1
100
AcDbArc
50
339.5
51
39.5
0
ARC
5
C4
100
AcDbEntity
8
1
62
256
6
ByLayer
370
-1
48
1
60
0
100
AcDbCircle
39
0
10
33.219168
20
-8.509702
30
0
40
1.0744
210
0
220
0
230
1
100
AcDbArc
50
219.5
51
279.5
0
ARC
5
C6
100
AcDbEntity
8
1
62
256
6
ByLayer
370
-1
48
1
60
0
100
AcDbCircle
39
0
10
33.219168
20
-8.509702
30
0
40
1.0744
210
0
220
0
230
1
100
AcDbArc
50
99.5
51
159.5
0
CIRCLE
5
B4
100
AcDbEntity
8
1
62
256
6
ByLayer
370
-1
48
1
60
0
100
AcDbCircle
10
-33.219168
20
-8.509702
30
0
40
2.28743682147945
39
0
210
0
220
0
230
-1
0
CIRCLE
5
B5
100
AcDbEntity
8
1
62
256
6
ByLayer
370
-1
48
1
60
0
100
AcDbCircle
10
-33.219168
20
-8.509702
30
0
40
2.31999999999999
39
0
210
0
220
0
230
-1
0
CIRCLE
5
B8
100
AcDbEntity
8
1
62
256
6
ByLayer
370
-1
48
1
60
0
100
AcDbCircle
10
-33.219168
20
-8.509702
30
0
40
2.20386856458361
39
0
210
0
220
0
230
-1
0
CIRCLE
5
C3
100
AcDbEntity
8
1
62
256
6
ByLayer
370
-1
48
1
60
0
100
AcDbCircle
10
33.219168
20
-8.509702
30
0
40
2.19999999999998
39
0
210
0
220
0
230
1
0
CIRCLE
5
C5
100
AcDbEntity
8
1
62
256
6
ByLayer
370
-1
48
1
60
0
100
AcDbCircle
10
33.219168
20
-8.509702
30
0
40
1.5
39
0
210
0
220
0
230
1
0
ELLIPSE
5
C7
100
AcDbEntity
8
1
62
256
6
ByLayer
370
-1
48
1
60
0
100
AcDbEllipse
10
1.444896
20
11.745065
30
0
11
0.050129299504195
21
-1.7680565945833
31
0
210
0
220
0
230
-1
40
0.240817
41
0.117196279949492
42
0.435978859903987
0
ELLIPSE
5
C8
100
AcDbEntity
8
1
62
256
6
ByLayer
370
-1
48
1
60
0
100
AcDbEllipse
10
1.444896
20
-5.918308
30
0
11
0.0312336708403887
21
-1.6582530332773
31
0
210
0
220
0
230
-1
40
0.257849
41
2.89572820377463
42
-3.06867452345436
0
ELLIPSE
5
C9
100
AcDbEntity
8
1
62
256
6
ByLayer
370
-1
48
1
60
0
100
AcDbEllipse
10
34.24897
20
-5.755372
30
0
11
0.418848292192591
21
1.12026064499282
31
0
210
0
220
0
230
-1
40
0.995819
41
-0.30423303858473
42
0.304233038584738
0
ELLIPSE
5
CA
100
AcDbEntity
8
1
62
256
6
ByLayer
370
-1
48
1
60
0
100
AcDbEllipse
10
32.189367
20
-11.264031
30
0
11
-0.41884829219259
21
-1.12026064499282
31
0
210
0
220
0
230
-1
40
0.995819
41
-0.304233038584736
42
0.304233038584729
0
POINT
5
41
100
AcDbEntity
8
80
62
256
6
ByLayer
370
-1
48
1
60
0
100
AcDbPoint
10
0
20
0
30
0
39
0
210
0
220
0
230
1
50
360
0
POINT
5
43
100
AcDbEntity
8
81
62
256
6
ByLayer
370
-1
48
1
60
0
100
AcDbPoint
10
44
20
-13.0375
30
0
39
0
210
0
220
0
230
1
50
360
0
SPLINE
5
CB
100
AcDbEntity
8
1
62
256
6
ByLayer
370
-1
48
1
60
0
100
AcDbSpline
70
4
71
3
72
8
73
4
40
0
40
0
40
0
40
0
40
1
40
1
40
1
40
1
41
1
10
20.4465188779951
20
-3.83757137909495
30
0
41
1
10
20.4149195916195
20
-3.82690660657249
30
0
41
1
10
20.3833263129239
20
-3.81622493285641
30
0
41
1
10
20.3517384988502
20
-3.80552792321967
30
0
0
SPLINE
5
CC
100
AcDbEntity
8
1
62
256
6
ByLayer
370
-1
48
1
60
0
100
AcDbSpline
70
4
71
3
72
22
73
18
40
0
40
0
40
0
40
0
40
0.249999999999996
40
0.249999999999996
40
0.374999999999996
40
0.374999999999996
40
0.499999999999996
40
0.499999999999996
40
0.624999999999996
40
0.624999999999996
40
0.749999999999996
40
0.749999999999996
40
0.812499999999997
40
0.812499999999997
40
0.874999999999998
40
0.874999999999998
40
1
40
1
40
1
40
1
41
1
10
1.31053060115954
20
-4.31188287201797
30
0
41
1
10
1.26775643815526
20
-4.35510911166426
30
0
41
1
10
1.21451605191584
20
-4.41911119801597
30
0
41
1
10
1.12513871723755
20
-4.5472426505973
30
0
41
1
10
1.09397832593027
20
-4.59518913169521
30
0
41
1
10
1.03200238208595
20
-4.69957568955118
30
0
41
1
10
1.00095612514272
20
-4.75631921286575
30
0
41
1
10
0.940586256245894
20
-4.88001234476394
30
0
41
1
10
0.911171683385419
20
-4.94738019476063
30
0
41
1
10
0.858488601873461
20
-5.08852080977852
30
0
41
1
10
0.834929090633892
20
-5.16281024013412
30
0
41
1
10
0.805442144680313
20
-5.28049226402138
30
0
41
1
10
0.796578720332747
20
-5.32090835595631
30
0
41
1
10
0.78142142639183
20
-5.40208673893278
30
0
41
1
10
0.775068936383121
20
-5.44304851285338
30
0
41
1
10
0.759781629902989
20
-5.56703391727103
30
0
41
1
10
0.754627371691697
20
-5.65115494615145
30
0
41
1
10
0.754627371691697
20
-5.73672771840498
30
0
0
SPLINE
5
CD
100
AcDbEntity
8
1
62
256
6
ByLayer
370
-1
48
1
60
0
100
AcDbSpline
70
4
71
3
72
22
73
18
40
0
40
0
40
0
40
0
40
0.125
40
0.125
40
0.25
40
0.25
40
0.375
40
0.375
40
0.5
40
0.5
40
0.625
40
0.625
40
0.75
40
0.75
40
0.875
40
0.875
40
1
40
1
40
1
40
1
41
1
10
0.754627371691669
20
12.0586209971169
30
0
41
1
10
0.754627371691669
20
11.9576408614752
30
0
41
1
10
0.760927989755288
20
11.8585784802307
30
0
41
1
10
0.783049596029741
20
11.6634636070564
30
0
41
1
10
0.798881583030123
20
11.5674172998497
30
0
41
1
10
0.837833658338866
20
11.3779174493866
30
0
41
1
10
0.860787619005322
20
11.2854168521399
30
0
41
1
10
0.910658522149447
20
11.1074187266313
30
0
41
1
10
0.937699187104499
20
11.0213810979314
30
0
41
1
10
0.994413652443569
20
10.8548714377577
30
0
41
1
10
1.02416797625628
20
10.7742174794093
30
0
41
1
10
1.08478466304939
20
10.6195457996732
30
0
41
1
10
1.11520353289481
20
10.5466326273415
30
0
41
1
10
1.17495222859554
20
10.410269393479
30
0
41
1
10
1.20429412435516
20
10.3467994076088
30
0
41
1
10
1.26049253809291
20
10.2311985214845
30
0
41
1
10
1.28689990641271
20
10.1800025825735
30
0
41
1
10
1.31053060115954
20
10.1372995915635
30
0
0
SPLINE
5
CE
100
AcDbEntity
8
1
62
256
6
ByLayer
370
-1
48
1
60
0
100
AcDbSpline
70
4
71
3
72
8
73
4
40
0
40
0
40
0
40
0
40
1
40
1
40
1
40
1
41
1
10
20.5143340338073
20
-3.65619150574568
30
0
41
1
10
20.483489029346
20
-3.64350931460294
30
0
41
1
10
20.4526374707577
20
-3.63084382034538
30
0
41
1
10
20.4217799751026
20
-3.61819348536881
30
0
0
SPLINE
5
CF
100
AcDbEntity
8
1
62
256
6
ByLayer
370
-1
48
1
60
0
100
AcDbSpline
70
4
71
3
72
8
73
4
40
0
40
0
40
0
40
0
40
1
40
1
40
1
40
1
41
1
10
34.3625151661749
20
-7.98849855555463
30
0
41
1
10
34.3688684137496
20
-7.98607136232323
30
0
41
1
10
34.3752216106202
20
-7.98364418846276
30
0
41
1
10
34.3815747591734
20
-7.98121703306148
30
0
0
SPLINE
5
D0
100
AcDbEntity
8
1
62
256
6
ByLayer
370
-1
48
1
60
0
100
AcDbSpline
70
4
71
3
72
8
73
4
40
0
40
0
40
0
40
0
40
1
40
1
40
1
40
1
41
1
10
33.3394664238444
20
-7.25893269920761
30
0
41
1
10
33.3405410366334
20
-7.25221702879574
30
0
41
1
10
33.3416156408462
20
-7.24550141198034
30
0
41
1
10
33.3426902368863
20
-7.23878584623861
30
0
0
SPLINE
5
D1
100
AcDbEntity
8
1
62
256
6
ByLayer
370
-1
48
1
60
0
100
AcDbSpline
70
4
71
3
72
16
73
12
40
0
40
0
40
0
40
0
40
0.125
40
0.125
40
0.25
40
0.25
40
0.5
40
0.5
40
0.75
40
0.75
40
1
40
1
40
1
40
1
41
1
10
32.1802837073923
20
-7.76727064072622
30
0
41
1
10
32.1693565436758
20
-7.75639912385802
30
0
41
1
10
32.1616120330154
20
-7.74269980255522
30
0
41
1
10
32.1530750611551
20
-7.71183837656056
30
0
41
1
10
32.1523349801512
20
-7.69499789641628
30
0
41
1
10
32.1575092647572
20
-7.64520702252309
30
0
41
1
10
32.170293154191
20
-7.61203919066878
30
0
41
1
10
32.2034116078026
20
-7.55070723897703
30
0
41
1
10
32.2240686038461
20
-7.52202590345763
30
0
41
1
10
32.2700336533283
20
-7.46881205008884
30
0
41
1
10
32.2953277539428
20
-7.44433246002106
30
0
41
1
10
32.3224887625538
20
-7.4219426523475
30
0
0
SPLINE
5
D2
100
AcDbEntity
8
1
62
256
6
ByLayer
370
-1
48
1
60
0
100
AcDbSpline
70
4
71
3
72
20
73
16
40
0
40
0
40
0
40
0
40
0.125
40
0.125
40
0.25
40
0.25
40
0.5
40
0.5
40
0.625
40
0.625
40
0.75
40
0.75
40
0.875
40
0.875
40
1
40
1
40
1
40
1
41
1
10
33.0988700355144
20
-9.76047095589061
30
0
41
1
10
33.1033887629388
20
-9.73223168275604
30
0
41
1
10
33.1198372874624
20
-9.70715607720948
30
0
41
1
10
33.1613226523549
20
-9.66431385131338
30
0
41
1
10
33.1868525517099
20
-9.64616033667244
30
0
41
1
10
33.2692452036819
20
-9.60014780805776
30
0
41
1
10
33.3325383709202
20
-9.57999979085059
30
0
41
1
10
33.4294912402858
20
-9.56388102772999
30
0
41
1
10
33.4616970462176
20
-9.56098480495558
30
0
41
1
10
33.5259090555871
20
-9.56034437956805
30
0
41
1
10
33.5581951745299
20
-9.56266147428195
30
0
41
1
10
33.6196614721452
20
-9.57372640767531
30
0
41
1
10
33.6496683974257
20
-9.58253906981147
30
0
41
1
10
33.7028821844418
20
-9.60953554419993
30
0
41
1
10
33.7265877500278
20
-9.62780331227037
30
0
41
1
10
33.7401230036396
20
-9.65316201112327
30
0
0
SPLINE
5
D3
100
AcDbEntity
8
1
62
256
6
ByLayer
370
-1
48
1
60
0
100
AcDbSpline
70
4
71
3
72
16
73
12
40
0
40
0
40
0
40
0
40
0.124999999999996
40
0.124999999999996
40
0.249999999999993
40
0.249999999999993
40
0.499999999999995
40
0.499999999999995
40
0.749999999999998
40
0.749999999999998
40
1
40
1
40
1
40
1
41
1
10
33.3426902368863
20
-7.23878584623861
30
0
41
1
10
33.3466416648136
20
-7.22388688643468
30
0
41
1
10
33.3546333697462
20
-7.21033028281153
30
0
41
1
10
33.3770916627245
20
-7.18750633531175
30
0
41
1
10
33.3913059058394
20
-7.17844516628941
30
0
41
1
10
33.4370132098106
20
-7.15803079125803
30
0
41
1
10
33.4721293395017
20
-7.15251804833963
30
0
41
1
10
33.5418035945363
20
-7.15053349465552
30
0
41
1
10
33.5769708577323
20
-7.15408231023534
30
0
41
1
10
33.646037931324
20
-7.16728228408874
30
0
41
1
10
33.6798849285042
20
-7.17694782275291
30
0
41
1
10
33.7128555750409
20
-7.18927504236569
30
0
0
SPLINE
5
D4
100
AcDbEntity
8
1
62
256
6
ByLayer
370
-1
48
1
60
0
100
AcDbSpline
70
4
71
3
72
16
73
12
40
0
40
0
40
0
40
0
40
0.125000000000007
40
0.125000000000007
40
0.250000000000014
40
0.250000000000014
40
0.500000000000009
40
0.500000000000009
40
0.750000000000005
40
0.750000000000005
40
1
40
1
40
1
40
1
41
1
10
34.2580527519664
20
-9.25213301437196
30
0
41
1
10
34.268979915683
20
-9.26300453124017
30
0
41
1
10
34.2767244263433
20
-9.27670385254297
30
0
41
1
10
34.2852613982037
20
-9.30756527853762
30
0
41
1
10
34.2860014792076
20
-9.32440575868191
30
0
41
1
10
34.2808271946016
20
-9.37419663257512
30
0
41
1
10
34.2680433051679
20
-9.40736446442943
30
0
41
1
10
34.2349248515562
20
-9.46869641612119
30
0
41
1
10
34.2142678555127
20
-9.49737775164058
30
0
41
1
10
34.1683028060304
20
-9.55059160500937
30
0
41
1
10
34.143008705416
20
-9.57507119507713
30
0
41
1
10
34.1158476968049
20
-9.59746100275072
30
0
0
SPLINE
5
D5
100
AcDbEntity
8
1
62
256
6
ByLayer
370
-1
48
1
60
0
100
AcDbSpline
70
4
71
3
72
16
73
12
40
0
40
0
40
0
40
0
40
0.249999999999993
40
0.249999999999993
40
0.499999999999987
40
0.499999999999987
40
0.74999999999998
40
0.74999999999998
40
0.87499999999999
40
0.87499999999999
40
1
40
1
40
1
40
1
41
1
10
34.6095350421664
20
-8.27703421756723
30
0
41
1
10
34.6153439719254
20
-8.31174701301688
30
0
41
1
10
34.6183734987123
20
-8.34682493864239
30
0
41
1
10
34.6181540672033
20
-8.4171064829288
30
0
41
1
10
34.6149319205225
20
-8.45229785168891
30
0
41
1
10
34.5996933830953
20
-8.52032308256608
30
0
41
1
10
34.5875950403485
20
-8.55367009640611
30
0
41
1
10
34.5589729473186
20
-8.59454577409778
30
0
41
1
10
34.5473378805976
20
-8.60684106999403
30
0
41
1
10
34.5207144451896
20
-8.62456163005697
30
0
41
1
10
34.505717301911
20
-8.62991313153387
30
0
41
1
10
34.4903030149148
20
-8.63095146912249
30
0
0
SPLINE
5
D6
100
AcDbEntity
8
1
62
256
6
ByLayer
370
-1
48
1
60
0
100
AcDbSpline
70
4
71
3
72
18
73
14
40
0
40
0
40
0
40
0
40
0.124999999999997
40
0.124999999999997
40
0.249999999999993
40
0.249999999999993
40
0.499999999999993
40
0.499999999999993
40
0.749999999999993
40
0.749999999999993
40
0.874999999999997
40
0.874999999999997
40
1
40
1
40
1
40
1
41
1
10
33.9489564098906
20
-7.48681166728971
30
0
41
1
10
33.933864424819
20
-7.5110496138675
30
0
41
1
10
33.9298168556277
20
-7.54071243678791
30
0
41
1
10
33.9329759309647
20
-7.60015980851534
30
0
41
1
10
33.9402999677092
20
-7.63056289678832
30
0
41
1
10
33.9721765765092
20
-7.71921187656207
30
0
41
1
10
34.0066131017643
20
-7.77585713466235
30
0
41
1
10
34.0898603548017
20
-7.87682666225902
30
0
41
1
10
34.1387715587805
20
-7.92132814853261
30
0
41
1
10
34.2197252387825
20
-7.96955353925091
30
0
41
1
10
34.2480867369725
20
-7.982530546296
30
0
41
1
10
34.3060859356188
20
-7.99703365794355
30
0
41
1
10
34.3358343713882
20
-7.9986916802128
30
0
41
1
10
34.3625151661749
20
-7.98849855555463
30
0
0
SPLINE
5
D7
100
AcDbEntity
8
1
62
256
6
ByLayer
370
-1
48
1
60
0
100
AcDbSpline
70
4
71
3
72
18
73
14
40
0
40
0
40
0
40
0
40
0.125000000000003
40
0.125000000000003
40
0.250000000000005
40
0.250000000000005
40
0.500000000000005
40
0.500000000000005
40
0.750000000000004
40
0.750000000000004
40
0.875000000000002
40
0.875000000000002
40
1
40
1
40
1
40
1
41
1
10
31.968425275508
20
-8.38913180423424
30
0
41
1
10
31.9969619455158
20
-8.3900828734109
30
0
41
1
10
32.0246744883085
20
-8.378756759694
30
0
41
1
10
32.0745778847442
20
-8.34629723433594
30
0
41
1
10
32.0972457131698
20
-8.32475288832046
30
0
41
1
10
32.1580796772734
20
-8.25282244542623
30
0
41
1
10
32.1899176471646
20
-8.19467691068712
30
0
41
1
10
32.2357361965528
20
-8.07209791096318
30
0
41
1
10
32.2498200121824
20
-8.007488822651
30
0
41
1
10
32.2511075856509
20
-7.91326818388032
30
0
41
1
10
32.2481652543221
20
-7.88221790243585
30
0
41
1
10
32.2317257181196
20
-7.82473756718525
30
0
41
1
10
32.2182873896401
20
-7.79814565495147
30
0
41
1
10
32.1961194873489
20
-7.78013597120213
30
0
0
SPLINE
5
D8
100
AcDbEntity
8
1
62
256
6
ByLayer
370
-1
48
1
60
0
100
AcDbSpline
70
4
71
3
72
18
73
14
40
0
40
0
40
0
40
0
40
0.125000000000001
40
0.125000000000001
40
0.250000000000001
40
0.250000000000001
40
0.499999999999997
40
0.499999999999997
40
0.749999999999992
40
0.749999999999992
40
0.874999999999996
40
0.874999999999996
40
1
40
1
40
1
40
1
41
1
10
34.4699111838508
20
-8.63027185086392
30
0
41
1
10
34.441374513843
20
-8.62932078168728
30
0
41
1
10
34.4136619710503
20
-8.64064689540419
30
0
41
1
10
34.3637585746146
20
-8.67310642076222
30
0
41
1
10
34.341090746189
20
-8.69465076677773
30
0
41
1
10
34.2802567820854
20
-8.76658120967193
30
0
41
1
10
34.2484188121942
20
-8.82472674441104
30
0
41
1
10
34.202600262806
20
-8.94730574413498
30
0
41
1
10
34.1885164471764
20
-9.01191483244719
30
0
41
1
10
34.1872288737079
20
-9.10613547121787
30
0
41
1
10
34.1901712050367
20
-9.13718575266233
30
0
41
1
10
34.2066107412392
20
-9.19466608791294
30
0
41
1
10
34.2200490697186
20
-9.22125800014672
30
0
41
1
10
34.2422169720099
20
-9.23926768389606
30
0
0
SPLINE
5
D9
100
AcDbEntity
8
1
62
256
6
ByLayer
370
-1
48
1
60
0
100
AcDbSpline
70
4
71
3
72
8
73
4
40
0
40
0
40
0
40
0
40
1
40
1
40
1
40
1
41
1
10
32.1961194873488
20
-7.78013597120207
30
0
41
1
10
32.1908408525632
20
-7.7758474940216
30
0
41
1
10
32.1855622599054
20
-7.77155905106665
30
0
41
1
10
32.1802837073923
20
-7.76727064072622
30
0
0
SPLINE
5
DA
100
AcDbEntity
8
1
62
256
6
ByLayer
370
-1
48
1
60
0
100
AcDbSpline
70
4
71
3
72
8
73
4
40
0
40
0
40
0
40
0
40
1
40
1
40
1
40
1
41
1
10
31.9480334444449
20
-8.38845218597555
30
0
41
1
10
31.9548306689201
20
-8.38867872364386
30
0
41
1
10
31.96162794509
20
-8.38890526303507
30
0
41
1
10
31.968425275508
20
-8.38913180423427
30
0
0
SPLINE
5
DB
100
AcDbEntity
8
1
62
256
6
ByLayer
370
-1
48
1
60
0
100
AcDbSpline
70
4
71
3
72
16
73
12
40
0
40
0
40
0
40
0
40
0.125
40
0.125
40
0.25
40
0.25
40
0.5
40
0.5
40
0.75
40
0.75
40
1
40
1
40
1
40
1
41
1
10
32.0567617001854
20
-9.0381866220367
30
0
41
1
10
32.0418831085416
20
-9.04221406497243
30
0
41
1
10
32.0261468929486
20
-9.04207134729279
30
0
41
1
10
31.99515162811
20
-9.03403386879791
30
0
41
1
10
31.9801973039913
20
-9.02625455767597
30
0
41
1
10
31.9396642846261
20
-8.99687805881413
30
0
41
1
10
31.9173320443687
20
-8.96922296987819
30
0
41
1
10
31.8807762429457
20
-8.90987557187054
30
0
41
1
10
31.8662659757932
20
-8.8776454207713
30
0
41
1
10
31.8431639516837
20
-8.81123159354911
30
0
41
1
10
31.834611055118
20
-8.77708646481716
30
0
41
1
10
31.8288014171924
20
-8.74236943753081
30
0
0
SPLINE
5
DC
100
AcDbEntity
8
1
62
256
6
ByLayer
370
-1
48
1
60
0
100
AcDbSpline
70
4
71
3
72
8
73
4
40
0
40
0
40
0
40
0
40
1
40
1
40
1
40
1
41
1
10
32.0758212931838
20
-9.03090509954356
30
0
41
1
10
32.0694680456092
20
-9.03333229277496
30
0
41
1
10
32.0631148487386
20
-9.03575946663543
30
0
41
1
10
32.0567617001854
20
-9.0381866220367
30
0
0
SPLINE
5
DD
100
AcDbEntity
8
1
62
256
6
ByLayer
370
-1
48
1
60
0
100
AcDbSpline
70
4
71
3
72
8
73
4
40
0
40
0
40
0
40
0
40
1
40
1
40
1
40
1
41
1
10
33.7497303524942
20
-9.67116166398299
30
0
41
1
10
33.7465279276323
20
-9.6651618260781
30
0
41
1
10
33.7433254784151
20
-9.65916194254285
30
0
41
1
10
33.7401230036396
20
-9.6531620111233
30
0
0
SPLINE
5
DE
100
AcDbEntity
8
1
62
256
6
ByLayer
370
-1
48
1
60
0
100
AcDbSpline
70
4
71
3
72
8
73
4
40
0
40
0
40
0
40
0
40
1
40
1
40
1
40
1
41
1
10
34.24221697201
20
-9.23926768389612
30
0
41
1
10
34.2474956067956
20
-9.24355616107658
30
0
41
1
10
34.2527741994534
20
-9.24784460403151
30
0
41
1
10
34.2580527519664
20
-9.25213301437196
30
0
0
SPLINE
5
DF
100
AcDbEntity
8
1
62
256
6
ByLayer
370
-1
48
1
60
0
100
AcDbSpline
70
4
71
3
72
18
73
14
40
0
40
0
40
0
40
0
40
0.125000000000005
40
0.125000000000005
40
0.25000000000001
40
0.25000000000001
40
0.5
40
0.5
40
0.749999999999989
40
0.749999999999989
40
0.874999999999994
40
0.874999999999994
40
1
40
1
40
1
40
1
41
1
10
32.6982134557192
20
-7.36624164397486
30
0
41
1
10
32.7116581406554
20
-7.39143065972931
30
0
41
1
10
32.7353231142567
20
-7.40976736893282
30
0
41
1
10
32.7883855860294
20
-7.43675521530221
30
0
41
1
10
32.8183774511995
20
-7.44561395755969
30
0
41
1
10
32.9110880241032
20
-7.46233249443921
30
0
41
1
10
32.9773625192495
20
-7.46083221780037
30
0
41
1
10
33.106428321675
20
-7.43922274567311
30
0
41
1
10
33.1694233412836
20
-7.41911514363449
30
0
41
1
10
33.2516645947541
20
-7.37311989558214
30
0
41
1
10
33.2770837616152
20
-7.35504662118277
30
0
41
1
10
33.318643424059
20
-7.31206939757971
30
0
41
1
10
33.334953531349
20
-7.2871355076152
30
0
41
1
10
33.3394664238444
20
-7.25893269920766
30
0
0
SPLINE
5
E0
100
AcDbEntity
8
1
62
256
6
ByLayer
370
-1
48
1
60
0
100
AcDbSpline
70
4
71
3
72
8
73
4
40
0
40
0
40
0
40
0
40
1
40
1
40
1
40
1
41
1
10
32.4893800494682
20
-9.5325919878085
30
0
41
1
10
32.4857851938257
20
-9.53836537802886
30
0
41
1
10
32.482190366873
20
-9.5441387221729
30
0
41
1
10
32.4785955672597
20
-9.54991202240944
30
0
0
SPLINE
5
E1
100
AcDbEntity
8
1
62
256
6
ByLayer
370
-1
48
1
60
0
100
AcDbSpline
70
4
71
3
72
16
73
12
40
0
40
0
40
0
40
0
40
0.25
40
0.25
40
0.5
40
0.5
40
0.75
40
0.75
40
0.875
40
0.875
40
1
40
1
40
1
40
1
41
1
10
32.725480884318
20
-9.83012861273252
30
0
41
1
10
32.7583978481512
20
-9.84243576120491
30
0
41
1
10
32.7923494623924
20
-9.85212989633854
30
0
41
1
10
32.8612762938244
20
-9.86530548499763
30
0
41
1
10
32.8964516640864
20
-9.86886497575486
30
0
41
1
10
32.9661214115551
20
-9.86689552762698
30
0
41
1
10
33.0012326421403
20
-9.86136092746273
30
0
41
1
10
33.046735138915
20
-9.84111633950292
30
0
41
1
10
33.0610389436563
20
-9.83204569427772
30
0
41
1
10
33.0835229511731
20
-9.8093162365185
30
0
41
1
10
33.0916832342813
20
-9.79556035693699
30
0
41
1
10
33.0956462224724
20
-9.78061780885983
30
0
0
SPLINE
5
E2
100
AcDbEntity
8
1
62
256
6
ByLayer
370
-1
48
1
60
0
100
AcDbSpline
70
4
71
3
72
16
73
12
40
0
40
0
40
0
40
0
40
0.249999999999998
40
0.249999999999998
40
0.499999999999995
40
0.499999999999995
40
0.749999999999993
40
0.749999999999993
40
0.874999999999996
40
0.874999999999996
40
1
40
1
40
1
40
1
41
1
10
32.3224887625538
20
-7.4219426523475
30
0
41
1
10
32.3496464603701
20
-7.39955557388254
30
0
41
1
10
32.3785100716804
20
-7.3793929639109
30
0
41
1
10
32.4394853902041
20
-7.34444222502893
30
0
41
1
10
32.4715730828847
20
-7.32963700152919
30
0
41
1
10
32.5381039296362
20
-7.30882134661908
30
0
41
1
10
32.5730324621355
20
-7.30262531186145
30
0
41
1
10
32.6227428839283
20
-7.306974932689
30
0
41
1
10
32.6392084558819
20
-7.31090354809592
30
0
41
1
10
32.6678666287697
20
-7.3250998394638
30
0
41
1
10
32.6799997366364
20
-7.33541199578877
30
0
41
1
10
32.688606106864
20
-7.34824199111443
30
0
0
SPLINE
5
E3
100
AcDbEntity
8
1
62
256
6
ByLayer
370
-1
48
1
60
0
100
AcDbSpline
70
4
71
3
72
16
73
12
40
0
40
0
40
0
40
0
40
0.249999999999986
40
0.249999999999986
40
0.499999999999973
40
0.499999999999973
40
0.749999999999959
40
0.749999999999959
40
0.874999999999979
40
0.874999999999979
40
1
40
1
40
1
40
1
41
1
10
34.1158476968049
20
-9.59746100275072
30
0
41
1
10
34.0886899989887
20
-9.61984808121568
30
0
41
1
10
34.0598263876784
20
-9.64001069118731
30
0
41
1
10
33.9988510691547
20
-9.67496143006926
30
0
41
1
10
33.966763376474
20
-9.689766653569
30
0
41
1
10
33.9002325297225
20
-9.71058230847908
30
0
41
1
10
33.8653039972233
20
-9.71677834323674
30
0
41
1
10
33.8155935754305
20
-9.71242872240919
30
0
41
1
10
33.7991280034768
20
-9.70850010700224
30
0
41
1
10
33.770469830589
20
-9.69430381563438
30
0
41
1
10
33.7583367227224
20
-9.68399165930941
30
0
41
1
10
33.7497303524948
20
-9.67116166398375
30
0
0
SPLINE
5
E4
100
AcDbEntity
8
1
62
256
6
ByLayer
370
-1
48
1
60
0
100
AcDbSpline
70
4
71
3
72
16
73
12
40
0
40
0
40
0
40
0
40
0.125
40
0.125
40
0.25
40
0.25
40
0.5
40
0.5
40
0.75
40
0.75
40
1
40
1
40
1
40
1
41
1
10
32.4785955672597
20
-9.54991202240947
30
0
41
1
10
32.4718005100898
20
-9.5637541591752
30
0
41
1
10
32.4689385170659
20
-9.57923555493286
30
0
41
1
10
32.4709206919089
20
-9.61120735360464
30
0
41
1
10
32.475709339482
20
-9.62737710291634
30
0
41
1
10
32.4968309526507
20
-9.67278466610276
30
0
41
1
10
32.5197322954077
20
-9.69998977283876
30
0
41
1
10
32.5710446371697
20
-9.74720621129066
30
0
41
1
10
32.599823631225
20
-9.76753006894469
30
0
41
1
10
32.6606010487283
20
-9.80287842072011
30
0
41
1
10
32.6925572223833
20
-9.81781895994263
30
0
41
1
10
32.725480884318
20
-9.83012861273252
30
0
0
SPLINE
5
E5
100
AcDbEntity
8
1
62
256
6
ByLayer
370
-1
48
1
60
0
100
AcDbSpline
70
4
71
3
72
16
73
12
40
0
40
0
40
0
40
0
40
0.125000000000014
40
0.125000000000014
40
0.250000000000029
40
0.250000000000029
40
0.500000000000019
40
0.500000000000019
40
0.75000000000001
40
0.75000000000001
40
1
40
1
40
1
40
1
41
1
10
34.3815747591734
20
-7.98121703306148
30
0
41
1
10
34.3964533508172
20
-7.97718959012576
30
0
41
1
10
34.4121895664102
20
-7.97733230780543
30
0
41
1
10
34.4431848312487
20
-7.98536978630028
30
0
41
1
10
34.4581391553675
20
-7.99314909742222
30
0
41
1
10
34.4986721747327
20
-8.02252559628403
30
0
41
1
10
34.5210044149901
20
-8.05018068521997
30
0
41
1
10
34.557560216413
20
-8.10952808322759
30
0
41
1
10
34.5720704835655
20
-8.1417582343268
30
0
41
1
10
34.595172507675
20
-8.20817206154896
30
0
41
1
10
34.6037254042407
20
-8.24231719028091
30
0
41
1
10
34.6095350421664
20
-8.27703421756723
30
0
0
SPLINE
5
E6
100
AcDbEntity
8
1
62
256
6
ByLayer
370
-1
48
1
60
0
100
AcDbSpline
70
4
71
3
72
16
73
12
40
0
40
0
40
0
40
0
40
0.24999999999999
40
0.24999999999999
40
0.499999999999979
40
0.499999999999979
40
0.749999999999969
40
0.749999999999969
40
0.874999999999984
40
0.874999999999984
40
1
40
1
40
1
40
1
41
1
10
33.7128555750409
20
-7.18927504236569
30
0
41
1
10
33.7458222026162
20
-7.20160075935036
30
0
41
1
10
33.7777153407133
20
-7.21651607500422
30
0
41
1
10
33.838471227728
20
-7.25184688040866
30
0
41
1
10
33.8673367737278
20
-7.27223302566904
30
0
41
1
10
33.9186290830521
20
-7.3194426016361
30
0
41
1
10
33.9414592728046
20
-7.34659358071849
30
0
41
1
10
33.9625476015675
20
-7.39181887923772
30
0
41
1
10
33.9673781068002
20
-7.40804279054089
30
0
41
1
10
33.96941284428
20
-7.43995964197168
30
0
41
1
10
33.9665488088681
20
-7.45562329977358
30
0
41
1
10
33.9597408920994
20
-7.46949163268783
30
0
0
SPLINE
5
E7
100
AcDbEntity
8
1
62
256
6
ByLayer
370
-1
48
1
60
0
100
AcDbSpline
70
4
71
3
72
8
73
4
40
0
40
0
40
0
40
0
40
1
40
1
40
1
40
1
41
1
10
33.0956462224725
20
-9.78061780885957
30
0
41
1
10
33.0967208185126
20
-9.77390224311787
30
0
41
1
10
33.0977954227254
20
-9.76718662630245
30
0
41
1
10
33.0988700355144
20
-9.76047095589061
30
0
0
SPLINE
5
E8
100
AcDbEntity
8
1
62
256
6
ByLayer
370
-1
48
1
60
0
100
AcDbSpline
70
4
71
3
72
8
73
4
40
0
40
0
40
0
40
0
40
1
40
1
40
1
40
1
41
1
10
32.6886061068646
20
-7.3482419911152
30
0
41
1
10
32.6918085317265
20
-7.35424182902005
30
0
41
1
10
32.6950109809437
20
-7.36024171255534
30
0
41
1
10
32.6982134557192
20
-7.36624164397486
30
0
0
SPLINE
5
E9
100
AcDbEntity
8
1
62
256
6
ByLayer
370
-1
48
1
60
0
100
AcDbSpline
70
4
71
3
72
8
73
4
40
0
40
0
40
0
40
0
40
1
40
1
40
1
40
1
41
1
10
34.4903030149139
20
-8.63095146912264
30
0
41
1
10
34.4835057904387
20
-8.63072493145432
30
0
41
1
10
34.4767085142688
20
-8.63049839206312
30
0
41
1
10
34.4699111838508
20
-8.63027185086392
30
0
0
SPLINE
5
EA
100
AcDbEntity
8
1
62
256
6
ByLayer
370
-1
48
1
60
0
100
AcDbSpline
70
4
71
3
72
16
73
12
40
0
40
0
40
0
40
0
40
0.250000000000007
40
0.250000000000007
40
0.500000000000013
40
0.500000000000013
40
0.75000000000002
40
0.75000000000002
40
0.87500000000001
40
0.87500000000001
40
1
40
1
40
1
40
1
41
1
10
31.8288014171924
20
-8.74236943753081
30
0
41
1
10
31.8229924874333
20
-8.70765664208116
30
0
41
1
10
31.8199629606465
20
-8.67257871645569
30
0
41
1
10
31.8201823921556
20
-8.6022971721693
30
0
41
1
10
31.8234045388364
20
-8.56710580340919
30
0
41
1
10
31.8386430762636
20
-8.49908057253208
30
0
41
1
10
31.8507414190103
20
-8.46573355869202
30
0
41
1
10
31.8793635120402
20
-8.42485788100038
30
0
41
1
10
31.8909985787612
20
-8.41256258510415
30
0
41
1
10
31.9176220141692
20
-8.39484202504121
30
0
41
1
10
31.9326191574477
20
-8.38949052356432
30
0
41
1
10
31.948033444444
20
-8.38845218597569
30
0
0
SPLINE
5
EB
100
AcDbEntity
8
1
62
256
6
ByLayer
370
-1
48
1
60
0
100
AcDbSpline
70
4
71
3
72
20
73
16
40
0
40
0
40
0
40
0
40
0.124999999999997
40
0.124999999999997
40
0.249999999999993
40
0.249999999999993
40
0.37499999999999
40
0.37499999999999
40
0.499999999999986
40
0.499999999999986
40
0.74999999999999
40
0.74999999999999
40
0.874999999999995
40
0.874999999999995
40
1
40
1
40
1
40
1
41
1
10
32.0758212931839
20
-9.03090509954356
30
0
41
1
10
32.1026298213131
20
-9.02066317566846
30
0
41
1
10
32.1326791537445
20
-9.0224144308529
30
0
41
1
10
32.190725537799
20
-9.03705582392874
30
0
41
1
10
32.2189089354146
20
-9.05000651997062
30
0
41
1
10
32.2727036814871
20
-9.08209496640836
30
0
41
1
10
32.2984765216992
20
-9.10147102672448
30
0
41
1
10
32.3463822854587
20
-9.14396578967879
30
0
41
1
10
32.3689467126932
20
-9.16744235454797
30
0
41
1
10
32.4315260520822
20
-9.243234336211
30
0
41
1
10
32.4659724017904
20
-9.29980768590895
30
0
41
1
10
32.4979712522773
20
-9.38859119183073
30
0
41
1
10
32.5053291255836
20
-9.41895231557893
30
0
41
1
10
32.508538174645
20
-9.47874248008213
30
0
41
1
10
32.5044987891833
20
-9.50831107288508
30
0
41
1
10
32.4893800494682
20
-9.53259198780844
30
0
0
SPLINE
5
EC
100
AcDbEntity
8
1
62
256
6
ByLayer
370
-1
48
1
60
0
100
AcDbSpline
70
4
71
3
72
8
73
4
40
0
40
0
40
0
40
0
40
1
40
1
40
1
40
1
41
1
10
33.9597408920991
20
-7.46949163268874
30
0
41
1
10
33.9561460924858
20
-7.47526493292528
30
0
41
1
10
33.9525512655332
20
-7.48103827706936
30
0
41
1
10
33.9489564098906
20
-7.48681166728971
30
0
0
LINE
5
45
100
AcDbEntity
8
80
62
256
6
ByLayer
370
-1
48
1
60
0
100
AcDbLine
10
0
20
0
30
0
11
-5
21
0
31
0
39
0
210
0
220
0
230
1
0
LINE
5
46
100
AcDbEntity
8
81
62
256
6
ByLayer
370
-1
48
1
60
0
100
AcDbLine
10
44
20
-13.0375
30
0
11
49
21
-13.0375
31
0
39
0
210
0
220
0
230
1
0
LINE
5
47
100
AcDbEntity
8
1
62
256
6
ByLayer
370
-1
48
1
60
0
100
AcDbLine
10
4.268329
20
-5.006598
30
0
11
7.410634
21
-5.833203
31
0
39
0
210
0
220
0
230
1
0
LINE
5
49
100
AcDbEntity
8
1
62
256
6
ByLayer
370
-1
48
1
60
0
100
AcDbLine
10
23.994293
20
-6.662076
30
0
11
23.944855
21
-6.750353
31
0
39
0
210
0
220
0
230
1
0
LINE
5
4A
100
AcDbEntity
8
1
62
256
6
ByLayer
370
-1
48
1
60
0
100
AcDbLine
10
27.343077
20
-11.576374
30
0
11
27.099409
21
-11.563604
31
0
39
0
210
0
220
0
230
1
0
LINE
5
4B
100
AcDbEntity
8
1
62
256
6
ByLayer
370
-1
48
1
60
0
100
AcDbLine
10
7.410634
20
-5.833203
30
0
11
15.54398
21
-7.972735
31
0
39
0
210
0
220
0
230
1
0
LINE
5
4C
100
AcDbEntity
8
1
62
256
6
ByLayer
370
-1
48
1
60
0
100
AcDbLine
10
22.442837
20
-2.772422
30
0
11
25.065519
21
-3.753002
31
0
39
0
210
0
220
0
230
1
0
LINE
5
4D
100
AcDbEntity
8
1
62
256
6
ByLayer
370
-1
48
1
60
0
100
AcDbLine
10
30.796344
20
-2.340193
30
0
11
31.564758
21
-2.940544
31
0
39
0
210
0
220
0
230
1
0
LINE
5
4E
100
AcDbEntity
8
1
62
256
6
ByLayer
370
-1
48
1
60
0
100
AcDbLine
10
0.754627
20
-12.4625
30
0
11
16.624015
21
-12.4625
31
0
39
0
210
0
220
0
230
1
0
LINE
5
4F
100
AcDbEntity
8
1
62
256
6
ByLayer
370
-1
48
1
60
0
100
AcDbLine
10
30.599565
20
-11.747039
30
0
11
30.337761
21
-11.733318
31
0
39
0
210
0
220
0
230
1
0
LINE
5
50
100
AcDbEntity
8
1
62
256
6
ByLayer
370
-1
48
1
60
0
100
AcDbLine
10
30.337761
20
-11.733318
30
0
11
29.363965
21
-11.682284
31
0
39
0
210
0
220
0
230
1
0
LINE
5
51
100
AcDbEntity
8
1
62
256
6
ByLayer
370
-1
48
1
60
0
100
AcDbLine
10
19.02548
20
2.001704
30
0
11
19.687211
21
3.458451
31
0
39
0
210
0
220
0
230
1
0
LINE
5
52
100
AcDbEntity
8
1
62
256
6
ByLayer
370
-1
48
1
60
0
100
AcDbLine
10
21.357194
20
-5.676105
30
0
11
21.322173
21
-5.769773
31
0
39
0
210
0
220
0
230
1
0
LINE
5
53
100
AcDbEntity
8
1
62
256
6
ByLayer
370
-1
48
1
60
0
100
AcDbLine
10
31.564758
20
-2.940544
30
0
11
32.391011
21
-3.586083
31
0
39
0
210
0
220
0
230
1
0
LINE
5
54
100
AcDbEntity
8
1
62
256
6
ByLayer
370
-1
48
1
60
0
100
AcDbLine
10
29.363965
20
-11.682284
30
0
11
28.316873
21
-11.627408
31
0
39
0
210
0
220
0
230
1
0
LINE
5
55
100
AcDbEntity
8
1
62
256
6
ByLayer
370
-1
48
1
60
0
100
AcDbLine
10
1.310531
20
-4.311883
30
0
11
1.310531
21
10.1373
31
0
39
0
210
0
220
0
230
1
0
LINE
5
56
100
AcDbEntity
8
1
62
256
6
ByLayer
370
-1
48
1
60
0
100
AcDbLine
10
25.765038
20
-3.8898
30
0
11
25.044915
21
-3.85206
31
0
39
0
210
0
220
0
230
1
0
LINE
5
57
100
AcDbEntity
8
1
62
256
6
ByLayer
370
-1
48
1
60
0
100
AcDbLine
10
0.754627
20
-12.4625
30
0
11
0.754627
21
-5.736728
31
0
39
0
210
0
220
0
230
1
0
LINE
5
58
100
AcDbEntity
8
1
62
256
6
ByLayer
370
-1
48
1
60
0
100
AcDbLine
10
17.463006
20
-6.948739
30
0
11
18.974989
21
-7.4721
31
0
39
0
210
0
220
0
230
1
0
LINE
5
59
100
AcDbEntity
8
1
62
256
6
ByLayer
370
-1
48
1
60
0
100
AcDbLine
10
21.357194
20
-5.676105
30
0
11
23.994293
21
-6.662076
31
0
39
0
210
0
220
0
230
1
0
LINE
5
5A
100
AcDbEntity
8
1
62
256
6
ByLayer
370
-1
48
1
60
0
100
AcDbLine
10
24.030065
20
-6.816926
30
0
11
24.443191
21
-7.139696
31
0
39
0
210
0
220
0
230
1
0
LINE
5
5B
100
AcDbEntity
8
1
62
256
6
ByLayer
370
-1
48
1
60
0
100
AcDbLine
10
24.030065
20
-6.816926
30
0
11
22.348448
21
-11.314616
31
0
39
0
210
0
220
0
230
1
0
LINE
5
5C
100
AcDbEntity
8
1
62
256
6
ByLayer
370
-1
48
1
60
0
100
AcDbLine
10
25.697049
20
-3.786099
30
0
11
25.173503
21
-3.758661
31
0
39
0
210
0
220
0
230
1
0
LINE
5
5D
100
AcDbEntity
8
1
62
256
6
ByLayer
370
-1
48
1
60
0
100
AcDbLine
10
25.044915
20
-3.85206
30
0
11
25.065519
21
-3.753002
31
0
39
0
210
0
220
0
230
1
0
LINE
5
5E
100
AcDbEntity
8
1
62
256
6
ByLayer
370
-1
48
1
60
0
100
AcDbLine
10
23.944855
20
-6.750353
30
0
11
21.322173
21
-5.769773
31
0
39
0
210
0
220
0
230
1
0
LINE
5
5F
100
AcDbEntity
8
1
62
256
6
ByLayer
370
-1
48
1
60
0
100
AcDbLine
10
19.875732
20
0.021596
30
0
11
21.387715
21
-0.501765
31
0
39
0
210
0
220
0
230
1
0
LINE
5
60
100
AcDbEntity
8
1
62
256
6
ByLayer
370
-1
48
1
60
0
100
AcDbLine
10
25.065519
20
-3.753002
30
0
11
25.173503
21
-3.758661
31
0
39
0
210
0
220
0
230
1
0
LINE
5
61
100
AcDbEntity
8
1
62
256
6
ByLayer
370
-1
48
1
60
0
100
AcDbLine
10
4.268329
20
-5.006598
30
0
11
4.268329
21
8.705174
31
0
39
0
210
0
220
0
230
1
0
LINE
5
62
100
AcDbEntity
8
1
62
256
6
ByLayer
370
-1
48
1
60
0
100
AcDbLine
10
11.439846
20
5.447495
30
0
11
19.02548
21
2.001704
31
0
39
0
210
0
220
0
230
1
0
LINE
5
63
100
AcDbEntity
8
1
62
256
6
ByLayer
370
-1
48
1
60
0
100
AcDbLine
10
15.136937
20
-9.520093
30
0
11
0.754627
21
-5.736728
31
0
39
0
210
0
220
0
230
1
0
LINE
5
64
100
AcDbEntity
8
1
62
256
6
ByLayer
370
-1
48
1
60
0
100
AcDbLine
10
27.343077
20
-11.576374
30
0
11
28.090062
21
-9.578472
31
0
39
0
210
0
220
0
230
1
0
LINE
5
65
100
AcDbEntity
8
1
62
256
6
ByLayer
370
-1
48
1
60
0
100
AcDbLine
10
30.049359
20
-4.338094
30
0
11
30.796344
21
-2.340193
31
0
39
0
210
0
220
0
230
1
0
LINE
5
66
100
AcDbEntity
8
1
62
256
6
ByLayer
370
-1
48
1
60
0
100
AcDbLine
10
15.54398
20
-7.972735
30
0
11
15.136937
21
-9.520093
31
0
39
0
210
0
220
0
230
1
0
LINE
5
67
100
AcDbEntity
8
1
62
256
6
ByLayer
370
-1
48
1
60
0
100
AcDbLine
10
1.444896
20
-4.263874
30
0
11
4.268329
21
-5.006598
31
0
39
0
210
0
220
0
230
1
0
LINE
5
68
100
AcDbEntity
8
1
62
256
6
ByLayer
370
-1
48
1
60
0
100
AcDbLine
10
0
20
-12.4625
30
0
11
0
21
12.4625
31
0
39
0
210
0
220
0
230
1
0
LINE
5
69
100
AcDbEntity
8
1
62
256
6
ByLayer
370
-1
48
1
60
0
100
AcDbLine
10
20.351738
20
-3.805528
30
0
11
20.42178
21
-3.618193
31
0
39
0
210
0
220
0
230
1
0
LINE
5
6A
100
AcDbEntity
8
1
62
256
6
ByLayer
370
-1
48
1
60
0
100
AcDbLine
10
11.439846
20
5.447495
30
0
11
4.268329
21
8.705174
31
0
39
0
210
0
220
0
230
1
0
LINE
5
6B
100
AcDbEntity
8
1
62
256
6
ByLayer
370
-1
48
1
60
0
100
AcDbLine
10
11.439846
20
5.447495
30
0
11
7.410634
21
-5.833203
31
0
39
0
210
0
220
0
230
1
0
LINE
5
6C
100
AcDbEntity
8
1
62
256
6
ByLayer
370
-1
48
1
60
0
100
AcDbLine
10
19.875732
20
0.021596
30
0
11
17.463006
21
-6.948739
31
0
39
0
210
0
220
0
230
1
0
LINE
5
6D
100
AcDbEntity
8
1
62
256
6
ByLayer
370
-1
48
1
60
0
100
AcDbLine
10
21.387715
20
-0.501765
30
0
11
18.974989
21
-7.4721
31
0
39
0
210
0
220
0
230
1
0
LINE
5
6E
100
AcDbEntity
8
1
62
256
6
ByLayer
370
-1
48
1
60
0
100
AcDbLine
10
0.754627
20
12.058621
30
0
11
0.754627
21
12.4625
31
0
39
0
210
0
220
0
230
1
0
LINE
5
6F
100
AcDbEntity
8
1
62
256
6
ByLayer
370
-1
48
1
60
0
100
AcDbLine
10
29.363965
20
-11.682284
30
0
11
29.684737
21
-10.82434
31
0
39
0
210
0
220
0
230
1
0
LINE
5
70
100
AcDbEntity
8
1
62
256
6
ByLayer
370
-1
48
1
60
0
100
AcDbLine
10
32.070238
20
-4.444027
30
0
11
32.391011
21
-3.586083
31
0
39
0
210
0
220
0
230
1
0
LINE
5
71
100
AcDbEntity
8
1
62
256
6
ByLayer
370
-1
48
1
60
0
100
AcDbLine
10
24.030065
20
-6.816926
30
0
11
23.944855
21
-6.750353
31
0
39
0
210
0
220
0
230
1
0
LINE
5
72
100
AcDbEntity
8
1
62
256
6
ByLayer
370
-1
48
1
60
0
100
AcDbLine
10
26.855121
20
0.739028
30
0
11
25.173503
21
-3.758661
31
0
39
0
210
0
220
0
230
1
0
LINE
5
73
100
AcDbEntity
8
1
62
256
6
ByLayer
370
-1
48
1
60
0
100
AcDbLine
10
25.765038
20
-3.8898
30
0
11
25.697049
21
-3.786099
31
0
39
0
210
0
220
0
230
1
0
LINE
5
74
100
AcDbEntity
8
1
62
256
6
ByLayer
370
-1
48
1
60
0
100
AcDbLine
10
22.02242
20
4.514748
30
0
11
6.085897
21
12.4625
31
0
39
0
210
0
220
0
230
1
0
LINE
5
75
100
AcDbEntity
8
1
62
256
6
ByLayer
370
-1
48
1
60
0
100
AcDbLine
10
4.268329
20
8.705174
30
0
11
1.444896
21
9.987725
31
0
39
0
210
0
220
0
230
1
0
LINE
5
76
100
AcDbEntity
8
1
62
256
6
ByLayer
370
-1
48
1
60
0
100
AcDbLine
10
25.044915
20
-3.85206
30
0
11
22.407816
21
-2.866089
31
0
39
0
210
0
220
0
230
1
0
LINE
5
77
100
AcDbEntity
8
1
62
256
6
ByLayer
370
-1
48
1
60
0
100
AcDbLine
10
22.407816
20
-2.866089
30
0
11
22.442837
21
-2.772422
31
0
39
0
210
0
220
0
230
1
0
LINE
5
78
100
AcDbEntity
8
1
62
256
6
ByLayer
370
-1
48
1
60
0
100
AcDbLine
10
30.337761
20
-11.733318
30
0
11
30.453143
21
-11.424715
31
0
39
0
210
0
220
0
230
1
0
LINE
5
79
100
AcDbEntity
8
1
62
256
6
ByLayer
370
-1
48
1
60
0
100
AcDbLine
10
30.604067
20
-2.18997
30
0
11
30.796344
21
-2.340193
31
0
39
0
210
0
220
0
230
1
0
LINE
5
7A
100
AcDbEntity
8
1
62
256
6
ByLayer
370
-1
48
1
60
0
100
AcDbLine
10
22.976703
20
-11.347542
30
0
11
22.871994
21
-11.342054
31
0
39
0
210
0
220
0
230
1
0
LINE
5
7B
100
AcDbEntity
8
1
62
256
6
ByLayer
370
-1
48
1
60
0
100
AcDbLine
10
27.268247
20
0.416259
30
0
11
27.350872
21
0.351705
31
0
39
0
210
0
220
0
230
1
0
LINE
5
7C
100
AcDbEntity
8
1
62
256
6
ByLayer
370
-1
48
1
60
0
100
AcDbLine
10
33.591133
20
-4.523721
30
0
11
33.366013
21
-4.347838
31
0
39
0
210
0
220
0
230
1
0
LINE
5
7D
100
AcDbEntity
8
1
62
256
6
ByLayer
370
-1
48
1
60
0
100
AcDbLine
10
0.754627
20
12.4625
30
0
11
0
21
12.4625
31
0
39
0
210
0
220
0
230
1
0
LINE
5
7E
100
AcDbEntity
8
1
62
256
6
ByLayer
370
-1
48
1
60
0
100
AcDbLine
10
30.599565
20
-11.747039
30
0
11
30.659733
21
-11.586111
31
0
39
0
210
0
220
0
230
1
0
LINE
5
7F
100
AcDbEntity
8
1
62
256
6
ByLayer
370
-1
48
1
60
0
100
AcDbLine
10
0.754627
20
12.058621
30
0
11
19.687211
21
3.458451
31
0
39
0
210
0
220
0
230
1
0
LINE
5
80
100
AcDbEntity
8
1
62
256
6
ByLayer
370
-1
48
1
60
0
100
AcDbLine
10
33.305844
20
-4.508766
30
0
11
33.366013
21
-4.347838
31
0
39
0
210
0
220
0
230
1
0
LINE
5
81
100
AcDbEntity
8
1
62
256
6
ByLayer
370
-1
48
1
60
0
100
AcDbLine
10
33.044043
20
-4.495038
30
0
11
33.159425
21
-4.186434
31
0
39
0
210
0
220
0
230
1
0
LINE
5
82
100
AcDbEntity
8
1
62
256
6
ByLayer
370
-1
48
1
60
0
100
AcDbLine
10
32.391011
20
-3.586083
30
0
11
33.159425
21
-4.186434
31
0
39
0
210
0
220
0
230
1
0
LINE
5
83
100
AcDbEntity
8
1
62
256
6
ByLayer
370
-1
48
1
60
0
100
AcDbLine
10
22.976703
20
-11.347542
30
0
11
27.099409
21
-11.563604
31
0
39
0
210
0
220
0
230
1
0
LINE
5
84
100
AcDbEntity
8
1
62
256
6
ByLayer
370
-1
48
1
60
0
100
AcDbLine
10
24.562536
20
-7.106037
30
0
11
24.443191
21
-7.139696
31
0
39
0
210
0
220
0
230
1
0
LINE
5
85
100
AcDbEntity
8
1
62
256
6
ByLayer
370
-1
48
1
60
0
100
AcDbLine
10
20.514334
20
-3.656192
30
0
11
20.446519
21
-3.837571
31
0
39
0
210
0
220
0
230
1
0
LINE
5
86
100
AcDbEntity
8
1
62
256
6
ByLayer
370
-1
48
1
60
0
100
AcDbLine
10
33.159425
20
-4.186434
30
0
11
33.366013
21
-4.347838
31
0
39
0
210
0
220
0
230
1
0
LINE
5
87
100
AcDbEntity
8
1
62
256
6
ByLayer
370
-1
48
1
60
0
100
AcDbLine
10
22.143753
20
-11.303889
30
0
11
22.348448
21
-11.314616
31
0
39
0
210
0
220
0
230
1
0
LINE
5
88
100
AcDbEntity
8
1
62
256
6
ByLayer
370
-1
48
1
60
0
100
AcDbLine
10
22.348448
20
-11.314616
30
0
11
22.871994
21
-11.342054
31
0
39
0
210
0
220
0
230
1
0
LINE
5
89
100
AcDbEntity
8
1
62
256
6
ByLayer
370
-1
48
1
60
0
100
AcDbLine
10
28.316873
20
-11.627408
30
0
11
28.858508
21
-10.178738
31
0
39
0
210
0
220
0
230
1
0
LINE
5
8A
100
AcDbEntity
8
1
62
256
6
ByLayer
370
-1
48
1
60
0
100
AcDbLine
10
31.023123
20
-4.389214
30
0
11
31.564758
21
-2.940544
31
0
39
0
210
0
220
0
230
1
0
LINE
5
8B
100
AcDbEntity
8
1
62
256
6
ByLayer
370
-1
48
1
60
0
100
AcDbLine
10
27.268247
20
0.416259
30
0
11
26.855121
21
0.739028
31
0
39
0
210
0
220
0
230
1
0
LINE
5
8C
100
AcDbEntity
8
1
62
256
6
ByLayer
370
-1
48
1
60
0
100
AcDbLine
10
30.599565
20
-11.747039
30
0
11
30.884855
21
-11.76199
31
0
39
0
210
0
220
0
230
1
0
LINE
5
8D
100
AcDbEntity
8
1
62
256
6
ByLayer
370
-1
48
1
60
0
100
AcDbLine
10
27.268247
20
0.416259
30
0
11
25.697049
21
-3.786099
31
0
39
0
210
0
220
0
230
1
0
LINE
5
8E
100
AcDbEntity
8
1
62
256
6
ByLayer
370
-1
48
1
60
0
100
AcDbLine
10
30.604067
20
-2.18997
30
0
11
27.350872
21
0.351705
31
0
39
0
210
0
220
0
230
1
0
LINE
5
8F
100
AcDbEntity
8
1
62
256
6
ByLayer
370
-1
48
1
60
0
100
AcDbLine
10
27.099409
20
-11.563604
30
0
11
27.897814
21
-9.428173
31
0
39
0
210
0
220
0
230
1
0
LINE
5
90
100
AcDbEntity
8
1
62
256
6
ByLayer
370
-1
48
1
60
0
100
AcDbLine
10
29.805662
20
-4.325401
30
0
11
30.604067
21
-2.18997
31
0
39
0
210
0
220
0
230
1
0
LINE
5
91
100
AcDbEntity
8
1
62
256
6
ByLayer
370
-1
48
1
60
0
100
AcDbLine
10
26.855121
20
0.739028
30
0
11
22.02242
21
4.514748
31
0
39
0
210
0
220
0
230
1
0
LINE
5
92
100
AcDbEntity
8
1
62
256
6
ByLayer
370
-1
48
1
60
0
100
AcDbLine
10
24.562536
20
-7.106037
30
0
11
22.976703
21
-11.347542
31
0
39
0
210
0
220
0
230
1
0
LINE
5
93
100
AcDbEntity
8
1
62
256
6
ByLayer
370
-1
48
1
60
0
100
AcDbLine
10
24.443191
20
-7.139696
30
0
11
22.871994
21
-11.342054
31
0
39
0
210
0
220
0
230
1
0
LINE
5
94
100
AcDbEntity
8
1
62
256
6
ByLayer
370
-1
48
1
60
0
100
AcDbLine
10
0.754627
20
12.4625
30
0
11
6.085897
21
12.4625
31
0
39
0
210
0
220
0
230
1
0
LINE
5
95
100
AcDbEntity
8
1
62
256
6
ByLayer
370
-1
48
1
60
0
100
AcDbLine
10
23.994293
20
-6.662076
30
0
11
24.562536
21
-7.106037
31
0
39
0
210
0
220
0
230
1
0
LINE
5
96
100
AcDbEntity
8
1
62
256
6
ByLayer
370
-1
48
1
60
0
100
AcDbLine
10
0.754627
20
-12.4625
30
0
11
0
21
-12.4625
31
0
39
0
210
0
220
0
230
1
0
LINE
5
97
100
AcDbEntity
8
1
62
256
6
ByLayer
370
-1
48
1
60
0
100
AcDbLine
10
27.350872
20
0.351705
30
0
11
25.765038
21
-3.8898
31
0
39
0
210
0
220
0
230
1
0
LINE
5
98
100
AcDbEntity
8
1
62
256
6
ByLayer
370
-1
48
1
60
0
100
AcDbLine
10
28.316873
20
-11.627408
30
0
11
27.343077
21
-11.576374
31
0
39
0
210
0
220
0
230
1
0
LINE
5
99
100
AcDbEntity
8
SK1
62
256
6
ByLayer
370
-1
48
1
60
0
100
AcDbLine
10
-2.786205
20
12.4625
30
0
11
-2.786205
21
-12.4625
31
0
39
0
210
0
220
0
230
1
0
LINE
5
9B
100
AcDbEntity
8
SK1
62
256
6
ByLayer
370
-1
48
1
60
0
100
AcDbLine
10
-81
20
12.4625
30
0
11
-84
21
9.4625
31
0
39
0
210
0
220
0
230
1
0
LINE
5
9C
100
AcDbEntity
8
SK1
62
256
6
ByLayer
370
-1
48
1
60
0
100
AcDbLine
10
-84
20
-9.4625
30
0
11
-84
21
9.4625
31
0
39
0
210
0
220
0
230
1
0
LINE
5
9D
100
AcDbEntity
8
SK1
62
256
6
ByLayer
370
-1
48
1
60
0
100
AcDbLine
10
-81
20
12.4625
30
0
11
-2.786205
21
12.4625
31
0
39
0
210
0
220
0
230
1
0
LINE
5
9E
100
AcDbEntity
8
SK1
62
256
6
ByLayer
370
-1
48
1
60
0
100
AcDbLine
10
0
20
-12.4625
30
0
11
0
21
12.4625
31
0
39
0
210
0
220
0
230
1
0
LINE
5
9F
100
AcDbEntity
8
SK1
62
256
6
ByLayer
370
-1
48
1
60
0
100
AcDbLine
10
0
20
12.4625
30
0
11
-2.786205
21
12.4625
31
0
39
0
210
0
220
0
230
1
0
LINE
5
A0
100
AcDbEntity
8
SK1
62
256
6
ByLayer
370
-1
48
1
60
0
100
AcDbLine
10
0
20
-12.4625
30
0
11
-2.786205
21
-12.4625
31
0
39
0
210
0
220
0
230
1
0
LINE
5
A1
100
AcDbEntity
8
SK1
62
256
6
ByLayer
370
-1
48
1
60
0
100
AcDbLine
10
-81
20
-12.4625
30
0
11
-84
21
-9.4625
31
0
39
0
210
0
220
0
230
1
0
LINE
5
A2
100
AcDbEntity
8
SK1
62
256
6
ByLayer
370
-1
48
1
60
0
100
AcDbLine
10
-81
20
-12.4625
30
0
11
-2.786205
21
-12.4625
31
0
39
0
210
0
220
0
230
1
0
LINE
5
A3
100
AcDbEntity
8
1
62
256
6
ByLayer
370
-1
48
1
60
0
100
AcDbLine
10
43.304432
20
-13.043738
30
0
11
32.123937
21
-12.457793
31
0
39
0
210
0
220
0
230
1
0
LINE
5
A4
100
AcDbEntity
8
1
62
256
6
ByLayer
370
-1
48
1
60
0
100
AcDbLine
10
22.642228
20
-5.30686
30
0
11
22.633128
21
-5.315053
31
0
39
0
210
0
220
0
230
1
0
LINE
5
A5
100
AcDbEntity
8
1
62
256
6
ByLayer
370
-1
48
1
60
0
100
AcDbLine
10
43.30294
20
-13.031583
30
0
11
43.304432
21
-13.043738
31
0
39
0
210
0
220
0
230
1
0
LINE
5
A6
100
AcDbEntity
8
1
62
256
6
ByLayer
370
-1
48
1
60
0
100
AcDbLine
10
23.135397
20
-3.987821
30
0
11
23.133904
21
-3.975666
31
0
39
0
210
0
220
0
230
1
0
LINE
5
A7
100
AcDbEntity
8
1
62
256
6
ByLayer
370
-1
48
1
60
0
100
AcDbLine
10
23.133904
20
-3.975666
30
0
11
34.3144
21
-4.561611
31
0
39
0
210
0
220
0
230
1
0
LINE
5
A8
100
AcDbEntity
8
1
62
256
6
ByLayer
370
-1
48
1
60
0
100
AcDbLine
10
34.982767
20
-4.811504
30
0
11
43.805209
21
-11.70435
31
0
39
0
210
0
220
0
230
1
0
LINE
5
A9
100
AcDbEntity
8
1
62
256
6
ByLayer
370
-1
48
1
60
0
100
AcDbLine
10
31.455569
20
-12.2079
30
0
11
22.633128
21
-5.315053
31
0
39
0
210
0
220
0
230
1
0
LINE
5
AA
100
AcDbEntity
8
1
62
256
6
ByLayer
370
-1
48
1
60
0
100
AcDbLine
10
43.796108
20
-11.712544
30
0
11
43.805209
21
-11.70435
31
0
39
0
210
0
220
0
230
1
0
MTEXT
5
ED
100
AcDbEntity
8
SK6
62
256
6
ByLayer
370
-1
48
1
60
0
100
AcDbMText
10
-83.449979
20
23.367166
30
0
210
0
220
0
230
1
1
\W00.787;\fsimplex.shx,bigfont.shx;QS-TR-V13JBL2525HP 
40
3.5
41
0
44
1.084337
50
0
71
7
72
5
7
DEFAULT
0
DIMENSION
5
121
100
AcDbEntity
8
SK2
62
256
6
ByLayer
370
-3
48
1
60
0
100
AcDbDimension
2
DimnDraft3D1
10
-93.10005
20
12.4625
30
0
11
-93.10005
21
0
31
0
70
32
71
5
72
1
41
1
210
0
220
0
230
1
3
Standard
100
AcDbAlignedDimension
13
-85.5875
23
-12.4625
33
0
14
-85.5875
24
12.4625
34
0
50
90
100
AcDbRotatedDimension
1001
ACAD
1000
DSTYLE
1002
{
1070
    74
1070
     0
1070
   279
1070
     0
1070
   172
1070
     1
1070
   173
1070
     1
1070
   340
1005
EE
1070
   271
1070
     1
1070
   272
1070
     2
1070
    77
1070
     1
1070
    73
1070
     0
1070
   171
1070
     3
1070
   274
1070
     4
1070
   177
1070
   150
1070
   176
1070
     9
1070
   178
1070
    43
1070
    78
1070
     8
1070
    48
1040
-0.005
1070
    41
1041
3.175
1070
   147
1041
2.25
1070
    42
1041
1.5875
1070
    44
1041
3.175
1070
   140
1041
4.5
1070
   343
1005
122
1070
   344
1005
122
1002
}
0
DIMENSION
5
136
100
AcDbEntity
8
SK2
62
256
6
ByLayer
370
-3
48
1
60
0
100
AcDbDimension
2
DimnDraft3D2
10
44
20
-42.5375
30
0
11
-20
21
-42.5375
31
0
70
32
71
5
72
1
41
1
210
0
220
0
230
1
3
Standard
100
AcDbAlignedDimension
13
-84
23
-14.05
33
0
14
44
24
-14.625
34
0
50
0
100
AcDbRotatedDimension
1001
ACAD
1000
DSTYLE
1002
{
1070
   279
1070
     0
1070
   172
1070
     1
1070
   173
1070
     1
1070
   340
1005
EE
1070
   271
1070
     1
1070
   272
1070
     2
1070
    77
1070
     1
1070
    73
1070
     0
1070
   171
1070
     3
1070
   274
1070
     4
1070
   177
1070
   150
1070
   176
1070
     9
1070
   178
1070
    43
1070
    78
1070
     8
1070
    48
1040
-0.005
1070
    41
1041
3.175
1070
   147
1041
2.25
1070
    42
1041
1.5875
1070
    44
1041
3.175
1070
   140
1041
4.5
1070
   343
1005
122
1070
   344
1005
122
1002
}
0
DIMENSION
5
145
100
AcDbEntity
8
2
62
256
6
ByLayer
370
-3
48
1
60
0
100
AcDbDimension
2
DimnDraft3D3
10
0
20
19.31255
30
0
11
22
21
19.31255
31
0
70
32
71
5
72
1
41
1
210
0
220
0
230
1
3
Standard
100
AcDbAlignedDimension
13
44
23
-11.45
33
0
14
0
24
14.05
34
0
50
0
100
AcDbRotatedDimension
1001
ACAD
1000
DSTYLE
1002
{
1070
   279
1070
     0
1070
   172
1070
     1
1070
   173
1070
     1
1070
   340
1005
EE
1070
   271
1070
     1
1070
   272
1070
     2
1070
    77
1070
     1
1070
    73
1070
     0
1070
   171
1070
     3
1070
   274
1070
     4
1070
   177
1070
   150
1070
   176
1070
     9
1070
   178
1070
    43
1070
    78
1070
     8
1070
    48
1040
-0.005
1070
    41
1041
3.175
1070
   147
1041
2.25
1070
    42
1041
1.5875
1070
    44
1041
3.175
1070
   140
1041
4.5
1070
   343
1005
122
1070
   344
1005
122
1002
}
0
DIMENSION
5
153
100
AcDbEntity
8
2
62
256
6
ByLayer
370
-3
48
1
60
0
100
AcDbDimension
2
DimnDraft3D4
10
44
20
-37.695593
30
0
11
26.52569
21
-22.54477
31
0
70
34
71
5
72
1
41
1
210
0
220
0
230
1
3
Standard
100
AcDb2LineAngularDimension
13
28.597147
23
-12.272961
33
0
14
19.418332
24
-11.79192
34
0
15
44
25
-14.625
35
0
16
31.711866
26
-24.741194
36
0
40
0
0
DIMENSION
5
161
100
AcDbEntity
8
2
62
256
6
ByLayer
370
-3
48
1
60
0
100
AcDbDimension
2
DimnDraft3D5
10
64.85
20
12.4625
30
0
11
64.85
21
-0.2875
31
0
70
32
71
5
72
1
41
1
210
0
220
0
230
1
3
Standard
100
AcDbAlignedDimension
13
45.5875
23
-13.0375
33
0
14
1.5875
24
12.4625
34
0
50
90
100
AcDbRotatedDimension
1001
ACAD
1000
DSTYLE
1002
{
1070
    74
1070
     0
1070
   279
1070
     0
1070
   172
1070
     1
1070
   173
1070
     1
1070
   340
1005
EE
1070
   271
1070
     1
1070
   272
1070
     2
1070
    77
1070
     1
1070
    73
1070
     0
1070
   171
1070
     3
1070
   274
1070
     4
1070
   177
1070
   150
1070
   176
1070
     9
1070
   178
1070
    43
1070
    78
1070
     8
1070
    48
1040
-0.005
1070
    41
1041
3.175
1070
   147
1041
2.25
1070
    42
1041
1.5875
1070
    44
1041
3.175
1070
   140
1041
4.5
1070
   343
1005
122
1070
   344
1005
122
1002
}
0
ENDSEC
0
SECTION
2
OBJECTS
0
DICTIONARY
5
191
330
0
100
AcDbDictionary
280
0
281
1
3
ACAD_GROUP
350
192
3
ACAD_MLINESTYLE
350
193
0
DICTIONARY
5
192
330
0
100
AcDbDictionary
280
0
281
1
0
DICTIONARY
5
193
330
0
100
AcDbDictionary
280
0
281
1
3
Standard
350
18
0
MLINESTYLE
5
18
330
193
100
AcDbMlineStyle
2
Standard
70
0
3

62
256
51
90
52
90
71
2
49
-0.5
62
256
6
ByLayer
49
0.5
62
256
6
ByLayer
0
RASTERVARIABLES
5
180
330

100
AcDbRasterVariables
90
0
70
1
71
1
72
1
0
ENDSEC
0
EOF
